  0
SECTION
  2
HEADER
  9
$ACADVER
  1
AC1015
  9
$ACADMAINTVER
 70
     6
  9
$DWGCODEPAGE
  3
ANSI_1250
  9
$INSBASE
 10
0.0
 20
0.0
 30
0.0
  9
$EXTMIN
 10
0.0
 20
0.0
 30
0.0
  9
$EXTMAX
 10
297.0
 20
210.0
 30
0.0
  9
$LIMMIN
 10
0.0
 20
0.0
  9
$LIMMAX
 10
297.0
 20
210.0
  9
$ORTHOMODE
 70
     0
  9
$REGENMODE
 70
     1
  9
$FILLMODE
 70
     1
  9
$QTEXTMODE
 70
     0
  9
$MIRRTEXT
 70
     1
  9
$LTSCALE
 40
1.0
  9
$ATTMODE
 70
     1
  9
$TEXTSIZE
 40
3.5
  9
$TRACEWID
 40
1.0
  9
$TEXTSTYLE
  7
Standard
  9
$CLAYER
  8
0
  9
$CELTYPE
  6
ByLayer
  9
$CECOLOR
 62
   256
  9
$CELTSCALE
 40
1.0
  9
$DISPSILH
 70
     0
  9
$DIMSCALE
 40
1.0
  9
$DIMASZ
 40
3.302
  9
$DIMEXO
 40
1.0
  9
$DIMDLI
 40
3.75
  9
$DIMRND
 40
0.0
  9
$DIMDLE
 40
0.0
  9
$DIMEXE
 40
1.0
  9
$DIMTP
 40
0.0
  9
$DIMTM
 40
0.0
  9
$DIMTXT
 40
3.5
  9
$DIMCEN
 40
2.5
  9
$DIMTSZ
 40
0.0
  9
$DIMTOL
 70
     0
  9
$DIMLIM
 70
     0
  9
$DIMTIH
 70
     1
  9
$DIMTOH
 70
     1
  9
$DIMSE1
 70
     0
  9
$DIMSE2
 70
     0
  9
$DIMTAD
 70
     1
  9
$DIMZIN
 70
     0
  9
$DIMBLK
  1

  9
$DIMASO
 70
     1
  9
$DIMSHO
 70
     1
  9
$DIMPOST
  1

  9
$DIMAPOST
  1

  9
$DIMALT
 70
     0
  9
$DIMALTD
 70
     3
  9
$DIMALTF
 40
0.0393700787
  9
$DIMLFAC
 40
1.0
  9
$DIMTOFL
 70
     1
  9
$DIMTVP
 40
0.0
  9
$DIMTIX
 70
     0
  9
$DIMSOXD
 70
     0
  9
$DIMSAH
 70
     0
  9
$DIMBLK1
  1

  9
$DIMBLK2
  1

  9
$DIMSTYLE
  2
ISO-25
  9
$DIMCLRD
 70
     0
  9
$DIMCLRE
 70
     0
  9
$DIMCLRT
 70
     0
  9
$DIMTFAC
 40
1.0
  9
$DIMGAP
 40
1.524
  9
$DIMJUST
 70
     0
  9
$DIMSD1
 70
     0
  9
$DIMSD2
 70
     0
  9
$DIMTOLJ
 70
     0
  9
$DIMTZIN
 70
     0
  9
$DIMALTZ
 70
     0
  9
$DIMALTTZ
 70
     0
  9
$DIMUPT
 70
     0
  9
$DIMDEC
 70
     2
  9
$DIMTDEC
 70
     2
  9
$DIMALTU
 70
     2
  9
$DIMALTTD
 70
     3
  9
$DIMTXSTY
  7
Standard
  9
$DIMAUNIT
 70
     0
  9
$DIMADEC
 70
     2
  9
$DIMALTRND
 40
0.0
  9
$DIMAZIN
 70
     0
  9
$DIMDSEP
 70
    44
  9
$DIMATFIT
 70
     3
  9
$DIMFRAC
 70
     0
  9
$DIMLDRBLK
  1

  9
$DIMLUNIT
 70
     2
  9
$DIMLWD
 70
    -2
  9
$DIMLWE
 70
    -2
  9
$DIMTMOVE
 70
     0
  9
$LUNITS
 70
     2
  9
$LUPREC
 70
     2
  9
$SKETCHINC
 40
1.0
  9
$FILLETRAD
 40
10.0
  9
$AUNITS
 70
     0
  9
$AUPREC
 70
     2
  9
$MENU
  1
.
  9
$ELEVATION
 40
0.0
  9
$PELEVATION
 40
0.0
  9
$THICKNESS
 40
0.0
  9
$LIMCHECK
 70
     0
  9
$CHAMFERA
 40
0.0
  9
$CHAMFERB
 40
0.0
  9
$CHAMFERC
 40
0.0
  9
$CHAMFERD
 40
0.0
  9
$SKPOLY
 70
     0
  9
$TDCREATE
 40
2459290.477821389
  9
$TDUCREATE
 40
2459290.436154722
  9
$TDUPDATE
 40
2459290.477822546
  9
$TDUUPDATE
 40
2459290.436155879
  9
$TDINDWG
 40
0.0000000116
  9
$TDUSRTIMER
 40
0.0000000116
  9
$USRTIMER
 70
     1
  9
$ANGBASE
 50
0.0
  9
$ANGDIR
 70
     0
  9
$PDMODE
 70
     0
  9
$PDSIZE
 40
-1.0
  9
$PLINEWID
 40
0.0
  9
$SPLFRAME
 70
     0
  9
$SPLINETYPE
 70
     6
  9
$SPLINESEGS
 70
     8
  9
$HANDSEED
  5
2EA
  9
$SURFTAB1
 70
     6
  9
$SURFTAB2
 70
     6
  9
$SURFTYPE
 70
     6
  9
$SURFU
 70
     6
  9
$SURFV
 70
     6
  9
$UCSBASE
  2

  9
$UCSNAME
  2

  9
$UCSORG
 10
0.0
 20
0.0
 30
0.0
  9
$UCSXDIR
 10
1.0
 20
0.0
 30
0.0
  9
$UCSYDIR
 10
0.0
 20
1.0
 30
0.0
  9
$UCSORTHOREF
  2

  9
$UCSORTHOVIEW
 70
     0
  9
$UCSORGTOP
 10
0.0
 20
0.0
 30
0.0
  9
$UCSORGBOTTOM
 10
0.0
 20
0.0
 30
0.0
  9
$UCSORGLEFT
 10
0.0
 20
0.0
 30
0.0
  9
$UCSORGRIGHT
 10
0.0
 20
0.0
 30
0.0
  9
$UCSORGFRONT
 10
0.0
 20
0.0
 30
0.0
  9
$UCSORGBACK
 10
0.0
 20
0.0
 30
0.0
  9
$PUCSBASE
  2

  9
$PUCSNAME
  2

  9
$PUCSORG
 10
0.0
 20
0.0
 30
0.0
  9
$PUCSXDIR
 10
1.0
 20
0.0
 30
0.0
  9
$PUCSYDIR
 10
0.0
 20
1.0
 30
0.0
  9
$PUCSORTHOREF
  2

  9
$PUCSORTHOVIEW
 70
     0
  9
$PUCSORGTOP
 10
0.0
 20
0.0
 30
0.0
  9
$PUCSORGBOTTOM
 10
0.0
 20
0.0
 30
0.0
  9
$PUCSORGLEFT
 10
0.0
 20
0.0
 30
0.0
  9
$PUCSORGRIGHT
 10
0.0
 20
0.0
 30
0.0
  9
$PUCSORGFRONT
 10
0.0
 20
0.0
 30
0.0
  9
$PUCSORGBACK
 10
0.0
 20
0.0
 30
0.0
  9
$USERI1
 70
     0
  9
$USERI2
 70
     0
  9
$USERI3
 70
     0
  9
$USERI4
 70
     0
  9
$USERI5
 70
     0
  9
$USERR1
 40
0.0
  9
$USERR2
 40
0.0
  9
$USERR3
 40
0.0
  9
$USERR4
 40
0.0
  9
$USERR5
 40
0.0
  9
$WORLDVIEW
 70
     1
  9
$SHADEDGE
 70
     3
  9
$SHADEDIF
 70
    70
  9
$TILEMODE
 70
     1
  9
$MAXACTVP
 70
    64
  9
$PINSBASE
 10
0.0
 20
0.0
 30
0.0
  9
$PLIMCHECK
 70
     0
  9
$PEXTMIN
 10
1.0000000000E+20
 20
1.0000000000E+20
 30
1.0000000000E+20
  9
$PEXTMAX
 10
-1.0000000000E+20
 20
-1.0000000000E+20
 30
-1.0000000000E+20
  9
$PLIMMIN
 10
0.0
 20
0.0
  9
$PLIMMAX
 10
420.0
 20
297.0
  9
$UNITMODE
 70
     0
  9
$VISRETAIN
 70
     1
  9
$PLINEGEN
 70
     0
  9
$PSLTSCALE
 70
     1
  9
$TREEDEPTH
 70
  3020
  9
$CMLSTYLE
  2
Standard
  9
$CMLJUST
 70
     0
  9
$CMLSCALE
 40
20.0
  9
$PROXYGRAPHICS
 70
     1
  9
$MEASUREMENT
 70
     1
  9
$CELWEIGHT
370
    -1
  9
$ENDCAPS
280
     0
  9
$JOINSTYLE
280
     0
  9
$LWDISPLAY
290
     1
  9
$INSUNITS
 70
     4
  9
$HYPERLINKBASE
  1

  9
$STYLESHEET
  1

  9
$XEDIT
290
     1
  9
$CEPSNTYPE
380
     0
  9
$PSTYLEMODE
290
     1
  9
$FINGERPRINTGUID
  2
{A2E7AF0D-0B97-4652-896A-291E71D95B0D}
  9
$VERSIONGUID
  2
{FAEB1C32-E019-11D5-929B-00C0DF256EC4}
  9
$EXTNAMES
290
     1
  9
$PSVPSCALE
 40
0.0
  9
$OLESTARTUP
290
     0
  0
ENDSEC
  0
SECTION
  2
CLASSES
  0
CLASS
  1
ACDBDICTIONARYWDFLT
  2
AcDbDictionaryWithDefault
  3
ObjectDBX Classes
 90
        0
280
     0
281
     0
  0
CLASS
  1
VISUALSTYLE
  2
AcDbVisualStyle
  3
ObjectDBX Classes
 90
     4095
280
     0
281
     0
  0
CLASS
  1
MATERIAL
  2
AcDbMaterial
  3
ObjectDBX Classes
 90
     1153
280
     0
281
     0
  0
CLASS
  1
SCALE
  2
AcDbScale
  3
ObjectDBX Classes
 90
     1153
280
     0
281
     0
  0
CLASS
  1
TABLESTYLE
  2
AcDbTableStyle
  3
ObjectDBX Classes
 90
     4095
280
     0
281
     0
  0
CLASS
  1
MLEADERSTYLE
  2
AcDbMLeaderStyle
  3
ACDB_MLEADERSTYLE_CLASS
 90
     4095
280
     0
281
     0
  0
CLASS
  1
SUN
  2
AcDbSun
  3
SCENEOE
 90
     1153
280
     0
281
     0
  0
CLASS
  1
ACDBPLACEHOLDER
  2
AcDbPlaceHolder
  3
ObjectDBX Classes
 90
        0
280
     0
281
     0
  0
CLASS
  1
LAYOUT
  2
AcDbLayout
  3
ObjectDBX Classes
 90
        0
280
     0
281
     0
  0
ENDSEC
  0
SECTION
  2
TABLES
  0
TABLE
  2
VPORT
  5
8
330
0
100
AcDbSymbolTable
 70
     1
  0
VPORT
  5
29
330
8
100
AcDbSymbolTableRecord
100
AcDbViewportTableRecord
  2
*Active
 70
     0
 10
0.0
 20
0.0
 11
1.0
 21
1.0
 12
148.5
 22
105.0
 13
0.0
 23
0.0
 14
10.0
 24
10.0
 15
10.0
 25
10.0
 16
0.0
 26
0.0
 36
1.0
 17
0.0
 27
0.0
 37
0.0
 40
210.0
 41
1.4142857143
 42
50.0
 43
0.0
 44
0.0
 50
0.0
 51
0.0
 71
     0
 72
  2000
 73
     1
 74
     3
 75
     0
 76
     0
 77
     0
 78
     0
281
     0
 65
     1
110
0.0
120
0.0
130
0.0
111
1.0
121
0.0
131
0.0
112
0.0
122
1.0
132
0.0
 79
     0
146
0.0
  0
ENDTAB
  0
TABLE
  2
LTYPE
  5
5
330
0
100
AcDbSymbolTable
 70
     8
  0
LTYPE
  5
14
330
5
100
AcDbSymbolTableRecord
100
AcDbLinetypeTableRecord
  2
ByBlock
 70
     0
  3

 72
    65
 73
     0
 40
0.0
  0
LTYPE
  5
15
330
5
100
AcDbSymbolTableRecord
100
AcDbLinetypeTableRecord
  2
ByLayer
 70
     0
  3

 72
    65
 73
     0
 40
0.0
  0
LTYPE
  5
16
330
5
100
AcDbSymbolTableRecord
100
AcDbLinetypeTableRecord
  2
Continuous
 70
     0
  3
Solid line
 72
    65
 73
     0
 40
0.0
  0
LTYPE
  5
6E
330
5
100
AcDbSymbolTableRecord
100
AcDbLinetypeTableRecord
  2
SLD-Solid
 70
     0
  3
SolidWorks Line Style
 72
    65
 73
     0
 40
0.0
  0
LTYPE
  5
6F
330
5
100
AcDbSymbolTableRecord
100
AcDbLinetypeTableRecord
  2
SLD-Dashed
 70
     0
  3
SolidWorks Line Style
 72
    65
 73
     2
 40
1.905
 49
1.27
 74
     0
 49
-0.635
 74
     0
  0
LTYPE
  5
70
330
5
100
AcDbSymbolTableRecord
100
AcDbLinetypeTableRecord
  2
SLD-Phantom
 70
     0
  3
SolidWorks Line Style
 72
    65
 73
     6
 40
12.7
 49
6.35
 74
     0
 49
-1.27
 74
     0
 49
1.27
 74
     0
 49
-1.27
 74
     0
 49
1.27
 74
     0
 49
-1.27
 74
     0
  0
LTYPE
  5
71
330
5
100
AcDbSymbolTableRecord
100
AcDbLinetypeTableRecord
  2
SLD-Chain
 70
     0
  3
SolidWorks Line Style
 72
    65
 73
     4
 40
10.16
 49
6.35
 74
     0
 49
-1.27
 74
     0
 49
1.27
 74
     0
 49
-1.27
 74
     0
  0
LTYPE
  5
72
330
5
100
AcDbSymbolTableRecord
100
AcDbLinetypeTableRecord
  2
SLD-Center
 70
     0
  3
SolidWorks Line Style
 72
    65
 73
     4
 40
19.05
 49
15.24
 74
     0
 49
-1.27
 74
     0
 49
1.27
 74
     0
 49
-1.27
 74
     0
  0
LTYPE
  5
73
330
5
100
AcDbSymbolTableRecord
100
AcDbLinetypeTableRecord
  2
SLD-Stitch
 70
     0
  3
SolidWorks Line Style
 72
    65
 73
     2
 40
0.635
 49
0.0
 74
     0
 49
-0.635
 74
     0
  0
LTYPE
  5
74
330
5
100
AcDbSymbolTableRecord
100
AcDbLinetypeTableRecord
  2
SLD-Thin-Thick-Chain
 70
     0
  3
SolidWorks Line Style
 72
    65
 73
     4
 40
10.16
 49
6.35
 74
     0
 49
-1.27
 74
     0
 49
1.27
 74
     0
 49
-1.27
 74
     0
  0
ENDTAB
  0
TABLE
  2
LAYER
  5
2
330
0
100
AcDbSymbolTable
 70
    12
  0
LAYER
  5
10
330
2
100
AcDbSymbolTableRecord
100
AcDbLayerTableRecord
  2
0
 70
     0
 62
     7
  6
Continuous
370
    -3
390
F
  0
LAYER
  5
75
330
2
100
AcDbSymbolTableRecord
100
AcDbLayerTableRecord
  2
SLD-0
 70
     0
 62
   179
  6
SLD-Solid
370
    -3
390
F
  0
LAYER
  5
76
330
2
100
AcDbSymbolTableRecord
100
AcDbLayerTableRecord
  2
80
 70
     0
 62
    -6
  6
SLD-Solid
290
     0
370
    -3
390
F
  0
LAYER
  5
77
330
2
100
AcDbSymbolTableRecord
100
AcDbLayerTableRecord
  2
81
 70
     0
 62
    -3
  6
SLD-Solid
290
     0
370
    -3
390
F
  0
LAYER
  5
78
330
2
100
AcDbSymbolTableRecord
100
AcDbLayerTableRecord
  2
1
 70
     0
 62
     4
  6
SLD-Solid
290
     0
370
    -3
390
F
  0
LAYER
  5
79
330
2
100
AcDbSymbolTableRecord
100
AcDbLayerTableRecord
  2
4
 70
     0
 62
    -2
  6
SLD-Chain
290
     0
370
    -3
390
F
  0
LAYER
  5
7A
330
2
100
AcDbSymbolTableRecord
100
AcDbLayerTableRecord
  2
2
 70
     0
 62
     7
  6
SLD-Solid
290
     0
370
    -3
390
F
  0
LAYER
  5
7B
330
2
100
AcDbSymbolTableRecord
100
AcDbLayerTableRecord
  2
SK3
 70
     0
 62
     1
  6
SLD-Dashed
290
     0
370
    -3
390
F
  0
LAYER
  5
7C
330
2
100
AcDbSymbolTableRecord
100
AcDbLayerTableRecord
  2
SK4
 70
     0
 62
     2
  6
SLD-Chain
290
     0
370
    -3
390
F
  0
LAYER
  5
7D
330
2
100
AcDbSymbolTableRecord
100
AcDbLayerTableRecord
  2
SK2
 70
     0
 62
     7
  6
SLD-Solid
290
     0
370
    -3
390
F
  0
LAYER
  5
7E
330
2
100
AcDbSymbolTableRecord
100
AcDbLayerTableRecord
  2
SK6
 70
     0
 62
     5
  6
SLD-Solid
290
     0
370
    -3
390
F
  0
LAYER
  5
7F
330
2
100
AcDbSymbolTableRecord
100
AcDbLayerTableRecord
  2
SK1
 70
     0
 62
     4
  6
SLD-Solid
370
    -3
390
F
  0
ENDTAB
  0
TABLE
  2
STYLE
  5
3
330
0
100
AcDbSymbolTable
 70
     2
  0
STYLE
  5
11
330
3
100
AcDbSymbolTableRecord
100
AcDbTextStyleTableRecord
  2
Standard
 70
     0
 40
0.0
 41
1.0
 50
0.0
 71
     0
 42
3.5
  3
txt
  4

  0
STYLE
  5
266
330
3
100
AcDbSymbolTableRecord
100
AcDbTextStyleTableRecord
  2
SLDTEXTSTYLE0
 70
     0
 40
0.0
 41
0.75
 50
0.0
 71
     0
 42
3.5
  3
TXT
  4

  0
ENDTAB
  0
TABLE
  2
VIEW
  5
6
330
0
100
AcDbSymbolTable
 70
     0
  0
ENDTAB
  0
TABLE
  2
UCS
  5
7
330
0
100
AcDbSymbolTable
 70
     0
  0
ENDTAB
  0
TABLE
  2
APPID
  5
9
330
0
100
AcDbSymbolTable
 70
     1
  0
APPID
  5
12
330
9
100
AcDbSymbolTableRecord
100
AcDbRegAppTableRecord
  2
ACAD
 70
     0
  0
ENDTAB
  0
TABLE
  2
DIMSTYLE
  5
A
330
0
100
AcDbSymbolTable
 70
     3
100
AcDbDimStyleTable
  0
DIMSTYLE
105
27
330
A
100
AcDbSymbolTableRecord
100
AcDbDimStyleTableRecord
  2
ISO-25
 70
     0
 41
2.5
 42
0.625
 43
3.75
 44
1.25
 73
     0
 74
     0
 77
     1
 78
     8
140
2.5
141
2.5
143
0.0393700787
147
0.625
171
     3
172
     1
178
     0
271
     2
272
     2
274
     3
278
    44
283
     0
284
     8
340
11
  0
DIMSTYLE
105
267
102
{ACAD_REACTORS
330
265
330
271
330
27B
330
285
330
28F
330
29A
330
2B3
330
2BD
330
2C7
330
2D2
330
2DD
102
}
330
A
100
AcDbSymbolTableRecord
100
AcDbDimStyleTableRecord
  2
SLDDIMSTYLE0
 70
     0
 41
3.302
 44
0.0
 45
0.000000001
 73
     0
 74
     0
 77
     1
 78
    12
 79
     3
140
3.5
147
0.875
173
     1
178
     0
271
     2
272
     2
276
     2
284
    12
340
266
  0
DIMSTYLE
105
2A6
102
{ACAD_REACTORS
330
2A5
102
}
330
A
100
AcDbSymbolTableRecord
100
AcDbDimStyleTableRecord
  2
SLDDIMSTYLE1
 70
     0
 41
3.302
 44
0.0
 45
0.000000001
 73
     0
 74
     0
 77
     1
 78
    12
 79
     3
140
3.5
147
0.875
172
     1
173
     1
178
     0
271
     2
272
     2
276
     2
284
    12
289
     0
340
266
  0
ENDTAB
  0
TABLE
  2
BLOCK_RECORD
  5
1
330
0
100
AcDbSymbolTable
 70
    15
  0
BLOCK_RECORD
  5
1F
330
1
100
AcDbSymbolTableRecord
100
AcDbBlockTableRecord
  2
*Model_Space
340
22
  0
BLOCK_RECORD
  5
1B
330
1
100
AcDbSymbolTableRecord
100
AcDbBlockTableRecord
  2
*Paper_Space
340
1E
  0
BLOCK_RECORD
  5
23
330
1
100
AcDbSymbolTableRecord
100
AcDbBlockTableRecord
  2
*Paper_Space0
340
26
  0
BLOCK_RECORD
  5
80
330
1
100
AcDbSymbolTableRecord
100
AcDbBlockTableRecord
  2
Block11
340
0
102
{BLKREFS
331
263
102
}
  0
BLOCK_RECORD
  5
89
330
1
100
AcDbSymbolTableRecord
100
AcDbBlockTableRecord
  2
Block12
340
0
102
{BLKREFS
331
264
102
}
  0
BLOCK_RECORD
  5
268
330
1
100
AcDbSymbolTableRecord
100
AcDbBlockTableRecord
  2
_D
340
0
  0
BLOCK_RECORD
  5
272
330
1
100
AcDbSymbolTableRecord
100
AcDbBlockTableRecord
  2
_D_1
340
0
  0
BLOCK_RECORD
  5
27C
330
1
100
AcDbSymbolTableRecord
100
AcDbBlockTableRecord
  2
_D_2
340
0
  0
BLOCK_RECORD
  5
286
330
1
100
AcDbSymbolTableRecord
100
AcDbBlockTableRecord
  2
_D_3
340
0
  0
BLOCK_RECORD
  5
290
330
1
100
AcDbSymbolTableRecord
100
AcDbBlockTableRecord
  2
_D_4
340
0
  0
BLOCK_RECORD
  5
29B
330
1
100
AcDbSymbolTableRecord
100
AcDbBlockTableRecord
  2
_D_5
340
0
  0
BLOCK_RECORD
  5
2A7
330
1
100
AcDbSymbolTableRecord
100
AcDbBlockTableRecord
  2
_D_6
340
0
  0
BLOCK_RECORD
  5
2B4
330
1
100
AcDbSymbolTableRecord
100
AcDbBlockTableRecord
  2
_D_7
340
0
  0
BLOCK_RECORD
  5
2BE
330
1
100
AcDbSymbolTableRecord
100
AcDbBlockTableRecord
  2
_D_8
340
0
  0
BLOCK_RECORD
  5
2C8
330
1
100
AcDbSymbolTableRecord
100
AcDbBlockTableRecord
  2
_D_9
340
0
  0
BLOCK_RECORD
  5
2D3
330
1
100
AcDbSymbolTableRecord
100
AcDbBlockTableRecord
  2
_D_10
340
0
  0
BLOCK_RECORD
  5
2DE
330
1
100
AcDbSymbolTableRecord
100
AcDbBlockTableRecord
  2
_D_11
340
0
  0
ENDTAB
  0
ENDSEC
  0
SECTION
  2
BLOCKS
  0
BLOCK
  5
20
330
1F
100
AcDbEntity
  8
0
100
AcDbBlockBegin
  2
*Model_Space
 70
     0
 10
0.0
 20
0.0
 30
0.0
  3
*Model_Space
  1

  0
ENDBLK
  5
21
330
1F
100
AcDbEntity
  8
0
100
AcDbBlockEnd
  0
BLOCK
  5
1C
330
1B
100
AcDbEntity
 67
     1
  8
0
100
AcDbBlockBegin
  2
*Paper_Space
 70
     0
 10
0.0
 20
0.0
 30
0.0
  3
*Paper_Space
  1

  0
ENDBLK
  5
1D
330
1B
100
AcDbEntity
 67
     1
  8
0
100
AcDbBlockEnd
  0
BLOCK
  5
24
330
23
100
AcDbEntity
  8
0
100
AcDbBlockBegin
  2
*Paper_Space0
 70
     0
 10
0.0
 20
0.0
 30
0.0
  3
*Paper_Space0
  1

  0
ENDBLK
  5
25
330
23
100
AcDbEntity
  8
0
100
AcDbBlockEnd
  0
BLOCK
  5
81
330
80
100
AcDbEntity
  8
0
100
AcDbBlockBegin
  2
Block11
 70
     0
 10
0.0
 20
0.0
 30
0.0
  3
Block11
  1

  0
CIRCLE
  5
83
330
80
100
AcDbEntity
  8
81
370
    18
100
AcDbCircle
 10
91.6264826505
 20
130.2676275275
 30
0.0
 40
2.499999999999981
  0
LINE
  5
84
330
80
100
AcDbEntity
  8
81
370
    18
100
AcDbLine
 10
91.6264826505
 20
130.2676275275
 30
0.0
 11
95.1620165565
 21
133.8031614334
 31
0.0
  0
LINE
  5
85
330
80
100
AcDbEntity
  8
81
370
    18
100
AcDbLine
 10
91.6264826505
 20
130.2676275275
 30
0.0
 11
88.0909487446
 21
126.7320936216
 31
0.0
  0
LINE
  5
86
330
80
100
AcDbEntity
  8
81
370
    18
100
AcDbLine
 10
91.6264826505
 20
130.2676275275
 30
0.0
 11
88.0909487446
 21
133.8031614334
 31
0.0
  0
LINE
  5
87
330
80
100
AcDbEntity
  8
81
100
AcDbLine
 10
91.6264826505
 20
130.2676275275
 30
0.0
 11
101.6264826505
 21
130.2676275275
 31
0.0
  0
LINE
  5
88
330
80
100
AcDbEntity
  8
81
370
    18
100
AcDbLine
 10
91.6264826505
 20
130.2676275275
 30
0.0
 11
95.1620165565
 21
126.7320936216
 31
0.0
  0
ENDBLK
  5
82
330
80
100
AcDbEntity
  8
0
100
AcDbBlockEnd
  0
BLOCK
  5
8A
330
89
100
AcDbEntity
  8
0
100
AcDbBlockBegin
  2
Block12
 70
     0
 10
0.0
 20
0.0
 30
0.0
  3
Block12
  1

  0
CIRCLE
  5
8C
330
89
100
AcDbEntity
  8
80
370
    18
100
AcDbCircle
 10
61.7273641656
 20
130.3356800267
 30
0.0
 40
2.500000000000004
  0
LINE
  5
8D
330
89
100
AcDbEntity
  8
80
370
    18
100
AcDbLine
 10
61.7273641656
 20
130.3356800267
 30
0.0
 11
65.2628980715
 21
133.8712139326
 31
0.0
  0
LINE
  5
8E
330
89
100
AcDbEntity
  8
80
370
    18
100
AcDbLine
 10
61.7273641656
 20
130.3356800267
 30
0.0
 11
58.1918302597
 21
126.8001461208
 31
0.0
  0
LINE
  5
8F
330
89
100
AcDbEntity
  8
80
370
    18
100
AcDbLine
 10
61.7273641656
 20
130.3356800267
 30
0.0
 11
58.1918302597
 21
133.8712139326
 31
0.0
  0
LINE
  5
90
330
89
100
AcDbEntity
  8
80
370
    18
100
AcDbLine
 10
61.7273641656
 20
130.3356800267
 30
0.0
 11
51.7273641656
 21
130.3356800267
 31
0.0
  0
LINE
  5
91
330
89
100
AcDbEntity
  8
80
370
    18
100
AcDbLine
 10
61.7273641656
 20
130.3356800267
 30
0.0
 11
65.2628980715
 21
126.8001461208
 31
0.0
  0
ENDBLK
  5
8B
330
89
100
AcDbEntity
  8
0
100
AcDbBlockEnd
  0
BLOCK
  5
269
330
268
100
AcDbEntity
  8
0
100
AcDbBlockBegin
  2
_D
 70
     0
 10
0.0
 20
0.0
 30
0.0
  3
_D
  1

  0
SOLID
  5
26B
330
268
100
AcDbEntity
  8
SK2
100
AcDbTrace
 10
0.0
 20
40.8972352525
 30
0.0
 11
3.302
 21
40.3892352525
 31
0.0
 12
3.302
 22
41.4052352525
 32
0.0
 13
3.302
 23
41.4052352525
 33
0.0
  0
SOLID
  5
26C
330
268
100
AcDbEntity
  8
SK2
100
AcDbTrace
 10
27.0
 20
40.8972352525
 30
0.0
 11
23.698
 21
41.4052352525
 31
0.0
 12
23.698
 22
40.3892352525
 32
0.0
 13
23.698
 23
40.3892352525
 33
0.0
  0
LINE
  5
26D
330
268
100
AcDbEntity
  8
SK2
100
AcDbLine
 10
0.0
 20
23.225
 30
0.0
 11
0.0
 21
41.8972352525
 31
0.0
  0
LINE
  5
26E
330
268
100
AcDbEntity
  8
SK2
100
AcDbLine
 10
27.0
 20
31.75
 30
0.0
 11
27.0
 21
41.8972352525
 31
0.0
  0
LINE
  5
26F
330
268
100
AcDbEntity
  8
SK2
100
AcDbLine
 10
0.0
 20
40.8972352525
 30
0.0
 11
27.0
 21
40.8972352525
 31
0.0
  0
MTEXT
  5
270
330
268
100
AcDbEntity
  8
SK2
100
AcDbMText
 10
12.2144150494
 20
45.4089721671
 30
0.0
 40
3.5
 41
0.0
 71
     1
 72
     1
  1
27
  7
SLDTEXTSTYLE0
 73
     1
 44
1.0
  0
ENDBLK
  5
26A
330
268
100
AcDbEntity
  8
0
100
AcDbBlockEnd
  0
BLOCK
  5
273
330
272
100
AcDbEntity
  8
0
100
AcDbBlockBegin
  2
_D_1
 70
     0
 10
0.0
 20
0.0
 30
0.0
  3
_D_1
  1

  0
SOLID
  5
275
330
272
100
AcDbEntity
  8
SK2
100
AcDbTrace
 10
27.0
 20
40.8972352525
 30
0.0
 11
30.302
 21
40.3892352525
 31
0.0
 12
30.302
 22
41.4052352525
 32
0.0
 13
30.302
 23
41.4052352525
 33
0.0
  0
SOLID
  5
276
330
272
100
AcDbEntity
  8
SK2
100
AcDbTrace
 10
100.0
 20
40.8972352525
 30
0.0
 11
96.698
 21
41.4052352525
 31
0.0
 12
96.698
 22
40.3892352525
 32
0.0
 13
96.698
 23
40.3892352525
 33
0.0
  0
LINE
  5
277
330
272
100
AcDbEntity
  8
SK2
100
AcDbLine
 10
27.0
 20
31.75
 30
0.0
 11
27.0
 21
41.8972352525
 31
0.0
  0
LINE
  5
278
330
272
100
AcDbEntity
  8
SK2
100
AcDbLine
 10
100.0
 20
10.9944465005
 30
0.0
 11
100.0
 21
41.8972352525
 31
0.0
  0
LINE
  5
279
330
272
100
AcDbEntity
  8
SK2
100
AcDbLine
 10
27.0
 20
40.8972352525
 30
0.0
 11
100.0
 21
40.8972352525
 31
0.0
  0
MTEXT
  5
27A
330
272
100
AcDbEntity
  8
SK2
100
AcDbMText
 10
58.5192262113
 20
45.4089721671
 30
0.0
 40
3.5
 41
0.0
 71
     1
 72
     1
  1
73
  7
SLDTEXTSTYLE0
 73
     1
 44
1.0
  0
ENDBLK
  5
274
330
272
100
AcDbEntity
  8
0
100
AcDbBlockEnd
  0
BLOCK
  5
27D
330
27C
100
AcDbEntity
  8
0
100
AcDbBlockBegin
  2
_D_2
 70
     0
 10
0.0
 20
0.0
 30
0.0
  3
_D_2
  1

  0
SOLID
  5
27F
330
27C
100
AcDbEntity
  8
SK2
100
AcDbTrace
 10
100.0
 20
27.8703062811
 30
0.0
 11
96.698
 21
28.3783062811
 31
0.0
 12
96.698
 22
27.3623062811
 32
0.0
 13
96.698
 23
27.3623062811
 33
0.0
  0
SOLID
  5
280
330
27C
100
AcDbEntity
  8
SK2
100
AcDbTrace
 10
87.0
 20
27.8703062811
 30
0.0
 11
90.302
 21
27.3623062811
 31
0.0
 12
90.302
 22
28.3783062811
 32
0.0
 13
90.302
 23
28.3783062811
 33
0.0
  0
LINE
  5
281
330
27C
100
AcDbEntity
  8
SK2
100
AcDbLine
 10
100.0
 20
10.9944465005
 30
0.0
 11
100.0
 21
28.8703062811
 31
0.0
  0
LINE
  5
282
330
27C
100
AcDbEntity
  8
SK2
100
AcDbLine
 10
87.0
 20
18.5
 30
0.0
 11
87.0
 21
28.8703062811
 31
0.0
  0
LINE
  5
283
330
27C
100
AcDbEntity
  8
SK2
100
AcDbLine
 10
100.0
 20
27.8703062811
 30
0.0
 11
87.0
 21
27.8703062811
 31
0.0
  0
MTEXT
  5
284
330
27C
100
AcDbEntity
  8
SK2
100
AcDbMText
 10
90.0207089967
 20
32.3820431957
 30
0.0
 40
3.5
 41
0.0
 71
     1
 72
     1
  1
13
  7
SLDTEXTSTYLE0
 73
     1
 44
1.0
  0
ENDBLK
  5
27E
330
27C
100
AcDbEntity
  8
0
100
AcDbBlockEnd
  0
BLOCK
  5
287
330
286
100
AcDbEntity
  8
0
100
AcDbBlockBegin
  2
_D_3
 70
     0
 10
0.0
 20
0.0
 30
0.0
  3
_D_3
  1

  0
SOLID
  5
289
330
286
100
AcDbEntity
  8
2
100
AcDbTrace
 10
0.0
 20
50.2529387865
 30
0.0
 11
3.302
 21
49.7449387865
 31
0.0
 12
3.302
 22
50.7609387865
 32
0.0
 13
3.302
 23
50.7609387865
 33
0.0
  0
SOLID
  5
28A
330
286
100
AcDbEntity
  8
2
100
AcDbTrace
 10
100.0
 20
50.2529387865
 30
0.0
 11
96.698
 21
50.7609387865
 31
0.0
 12
96.698
 22
49.7449387865
 32
0.0
 13
96.698
 23
49.7449387865
 33
0.0
  0
LINE
  5
28B
330
286
100
AcDbEntity
  8
2
100
AcDbLine
 10
0.0
 20
23.225
 30
0.0
 11
0.0
 21
51.2529387865
 31
0.0
  0
LINE
  5
28C
330
286
100
AcDbEntity
  8
2
100
AcDbLine
 10
100.0
 20
10.9944465005
 30
0.0
 11
100.0
 21
51.2529387865
 31
0.0
  0
LINE
  5
28D
330
286
100
AcDbEntity
  8
2
100
AcDbLine
 10
0.0
 20
50.2529387865
 30
0.0
 11
100.0
 21
50.2529387865
 31
0.0
  0
MTEXT
  5
28E
330
286
100
AcDbEntity
  8
2
100
AcDbMText
 10
43.8895265943
 20
54.7646757011
 30
0.0
 40
3.5
 41
0.0
 71
     1
 72
     1
  1
100
  7
SLDTEXTSTYLE0
 73
     1
 44
1.0
  0
ENDBLK
  5
288
330
286
100
AcDbEntity
  8
0
100
AcDbBlockEnd
  0
BLOCK
  5
291
330
290
100
AcDbEntity
  8
0
100
AcDbBlockBegin
  2
_D_4
 70
     0
 10
0.0
 20
0.0
 30
0.0
  3
_D_4
  1

  0
SOLID
  5
293
330
290
100
AcDbEntity
  8
SK2
100
AcDbTrace
 10
137.6897472633
 20
17.5
 30
0.0
 11
137.1817472633
 21
14.198
 31
0.0
 12
138.1977472633
 22
14.198
 32
0.0
 13
138.1977472633
 23
14.198
 33
0.0
  0
SOLID
  5
294
330
290
100
AcDbEntity
  8
SK2
100
AcDbTrace
 10
137.6897472633
 20
-17.5
 30
0.0
 11
138.1977472633
 21
-14.198
 31
0.0
 12
137.1817472633
 22
-14.198
 32
0.0
 13
137.1817472633
 23
-14.198
 33
0.0
  0
LINE
  5
295
330
290
100
AcDbEntity
  8
SK2
100
AcDbLine
 10
88.0
 20
17.5
 30
0.0
 11
138.6897472633
 21
17.5
 31
0.0
  0
LINE
  5
296
330
290
100
AcDbEntity
  8
SK2
100
AcDbLine
 10
88.0
 20
-17.5
 30
0.0
 11
138.6897472633
 21
-17.5
 31
0.0
  0
LINE
  5
297
330
290
100
AcDbEntity
  8
SK2
100
AcDbLine
 10
137.6897472633
 20
17.5
 30
0.0
 11
137.6897472633
 21
-17.5
 31
0.0
  0
MTEXT
  5
298
330
290
100
AcDbEntity
  8
SK2
100
AcDbMText
 10
133.1780101741
 20
-5.8791995341
 30
0.0
 40
3.5
 41
0.0
 71
     1
 72
     1
  1
%%c
  7
SLDTEXTSTYLE0
 11
-7.044195017643634E-15
 21
1.0
 31
0.0
 73
     1
 44
1.0
  0
MTEXT
  5
299
330
290
100
AcDbEntity
  8
SK2
100
AcDbMText
 10
133.1245379975
 20
-0.6007621357
 30
0.0
 40
3.5
 41
0.0
 71
     1
 72
     1
  1
35
  7
SLDTEXTSTYLE0
 11
-7.044195017643634E-15
 21
1.0
 31
0.0
 73
     1
 44
1.0
  0
ENDBLK
  5
292
330
290
100
AcDbEntity
  8
0
100
AcDbBlockEnd
  0
BLOCK
  5
29C
330
29B
100
AcDbEntity
  8
0
100
AcDbBlockBegin
  2
_D_5
 70
     0
 10
0.0
 20
0.0
 30
0.0
  3
_D_5
  1

  0
SOLID
  5
29E
330
29B
100
AcDbEntity
  8
SK2
100
AcDbTrace
 10
126.4606095203
 20
9.9944465005
 30
0.0
 11
125.9526095203
 21
6.6924465005
 31
0.0
 12
126.9686095203
 22
6.6924465005
 32
0.0
 13
126.9686095203
 23
6.6924465005
 33
0.0
  0
SOLID
  5
29F
330
29B
100
AcDbEntity
  8
SK2
100
AcDbTrace
 10
126.4606095203
 20
-9.9944465005
 30
0.0
 11
126.9686095203
 21
-6.6924465005
 31
0.0
 12
125.9526095203
 22
-6.6924465005
 32
0.0
 13
125.9526095203
 23
-6.6924465005
 33
0.0
  0
LINE
  5
2A0
330
29B
100
AcDbEntity
  8
SK2
100
AcDbLine
 10
101.0
 20
9.9944465005
 30
0.0
 11
127.4606095203
 21
9.9944465005
 31
0.0
  0
LINE
  5
2A1
330
29B
100
AcDbEntity
  8
SK2
100
AcDbLine
 10
101.0
 20
-9.9944465005
 30
0.0
 11
127.4606095203
 21
-9.9944465005
 31
0.0
  0
LINE
  5
2A2
330
29B
100
AcDbEntity
  8
SK2
100
AcDbLine
 10
126.4606095203
 20
9.9944465005
 30
0.0
 11
126.4606095203
 21
-9.9944465005
 31
0.0
  0
MTEXT
  5
2A3
330
29B
100
AcDbEntity
  8
SK2
100
AcDbMText
 10
121.9488724311
 20
-5.8791995341
 30
0.0
 40
3.5
 41
0.0
 71
     1
 72
     1
  1
%%c
  7
SLDTEXTSTYLE0
 11
-7.044195017643634E-15
 21
1.0
 31
0.0
 73
     1
 44
1.0
  0
MTEXT
  5
2A4
330
29B
100
AcDbEntity
  8
SK2
100
AcDbMText
 10
121.8954002544
 20
-0.6007621357
 30
0.0
 40
3.5
 41
0.0
 71
     1
 72
     1
  1
20
  7
SLDTEXTSTYLE0
 11
-7.044195017643634E-15
 21
1.0
 31
0.0
 73
     1
 44
1.0
  0
ENDBLK
  5
29D
330
29B
100
AcDbEntity
  8
0
100
AcDbBlockEnd
  0
BLOCK
  5
2A8
330
2A7
100
AcDbEntity
  8
0
100
AcDbBlockBegin
  2
_D_6
 70
     0
 10
0.0
 20
0.0
 30
0.0
  3
_D_6
  1

  0
SOLID
  5
2AA
330
2A7
100
AcDbEntity
  8
SK2
100
AcDbTrace
 10
116.8249316819
 20
-5.0
 30
0.0
 11
116.3169316819
 21
-8.302
 31
0.0
 12
117.3329316819
 22
-8.302
 32
0.0
 13
117.3329316819
 23
-8.302
 33
0.0
  0
SOLID
  5
2AB
330
2A7
100
AcDbEntity
  8
SK2
100
AcDbTrace
 10
116.8249316819
 20
5.0
 30
0.0
 11
117.3329316819
 21
8.302
 31
0.0
 12
116.3169316819
 22
8.302
 32
0.0
 13
116.3169316819
 23
8.302
 33
0.0
  0
LINE
  5
2AC
330
2A7
100
AcDbEntity
  8
SK2
100
AcDbLine
 10
100.0
 20
-5.0
 30
0.0
 11
117.8249316819
 21
-5.0
 31
0.0
  0
LINE
  5
2AD
330
2A7
100
AcDbEntity
  8
SK2
100
AcDbLine
 10
100.0
 20
5.0
 30
0.0
 11
117.8249316819
 21
5.0
 31
0.0
  0
LINE
  5
2AE
330
2A7
100
AcDbEntity
  8
SK2
100
AcDbLine
 10
116.8249316819
 20
-5.0
 30
0.0
 11
116.8249316819
 21
-11.35
 31
0.0
  0
LINE
  5
2AF
330
2A7
100
AcDbEntity
  8
SK2
100
AcDbLine
 10
116.8249316819
 20
-5.0
 30
0.0
 11
116.8249316819
 21
5.0
 31
0.0
  0
LINE
  5
2B0
330
2A7
100
AcDbEntity
  8
SK2
100
AcDbLine
 10
116.8249316819
 20
5.0
 30
0.0
 11
116.8249316819
 21
11.35
 31
0.0
  0
MTEXT
  5
2B1
330
2A7
100
AcDbEntity
  8
SK2
100
AcDbMText
 10
112.3131945927
 20
-5.8791995341
 30
0.0
 40
3.5
 41
0.0
 71
     1
 72
     1
  1
%%c
  7
SLDTEXTSTYLE0
 11
-1.608122649676637E-16
 21
1.0
 31
0.0
 73
     1
 44
1.0
  0
MTEXT
  5
2B2
330
2A7
100
AcDbEntity
  8
SK2
100
AcDbMText
 10
112.259722416
 20
-0.6007621357
 30
0.0
 40
3.5
 41
0.0
 71
     1
 72
     1
  1
10
  7
SLDTEXTSTYLE0
 11
-1.608122649676637E-16
 21
1.0
 31
0.0
 73
     1
 44
1.0
  0
ENDBLK
  5
2A9
330
2A7
100
AcDbEntity
  8
0
100
AcDbBlockEnd
  0
BLOCK
  5
2B5
330
2B4
100
AcDbEntity
  8
0
100
AcDbBlockBegin
  2
_D_7
 70
     0
 10
0.0
 20
0.0
 30
0.0
  3
_D_7
  1

  0
SOLID
  5
2B7
330
2B4
100
AcDbEntity
  8
SK2
100
AcDbTrace
 10
100.0
 20
-28.710827445
 30
0.0
 11
96.698
 21
-28.202827445
 31
0.0
 12
96.698
 22
-29.218827445
 32
0.0
 13
96.698
 23
-29.218827445
 33
0.0
  0
SOLID
  5
2B8
330
2B4
100
AcDbEntity
  8
SK2
100
AcDbTrace
 10
80.0
 20
-28.710827445
 30
0.0
 11
83.302
 21
-29.218827445
 31
0.0
 12
83.302
 22
-28.202827445
 32
0.0
 13
83.302
 23
-28.202827445
 33
0.0
  0
LINE
  5
2B9
330
2B4
100
AcDbEntity
  8
SK2
100
AcDbLine
 10
100.0
 20
-10.9944465005
 30
0.0
 11
100.0
 21
-29.710827445
 31
0.0
  0
LINE
  5
2BA
330
2B4
100
AcDbEntity
  8
SK2
100
AcDbLine
 10
80.0
 20
-19.0
 30
0.0
 11
80.0
 21
-29.710827445
 31
0.0
  0
LINE
  5
2BB
330
2B4
100
AcDbEntity
  8
SK2
100
AcDbLine
 10
100.0
 20
-28.710827445
 30
0.0
 11
80.0
 21
-28.710827445
 31
0.0
  0
MTEXT
  5
2BC
330
2B4
100
AcDbEntity
  8
SK2
100
AcDbMText
 10
87.2851321129
 20
-24.1990905304
 30
0.0
 40
3.5
 41
0.0
 71
     1
 72
     1
  1
20
  7
SLDTEXTSTYLE0
 73
     1
 44
1.0
  0
ENDBLK
  5
2B6
330
2B4
100
AcDbEntity
  8
0
100
AcDbBlockEnd
  0
BLOCK
  5
2BF
330
2BE
100
AcDbEntity
  8
0
100
AcDbBlockBegin
  2
_D_8
 70
     0
 10
0.0
 20
0.0
 30
0.0
  3
_D_8
  1

  0
SOLID
  5
2C1
330
2BE
100
AcDbEntity
  8
SK2
100
AcDbTrace
 10
100.0
 20
-39.2599098931
 30
0.0
 11
96.698
 21
-38.7519098931
 31
0.0
 12
96.698
 22
-39.7679098931
 32
0.0
 13
96.698
 23
-39.7679098931
 33
0.0
  0
SOLID
  5
2C2
330
2BE
100
AcDbEntity
  8
SK2
100
AcDbTrace
 10
61.801691195
 20
-39.2599098931
 30
0.0
 11
65.103691195
 21
-39.7679098931
 31
0.0
 12
65.103691195
 22
-38.7519098931
 32
0.0
 13
65.103691195
 23
-38.7519098931
 33
0.0
  0
LINE
  5
2C3
330
2BE
100
AcDbEntity
  8
SK2
100
AcDbLine
 10
100.0
 20
-10.9944465005
 30
0.0
 11
100.0
 21
-40.2599098931
 31
0.0
  0
LINE
  5
2C4
330
2BE
100
AcDbEntity
  8
SK2
100
AcDbLine
 10
61.801691195
 20
-6.0
 30
0.0
 11
61.801691195
 21
-40.2599098931
 31
0.0
  0
LINE
  5
2C5
330
2BE
100
AcDbEntity
  8
SK2
100
AcDbLine
 10
100.0
 20
-39.2599098931
 30
0.0
 11
61.801691195
 21
-39.2599098931
 31
0.0
  0
MTEXT
  5
2C6
330
2BE
100
AcDbEntity
  8
SK2
100
AcDbMText
 10
76.873057361
 20
-34.7481729785
 30
0.0
 40
3.5
 41
0.0
 71
     1
 72
     1
  1
38,2
  7
SLDTEXTSTYLE0
 73
     1
 44
1.0
  0
ENDBLK
  5
2C0
330
2BE
100
AcDbEntity
  8
0
100
AcDbBlockEnd
  0
BLOCK
  5
2C9
330
2C8
100
AcDbEntity
  8
0
100
AcDbBlockBegin
  2
_D_9
 70
     0
 10
0.0
 20
0.0
 30
0.0
  3
_D_9
  1

  0
SOLID
  5
2CB
330
2C8
100
AcDbEntity
  8
SK2
100
AcDbTrace
 10
-94.2323061328
 20
31.5
 30
0.0
 11
-94.7403061328
 21
28.198
 31
0.0
 12
-93.7243061328
 22
28.198
 32
0.0
 13
-93.7243061328
 23
28.198
 33
0.0
  0
SOLID
  5
2CC
330
2C8
100
AcDbEntity
  8
SK2
100
AcDbTrace
 10
-94.2323061328
 20
-31.5
 30
0.0
 11
-93.7243061328
 21
-28.198
 31
0.0
 12
-94.7403061328
 22
-28.198
 32
0.0
 13
-94.7403061328
 23
-28.198
 33
0.0
  0
LINE
  5
2CD
330
2C8
100
AcDbEntity
  8
SK2
100
AcDbLine
 10
1.75
 20
31.5
 30
0.0
 11
-95.2323061328
 21
31.5
 31
0.0
  0
LINE
  5
2CE
330
2C8
100
AcDbEntity
  8
SK2
100
AcDbLine
 10
1.75
 20
-31.5
 30
0.0
 11
-95.2323061328
 21
-31.5
 31
0.0
  0
LINE
  5
2CF
330
2C8
100
AcDbEntity
  8
SK2
100
AcDbLine
 10
-94.2323061328
 20
31.5
 30
0.0
 11
-94.2323061328
 21
-31.5
 31
0.0
  0
MTEXT
  5
2D0
330
2C8
100
AcDbEntity
  8
SK2
100
AcDbMText
 10
-98.744043222
 20
-5.5815753293
 30
0.0
 40
3.5
 41
0.0
 71
     1
 72
     1
  1
%%c
  7
SLDTEXTSTYLE0
 11
-7.044195017643634E-15
 21
1.0
 31
0.0
 73
     1
 44
1.0
  0
MTEXT
  5
2D1
330
2C8
100
AcDbEntity
  8
SK2
100
AcDbMText
 10
-98.7975153987
 20
-0.3031379309
 30
0.0
 40
3.5
 41
0.0
 71
     1
 72
     1
  1
63
  7
SLDTEXTSTYLE0
 11
-7.044195017643634E-15
 21
1.0
 31
0.0
 73
     1
 44
1.0
  0
ENDBLK
  5
2CA
330
2C8
100
AcDbEntity
  8
0
100
AcDbBlockEnd
  0
BLOCK
  5
2D4
330
2D3
100
AcDbEntity
  8
0
100
AcDbBlockBegin
  2
_D_10
 70
     0
 10
0.0
 20
0.0
 30
0.0
  3
_D_10
  1

  0
SOLID
  5
2D6
330
2D3
100
AcDbEntity
  8
SK2
100
AcDbTrace
 10
-82.7025151761
 20
22.225
 30
0.0
 11
-83.2105151761
 21
18.923
 31
0.0
 12
-82.1945151761
 22
18.923
 32
0.0
 13
-82.1945151761
 23
18.923
 33
0.0
  0
SOLID
  5
2D7
330
2D3
100
AcDbEntity
  8
SK2
100
AcDbTrace
 10
-82.7025151761
 20
-22.225
 30
0.0
 11
-82.1945151761
 21
-18.923
 31
0.0
 12
-83.2105151761
 22
-18.923
 32
0.0
 13
-83.2105151761
 23
-18.923
 33
0.0
  0
LINE
  5
2D8
330
2D3
100
AcDbEntity
  8
SK2
100
AcDbLine
 10
-0.8
 20
22.225
 30
0.0
 11
-83.7025151761
 21
22.225
 31
0.0
  0
LINE
  5
2D9
330
2D3
100
AcDbEntity
  8
SK2
100
AcDbLine
 10
-0.8
 20
-22.225
 30
0.0
 11
-83.7025151761
 21
-22.225
 31
0.0
  0
LINE
  5
2DA
330
2D3
100
AcDbEntity
  8
SK2
100
AcDbLine
 10
-82.7025151761
 20
22.225
 30
0.0
 11
-82.7025151761
 21
-22.225
 31
0.0
  0
MTEXT
  5
2DB
330
2D3
100
AcDbEntity
  8
SK2
100
AcDbMText
 10
-87.2142522653
 20
-8.8142141465
 30
0.0
 40
3.5
 41
0.0
 71
     1
 72
     1
  1
%%c
  7
SLDTEXTSTYLE0
 11
-7.044195017643634E-15
 21
1.0
 31
0.0
 73
     1
 44
1.0
  0
MTEXT
  5
2DC
330
2D3
100
AcDbEntity
  8
SK2
100
AcDbMText
 10
-87.2677244419
 20
-3.5357767482
 30
0.0
 40
3.5
 41
0.0
 71
     1
 72
     1
  1
44,45
  7
SLDTEXTSTYLE0
 11
-7.044195017643634E-15
 21
1.0
 31
0.0
 73
     1
 44
1.0
  0
ENDBLK
  5
2D5
330
2D3
100
AcDbEntity
  8
0
100
AcDbBlockEnd
  0
BLOCK
  5
2DF
330
2DE
100
AcDbEntity
  8
0
100
AcDbBlockBegin
  2
_D_11
 70
     0
 10
0.0
 20
0.0
 30
0.0
  3
_D_11
  1

  0
SOLID
  5
2E1
330
2DE
100
AcDbEntity
  8
SK2
100
AcDbTrace
 10
-72.9663752517
 20
-8.00000038
 30
0.0
 11
-72.4583752517
 21
-4.69800038
 31
0.0
 12
-73.4743752517
 22
-4.69800038
 32
0.0
 13
-73.4743752517
 23
-4.69800038
 33
0.0
  0
SOLID
  5
2E2
330
2DE
100
AcDbEntity
  8
SK2
100
AcDbTrace
 10
-72.9663752517
 20
8.00000038
 30
0.0
 11
-73.4743752517
 21
4.69800038
 31
0.0
 12
-72.4583752517
 22
4.69800038
 32
0.0
 13
-72.4583752517
 23
4.69800038
 33
0.0
  0
LINE
  5
2E3
330
2DE
100
AcDbEntity
  8
SK2
100
AcDbLine
 10
-56.6881204247
 20
-8.00000038
 30
0.0
 11
-73.9663752517
 21
-8.00000038
 31
0.0
  0
LINE
  5
2E4
330
2DE
100
AcDbEntity
  8
SK2
100
AcDbLine
 10
-56.6881204247
 20
8.00000038
 30
0.0
 11
-73.9663752517
 21
8.00000038
 31
0.0
  0
LINE
  5
2E5
330
2DE
100
AcDbEntity
  8
SK2
100
AcDbLine
 10
-72.9663752517
 20
-8.00000038
 30
0.0
 11
-72.9663752517
 21
8.00000038
 31
0.0
  0
MTEXT
  5
2E6
330
2DE
100
AcDbEntity
  8
SK2
100
AcDbMText
 10
-77.4781121663
 20
-4.461999247
 30
0.0
 40
3.5
 41
0.0
 71
     1
 72
     1
  1
M
  7
SLDTEXTSTYLE0
 11
3.391901413832837E-15
 21
1.0
 31
0.0
 73
     1
 44
1.0
  0
MTEXT
  5
2E7
330
2DE
100
AcDbEntity
  8
SK2
100
AcDbMText
 10
-77.4781121663
 20
-0.1744993125
 30
0.0
 40
3.5
 41
0.0
 71
     1
 72
     1
  1
16
  7
SLDTEXTSTYLE0
 11
3.391901413832837E-15
 21
1.0
 31
0.0
 73
     1
 44
1.0
  0
ENDBLK
  5
2E0
330
2DE
100
AcDbEntity
  8
0
100
AcDbBlockEnd
  0
ENDSEC
  0
SECTION
  2
ENTITIES
  0
LINE
  5
92
330
1F
100
AcDbEntity
  8
1
  6
SLD-Solid
370
    25
100
AcDbLine
 10
26.2500000235
 20
31.5
 30
0.0
 11
21.6200000235
 21
31.5
 31
0.0
  0
LINE
  5
93
330
1F
100
AcDbEntity
  8
1
  6
SLD-Solid
370
    25
100
AcDbLine
 10
21.62
 20
-31.5
 30
0.0
 11
26.25
 21
-31.5
 31
0.0
  0
LINE
  5
94
330
1F
100
AcDbEntity
  8
1
  6
SLD-Solid
370
    25
100
AcDbLine
 10
19.1
 20
-27.113157367
 30
0.0
 11
21.62
 21
-31.5
 31
0.0
  0
LINE
  5
95
330
1F
100
AcDbEntity
  8
1
  6
SLD-Solid
370
    25
100
AcDbLine
 10
21.6200000235
 20
31.5
 30
0.0
 11
19.1000001077
 21
27.1131572383
 31
0.0
  0
LINE
  5
96
330
1F
100
AcDbEntity
  8
1
  6
SLD-Solid
370
    25
100
AcDbLine
 10
2.75
 20
-31.5
 30
0.0
 11
11.58
 21
-31.5
 31
0.0
  0
LINE
  5
97
330
1F
100
AcDbEntity
  8
1
  6
SLD-Solid
370
    25
100
AcDbLine
 10
11.58
 20
-31.5
 30
0.0
 11
14.1
 21
-27.113157367
 31
0.0
  0
LINE
  5
98
330
1F
100
AcDbEntity
  8
1
  6
SLD-Solid
370
    25
100
AcDbLine
 10
11.58
 20
31.5
 30
0.0
 11
2.75
 21
31.5
 31
0.0
  0
LINE
  5
99
330
1F
100
AcDbEntity
  8
1
  6
SLD-Solid
370
    25
100
AcDbLine
 10
14.1
 20
27.113157367
 30
0.0
 11
11.58
 21
31.5
 31
0.0
  0
LINE
  5
9A
330
1F
100
AcDbEntity
  8
1
  6
SLD-Solid
370
    25
100
AcDbLine
 10
14.475
 20
-26.5
 30
0.0
 11
18.725
 21
-26.5
 31
0.0
  0
LINE
  5
9B
330
1F
100
AcDbEntity
  8
1
  6
SLD-Solid
370
    25
100
AcDbLine
 10
18.725
 20
26.5
 30
0.0
 11
14.475
 21
26.5
 31
0.0
  0
LINE
  5
9C
330
1F
100
AcDbEntity
  8
1
  6
SLD-Solid
370
    25
100
AcDbLine
 10
0.2
 20
-22.225
 30
0.0
 11
0.9330363037
 21
-21.8831795579
 31
0.0
  0
LINE
  5
9D
330
1F
100
AcDbEntity
  8
1
  6
SLD-Solid
370
    25
100
AcDbLine
 10
0.9330363037
 20
21.8831795579
 30
0.0
 11
0.2
 21
22.225
 31
0.0
  0
LINE
  5
9E
330
1F
100
AcDbEntity
  8
SK1
  6
SLD-Solid
370
    25
100
AcDbLine
 10
0.0
 20
22.225
 30
0.0
 11
-64.544317822
 21
12.8115589574
 31
0.0
  0
LINE
  5
9F
330
1F
100
AcDbEntity
  8
SK1
  6
SLD-Solid
370
    25
100
AcDbLine
 10
-64.544317822
 20
-12.8115589574
 30
0.0
 11
0.0
 21
-22.225
 31
0.0
  0
LINE
  5
A0
330
1F
100
AcDbEntity
  8
1
  6
SLD-Solid
370
    25
100
AcDbLine
 10
0.2
 20
22.225
 30
0.0
 11
0.0
 21
22.225
 31
0.0
  0
LINE
  5
A1
330
1F
100
AcDbEntity
  8
1
  6
SLD-Solid
370
    25
100
AcDbLine
 10
0.0
 20
-22.225
 30
0.0
 11
0.2
 21
-22.225
 31
0.0
  0
LINE
  5
A2
330
1F
100
AcDbEntity
  8
1
  6
SLD-Solid
370
    25
100
AcDbLine
 10
72.0845537964
 20
17.5
 30
0.0
 11
29.0
 21
17.5
 31
0.0
  0
LINE
  5
A3
330
1F
100
AcDbEntity
  8
1
  6
SLD-Solid
370
    25
100
AcDbLine
 10
87.0
 20
17.5
 30
0.0
 11
85.9219966515
 21
17.5
 31
0.0
  0
LINE
  5
A4
330
1F
100
AcDbEntity
  8
1
  6
SLD-Solid
370
    25
100
AcDbLine
 10
86.1
 20
-17.5
 30
0.0
 11
87.0
 21
-17.5
 31
0.0
  0
LINE
  5
A5
330
1F
100
AcDbEntity
  8
1
  6
SLD-Solid
370
    25
100
AcDbLine
 10
29.0
 20
-17.5
 30
0.0
 11
73.9010433434
 21
-17.5
 31
0.0
  0
LINE
  5
A6
330
1F
100
AcDbEntity
  8
1
  6
SLD-Solid
370
    25
100
AcDbLine
 10
87.0
 20
-17.5
 30
0.0
 11
100.0
 21
-9.9944465005
 31
0.0
  0
LINE
  5
A7
330
1F
100
AcDbEntity
  8
1
  6
SLD-Solid
370
    25
100
AcDbLine
 10
100.0
 20
9.9944465005
 30
0.0
 11
87.0
 21
17.5
 31
0.0
  0
LINE
  5
A8
330
1F
100
AcDbEntity
  8
1
  6
SLD-Solid
370
    25
100
AcDbLine
 10
21.3784546204
 20
5.4632284209
 30
0.0
 11
21.6200000235
 21
5.8238675595
 31
0.0
  0
LINE
  5
A9
330
1F
100
AcDbEntity
  8
1
  6
SLD-Solid
370
    25
100
AcDbLine
 10
21.6200000025
 20
-5.823866909
 30
0.0
 11
21.3784546216
 21
-5.4632284305
 31
0.0
  0
LINE
  5
AA
330
1F
100
AcDbEntity
  8
1
  6
SLD-Solid
370
    25
100
AcDbLine
 10
21.6200000235
 20
31.5
 30
0.0
 11
21.6200000235
 21
5.8238675595
 31
0.0
  0
LINE
  5
AB
330
1F
100
AcDbEntity
  8
1
  6
SLD-Solid
370
    25
100
AcDbLine
 10
21.6200000025
 20
-5.823866909
 30
0.0
 11
21.62
 21
-31.5
 31
0.0
  0
LINE
  5
AC
330
1F
100
AcDbEntity
  8
1
  6
SLD-Solid
370
    25
100
AcDbLine
 10
27.0
 20
30.75
 30
0.0
 11
27.0
 21
-30.75
 31
0.0
  0
LINE
  5
AD
330
1F
100
AcDbEntity
  8
1
  6
SLD-Solid
370
    25
100
AcDbLine
 10
19.1
 20
-7.2024995661
 30
0.0
 11
19.1
 21
-27.113157367
 31
0.0
  0
LINE
  5
AE
330
1F
100
AcDbEntity
  8
1
  6
SLD-Solid
370
    25
100
AcDbLine
 10
19.1000001077
 20
27.1131572383
 30
0.0
 11
19.1000001077
 21
7.2024994374
 31
0.0
  0
LINE
  5
AF
330
1F
100
AcDbEntity
  8
1
  6
SLD-Solid
370
    25
100
AcDbLine
 10
2.75
 20
-8.095
 30
0.0
 11
11.804131339
 21
-8.095
 31
0.0
  0
LINE
  5
B0
330
1F
100
AcDbEntity
  8
1
  6
SLD-Solid
370
    25
100
AcDbLine
 10
11.58
 20
-8.439532456
 30
0.0
 11
2.75
 21
-8.439532456
 31
0.0
  0
LINE
  5
B1
330
1F
100
AcDbEntity
  8
1
  6
SLD-Solid
370
    25
100
AcDbLine
 10
2.3219692183
 20
-8.095
 30
0.0
 11
2.0
 21
-8.3532699268
 31
0.0
  0
LINE
  5
B2
330
1F
100
AcDbEntity
  8
1
  6
SLD-Solid
370
    25
100
AcDbLine
 10
11.58
 20
-8.439532456
 30
0.0
 11
11.58
 21
-31.5
 31
0.0
  0
LINE
  5
B3
330
1F
100
AcDbEntity
  8
1
  6
SLD-Solid
370
    25
100
AcDbLine
 10
2.0
 20
-30.75
 30
0.0
 11
2.0
 21
-8.3532699268
 31
0.0
  0
LINE
  5
B4
330
1F
100
AcDbEntity
  8
1
  6
SLD-Solid
370
    25
100
AcDbLine
 10
14.1
 20
-8.095
 30
0.0
 11
14.1
 21
-27.113157367
 31
0.0
  0
LINE
  5
B5
330
1F
100
AcDbEntity
  8
1
  6
SLD-Solid
370
    25
100
AcDbLine
 10
11.58
 20
31.5
 30
0.0
 11
11.58
 21
8.5720481928
 31
0.0
  0
LINE
  5
B6
330
1F
100
AcDbEntity
  8
1
  6
SLD-Solid
370
    25
100
AcDbLine
 10
2.75
 20
8.5720481928
 30
0.0
 11
11.58
 21
8.5720481928
 31
0.0
  0
LINE
  5
B7
330
1F
100
AcDbEntity
  8
1
  6
SLD-Solid
370
    25
100
AcDbLine
 10
2.0
 20
8.47
 30
0.0
 11
2.0
 21
30.75
 31
0.0
  0
LINE
  5
B8
330
1F
100
AcDbEntity
  8
1
  6
SLD-Solid
370
    25
100
AcDbLine
 10
11.8528324644
 20
8.095
 30
0.0
 11
2.75
 21
8.095
 31
0.0
  0
LINE
  5
B9
330
1F
100
AcDbEntity
  8
1
  6
SLD-Solid
370
    25
100
AcDbLine
 10
2.0
 20
8.47
 30
0.0
 11
2.375
 21
8.095
 31
0.0
  0
LINE
  5
BA
330
1F
100
AcDbEntity
  8
1
  6
SLD-Solid
370
    25
100
AcDbLine
 10
14.1
 20
27.113157367
 30
0.0
 11
14.1
 21
8.095
 31
0.0
  0
LINE
  5
BB
330
1F
100
AcDbEntity
  8
1
  6
SLD-Solid
370
    25
100
AcDbLine
 10
14.475
 20
-8.095
 30
0.0
 11
15.405
 21
-8.095
 31
0.0
  0
LINE
  5
BC
330
1F
100
AcDbEntity
  8
1
  6
SLD-Solid
370
    25
100
AcDbLine
 10
15.4050001077
 20
8.0949998713
 30
0.0
 11
14.475
 21
8.095
 31
0.0
  0
LINE
  5
BD
330
1F
100
AcDbEntity
  8
1
  6
SLD-Solid
370
    25
100
AcDbLine
 10
2.7894586328
 20
-7.72
 30
0.0
 11
15.405
 21
-7.72
 31
0.0
  0
LINE
  5
BE
330
1F
100
AcDbEntity
  8
1
  6
SLD-Solid
370
    25
100
AcDbLine
 10
2.3219692183
 20
-8.095
 30
0.0
 11
2.7894586328
 21
-7.72
 31
0.0
  0
LINE
  5
BF
330
1F
100
AcDbEntity
  8
1
  6
SLD-Solid
370
    25
100
AcDbLine
 10
15.4050001077
 20
7.72
 30
0.0
 11
2.75
 21
7.72
 31
0.0
  0
LINE
  5
C0
330
1F
100
AcDbEntity
  8
1
  6
SLD-Solid
370
    25
100
AcDbLine
 10
2.75
 20
7.72
 30
0.0
 11
2.375
 21
8.095
 31
0.0
  0
LINE
  5
C1
330
1F
100
AcDbEntity
  8
1
  6
SLD-Solid
370
    25
100
AcDbLine
 10
2.0
 20
8.47
 30
0.0
 11
2.0
 21
2.2544235705
 31
0.0
  0
LINE
  5
C2
330
1F
100
AcDbEntity
  8
1
  6
SLD-Solid
370
    25
100
AcDbLine
 10
2.0
 20
-2.2544235705
 30
0.0
 11
2.0
 21
-8.3532699268
 31
0.0
  0
LINE
  5
C3
330
1F
100
AcDbEntity
  8
1
  6
SLD-Solid
370
    25
100
AcDbLine
 10
0.0
 20
22.225
 30
0.0
 11
0.0
 21
-22.225
 31
0.0
  0
LINE
  5
C4
330
1F
100
AcDbEntity
  8
1
  6
SLD-Solid
370
    25
100
AcDbLine
 10
87.0
 20
17.5
 30
0.0
 11
87.0
 21
-17.5
 31
0.0
  0
LINE
  5
C5
330
1F
100
AcDbEntity
  8
1
  6
SLD-Solid
370
    25
100
AcDbLine
 10
100.0
 20
9.9944465005
 30
0.0
 11
100.0
 21
-9.9944465005
 31
0.0
  0
LINE
  5
C6
330
1F
100
AcDbEntity
  8
SK1
  6
SLD-Solid
370
    25
100
AcDbLine
 10
-65.4
 20
11.8220275702
 30
0.0
 11
-65.4
 21
-11.8220275702
 31
0.0
  0
LINE
  5
C7
330
1F
100
AcDbEntity
  8
1
  6
SLD-Dashed
370
    18
100
AcDbLine
 10
2.75
 20
-8.3900162539
 30
0.0
 11
11.58
 21
-8.3900162539
 31
0.0
  0
LINE
  5
C8
330
1F
100
AcDbEntity
  8
SK3
  6
SLD-Dashed
370
    18
100
AcDbLine
 10
9.0
 20
26.4316180962
 30
0.0
 11
8.4823619098
 21
26.4083099886
 31
0.0
  0
LINE
  5
C9
330
1F
100
AcDbEntity
  8
SK3
  6
SLD-Dashed
370
    18
100
AcDbLine
 10
8.4823619098
 20
26.4083099886
 30
0.0
 11
8.0
 21
26.339974075
 31
0.0
  0
LINE
  5
CA
330
1F
100
AcDbEntity
  8
SK3
  6
SLD-Dashed
370
    18
100
AcDbLine
 10
8.0
 20
26.339974075
 30
0.0
 11
7.5857864376
 21
26.2312673348
 31
0.0
  0
LINE
  5
CB
330
1F
100
AcDbEntity
  8
SK3
  6
SLD-Dashed
370
    18
100
AcDbLine
 10
7.5857864376
 20
26.2312673348
 30
0.0
 11
7.2679491924
 21
26.0895979529
 31
0.0
  0
LINE
  5
CC
330
1F
100
AcDbEntity
  8
SK3
  6
SLD-Dashed
370
    18
100
AcDbLine
 10
7.2679491924
 20
26.0895979529
 30
0.0
 11
7.0681483474
 21
25.9246204633
 31
0.0
  0
LINE
  5
CD
330
1F
100
AcDbEntity
  8
SK3
  6
SLD-Dashed
370
    18
100
AcDbLine
 10
7.0681483474
 20
25.9246204633
 30
0.0
 11
7.0
 21
25.7475778095
 31
0.0
  0
LINE
  5
CE
330
1F
100
AcDbEntity
  8
SK3
  6
SLD-Dashed
370
    18
100
AcDbLine
 10
7.0
 20
25.7475778095
 30
0.0
 11
7.0681483474
 21
25.5705351557
 31
0.0
  0
LINE
  5
CF
330
1F
100
AcDbEntity
  8
SK3
  6
SLD-Dashed
370
    18
100
AcDbLine
 10
7.0681483474
 20
25.5705351557
 30
0.0
 11
7.2679491924
 21
25.4055576662
 31
0.0
  0
LINE
  5
D0
330
1F
100
AcDbEntity
  8
SK3
  6
SLD-Dashed
370
    18
100
AcDbLine
 10
7.2679491924
 20
25.4055576662
 30
0.0
 11
7.5857864376
 21
25.2638882842
 31
0.0
  0
LINE
  5
D1
330
1F
100
AcDbEntity
  8
SK3
  6
SLD-Dashed
370
    18
100
AcDbLine
 10
7.5857864376
 20
25.2638882842
 30
0.0
 11
8.0
 21
25.1551815441
 31
0.0
  0
LINE
  5
D2
330
1F
100
AcDbEntity
  8
SK3
  6
SLD-Dashed
370
    18
100
AcDbLine
 10
8.0
 20
25.1551815441
 30
0.0
 11
8.4823619098
 21
25.0868456304
 31
0.0
  0
LINE
  5
D3
330
1F
100
AcDbEntity
  8
SK3
  6
SLD-Dashed
370
    18
100
AcDbLine
 10
8.4823619098
 20
25.0868456304
 30
0.0
 11
9.0
 21
25.0635375229
 31
0.0
  0
LINE
  5
D4
330
1F
100
AcDbEntity
  8
SK3
  6
SLD-Dashed
370
    18
100
AcDbLine
 10
9.0
 20
25.0635375229
 30
0.0
 11
9.5176380902
 21
25.0868456304
 31
0.0
  0
LINE
  5
D5
330
1F
100
AcDbEntity
  8
SK3
  6
SLD-Dashed
370
    18
100
AcDbLine
 10
9.5176380902
 20
25.0868456304
 30
0.0
 11
10.0
 21
25.1551815441
 31
0.0
  0
LINE
  5
D6
330
1F
100
AcDbEntity
  8
SK3
  6
SLD-Dashed
370
    18
100
AcDbLine
 10
10.0
 20
25.1551815441
 30
0.0
 11
10.4142135624
 21
25.2638882842
 31
0.0
  0
LINE
  5
D7
330
1F
100
AcDbEntity
  8
SK3
  6
SLD-Dashed
370
    18
100
AcDbLine
 10
10.4142135624
 20
25.2638882842
 30
0.0
 11
10.7320508076
 21
25.4055576662
 31
0.0
  0
LINE
  5
D8
330
1F
100
AcDbEntity
  8
SK3
  6
SLD-Dashed
370
    18
100
AcDbLine
 10
10.7320508076
 20
25.4055576662
 30
0.0
 11
10.9318516526
 21
25.5705351557
 31
0.0
  0
LINE
  5
D9
330
1F
100
AcDbEntity
  8
SK3
  6
SLD-Dashed
370
    18
100
AcDbLine
 10
10.9318516526
 20
25.5705351557
 30
0.0
 11
11.0
 21
25.7475778095
 31
0.0
  0
LINE
  5
DA
330
1F
100
AcDbEntity
  8
SK3
  6
SLD-Dashed
370
    18
100
AcDbLine
 10
11.0
 20
25.7475778095
 30
0.0
 11
10.9318516526
 21
25.9246204633
 31
0.0
  0
LINE
  5
DB
330
1F
100
AcDbEntity
  8
SK3
  6
SLD-Dashed
370
    18
100
AcDbLine
 10
10.9318516526
 20
25.9246204633
 30
0.0
 11
10.7320508076
 21
26.0895979529
 31
0.0
  0
LINE
  5
DC
330
1F
100
AcDbEntity
  8
SK3
  6
SLD-Dashed
370
    18
100
AcDbLine
 10
10.7320508076
 20
26.0895979529
 30
0.0
 11
10.4142135624
 21
26.2312673348
 31
0.0
  0
LINE
  5
DD
330
1F
100
AcDbEntity
  8
SK3
  6
SLD-Dashed
370
    18
100
AcDbLine
 10
10.4142135624
 20
26.2312673348
 30
0.0
 11
10.0
 21
26.339974075
 31
0.0
  0
LINE
  5
DE
330
1F
100
AcDbEntity
  8
SK3
  6
SLD-Dashed
370
    18
100
AcDbLine
 10
10.0
 20
26.339974075
 30
0.0
 11
9.5176380902
 21
26.4083099886
 31
0.0
  0
LINE
  5
DF
330
1F
100
AcDbEntity
  8
SK3
  6
SLD-Dashed
370
    18
100
AcDbLine
 10
9.5176380902
 20
26.4083099886
 30
0.0
 11
9.0
 21
26.4316180962
 31
0.0
  0
LINE
  5
E0
330
1F
100
AcDbEntity
  8
SK3
  6
SLD-Dashed
370
    18
100
AcDbLine
 10
2.2382596061
 20
22.7011180302
 30
0.0
 11
2.3601108266
 21
22.6999184304
 31
0.0
  0
LINE
  5
E1
330
1F
100
AcDbEntity
  8
SK3
  6
SLD-Dashed
370
    18
100
AcDbLine
 10
2.3601108266
 20
22.6999184304
 30
0.0
 11
2.5468345299
 21
22.8090237859
 31
0.0
  0
LINE
  5
E2
330
1F
100
AcDbEntity
  8
SK3
  6
SLD-Dashed
370
    18
100
AcDbLine
 10
2.5468345299
 20
22.8090237859
 30
0.0
 11
2.786698179
 21
23.0215786057
 31
0.0
  0
LINE
  5
E3
330
1F
100
AcDbEntity
  8
SK3
  6
SLD-Dashed
370
    18
100
AcDbLine
 10
2.786698179
 20
23.0215786057
 30
0.0
 11
3.0646302588
 21
23.3242272888
 31
0.0
  0
LINE
  5
E4
330
1F
100
AcDbEntity
  8
SK3
  6
SLD-Dashed
370
    18
100
AcDbLine
 10
3.0646302588
 20
23.3242272888
 30
0.0
 11
3.3631672744
 21
23.6979533055
 31
0.0
  0
LINE
  5
E5
330
1F
100
AcDbEntity
  8
SK3
  6
SLD-Dashed
370
    18
100
AcDbLine
 10
3.3631672744
 20
23.6979533055
 30
0.0
 11
3.6635510473
 21
24.1192740755
 31
0.0
  0
LINE
  5
E6
330
1F
100
AcDbEntity
  8
SK3
  6
SLD-Dashed
370
    18
100
AcDbLine
 10
3.6635510473
 20
24.1192740755
 30
0.0
 11
3.9469073602
 21
24.5617164655
 31
0.0
  0
LINE
  5
E7
330
1F
100
AcDbEntity
  8
SK3
  6
SLD-Dashed
370
    18
100
AcDbLine
 10
3.9469073602
 20
24.5617164655
 30
0.0
 11
4.195431894
 21
24.9974801929
 31
0.0
  0
LINE
  5
E8
330
1F
100
AcDbEntity
  8
SK3
  6
SLD-Dashed
370
    18
100
AcDbLine
 10
4.195431894
 20
24.9974801929
 30
0.0
 11
4.393508938
 21
25.39918462
 31
0.0
  0
LINE
  5
E9
330
1F
100
AcDbEntity
  8
SK3
  6
SLD-Dashed
370
    18
100
AcDbLine
 10
4.393508938
 20
25.39918462
 30
0.0
 11
4.5286925833
 21
25.7415891804
 31
0.0
  0
LINE
  5
EA
330
1F
100
AcDbEntity
  8
SK3
  6
SLD-Dashed
370
    18
100
AcDbLine
 10
4.5286925833
 20
25.7415891804
 30
0.0
 11
4.5924887442
 21
26.0031793362
 31
0.0
  0
LINE
  5
EB
330
1F
100
AcDbEntity
  8
SK3
  6
SLD-Dashed
370
    18
100
AcDbLine
 10
4.5924887442
 20
26.0031793362
 30
0.0
 11
4.5808888732
 21
26.1675184158
 31
0.0
  0
LINE
  5
EC
330
1F
100
AcDbEntity
  8
SK3
  6
SLD-Dashed
370
    18
100
AcDbLine
 10
4.5808888732
 20
26.1675184158
 30
0.0
 11
4.494621833
 21
26.2242803906
 31
0.0
  0
LINE
  5
ED
330
1F
100
AcDbEntity
  8
SK3
  6
SLD-Dashed
370
    18
100
AcDbLine
 10
4.494621833
 20
26.2242803906
 30
0.0
 11
4.3391080989
 21
26.1698986969
 31
0.0
  0
LINE
  5
EE
330
1F
100
AcDbEntity
  8
SK3
  6
SLD-Dashed
370
    18
100
AcDbLine
 10
4.3391080989
 20
26.1698986969
 30
0.0
 11
4.1241191707
 21
26.0077903364
 31
0.0
  0
LINE
  5
EF
330
1F
100
AcDbEntity
  8
SK3
  6
SLD-Dashed
370
    18
100
AcDbLine
 10
4.1241191707
 20
26.0077903364
 30
0.0
 11
3.8631635936
 21
25.7481411737
 31
0.0
  0
LINE
  5
F0
330
1F
100
AcDbEntity
  8
SK3
  6
SLD-Dashed
370
    18
100
AcDbLine
 10
3.8631635936
 20
25.7481411737
 30
0.0
 11
3.5726381662
 21
25.4072659207
 31
0.0
  0
LINE
  5
F1
330
1F
100
AcDbEntity
  8
SK3
  6
SLD-Dashed
370
    18
100
AcDbLine
 10
3.5726381662
 20
25.4072659207
 30
0.0
 11
3.2707976694
 21
25.006583023
 31
0.0
  0
LINE
  5
F2
330
1F
100
AcDbEntity
  8
SK3
  6
SLD-Dashed
370
    18
100
AcDbLine
 10
3.2707976694
 20
25.006583023
 30
0.0
 11
2.9766078519
 21
24.5712688607
 31
0.0
  0
LINE
  5
F3
330
1F
100
AcDbEntity
  8
SK3
  6
SLD-Dashed
370
    18
100
AcDbLine
 10
2.9766078519
 20
24.5712688607
 30
0.0
 11
2.7085537419
 21
24.1286758238
 31
0.0
  0
LINE
  5
F4
330
1F
100
AcDbEntity
  8
SK3
  6
SLD-Dashed
370
    18
100
AcDbLine
 10
2.7085537419
 20
24.1286758238
 30
0.0
 11
2.4834781648
 21
23.7066136603
 31
0.0
  0
LINE
  5
F5
330
1F
100
AcDbEntity
  8
SK3
  6
SLD-Dashed
370
    18
100
AcDbLine
 10
2.4834781648
 20
23.7066136603
 30
0.0
 11
2.315523447
 21
23.3316020883
 31
0.0
  0
LINE
  5
F6
330
1F
100
AcDbEntity
  8
SK3
  6
SLD-Dashed
370
    18
100
AcDbLine
 10
2.315523447
 20
23.3316020883
 30
0.0
 11
2.2152428011
 21
23.027204464
 31
0.0
  0
LINE
  5
F7
330
1F
100
AcDbEntity
  8
SK3
  6
SLD-Dashed
370
    18
100
AcDbLine
 10
2.2152428011
 20
23.027204464
 30
0.0
 11
2.1889372288
 21
22.8125472097
 31
0.0
  0
LINE
  5
F8
330
1F
100
AcDbEntity
  8
SK3
  6
SLD-Dashed
370
    18
100
AcDbLine
 10
2.1889372288
 20
22.8125472097
 30
0.0
 11
2.2382596061
 21
22.7011180302
 31
0.0
  0
LINE
  5
F9
330
1F
100
AcDbEntity
  8
SK3
  6
SLD-Dashed
370
    18
100
AcDbLine
 10
9.0
 20
26.1220249204
 30
0.0
 11
8.5351412812
 21
26.0991654591
 31
0.0
  0
LINE
  5
FA
330
1F
100
AcDbEntity
  8
SK3
  6
SLD-Dashed
370
    18
100
AcDbLine
 10
8.5351412812
 20
26.0991654591
 30
0.0
 11
8.1079426512
 21
26.0324390128
 31
0.0
  0
LINE
  5
FB
330
1F
100
AcDbEntity
  8
SK3
  6
SLD-Dashed
370
    18
100
AcDbLine
 10
8.1079426512
 20
26.0324390128
 30
0.0
 11
7.7530132023
 21
25.9272513613
 31
0.0
  0
LINE
  5
FC
330
1F
100
AcDbEntity
  8
SK3
  6
SLD-Dashed
370
    18
100
AcDbLine
 10
7.7530132023
 20
25.9272513613
 30
0.0
 11
7.4991072077
 21
25.7921241827
 31
0.0
  0
LINE
  5
FD
330
1F
100
AcDbEntity
  8
SK3
  6
SLD-Dashed
370
    18
100
AcDbLine
 10
7.4991072077
 20
25.7921241827
 30
0.0
 11
7.3667946209
 21
25.6380046772
 31
0.0
  0
LINE
  5
FE
330
1F
100
AcDbEntity
  8
SK3
  6
SLD-Dashed
370
    18
100
AcDbLine
 10
7.3667946209
 20
25.6380046772
 30
0.0
 11
7.3667946209
 21
25.4773786906
 31
0.0
  0
LINE
  5
FF
330
1F
100
AcDbEntity
  8
SK3
  6
SLD-Dashed
370
    18
100
AcDbLine
 10
7.3667946209
 20
25.4773786906
 30
0.0
 11
7.4991072077
 21
25.3232591851
 31
0.0
  0
LINE
  5
100
330
1F
100
AcDbEntity
  8
SK3
  6
SLD-Dashed
370
    18
100
AcDbLine
 10
7.4991072077
 20
25.3232591851
 30
0.0
 11
7.7530132023
 21
25.1881320064
 31
0.0
  0
LINE
  5
101
330
1F
100
AcDbEntity
  8
SK3
  6
SLD-Dashed
370
    18
100
AcDbLine
 10
7.7530132023
 20
25.1881320064
 30
0.0
 11
8.1079426512
 21
25.082944355
 31
0.0
  0
LINE
  5
102
330
1F
100
AcDbEntity
  8
SK3
  6
SLD-Dashed
370
    18
100
AcDbLine
 10
8.1079426512
 20
25.082944355
 30
0.0
 11
8.5351412812
 21
25.0162179087
 31
0.0
  0
LINE
  5
103
330
1F
100
AcDbEntity
  8
SK3
  6
SLD-Dashed
370
    18
100
AcDbLine
 10
8.5351412812
 20
25.0162179087
 30
0.0
 11
9.0
 21
24.9933584474
 31
0.0
  0
LINE
  5
104
330
1F
100
AcDbEntity
  8
SK3
  6
SLD-Dashed
370
    18
100
AcDbLine
 10
9.0
 20
24.9933584474
 30
0.0
 11
9.4648587188
 21
25.0162179087
 31
0.0
  0
LINE
  5
105
330
1F
100
AcDbEntity
  8
SK3
  6
SLD-Dashed
370
    18
100
AcDbLine
 10
9.4648587188
 20
25.0162179087
 30
0.0
 11
9.8920573488
 21
25.082944355
 31
0.0
  0
LINE
  5
106
330
1F
100
AcDbEntity
  8
SK3
  6
SLD-Dashed
370
    18
100
AcDbLine
 10
9.8920573488
 20
25.082944355
 30
0.0
 11
10.2469867977
 21
25.1881320064
 31
0.0
  0
LINE
  5
107
330
1F
100
AcDbEntity
  8
SK3
  6
SLD-Dashed
370
    18
100
AcDbLine
 10
10.2469867977
 20
25.1881320064
 30
0.0
 11
10.5008927923
 21
25.3232591851
 31
0.0
  0
LINE
  5
108
330
1F
100
AcDbEntity
  8
SK3
  6
SLD-Dashed
370
    18
100
AcDbLine
 10
10.5008927923
 20
25.3232591851
 30
0.0
 11
10.6332053791
 21
25.4773786906
 31
0.0
  0
LINE
  5
109
330
1F
100
AcDbEntity
  8
SK3
  6
SLD-Dashed
370
    18
100
AcDbLine
 10
10.6332053791
 20
25.4773786906
 30
0.0
 11
10.6332053791
 21
25.6380046772
 31
0.0
  0
LINE
  5
10A
330
1F
100
AcDbEntity
  8
SK3
  6
SLD-Dashed
370
    18
100
AcDbLine
 10
10.6332053791
 20
25.6380046772
 30
0.0
 11
10.5008927923
 21
25.7921241827
 31
0.0
  0
LINE
  5
10B
330
1F
100
AcDbEntity
  8
SK3
  6
SLD-Dashed
370
    18
100
AcDbLine
 10
10.5008927923
 20
25.7921241827
 30
0.0
 11
10.2469867977
 21
25.9272513613
 31
0.0
  0
LINE
  5
10C
330
1F
100
AcDbEntity
  8
SK3
  6
SLD-Dashed
370
    18
100
AcDbLine
 10
10.2469867977
 20
25.9272513613
 30
0.0
 11
9.8920573488
 21
26.0324390128
 31
0.0
  0
LINE
  5
10D
330
1F
100
AcDbEntity
  8
SK3
  6
SLD-Dashed
370
    18
100
AcDbLine
 10
9.8920573488
 20
26.0324390128
 30
0.0
 11
9.4648587188
 21
26.0991654591
 31
0.0
  0
LINE
  5
10E
330
1F
100
AcDbEntity
  8
SK3
  6
SLD-Dashed
370
    18
100
AcDbLine
 10
9.4648587188
 20
26.0991654591
 30
0.0
 11
9.0
 21
26.1220249204
 31
0.0
  0
LINE
  5
10F
330
1F
100
AcDbEntity
  8
SK3
  6
SLD-Dashed
370
    18
100
AcDbLine
 10
2.3207095254
 20
22.8264256948
 30
0.0
 11
2.4399423086
 21
22.8275107239
 31
0.0
  0
LINE
  5
110
330
1F
100
AcDbEntity
  8
SK3
  6
SLD-Dashed
370
    18
100
AcDbLine
 10
2.4399423086
 20
22.8275107239
 30
0.0
 11
2.6240943094
 21
22.9395354435
 31
0.0
  0
LINE
  5
111
330
1F
100
AcDbEntity
  8
SK3
  6
SLD-Dashed
370
    18
100
AcDbLine
 10
2.6240943094
 20
22.9395354435
 30
0.0
 11
2.8606158731
 21
23.154865554
 31
0.0
  0
LINE
  5
112
330
1F
100
AcDbEntity
  8
SK3
  6
SLD-Dashed
370
    18
100
AcDbLine
 10
2.8606158731
 20
23.154865554
 30
0.0
 11
3.1333884461
 21
23.4588266644
 31
0.0
  0
LINE
  5
113
330
1F
100
AcDbEntity
  8
SK3
  6
SLD-Dashed
370
    18
100
AcDbLine
 10
3.1333884461
 20
23.4588266644
 30
0.0
 11
3.4238230283
 21
23.8307043273
 31
0.0
  0
LINE
  5
114
330
1F
100
AcDbEntity
  8
SK3
  6
SLD-Dashed
370
    18
100
AcDbLine
 10
3.4238230283
 20
23.8307043273
 30
0.0
 11
3.7121269829
 21
24.2451556944
 31
0.0
  0
LINE
  5
115
330
1F
100
AcDbEntity
  8
SK3
  6
SLD-Dashed
370
    18
100
AcDbLine
 10
3.7121269829
 20
24.2451556944
 30
0.0
 11
3.9786528717
 21
24.6739365901
 31
0.0
  0
LINE
  5
116
330
1F
100
AcDbEntity
  8
SK3
  6
SLD-Dashed
370
    18
100
AcDbLine
 10
3.9786528717
 20
24.6739365901
 30
0.0
 11
4.2052373961
 21
25.0878263049
 31
0.0
  0
LINE
  5
117
330
1F
100
AcDbEntity
  8
SK3
  6
SLD-Dashed
370
    18
100
AcDbLine
 10
4.2052373961
 20
25.0878263049
 30
0.0
 11
4.376439195
 21
25.4586189386
 31
0.0
  0
LINE
  5
118
330
1F
100
AcDbEntity
  8
SK3
  6
SLD-Dashed
370
    18
100
AcDbLine
 10
4.376439195
 20
25.4586189386
 30
0.0
 11
4.4805911487
 21
25.7610455862
 31
0.0
  0
LINE
  5
119
330
1F
100
AcDbEntity
  8
SK3
  6
SLD-Dashed
370
    18
100
AcDbLine
 10
4.4805911487
 20
25.7610455862
 30
0.0
 11
4.5105954739
 21
25.9744963713
 31
0.0
  0
LINE
  5
11A
330
1F
100
AcDbEntity
  8
SK3
  6
SLD-Dashed
370
    18
100
AcDbLine
 10
4.5105954739
 20
25.9744963713
 30
0.0
 11
4.4644074252
 21
26.0844249757
 31
0.0
  0
LINE
  5
11B
330
1F
100
AcDbEntity
  8
SK3
  6
SLD-Dashed
370
    18
100
AcDbLine
 10
4.4644074252
 20
26.0844249757
 30
0.0
 11
4.3451746419
 21
26.0833399466
 31
0.0
  0
LINE
  5
11C
330
1F
100
AcDbEntity
  8
SK3
  6
SLD-Dashed
370
    18
100
AcDbLine
 10
4.3451746419
 20
26.0833399466
 30
0.0
 11
4.1610226412
 21
25.971315227
 31
0.0
  0
LINE
  5
11D
330
1F
100
AcDbEntity
  8
SK3
  6
SLD-Dashed
370
    18
100
AcDbLine
 10
4.1610226412
 20
25.971315227
 30
0.0
 11
3.9245010774
 21
25.7559851164
 31
0.0
  0
LINE
  5
11E
330
1F
100
AcDbEntity
  8
SK3
  6
SLD-Dashed
370
    18
100
AcDbLine
 10
3.9245010774
 20
25.7559851164
 30
0.0
 11
3.6517285045
 21
25.452024006
 31
0.0
  0
LINE
  5
11F
330
1F
100
AcDbEntity
  8
SK3
  6
SLD-Dashed
370
    18
100
AcDbLine
 10
3.6517285045
 20
25.452024006
 30
0.0
 11
3.3612939223
 21
25.0801463432
 31
0.0
  0
LINE
  5
120
330
1F
100
AcDbEntity
  8
SK3
  6
SLD-Dashed
370
    18
100
AcDbLine
 10
3.3612939223
 20
25.0801463432
 30
0.0
 11
3.0729899677
 21
24.665694976
 31
0.0
  0
LINE
  5
121
330
1F
100
AcDbEntity
  8
SK3
  6
SLD-Dashed
370
    18
100
AcDbLine
 10
3.0729899677
 20
24.665694976
 30
0.0
 11
2.8064640788
 21
24.2369140804
 31
0.0
  0
LINE
  5
122
330
1F
100
AcDbEntity
  8
SK3
  6
SLD-Dashed
370
    18
100
AcDbLine
 10
2.8064640788
 20
24.2369140804
 30
0.0
 11
2.5798795545
 21
23.8230243656
 31
0.0
  0
LINE
  5
123
330
1F
100
AcDbEntity
  8
SK3
  6
SLD-Dashed
370
    18
100
AcDbLine
 10
2.5798795545
 20
23.8230243656
 30
0.0
 11
2.4086777556
 21
23.4522317318
 31
0.0
  0
LINE
  5
124
330
1F
100
AcDbEntity
  8
SK3
  6
SLD-Dashed
370
    18
100
AcDbLine
 10
2.4086777556
 20
23.4522317318
 30
0.0
 11
2.3045258018
 21
23.1498050843
 31
0.0
  0
LINE
  5
125
330
1F
100
AcDbEntity
  8
SK3
  6
SLD-Dashed
370
    18
100
AcDbLine
 10
2.3045258018
 20
23.1498050843
 30
0.0
 11
2.2745214767
 21
22.9363542992
 31
0.0
  0
LINE
  5
126
330
1F
100
AcDbEntity
  8
SK3
  6
SLD-Dashed
370
    18
100
AcDbLine
 10
2.2745214767
 20
22.9363542992
 30
0.0
 11
2.3207095254
 21
22.8264256948
 31
0.0
  0
LINE
  5
127
330
1F
100
AcDbEntity
  8
SK3
  6
SLD-Dashed
370
    18
100
AcDbLine
 10
7.4570510199
 20
24.1052202839
 30
0.0
 11
7.3976883993
 21
24.1456788519
 31
0.0
  0
LINE
  5
128
330
1F
100
AcDbEntity
  8
SK3
  6
SLD-Dashed
370
    18
100
AcDbLine
 10
7.3976883993
 20
24.1456788519
 30
0.0
 11
7.3535770614
 21
24.1197714526
 31
0.0
  0
LINE
  5
129
330
1F
100
AcDbEntity
  8
SK3
  6
SLD-Dashed
370
    18
100
AcDbLine
 10
7.3535770614
 20
24.1197714526
 30
0.0
 11
7.361074152
 21
24.0051579741
 31
0.0
  0
LINE
  5
12A
330
1F
100
AcDbEntity
  8
SK3
  6
SLD-Dashed
370
    18
100
AcDbLine
 10
7.361074152
 20
24.0051579741
 30
0.0
 11
7.4129285201
 21
23.831942356
 31
0.0
  0
LINE
  5
12B
330
1F
100
AcDbEntity
  8
SK3
  6
SLD-Dashed
370
    18
100
AcDbLine
 10
7.4129285201
 20
23.831942356
 30
0.0
 11
7.5585112941
 21
23.4782549596
 31
0.0
  0
LINE
  5
12C
330
1F
100
AcDbEntity
  8
SK3
  6
SLD-Dashed
370
    18
100
AcDbLine
 10
7.5585112941
 20
23.4782549596
 30
0.0
 11
7.9049335919
 21
22.7960887741
 31
0.0
  0
LINE
  5
12D
330
1F
100
AcDbEntity
  8
SK3
  6
SLD-Dashed
370
    18
100
AcDbLine
 10
7.9049335919
 20
22.7960887741
 30
0.0
 11
8.2587545243
 21
22.2137219987
 31
0.0
  0
LINE
  5
12E
330
1F
100
AcDbEntity
  8
SK3
  6
SLD-Dashed
370
    18
100
AcDbLine
 10
8.2587545243
 20
22.2137219987
 30
0.0
 11
8.6897174442
 21
21.6598949107
 31
0.0
  0
LINE
  5
12F
330
1F
100
AcDbEntity
  8
SK3
  6
SLD-Dashed
370
    18
100
AcDbLine
 10
8.6897174442
 20
21.6598949107
 30
0.0
 11
9.0187825099
 21
21.3815375084
 31
0.0
  0
LINE
  5
130
330
1F
100
AcDbEntity
  8
SK3
  6
SLD-Dashed
370
    18
100
AcDbLine
 10
9.0187825099
 20
21.3815375084
 30
0.0
 11
9.3310463374
 21
21.2463430543
 31
0.0
  0
LINE
  5
131
330
1F
100
AcDbEntity
  8
SK3
  6
SLD-Dashed
370
    18
100
AcDbLine
 10
9.3310463374
 20
21.2463430543
 30
0.0
 11
9.6616044379
 21
21.2267833783
 31
0.0
  0
LINE
  5
132
330
1F
100
AcDbEntity
  8
SK3
  6
SLD-Dashed
370
    18
100
AcDbLine
 10
9.6616044379
 20
21.2267833783
 30
0.0
 11
10.0490816672
 21
21.3339609132
 31
0.0
  0
LINE
  5
133
330
1F
100
AcDbEntity
  8
SK3
  6
SLD-Dashed
370
    18
100
AcDbLine
 10
10.0490816672
 20
21.3339609132
 30
0.0
 11
10.3629042855
 21
21.51710624
 31
0.0
  0
LINE
  5
134
330
1F
100
AcDbEntity
  8
SK3
  6
SLD-Dashed
370
    18
100
AcDbLine
 10
10.3629042855
 20
21.51710624
 30
0.0
 11
10.5951935462
 21
21.75600212
 31
0.0
  0
LINE
  5
135
330
1F
100
AcDbEntity
  8
SK3
  6
SLD-Dashed
370
    18
100
AcDbLine
 10
10.5951935462
 20
21.75600212
 30
0.0
 11
10.6450791666
 21
21.9591380276
 31
0.0
  0
LINE
  5
136
330
1F
100
AcDbEntity
  8
SK3
  6
SLD-Dashed
370
    18
100
AcDbLine
 10
10.6450791666
 20
21.9591380276
 30
0.0
 11
10.5210923685
 21
22.0969583763
 31
0.0
  0
LINE
  5
137
330
1F
100
AcDbEntity
  8
SK3
  6
SLD-Dashed
370
    18
100
AcDbLine
 10
10.5210923685
 20
22.0969583763
 30
0.0
 11
10.2406535263
 21
22.1781146638
 31
0.0
  0
LINE
  5
138
330
1F
100
AcDbEntity
  8
SK3
  6
SLD-Dashed
370
    18
100
AcDbLine
 10
10.2406535263
 20
22.1781146638
 30
0.0
 11
9.8074172571
 21
22.2364096103
 31
0.0
  0
LINE
  5
139
330
1F
100
AcDbEntity
  8
SK3
  6
SLD-Dashed
370
    18
100
AcDbLine
 10
9.8074172571
 20
22.2364096103
 30
0.0
 11
9.4692948959
 21
22.3061562179
 31
0.0
  0
LINE
  5
13A
330
1F
100
AcDbEntity
  8
SK3
  6
SLD-Dashed
370
    18
100
AcDbLine
 10
9.4692948959
 20
22.3061562179
 30
0.0
 11
9.1269876917
 21
22.4459693682
 31
0.0
  0
LINE
  5
13B
330
1F
100
AcDbEntity
  8
SK3
  6
SLD-Dashed
370
    18
100
AcDbLine
 10
9.1269876917
 20
22.4459693682
 30
0.0
 11
9.0
 21
22.5223312367
 31
0.0
  0
LINE
  5
13C
330
1F
100
AcDbEntity
  8
SK3
  6
SLD-Dashed
370
    18
100
AcDbLine
 10
13.5430925321
 20
15.4423237325
 30
0.0
 11
13.6623253154
 21
15.4434087615
 31
0.0
  0
LINE
  5
13D
330
1F
100
AcDbEntity
  8
SK3
  6
SLD-Dashed
370
    18
100
AcDbLine
 10
13.6623253154
 20
15.4434087615
 30
0.0
 11
13.8464773162
 21
15.5554334811
 31
0.0
  0
LINE
  5
13E
330
1F
100
AcDbEntity
  8
SK3
  6
SLD-Dashed
370
    18
100
AcDbLine
 10
13.8464773162
 20
15.5554334811
 30
0.0
 11
14.0829988799
 21
15.7707635917
 31
0.0
  0
LINE
  5
13F
330
1F
100
AcDbEntity
  8
SK3
  6
SLD-Dashed
370
    18
100
AcDbLine
 10
14.0829988799
 20
15.7707635917
 30
0.0
 11
14.3557714529
 21
16.0747247021
 31
0.0
  0
LINE
  5
140
330
1F
100
AcDbEntity
  8
SK3
  6
SLD-Dashed
370
    18
100
AcDbLine
 10
14.3557714529
 20
16.0747247021
 30
0.0
 11
14.6462060351
 21
16.446602365
 31
0.0
  0
LINE
  5
141
330
1F
100
AcDbEntity
  8
SK3
  6
SLD-Dashed
370
    18
100
AcDbLine
 10
14.6462060351
 20
16.446602365
 30
0.0
 11
14.9345099896
 21
16.8610537321
 31
0.0
  0
LINE
  5
142
330
1F
100
AcDbEntity
  8
SK3
  6
SLD-Dashed
370
    18
100
AcDbLine
 10
14.9345099896
 20
16.8610537321
 30
0.0
 11
15.2010358785
 21
17.2898346278
 31
0.0
  0
LINE
  5
143
330
1F
100
AcDbEntity
  8
SK3
  6
SLD-Dashed
370
    18
100
AcDbLine
 10
15.2010358785
 20
17.2898346278
 30
0.0
 11
15.4276204028
 21
17.7037243425
 31
0.0
  0
LINE
  5
144
330
1F
100
AcDbEntity
  8
SK3
  6
SLD-Dashed
370
    18
100
AcDbLine
 10
15.4276204028
 20
17.7037243425
 30
0.0
 11
15.5988222017
 21
18.0745169763
 31
0.0
  0
LINE
  5
145
330
1F
100
AcDbEntity
  8
SK3
  6
SLD-Dashed
370
    18
100
AcDbLine
 10
15.5988222017
 20
18.0745169763
 30
0.0
 11
15.7029741555
 21
18.3769436239
 31
0.0
  0
LINE
  5
146
330
1F
100
AcDbEntity
  8
SK3
  6
SLD-Dashed
370
    18
100
AcDbLine
 10
15.7029741555
 20
18.3769436239
 30
0.0
 11
15.7329784806
 21
18.590394409
 31
0.0
  0
LINE
  5
147
330
1F
100
AcDbEntity
  8
SK3
  6
SLD-Dashed
370
    18
100
AcDbLine
 10
15.7329784806
 20
18.590394409
 30
0.0
 11
15.686790432
 21
18.7003230133
 31
0.0
  0
LINE
  5
148
330
1F
100
AcDbEntity
  8
SK3
  6
SLD-Dashed
370
    18
100
AcDbLine
 10
15.686790432
 20
18.7003230133
 30
0.0
 11
15.5675576487
 21
18.6992379843
 31
0.0
  0
LINE
  5
149
330
1F
100
AcDbEntity
  8
SK3
  6
SLD-Dashed
370
    18
100
AcDbLine
 10
15.5675576487
 20
18.6992379843
 30
0.0
 11
15.3834056479
 21
18.5872132647
 31
0.0
  0
LINE
  5
14A
330
1F
100
AcDbEntity
  8
SK3
  6
SLD-Dashed
370
    18
100
AcDbLine
 10
15.3834056479
 20
18.5872132647
 30
0.0
 11
15.1468840842
 21
18.3718831541
 31
0.0
  0
LINE
  5
14B
330
1F
100
AcDbEntity
  8
SK3
  6
SLD-Dashed
370
    18
100
AcDbLine
 10
15.1468840842
 20
18.3718831541
 30
0.0
 11
14.8741115112
 21
18.0679220437
 31
0.0
  0
LINE
  5
14C
330
1F
100
AcDbEntity
  8
SK3
  6
SLD-Dashed
370
    18
100
AcDbLine
 10
14.8741115112
 20
18.0679220437
 30
0.0
 11
14.583676929
 21
17.6960443809
 31
0.0
  0
LINE
  5
14D
330
1F
100
AcDbEntity
  8
SK3
  6
SLD-Dashed
370
    18
100
AcDbLine
 10
14.583676929
 20
17.6960443809
 30
0.0
 11
14.2953729745
 21
17.2815930137
 31
0.0
  0
LINE
  5
14E
330
1F
100
AcDbEntity
  8
SK3
  6
SLD-Dashed
370
    18
100
AcDbLine
 10
14.2953729745
 20
17.2815930137
 30
0.0
 11
14.0288470856
 21
16.852812118
 31
0.0
  0
LINE
  5
14F
330
1F
100
AcDbEntity
  8
SK3
  6
SLD-Dashed
370
    18
100
AcDbLine
 10
14.0288470856
 20
16.852812118
 30
0.0
 11
13.8022625613
 21
16.4389224033
 31
0.0
  0
LINE
  5
150
330
1F
100
AcDbEntity
  8
SK3
  6
SLD-Dashed
370
    18
100
AcDbLine
 10
13.8022625613
 20
16.4389224033
 30
0.0
 11
13.6310607624
 21
16.0681297695
 31
0.0
  0
LINE
  5
151
330
1F
100
AcDbEntity
  8
SK3
  6
SLD-Dashed
370
    18
100
AcDbLine
 10
13.6310607624
 20
16.0681297695
 30
0.0
 11
13.5269088086
 21
15.7657031219
 31
0.0
  0
LINE
  5
152
330
1F
100
AcDbEntity
  8
SK3
  6
SLD-Dashed
370
    18
100
AcDbLine
 10
13.5269088086
 20
15.7657031219
 30
0.0
 11
13.4969044835
 21
15.5522523368
 31
0.0
  0
LINE
  5
153
330
1F
100
AcDbEntity
  8
SK3
  6
SLD-Dashed
370
    18
100
AcDbLine
 10
13.4969044835
 20
15.5522523368
 30
0.0
 11
13.5430925321
 21
15.4423237325
 31
0.0
  0
LINE
  5
154
330
1F
100
AcDbEntity
  8
SK3
  6
SLD-Dashed
370
    18
100
AcDbLine
 10
-63.65
 20
-8.505
 30
0.0
 11
-63.65
 21
8.505
 31
0.0
  0
LINE
  5
155
330
1F
100
AcDbEntity
  8
SK3
  6
SLD-Dashed
370
    18
100
AcDbLine
 10
-56.15
 20
-8.8
 30
0.0
 11
-56.15
 21
8.8
 31
0.0
  0
LINE
  5
156
330
1F
100
AcDbEntity
  8
SK3
  6
SLD-Dashed
370
    18
100
AcDbLine
 10
-55.1107695155
 20
-7.0
 30
0.0
 11
-55.1107695155
 21
7.0
 31
0.0
  0
LINE
  5
157
330
1F
100
AcDbEntity
  8
SK3
  6
SLD-Dashed
370
    18
100
AcDbLine
 10
-59.15
 20
-8.8
 30
0.0
 11
-59.15
 21
8.8
 31
0.0
  0
LINE
  5
158
330
1F
100
AcDbEntity
  8
SK3
  6
SLD-Dashed
370
    18
100
AcDbLine
 10
-59.6609549882
 20
-8.505
 30
0.0
 11
-59.6609549882
 21
8.505
 31
0.0
  0
LINE
  5
159
330
1F
100
AcDbEntity
  8
SK3
  6
SLD-Dashed
370
    18
100
AcDbLine
 10
60.6
 20
-6.99995
 30
0.0
 11
60.6
 21
6.99995
 31
0.0
  0
LINE
  5
15A
330
1F
100
AcDbEntity
  8
SK3
  6
SLD-Dashed
370
    18
100
AcDbLine
 10
61.801691195
 20
-5.0
 30
0.0
 11
61.801691195
 21
5.0
 31
0.0
  0
LINE
  5
15B
330
1F
100
AcDbEntity
  8
SK3
  6
SLD-Dashed
370
    18
100
AcDbLine
 10
86.1
 20
-16.0
 30
0.0
 11
73.9
 21
-16.0
 31
0.0
  0
LINE
  5
15C
330
1F
100
AcDbEntity
  8
SK3
  6
SLD-Dashed
370
    18
100
AcDbLine
 10
99.0
 20
-5.0
 30
0.0
 11
99.0
 21
5.0
 31
0.0
  0
LINE
  5
15D
330
1F
100
AcDbEntity
  8
SK3
  6
SLD-Dashed
370
    18
100
AcDbLine
 10
15.686790432
 20
-18.7003230133
 30
0.0
 11
15.5675576487
 21
-18.6992379843
 31
0.0
  0
LINE
  5
15E
330
1F
100
AcDbEntity
  8
SK3
  6
SLD-Dashed
370
    18
100
AcDbLine
 10
15.5675576487
 20
-18.6992379843
 30
0.0
 11
15.3834056479
 21
-18.5872132647
 31
0.0
  0
LINE
  5
15F
330
1F
100
AcDbEntity
  8
SK3
  6
SLD-Dashed
370
    18
100
AcDbLine
 10
15.3834056479
 20
-18.5872132647
 30
0.0
 11
15.1468840842
 21
-18.3718831541
 31
0.0
  0
LINE
  5
160
330
1F
100
AcDbEntity
  8
SK3
  6
SLD-Dashed
370
    18
100
AcDbLine
 10
15.1468840842
 20
-18.3718831541
 30
0.0
 11
14.8741115112
 21
-18.0679220437
 31
0.0
  0
LINE
  5
161
330
1F
100
AcDbEntity
  8
SK3
  6
SLD-Dashed
370
    18
100
AcDbLine
 10
14.8741115112
 20
-18.0679220437
 30
0.0
 11
14.583676929
 21
-17.6960443809
 31
0.0
  0
LINE
  5
162
330
1F
100
AcDbEntity
  8
SK3
  6
SLD-Dashed
370
    18
100
AcDbLine
 10
14.583676929
 20
-17.6960443809
 30
0.0
 11
14.2953729745
 21
-17.2815930137
 31
0.0
  0
LINE
  5
163
330
1F
100
AcDbEntity
  8
SK3
  6
SLD-Dashed
370
    18
100
AcDbLine
 10
14.2953729745
 20
-17.2815930137
 30
0.0
 11
14.0288470856
 21
-16.852812118
 31
0.0
  0
LINE
  5
164
330
1F
100
AcDbEntity
  8
SK3
  6
SLD-Dashed
370
    18
100
AcDbLine
 10
14.0288470856
 20
-16.852812118
 30
0.0
 11
13.8022625613
 21
-16.4389224033
 31
0.0
  0
LINE
  5
165
330
1F
100
AcDbEntity
  8
SK3
  6
SLD-Dashed
370
    18
100
AcDbLine
 10
13.8022625613
 20
-16.4389224033
 30
0.0
 11
13.6310607624
 21
-16.0681297695
 31
0.0
  0
LINE
  5
166
330
1F
100
AcDbEntity
  8
SK3
  6
SLD-Dashed
370
    18
100
AcDbLine
 10
13.6310607624
 20
-16.0681297695
 30
0.0
 11
13.5269088086
 21
-15.7657031219
 31
0.0
  0
LINE
  5
167
330
1F
100
AcDbEntity
  8
SK3
  6
SLD-Dashed
370
    18
100
AcDbLine
 10
13.5269088086
 20
-15.7657031219
 30
0.0
 11
13.4969044835
 21
-15.5522523368
 31
0.0
  0
LINE
  5
168
330
1F
100
AcDbEntity
  8
SK3
  6
SLD-Dashed
370
    18
100
AcDbLine
 10
13.4969044835
 20
-15.5522523368
 30
0.0
 11
13.5430925321
 21
-15.4423237325
 31
0.0
  0
LINE
  5
169
330
1F
100
AcDbEntity
  8
SK3
  6
SLD-Dashed
370
    18
100
AcDbLine
 10
13.5430925321
 20
-15.4423237325
 30
0.0
 11
13.6623253154
 21
-15.4434087615
 31
0.0
  0
LINE
  5
16A
330
1F
100
AcDbEntity
  8
SK3
  6
SLD-Dashed
370
    18
100
AcDbLine
 10
13.6623253154
 20
-15.4434087615
 30
0.0
 11
13.8464773162
 21
-15.5554334811
 31
0.0
  0
LINE
  5
16B
330
1F
100
AcDbEntity
  8
SK3
  6
SLD-Dashed
370
    18
100
AcDbLine
 10
13.8464773162
 20
-15.5554334811
 30
0.0
 11
14.0829988799
 21
-15.7707635917
 31
0.0
  0
LINE
  5
16C
330
1F
100
AcDbEntity
  8
SK3
  6
SLD-Dashed
370
    18
100
AcDbLine
 10
14.0829988799
 20
-15.7707635917
 30
0.0
 11
14.3557714529
 21
-16.0747247021
 31
0.0
  0
LINE
  5
16D
330
1F
100
AcDbEntity
  8
SK3
  6
SLD-Dashed
370
    18
100
AcDbLine
 10
14.3557714529
 20
-16.0747247021
 30
0.0
 11
14.6462060351
 21
-16.446602365
 31
0.0
  0
LINE
  5
16E
330
1F
100
AcDbEntity
  8
SK3
  6
SLD-Dashed
370
    18
100
AcDbLine
 10
14.6462060351
 20
-16.446602365
 30
0.0
 11
14.9345099896
 21
-16.8610537321
 31
0.0
  0
LINE
  5
16F
330
1F
100
AcDbEntity
  8
SK3
  6
SLD-Dashed
370
    18
100
AcDbLine
 10
14.9345099896
 20
-16.8610537321
 30
0.0
 11
15.2010358785
 21
-17.2898346278
 31
0.0
  0
LINE
  5
170
330
1F
100
AcDbEntity
  8
SK3
  6
SLD-Dashed
370
    18
100
AcDbLine
 10
15.2010358785
 20
-17.2898346278
 30
0.0
 11
15.4276204028
 21
-17.7037243425
 31
0.0
  0
LINE
  5
171
330
1F
100
AcDbEntity
  8
SK3
  6
SLD-Dashed
370
    18
100
AcDbLine
 10
15.4276204028
 20
-17.7037243425
 30
0.0
 11
15.5988222017
 21
-18.0745169763
 31
0.0
  0
LINE
  5
172
330
1F
100
AcDbEntity
  8
SK3
  6
SLD-Dashed
370
    18
100
AcDbLine
 10
15.5988222017
 20
-18.0745169763
 30
0.0
 11
15.7029741555
 21
-18.3769436239
 31
0.0
  0
LINE
  5
173
330
1F
100
AcDbEntity
  8
SK3
  6
SLD-Dashed
370
    18
100
AcDbLine
 10
15.7029741555
 20
-18.3769436239
 30
0.0
 11
15.7329784806
 21
-18.590394409
 31
0.0
  0
LINE
  5
174
330
1F
100
AcDbEntity
  8
SK3
  6
SLD-Dashed
370
    18
100
AcDbLine
 10
15.7329784806
 20
-18.590394409
 30
0.0
 11
15.686790432
 21
-18.7003230133
 31
0.0
  0
LINE
  5
175
330
1F
100
AcDbEntity
  8
SK3
  6
SLD-Dashed
370
    18
100
AcDbLine
 10
4.4644074252
 20
-26.0844249757
 30
0.0
 11
4.3451746419
 21
-26.0833399466
 31
0.0
  0
LINE
  5
176
330
1F
100
AcDbEntity
  8
SK3
  6
SLD-Dashed
370
    18
100
AcDbLine
 10
4.3451746419
 20
-26.0833399466
 30
0.0
 11
4.1610226412
 21
-25.971315227
 31
0.0
  0
LINE
  5
177
330
1F
100
AcDbEntity
  8
SK3
  6
SLD-Dashed
370
    18
100
AcDbLine
 10
4.1610226412
 20
-25.971315227
 30
0.0
 11
3.9245010774
 21
-25.7559851164
 31
0.0
  0
LINE
  5
178
330
1F
100
AcDbEntity
  8
SK3
  6
SLD-Dashed
370
    18
100
AcDbLine
 10
3.9245010774
 20
-25.7559851164
 30
0.0
 11
3.6517285045
 21
-25.452024006
 31
0.0
  0
LINE
  5
179
330
1F
100
AcDbEntity
  8
SK3
  6
SLD-Dashed
370
    18
100
AcDbLine
 10
3.6517285045
 20
-25.452024006
 30
0.0
 11
3.3612939223
 21
-25.0801463432
 31
0.0
  0
LINE
  5
17A
330
1F
100
AcDbEntity
  8
SK3
  6
SLD-Dashed
370
    18
100
AcDbLine
 10
3.3612939223
 20
-25.0801463432
 30
0.0
 11
3.0729899677
 21
-24.665694976
 31
0.0
  0
LINE
  5
17B
330
1F
100
AcDbEntity
  8
SK3
  6
SLD-Dashed
370
    18
100
AcDbLine
 10
3.0729899677
 20
-24.665694976
 30
0.0
 11
2.8064640788
 21
-24.2369140804
 31
0.0
  0
LINE
  5
17C
330
1F
100
AcDbEntity
  8
SK3
  6
SLD-Dashed
370
    18
100
AcDbLine
 10
2.8064640788
 20
-24.2369140804
 30
0.0
 11
2.5798795545
 21
-23.8230243656
 31
0.0
  0
LINE
  5
17D
330
1F
100
AcDbEntity
  8
SK3
  6
SLD-Dashed
370
    18
100
AcDbLine
 10
2.5798795545
 20
-23.8230243656
 30
0.0
 11
2.4086777556
 21
-23.4522317318
 31
0.0
  0
LINE
  5
17E
330
1F
100
AcDbEntity
  8
SK3
  6
SLD-Dashed
370
    18
100
AcDbLine
 10
2.4086777556
 20
-23.4522317318
 30
0.0
 11
2.3045258018
 21
-23.1498050843
 31
0.0
  0
LINE
  5
17F
330
1F
100
AcDbEntity
  8
SK3
  6
SLD-Dashed
370
    18
100
AcDbLine
 10
2.3045258018
 20
-23.1498050843
 30
0.0
 11
2.2745214767
 21
-22.9363542992
 31
0.0
  0
LINE
  5
180
330
1F
100
AcDbEntity
  8
SK3
  6
SLD-Dashed
370
    18
100
AcDbLine
 10
2.2745214767
 20
-22.9363542992
 30
0.0
 11
2.3207095254
 21
-22.8264256948
 31
0.0
  0
LINE
  5
181
330
1F
100
AcDbEntity
  8
SK3
  6
SLD-Dashed
370
    18
100
AcDbLine
 10
2.3207095254
 20
-22.8264256948
 30
0.0
 11
2.4399423086
 21
-22.8275107239
 31
0.0
  0
LINE
  5
182
330
1F
100
AcDbEntity
  8
SK3
  6
SLD-Dashed
370
    18
100
AcDbLine
 10
2.4399423086
 20
-22.8275107239
 30
0.0
 11
2.6240943094
 21
-22.9395354435
 31
0.0
  0
LINE
  5
183
330
1F
100
AcDbEntity
  8
SK3
  6
SLD-Dashed
370
    18
100
AcDbLine
 10
2.6240943094
 20
-22.9395354435
 30
0.0
 11
2.8606158731
 21
-23.154865554
 31
0.0
  0
LINE
  5
184
330
1F
100
AcDbEntity
  8
SK3
  6
SLD-Dashed
370
    18
100
AcDbLine
 10
2.8606158731
 20
-23.154865554
 30
0.0
 11
3.1333884461
 21
-23.4588266644
 31
0.0
  0
LINE
  5
185
330
1F
100
AcDbEntity
  8
SK3
  6
SLD-Dashed
370
    18
100
AcDbLine
 10
3.1333884461
 20
-23.4588266644
 30
0.0
 11
3.4238230283
 21
-23.8307043273
 31
0.0
  0
LINE
  5
186
330
1F
100
AcDbEntity
  8
SK3
  6
SLD-Dashed
370
    18
100
AcDbLine
 10
3.4238230283
 20
-23.8307043273
 30
0.0
 11
3.7121269829
 21
-24.2451556944
 31
0.0
  0
LINE
  5
187
330
1F
100
AcDbEntity
  8
SK3
  6
SLD-Dashed
370
    18
100
AcDbLine
 10
3.7121269829
 20
-24.2451556944
 30
0.0
 11
3.9786528717
 21
-24.6739365901
 31
0.0
  0
LINE
  5
188
330
1F
100
AcDbEntity
  8
SK3
  6
SLD-Dashed
370
    18
100
AcDbLine
 10
3.9786528717
 20
-24.6739365901
 30
0.0
 11
4.2052373961
 21
-25.0878263049
 31
0.0
  0
LINE
  5
189
330
1F
100
AcDbEntity
  8
SK3
  6
SLD-Dashed
370
    18
100
AcDbLine
 10
4.2052373961
 20
-25.0878263049
 30
0.0
 11
4.376439195
 21
-25.4586189386
 31
0.0
  0
LINE
  5
18A
330
1F
100
AcDbEntity
  8
SK3
  6
SLD-Dashed
370
    18
100
AcDbLine
 10
4.376439195
 20
-25.4586189386
 30
0.0
 11
4.4805911487
 21
-25.7610455862
 31
0.0
  0
LINE
  5
18B
330
1F
100
AcDbEntity
  8
SK3
  6
SLD-Dashed
370
    18
100
AcDbLine
 10
4.4805911487
 20
-25.7610455862
 30
0.0
 11
4.5105954739
 21
-25.9744963713
 31
0.0
  0
LINE
  5
18C
330
1F
100
AcDbEntity
  8
SK3
  6
SLD-Dashed
370
    18
100
AcDbLine
 10
4.5105954739
 20
-25.9744963713
 30
0.0
 11
4.4644074252
 21
-26.0844249757
 31
0.0
  0
LINE
  5
18D
330
1F
100
AcDbEntity
  8
SK3
  6
SLD-Dashed
370
    18
100
AcDbLine
 10
7.3820378341
 20
-24.1470331691
 30
0.0
 11
7.3504918459
 21
-24.1014337538
 31
0.0
  0
LINE
  5
18E
330
1F
100
AcDbEntity
  8
SK3
  6
SLD-Dashed
370
    18
100
AcDbLine
 10
7.3504918459
 20
-24.1014337538
 30
0.0
 11
7.3687923493
 21
-23.9729506595
 31
0.0
  0
LINE
  5
18F
330
1F
100
AcDbEntity
  8
SK3
  6
SLD-Dashed
370
    18
100
AcDbLine
 10
7.3687923493
 20
-23.9729506595
 30
0.0
 11
7.4479218764
 21
-23.7382957702
 31
0.0
  0
LINE
  5
190
330
1F
100
AcDbEntity
  8
SK3
  6
SLD-Dashed
370
    18
100
AcDbLine
 10
7.4479218764
 20
-23.7382957702
 30
0.0
 11
7.6410805432
 21
-23.3023903098
 31
0.0
  0
LINE
  5
191
330
1F
100
AcDbEntity
  8
SK3
  6
SLD-Dashed
370
    18
100
AcDbLine
 10
7.6410805432
 20
-23.3023903098
 30
0.0
 11
8.105178812
 21
-22.4536692312
 31
0.0
  0
LINE
  5
192
330
1F
100
AcDbEntity
  8
SK3
  6
SLD-Dashed
370
    18
100
AcDbLine
 10
8.105178812
 20
-22.4536692312
 30
0.0
 11
8.7667857623
 21
-21.582430302
 31
0.0
  0
LINE
  5
193
330
1F
100
AcDbEntity
  8
SK3
  6
SLD-Dashed
370
    18
100
AcDbLine
 10
8.7667857623
 20
-21.582430302
 30
0.0
 11
9.093568309
 21
-21.3378291832
 31
0.0
  0
LINE
  5
194
330
1F
100
AcDbEntity
  8
SK3
  6
SLD-Dashed
370
    18
100
AcDbLine
 10
9.093568309
 20
-21.3378291832
 30
0.0
 11
9.4029273959
 21
-21.2321009531
 31
0.0
  0
LINE
  5
195
330
1F
100
AcDbEntity
  8
SK3
  6
SLD-Dashed
370
    18
100
AcDbLine
 10
9.4029273959
 20
-21.2321009531
 30
0.0
 11
9.7191716979
 21
-21.2345133763
 31
0.0
  0
LINE
  5
196
330
1F
100
AcDbEntity
  8
SK3
  6
SLD-Dashed
370
    18
100
AcDbLine
 10
9.7191716979
 20
-21.2345133763
 30
0.0
 11
10.1148068689
 21
-21.3646203742
 31
0.0
  0
LINE
  5
197
330
1F
100
AcDbEntity
  8
SK3
  6
SLD-Dashed
370
    18
100
AcDbLine
 10
10.1148068689
 20
-21.3646203742
 30
0.0
 11
10.4222460794
 21
-21.5646137107
 31
0.0
  0
LINE
  5
198
330
1F
100
AcDbEntity
  8
SK3
  6
SLD-Dashed
370
    18
100
AcDbLine
 10
10.4222460794
 20
-21.5646137107
 30
0.0
 11
10.6206198047
 21
-21.8019877866
 31
0.0
  0
LINE
  5
199
330
1F
100
AcDbEntity
  8
SK3
  6
SLD-Dashed
370
    18
100
AcDbLine
 10
10.6206198047
 20
-21.8019877866
 30
0.0
 11
10.633134177
 21
-21.9923554895
 31
0.0
  0
LINE
  5
19A
330
1F
100
AcDbEntity
  8
SK3
  6
SLD-Dashed
370
    18
100
AcDbLine
 10
10.633134177
 20
-21.9923554895
 30
0.0
 11
10.5530882486
 21
-22.0781956401
 31
0.0
  0
LINE
  5
19B
330
1F
100
AcDbEntity
  8
SK3
  6
SLD-Dashed
370
    18
100
AcDbLine
 10
9.0
 20
-24.3375212143
 30
0.0
 11
8.5351412812
 21
-24.3603806756
 31
0.0
  0
LINE
  5
19C
330
1F
100
AcDbEntity
  8
SK3
  6
SLD-Dashed
370
    18
100
AcDbLine
 10
8.5351412812
 20
-24.3603806756
 30
0.0
 11
8.1079426512
 21
-24.4271071219
 31
0.0
  0
LINE
  5
19D
330
1F
100
AcDbEntity
  8
SK3
  6
SLD-Dashed
370
    18
100
AcDbLine
 10
8.1079426512
 20
-24.4271071219
 30
0.0
 11
7.7530132023
 21
-24.5322947734
 31
0.0
  0
LINE
  5
19E
330
1F
100
AcDbEntity
  8
SK3
  6
SLD-Dashed
370
    18
100
AcDbLine
 10
7.7530132023
 20
-24.5322947734
 30
0.0
 11
7.4991072077
 21
-24.6674219521
 31
0.0
  0
LINE
  5
19F
330
1F
100
AcDbEntity
  8
SK3
  6
SLD-Dashed
370
    18
100
AcDbLine
 10
7.4991072077
 20
-24.6674219521
 30
0.0
 11
7.3667946209
 21
-24.8215414575
 31
0.0
  0
LINE
  5
1A0
330
1F
100
AcDbEntity
  8
SK3
  6
SLD-Dashed
370
    18
100
AcDbLine
 10
7.3667946209
 20
-24.8215414575
 30
0.0
 11
7.3667946209
 21
-24.9821674441
 31
0.0
  0
LINE
  5
1A1
330
1F
100
AcDbEntity
  8
SK3
  6
SLD-Dashed
370
    18
100
AcDbLine
 10
7.3667946209
 20
-24.9821674441
 30
0.0
 11
7.4991072077
 21
-25.1362869496
 31
0.0
  0
LINE
  5
1A2
330
1F
100
AcDbEntity
  8
SK3
  6
SLD-Dashed
370
    18
100
AcDbLine
 10
7.4991072077
 20
-25.1362869496
 30
0.0
 11
7.7530132023
 21
-25.2714141283
 31
0.0
  0
LINE
  5
1A3
330
1F
100
AcDbEntity
  8
SK3
  6
SLD-Dashed
370
    18
100
AcDbLine
 10
7.7530132023
 20
-25.2714141283
 30
0.0
 11
8.1079426512
 21
-25.3766017797
 31
0.0
  0
LINE
  5
1A4
330
1F
100
AcDbEntity
  8
SK3
  6
SLD-Dashed
370
    18
100
AcDbLine
 10
8.1079426512
 20
-25.3766017797
 30
0.0
 11
8.5351412812
 21
-25.443328226
 31
0.0
  0
LINE
  5
1A5
330
1F
100
AcDbEntity
  8
SK3
  6
SLD-Dashed
370
    18
100
AcDbLine
 10
8.5351412812
 20
-25.443328226
 30
0.0
 11
9.0
 21
-25.4661876873
 31
0.0
  0
LINE
  5
1A6
330
1F
100
AcDbEntity
  8
SK3
  6
SLD-Dashed
370
    18
100
AcDbLine
 10
9.0
 20
-25.4661876873
 30
0.0
 11
9.4648587188
 21
-25.443328226
 31
0.0
  0
LINE
  5
1A7
330
1F
100
AcDbEntity
  8
SK3
  6
SLD-Dashed
370
    18
100
AcDbLine
 10
9.4648587188
 20
-25.443328226
 30
0.0
 11
9.8920573488
 21
-25.3766017797
 31
0.0
  0
LINE
  5
1A8
330
1F
100
AcDbEntity
  8
SK3
  6
SLD-Dashed
370
    18
100
AcDbLine
 10
9.8920573488
 20
-25.3766017797
 30
0.0
 11
10.2469867977
 21
-25.2714141283
 31
0.0
  0
LINE
  5
1A9
330
1F
100
AcDbEntity
  8
SK3
  6
SLD-Dashed
370
    18
100
AcDbLine
 10
10.2469867977
 20
-25.2714141283
 30
0.0
 11
10.5008927923
 21
-25.1362869496
 31
0.0
  0
LINE
  5
1AA
330
1F
100
AcDbEntity
  8
SK3
  6
SLD-Dashed
370
    18
100
AcDbLine
 10
10.5008927923
 20
-25.1362869496
 30
0.0
 11
10.6332053791
 21
-24.9821674441
 31
0.0
  0
LINE
  5
1AB
330
1F
100
AcDbEntity
  8
SK3
  6
SLD-Dashed
370
    18
100
AcDbLine
 10
10.6332053791
 20
-24.9821674441
 30
0.0
 11
10.6332053791
 21
-24.8215414575
 31
0.0
  0
LINE
  5
1AC
330
1F
100
AcDbEntity
  8
SK3
  6
SLD-Dashed
370
    18
100
AcDbLine
 10
10.6332053791
 20
-24.8215414575
 30
0.0
 11
10.5008927923
 21
-24.6674219521
 31
0.0
  0
LINE
  5
1AD
330
1F
100
AcDbEntity
  8
SK3
  6
SLD-Dashed
370
    18
100
AcDbLine
 10
10.5008927923
 20
-24.6674219521
 30
0.0
 11
10.2469867977
 21
-24.5322947734
 31
0.0
  0
LINE
  5
1AE
330
1F
100
AcDbEntity
  8
SK3
  6
SLD-Dashed
370
    18
100
AcDbLine
 10
10.2469867977
 20
-24.5322947734
 30
0.0
 11
9.8920573488
 21
-24.4271071219
 31
0.0
  0
LINE
  5
1AF
330
1F
100
AcDbEntity
  8
SK3
  6
SLD-Dashed
370
    18
100
AcDbLine
 10
9.8920573488
 20
-24.4271071219
 30
0.0
 11
9.4648587188
 21
-24.3603806756
 31
0.0
  0
LINE
  5
1B0
330
1F
100
AcDbEntity
  8
SK3
  6
SLD-Dashed
370
    18
100
AcDbLine
 10
9.4648587188
 20
-24.3603806756
 30
0.0
 11
9.0
 21
-24.3375212143
 31
0.0
  0
LINE
  5
1B1
330
1F
100
AcDbEntity
  8
SK3
  6
SLD-Dashed
370
    18
100
AcDbLine
 10
4.5468573445
 20
-26.2097326403
 30
0.0
 11
4.425006124
 21
-26.21093224
 31
0.0
  0
LINE
  5
1B2
330
1F
100
AcDbEntity
  8
SK3
  6
SLD-Dashed
370
    18
100
AcDbLine
 10
4.425006124
 20
-26.21093224
 30
0.0
 11
4.2382824207
 21
-26.1018268846
 31
0.0
  0
LINE
  5
1B3
330
1F
100
AcDbEntity
  8
SK3
  6
SLD-Dashed
370
    18
100
AcDbLine
 10
4.2382824207
 20
-26.1018268846
 30
0.0
 11
3.9984187716
 21
-25.8892720648
 31
0.0
  0
LINE
  5
1B4
330
1F
100
AcDbEntity
  8
SK3
  6
SLD-Dashed
370
    18
100
AcDbLine
 10
3.9984187716
 20
-25.8892720648
 30
0.0
 11
3.7204866918
 21
-25.5866233817
 31
0.0
  0
LINE
  5
1B5
330
1F
100
AcDbEntity
  8
SK3
  6
SLD-Dashed
370
    18
100
AcDbLine
 10
3.7204866918
 20
-25.5866233817
 30
0.0
 11
3.4219496762
 21
-25.212897365
 31
0.0
  0
LINE
  5
1B6
330
1F
100
AcDbEntity
  8
SK3
  6
SLD-Dashed
370
    18
100
AcDbLine
 10
3.4219496762
 20
-25.212897365
 30
0.0
 11
3.1215659033
 21
-24.7915765949
 31
0.0
  0
LINE
  5
1B7
330
1F
100
AcDbEntity
  8
SK3
  6
SLD-Dashed
370
    18
100
AcDbLine
 10
3.1215659033
 20
-24.7915765949
 30
0.0
 11
2.8382095904
 21
-24.3491342049
 31
0.0
  0
LINE
  5
1B8
330
1F
100
AcDbEntity
  8
SK3
  6
SLD-Dashed
370
    18
100
AcDbLine
 10
2.8382095904
 20
-24.3491342049
 30
0.0
 11
2.5896850566
 21
-23.9133704776
 31
0.0
  0
LINE
  5
1B9
330
1F
100
AcDbEntity
  8
SK3
  6
SLD-Dashed
370
    18
100
AcDbLine
 10
2.5896850566
 20
-23.9133704776
 30
0.0
 11
2.3916080125
 21
-23.5116660504
 31
0.0
  0
LINE
  5
1BA
330
1F
100
AcDbEntity
  8
SK3
  6
SLD-Dashed
370
    18
100
AcDbLine
 10
2.3916080125
 20
-23.5116660504
 30
0.0
 11
2.2564243673
 21
-23.1692614901
 31
0.0
  0
LINE
  5
1BB
330
1F
100
AcDbEntity
  8
SK3
  6
SLD-Dashed
370
    18
100
AcDbLine
 10
2.2564243673
 20
-23.1692614901
 30
0.0
 11
2.1926282064
 21
-22.9076713343
 31
0.0
  0
LINE
  5
1BC
330
1F
100
AcDbEntity
  8
SK3
  6
SLD-Dashed
370
    18
100
AcDbLine
 10
2.1926282064
 20
-22.9076713343
 30
0.0
 11
2.2042280774
 21
-22.7433322546
 31
0.0
  0
LINE
  5
1BD
330
1F
100
AcDbEntity
  8
SK3
  6
SLD-Dashed
370
    18
100
AcDbLine
 10
2.2042280774
 20
-22.7433322546
 30
0.0
 11
2.2904951176
 21
-22.6865702799
 31
0.0
  0
LINE
  5
1BE
330
1F
100
AcDbEntity
  8
SK3
  6
SLD-Dashed
370
    18
100
AcDbLine
 10
2.2904951176
 20
-22.6865702799
 30
0.0
 11
2.4460088517
 21
-22.7409519736
 31
0.0
  0
LINE
  5
1BF
330
1F
100
AcDbEntity
  8
SK3
  6
SLD-Dashed
370
    18
100
AcDbLine
 10
2.4460088517
 20
-22.7409519736
 30
0.0
 11
2.6609977798
 21
-22.9030603341
 31
0.0
  0
LINE
  5
1C0
330
1F
100
AcDbEntity
  8
SK3
  6
SLD-Dashed
370
    18
100
AcDbLine
 10
2.6609977798
 20
-22.9030603341
 30
0.0
 11
2.921953357
 21
-23.1627094967
 31
0.0
  0
LINE
  5
1C1
330
1F
100
AcDbEntity
  8
SK3
  6
SLD-Dashed
370
    18
100
AcDbLine
 10
2.921953357
 20
-23.1627094967
 30
0.0
 11
3.2124787844
 21
-23.5035847498
 31
0.0
  0
LINE
  5
1C2
330
1F
100
AcDbEntity
  8
SK3
  6
SLD-Dashed
370
    18
100
AcDbLine
 10
3.2124787844
 20
-23.5035847498
 30
0.0
 11
3.5143192812
 21
-23.9042676475
 31
0.0
  0
LINE
  5
1C3
330
1F
100
AcDbEntity
  8
SK3
  6
SLD-Dashed
370
    18
100
AcDbLine
 10
3.5143192812
 20
-23.9042676475
 30
0.0
 11
3.8085090986
 21
-24.3395818097
 31
0.0
  0
LINE
  5
1C4
330
1F
100
AcDbEntity
  8
SK3
  6
SLD-Dashed
370
    18
100
AcDbLine
 10
3.8085090986
 20
-24.3395818097
 30
0.0
 11
4.0765632087
 21
-24.7821748467
 31
0.0
  0
LINE
  5
1C5
330
1F
100
AcDbEntity
  8
SK3
  6
SLD-Dashed
370
    18
100
AcDbLine
 10
4.0765632087
 20
-24.7821748467
 30
0.0
 11
4.3016387858
 21
-25.2042370102
 31
0.0
  0
LINE
  5
1C6
330
1F
100
AcDbEntity
  8
SK3
  6
SLD-Dashed
370
    18
100
AcDbLine
 10
4.3016387858
 20
-25.2042370102
 30
0.0
 11
4.4695935036
 21
-25.5792485822
 31
0.0
  0
LINE
  5
1C7
330
1F
100
AcDbEntity
  8
SK3
  6
SLD-Dashed
370
    18
100
AcDbLine
 10
4.4695935036
 20
-25.5792485822
 30
0.0
 11
4.5698741495
 21
-25.8836462064
 31
0.0
  0
LINE
  5
1C8
330
1F
100
AcDbEntity
  8
SK3
  6
SLD-Dashed
370
    18
100
AcDbLine
 10
4.5698741495
 20
-25.8836462064
 30
0.0
 11
4.5961797217
 21
-26.0983034607
 31
0.0
  0
LINE
  5
1C9
330
1F
100
AcDbEntity
  8
SK3
  6
SLD-Dashed
370
    18
100
AcDbLine
 10
4.5961797217
 20
-26.0983034607
 30
0.0
 11
4.5468573445
 21
-26.2097326403
 31
0.0
  0
LINE
  5
1CA
330
1F
100
AcDbEntity
  8
1
  6
SLD-Dashed
370
    18
100
AcDbLine
 10
2.75
 20
7.72
 30
0.0
 11
15.4050001077
 21
7.72
 31
0.0
  0
LINE
  5
1CB
330
1F
100
AcDbEntity
  8
1
  6
SLD-Dashed
370
    18
100
AcDbLine
 10
15.4050001077
 20
7.72
 30
0.0
 11
15.4050001077
 21
8.0949998713
 31
0.0
  0
LINE
  5
1CC
330
1F
100
AcDbEntity
  8
1
  6
SLD-Dashed
370
    18
100
AcDbLine
 10
2.8436864853
 20
-7.72
 30
0.0
 11
2.0
 21
-8.3084938796
 31
0.0
  0
LINE
  5
1CD
330
1F
100
AcDbEntity
  8
1
  6
SLD-Dashed
370
    18
100
AcDbLine
 10
15.405
 20
-7.72
 30
0.0
 11
15.405
 21
-8.095
 31
0.0
  0
LINE
  5
1CE
330
1F
100
AcDbEntity
  8
1
  6
SLD-Dashed
370
    18
100
AcDbLine
 10
15.405
 20
-7.72
 30
0.0
 11
2.8436864853
 21
-7.72
 31
0.0
  0
LINE
  5
1CF
330
1F
100
AcDbEntity
  8
1
  6
SLD-Dashed
370
    18
100
AcDbLine
 10
17.6192265766
 20
-7.7862844584
 30
0.0
 11
18.502822385
 21
-7.4788048157
 31
0.0
  0
LINE
  5
1D0
330
1F
100
AcDbEntity
  8
1
  6
SLD-Dashed
370
    18
100
AcDbLine
 10
18.502822385
 20
-7.4788048157
 30
0.0
 11
19.2305912168
 21
-7.1339944521
 31
0.0
  0
LINE
  5
1D1
330
1F
100
AcDbEntity
  8
1
  6
SLD-Dashed
370
    18
100
AcDbLine
 10
2.75
 20
8.095
 30
0.0
 11
2.75
 21
8.5720481928
 31
0.0
  0
LINE
  5
1D2
330
1F
100
AcDbEntity
  8
1
  6
SLD-Dashed
370
    18
100
AcDbLine
 10
2.75
 20
-8.095
 30
0.0
 11
2.75
 21
-8.3900162539
 31
0.0
  0
LINE
  5
1D3
330
1F
100
AcDbEntity
  8
SK3
  6
SLD-Dashed
370
    18
100
AcDbLine
 10
7.0
 20
29.6001745626
 30
0.0
 11
7.0
 21
25.7475778095
 31
0.0
  0
LINE
  5
1D4
330
1F
100
AcDbEntity
  8
SK3
  6
SLD-Dashed
370
    18
100
AcDbLine
 10
11.0
 20
25.7475778095
 30
0.0
 11
11.0
 21
29.5988125155
 31
0.0
  0
LINE
  5
1D5
330
1F
100
AcDbEntity
  8
SK3
  6
SLD-Dashed
370
    18
100
AcDbLine
 10
2.0
 20
22.8578880517
 30
0.0
 11
2.2382596061
 21
22.7011180302
 31
0.0
  0
LINE
  5
1D6
330
1F
100
AcDbEntity
  8
SK3
  6
SLD-Dashed
370
    18
100
AcDbLine
 10
4.5468573445
 20
26.2097326403
 30
0.0
 11
2.0
 21
27.8855134708
 31
0.0
  0
LINE
  5
1D7
330
1F
100
AcDbEntity
  8
SK3
  6
SLD-Dashed
370
    18
100
AcDbLine
 10
7.4474833261
 20
25.3163485945
 30
0.0
 11
7.719173744
 21
25.2019275815
 31
0.0
  0
LINE
  5
1D8
330
1F
100
AcDbEntity
  8
SK3
  6
SLD-Dashed
370
    18
100
AcDbLine
 10
10.280826256
 20
25.2019275815
 30
0.0
 11
10.5525166739
 21
25.3163485945
 31
0.0
  0
LINE
  5
1D9
330
1F
100
AcDbEntity
  8
SK3
  6
SLD-Dashed
370
    18
100
AcDbLine
 10
7.35
 20
25.5576916839
 30
0.0
 11
7.35
 21
24.0782137397
 31
0.0
  0
LINE
  5
1DA
330
1F
100
AcDbEntity
  8
SK3
  6
SLD-Dashed
370
    18
100
AcDbLine
 10
10.65
 20
21.9120695751
 30
0.0
 11
10.65
 21
25.5576916839
 31
0.0
  0
LINE
  5
1DB
330
1F
100
AcDbEntity
  8
SK3
  6
SLD-Dashed
370
    18
100
AcDbLine
 10
10.5530882486
 20
17.4096863224
 30
0.0
 11
13.5430925321
 21
15.4423237325
 31
0.0
  0
LINE
  5
1DC
330
1F
100
AcDbEntity
  8
SK3
  6
SLD-Dashed
370
    18
100
AcDbLine
 10
2.3207095254
 20
22.8264256948
 30
0.0
 11
7.458905343
 21
19.4455963472
 31
0.0
  0
LINE
  5
1DD
330
1F
100
AcDbEntity
  8
SK3
  6
SLD-Dashed
370
    18
100
AcDbLine
 10
7.4616816698
 20
24.1122788978
 30
0.0
 11
4.4644074252
 21
26.0844249757
 31
0.0
  0
LINE
  5
1DE
330
1F
100
AcDbEntity
  8
SK3
  6
SLD-Dashed
370
    18
100
AcDbLine
 10
15.686790432
 20
18.7003230133
 30
0.0
 11
10.5469004204
 21
22.0822671065
 31
0.0
  0
LINE
  5
1DF
330
1F
100
AcDbEntity
  8
SK3
  6
SLD-Dashed
370
    18
100
AcDbLine
 10
-65.4
 20
-9.5153629711
 30
0.0
 11
-63.65
 21
-8.505
 31
0.0
  0
LINE
  5
1E0
330
1F
100
AcDbEntity
  8
SK3
  6
SLD-Dashed
370
    18
100
AcDbLine
 10
-63.65
 20
8.505
 30
0.0
 11
-65.4
 21
9.5153629711
 31
0.0
  0
LINE
  5
1E1
330
1F
100
AcDbEntity
  8
SK3
  6
SLD-Dashed
370
    18
100
AcDbLine
 10
7.35
 20
19.6209851702
 30
0.0
 11
7.35
 21
6.5760827024
 31
0.0
  0
LINE
  5
1E2
330
1F
100
AcDbEntity
  8
SK3
  6
SLD-Dashed
370
    18
100
AcDbLine
 10
10.65
 20
6.5734926391
 30
0.0
 11
10.65
 21
17.4508800412
 31
0.0
  0
LINE
  5
1E3
330
1F
100
AcDbEntity
  8
SK3
  6
SLD-Dashed
370
    18
100
AcDbLine
 10
-56.15
 20
-8.8
 30
0.0
 11
-55.1107695155
 21
-7.0
 31
0.0
  0
LINE
  5
1E4
330
1F
100
AcDbEntity
  8
SK3
  6
SLD-Dashed
370
    18
100
AcDbLine
 10
-55.1107695155
 20
7.0
 30
0.0
 11
-56.15
 21
8.8
 31
0.0
  0
LINE
  5
1E5
330
1F
100
AcDbEntity
  8
SK3
  6
SLD-Dashed
370
    18
100
AcDbLine
 10
-59.15
 20
8.8
 30
0.0
 11
-59.6609549882
 21
8.505
 31
0.0
  0
LINE
  5
1E6
330
1F
100
AcDbEntity
  8
SK3
  6
SLD-Dashed
370
    18
100
AcDbLine
 10
-59.6609549882
 20
-8.505
 30
0.0
 11
-59.15
 21
-8.8
 31
0.0
  0
LINE
  5
1E7
330
1F
100
AcDbEntity
  8
SK3
  6
SLD-Dashed
370
    18
100
AcDbLine
 10
-59.15
 20
-8.8
 30
0.0
 11
-56.15
 21
-8.8
 31
0.0
  0
LINE
  5
1E8
330
1F
100
AcDbEntity
  8
SK3
  6
SLD-Dashed
370
    18
100
AcDbLine
 10
-56.15
 20
8.8
 30
0.0
 11
-59.15
 21
8.8
 31
0.0
  0
LINE
  5
1E9
330
1F
100
AcDbEntity
  8
SK3
  6
SLD-Dashed
370
    18
100
AcDbLine
 10
-63.65
 20
-8.505
 30
0.0
 11
-59.6609549882
 21
-8.505
 31
0.0
  0
LINE
  5
1EA
330
1F
100
AcDbEntity
  8
SK3
  6
SLD-Dashed
370
    18
100
AcDbLine
 10
-59.6609549882
 20
8.505
 30
0.0
 11
-63.65
 21
8.505
 31
0.0
  0
LINE
  5
1EB
330
1F
100
AcDbEntity
  8
SK3
  6
SLD-Dashed
370
    18
100
AcDbLine
 10
13.7106542296
 20
15.4652612534
 30
0.0
 11
15.5747240806
 21
16.4398057562
 31
0.0
  0
LINE
  5
1EC
330
1F
100
AcDbEntity
  8
SK3
  6
SLD-Dashed
370
    18
100
AcDbLine
 10
15.5747240806
 20
16.4398057562
 30
0.0
 11
15.7320353246
 21
18.5373630427
 31
0.0
  0
LINE
  5
1ED
330
1F
100
AcDbEntity
  8
SK3
  6
SLD-Dashed
370
    18
100
AcDbLine
 10
-55.1107695155
 20
-7.0
 30
0.0
 11
-5.4
 21
-7.0
 31
0.0
  0
LINE
  5
1EE
330
1F
100
AcDbEntity
  8
SK3
  6
SLD-Dashed
370
    18
100
AcDbLine
 10
-5.4
 20
7.0
 30
0.0
 11
-55.1107695155
 21
7.0
 31
0.0
  0
LINE
  5
1EF
330
1F
100
AcDbEntity
  8
SK3
  6
SLD-Dashed
370
    18
100
AcDbLine
 10
-5.399969957
 20
-6.99995
 30
0.0
 11
60.6
 21
-6.99995
 31
0.0
  0
LINE
  5
1F0
330
1F
100
AcDbEntity
  8
SK3
  6
SLD-Dashed
370
    18
100
AcDbLine
 10
60.6
 20
6.99995
 30
0.0
 11
-5.399969957
 21
6.99995
 31
0.0
  0
LINE
  5
1F1
330
1F
100
AcDbEntity
  8
SK3
  6
SLD-Dashed
370
    18
100
AcDbLine
 10
60.6
 20
-6.99995
 30
0.0
 11
61.801691195
 21
-5.0
 31
0.0
  0
LINE
  5
1F2
330
1F
100
AcDbEntity
  8
SK3
  6
SLD-Dashed
370
    18
100
AcDbLine
 10
61.801691195
 20
5.0
 30
0.0
 11
60.6
 21
6.99995
 31
0.0
  0
LINE
  5
1F3
330
1F
100
AcDbEntity
  8
SK3
  6
SLD-Dashed
370
    18
100
AcDbLine
 10
86.1
 20
-17.5
 30
0.0
 11
86.1
 21
-16.0
 31
0.0
  0
LINE
  5
1F4
330
1F
100
AcDbEntity
  8
SK3
  6
SLD-Dashed
370
    18
100
AcDbLine
 10
73.9
 20
-16.0
 30
0.0
 11
73.9
 21
-17.5
 31
0.0
  0
LINE
  5
1F5
330
1F
100
AcDbEntity
  8
SK3
  6
SLD-Dashed
370
    18
100
AcDbLine
 10
100.0
 20
5.5773502692
 30
0.0
 11
99.0
 21
5.0
 31
0.0
  0
LINE
  5
1F6
330
1F
100
AcDbEntity
  8
SK3
  6
SLD-Dashed
370
    18
100
AcDbLine
 10
99.0
 20
-5.0
 30
0.0
 11
100.0
 21
-5.5773502692
 31
0.0
  0
LINE
  5
1F7
330
1F
100
AcDbEntity
  8
SK3
  6
SLD-Dashed
370
    18
100
AcDbLine
 10
99.0
 20
5.0
 30
0.0
 11
61.801691195
 21
5.0
 31
0.0
  0
LINE
  5
1F8
330
1F
100
AcDbEntity
  8
SK3
  6
SLD-Dashed
370
    18
100
AcDbLine
 10
84.25
 20
-5.0
 30
0.0
 11
99.0
 21
-5.0
 31
0.0
  0
LINE
  5
1F9
330
1F
100
AcDbEntity
  8
SK3
  6
SLD-Dashed
370
    18
100
AcDbLine
 10
61.801691195
 20
-5.0
 30
0.0
 11
75.7551381039
 21
-5.0
 31
0.0
  0
LINE
  5
1FA
330
1F
100
AcDbEntity
  8
SK3
  6
SLD-Dashed
370
    18
100
AcDbLine
 10
84.25
 20
-16.0
 30
0.0
 11
84.25
 21
-5.0
 31
0.0
  0
LINE
  5
1FB
330
1F
100
AcDbEntity
  8
SK3
  6
SLD-Dashed
370
    18
100
AcDbLine
 10
75.75
 20
-4.995638615
 30
0.0
 11
75.75
 21
-16.0
 31
0.0
  0
LINE
  5
1FC
330
1F
100
AcDbEntity
  8
SK3
  6
SLD-Dashed
370
    18
100
AcDbLine
 10
7.35
 20
-6.5734926391
 30
0.0
 11
7.35
 21
-19.620297775
 31
0.0
  0
LINE
  5
1FD
330
1F
100
AcDbEntity
  8
SK3
  6
SLD-Dashed
370
    18
100
AcDbLine
 10
10.65
 20
-17.4451559932
 30
0.0
 11
10.65
 21
-6.5760827024
 31
0.0
  0
LINE
  5
1FE
330
1F
100
AcDbEntity
  8
SK3
  6
SLD-Dashed
370
    18
100
AcDbLine
 10
15.7320353246
 20
-18.5373630427
 30
0.0
 11
15.5747240806
 21
-16.4398057562
 31
0.0
  0
LINE
  5
1FF
330
1F
100
AcDbEntity
  8
SK3
  6
SLD-Dashed
370
    18
100
AcDbLine
 10
15.5747240806
 20
-16.4398057562
 30
0.0
 11
13.7106542296
 21
-15.4652612534
 31
0.0
  0
LINE
  5
200
330
1F
100
AcDbEntity
  8
SK3
  6
SLD-Dashed
370
    18
100
AcDbLine
 10
10.5530882486
 20
-22.0781956401
 30
0.0
 11
15.686790432
 21
-18.7003230133
 31
0.0
  0
LINE
  5
201
330
1F
100
AcDbEntity
  8
SK3
  6
SLD-Dashed
370
    18
100
AcDbLine
 10
4.4644074252
 20
-26.0844249757
 30
0.0
 11
7.4591862887
 21
-24.1139208083
 31
0.0
  0
LINE
  5
202
330
1F
100
AcDbEntity
  8
SK3
  6
SLD-Dashed
370
    18
100
AcDbLine
 10
7.4577573144
 20
-19.4463517268
 30
0.0
 11
2.3207095254
 21
-22.8264256948
 31
0.0
  0
LINE
  5
203
330
1F
100
AcDbEntity
  8
SK3
  6
SLD-Dashed
370
    18
100
AcDbLine
 10
13.5430925321
 20
-15.4423237325
 30
0.0
 11
10.5491667264
 21
-17.412266605
 31
0.0
  0
LINE
  5
204
330
1F
100
AcDbEntity
  8
SK3
  6
SLD-Dashed
370
    18
100
AcDbLine
 10
7.35
 20
-24.0835192562
 30
0.0
 11
7.35
 21
-24.9018544508
 31
0.0
  0
LINE
  5
205
330
1F
100
AcDbEntity
  8
SK3
  6
SLD-Dashed
370
    18
100
AcDbLine
 10
10.65
 20
-24.9018544508
 30
0.0
 11
10.65
 21
-21.9102094894
 31
0.0
  0
LINE
  5
206
330
1F
100
AcDbEntity
  8
SK3
  6
SLD-Dashed
370
    18
100
AcDbLine
 10
2.0
 20
-27.8855134708
 30
0.0
 11
4.5468573445
 21
-26.2097326403
 31
0.0
  0
LINE
  5
207
330
1F
100
AcDbEntity
  8
SK3
  6
SLD-Dashed
370
    18
100
AcDbLine
 10
2.2382596061
 20
-22.7011180302
 30
0.0
 11
2.0
 21
-22.8578880517
 31
0.0
  0
LINE
  5
208
330
1F
100
AcDbEntity
  8
SK3
  6
SLD-Dashed
370
    18
100
AcDbLine
 10
7.6871669195
 20
-25.2436982891
 30
0.0
 11
9.0
 21
-25.833484529
 31
0.0
  0
LINE
  5
209
330
1F
100
AcDbEntity
  8
SK3
  6
SLD-Dashed
370
    18
100
AcDbLine
 10
9.0
 20
-25.833484529
 30
0.0
 11
10.3128330805
 21
-25.2436982891
 31
0.0
  0
LINE
  5
20A
330
1F
100
AcDbEntity
  8
SK3
  6
SLD-Solid
370
    18
100
AcDbLine
 10
-34.4000011683
 20
8.00000038
 30
0.0
 11
-55.6881204247
 21
8.00000038
 31
0.0
  0
LINE
  5
20B
330
1F
100
AcDbEntity
  8
SK3
  6
SLD-Solid
370
    18
100
AcDbLine
 10
-55.6881204247
 20
-8.00000038
 30
0.0
 11
-34.4000011683
 21
-8.00000038
 31
0.0
  0
LINE
  5
20C
330
1F
100
AcDbEntity
  8
SK3
  6
SLD-Solid
370
    18
100
AcDbLine
 10
-34.4000011683
 20
8.00000038
 30
0.0
 11
-34.4000011683
 21
7.9015064985
 31
0.0
  0
LINE
  5
20D
330
1F
100
AcDbEntity
  8
SK3
  6
SLD-Solid
370
    18
100
AcDbLine
 10
-34.4000011683
 20
7.9015064985
 30
0.0
 11
-34.4000011683
 21
7.6084523462
 31
0.0
  0
LINE
  5
20E
330
1F
100
AcDbEntity
  8
SK3
  6
SLD-Solid
370
    18
100
AcDbLine
 10
-34.4000011683
 20
7.6084523462
 30
0.0
 11
-34.4000011683
 21
7.1280524135
 31
0.0
  0
LINE
  5
20F
330
1F
100
AcDbEntity
  8
SK3
  6
SLD-Solid
370
    18
100
AcDbLine
 10
-34.4000011683
 20
7.1280524135
 30
0.0
 11
-34.4000011683
 21
6.472135894
 31
0.0
  0
LINE
  5
210
330
1F
100
AcDbEntity
  8
SK3
  6
SLD-Solid
370
    18
100
AcDbLine
 10
-34.4000011683
 20
6.472135894
 30
0.0
 11
-34.4000011683
 21
5.6568542495
 31
0.0
  0
LINE
  5
211
330
1F
100
AcDbEntity
  8
SK3
  6
SLD-Solid
370
    18
100
AcDbLine
 10
-34.4000011683
 20
5.6568542495
 30
0.0
 11
-34.4000011683
 21
4.7022821382
 31
0.0
  0
LINE
  5
212
330
1F
100
AcDbEntity
  8
SK3
  6
SLD-Solid
370
    18
100
AcDbLine
 10
-34.4000011683
 20
4.7022821382
 30
0.0
 11
-34.4000011683
 21
3.6319240462
 31
0.0
  0
LINE
  5
213
330
1F
100
AcDbEntity
  8
SK3
  6
SLD-Solid
370
    18
100
AcDbLine
 10
-34.4000011683
 20
3.6319240462
 30
0.0
 11
-34.4000011683
 21
2.4721359368
 31
0.0
  0
LINE
  5
214
330
1F
100
AcDbEntity
  8
SK3
  6
SLD-Solid
370
    18
100
AcDbLine
 10
-34.4000011683
 20
2.4721359368
 30
0.0
 11
-34.4000011683
 21
1.2514757691
 31
0.0
  0
LINE
  5
215
330
1F
100
AcDbEntity
  8
SK3
  6
SLD-Solid
370
    18
100
AcDbLine
 10
-34.4000011683
 20
1.2514757691
 30
0.0
 11
-34.4000011683
 21
0.0
 31
0.0
  0
LINE
  5
216
330
1F
100
AcDbEntity
  8
SK3
  6
SLD-Solid
370
    18
100
AcDbLine
 10
-34.4000011683
 20
0.0
 30
0.0
 11
-34.4000011683
 21
-1.2514757691
 31
0.0
  0
LINE
  5
217
330
1F
100
AcDbEntity
  8
SK3
  6
SLD-Solid
370
    18
100
AcDbLine
 10
-34.4000011683
 20
-1.2514757691
 30
0.0
 11
-34.4000011683
 21
-2.4721359368
 31
0.0
  0
LINE
  5
218
330
1F
100
AcDbEntity
  8
SK3
  6
SLD-Solid
370
    18
100
AcDbLine
 10
-34.4000011683
 20
-2.4721359368
 30
0.0
 11
-34.4000011683
 21
-3.6319240462
 31
0.0
  0
LINE
  5
219
330
1F
100
AcDbEntity
  8
SK3
  6
SLD-Solid
370
    18
100
AcDbLine
 10
-34.4000011683
 20
-3.6319240462
 30
0.0
 11
-34.4000011683
 21
-4.7022821382
 31
0.0
  0
LINE
  5
21A
330
1F
100
AcDbEntity
  8
SK3
  6
SLD-Solid
370
    18
100
AcDbLine
 10
-34.4000011683
 20
-4.7022821382
 30
0.0
 11
-34.4000011683
 21
-5.6568542495
 31
0.0
  0
LINE
  5
21B
330
1F
100
AcDbEntity
  8
SK3
  6
SLD-Solid
370
    18
100
AcDbLine
 10
-34.4000011683
 20
-5.6568542495
 30
0.0
 11
-34.4000011683
 21
-6.472135894
 31
0.0
  0
LINE
  5
21C
330
1F
100
AcDbEntity
  8
SK3
  6
SLD-Solid
370
    18
100
AcDbLine
 10
-34.4000011683
 20
-6.472135894
 30
0.0
 11
-34.4000011683
 21
-7.1280524135
 31
0.0
  0
LINE
  5
21D
330
1F
100
AcDbEntity
  8
SK3
  6
SLD-Solid
370
    18
100
AcDbLine
 10
-34.4000011683
 20
-7.1280524135
 30
0.0
 11
-34.4000011683
 21
-7.6084523462
 31
0.0
  0
LINE
  5
21E
330
1F
100
AcDbEntity
  8
SK3
  6
SLD-Solid
370
    18
100
AcDbLine
 10
-34.4000011683
 20
-7.6084523462
 30
0.0
 11
-34.4000011683
 21
-7.9015064985
 31
0.0
  0
LINE
  5
21F
330
1F
100
AcDbEntity
  8
SK3
  6
SLD-Solid
370
    18
100
AcDbLine
 10
-34.4000011683
 20
-7.9015064985
 30
0.0
 11
-34.4000011683
 21
-8.00000038
 31
0.0
  0
LINE
  5
220
330
1F
100
AcDbEntity
  8
SK3
  6
SLD-Solid
370
    18
100
AcDbLine
 10
75.0000029802
 20
-4.9999998882
 30
0.0
 11
75.0000029802
 21
-16.00000076
 31
0.0
  0
LINE
  5
221
330
1F
100
AcDbEntity
  8
SK3
  6
SLD-Solid
370
    18
100
AcDbLine
 10
85.0000008941
 20
-16.00000076
 30
0.0
 11
85.0000008941
 21
-4.9999998882
 31
0.0
  0
LINE
  5
222
330
1F
100
AcDbEntity
  8
SK3
  6
SLD-Solid
370
    18
100
AcDbLine
 10
74.9999119418
 20
-4.9999998882
 30
0.0
 11
85.0000008941
 21
-4.9999998882
 31
0.0
  0
LINE
  5
223
330
1F
100
AcDbEntity
  8
4
  6
SLD-Center
370
    18
100
AcDbLine
 10
102.0
 20
0.0
 30
0.0
 11
-0.1693018073
 21
0.0
 31
0.0
  0
LINE
  5
224
330
1F
100
AcDbEntity
  8
4
  6
SLD-Center
370
    18
100
AcDbLine
 10
80.0
 20
-3.0
 30
0.0
 11
80.0
 21
-18.0
 31
0.0
  0
LINE
  5
225
330
1F
100
AcDbEntity
  8
SK4
  6
SLD-Center
370
    18
100
AcDbLine
 10
101.8645389638
 20
0.0
 30
0.0
 11
-67.4
 21
0.0
 31
0.0
  0
ARC
  5
226
330
1F
100
AcDbEntity
  8
1
  6
SLD-Solid
370
    25
100
AcDbCircle
 10
26.25
 20
-30.75
 30
0.0
 40
0.7500000000000284
100
AcDbArc
 50
270.0
 51
0.0
  0
ARC
  5
227
330
1F
100
AcDbEntity
  8
1
  6
SLD-Solid
370
    25
100
AcDbCircle
 10
26.25
 20
30.75
 30
0.0
 40
0.7500000000000284
100
AcDbArc
 50
0.0
 51
89.9999982044
  0
ARC
  5
228
330
1F
100
AcDbEntity
  8
1
  6
SLD-Solid
370
    25
100
AcDbCircle
 10
2.75
 20
-30.75
 30
0.0
 40
0.7500000000000009
100
AcDbArc
 50
180.0
 51
270.0
  0
ARC
  5
229
330
1F
100
AcDbEntity
  8
1
  6
SLD-Solid
370
    25
100
AcDbCircle
 10
2.75
 20
30.75
 30
0.0
 40
0.7500000000000071
100
AcDbArc
 50
90.0
 51
180.0
  0
ARC
  5
22A
330
1F
100
AcDbEntity
  8
1
  6
SLD-Solid
370
    25
100
AcDbCircle
 10
18.725
 20
-26.875
 30
0.0
 40
0.3750000000000036
100
AcDbArc
 50
0.0
 51
90.0
  0
ARC
  5
22B
330
1F
100
AcDbEntity
  8
1
  6
SLD-Solid
370
    25
100
AcDbCircle
 10
18.725
 20
26.875
 30
0.0
 40
0.3750000000000071
100
AcDbArc
 50
270.0
 51
0.0
  0
ARC
  5
22C
330
1F
100
AcDbEntity
  8
1
  6
SLD-Solid
370
    25
100
AcDbCircle
 10
14.475
 20
-26.875
 30
0.0
 40
0.3750000000000036
100
AcDbArc
 50
90.0
 51
180.0
  0
ARC
  5
22D
330
1F
100
AcDbEntity
  8
1
  6
SLD-Solid
370
    25
100
AcDbCircle
 10
14.475
 20
26.875
 30
0.0
 40
0.3750000000000071
100
AcDbArc
 50
180.0
 51
270.0000000016
  0
ARC
  5
22E
330
1F
100
AcDbEntity
  8
1
  6
SLD-Solid
370
    25
100
AcDbCircle
 10
1.25
 20
22.5629103982
 30
0.0
 40
0.750000000000005
100
AcDbArc
 50
245.0
 51
0.0
  0
ARC
  5
22F
330
1F
100
AcDbEntity
  8
1
  6
SLD-Solid
370
    25
100
AcDbCircle
 10
1.25
 20
-22.5629103982
 30
0.0
 40
0.7500000000000012
100
AcDbArc
 50
0.0
 51
115.0
  0
ARC
  5
230
330
1F
100
AcDbEntity
  8
1
  6
SLD-Solid
370
    25
100
AcDbCircle
 10
29.0
 20
-19.5
 30
0.0
 40
2.0
100
AcDbArc
 50
90.0
 51
180.0
  0
ARC
  5
231
330
1F
100
AcDbEntity
  8
1
  6
SLD-Solid
370
    25
100
AcDbCircle
 10
29.0
 20
19.5
 30
0.0
 40
2.000000000000007
100
AcDbArc
 50
180.0
 51
270.0
  0
ARC
  5
232
330
1F
100
AcDbEntity
  8
SK1
  6
SLD-Solid
370
    25
100
AcDbCircle
 10
-64.4
 20
11.8220275702
 30
0.0
 40
1.000000000000002
100
AcDbArc
 50
98.2977777777
 51
180.0
  0
ARC
  5
233
330
1F
100
AcDbEntity
  8
SK1
  6
SLD-Solid
370
    25
100
AcDbCircle
 10
-64.4
 20
-11.8220275702
 30
0.0
 40
1.0
100
AcDbArc
 50
180.0
 51
261.7022222223
  0
ARC
  5
234
330
1F
100
AcDbEntity
  8
1
  6
SLD-Solid
370
    25
100
AcDbCircle
 10
15.4050000539
 20
0.0
 30
0.0
 40
7.720000000000018
100
AcDbArc
 50
269.9999996003
 51
89.9999996003
  0
CIRCLE
  5
235
330
1F
100
AcDbEntity
  8
1
  6
SLD-Solid
370
    25
100
AcDbCircle
 10
14.5
 20
0.0
 30
0.0
 40
4.999999999999991
  0
ARC
  5
236
330
1F
100
AcDbEntity
  8
1
  6
SLD-Solid
370
    25
100
AcDbCircle
 10
80.0000236394
 20
-34.3049506453
 30
0.0
 40
17.8778096474595
100
AcDbArc
 50
70.0497677287
 51
109.9468362671
  0
ARC
  5
237
330
1F
100
AcDbEntity
  8
1
  6
SLD-Dashed
370
    18
100
AcDbCircle
 10
15.4050000539
 20
0.0
 30
0.0
 40
8.095000000000006
100
AcDbArc
 50
314.9597648814
 51
326.941851105
  0
ARC
  5
238
330
1F
100
AcDbEntity
  8
1
  6
SLD-Dashed
370
    18
100
AcDbCircle
 10
15.4050000539
 20
0.0
 30
0.0
 40
8.095000000000008
100
AcDbArc
 50
40.6014610738
 51
53.6155286387
  0
ARC
  5
239
330
1F
100
AcDbEntity
  8
1
  6
SLD-Dashed
370
    18
100
AcDbCircle
 10
15.4050000539
 20
0.0
 30
0.0
 40
8.095000000000018
100
AcDbArc
 50
55.8719775898
 51
67.7006340929
  0
ARC
  5
23A
330
1F
100
AcDbEntity
  8
1
  6
SLD-Dashed
370
    18
100
AcDbCircle
 10
15.4050000539
 20
0.0
 30
0.0
 40
7.720000000000018
100
AcDbArc
 50
269.9999996003
 51
89.9999996003
  0
ARC
  5
23B
330
1F
100
AcDbEntity
  8
SK3
  6
SLD-Dashed
370
    18
100
AcDbCircle
 10
79.0
 20
21.5
 30
0.0
 40
8.00000000000002
100
AcDbArc
 50
210.0738785099
 51
329.9599294313
  0
ARC
  5
23C
330
1F
100
AcDbEntity
  8
1
370
    25
100
AcDbCircle
 10
78.9969948871
 20
38.7196602366
 30
0.0
 40
22.32105799449705
100
AcDbArc
 50
251.9599023551
 51
288.0740097872
  0
SPLINE
  5
23D
330
1F
100
AcDbEntity
  8
1
  6
SLD-Solid
370
    25
100
AcDbSpline
210
0.0
220
0.0
230
1.0
 70
     8
 71
     3
 72
    29
 73
    25
 74
     0
 42
0.000000001
 43
0.00000001
 40
0.0
 40
0.0
 40
0.0
 40
0.0
 40
0.0230663838025172
 40
0.0440225352293025
 40
0.0628684662202233
 40
0.0952096354793705
 40
0.1252070778029592
 40
0.1874433642827061
 40
0.2501294624714331
 40
0.3127669124399246
 40
0.3749089742081319
 40
0.4371218866260112
 40
0.4999111694600359
 40
0.5000015146531739
 40
0.5624696363129276
 40
0.6246518458511716
 40
0.687124712641044
 40
0.7499411646625921
 40
0.8122670361742208
 40
0.8745776578213296
 40
0.9047904009619863
 40
0.937394698159691
 40
0.9663358577881175
 40
1.0
 40
1.0
 40
1.0
 40
1.0
 10
21.37845462159054
 20
-5.463228430497693
 30
0.0
 10
21.43968048489596
 20
-5.394961302213692
 30
0.0
 10
21.55653095211195
 20
-5.264672476465574
 30
0.0
 10
21.71560511831908
 20
-5.071758676205473
 30
0.0
 10
21.89210272514124
 20
-4.845511463818109
 30
0.0
 10
22.08097804333672
 20
-4.5832705342135
 30
0.0
 10
22.35220085373929
 20
-4.167846022785217
 30
0.0
 10
22.65429554915209
 20
-3.628148349416393
 30
0.0
 10
22.95872006986115
 20
-2.942611934423137
 30
0.0
 10
23.19861776881088
 20
-2.23075663887929
 30
0.0
 10
23.37148733661124
 20
-1.50035553436596
 30
0.0
 10
23.47639954189745
 20
-0.7556129446528794
 30
0.0
 10
23.49998301693175
 20
-0.2528920903510992
 30
0.0
 10
23.50001686206221
 20
0.2505137726298012
 30
0.0
 10
23.47668764518375
 20
0.7518198752287861
 30
0.0
 10
23.37226014104503
 20
1.496549466375334
 30
0.0
 10
23.19924549850198
 20
2.228911551689243
 30
0.0
 10
22.95917289957137
 20
2.941347011615983
 30
0.0
 10
22.65505348782229
 20
3.626543732636926
 30
0.0
 10
22.35325963701355
 20
4.166080914104128
 30
0.0
 10
22.0809744409496
 20
4.583468076208262
 30
0.0
 10
21.86720762157983
 20
4.879597172965281
 30
0.0
 10
21.63275480960858
 20
5.177140340463529
 30
0.0
 10
21.46738000913495
 20
5.363187230028495
 30
0.0
 10
21.37845462042576
 20
5.463228420858758
 30
0.0
  0
SPLINE
  5
23E
330
1F
100
AcDbEntity
  8
1
  6
SLD-Solid
370
    25
100
AcDbSpline
210
0.0
220
0.0
230
1.0
 70
     8
 71
     3
 72
    28
 73
    24
 74
     0
 42
0.000000001
 43
0.00000001
 40
0.0
 40
0.0
 40
0.0
 40
0.0
 40
0.0207858127208253
 40
0.0415710762957561
 40
0.0623748580549171
 40
0.0937270008798478
 40
0.1250848978846605
 40
0.1873494245775419
 40
0.2496708886179854
 40
0.3125394829960974
 40
0.3751322031575706
 40
0.4374541246843983
 40
0.5000756334531883
 40
0.5630077694104354
 40
0.6253444518636561
 40
0.6875870131392443
 40
0.7502971038394413
 40
0.8129514609106392
 40
0.8751106021476166
 40
0.9062159067426651
 40
0.9373306543632903
 40
0.9686737077305453
 40
1.0
 40
1.0
 40
1.0
 40
1.0
 10
21.62000002350463
 20
5.823867559505716
 30
0.0
 10
21.67887774454526
 20
5.758348120659979
 30
0.0
 10
21.79663163112033
 20
5.627310973943936
 30
0.0
 10
21.96553116474949
 20
5.423838743813886
 30
0.0
 10
22.15613918729105
 20
5.180290884667038
 30
0.0
 10
22.36340666332086
 20
4.89288123805666
 30
0.0
 10
22.6534222026076
 20
4.448647622839891
 30
0.0
 10
22.97676366840194
 20
3.869212406071076
 30
0.0
 10
23.30006054784423
 20
3.138684693279576
 30
0.0
 10
23.55531019183566
 20
2.378643813996245
 30
0.0
 10
23.73928089069982
 20
1.596976251942828
 30
0.0
 10
23.85028710921457
 20
0.80176437901084
 30
0.0
 10
23.88749131514557
 20
-0.0022804745153787
 30
0.0
 10
23.84992341756854
 20
-0.8063861902457385
 30
0.0
 10
23.7383784464994
 20
-1.601409780704218
 30
0.0
 10
23.55455757309059
 20
-2.380922615370856
 30
0.0
 10
23.29949859918748
 20
-3.140226093025791
 30
0.0
 10
22.97593067653047
 20
-3.870974292477857
 30
0.0
 10
22.65242048626337
 20
-4.450166333039365
 30
0.0
 10
22.36381869712525
 20
-4.892326548904525
 30
0.0
 10
22.13144965638304
 20
-5.214141920263451
 30
0.0
 10
21.88493963428301
 20
-5.5263432866768
 30
0.0
 10
21.70829746524219
 20
-5.724710052831119
 30
0.0
 10
21.62000000245135
 20
-5.823866909025522
 30
0.0
  0
SPLINE
  5
23F
330
1F
100
AcDbEntity
  8
1
  6
SLD-Solid
370
    25
100
AcDbSpline
210
0.0
220
0.0
230
1.0
 70
     8
 71
     3
 72
    10
 73
     6
 74
     0
 42
0.000000001
 43
0.00000001
 40
0.0
 40
0.0
 40
0.0
 40
0.0
 40
0.5
 40
0.5
 40
1.0
 40
1.0
 40
1.0
 40
1.0
 10
19.10000000000013
 20
-7.202499566123326
 30
0.0
 10
19.49579104774733
 20
-6.99945228954936
 30
0.0
 10
19.88446432465943
 20
-6.759413056975902
 30
0.0
 10
20.64524840052853
 20
-6.188300429962036
 30
0.0
 10
21.01747268260157
 20
-5.857923482919043
 30
0.0
 10
21.37845462159054
 20
-5.46322843049769
 30
0.0
  0
SPLINE
  5
240
330
1F
100
AcDbEntity
  8
1
  6
SLD-Solid
370
    25
100
AcDbSpline
210
0.0
220
0.0
230
1.0
 70
     8
 71
     3
 72
    10
 73
     6
 74
     0
 42
0.000000001
 43
0.00000001
 40
0.0
 40
0.0
 40
0.0
 40
0.0
 40
0.5
 40
0.5
 40
1.0
 40
1.0
 40
1.0
 40
1.0
 10
21.37845462042576
 20
5.46322842085877
 30
0.0
 10
21.01828732092914
 20
5.857032736565963
 30
0.0
 10
20.6464127990023
 20
6.187322552259529
 30
0.0
 10
19.88555427862799
 20
6.758698213453069
 30
0.0
 10
19.49593576684396
 20
6.999377972857135
 30
0.0
 10
19.1000001077185
 20
7.202499437431701
 30
0.0
  0
SPLINE
  5
241
330
1F
100
AcDbEntity
  8
1
  6
SLD-Solid
370
    25
100
AcDbSpline
210
0.0
220
0.0
230
1.0
 70
     8
 71
     3
 72
     8
 73
     4
 74
     0
 42
0.000000001
 43
0.00000001
 40
0.0
 40
0.0
 40
0.0
 40
0.0
 40
0.0005149373009987
 40
0.0005149373009987
 40
0.0005149373009987
 40
0.0005149373009987
 10
11.8041313390207
 20
-8.095
 30
0.0
 10
11.72957739294796
 20
-8.20990030828327
 30
0.0
 10
11.65486478285155
 20
-8.324743826175318
 30
0.0
 10
11.58000000000001
 20
-8.439532455962562
 30
0.0
  0
SPLINE
  5
242
330
1F
100
AcDbEntity
  8
1
  6
SLD-Solid
370
    25
100
AcDbSpline
210
0.0
220
0.0
230
1.0
 70
    24
 71
     3
 72
    63
 73
    59
 74
     0
 42
0.000000001
 43
0.00000001
 40
0.0
 40
0.0
 40
0.0
 40
0.0
 40
0.0157295157055994
 40
0.031422074234084
 40
0.0439554384940822
 40
0.0627308195836761
 40
0.0877444204354877
 40
0.1027535466968316
 40
0.1252799962043012
 40
0.1416547533301804
 40
0.1662894095368008
 40
0.1786159749224169
 40
0.1970505205304782
 40
0.2184788700430704
 40
0.2313066989620065
 40
0.2505190728270451
 40
0.2667670769854795
 40
0.2911322934021384
 40
0.3033217097733919
 40
0.3216239404912597
 40
0.3430175351158149
 40
0.3558901504979025
 40
0.375272504382348
 40
0.3917161976147457
 40
0.4162913796883942
 40
0.4285394952917361
 40
0.4468710955821854
 40
0.4682186365340774
 40
0.4810168198013257
 40
0.5002109812802532
 40
0.5164697654542666
 40
0.5408976995044128
 40
0.5531386085851936
 40
0.5715482257911025
 40
0.5931083106509799
 40
0.606047313614312
 40
0.6253935778583544
 40
0.6417053778005348
 40
0.6661245429600033
 40
0.6783182135136201
 40
0.6965960868825017
 40
0.7179269875418145
 40
0.7307375012761065
 40
0.7499789322767985
 40
0.7663145205709632
 40
0.7909228061602738
 40
0.8032612506346957
 40
0.8217178636892551
 40
0.8431546207703584
 40
0.8559812701724099
 40
0.875187944859314
 40
0.9000553704843862
 40
0.9149757888089226
 40
0.9373785494047091
 40
0.9498468283169813
 40
0.968592693534194
 40
0.9842666733420213
 40
1.0
 40
1.0
 40
1.0
 40
1.0
 10
2.321969218327738
 20
-8.095
 30
0.0
 10
2.321993397395916
 20
-8.094999999999999
 30
0.0
 10
2.322041698722521
 20
-8.094999999999999
 30
0.0
 10
2.322406149386003
 20
-8.094999999999999
 30
0.0
 10
2.323003039637894
 20
-8.094999999999999
 30
0.0
 10
2.3240218433314
 20
-8.095
 30
0.0
 10
2.325518386346912
 20
-8.095
 30
0.0
 10
2.327532786373265
 20
-8.094999999999999
 30
0.0
 10
2.329608433204205
 20
-8.095
 30
0.0
 10
2.332468150510206
 20
-8.094999999999995
 30
0.0
 10
2.335233935131936
 20
-8.095
 30
0.0
 10
2.338444748372637
 20
-8.095
 30
0.0
 10
2.34173534330806
 20
-8.095
 30
0.0
 10
2.345401208996345
 20
-8.095
 30
0.0
 10
2.349419105887332
 20
-8.094999999999999
 30
0.0
 10
2.35329849120082
 20
-8.095
 30
0.0
 10
2.358444267123922
 20
-8.095
 30
0.0
 10
2.363327876500107
 20
-8.095
 30
0.0
 10
2.368716386326589
 20
-8.095
 30
0.0
 10
2.374059587044217
 20
-8.095
 30
0.0
 10
2.379794509526994
 20
-8.094999999999999
 30
0.0
 10
2.3859271808674
 20
-8.095
 30
0.0
 10
2.391730887594062
 20
-8.094999999999999
 30
0.0
 10
2.399249282476229
 20
-8.095
 30
0.0
 10
2.406200022457089
 20
-8.095
 30
0.0
 10
2.413686765886367
 20
-8.094999999999999
 30
0.0
 10
2.42096025077515
 20
-8.094999999999999
 30
0.0
 10
2.428599505721926
 20
-8.095
 30
0.0
 10
2.436610864465061
 20
-8.095
 30
0.0
 10
2.44406436025163
 20
-8.095
 30
0.0
 10
2.453590084938284
 20
-8.094999999999999
 30
0.0
 10
2.46228524809515
 20
-8.095
 30
0.0
 10
2.471580820246677
 20
-8.094999999999999
 30
0.0
 10
2.480584947828004
 20
-8.095
 30
0.0
 10
2.489959325866042
 20
-8.094999999999999
 30
0.0
 10
2.499706241659752
 20
-8.095
 30
0.0
 10
2.508676179910657
 20
-8.095
 30
0.0
 10
2.519992201880692
 20
-8.095
 30
0.0
 10
2.530180668881929
 20
-8.094999999999999
 30
0.0
 10
2.540940155035989
 20
-8.095
 30
0.0
 10
2.551242183200755
 20
-8.094999999999999
 30
0.0
 10
2.561851640364349
 20
-8.095
 30
0.0
 10
2.572807424090579
 20
-8.095
 30
0.0
 10
2.582862497191418
 20
-8.094999999999999
 30
0.0
 10
2.595529095689747
 20
-8.095
 30
0.0
 10
2.606897943694564
 20
-8.095
 30
0.0
 10
2.618848053426173
 20
-8.094999999999999
 30
0.0
 10
2.63021149670345
 20
-8.095
 30
0.0
 10
2.641796398349425
 20
-8.095
 30
0.0
 10
2.653634317679135
 20
-8.095
 30
0.0
 10
2.666313651356667
 20
-8.094999999999999
 30
0.0
 10
2.679561341264542
 20
-8.095
 30
0.0
 10
2.693602759555241
 20
-8.095
 30
0.0
 10
2.704895432241256
 20
-8.095
 30
0.0
 10
2.717091213092354
 20
-8.095
 30
0.0
 10
2.727780256489301
 20
-8.095
 30
0.0
 10
2.739230294237463
 20
-8.095
 30
0.0
 10
2.746405578636868
 20
-8.095
 30
0.0
 10
2.750000000000016
 20
-8.095
 30
0.0
  0
SPLINE
  5
243
330
1F
100
AcDbEntity
  8
1
  6
SLD-Solid
370
    25
100
AcDbSpline
210
0.0
220
0.0
230
1.0
 70
    24
 71
     3
 72
     8
 73
     4
 74
     0
 42
0.000000001
 43
0.00000001
 40
0.0
 40
0.0
 40
0.0
 40
0.0
 40
1.0
 40
1.0
 40
1.0
 40
1.0
 10
11.80413133902068
 20
-8.095
 30
0.0
 10
12.57258501008909
 20
-8.095
 30
0.0
 10
13.33836559689472
 20
-8.095
 30
0.0
 10
14.10000000000002
 20
-8.095
 30
0.0
  0
SPLINE
  5
244
330
1F
100
AcDbEntity
  8
1
  6
SLD-Solid
370
    25
100
AcDbSpline
210
0.0
220
0.0
230
1.0
 70
     8
 71
     3
 72
    32
 73
    28
 74
     0
 42
0.000000001
 43
0.00000001
 40
0.4999999999999966
 40
0.4999999999999966
 40
0.4999999999999966
 40
0.4999999999999966
 40
0.5624999999999969
 40
0.5624999999999969
 40
0.6249999999999972
 40
0.6249999999999972
 40
0.6562499999999976
 40
0.6562499999999976
 40
0.6874999999999978
 40
0.6874999999999978
 40
0.7187499999999981
 40
0.7187499999999981
 40
0.7499999999999983
 40
0.7499999999999983
 40
0.7812499999999987
 40
0.7812499999999987
 40
0.812499999999999
 40
0.812499999999999
 40
0.8437499999999992
 40
0.8437499999999992
 40
0.8749999999999996
 40
0.8749999999999996
 40
0.9062499999999998
 40
0.9062499999999998
 40
0.9374999999999999
 40
0.9374999999999999
 40
1.0
 40
1.0
 40
1.0
 40
1.0
 10
9.000718311324125
 20
28.85655404586558
 30
0.0
 10
8.739648845282167
 20
28.85651637090116
 30
0.0
 10
8.476483617751912
 20
28.87764834218616
 30
0.0
 10
7.994978454253427
 20
28.95674520765163
 30
0.0
 10
7.771727105570031
 20
29.01546373101426
 30
0.0
 10
7.494870704764928
 20
29.1216515795484
 30
0.0
 10
7.410357175501092
 20
29.16075139711488
 30
0.0
 10
7.26493977270834
 20
29.24231679164009
 30
0.0
 10
7.203428503355383
 20
29.28486307536838
 30
0.0
 10
7.102898551066842
 20
29.37313007885738
 30
0.0
 10
7.064253503967083
 20
29.41885676962863
 30
0.0
 10
7.013197151496037
 20
29.5092871568026
 30
0.0
 10
7.000132293476083
 20
29.55449055760334
 30
0.0
 10
6.999869686187502
 20
29.64478332664316
 30
0.0
 10
7.01274668478781
 20
29.68860883293812
 30
0.0
 10
7.063332711442633
 20
29.77308562765029
 30
0.0
 10
7.101609104832097
 20
29.81425848927941
 30
0.0
 10
7.201880072252378
 20
29.89167522800111
 30
0.0
 10
7.263236161971068
 20
29.9277053406037
 30
0.0
 10
7.408082569311373
 20
29.99485472251368
 30
0.0
 10
7.492460159511688
 20
30.02613496318348
 30
0.0
 10
7.676867575711052
 20
30.08151243681515
 30
0.0
 10
7.77744063824462
 20
30.10596752726187
 30
0.0
 10
7.995666654038586
 20
30.14873009768034
 30
0.0
 10
8.112221692950408
 20
30.16672835399465
 30
0.0
 10
8.473071046004144
 20
30.20974024765999
 30
0.0
 10
8.735669452941117
 20
30.22463456733846
 30
0.0
 10
9.00000000000005
 20
30.22463456733847
 30
0.0
  0
SPLINE
  5
245
330
1F
100
AcDbEntity
  8
1
  6
SLD-Solid
370
    25
100
AcDbSpline
210
0.0
220
0.0
230
1.0
 70
     8
 71
     3
 72
    34
 73
    30
 74
     0
 42
0.000000001
 43
0.00000001
 40
0.0
 40
0.0
 40
0.0
 40
0.0
 40
0.0312499999999996
 40
0.0312499999999996
 40
0.0624999999999992
 40
0.0624999999999992
 40
0.0937499999999989
 40
0.0937499999999989
 40
0.1249999999999985
 40
0.1249999999999985
 40
0.1874999999999977
 40
0.1874999999999977
 40
0.2499999999999969
 40
0.2499999999999969
 40
0.2812499999999969
 40
0.2812499999999969
 40
0.3124999999999968
 40
0.3124999999999968
 40
0.3437499999999968
 40
0.3437499999999968
 40
0.3749999999999967
 40
0.3749999999999967
 40
0.4062499999999967
 40
0.4062499999999967
 40
0.4374999999999967
 40
0.4374999999999967
 40
0.4687499999999966
 40
0.4687499999999966
 40
0.4999999999999966
 40
0.4999999999999966
 40
0.4999999999999966
 40
0.4999999999999966
 10
9.00000000000005
 20
30.22463456733847
 30
0.0
 10
9.132165273529488
 20
30.22463456733846
 30
0.0
 10
9.262115316908599
 20
30.22098059739494
 30
0.0
 10
9.517768175951847
 20
30.20657876108877
 30
0.0
 10
9.644797625347465
 20
30.19565415329598
 30
0.0
 10
9.88698558643726
 20
30.1668589513309
 30
0.0
 10
10.00184700916197
 20
30.1491314403186
 30
0.0
 10
10.21922714441988
 20
30.10670409231735
 30
0.0
 10
10.32212467954469
 20
30.08177337880266
 30
0.0
 10
10.59879176140527
 20
29.99881474713836
 30
0.0
 10
10.74779008738132
 20
29.93031869116877
 30
0.0
 10
10.94730142923198
 20
29.77670931193757
 30
0.0
 10
10.99985953044361
 20
29.68992163715389
 30
0.0
 10
11.00006980186097
 20
29.55606671380144
 30
0.0
 10
10.98708402266282
 20
29.50995920123074
 30
0.0
 10
10.93605685755787
 20
29.41923444804258
 30
0.0
 10
10.89830163888697
 20
29.37440176171912
 30
0.0
 10
10.79816322090126
 20
29.28604871920952
 30
0.0
 10
10.73555746439633
 20
29.24265838728705
 30
0.0
 10
10.59082402928067
 20
29.16135197089565
 30
0.0
 10
10.50819662566588
 20
29.12292728814683
 30
0.0
 10
10.32159156855532
 20
29.05115888240976
 30
0.0
 10
10.22047644564858
 20
29.01893647500881
 30
0.0
 10
10.00394371977603
 20
28.96218884147903
 30
0.0
 10
9.887073612138392
 20
28.93741971981141
 30
0.0
 10
9.64477589668894
 20
28.89751849970317
 30
0.0
 10
9.520111979223284
 20
28.88237644429807
 30
0.0
 10
9.26382505838759
 20
28.86185505429756
 30
0.0
 10
9.131253044345089
 20
28.85657288334779
 30
0.0
 10
9.000718311324125
 20
28.85655404586558
 30
0.0
  0
SPLINE
  5
246
330
1F
100
AcDbEntity
  8
1
  6
SLD-Solid
370
    25
100
AcDbSpline
210
0.0
220
0.0
230
1.0
 70
     8
 71
     3
 72
     8
 73
     4
 74
     0
 42
0.000000001
 43
0.00000001
 40
0.0
 40
0.0
 40
0.0
 40
0.0
 40
0.0006574372199583
 40
0.0006574372199583
 40
0.0006574372199583
 40
0.0006574372199583
 10
11.58000000000001
 20
8.572048192771103
 30
0.0
 10
11.67127640594347
 20
8.413153260635214
 30
0.0
 10
11.7622264238933
 20
8.254138786342978
 30
0.0
 10
11.85283246435888
 20
8.094999999999999
 30
0.0
  0
SPLINE
  5
247
330
1F
100
AcDbEntity
  8
1
  6
SLD-Solid
370
    25
100
AcDbSpline
210
0.0
220
0.0
230
1.0
 70
    24
 71
     3
 72
    33
 73
    29
 74
     0
 42
0.000000001
 43
0.00000001
 40
0.0
 40
0.0
 40
0.0
 40
0.0
 40
0.0252074134106629
 40
0.0503577904579126
 40
0.1006529947214906
 40
0.1499358903108502
 40
0.1865968300683702
 40
0.2121850661003518
 40
0.2505508593283921
 40
0.2790355981719783
 40
0.3220351822744494
 40
0.3758116768115509
 40
0.4042896239144513
 40
0.4469019640738625
 40
0.500239364105761
 40
0.528851603727047
 40
0.5719840762781448
 40
0.6254852477883687
 40
0.6539061918383554
 40
0.6965246131662879
 40
0.7500236545650174
 40
0.7787621048148663
 40
0.8217598145492444
 40
0.8751426615489913
 40
0.9000107751982609
 40
0.937354186519911
 40
0.968588669576068
 40
1.0
 40
1.0
 40
1.0
 40
1.0
 10
2.749999999999987
 20
8.094999999999999
 30
0.0
 10
2.744952075539068
 20
8.094999999999999
 30
0.0
 10
2.734867648465601
 20
8.094999999999999
 30
0.0
 10
2.714748012478783
 20
8.094999999999999
 30
0.0
 10
2.68993809363492
 20
8.094999999999999
 30
0.0
 10
2.663217663299145
 20
8.095000000000004
 30
0.0
 10
2.641737731956235
 20
8.094999999999999
 30
0.0
 10
2.622677452818993
 20
8.095000000000004
 30
0.0
 10
2.605498004816005
 20
8.095000000000004
 30
0.0
 10
2.585570941770752
 20
8.095000000000004
 30
0.0
 10
2.563495615805778
 20
8.095000000000004
 30
0.0
 10
2.542410579551442
 20
8.095000000000004
 30
0.0
 10
2.522358340672533
 20
8.095000000000004
 30
0.0
 10
2.503240257475015
 20
8.095000000000004
 30
0.0
 10
2.485365150187378
 20
8.095000000000004
 30
0.0
 10
2.468594930052163
 20
8.095000000000004
 30
0.0
 10
2.452863354130848
 20
8.095000000000004
 30
0.0
 10
2.438652440579224
 20
8.095000000000011
 30
0.0
 10
2.425831939336554
 20
8.09500000000001
 30
0.0
 10
2.41418600078158
 20
8.09500000000001
 30
0.0
 10
2.404147153635626
 20
8.09500000000001
 30
0.0
 10
2.39553141507348
 20
8.09500000000001
 30
0.0
 10
2.388195715005715
 20
8.09500000000001
 30
0.0
 10
2.382777406320603
 20
8.09500000000001
 30
0.0
 10
2.378932867899029
 20
8.09500000000001
 30
0.0
 10
2.376698345849441
 20
8.09500000000001
 30
0.0
 10
2.375252749706775
 20
8.09500000000001
 30
0.0
 10
2.375084408309953
 20
8.09500000000001
 30
0.0
 10
2.375000000000042
 20
8.09500000000001
 30
0.0
  0
SPLINE
  5
248
330
1F
100
AcDbEntity
  8
1
  6
SLD-Solid
370
    25
100
AcDbSpline
210
0.0
220
0.0
230
1.0
 70
    24
 71
     3
 72
     8
 73
     4
 74
     0
 42
0.000000001
 43
0.00000001
 40
0.0
 40
0.0
 40
0.0
 40
0.0
 40
1.0
 40
1.0
 40
1.0
 40
1.0
 10
14.10000000000002
 20
8.094999999999999
 30
0.0
 10
13.35444575301459
 20
8.094999999999999
 30
0.0
 10
12.60493632912239
 20
8.094999999999999
 30
0.0
 10
11.85283246435888
 20
8.094999999999999
 30
0.0
  0
SPLINE
  5
249
330
1F
100
AcDbEntity
  8
1
  6
SLD-Solid
370
    25
100
AcDbSpline
210
0.0
220
0.0
230
1.0
 70
     8
 71
     3
 72
     8
 73
     4
 74
     0
 42
0.000000001
 43
0.00000001
 40
0.0
 40
0.0
 40
0.0
 40
0.0
 40
0.4999999999999993
 40
0.4999999999999993
 40
0.4999999999999993
 40
0.4999999999999993
 10
18.72500000000014
 20
-7.382860218099734
 30
0.0
 10
18.82551825775797
 20
-7.337658141140725
 30
0.0
 10
18.91735913082733
 20
-7.293714212873502
 30
0.0
 10
18.98629537144483
 20
-7.259707188479992
 30
0.0
  0
SPLINE
  5
24A
330
1F
100
AcDbEntity
  8
1
  6
SLD-Solid
370
    25
100
AcDbSpline
210
0.0
220
0.0
230
1.0
 70
     8
 71
     3
 72
     8
 73
     4
 74
     0
 42
0.000000001
 43
0.00000001
 40
0.4999999999999993
 40
0.4999999999999993
 40
0.4999999999999993
 40
0.4999999999999993
 40
0.7499999999999997
 40
0.7499999999999997
 40
0.7499999999999997
 40
0.7499999999999997
 10
18.98629537144483
 20
-7.259707188479992
 30
0.0
 10
19.02076349175358
 20
-7.242703676283242
 30
0.0
 10
19.04869102210026
 20
-7.228626825592993
 30
0.0
 10
19.06873084400293
 20
-7.218455603707882
 30
0.0
  0
SPLINE
  5
24B
330
1F
100
AcDbEntity
  8
1
  6
SLD-Solid
370
    25
100
AcDbSpline
210
0.0
220
0.0
230
1.0
 70
     8
 71
     2
 72
     6
 73
     3
 74
     0
 42
0.000000001
 43
0.00000001
 40
0.7499999999999997
 40
0.7499999999999997
 40
0.7499999999999997
 40
1.0
 40
1.0
 40
1.0
 10
19.06873084400293
 20
-7.218455603707882
 30
0.0
 10
19.0887706659056
 20
-7.208284381822774
 30
0.0
 10
19.10000000000014
 20
-7.202499566123324
 30
0.0
  0
SPLINE
  5
24C
330
1F
100
AcDbEntity
  8
1
  6
SLD-Solid
370
    25
100
AcDbSpline
210
0.0
220
0.0
230
1.0
 70
     8
 71
     2
 72
     6
 73
     3
 74
     0
 42
0.000000001
 43
0.00000001
 40
0.0
 40
0.0
 40
0.0
 40
0.5
 40
0.5
 40
0.5
 10
19.1000001077185
 20
7.2024994374317
 30
0.0
 10
19.05448213914499
 20
7.226071880363543
 30
0.0
 10
18.98611858964224
 20
7.25979431870365
 30
0.0
  0
SPLINE
  5
24D
330
1F
100
AcDbEntity
  8
1
  6
SLD-Solid
370
    25
100
AcDbSpline
210
0.0
220
0.0
230
1.0
 70
     8
 71
     3
 72
     8
 73
     4
 74
     0
 42
0.000000001
 43
0.00000001
 40
0.5
 40
0.5
 40
0.5
 40
0.5
 40
1.0
 40
1.0
 40
1.0
 40
1.0
 10
18.98611858964224
 20
7.259794318703651
 30
0.0
 10
18.91775504013949
 20
7.293516757043765
 30
0.0
 10
18.82528765987252
 20
7.337761758502333
 30
0.0
 10
18.72500010771891
 20
7.382860089408526
 30
0.0
  0
SPLINE
  5
24E
330
1F
100
AcDbEntity
  8
1
  6
SLD-Solid
370
    25
100
AcDbSpline
210
0.0
220
0.0
230
1.0
 70
     8
 71
     3
 72
    10
 73
     6
 74
     0
 42
0.000000001
 43
0.00000001
 40
0.0
 40
0.0
 40
0.0
 40
0.0
 40
0.5000000000000001
 40
0.5000000000000001
 40
1.0
 40
1.0
 40
1.0
 40
1.0
 10
15.40500000000013
 20
-8.095
 30
0.0
 10
15.98112657985168
 20
-8.094999999999999
 30
0.0
 10
16.54624836374918
 20
-8.034200497612762
 30
0.0
 10
17.65561942498777
 20
-7.796508043186341
 30
0.0
 10
18.20339005803133
 20
-7.617423105135155
 30
0.0
 10
18.72500000000014
 20
-7.382860218099734
 30
0.0
  0
SPLINE
  5
24F
330
1F
100
AcDbEntity
  8
1
  6
SLD-Solid
370
    25
100
AcDbSpline
210
0.0
220
0.0
230
1.0
 70
     8
 71
     3
 72
    10
 73
     6
 74
     0
 42
0.000000001
 43
0.00000001
 40
0.0
 40
0.0
 40
0.0
 40
0.0
 40
0.4999999999999999
 40
0.4999999999999999
 40
1.0
 40
1.0
 40
1.0
 40
1.0
 10
18.72500010771892
 20
7.382860089408521
 30
0.0
 10
18.20352437575658
 20
7.617362623517254
 30
0.0
 10
17.66546737266216
 20
7.793658058452204
 30
0.0
 10
16.55640670316619
 20
8.032750523847936
 30
0.0
 10
15.98103488572576
 20
8.09499987130876
 30
0.0
 10
15.40500010771891
 20
8.09499987130876
 30
0.0
  0
SPLINE
  5
250
330
1F
100
AcDbEntity
  8
1
  6
SLD-Solid
370
    25
100
AcDbSpline
210
0.0
220
0.0
230
1.0
 70
    24
 71
     2
 72
     6
 73
     3
 74
     0
 42
0.000000001
 43
0.00000001
 40
0.0
 40
0.0
 40
0.0
 40
0.5
 40
0.5
 40
0.5
 10
14.10000000000003
 20
-8.095
 30
0.0
 10
14.13829554285048
 20
-8.095
 30
0.0
 10
14.2064977756738
 20
-8.094999999999999
 30
0.0
  0
SPLINE
  5
251
330
1F
100
AcDbEntity
  8
1
  6
SLD-Solid
370
    25
100
AcDbSpline
210
0.0
220
0.0
230
1.0
 70
    24
 71
     3
 72
     8
 73
     4
 74
     0
 42
0.000000001
 43
0.00000001
 40
0.5
 40
0.5
 40
0.5
 40
0.5
 40
1.0
 40
1.0
 40
1.0
 40
1.0
 10
14.20649777567379
 20
-8.094999999999999
 30
0.0
 10
14.27470000849712
 20
-8.094999999999999
 30
0.0
 10
14.3735280842214
 20
-8.095
 30
0.0
 10
14.47500000000002
 20
-8.095
 30
0.0
  0
SPLINE
  5
252
330
1F
100
AcDbEntity
  8
1
  6
SLD-Solid
370
    25
100
AcDbSpline
210
0.0
220
0.0
230
1.0
 70
    24
 71
     3
 72
     8
 73
     4
 74
     0
 42
0.000000001
 43
0.00000001
 40
0.0
 40
0.0
 40
0.0
 40
0.0
 40
0.5
 40
0.5
 40
0.5
 40
0.5
 10
14.47500000000002
 20
8.094999999999999
 30
0.0
 10
14.3749039439787
 20
8.094999999999999
 30
0.0
 10
14.2745797149141
 20
8.094999999999999
 30
0.0
 10
14.20643128914252
 20
8.094999999999999
 30
0.0
  0
SPLINE
  5
253
330
1F
100
AcDbEntity
  8
1
  6
SLD-Solid
370
    25
100
AcDbSpline
210
0.0
220
0.0
230
1.0
 70
    24
 71
     2
 72
     6
 73
     3
 74
     0
 42
0.000000001
 43
0.00000001
 40
0.5
 40
0.5
 40
0.5
 40
1.0
 40
1.0
 40
1.0
 10
14.20643128914252
 20
8.094999999999999
 30
0.0
 10
14.13828286337092
 20
8.094999999999999
 30
0.0
 10
14.1
 20
8.094999999999999
 30
0.0
  0
SPLINE
  5
254
330
1F
100
AcDbEntity
  8
1
  6
SLD-Solid
370
    25
100
AcDbSpline
210
0.0
220
0.0
230
1.0
 70
     8
 71
     3
 72
    10
 73
     6
 74
     0
 42
0.000000001
 43
0.00000001
 40
0.0
 40
0.0
 40
0.0
 40
0.0
 40
0.5
 40
0.5
 40
1.0
 40
1.0
 40
1.0
 40
1.0
 10
2.000000000000016
 20
2.254423570529101
 30
0.0
 10
2.000000000000016
 20
1.503942689015998
 30
0.0
 10
1.991466734792183
 20
0.75334707726947
 30
0.0
 10
1.991437555172504
 20
-0.7476150780783668
 30
0.0
 10
2.000000000000016
 20
-1.502087565517847
 30
0.0
 10
2.000000000000016
 20
-2.254423570529091
 30
0.0
  0
SPLINE
  5
255
330
1F
100
AcDbEntity
  8
1
  6
SLD-Dashed
370
    18
100
AcDbSpline
210
0.0
220
0.0
230
1.0
 70
     8
 71
     3
 72
    28
 73
    24
 74
     0
 42
0.000000001
 43
0.00000001
 40
0.0
 40
0.0
 40
0.0
 40
0.0
 40
0.0208848787760346
 40
0.0417692468663837
 40
0.0626724436867481
 40
0.0937833486241915
 40
0.1248924931938363
 40
0.1870516317136093
 40
0.2497059860485787
 40
0.3124160740059312
 40
0.3746586325612387
 40
0.4369953122912638
 40
0.4999274454992726
 40
0.5625489515323554
 40
0.624870870336075
 40
0.6874635877609557
 40
0.7503321793926649
 40
0.8126536407098792
 40
0.87491816467881
 40
0.9062722023378295
 40
0.9376282017468426
 40
0.9688222759430771
 40
1.0
 40
1.0
 40
1.0
 40
1.0
 10
21.62000000245135
 20
-5.823866909025522
 30
0.0
 10
21.67915553739001
 20
-5.758032571530031
 30
0.0
 10
21.79746516077176
 20
-5.626365506347458
 30
0.0
 10
21.96712444092626
 20
-5.421882978239048
 30
0.0
 10
22.1575327699854
 20
-5.178406928455125
 30
0.0
 10
22.36375926533596
 20
-4.892291208755863
 30
0.0
 10
22.65244146433605
 20
-4.450208737196908
 30
0.0
 10
22.97592075703599
 20
-3.870964653039488
 30
0.0
 10
23.29950126695888
 20
-3.140228687299198
 30
0.0
 10
23.55455686153866
 20
-2.380921925087848
 30
0.0
 10
23.73837863291763
 20
-1.601409965868508
 30
0.0
 10
23.84992336724932
 20
-0.806386136566719
 30
0.0
 10
23.88749131251951
 20
-0.0022805013247182
 30
0.0
 10
23.85028715411633
 20
0.8017644320692935
 30
0.0
 10
23.73928069919849
 20
1.596976065964338
 30
0.0
 10
23.55531090367641
 20
2.378644508004409
 30
0.0
 10
23.30005787744557
 20
3.138682099372916
 30
0.0
 10
22.97677352448296
 20
3.869221985390789
 30
0.0
 10
22.65340115112344
 20
4.448605056595903
 30
0.0
 10
22.36346664671071
 20
4.892917014940275
 30
0.0
 10
22.13016927272683
 20
5.215848132823969
 30
0.0
 10
21.88370044482302
 20
5.527773189079078
 30
0.0
 10
21.70788480117682
 20
5.725186686017437
 30
0.0
 10
21.62000002350463
 20
5.823867559505709
 30
0.0
  0
SPLINE
  5
256
330
1F
100
AcDbEntity
  8
1
  6
SLD-Dashed
370
    18
100
AcDbSpline
210
0.0
220
0.0
230
1.0
 70
     8
 71
     3
 72
    16
 73
    12
 74
     0
 42
0.000000001
 43
0.00000001
 40
0.0
 40
0.0
 40
0.0
 40
0.0
 40
0.0695232197368515
 40
0.1235194163753505
 40
0.2473993233057224
 40
0.3710970458235473
 40
0.4960221849234874
 40
0.6207077906168279
 40
0.7467632211138764
 40
0.8742152835092132
 40
1.0
 40
1.0
 40
1.0
 40
1.0
 10
2.000000000000127
 20
-8.308493879634762
 30
0.0
 10
2.000837312833445
 20
-8.311481898325614
 30
0.0
 10
2.002324936578245
 20
-8.316790604196978
 30
0.0
 10
2.017237716615328
 20
-8.32724582284168
 30
0.0
 10
2.050743138085453
 20
-8.339661696232366
 30
0.0
 10
2.118762255275603
 20
-8.353764037250626
 30
0.0
 10
2.210937436922911
 20
-8.366172771941335
 30
0.0
 10
2.324719413260415
 20
-8.376465727069995
 30
0.0
 10
2.456220463106312
 20
-8.384133748075659
 30
0.0
 10
2.600112611428063
 20
-8.389101771536351
 30
0.0
 10
2.700257326017058
 20
-8.389712767402438
 30
0.0
 10
2.750000000000016
 20
-8.39001625389493
 30
0.0
  0
SPLINE
  5
257
330
1F
100
AcDbEntity
  8
1
  6
SLD-Dashed
370
    18
100
AcDbSpline
210
0.0
220
0.0
230
1.0
 70
     8
 71
     3
 72
     8
 73
     4
 74
     0
 42
0.000000001
 43
0.00000001
 40
0.0
 40
0.0
 40
0.0
 40
0.0
 40
0.0004662331691399
 40
0.0004662331691399
 40
0.0004662331691399
 40
0.0004662331691399
 10
11.58000000000001
 20
-8.39001625389493
 30
0.0
 10
11.6494697355087
 20
-8.291714289790566
 30
0.0
 10
11.71883659456746
 20
-8.193375938213634
 30
0.0
 10
11.78809658305602
 20
-8.094999999997604
 30
0.0
  0
SPLINE
  5
258
330
1F
100
AcDbEntity
  8
SK3
  6
SLD-Dashed
370
    18
100
AcDbSpline
210
0.0
220
0.0
230
1.0
 70
     8
 71
     3
 72
    14
 73
    10
 74
     0
 42
0.000000001
 43
0.00000001
 40
0.0
 40
0.0
 40
0.0
 40
0.0
 40
0.25
 40
0.25
 40
0.5
 40
0.5
 40
0.75
 40
0.75
 40
1.0
 40
1.0
 40
1.0
 40
1.0
 10
9.000000000000021
 20
22.52233123672765
 30
0.0
 10
8.81277719191359
 20
22.64552007315852
 30
0.0
 10
8.662112875109054
 20
22.78785458759382
 30
0.0
 10
8.381886162599162
 20
23.07755921415751
 30
0.0
 10
8.254956459178425
 20
23.22498791588271
 30
0.0
 10
8.019354036156571
 20
23.5032207217443
 30
0.0
 10
7.909797220188294
 20
23.63589376155358
 30
0.0
 10
7.703969370161323
 20
23.87567519811309
 30
0.0
 10
7.607104185181568
 20
23.98396357657228
 30
0.0
 10
7.525977601282749
 20
24.05824340254708
 30
0.0
  0
SPLINE
  5
259
330
1F
100
AcDbEntity
  8
SK3
  6
SLD-Dashed
370
    18
100
AcDbSpline
210
0.0
220
0.0
230
1.0
 70
     8
 71
     3
 72
    32
 73
    28
 74
     0
 42
0.000000001
 43
0.00000001
 40
0.4999999999999986
 40
0.4999999999999986
 40
0.4999999999999986
 40
0.4999999999999986
 40
0.5624999999999987
 40
0.5624999999999987
 40
0.5937499999999989
 40
0.5937499999999989
 40
0.6249999999999991
 40
0.6249999999999991
 40
0.6562499999999994
 40
0.6562499999999994
 40
0.6874999999999997
 40
0.6874999999999997
 40
0.71875
 40
0.71875
 40
0.7500000000000002
 40
0.7500000000000002
 40
0.8125000000000003
 40
0.8125000000000003
 40
0.8750000000000003
 40
0.8750000000000003
 40
0.9062500000000003
 40
0.9062500000000003
 40
0.9375000000000002
 40
0.9375000000000002
 40
0.9687500000000002
 40
0.9687500000000002
 40
1.0
 40
1.0
 40
1.0
 40
1.0
 10
7.456230207610131
 20
19.84600673884608
 30
0.0
 10
7.546439438621988
 20
19.95426866967479
 30
0.0
 10
7.692733571174005
 20
20.07094934226743
 30
0.0
 10
7.972968724529434
 20
20.2109181782994
 30
0.0
 10
8.075281363416384
 20
20.25117971404979
 30
0.0
 10
8.299556825010102
 20
20.30548974841721
 30
0.0
 10
8.420055834779811
 20
20.31835458358099
 30
0.0
 10
8.664330351546539
 20
20.29472325415855
 30
0.0
 10
8.784295625434757
 20
20.25778638738562
 30
0.0
 10
9.008919125679387
 20
20.14032248788609
 30
0.0
 10
9.109838184184385
 20
20.06343380589292
 30
0.0
 10
9.297290894689988
 20
19.89078717598882
 30
0.0
 10
9.383733967009283
 20
19.79494548607432
 30
0.0
 10
9.545098872194652
 20
19.59705747977521
 30
0.0
 10
9.620726716161599
 20
19.49411222683431
 30
0.0
 10
9.83847521104514
 20
19.17772611922447
 30
0.0
 10
9.972459158192198
 20
18.95551747124611
 30
0.0
 10
10.21810753497553
 20
18.51489382659244
 30
0.0
 10
10.33101402996076
 20
18.29446640444082
 30
0.0
 10
10.47999063705328
 20
17.96958614238823
 30
0.0
 10
10.52474319299179
 20
17.86515021015936
 30
0.0
 10
10.5984358974361
 20
17.67242127134742
 30
0.0
 10
10.62620768260133
 20
17.587028417322
 30
0.0
 10
10.65415209263679
 20
17.45435220691152
 30
0.0
 10
10.6528685670955
 20
17.4109153037984
 30
0.0
 10
10.62120361374109
 20
17.37653193951724
 30
0.0
 10
10.59130436150141
 20
17.38454088990769
 30
0.0
 10
10.55308824864454
 20
17.4096863223679
 30
0.0
  0
SPLINE
  5
25A
330
1F
100
AcDbEntity
  8
SK3
  6
SLD-Dashed
370
    18
100
AcDbSpline
210
0.0
220
0.0
230
1.0
 70
     8
 71
     3
 72
    32
 73
    28
 74
     0
 42
0.000000001
 43
0.00000001
 40
0.0
 40
0.0
 40
0.0
 40
0.0
 40
0.03125
 40
0.03125
 40
0.0625000000000001
 40
0.0625000000000001
 40
0.1249999999999997
 40
0.1249999999999997
 40
0.1874999999999994
 40
0.1874999999999994
 40
0.2187499999999993
 40
0.2187499999999993
 40
0.2499999999999993
 40
0.2499999999999993
 40
0.2812499999999992
 40
0.2812499999999992
 40
0.3124999999999991
 40
0.3124999999999991
 40
0.3437499999999991
 40
0.3437499999999991
 40
0.3749999999999989
 40
0.3749999999999989
 40
0.4062499999999987
 40
0.4062499999999987
 40
0.4374999999999985
 40
0.4374999999999985
 40
0.4999999999999986
 40
0.4999999999999986
 40
0.4999999999999986
 40
0.4999999999999986
 10
10.55308824864454
 20
17.4096863223679
 30
0.0
 10
10.51487213578768
 20
17.43483175482813
 30
0.0
 10
10.46983022717771
 20
17.47541959914543
 30
0.0
 10
10.37081904354853
 20
17.57495501224682
 30
0.0
 10
10.31630583330358
 20
17.63468171470312
 30
0.0
 10
10.14470275204583
 20
17.83011468983803
 30
0.0
 10
10.02087178413283
 20
17.98043066739104
 30
0.0
 10
9.751365665135777
 20
18.29967117781139
 30
0.0
 10
9.606244043034854
 20
18.469551953324
 30
0.0
 10
9.360735956978658
 20
18.71806092835866
 30
0.0
 10
9.273067061356333
 20
18.80074761294371
 30
0.0
 10
9.082481598369608
 20
18.95594905056459
 30
0.0
 10
8.978191466547617
 20
19.02910999751617
 30
0.0
 10
8.752139650361451
 20
19.15082152874418
 30
0.0
 10
8.62934137328375
 20
19.19863634895722
 30
0.0
 10
8.387204787212319
 20
19.26501062988958
 30
0.0
 10
8.266814367632241
 20
19.28512289757325
 30
0.0
 10
8.046561717486508
 20
19.31563189214509
 30
0.0
 10
7.94412166268417
 20
19.3266893603509
 30
0.0
 10
7.760725737691584
 20
19.35213271930933
 30
0.0
 10
7.680377292549653
 20
19.36624187488922
 30
0.0
 10
7.541999915855996
 20
19.40397372362142
 30
0.0
 10
7.486162551754952
 20
19.42699569581447
 30
0.0
 10
7.401526261015673
 20
19.48406624904846
 30
0.0
 10
7.372625165964472
 20
19.51869988496406
 30
0.0
 10
7.332227545734413
 20
19.63671408738468
 30
0.0
 10
7.366020976598289
 20
19.73774480801737
 30
0.0
 10
7.456230207610131
 20
19.84600673884608
 30
0.0
  0
SPLINE
  5
25B
330
1F
100
AcDbEntity
  8
SK3
  6
SLD-Dashed
370
    18
100
AcDbSpline
210
0.0
220
0.0
230
1.0
 70
     8
 71
     3
 72
    30
 73
    26
 74
     0
 42
0.000000001
 43
0.00000001
 40
0.4999999999999969
 40
0.4999999999999969
 40
0.4999999999999969
 40
0.4999999999999969
 40
0.5624999999999971
 40
0.5624999999999971
 40
0.5937499999999973
 40
0.5937499999999973
 40
0.6249999999999976
 40
0.6249999999999976
 40
0.6562499999999978
 40
0.6562499999999978
 40
0.6874999999999979
 40
0.6874999999999979
 40
0.7499999999999984
 40
0.7499999999999984
 40
0.7812499999999986
 40
0.7812499999999986
 40
0.8124999999999986
 40
0.8124999999999986
 40
0.8749999999999989
 40
0.8749999999999989
 40
0.9374999999999994
 40
0.9374999999999994
 40
0.9687499999999998
 40
0.9687499999999998
 40
1.0
 40
1.0
 40
1.0
 40
1.0
 10
9.000696316941573
 20
5.828118860750124
 30
0.0
 10
8.784908724696713
 20
5.82806695911723
 30
0.0
 10
8.567048694399102
 20
5.853178352513249
 30
0.0
 10
8.268946802941713
 20
5.921330855601307
 30
0.0
 10
8.172466043233698
 20
5.949419321585631
 30
0.0
 10
7.993203237886895
 20
6.012924687184104
 30
0.0
 10
7.910379012452867
 20
6.048179240353363
 30
0.0
 10
7.758121289792086
 20
6.124333354423847
 30
0.0
 10
7.688681933968295
 20
6.165418181912428
 30
0.0
 10
7.569279941293278
 20
6.248573285672895
 30
0.0
 10
7.518412105938579
 20
6.291049151618496
 30
0.0
 10
7.393205589629511
 20
6.419647104437542
 30
0.0
 10
7.350125329029177
 20
6.502975949383427
 30
0.0
 10
7.349937743673054
 20
6.614727810660207
 30
0.0
 10
7.360546983124022
 20
6.649079505291762
 30
0.0
 10
7.402585039394088
 20
6.712381754065973
 30
0.0
 10
7.43454879840498
 20
6.741521134481808
 30
0.0
 10
7.558420656055984
 20
6.818244166438427
 30
0.0
 10
7.681132065308696
 20
6.856913129969278
 30
0.0
 10
7.983931170274391
 20
6.912480095519855
 30
0.0
 10
8.16718197203778
 20
6.930192911438398
 30
0.0
 10
8.46495008226189
 20
6.946625347922487
 30
0.0
 10
8.569947795646431
 20
6.950524619014957
 30
0.0
 10
8.782695288988313
 20
6.955579984062175
 30
0.0
 10
8.890578685517598
 20
6.956785249985102
 30
0.0
 10
9.000000000000021
 20
6.956785249985102
 30
0.0
  0
SPLINE
  5
25C
330
1F
100
AcDbEntity
  8
SK3
  6
SLD-Dashed
370
    18
100
AcDbSpline
210
0.0
220
0.0
230
1.0
 70
     8
 71
     3
 72
    32
 73
    28
 74
     0
 42
0.000000001
 43
0.00000001
 40
0.0
 40
0.0
 40
0.0
 40
0.0
 40
0.0312499999999998
 40
0.0312499999999998
 40
0.0624999999999995
 40
0.0624999999999995
 40
0.0937499999999993
 40
0.0937499999999993
 40
0.124999999999999
 40
0.124999999999999
 40
0.1874999999999986
 40
0.1874999999999986
 40
0.2499999999999982
 40
0.2499999999999982
 40
0.2812499999999979
 40
0.2812499999999979
 40
0.3124999999999978
 40
0.3124999999999978
 40
0.3749999999999974
 40
0.3749999999999974
 40
0.4062499999999973
 40
0.4062499999999973
 40
0.4374999999999972
 40
0.4374999999999972
 40
0.468749999999997
 40
0.468749999999997
 40
0.4999999999999969
 40
0.4999999999999969
 40
0.4999999999999969
 40
0.4999999999999969
 10
9.000000000000021
 20
6.956785249985102
 30
0.0
 10
9.109421314482432
 20
6.956785249985102
 30
0.0
 10
9.216934141527243
 20
6.955579635659605
 30
0.0
 10
9.428324443196177
 20
6.950574738100415
 30
0.0
 10
9.533320982893306
 20
6.946705728820862
 30
0.0
 10
9.732933064688115
 20
6.935719952199597
 30
0.0
 10
9.827545190420937
 20
6.928648943863719
 30
0.0
 10
10.0066022172767
 20
6.910183829536301
 30
0.0
 10
10.09106745345292
 20
6.898696105629806
 30
0.0
 10
10.31845668439878
 20
6.8570301849835
 30
0.0
 10
10.44127007785234
 20
6.818300476594021
 30
0.0
 10
10.60612945459311
 20
6.716460560978667
 30
0.0
 10
10.64986706317451
 20
6.652019447780863
 30
0.0
 10
10.6500660021792
 20
6.541211798441041
 30
0.0
 10
10.63926006613779
 20
6.501252463902041
 30
0.0
 10
10.59698911749948
 20
6.419578813744928
 30
0.0
 10
10.56571768111608
 20
6.377598407896416
 30
0.0
 10
10.44118179578642
 20
6.249271679382565
 30
0.0
 10
10.31980936785254
 20
6.163428739056988
 30
0.0
 10
10.09031421017589
 20
6.048468009215199
 30
0.0
 10
10.00743739559387
 20
6.013200883306917
 30
0.0
 10
9.829108445560827
 20
5.949928459094076
 30
0.0
 10
9.732492335567944
 20
5.921708122695684
 30
0.0
 10
9.53329058947948
 20
5.876070401958463
 30
0.0
 10
9.430444258687915
 20
5.858412277425416
 30
0.0
 10
9.218127825784975
 20
5.834356571066255
 30
0.0
 10
9.108590113063988
 20
5.828144811566571
 30
0.0
 10
9.000696316941573
 20
5.828118860750124
 30
0.0
  0
SPLINE
  5
25D
330
1F
100
AcDbEntity
  8
SK3
  6
SLD-Dashed
370
    18
100
AcDbSpline
210
0.0
220
0.0
230
1.0
 70
     8
 71
     3
 72
    30
 73
    26
 74
     0
 42
0.000000001
 43
0.00000001
 40
0.5000000000000014
 40
0.5000000000000014
 40
0.5000000000000014
 40
0.5000000000000014
 40
0.5625000000000012
 40
0.5625000000000012
 40
0.593750000000001
 40
0.593750000000001
 40
0.6250000000000009
 40
0.6250000000000009
 40
0.6562500000000008
 40
0.6562500000000008
 40
0.6875000000000007
 40
0.6875000000000007
 40
0.7500000000000004
 40
0.7500000000000004
 40
0.7812500000000003
 40
0.7812500000000003
 40
0.8125000000000002
 40
0.8125000000000002
 40
0.8750000000000002
 40
0.8750000000000002
 40
0.9375000000000001
 40
0.9375000000000001
 40
0.9687500000000001
 40
0.9687500000000001
 40
1.0
 40
1.0
 40
1.0
 40
1.0
 10
8.999303683058471
 20
-6.956785233221206
 30
0.0
 10
9.215091275303317
 20
-6.956795623434965
 30
0.0
 10
9.432951305600943
 20
-6.952193217180723
 30
0.0
 10
9.731053197058303
 20
-6.935841424474249
 30
0.0
 10
9.827533956766333
 20
-6.928651961099114
 30
0.0
 10
10.00679676211315
 20
-6.91016190657856
 30
0.0
 10
10.08962098754715
 20
-6.898922416800193
 30
0.0
 10
10.24187871020793
 20
-6.871100206533851
 30
0.0
 10
10.31131806603173
 20
-6.854385757486234
 30
0.0
 10
10.43072005870677
 20
-6.815565320931607
 30
0.0
 10
10.48158789406144
 20
-6.793338880874092
 30
0.0
 10
10.60679441037052
 20
-6.716160531564954
 30
0.0
 10
10.64987467097087
 20
-6.652571251466267
 30
0.0
 10
10.65006225632696
 20
-6.540902490698286
 30
0.0
 10
10.63945301687602
 20
-6.501808848192774
 30
0.0
 10
10.59741496060594
 20
-6.420220705647819
 30
0.0
 10
10.56545120159505
 20
-6.377316705302404
 30
0.0
 10
10.44157934394405
 20
-6.24969556347859
 30
0.0
 10
10.31886793469133
 20
-6.163028705867216
 30
0.0
 10
10.01606882972562
 20
-6.011205112641496
 30
0.0
 10
9.83281802796225
 20
-5.944805669355194
 30
0.0
 10
9.535049917738153
 20
-5.876417755056647
 30
0.0
 10
9.430052204353597
 20
-5.858344814756934
 30
0.0
 10
9.217304711011717
 20
-5.834286485611694
 30
0.0
 10
9.109421314482447
 20
-5.828118777010397
 30
0.0
 10
9.000000000000021
 20
-5.828118777010397
 30
0.0
  0
SPLINE
  5
25E
330
1F
100
AcDbEntity
  8
SK3
  6
SLD-Dashed
370
    18
100
AcDbSpline
210
0.0
220
0.0
230
1.0
 70
     8
 71
     3
 72
    32
 73
    28
 74
     0
 42
0.000000001
 43
0.00000001
 40
0.0
 40
0.0
 40
0.0
 40
0.0
 40
0.0312500000000001
 40
0.0312500000000001
 40
0.0625000000000002
 40
0.0625000000000002
 40
0.0937500000000003
 40
0.0937500000000003
 40
0.1250000000000004
 40
0.1250000000000004
 40
0.1875000000000004
 40
0.1875000000000004
 40
0.2500000000000006
 40
0.2500000000000006
 40
0.2812500000000007
 40
0.2812500000000007
 40
0.3125000000000007
 40
0.3125000000000007
 40
0.3750000000000008
 40
0.3750000000000008
 40
0.406250000000001
 40
0.406250000000001
 40
0.4375000000000012
 40
0.4375000000000012
 40
0.4687500000000013
 40
0.4687500000000013
 40
0.5000000000000014
 40
0.5000000000000014
 40
0.5000000000000014
 40
0.5000000000000014
 10
9.000000000000021
 20
-5.828118777010394
 30
0.0
 10
8.89057868551757
 20
-5.828118777010397
 30
0.0
 10
8.78306585847277
 20
-5.834284418330174
 30
0.0
 10
8.571675556803825
 20
-5.858109988008075
 30
0.0
 10
8.46667901710671
 20
-5.876067982477976
 30
0.0
 10
8.26706693531186
 20
-5.92181849994013
 30
0.0
 10
8.172454809579065
 20
-5.949427367456906
 30
0.0
 10
7.993397782723302
 20
-6.012851705936444
 30
0.0
 10
7.908932546547093
 20
-6.04884253853687
 30
0.0
 10
7.681543315601225
 20
-6.162756727647017
 30
0.0
 10
7.55872992214765
 20
-6.249521956188355
 30
0.0
 10
7.393870545406897
 20
-6.419081974581076
 30
0.0
 10
7.350132936825488
 20
-6.503524382808441
 30
0.0
 10
7.349933997820801
 20
-6.614420162333292
 30
0.0
 10
7.360739933862229
 20
-6.649550307798503
 30
0.0
 10
7.403010882500532
 20
-6.712840086506265
 30
0.0
 10
7.43428231888392
 20
-6.741349407769767
 30
0.0
 10
7.558818204213599
 20
-6.818503738973241
 30
0.0
 10
7.680190632147477
 20
-6.856785886595828
 30
0.0
 10
7.909685789824136
 20
-6.89883234507006
 30
0.0
 10
7.992562604406131
 20
-6.910073301990282
 30
0.0
 10
8.170891554439189
 20
-6.928511809027618
 30
0.0
 10
8.267507664432086
 20
-6.93574718036596
 30
0.0
 10
8.466709410520536
 20
-6.946704422141278
 30
0.0
 10
8.56955574131213
 20
-6.950509985122841
 30
0.0
 10
8.78187217421504
 20
-6.955565712422597
 30
0.0
 10
8.891409886936042
 20
-6.956780038114331
 30
0.0
 10
8.999303683058471
 20
-6.956785233221206
 30
0.0
  0
SPLINE
  5
25F
330
1F
100
AcDbEntity
  8
SK3
  6
SLD-Dashed
370
    18
100
AcDbSpline
210
0.0
220
0.0
230
1.0
 70
     8
 71
     3
 72
    31
 73
    27
 74
     0
 42
0.000000001
 43
0.00000001
 40
0.0
 40
0.0
 40
0.0
 40
0.0
 40
0.0413136363502281
 40
0.0840259155216023
 40
0.1253027328601999
 40
0.1675931094826705
 40
0.2243578350643923
 40
0.2827509953387641
 40
0.3407332033190293
 40
0.3703776799903959
 40
0.4002562649739621
 40
0.4312275742215947
 40
0.4627993809414648
 40
0.4938482363634329
 40
0.5261343014413745
 40
0.5529095078694299
 40
0.5802422530343362
 40
0.6293550474643137
 40
0.679751776556643
 40
0.7327388617493609
 40
0.7867839293345293
 40
0.8350897054549369
 40
0.8846267803068554
 40
0.9247989901353472
 40
0.9660791174191502
 40
1.0
 40
1.0
 40
1.0
 40
1.0
 10
84.25000000000004
 20
-4.999999999999994
 30
0.0
 10
84.24198868353255
 20
-4.993181351960057
 30
0.0
 10
84.22569483336146
 20
-4.979313215557866
 30
0.0
 10
84.09660570013506
 20
-4.870017235998673
 30
0.0
 10
83.89857318000313
 20
-4.70436035539842
 30
0.0
 10
83.6063880333536
 20
-4.464370560706945
 30
0.0
 10
83.20014128227207
 20
-4.140926392897561
 30
0.0
 10
82.67213053953459
 20
-3.745141444264358
 30
0.0
 10
82.16552527629956
 20
-3.402352953920228
 30
0.0
 10
81.72036945802324
 20
-3.141484103206079
 30
0.0
 10
81.35615341107322
 20
-2.956215421432009
 30
0.0
 10
80.96035198403135
 20
-2.794534661197359
 30
0.0
 10
80.53444626356234
 20
-2.676066677722661
 30
0.0
 10
80.08313507423203
 20
-2.621929054351633
 30
0.0
 10
79.65079367612738
 20
-2.646071367651503
 30
0.0
 10
79.24937916104746
 20
-2.731099013929566
 30
0.0
 10
78.79162230540487
 20
-2.885344258662228
 30
0.0
 10
78.27038254480561
 20
-3.138661446024791
 30
0.0
 10
77.70453071884315
 20
-3.485801414014646
 30
0.0
 10
77.17866788937015
 20
-3.854666964923474
 30
0.0
 10
76.72084320104705
 20
-4.203360628033715
 30
0.0
 10
76.33938725533818
 20
-4.508328965704994
 30
0.0
 10
76.06077661986296
 20
-4.73812889818654
 30
0.0
 10
75.87220260519412
 20
-4.896347485052126
 30
0.0
 10
75.76583165838439
 20
-4.986530334209038
 30
0.0
 10
75.75846222888578
 20
-4.992805462912885
 30
0.0
 10
75.75513810394175
 20
-4.99563598213498
 30
0.0
  0
SPLINE
  5
260
330
1F
100
AcDbEntity
  8
SK3
  6
SLD-Dashed
370
    18
100
AcDbSpline
210
0.0
220
0.0
230
1.0
 70
     8
 71
     3
 72
    30
 73
    26
 74
     0
 42
0.000000001
 43
0.00000001
 40
0.4999999999999988
 40
0.4999999999999988
 40
0.4999999999999988
 40
0.4999999999999988
 40
0.5624999999999988
 40
0.5624999999999988
 40
0.6249999999999988
 40
0.6249999999999988
 40
0.6562499999999988
 40
0.6562499999999988
 40
0.6874999999999988
 40
0.6874999999999988
 40
0.7187499999999988
 40
0.7187499999999988
 40
0.7499999999999987
 40
0.7499999999999987
 40
0.7812499999999987
 40
0.7812499999999987
 40
0.8124999999999987
 40
0.8124999999999987
 40
0.8749999999999993
 40
0.8749999999999993
 40
0.9375
 40
0.9375
 40
0.96875
 40
0.96875
 40
1.0
 40
1.0
 40
1.0
 40
1.0
 10
9.60489337774205
 20
-19.51347850842543
 30
0.0
 10
9.755793318841812
 20
-19.30677243266499
 30
0.0
 10
9.893662796082046
 20
-19.08656912488681
 30
0.0
 10
10.14805664695105
 20
-18.64615615242746
 30
0.0
 10
10.26529533769359
 20
-18.42441699642169
 30
0.0
 10
10.42392440395894
 20
-18.09399279727538
 30
0.0
 10
10.47259202337671
 20
-17.9867149693467
 30
0.0
 10
10.55785759585895
 20
-17.78229420130048
 30
0.0
 10
10.59326128133259
 20
-17.68804522709432
 30
0.0
 10
10.64183233662709
 20
-17.52669154829955
 30
0.0
 10
10.65339514528472
 20
-17.46303104768352
 30
0.0
 10
10.64476472747594
 20
-17.38873292205964
 30
0.0
 10
10.62471573718478
 20
-17.37809859267777
 30
0.0
 10
10.56411130935855
 20
-17.39839565630087
 30
0.0
 10
10.52329695534177
 20
-17.42868893004588
 30
0.0
 10
10.43204397918215
 20
-17.51153884675924
 30
0.0
 10
10.38099542270568
 20
-17.56445171258743
 30
0.0
 10
10.21662618950936
 20
-17.74507224580029
 30
0.0
 10
10.09647406147368
 20
-17.88955370705241
 30
0.0
 10
9.835453713206126
 20
-18.20069059067216
 30
0.0
 10
9.694824864369608
 20
-18.36836325662091
 30
0.0
 10
9.462561182676854
 20
-18.61652471163249
 30
0.0
 10
9.381211268074757
 20
-18.69902254918873
 30
0.0
 10
9.204128124353298
 20
-18.85969063580466
 30
0.0
 10
9.106631126133136
 20
-18.93919115918044
 30
0.0
 10
9.000000000000021
 20
-19.00935229227053
 30
0.0
  0
SPLINE
  5
261
330
1F
100
AcDbEntity
  8
SK3
  6
SLD-Dashed
370
    18
100
AcDbSpline
210
0.0
220
0.0
230
1.0
 70
     8
 71
     3
 72
    36
 73
    32
 74
     0
 42
0.000000001
 43
0.00000001
 40
0.0
 40
0.0
 40
0.0
 40
0.0
 40
0.0312499999999998
 40
0.0312499999999998
 40
0.0624999999999995
 40
0.0624999999999995
 40
0.0937499999999993
 40
0.0937499999999993
 40
0.1249999999999991
 40
0.1249999999999991
 40
0.1874999999999988
 40
0.1874999999999988
 40
0.2187499999999988
 40
0.2187499999999988
 40
0.2499999999999988
 40
0.2499999999999988
 40
0.2812499999999988
 40
0.2812499999999988
 40
0.3124999999999988
 40
0.3124999999999988
 40
0.3437499999999988
 40
0.3437499999999988
 40
0.3749999999999988
 40
0.3749999999999988
 40
0.4062499999999988
 40
0.4062499999999988
 40
0.4374999999999988
 40
0.4374999999999988
 40
0.4687499999999988
 40
0.4687499999999988
 40
0.4999999999999988
 40
0.4999999999999988
 40
0.4999999999999988
 40
0.4999999999999988
 10
9.00000000000002
 20
-19.00935229227053
 30
0.0
 10
8.893368873866894
 20
-19.07951342536063
 30
0.0
 10
8.779078496880533
 20
-19.13876343643522
 30
0.0
 10
8.535888225312885
 20
-19.22910219513934
 30
0.0
 10
8.413981832791324
 20
-19.25794010302165
 30
0.0
 10
8.179271157767829
 20
-19.29928852710621
 30
0.0
 10
8.070803189778514
 20
-19.31172242241065
 30
0.0
 10
7.870144624719106
 20
-19.33654780644657
 30
0.0
 10
7.780090866186306
 20
-19.34853604168466
 30
0.0
 10
7.544512767225508
 20
-19.39531101870031
 30
0.0
 10
7.434195142488761
 20
-19.44192055633951
 30
0.0
 10
7.357340922935052
 20
-19.54785336765128
 30
0.0
 10
7.34665911061716
 20
-19.5880559358204
 30
0.0
 10
7.355124597260996
 20
-19.67872704820323
 30
0.0
 10
7.374722264446521
 20
-19.72901567754586
 30
0.0
 10
7.442070988465916
 20
-19.83365591862578
 30
0.0
 10
7.490734580698684
 20
-19.8893808549879
 30
0.0
 10
7.612774729317514
 20
-19.99928377880172
 30
0.0
 10
7.685839339782357
 20
-20.05367502517111
 30
0.0
 10
7.857040323147619
 20
-20.15628465959961
 30
0.0
 10
7.952261026648009
 20
-20.20282117663172
 30
0.0
 10
8.161504958136963
 20
-20.27630660982453
 30
0.0
 10
8.277588162150174
 20
-20.30338148582379
 30
0.0
 10
8.516407933335596
 20
-20.31580644474792
 30
0.0
 10
8.64167951782523
 20
-20.29974308132085
 30
0.0
 10
8.87595150365181
 20
-20.21819193323015
 30
0.0
 10
8.98735301930376
 20
-20.15278169598954
 30
0.0
 10
9.187585804504144
 20
-19.99813205379243
 30
0.0
 10
9.279840777075014
 20
-19.90750849637211
 30
0.0
 10
9.450435476899127
 20
-19.7171487423459
 30
0.0
 10
9.529443407192169
 20
-19.61683154630565
 30
0.0
 10
9.60489337774205
 20
-19.51347850842543
 30
0.0
  0
SPLINE
  5
262
330
1F
100
AcDbEntity
  8
SK3
  6
SLD-Dashed
370
    18
100
AcDbSpline
210
0.0
220
0.0
230
1.0
 70
     8
 71
     3
 72
    17
 73
    13
 74
     0
 42
0.000000001
 43
0.00000001
 40
0.0
 40
0.0
 40
0.0
 40
0.0
 40
0.1125962084631599
 40
0.2251681550871083
 40
0.3017048564870124
 40
0.3788515390169531
 40
0.4652354027211708
 40
0.6359757469078706
 40
0.7629622816103545
 40
0.8937151135414539
 40
0.9740070234963212
 40
1.0
 40
1.0
 40
1.0
 40
1.0
 10
10.55308824864455
 20
-22.07819564013879
 30
0.0
 10
10.47281539603497
 20
-22.11283399186944
 30
0.0
 10
10.31228698773076
 20
-22.18210323157921
 30
0.0
 10
9.922893180811077
 20
-22.21626159933793
 30
0.0
 10
9.515964065579766
 20
-22.28064402087962
 30
0.0
 10
9.131323407064961
 20
-22.42295330449021
 30
0.0
 10
8.683838375752636
 20
-22.74221651174738
 30
0.0
 10
8.29802190552785
 20
-23.17031221967511
 30
0.0
 10
7.925603906948825
 20
-23.61789054118149
 30
0.0
 10
7.673092509371745
 20
-23.91078278679013
 30
0.0
 10
7.511383730702176
 20
-24.08256742753227
 30
0.0
 10
7.466326591182154
 20
-24.10308797505352
 30
0.0
 10
7.455307440596484
 20
-24.10810646947295
 30
0.0
  0
INSERT
  5
263
330
1F
100
AcDbEntity
  8
81
100
AcDbBlockReference
  2
Block11
 10
8.3735173495
 20
-130.2676275275
 30
0.0
  0
INSERT
  5
264
330
1F
100
AcDbEntity
  8
80
100
AcDbBlockReference
  2
Block12
 10
-61.7273641656
 20
-130.3356800267
 30
0.0
  0
DIMENSION
  5
265
330
1F
100
AcDbEntity
  8
SK2
100
AcDbDimension
  2
_D
 10
27.0
 20
40.8972352525
 30
0.0
 11
14.8005262429
 21
40.8972352525
 31
0.0
 70
   160
  1
<>
 71
     2
 42
-1.0
  3
SLDDIMSTYLE0
100
AcDbAlignedDimension
 13
0.0
 23
22.225
 33
0.0
 14
27.0
 24
30.75
 34
0.0
100
AcDbRotatedDimension
  0
DIMENSION
  5
271
330
1F
100
AcDbEntity
  8
SK2
100
AcDbDimension
  2
_D_1
 10
100.0
 20
40.8972352525
 30
0.0
 11
61.1053374048
 21
40.8972352525
 31
0.0
 70
   160
  1
<>
 71
     2
 42
-1.0
  3
SLDDIMSTYLE0
100
AcDbAlignedDimension
 13
27.0
 23
30.75
 33
0.0
 14
100.0
 24
9.9944465005
 34
0.0
 50
0.0
100
AcDbRotatedDimension
  0
DIMENSION
  5
27B
330
1F
100
AcDbEntity
  8
SK2
100
AcDbDimension
  2
_D_2
 10
87.0
 20
27.8703062811
 30
0.0
 11
92.6068201902
 21
27.8703062811
 31
0.0
 70
   160
  1
<>
 71
     2
 42
-1.0
  3
SLDDIMSTYLE0
100
AcDbAlignedDimension
 13
100.0
 23
9.9944465005
 33
0.0
 14
87.0
 24
17.5
 34
0.0
100
AcDbRotatedDimension
  0
DIMENSION
  5
285
330
1F
100
AcDbEntity
  8
2
100
AcDbDimension
  2
_D_3
 10
100.0
 20
50.2529387865
 30
0.0
 11
47.7686932682
 21
50.2529387865
 31
0.0
 70
   160
  1
<>
 71
     2
 42
-1.0
  3
SLDDIMSTYLE0
100
AcDbAlignedDimension
 13
0.0
 23
22.225
 33
0.0
 14
100.0
 24
9.9944465005
 34
0.0
 50
0.0
100
AcDbRotatedDimension
  0
DIMENSION
  5
28F
330
1F
100
AcDbEntity
  8
SK2
100
AcDbDimension
  2
_D_4
 10
137.6897472633
 20
-17.5
 30
0.0
 11
137.6897472633
 21
-0.6538694085
 31
0.0
 70
   160
  1
%%c<>
 71
     2
 42
-1.0
  3
SLDDIMSTYLE0
100
AcDbAlignedDimension
 13
87.0
 23
17.5
 33
0.0
 14
87.0
 24
-17.5
 34
0.0
 50
90.0
100
AcDbRotatedDimension
  0
DIMENSION
  5
29A
330
1F
100
AcDbEntity
  8
SK2
100
AcDbDimension
  2
_D_5
 10
126.4606095203
 20
-9.9944465005
 30
0.0
 11
126.4606095203
 21
-0.6538694085
 31
0.0
 70
   160
  1
%%c<>
 71
     2
 42
-1.0
  3
SLDDIMSTYLE0
100
AcDbAlignedDimension
 13
100.0
 23
9.9944465005
 33
0.0
 14
100.0
 24
-9.9944465005
 34
0.0
 50
90.0
100
AcDbRotatedDimension
  0
DIMENSION
  5
2A5
330
1F
100
AcDbEntity
  8
SK2
100
AcDbDimension
  2
_D_6
 10
116.8249316819
 20
5.0
 30
0.0
 11
116.8249316819
 21
-0.6538694085
 31
0.0
 70
   160
  1
%%c<>
 71
     2
 42
-1.0
  3
SLDDIMSTYLE1
100
AcDbAlignedDimension
 13
99.0
 23
-5.0
 33
0.0
 14
99.0
 24
5.0
 34
0.0
 50
90.0
100
AcDbRotatedDimension
  0
DIMENSION
  5
2B3
330
1F
100
AcDbEntity
  8
SK2
100
AcDbDimension
  2
_D_7
 10
80.0
 20
-28.710827445
 30
0.0
 11
89.8712433064
 21
-28.710827445
 31
0.0
 70
   160
  1
<>
 71
     2
 42
-1.0
  3
SLDDIMSTYLE0
100
AcDbAlignedDimension
 13
100.0
 23
-9.9944465005
 33
0.0
 14
80.0
 24
-18.0
 34
0.0
 50
0.0
100
AcDbRotatedDimension
  0
DIMENSION
  5
2BD
330
1F
100
AcDbEntity
  8
SK2
100
AcDbDimension
  2
_D_8
 10
61.801691195
 20
-39.2599098931
 30
0.0
 11
81.3987518914
 21
-39.2599098931
 31
0.0
 70
   160
  1
<>
 71
     2
 42
-1.0
  3
SLDDIMSTYLE0
100
AcDbAlignedDimension
 13
100.0
 23
-9.9944465005
 33
0.0
 14
61.801691195
 24
-5.0
 34
0.0
100
AcDbRotatedDimension
  0
DIMENSION
  5
2C7
330
1F
100
AcDbEntity
  8
SK2
100
AcDbDimension
  2
_D_9
 10
-94.2323061328
 20
-31.5
 30
0.0
 11
-94.2323061328
 21
-0.3562452037
 31
0.0
 70
   160
  1
%%c<>
 71
     2
 42
-1.0
  3
SLDDIMSTYLE0
100
AcDbAlignedDimension
 13
2.75
 23
31.5
 33
0.0
 14
2.75
 24
-31.5
 34
0.0
 50
90.0
100
AcDbRotatedDimension
  0
DIMENSION
  5
2D2
330
1F
100
AcDbEntity
  8
SK2
100
AcDbDimension
  2
_D_10
 10
-82.7025151761
 20
-22.225
 30
0.0
 11
-82.7025151761
 21
-0.3562452037
 31
0.0
 70
   160
  1
%%c<>
 71
     2
 42
-1.0
  3
SLDDIMSTYLE0
100
AcDbAlignedDimension
 13
0.2
 23
22.225
 33
0.0
 14
0.2
 24
-22.225
 34
0.0
 50
90.0
100
AcDbRotatedDimension
  0
DIMENSION
  5
2DD
330
1F
100
AcDbEntity
  8
SK2
100
AcDbDimension
  2
_D_11
 10
-72.9663752517
 20
8.00000038
 30
0.0
 11
-72.9663752517
 21
0.2678621466
 31
0.0
 70
   160
  1
M<>
 71
     2
 42
-1.0
  3
SLDDIMSTYLE0
100
AcDbAlignedDimension
 13
-55.6881204247
 23
-8.00000038
 33
0.0
 14
-55.6881204247
 24
8.00000038
 34
0.0
 50
90.0
100
AcDbRotatedDimension
  0
MTEXT
  5
2E8
330
1F
100
AcDbEntity
  8
SK6
 62
     5
100
AcDbMText
 10
-33.0446948953
 20
28.6982060957
 30
0.0
 40
3.5
 41
0.0
 71
     1
 72
     1
  1
MAS-403 BT40
  7
SLDTEXTSTYLE0
 73
     1
 44
1.0
  0
MTEXT
  5
2E9
330
1F
100
AcDbEntity
  8
SK6
 62
     5
100
AcDbMText
 10
-64.00694261
 20
-35.7738672263
 30
0.0
 40
3.5
 41
0.0
 71
     1
 72
     1
  1
A2B20-40 10 100
  7
SLDTEXTSTYLE0
 73
     1
 44
1.0
  0
ENDSEC
  0
SECTION
  2
OBJECTS
  0
DICTIONARY
  5
C
330
0
100
AcDbDictionary
281
     1
  3
ACAD_GROUP
350
D
  3
ACAD_LAYOUT
350
1A
  3
ACAD_MLINESTYLE
350
17
  3
ACAD_PLOTSETTINGS
350
19
  3
ACAD_PLOTSTYLENAME
350
E
  3
ACAD_SCALELIST
350
47
  0
DICTIONARY
  5
D
102
{ACAD_REACTORS
330
C
102
}
330
C
100
AcDbDictionary
281
     1
  0
DICTIONARY
  5
1A
102
{ACAD_REACTORS
330
C
102
}
330
C
100
AcDbDictionary
281
     1
  3
Layout1
350
1E
  3
Layout2
350
26
  3
Model
350
22
  0
DICTIONARY
  5
17
102
{ACAD_REACTORS
330
C
102
}
330
C
100
AcDbDictionary
281
     1
  3
Standard
350
18
  0
DICTIONARY
  5
19
102
{ACAD_REACTORS
330
C
102
}
330
C
100
AcDbDictionary
281
     1
  0
ACDBDICTIONARYWDFLT
  5
E
102
{ACAD_REACTORS
330
C
102
}
330
C
100
AcDbDictionary
281
     1
  3
Normal
350
F
100
AcDbDictionaryWithDefault
340
F
  0
DICTIONARY
  5
47
102
{ACAD_REACTORS
330
C
102
}
330
C
100
AcDbDictionary
281
     1
  3
A0
350
48
  3
A1
350
49
  3
A2
350
4A
  3
A3
350
4B
  3
A4
350
4C
  3
A5
350
4D
  3
A6
350
4E
  3
A7
350
4F
  3
A8
350
50
  3
A9
350
51
  3
B0
350
52
  3
B1
350
53
  3
B2
350
54
  3
B3
350
55
  3
B4
350
56
  3
B5
350
57
  3
B6
350
58
  3
B7
350
59
  3
B8
350
5A
  3
B9
350
5B
  3
C0
350
5C
  3
C1
350
5D
  3
C2
350
5E
  3
C3
350
5F
  3
C4
350
60
  3
C5
350
61
  3
C6
350
62
  3
C7
350
63
  3
C8
350
64
  3
C9
350
65
  3
D0
350
66
  3
D1
350
67
  3
D2
350
68
  0
LAYOUT
  5
1E
102
{ACAD_REACTORS
330
1A
102
}
330
1A
100
AcDbPlotSettings
  1

  2
none_device
  4

  6

 40
0.0
 41
0.0
 42
0.0
 43
0.0
 44
0.0
 45
0.0
 46
0.0
 47
0.0
 48
0.0
 49
0.0
140
0.0
141
0.0
142
1.0
143
1.0
 70
   688
 72
     1
 73
     0
 74
     5
  7

 75
    16
147
1.0
148
0.0
149
0.0
100
AcDbLayout
  1
Layout1
 70
     1
 71
     1
 10
0.0
 20
0.0
 11
420.0
 21
297.0
 12
0.0
 22
0.0
 32
0.0
 14
1.0000000000E+20
 24
1.0000000000E+20
 34
1.0000000000E+20
 15
-1.0000000000E+20
 25
-1.0000000000E+20
 35
-1.0000000000E+20
146
0.0
 13
0.0
 23
0.0
 33
0.0
 16
1.0
 26
0.0
 36
0.0
 17
0.0
 27
1.0
 37
0.0
 76
     0
330
1B
  0
LAYOUT
  5
26
102
{ACAD_REACTORS
330
1A
102
}
330
1A
100
AcDbPlotSettings
  1

  2
none_device
  4

  6

 40
0.0
 41
0.0
 42
0.0
 43
0.0
 44
0.0
 45
0.0
 46
0.0
 47
0.0
 48
0.0
 49
0.0
140
0.0
141
0.0
142
1.0
143
1.0
 70
   688
 72
     1
 73
     0
 74
     5
  7

 75
    16
147
1.0
148
0.0
149
0.0
100
AcDbLayout
  1
Layout2
 70
     1
 71
     2
 10
0.0
 20
0.0
 11
0.0
 21
0.0
 12
0.0
 22
0.0
 32
0.0
 14
0.0
 24
0.0
 34
0.0
 15
0.0
 25
0.0
 35
0.0
146
0.0
 13
0.0
 23
0.0
 33
0.0
 16
1.0
 26
0.0
 36
0.0
 17
0.0
 27
1.0
 37
0.0
 76
     0
330
23
  0
LAYOUT
  5
22
102
{ACAD_REACTORS
330
1A
102
}
330
1A
100
AcDbPlotSettings
  1

  2
none_device
  4
Letter_(8.50_x_11.00_Inches)
  6

 40
6.35
 41
6.35
 42
6.35000508
 43
6.35000508
 44
215.9
 45
279.4
 46
0.0
 47
0.0
 48
0.0
 49
0.0
140
0.0
141
0.0
142
1.0
143
1.0
 70
  1712
 72
     1
 73
     0
 74
     0
  7

 75
     0
147
1.0
148
0.0
149
0.0
100
AcDbLayout
  1
Model
 70
     1
 71
     0
 10
0.0
 20
0.0
 11
297.0
 21
210.0
 12
0.0
 22
0.0
 32
0.0
 14
0.0
 24
0.0
 34
0.0
 15
297.0
 25
210.0
 35
0.0
146
0.0
 13
0.0
 23
0.0
 33
0.0
 16
1.0
 26
0.0
 36
0.0
 17
0.0
 27
1.0
 37
0.0
 76
     0
330
1F
331
29
  0
MLINESTYLE
  5
18
102
{ACAD_REACTORS
330
17
102
}
330
17
100
AcDbMlineStyle
  2
Standard
 70
     0
  3

 62
   256
 51
90.0
 52
90.0
 71
     2
 49
0.5
 62
   256
  6
BYLAYER
 49
-0.5
 62
   256
  6
BYLAYER
  0
ACDBPLACEHOLDER
  5
F
102
{ACAD_REACTORS
330
E
102
}
330
E
  0
SCALE
  5
48
102
{ACAD_REACTORS
330
47
102
}
330
47
100
AcDbScale
 70
     0
300
1:1
140
1.0
141
1.0
290
     1
  0
SCALE
  5
49
102
{ACAD_REACTORS
330
47
102
}
330
47
100
AcDbScale
 70
     0
300
1:2
140
1.0
141
2.0
290
     0
  0
SCALE
  5
4A
102
{ACAD_REACTORS
330
47
102
}
330
47
100
AcDbScale
 70
     0
300
1:4
140
1.0
141
4.0
290
     0
  0
SCALE
  5
4B
102
{ACAD_REACTORS
330
47
102
}
330
47
100
AcDbScale
 70
     0
300
1:5
140
1.0
141
5.0
290
     0
  0
SCALE
  5
4C
102
{ACAD_REACTORS
330
47
102
}
330
47
100
AcDbScale
 70
     0
300
1:8
140
1.0
141
8.0
290
     0
  0
SCALE
  5
4D
102
{ACAD_REACTORS
330
47
102
}
330
47
100
AcDbScale
 70
     0
300
1:10
140
1.0
141
10.0
290
     0
  0
SCALE
  5
4E
102
{ACAD_REACTORS
330
47
102
}
330
47
100
AcDbScale
 70
     0
300
1:16
140
1.0
141
16.0
290
     0
  0
SCALE
  5
4F
102
{ACAD_REACTORS
330
47
102
}
330
47
100
AcDbScale
 70
     0
300
1:20
140
1.0
141
20.0
290
     0
  0
SCALE
  5
50
102
{ACAD_REACTORS
330
47
102
}
330
47
100
AcDbScale
 70
     0
300
1:30
140
1.0
141
30.0
290
     0
  0
SCALE
  5
51
102
{ACAD_REACTORS
330
47
102
}
330
47
100
AcDbScale
 70
     0
300
1:40
140
1.0
141
40.0
290
     0
  0
SCALE
  5
52
102
{ACAD_REACTORS
330
47
102
}
330
47
100
AcDbScale
 70
     0
300
1:50
140
1.0
141
50.0
290
     0
  0
SCALE
  5
53
102
{ACAD_REACTORS
330
47
102
}
330
47
100
AcDbScale
 70
     0
300
1:100
140
1.0
141
100.0
290
     0
  0
SCALE
  5
54
102
{ACAD_REACTORS
330
47
102
}
330
47
100
AcDbScale
 70
     0
300
2:1
140
2.0
141
1.0
290
     0
  0
SCALE
  5
55
102
{ACAD_REACTORS
330
47
102
}
330
47
100
AcDbScale
 70
     0
300
4:1
140
4.0
141
1.0
290
     0
  0
SCALE
  5
56
102
{ACAD_REACTORS
330
47
102
}
330
47
100
AcDbScale
 70
     0
300
8:1
140
8.0
141
1.0
290
     0
  0
SCALE
  5
57
102
{ACAD_REACTORS
330
47
102
}
330
47
100
AcDbScale
 70
     0
300
10:1
140
10.0
141
1.0
290
     0
  0
SCALE
  5
58
102
{ACAD_REACTORS
330
47
102
}
330
47
100
AcDbScale
 70
     0
300
100:1
140
100.0
141
1.0
290
     0
  0
SCALE
  5
59
102
{ACAD_REACTORS
330
47
102
}
330
47
100
AcDbScale
 70
     0
300
1/128" = 1'-0"
140
0.0078125
141
12.0
290
     0
  0
SCALE
  5
5A
102
{ACAD_REACTORS
330
47
102
}
330
47
100
AcDbScale
 70
     0
300
1/64" = 1'-0"
140
0.015625
141
12.0
290
     0
  0
SCALE
  5
5B
102
{ACAD_REACTORS
330
47
102
}
330
47
100
AcDbScale
 70
     0
300
1/32" = 1'-0"
140
0.03125
141
12.0
290
     0
  0
SCALE
  5
5C
102
{ACAD_REACTORS
330
47
102
}
330
47
100
AcDbScale
 70
     0
300
1/16" = 1'-0"
140
0.0625
141
12.0
290
     0
  0
SCALE
  5
5D
102
{ACAD_REACTORS
330
47
102
}
330
47
100
AcDbScale
 70
     0
300
3/32" = 1'-0"
140
0.09375
141
12.0
290
     0
  0
SCALE
  5
5E
102
{ACAD_REACTORS
330
47
102
}
330
47
100
AcDbScale
 70
     0
300
1/8" = 1'-0"
140
0.125
141
12.0
290
     0
  0
SCALE
  5
5F
102
{ACAD_REACTORS
330
47
102
}
330
47
100
AcDbScale
 70
     0
300
3/16" = 1'-0"
140
0.1875
141
12.0
290
     0
  0
SCALE
  5
60
102
{ACAD_REACTORS
330
47
102
}
330
47
100
AcDbScale
 70
     0
300
1/4" = 1'-0"
140
0.25
141
12.0
290
     0
  0
SCALE
  5
61
102
{ACAD_REACTORS
330
47
102
}
330
47
100
AcDbScale
 70
     0
300
3/8" = 1'-0"
140
0.375
141
12.0
290
     0
  0
SCALE
  5
62
102
{ACAD_REACTORS
330
47
102
}
330
47
100
AcDbScale
 70
     0
300
1/2" = 1'-0"
140
0.5
141
12.0
290
     0
  0
SCALE
  5
63
102
{ACAD_REACTORS
330
47
102
}
330
47
100
AcDbScale
 70
     0
300
3/4" = 1'-0"
140
0.75
141
12.0
290
     0
  0
SCALE
  5
64
102
{ACAD_REACTORS
330
47
102
}
330
47
100
AcDbScale
 70
     0
300
1" = 1'-0"
140
1.0
141
12.0
290
     0
  0
SCALE
  5
65
102
{ACAD_REACTORS
330
47
102
}
330
47
100
AcDbScale
 70
     0
300
1-1/2" = 1'-0"
140
1.5
141
12.0
290
     0
  0
SCALE
  5
66
102
{ACAD_REACTORS
330
47
102
}
330
47
100
AcDbScale
 70
     0
300
3" = 1'-0"
140
3.0
141
12.0
290
     0
  0
SCALE
  5
67
102
{ACAD_REACTORS
330
47
102
}
330
47
100
AcDbScale
 70
     0
300
6" = 1'-0"
140
6.0
141
12.0
290
     0
  0
SCALE
  5
68
102
{ACAD_REACTORS
330
47
102
}
330
47
100
AcDbScale
 70
     0
300
1'-0" = 1'-0"
140
12.0
141
12.0
290
     0
  0
ENDSEC
  0
EOF
