  0
SECTION
  2
HEADER
  9
$ACADVER
  1
AC1015
  9
$ACADMAINTVER
 70
     6
  9
$DWGCODEPAGE
  3
ANSI_1250
  9
$INSBASE
 10
0.0
 20
0.0
 30
0.0
  9
$EXTMIN
 10
0.0
 20
0.0
 30
0.0
  9
$EXTMAX
 10
297.0
 20
210.0
 30
0.0
  9
$LIMMIN
 10
0.0
 20
0.0
  9
$LIMMAX
 10
297.0
 20
210.0
  9
$ORTHOMODE
 70
     0
  9
$REGENMODE
 70
     1
  9
$FILLMODE
 70
     1
  9
$QTEXTMODE
 70
     0
  9
$MIRRTEXT
 70
     1
  9
$LTSCALE
 40
1.0
  9
$ATTMODE
 70
     1
  9
$TEXTSIZE
 40
3.5
  9
$TRACEWID
 40
1.0
  9
$TEXTSTYLE
  7
Standard
  9
$CLAYER
  8
0
  9
$CELTYPE
  6
ByLayer
  9
$CECOLOR
 62
   256
  9
$CELTSCALE
 40
1.0
  9
$DISPSILH
 70
     0
  9
$DIMSCALE
 40
1.0
  9
$DIMASZ
 40
3.302
  9
$DIMEXO
 40
1.0
  9
$DIMDLI
 40
3.75
  9
$DIMRND
 40
0.0
  9
$DIMDLE
 40
0.0
  9
$DIMEXE
 40
1.0
  9
$DIMTP
 40
0.0
  9
$DIMTM
 40
0.0
  9
$DIMTXT
 40
3.5
  9
$DIMCEN
 40
2.5
  9
$DIMTSZ
 40
0.0
  9
$DIMTOL
 70
     0
  9
$DIMLIM
 70
     0
  9
$DIMTIH
 70
     1
  9
$DIMTOH
 70
     1
  9
$DIMSE1
 70
     0
  9
$DIMSE2
 70
     0
  9
$DIMTAD
 70
     1
  9
$DIMZIN
 70
     0
  9
$DIMBLK
  1

  9
$DIMASO
 70
     1
  9
$DIMSHO
 70
     1
  9
$DIMPOST
  1

  9
$DIMAPOST
  1

  9
$DIMALT
 70
     0
  9
$DIMALTD
 70
     3
  9
$DIMALTF
 40
0.0393700787
  9
$DIMLFAC
 40
1.0
  9
$DIMTOFL
 70
     1
  9
$DIMTVP
 40
0.0
  9
$DIMTIX
 70
     0
  9
$DIMSOXD
 70
     0
  9
$DIMSAH
 70
     0
  9
$DIMBLK1
  1

  9
$DIMBLK2
  1

  9
$DIMSTYLE
  2
ISO-25
  9
$DIMCLRD
 70
     0
  9
$DIMCLRE
 70
     0
  9
$DIMCLRT
 70
     0
  9
$DIMTFAC
 40
1.0
  9
$DIMGAP
 40
1.524
  9
$DIMJUST
 70
     0
  9
$DIMSD1
 70
     0
  9
$DIMSD2
 70
     0
  9
$DIMTOLJ
 70
     0
  9
$DIMTZIN
 70
     0
  9
$DIMALTZ
 70
     0
  9
$DIMALTTZ
 70
     0
  9
$DIMUPT
 70
     0
  9
$DIMDEC
 70
     2
  9
$DIMTDEC
 70
     2
  9
$DIMALTU
 70
     2
  9
$DIMALTTD
 70
     3
  9
$DIMTXSTY
  7
Standard
  9
$DIMAUNIT
 70
     0
  9
$DIMADEC
 70
     2
  9
$DIMALTRND
 40
0.0
  9
$DIMAZIN
 70
     0
  9
$DIMDSEP
 70
    44
  9
$DIMATFIT
 70
     3
  9
$DIMFRAC
 70
     0
  9
$DIMLDRBLK
  1

  9
$DIMLUNIT
 70
     2
  9
$DIMLWD
 70
    -2
  9
$DIMLWE
 70
    -2
  9
$DIMTMOVE
 70
     0
  9
$LUNITS
 70
     2
  9
$LUPREC
 70
     2
  9
$SKETCHINC
 40
1.0
  9
$FILLETRAD
 40
10.0
  9
$AUNITS
 70
     0
  9
$AUPREC
 70
     2
  9
$MENU
  1
.
  9
$ELEVATION
 40
0.0
  9
$PELEVATION
 40
0.0
  9
$THICKNESS
 40
0.0
  9
$LIMCHECK
 70
     0
  9
$CHAMFERA
 40
0.0
  9
$CHAMFERB
 40
0.0
  9
$CHAMFERC
 40
0.0
  9
$CHAMFERD
 40
0.0
  9
$SKPOLY
 70
     0
  9
$TDCREATE
 40
2459290.468930556
  9
$TDUCREATE
 40
2459290.427263889
  9
$TDUPDATE
 40
2459290.468931539
  9
$TDUUPDATE
 40
2459290.427264872
  9
$TDINDWG
 40
0.0000000116
  9
$TDUSRTIMER
 40
0.0000000116
  9
$USRTIMER
 70
     1
  9
$ANGBASE
 50
0.0
  9
$ANGDIR
 70
     0
  9
$PDMODE
 70
     0
  9
$PDSIZE
 40
-1.0
  9
$PLINEWID
 40
0.0
  9
$SPLFRAME
 70
     0
  9
$SPLINETYPE
 70
     6
  9
$SPLINESEGS
 70
     8
  9
$HANDSEED
  5
1B6
  9
$SURFTAB1
 70
     6
  9
$SURFTAB2
 70
     6
  9
$SURFTYPE
 70
     6
  9
$SURFU
 70
     6
  9
$SURFV
 70
     6
  9
$UCSBASE
  2

  9
$UCSNAME
  2

  9
$UCSORG
 10
0.0
 20
0.0
 30
0.0
  9
$UCSXDIR
 10
1.0
 20
0.0
 30
0.0
  9
$UCSYDIR
 10
0.0
 20
1.0
 30
0.0
  9
$UCSORTHOREF
  2

  9
$UCSORTHOVIEW
 70
     0
  9
$UCSORGTOP
 10
0.0
 20
0.0
 30
0.0
  9
$UCSORGBOTTOM
 10
0.0
 20
0.0
 30
0.0
  9
$UCSORGLEFT
 10
0.0
 20
0.0
 30
0.0
  9
$UCSORGRIGHT
 10
0.0
 20
0.0
 30
0.0
  9
$UCSORGFRONT
 10
0.0
 20
0.0
 30
0.0
  9
$UCSORGBACK
 10
0.0
 20
0.0
 30
0.0
  9
$PUCSBASE
  2

  9
$PUCSNAME
  2

  9
$PUCSORG
 10
0.0
 20
0.0
 30
0.0
  9
$PUCSXDIR
 10
1.0
 20
0.0
 30
0.0
  9
$PUCSYDIR
 10
0.0
 20
1.0
 30
0.0
  9
$PUCSORTHOREF
  2

  9
$PUCSORTHOVIEW
 70
     0
  9
$PUCSORGTOP
 10
0.0
 20
0.0
 30
0.0
  9
$PUCSORGBOTTOM
 10
0.0
 20
0.0
 30
0.0
  9
$PUCSORGLEFT
 10
0.0
 20
0.0
 30
0.0
  9
$PUCSORGRIGHT
 10
0.0
 20
0.0
 30
0.0
  9
$PUCSORGFRONT
 10
0.0
 20
0.0
 30
0.0
  9
$PUCSORGBACK
 10
0.0
 20
0.0
 30
0.0
  9
$USERI1
 70
     0
  9
$USERI2
 70
     0
  9
$USERI3
 70
     0
  9
$USERI4
 70
     0
  9
$USERI5
 70
     0
  9
$USERR1
 40
0.0
  9
$USERR2
 40
0.0
  9
$USERR3
 40
0.0
  9
$USERR4
 40
0.0
  9
$USERR5
 40
0.0
  9
$WORLDVIEW
 70
     1
  9
$SHADEDGE
 70
     3
  9
$SHADEDIF
 70
    70
  9
$TILEMODE
 70
     1
  9
$MAXACTVP
 70
    64
  9
$PINSBASE
 10
0.0
 20
0.0
 30
0.0
  9
$PLIMCHECK
 70
     0
  9
$PEXTMIN
 10
1.0000000000E+20
 20
1.0000000000E+20
 30
1.0000000000E+20
  9
$PEXTMAX
 10
-1.0000000000E+20
 20
-1.0000000000E+20
 30
-1.0000000000E+20
  9
$PLIMMIN
 10
0.0
 20
0.0
  9
$PLIMMAX
 10
420.0
 20
297.0
  9
$UNITMODE
 70
     0
  9
$VISRETAIN
 70
     1
  9
$PLINEGEN
 70
     0
  9
$PSLTSCALE
 70
     1
  9
$TREEDEPTH
 70
  3020
  9
$CMLSTYLE
  2
Standard
  9
$CMLJUST
 70
     0
  9
$CMLSCALE
 40
20.0
  9
$PROXYGRAPHICS
 70
     1
  9
$MEASUREMENT
 70
     1
  9
$CELWEIGHT
370
    -1
  9
$ENDCAPS
280
     0
  9
$JOINSTYLE
280
     0
  9
$LWDISPLAY
290
     1
  9
$INSUNITS
 70
     4
  9
$HYPERLINKBASE
  1

  9
$STYLESHEET
  1

  9
$XEDIT
290
     1
  9
$CEPSNTYPE
380
     0
  9
$PSTYLEMODE
290
     1
  9
$FINGERPRINTGUID
  2
{D71A1B8A-6FEE-4244-9BEC-C10F2206216E}
  9
$VERSIONGUID
  2
{FAEB1C32-E019-11D5-929B-00C0DF256EC4}
  9
$EXTNAMES
290
     1
  9
$PSVPSCALE
 40
0.0
  9
$OLESTARTUP
290
     0
  0
ENDSEC
  0
SECTION
  2
CLASSES
  0
CLASS
  1
ACDBDICTIONARYWDFLT
  2
AcDbDictionaryWithDefault
  3
ObjectDBX Classes
 90
        0
280
     0
281
     0
  0
CLASS
  1
VISUALSTYLE
  2
AcDbVisualStyle
  3
ObjectDBX Classes
 90
     4095
280
     0
281
     0
  0
CLASS
  1
MATERIAL
  2
AcDbMaterial
  3
ObjectDBX Classes
 90
     1153
280
     0
281
     0
  0
CLASS
  1
SCALE
  2
AcDbScale
  3
ObjectDBX Classes
 90
     1153
280
     0
281
     0
  0
CLASS
  1
TABLESTYLE
  2
AcDbTableStyle
  3
ObjectDBX Classes
 90
     4095
280
     0
281
     0
  0
CLASS
  1
MLEADERSTYLE
  2
AcDbMLeaderStyle
  3
ACDB_MLEADERSTYLE_CLASS
 90
     4095
280
     0
281
     0
  0
CLASS
  1
SUN
  2
AcDbSun
  3
SCENEOE
 90
     1153
280
     0
281
     0
  0
CLASS
  1
ACDBPLACEHOLDER
  2
AcDbPlaceHolder
  3
ObjectDBX Classes
 90
        0
280
     0
281
     0
  0
CLASS
  1
LAYOUT
  2
AcDbLayout
  3
ObjectDBX Classes
 90
        0
280
     0
281
     0
  0
ENDSEC
  0
SECTION
  2
TABLES
  0
TABLE
  2
VPORT
  5
8
330
0
100
AcDbSymbolTable
 70
     1
  0
VPORT
  5
29
330
8
100
AcDbSymbolTableRecord
100
AcDbViewportTableRecord
  2
*Active
 70
     0
 10
0.0
 20
0.0
 11
1.0
 21
1.0
 12
148.5
 22
105.0
 13
0.0
 23
0.0
 14
10.0
 24
10.0
 15
10.0
 25
10.0
 16
0.0
 26
0.0
 36
1.0
 17
0.0
 27
0.0
 37
0.0
 40
210.0
 41
1.4142857143
 42
50.0
 43
0.0
 44
0.0
 50
0.0
 51
0.0
 71
     0
 72
  2000
 73
     1
 74
     3
 75
     0
 76
     0
 77
     0
 78
     0
281
     0
 65
     1
110
0.0
120
0.0
130
0.0
111
1.0
121
0.0
131
0.0
112
0.0
122
1.0
132
0.0
 79
     0
146
0.0
  0
ENDTAB
  0
TABLE
  2
LTYPE
  5
5
330
0
100
AcDbSymbolTable
 70
     8
  0
LTYPE
  5
14
330
5
100
AcDbSymbolTableRecord
100
AcDbLinetypeTableRecord
  2
ByBlock
 70
     0
  3

 72
    65
 73
     0
 40
0.0
  0
LTYPE
  5
15
330
5
100
AcDbSymbolTableRecord
100
AcDbLinetypeTableRecord
  2
ByLayer
 70
     0
  3

 72
    65
 73
     0
 40
0.0
  0
LTYPE
  5
16
330
5
100
AcDbSymbolTableRecord
100
AcDbLinetypeTableRecord
  2
Continuous
 70
     0
  3
Solid line
 72
    65
 73
     0
 40
0.0
  0
LTYPE
  5
6E
330
5
100
AcDbSymbolTableRecord
100
AcDbLinetypeTableRecord
  2
SLD-Solid
 70
     0
  3
SolidWorks Line Style
 72
    65
 73
     0
 40
0.0
  0
LTYPE
  5
6F
330
5
100
AcDbSymbolTableRecord
100
AcDbLinetypeTableRecord
  2
SLD-Dashed
 70
     0
  3
SolidWorks Line Style
 72
    65
 73
     2
 40
1.905
 49
1.27
 74
     0
 49
-0.635
 74
     0
  0
LTYPE
  5
70
330
5
100
AcDbSymbolTableRecord
100
AcDbLinetypeTableRecord
  2
SLD-Phantom
 70
     0
  3
SolidWorks Line Style
 72
    65
 73
     6
 40
12.7
 49
6.35
 74
     0
 49
-1.27
 74
     0
 49
1.27
 74
     0
 49
-1.27
 74
     0
 49
1.27
 74
     0
 49
-1.27
 74
     0
  0
LTYPE
  5
71
330
5
100
AcDbSymbolTableRecord
100
AcDbLinetypeTableRecord
  2
SLD-Chain
 70
     0
  3
SolidWorks Line Style
 72
    65
 73
     4
 40
10.16
 49
6.35
 74
     0
 49
-1.27
 74
     0
 49
1.27
 74
     0
 49
-1.27
 74
     0
  0
LTYPE
  5
72
330
5
100
AcDbSymbolTableRecord
100
AcDbLinetypeTableRecord
  2
SLD-Center
 70
     0
  3
SolidWorks Line Style
 72
    65
 73
     4
 40
19.05
 49
15.24
 74
     0
 49
-1.27
 74
     0
 49
1.27
 74
     0
 49
-1.27
 74
     0
  0
LTYPE
  5
73
330
5
100
AcDbSymbolTableRecord
100
AcDbLinetypeTableRecord
  2
SLD-Stitch
 70
     0
  3
SolidWorks Line Style
 72
    65
 73
     2
 40
0.635
 49
0.0
 74
     0
 49
-0.635
 74
     0
  0
LTYPE
  5
74
330
5
100
AcDbSymbolTableRecord
100
AcDbLinetypeTableRecord
  2
SLD-Thin-Thick-Chain
 70
     0
  3
SolidWorks Line Style
 72
    65
 73
     4
 40
10.16
 49
6.35
 74
     0
 49
-1.27
 74
     0
 49
1.27
 74
     0
 49
-1.27
 74
     0
  0
ENDTAB
  0
TABLE
  2
LAYER
  5
2
330
0
100
AcDbSymbolTable
 70
    12
  0
LAYER
  5
10
330
2
100
AcDbSymbolTableRecord
100
AcDbLayerTableRecord
  2
0
 70
     0
 62
     7
  6
Continuous
370
    -3
390
F
  0
LAYER
  5
75
330
2
100
AcDbSymbolTableRecord
100
AcDbLayerTableRecord
  2
SLD-0
 70
     0
 62
   179
  6
SLD-Solid
370
    -3
390
F
  0
LAYER
  5
76
330
2
100
AcDbSymbolTableRecord
100
AcDbLayerTableRecord
  2
80
 70
     0
 62
    -6
  6
SLD-Solid
290
     0
370
    -3
390
F
  0
LAYER
  5
77
330
2
100
AcDbSymbolTableRecord
100
AcDbLayerTableRecord
  2
81
 70
     0
 62
    -3
  6
SLD-Solid
290
     0
370
    -3
390
F
  0
LAYER
  5
78
330
2
100
AcDbSymbolTableRecord
100
AcDbLayerTableRecord
  2
1
 70
     0
 62
     4
  6
SLD-Solid
290
     0
370
    -3
390
F
  0
LAYER
  5
79
330
2
100
AcDbSymbolTableRecord
100
AcDbLayerTableRecord
  2
4
 70
     0
 62
    -2
  6
SLD-Chain
290
     0
370
    -3
390
F
  0
LAYER
  5
7A
330
2
100
AcDbSymbolTableRecord
100
AcDbLayerTableRecord
  2
2
 70
     0
 62
     7
  6
SLD-Solid
290
     0
370
    -3
390
F
  0
LAYER
  5
7B
330
2
100
AcDbSymbolTableRecord
100
AcDbLayerTableRecord
  2
SK3
 70
     0
 62
     1
  6
SLD-Dashed
290
     0
370
    -3
390
F
  0
LAYER
  5
7C
330
2
100
AcDbSymbolTableRecord
100
AcDbLayerTableRecord
  2
SK4
 70
     0
 62
     2
  6
SLD-Chain
290
     0
370
    -3
390
F
  0
LAYER
  5
7D
330
2
100
AcDbSymbolTableRecord
100
AcDbLayerTableRecord
  2
SK2
 70
     0
 62
     7
  6
SLD-Solid
290
     0
370
    -3
390
F
  0
LAYER
  5
7E
330
2
100
AcDbSymbolTableRecord
100
AcDbLayerTableRecord
  2
SK6
 70
     0
 62
     5
  6
SLD-Solid
290
     0
370
    -3
390
F
  0
LAYER
  5
7F
330
2
100
AcDbSymbolTableRecord
100
AcDbLayerTableRecord
  2
SK1
 70
     0
 62
     4
  6
SLD-Solid
370
    -3
390
F
  0
ENDTAB
  0
TABLE
  2
STYLE
  5
3
330
0
100
AcDbSymbolTable
 70
     2
  0
STYLE
  5
11
330
3
100
AcDbSymbolTableRecord
100
AcDbTextStyleTableRecord
  2
Standard
 70
     0
 40
0.0
 41
1.0
 50
0.0
 71
     0
 42
3.5
  3
txt
  4

  0
STYLE
  5
126
330
3
100
AcDbSymbolTableRecord
100
AcDbTextStyleTableRecord
  2
SLDTEXTSTYLE0
 70
     0
 40
0.0
 41
0.75
 50
0.0
 71
     0
 42
3.5
  3
TXT
  4

  0
ENDTAB
  0
TABLE
  2
VIEW
  5
6
330
0
100
AcDbSymbolTable
 70
     0
  0
ENDTAB
  0
TABLE
  2
UCS
  5
7
330
0
100
AcDbSymbolTable
 70
     0
  0
ENDTAB
  0
TABLE
  2
APPID
  5
9
330
0
100
AcDbSymbolTable
 70
     1
  0
APPID
  5
12
330
9
100
AcDbSymbolTableRecord
100
AcDbRegAppTableRecord
  2
ACAD
 70
     0
  0
ENDTAB
  0
TABLE
  2
DIMSTYLE
  5
A
330
0
100
AcDbSymbolTable
 70
     4
100
AcDbDimStyleTable
  0
DIMSTYLE
105
27
330
A
100
AcDbSymbolTableRecord
100
AcDbDimStyleTableRecord
  2
ISO-25
 70
     0
 41
2.5
 42
0.625
 43
3.75
 44
1.25
 73
     0
 74
     0
 77
     1
 78
     8
140
2.5
141
2.5
143
0.0393700787
147
0.625
171
     3
172
     1
178
     0
271
     2
272
     2
274
     3
278
    44
283
     0
284
     8
340
11
  0
DIMSTYLE
105
127
102
{ACAD_REACTORS
330
125
330
131
330
13B
330
145
330
14F
330
159
330
170
330
194
330
19F
330
1AA
102
}
330
A
100
AcDbSymbolTableRecord
100
AcDbDimStyleTableRecord
  2
SLDDIMSTYLE0
 70
     0
 41
3.302
 44
0.0
 45
0.000000001
 73
     0
 74
     0
 77
     1
 78
    12
 79
     3
140
3.5
147
0.875
173
     1
178
     0
271
     2
272
     2
276
     2
284
    12
340
126
  0
DIMSTYLE
105
165
102
{ACAD_REACTORS
330
164
102
}
330
A
100
AcDbSymbolTableRecord
100
AcDbDimStyleTableRecord
  2
SLDDIMSTYLE1
 70
     0
 41
3.302
 44
0.0
 45
0.000000001
 73
     0
 74
     0
 77
     1
 78
    12
 79
     3
140
3.5
147
0.875
173
     1
178
     0
271
     0
272
     2
276
     2
284
    12
340
126
  0
DIMSTYLE
105
17C
102
{ACAD_REACTORS
330
17B
330
188
102
}
330
A
100
AcDbSymbolTableRecord
100
AcDbDimStyleTableRecord
  2
SLDDIMSTYLE2
 70
     0
 41
3.302
 44
0.0
 45
0.000000001
 73
     0
 74
     0
 77
     1
 78
    12
 79
     3
140
3.5
147
0.875
172
     1
173
     1
178
     0
271
     2
272
     2
276
     2
284
    12
289
     0
340
126
  0
ENDTAB
  0
TABLE
  2
BLOCK_RECORD
  5
1
330
0
100
AcDbSymbolTable
 70
    16
  0
BLOCK_RECORD
  5
1F
330
1
100
AcDbSymbolTableRecord
100
AcDbBlockTableRecord
  2
*Model_Space
340
22
  0
BLOCK_RECORD
  5
1B
330
1
100
AcDbSymbolTableRecord
100
AcDbBlockTableRecord
  2
*Paper_Space
340
1E
  0
BLOCK_RECORD
  5
23
330
1
100
AcDbSymbolTableRecord
100
AcDbBlockTableRecord
  2
*Paper_Space0
340
26
  0
BLOCK_RECORD
  5
80
330
1
100
AcDbSymbolTableRecord
100
AcDbBlockTableRecord
  2
Block11
340
0
102
{BLKREFS
331
123
102
}
  0
BLOCK_RECORD
  5
89
330
1
100
AcDbSymbolTableRecord
100
AcDbBlockTableRecord
  2
Block12
340
0
102
{BLKREFS
331
124
102
}
  0
BLOCK_RECORD
  5
128
330
1
100
AcDbSymbolTableRecord
100
AcDbBlockTableRecord
  2
_D
340
0
  0
BLOCK_RECORD
  5
132
330
1
100
AcDbSymbolTableRecord
100
AcDbBlockTableRecord
  2
_D_1
340
0
  0
BLOCK_RECORD
  5
13C
330
1
100
AcDbSymbolTableRecord
100
AcDbBlockTableRecord
  2
_D_2
340
0
  0
BLOCK_RECORD
  5
146
330
1
100
AcDbSymbolTableRecord
100
AcDbBlockTableRecord
  2
_D_3
340
0
  0
BLOCK_RECORD
  5
150
330
1
100
AcDbSymbolTableRecord
100
AcDbBlockTableRecord
  2
_D_4
340
0
  0
BLOCK_RECORD
  5
15A
330
1
100
AcDbSymbolTableRecord
100
AcDbBlockTableRecord
  2
_D_5
340
0
  0
BLOCK_RECORD
  5
166
330
1
100
AcDbSymbolTableRecord
100
AcDbBlockTableRecord
  2
_D_6
340
0
  0
BLOCK_RECORD
  5
171
330
1
100
AcDbSymbolTableRecord
100
AcDbBlockTableRecord
  2
_D_7
340
0
  0
BLOCK_RECORD
  5
17D
330
1
100
AcDbSymbolTableRecord
100
AcDbBlockTableRecord
  2
_D_8
340
0
  0
BLOCK_RECORD
  5
189
330
1
100
AcDbSymbolTableRecord
100
AcDbBlockTableRecord
  2
_D_9
340
0
  0
BLOCK_RECORD
  5
195
330
1
100
AcDbSymbolTableRecord
100
AcDbBlockTableRecord
  2
_D_10
340
0
  0
BLOCK_RECORD
  5
1A0
330
1
100
AcDbSymbolTableRecord
100
AcDbBlockTableRecord
  2
_D_11
340
0
  0
BLOCK_RECORD
  5
1AB
330
1
100
AcDbSymbolTableRecord
100
AcDbBlockTableRecord
  2
_D_12
340
0
  0
ENDTAB
  0
ENDSEC
  0
SECTION
  2
BLOCKS
  0
BLOCK
  5
20
330
1F
100
AcDbEntity
  8
0
100
AcDbBlockBegin
  2
*Model_Space
 70
     0
 10
0.0
 20
0.0
 30
0.0
  3
*Model_Space
  1

  0
ENDBLK
  5
21
330
1F
100
AcDbEntity
  8
0
100
AcDbBlockEnd
  0
BLOCK
  5
1C
330
1B
100
AcDbEntity
 67
     1
  8
0
100
AcDbBlockBegin
  2
*Paper_Space
 70
     0
 10
0.0
 20
0.0
 30
0.0
  3
*Paper_Space
  1

  0
ENDBLK
  5
1D
330
1B
100
AcDbEntity
 67
     1
  8
0
100
AcDbBlockEnd
  0
BLOCK
  5
24
330
23
100
AcDbEntity
  8
0
100
AcDbBlockBegin
  2
*Paper_Space0
 70
     0
 10
0.0
 20
0.0
 30
0.0
  3
*Paper_Space0
  1

  0
ENDBLK
  5
25
330
23
100
AcDbEntity
  8
0
100
AcDbBlockEnd
  0
BLOCK
  5
81
330
80
100
AcDbEntity
  8
0
100
AcDbBlockBegin
  2
Block11
 70
     0
 10
0.0
 20
0.0
 30
0.0
  3
Block11
  1

  0
CIRCLE
  5
83
330
80
100
AcDbEntity
  8
81
370
    18
100
AcDbCircle
 10
91.6264826505
 20
130.2676275275
 30
0.0
 40
2.499999999999981
  0
LINE
  5
84
330
80
100
AcDbEntity
  8
81
370
    18
100
AcDbLine
 10
91.6264826505
 20
130.2676275275
 30
0.0
 11
95.1620165565
 21
133.8031614334
 31
0.0
  0
LINE
  5
85
330
80
100
AcDbEntity
  8
81
370
    18
100
AcDbLine
 10
91.6264826505
 20
130.2676275275
 30
0.0
 11
88.0909487446
 21
126.7320936216
 31
0.0
  0
LINE
  5
86
330
80
100
AcDbEntity
  8
81
370
    18
100
AcDbLine
 10
91.6264826505
 20
130.2676275275
 30
0.0
 11
88.0909487446
 21
133.8031614334
 31
0.0
  0
LINE
  5
87
330
80
100
AcDbEntity
  8
81
100
AcDbLine
 10
91.6264826505
 20
130.2676275275
 30
0.0
 11
101.6264826505
 21
130.2676275275
 31
0.0
  0
LINE
  5
88
330
80
100
AcDbEntity
  8
81
370
    18
100
AcDbLine
 10
91.6264826505
 20
130.2676275275
 30
0.0
 11
95.1620165565
 21
126.7320936216
 31
0.0
  0
ENDBLK
  5
82
330
80
100
AcDbEntity
  8
0
100
AcDbBlockEnd
  0
BLOCK
  5
8A
330
89
100
AcDbEntity
  8
0
100
AcDbBlockBegin
  2
Block12
 70
     0
 10
0.0
 20
0.0
 30
0.0
  3
Block12
  1

  0
CIRCLE
  5
8C
330
89
100
AcDbEntity
  8
80
370
    18
100
AcDbCircle
 10
61.7273641656
 20
130.3356800267
 30
0.0
 40
2.500000000000004
  0
LINE
  5
8D
330
89
100
AcDbEntity
  8
80
370
    18
100
AcDbLine
 10
61.7273641656
 20
130.3356800267
 30
0.0
 11
65.2628980715
 21
133.8712139326
 31
0.0
  0
LINE
  5
8E
330
89
100
AcDbEntity
  8
80
370
    18
100
AcDbLine
 10
61.7273641656
 20
130.3356800267
 30
0.0
 11
58.1918302597
 21
126.8001461208
 31
0.0
  0
LINE
  5
8F
330
89
100
AcDbEntity
  8
80
370
    18
100
AcDbLine
 10
61.7273641656
 20
130.3356800267
 30
0.0
 11
58.1918302597
 21
133.8712139326
 31
0.0
  0
LINE
  5
90
330
89
100
AcDbEntity
  8
80
370
    18
100
AcDbLine
 10
61.7273641656
 20
130.3356800267
 30
0.0
 11
51.7273641656
 21
130.3356800267
 31
0.0
  0
LINE
  5
91
330
89
100
AcDbEntity
  8
80
370
    18
100
AcDbLine
 10
61.7273641656
 20
130.3356800267
 30
0.0
 11
65.2628980715
 21
126.8001461208
 31
0.0
  0
ENDBLK
  5
8B
330
89
100
AcDbEntity
  8
0
100
AcDbBlockEnd
  0
BLOCK
  5
129
330
128
100
AcDbEntity
  8
0
100
AcDbBlockBegin
  2
_D
 70
     0
 10
0.0
 20
0.0
 30
0.0
  3
_D
  1

  0
SOLID
  5
12B
330
128
100
AcDbEntity
  8
2
100
AcDbTrace
 10
0.0028885351
 20
58.5935350136
 30
0.0
 11
3.3048885351
 21
58.0855350136
 31
0.0
 12
3.3048885351
 22
59.1015350136
 32
0.0
 13
3.3048885351
 23
59.1015350136
 33
0.0
  0
SOLID
  5
12C
330
128
100
AcDbEntity
  8
2
100
AcDbTrace
 10
63.0028885351
 20
58.5935350136
 30
0.0
 11
59.7008885351
 21
59.1015350136
 31
0.0
 12
59.7008885351
 22
58.0855350136
 32
0.0
 13
59.7008885351
 23
58.0855350136
 33
0.0
  0
LINE
  5
12D
330
128
100
AcDbEntity
  8
2
100
AcDbLine
 10
0.0028885351
 20
8.9375
 30
0.0
 11
0.0028885351
 21
59.5935350136
 31
0.0
  0
LINE
  5
12E
330
128
100
AcDbEntity
  8
2
100
AcDbLine
 10
63.0028885351
 20
19.4753866082
 30
0.0
 11
63.0028885351
 21
59.5935350136
 31
0.0
  0
LINE
  5
12F
330
128
100
AcDbEntity
  8
2
100
AcDbLine
 10
0.0028885351
 20
58.5935350136
 30
0.0
 11
63.0028885351
 21
58.5935350136
 31
0.0
  0
MTEXT
  5
130
330
128
100
AcDbEntity
  8
2
100
AcDbMText
 10
28.4883113512
 20
63.1052719281
 30
0.0
 40
3.5
 41
0.0
 71
     1
 72
     1
  1
63
  7
SLDTEXTSTYLE0
 73
     1
 44
1.0
  0
ENDBLK
  5
12A
330
128
100
AcDbEntity
  8
0
100
AcDbBlockEnd
  0
BLOCK
  5
133
330
132
100
AcDbEntity
  8
0
100
AcDbBlockBegin
  2
_D_1
 70
     0
 10
0.0
 20
0.0
 30
0.0
  3
_D_1
  1

  0
SOLID
  5
135
330
132
100
AcDbEntity
  8
SK2
100
AcDbTrace
 10
0.0028885351
 20
50.4287686505
 30
0.0
 11
3.3048885351
 21
49.9207686505
 31
0.0
 12
3.3048885351
 22
50.9367686505
 32
0.0
 13
3.3048885351
 23
50.9367686505
 33
0.0
  0
SOLID
  5
136
330
132
100
AcDbEntity
  8
SK2
100
AcDbTrace
 10
22.1028718682
 20
50.4287686505
 30
0.0
 11
18.8008718682
 21
50.9367686505
 31
0.0
 12
18.8008718682
 22
49.9207686505
 32
0.0
 13
18.8008718682
 23
49.9207686505
 33
0.0
  0
LINE
  5
137
330
132
100
AcDbEntity
  8
SK2
100
AcDbLine
 10
0.0028885351
 20
16.875
 30
0.0
 11
0.0028885351
 21
51.4287686505
 31
0.0
  0
LINE
  5
138
330
132
100
AcDbEntity
  8
SK2
100
AcDbLine
 10
22.1028718682
 20
23.245
 30
0.0
 11
22.1028718682
 21
51.4287686505
 31
0.0
  0
LINE
  5
139
330
132
100
AcDbEntity
  8
SK2
100
AcDbLine
 10
0.0028885351
 20
50.4287686505
 30
0.0
 11
22.1028718682
 21
50.4287686505
 31
0.0
  0
MTEXT
  5
13A
330
132
100
AcDbEntity
  8
SK2
100
AcDbMText
 10
9.1158484824
 20
54.9405055651
 30
0.0
 40
3.5
 41
0.0
 71
     1
 72
     1
  1
22,1
  7
SLDTEXTSTYLE0
 73
     1
 44
1.0
  0
ENDBLK
  5
134
330
132
100
AcDbEntity
  8
0
100
AcDbBlockEnd
  0
BLOCK
  5
13D
330
13C
100
AcDbEntity
  8
0
100
AcDbBlockBegin
  2
_D_2
 70
     0
 10
0.0
 20
0.0
 30
0.0
  3
_D_2
  1

  0
SOLID
  5
13F
330
13C
100
AcDbEntity
  8
SK2
100
AcDbTrace
 10
63.0028885351
 20
32.8855544381
 30
0.0
 11
59.7008885351
 21
33.3935544381
 31
0.0
 12
59.7008885351
 22
32.3775544381
 32
0.0
 13
59.7008885351
 23
32.3775544381
 33
0.0
  0
SOLID
  5
140
330
13C
100
AcDbEntity
  8
SK2
100
AcDbTrace
 10
38.5028885351
 20
32.8855544381
 30
0.0
 11
41.8048885351
 21
32.3775544381
 31
0.0
 12
41.8048885351
 22
33.3935544381
 32
0.0
 13
41.8048885351
 23
33.3935544381
 33
0.0
  0
LINE
  5
141
330
13C
100
AcDbEntity
  8
SK2
100
AcDbLine
 10
63.0028885351
 20
19.4753866082
 30
0.0
 11
63.0028885351
 21
33.8855544381
 31
0.0
  0
LINE
  5
142
330
13C
100
AcDbEntity
  8
SK2
100
AcDbLine
 10
38.5028885351
 20
26.65
 30
0.0
 11
38.5028885351
 21
33.8855544381
 31
0.0
  0
LINE
  5
143
330
13C
100
AcDbEntity
  8
SK2
100
AcDbLine
 10
63.0028885351
 20
32.8855544381
 30
0.0
 11
38.5028885351
 21
32.8855544381
 31
0.0
  0
MTEXT
  5
144
330
13C
100
AcDbEntity
  8
SK2
100
AcDbMText
 10
46.2986358383
 20
37.3972913527
 30
0.0
 40
3.5
 41
0.0
 71
     1
 72
     1
  1
24,5
  7
SLDTEXTSTYLE0
 73
     1
 44
1.0
  0
ENDBLK
  5
13E
330
13C
100
AcDbEntity
  8
0
100
AcDbBlockEnd
  0
BLOCK
  5
147
330
146
100
AcDbEntity
  8
0
100
AcDbBlockBegin
  2
_D_3
 70
     0
 10
0.0
 20
0.0
 30
0.0
  3
_D_3
  1

  0
SOLID
  5
149
330
146
100
AcDbEntity
  8
SK2
100
AcDbTrace
 10
63.0028885351
 20
41.1606554817
 30
0.0
 11
59.7008885351
 21
41.6686554817
 31
0.0
 12
59.7008885351
 22
40.6526554817
 32
0.0
 13
59.7008885351
 23
40.6526554817
 33
0.0
  0
SOLID
  5
14A
330
146
100
AcDbEntity
  8
SK2
100
AcDbTrace
 10
25.1028885351
 20
41.1606554817
 30
0.0
 11
28.4048885351
 21
40.6526554817
 31
0.0
 12
28.4048885351
 22
41.6686554817
 32
0.0
 13
28.4048885351
 23
41.6686554817
 33
0.0
  0
LINE
  5
14B
330
146
100
AcDbEntity
  8
SK2
100
AcDbLine
 10
63.0028885351
 20
19.4753866082
 30
0.0
 11
63.0028885351
 21
42.1606554817
 31
0.0
  0
LINE
  5
14C
330
146
100
AcDbEntity
  8
SK2
100
AcDbLine
 10
25.1028885351
 20
26.0
 30
0.0
 11
25.1028885351
 21
42.1606554817
 31
0.0
  0
LINE
  5
14D
330
146
100
AcDbEntity
  8
SK2
100
AcDbLine
 10
63.0028885351
 20
41.1606554817
 30
0.0
 11
25.1028885351
 21
41.1606554817
 31
0.0
  0
MTEXT
  5
14E
330
146
100
AcDbEntity
  8
SK2
100
AcDbMText
 10
39.0165469199
 20
45.6723923963
 30
0.0
 40
3.5
 41
0.0
 71
     1
 72
     1
  1
37,9
  7
SLDTEXTSTYLE0
 73
     1
 44
1.0
  0
ENDBLK
  5
148
330
146
100
AcDbEntity
  8
0
100
AcDbBlockEnd
  0
BLOCK
  5
151
330
150
100
AcDbEntity
  8
0
100
AcDbBlockBegin
  2
_D_4
 70
     0
 10
0.0
 20
0.0
 30
0.0
  3
_D_4
  1

  0
SOLID
  5
153
330
150
100
AcDbEntity
  8
SK2
100
AcDbTrace
 10
63.0028885351
 20
50.4287686505
 30
0.0
 11
59.7008885351
 21
50.9367686505
 31
0.0
 12
59.7008885351
 22
49.9207686505
 32
0.0
 13
59.7008885351
 23
49.9207686505
 33
0.0
  0
SOLID
  5
154
330
150
100
AcDbEntity
  8
SK2
100
AcDbTrace
 10
22.1028718682
 20
50.4287686505
 30
0.0
 11
25.4048718682
 21
49.9207686505
 31
0.0
 12
25.4048718682
 22
50.9367686505
 32
0.0
 13
25.4048718682
 23
50.9367686505
 33
0.0
  0
LINE
  5
155
330
150
100
AcDbEntity
  8
SK2
100
AcDbLine
 10
63.0028885351
 20
19.4753866082
 30
0.0
 11
63.0028885351
 21
51.4287686505
 31
0.0
  0
LINE
  5
156
330
150
100
AcDbEntity
  8
SK2
100
AcDbLine
 10
22.1028718682
 20
23.245
 30
0.0
 11
22.1028718682
 21
51.4287686505
 31
0.0
  0
LINE
  5
157
330
150
100
AcDbEntity
  8
SK2
100
AcDbLine
 10
63.0028885351
 20
50.4287686505
 30
0.0
 11
22.1028718682
 21
50.4287686505
 31
0.0
  0
MTEXT
  5
158
330
150
100
AcDbEntity
  8
SK2
100
AcDbMText
 10
39.0165469199
 20
54.9405055651
 30
0.0
 40
3.5
 41
0.0
 71
     1
 72
     1
  1
40,9
  7
SLDTEXTSTYLE0
 73
     1
 44
1.0
  0
ENDBLK
  5
152
330
150
100
AcDbEntity
  8
0
100
AcDbBlockEnd
  0
BLOCK
  5
15B
330
15A
100
AcDbEntity
  8
0
100
AcDbBlockBegin
  2
_D_5
 70
     0
 10
0.0
 20
0.0
 30
0.0
  3
_D_5
  1

  0
SOLID
  5
15D
330
15A
100
AcDbEntity
  8
SK2
100
AcDbTrace
 10
98.8179641158
 20
25.75
 30
0.0
 11
98.3099641158
 21
22.448
 31
0.0
 12
99.3259641158
 22
22.448
 32
0.0
 13
99.3259641158
 23
22.448
 33
0.0
  0
SOLID
  5
15E
330
15A
100
AcDbEntity
  8
SK2
100
AcDbTrace
 10
98.8179641158
 20
-25.75
 30
0.0
 11
99.3259641158
 21
-22.448
 31
0.0
 12
98.3099641158
 22
-22.448
 32
0.0
 13
98.3099641158
 23
-22.448
 33
0.0
  0
LINE
  5
15F
330
15A
100
AcDbEntity
  8
SK2
100
AcDbLine
 10
51.4028885351
 20
25.75
 30
0.0
 11
99.8179641158
 21
25.75
 31
0.0
  0
LINE
  5
160
330
15A
100
AcDbEntity
  8
SK2
100
AcDbLine
 10
51.4028885351
 20
-25.75
 30
0.0
 11
99.8179641158
 21
-25.75
 31
0.0
  0
LINE
  5
161
330
15A
100
AcDbEntity
  8
SK2
100
AcDbLine
 10
98.8179641158
 20
25.75
 30
0.0
 11
98.8179641158
 21
-25.75
 31
0.0
  0
MTEXT
  5
162
330
15A
100
AcDbEntity
  8
SK2
100
AcDbMText
 10
94.3062270266
 20
-7.7478869035
 30
0.0
 40
3.5
 41
0.0
 71
     1
 72
     1
  1
%%c
  7
SLDTEXTSTYLE0
 11
-7.044195017643634E-15
 21
1.0
 31
0.0
 73
     1
 44
1.0
  0
MTEXT
  5
163
330
15A
100
AcDbEntity
  8
SK2
100
AcDbMText
 10
94.25275485
 20
-2.4694495051
 30
0.0
 40
3.5
 41
0.0
 71
     1
 72
     1
  1
51,5
  7
SLDTEXTSTYLE0
 11
-7.044195017643634E-15
 21
1.0
 31
0.0
 73
     1
 44
1.0
  0
ENDBLK
  5
15C
330
15A
100
AcDbEntity
  8
0
100
AcDbBlockEnd
  0
BLOCK
  5
167
330
166
100
AcDbEntity
  8
0
100
AcDbBlockBegin
  2
_D_6
 70
     0
 10
0.0
 20
0.0
 30
0.0
  3
_D_6
  1

  0
SOLID
  5
169
330
166
100
AcDbEntity
  8
SK2
100
AcDbTrace
 10
88.8828985507
 20
18.4753866082
 30
0.0
 11
88.3748985507
 21
15.1733866082
 31
0.0
 12
89.3908985507
 22
15.1733866082
 32
0.0
 13
89.3908985507
 23
15.1733866082
 33
0.0
  0
SOLID
  5
16A
330
166
100
AcDbEntity
  8
SK2
100
AcDbTrace
 10
88.8828985507
 20
-18.4753866082
 30
0.0
 11
89.3908985507
 21
-15.1733866082
 31
0.0
 12
88.3748985507
 22
-15.1733866082
 32
0.0
 13
88.3748985507
 23
-15.1733866082
 33
0.0
  0
LINE
  5
16B
330
166
100
AcDbEntity
  8
SK2
100
AcDbLine
 10
64.0028885351
 20
18.4753866082
 30
0.0
 11
89.8828985507
 21
18.4753866082
 31
0.0
  0
LINE
  5
16C
330
166
100
AcDbEntity
  8
SK2
100
AcDbLine
 10
64.0028885351
 20
-18.4753866082
 30
0.0
 11
89.8828985507
 21
-18.4753866082
 31
0.0
  0
LINE
  5
16D
330
166
100
AcDbEntity
  8
SK2
100
AcDbLine
 10
88.8828985507
 20
18.4753866082
 30
0.0
 11
88.8828985507
 21
-18.4753866082
 31
0.0
  0
MTEXT
  5
16E
330
166
100
AcDbEntity
  8
SK2
100
AcDbMText
 10
84.3711614615
 20
-5.8083033337
 30
0.0
 40
3.5
 41
0.0
 71
     1
 72
     1
  1
%%c
  7
SLDTEXTSTYLE0
 11
-7.044195017643634E-15
 21
1.0
 31
0.0
 73
     1
 44
1.0
  0
MTEXT
  5
16F
330
166
100
AcDbEntity
  8
SK2
100
AcDbMText
 10
84.3176892849
 20
-0.5298659353
 30
0.0
 40
3.5
 41
0.0
 71
     1
 72
     1
  1
37
  7
SLDTEXTSTYLE0
 11
-7.044195017643634E-15
 21
1.0
 31
0.0
 73
     1
 44
1.0
  0
ENDBLK
  5
168
330
166
100
AcDbEntity
  8
0
100
AcDbBlockEnd
  0
BLOCK
  5
172
330
171
100
AcDbEntity
  8
0
100
AcDbBlockBegin
  2
_D_7
 70
     0
 10
0.0
 20
0.0
 30
0.0
  3
_D_7
  1

  0
SOLID
  5
174
330
171
100
AcDbEntity
  8
SK2
100
AcDbTrace
 10
79.2984248312
 20
-10.0
 30
0.0
 11
79.8064248312
 21
-6.698
 31
0.0
 12
78.7904248312
 22
-6.698
 32
0.0
 13
78.7904248312
 23
-6.698
 33
0.0
  0
SOLID
  5
175
330
171
100
AcDbEntity
  8
SK2
100
AcDbTrace
 10
79.2984248312
 20
10.0
 30
0.0
 11
78.7904248312
 21
6.698
 31
0.0
 12
79.8064248312
 22
6.698
 32
0.0
 13
79.8064248312
 23
6.698
 33
0.0
  0
LINE
  5
176
330
171
100
AcDbEntity
  8
SK2
100
AcDbLine
 10
63.0028885351
 20
-10.0
 30
0.0
 11
80.2984248312
 21
-10.0
 31
0.0
  0
LINE
  5
177
330
171
100
AcDbEntity
  8
SK2
100
AcDbLine
 10
63.0028885351
 20
10.0
 30
0.0
 11
80.2984248312
 21
10.0
 31
0.0
  0
LINE
  5
178
330
171
100
AcDbEntity
  8
SK2
100
AcDbLine
 10
79.2984248312
 20
-10.0
 30
0.0
 11
79.2984248312
 21
10.0
 31
0.0
  0
MTEXT
  5
179
330
171
100
AcDbEntity
  8
SK2
100
AcDbMText
 10
74.786687742
 20
-5.8083033337
 30
0.0
 40
3.5
 41
0.0
 71
     1
 72
     1
  1
%%c
  7
SLDTEXTSTYLE0
 11
-1.608122649676637E-16
 21
1.0
 31
0.0
 73
     1
 44
1.0
  0
MTEXT
  5
17A
330
171
100
AcDbEntity
  8
SK2
100
AcDbMText
 10
74.7332155653
 20
-0.5298659353
 30
0.0
 40
3.5
 41
0.0
 71
     1
 72
     1
  1
20
  7
SLDTEXTSTYLE0
 11
-1.608122649676637E-16
 21
1.0
 31
0.0
 73
     1
 44
1.0
  0
ENDBLK
  5
173
330
171
100
AcDbEntity
  8
0
100
AcDbBlockEnd
  0
BLOCK
  5
17E
330
17D
100
AcDbEntity
  8
0
100
AcDbBlockBegin
  2
_D_8
 70
     0
 10
0.0
 20
0.0
 30
0.0
  3
_D_8
  1

  0
SOLID
  5
180
330
17D
100
AcDbEntity
  8
SK2
100
AcDbTrace
 10
63.0028885351
 20
-35.1454650113
 30
0.0
 11
66.3048885351
 21
-35.6534650113
 31
0.0
 12
66.3048885351
 22
-34.6374650113
 32
0.0
 13
66.3048885351
 23
-34.6374650113
 33
0.0
  0
SOLID
  5
181
330
17D
100
AcDbEntity
  8
SK2
100
AcDbTrace
 10
50.4028885351
 20
-35.1454650113
 30
0.0
 11
47.1008885351
 21
-34.6374650113
 31
0.0
 12
47.1008885351
 22
-35.6534650113
 32
0.0
 13
47.1008885351
 23
-35.6534650113
 33
0.0
  0
LINE
  5
182
330
17D
100
AcDbEntity
  8
SK2
100
AcDbLine
 10
63.0028885351
 20
-19.4753866082
 30
0.0
 11
63.0028885351
 21
-36.1454650113
 31
0.0
  0
LINE
  5
183
330
17D
100
AcDbEntity
  8
SK2
100
AcDbLine
 10
50.4028885351
 20
-26.75
 30
0.0
 11
50.4028885351
 21
-36.1454650113
 31
0.0
  0
LINE
  5
184
330
17D
100
AcDbEntity
  8
SK2
100
AcDbLine
 10
63.0028885351
 20
-35.1454650113
 30
0.0
 11
69.3528885351
 21
-35.1454650113
 31
0.0
  0
LINE
  5
185
330
17D
100
AcDbEntity
  8
SK2
100
AcDbLine
 10
63.0028885351
 20
-35.1454650113
 30
0.0
 11
50.4028885351
 21
-35.1454650113
 31
0.0
  0
LINE
  5
186
330
17D
100
AcDbEntity
  8
SK2
100
AcDbLine
 10
50.4028885351
 20
-35.1454650113
 30
0.0
 11
44.0528885351
 21
-35.1454650113
 31
0.0
  0
MTEXT
  5
187
330
17D
100
AcDbEntity
  8
SK2
100
AcDbMText
 10
52.4502636068
 20
-30.6337280968
 30
0.0
 40
3.5
 41
0.0
 71
     1
 72
     1
  1
12,6
  7
SLDTEXTSTYLE0
 73
     1
 44
1.0
  0
ENDBLK
  5
17F
330
17D
100
AcDbEntity
  8
0
100
AcDbBlockEnd
  0
BLOCK
  5
18A
330
189
100
AcDbEntity
  8
0
100
AcDbBlockBegin
  2
_D_9
 70
     0
 10
0.0
 20
0.0
 30
0.0
  3
_D_9
  1

  0
SOLID
  5
18C
330
189
100
AcDbEntity
  8
SK2
100
AcDbTrace
 10
-54.9345646967
 20
-6.0
 30
0.0
 11
-55.4425646967
 21
-9.302
 31
0.0
 12
-54.4265646967
 22
-9.302
 32
0.0
 13
-54.4265646967
 23
-9.302
 33
0.0
  0
SOLID
  5
18D
330
189
100
AcDbEntity
  8
SK2
100
AcDbTrace
 10
-54.9345646967
 20
6.0
 30
0.0
 11
-54.4265646967
 21
9.302
 31
0.0
 12
-55.4425646967
 22
9.302
 32
0.0
 13
-55.4425646967
 23
9.302
 33
0.0
  0
LINE
  5
18E
330
189
100
AcDbEntity
  8
SK2
100
AcDbLine
 10
-41.7862675467
 20
-6.0
 30
0.0
 11
-55.9345646967
 21
-6.0
 31
0.0
  0
LINE
  5
18F
330
189
100
AcDbEntity
  8
SK2
100
AcDbLine
 10
-41.7862675467
 20
6.0
 30
0.0
 11
-55.9345646967
 21
6.0
 31
0.0
  0
LINE
  5
190
330
189
100
AcDbEntity
  8
SK2
100
AcDbLine
 10
-54.9345646967
 20
-6.0
 30
0.0
 11
-54.9345646967
 21
-12.35
 31
0.0
  0
LINE
  5
191
330
189
100
AcDbEntity
  8
SK2
100
AcDbLine
 10
-54.9345646967
 20
-6.0
 30
0.0
 11
-54.9345646967
 21
6.0
 31
0.0
  0
LINE
  5
192
330
189
100
AcDbEntity
  8
SK2
100
AcDbLine
 10
-54.9345646967
 20
6.0
 30
0.0
 11
-54.9345646967
 21
12.35
 31
0.0
  0
MTEXT
  5
193
330
189
100
AcDbEntity
  8
SK2
100
AcDbMText
 10
-59.4463016112
 20
-4.5820608828
 30
0.0
 40
3.5
 41
0.0
 71
     1
 72
     1
  1
M12
  7
SLDTEXTSTYLE0
 11
6.123233995736766E-17
 21
1.0
 31
0.0
 73
     1
 44
1.0
  0
ENDBLK
  5
18B
330
189
100
AcDbEntity
  8
0
100
AcDbBlockEnd
  0
BLOCK
  5
196
330
195
100
AcDbEntity
  8
0
100
AcDbBlockBegin
  2
_D_10
 70
     0
 10
0.0
 20
0.0
 30
0.0
  3
_D_10
  1

  0
SOLID
  5
198
330
195
100
AcDbEntity
  8
SK2
100
AcDbTrace
 10
-65.2423977282
 20
15.875
 30
0.0
 11
-65.7503977282
 21
12.573
 31
0.0
 12
-64.7343977282
 22
12.573
 32
0.0
 13
-64.7343977282
 23
12.573
 33
0.0
  0
SOLID
  5
199
330
195
100
AcDbEntity
  8
SK2
100
AcDbTrace
 10
-65.2423977282
 20
-15.875
 30
0.0
 11
-64.7343977282
 21
-12.573
 31
0.0
 12
-65.7503977282
 22
-12.573
 32
0.0
 13
-65.7503977282
 23
-12.573
 33
0.0
  0
LINE
  5
19A
330
195
100
AcDbEntity
  8
SK2
100
AcDbLine
 10
-0.9971114649
 20
15.875
 30
0.0
 11
-66.2423977282
 21
15.875
 31
0.0
  0
LINE
  5
19B
330
195
100
AcDbEntity
  8
SK2
100
AcDbLine
 10
-0.7971114649
 20
-15.875
 30
0.0
 11
-66.2423977282
 21
-15.875
 31
0.0
  0
LINE
  5
19C
330
195
100
AcDbEntity
  8
SK2
100
AcDbLine
 10
-65.2423977282
 20
15.875
 30
0.0
 11
-65.2423977282
 21
-15.875
 31
0.0
  0
MTEXT
  5
19D
330
195
100
AcDbEntity
  8
SK2
100
AcDbMText
 10
-69.7541348174
 20
-8.3101684321
 30
0.0
 40
3.5
 41
0.0
 71
     1
 72
     1
  1
%%c
  7
SLDTEXTSTYLE0
 11
-7.044195017643634E-15
 21
1.0
 31
0.0
 73
     1
 44
1.0
  0
MTEXT
  5
19E
330
195
100
AcDbEntity
  8
SK2
100
AcDbMText
 10
-69.807606994
 20
-3.0317310337
 30
0.0
 40
3.5
 41
0.0
 71
     1
 72
     1
  1
31,75
  7
SLDTEXTSTYLE0
 11
-7.044195017643634E-15
 21
1.0
 31
0.0
 73
     1
 44
1.0
  0
ENDBLK
  5
197
330
195
100
AcDbEntity
  8
0
100
AcDbBlockEnd
  0
BLOCK
  5
1A1
330
1A0
100
AcDbEntity
  8
0
100
AcDbBlockBegin
  2
_D_11
 70
     0
 10
0.0
 20
0.0
 30
0.0
  3
_D_11
  1

  0
SOLID
  5
1A3
330
1A0
100
AcDbEntity
  8
SK2
100
AcDbTrace
 10
-76.0024509722
 20
-22.99
 30
0.0
 11
-75.4944509722
 21
-19.688
 31
0.0
 12
-76.5104509722
 22
-19.688
 32
0.0
 13
-76.5104509722
 23
-19.688
 33
0.0
  0
SOLID
  5
1A4
330
1A0
100
AcDbEntity
  8
SK2
100
AcDbTrace
 10
-76.0024509722
 20
22.99
 30
0.0
 11
-76.5104509722
 21
19.688
 31
0.0
 12
-75.4944509722
 22
19.688
 32
0.0
 13
-75.4944509722
 23
19.688
 33
0.0
  0
LINE
  5
1A5
330
1A0
100
AcDbEntity
  8
SK2
100
AcDbLine
 10
20.3528885351
 20
-22.99
 30
0.0
 11
-77.0024509722
 21
-22.99
 31
0.0
  0
LINE
  5
1A6
330
1A0
100
AcDbEntity
  8
SK2
100
AcDbLine
 10
18.8775379581
 20
22.99
 30
0.0
 11
-77.0024509722
 21
22.99
 31
0.0
  0
LINE
  5
1A7
330
1A0
100
AcDbEntity
  8
SK2
100
AcDbLine
 10
-76.0024509722
 20
-22.99
 30
0.0
 11
-76.0024509722
 21
22.99
 31
0.0
  0
MTEXT
  5
1A8
330
1A0
100
AcDbEntity
  8
SK2
100
AcDbMText
 10
-80.5141880614
 20
-5.0775296148
 30
0.0
 40
3.5
 41
0.0
 71
     1
 72
     1
  1
%%c
  7
SLDTEXTSTYLE0
 11
6.123233995736766E-17
 21
1.0
 31
0.0
 73
     1
 44
1.0
  0
MTEXT
  5
1A9
330
1A0
100
AcDbEntity
  8
SK2
100
AcDbMText
 10
-80.5676602381
 20
0.2009077836
 30
0.0
 40
3.5
 41
0.0
 71
     1
 72
     1
  1
46
  7
SLDTEXTSTYLE0
 11
6.123233995736766E-17
 21
1.0
 31
0.0
 73
     1
 44
1.0
  0
ENDBLK
  5
1A2
330
1A0
100
AcDbEntity
  8
0
100
AcDbBlockEnd
  0
BLOCK
  5
1AC
330
1AB
100
AcDbEntity
  8
0
100
AcDbBlockBegin
  2
_D_12
 70
     0
 10
0.0
 20
0.0
 30
0.0
  3
_D_12
  1

  0
SOLID
  5
1AE
330
1AB
100
AcDbEntity
  8
SK2
100
AcDbTrace
 10
63.0028885351
 20
-43.7003742782
 30
0.0
 11
59.7008885351
 21
-43.1923742782
 31
0.0
 12
59.7008885351
 22
-44.2083742782
 32
0.0
 13
59.7008885351
 23
-44.2083742782
 33
0.0
  0
SOLID
  5
1AF
330
1AB
100
AcDbEntity
  8
SK2
100
AcDbTrace
 10
14.0028885351
 20
-43.7003742782
 30
0.0
 11
17.3048885351
 21
-44.2083742782
 31
0.0
 12
17.3048885351
 22
-43.1923742782
 32
0.0
 13
17.3048885351
 23
-43.1923742782
 33
0.0
  0
LINE
  5
1B0
330
1AB
100
AcDbEntity
  8
SK2
100
AcDbLine
 10
63.0028885351
 20
-19.4753866082
 30
0.0
 11
63.0028885351
 21
-44.7003742782
 31
0.0
  0
LINE
  5
1B1
330
1AB
100
AcDbEntity
  8
SK2
100
AcDbLine
 10
14.0028885351
 20
-11.0
 30
0.0
 11
14.0028885351
 21
-44.7003742782
 31
0.0
  0
LINE
  5
1B2
330
1AB
100
AcDbEntity
  8
SK2
100
AcDbLine
 10
63.0028885351
 20
-43.7003742782
 30
0.0
 11
14.0028885351
 21
-43.7003742782
 31
0.0
  0
MTEXT
  5
1B3
330
1AB
100
AcDbEntity
  8
SK2
100
AcDbMText
 10
37.6597646687
 20
-39.1886373636
 30
0.0
 40
3.5
 41
0.0
 71
     1
 72
     1
  1
49
  7
SLDTEXTSTYLE0
 73
     1
 44
1.0
  0
ENDBLK
  5
1AD
330
1AB
100
AcDbEntity
  8
0
100
AcDbBlockEnd
  0
ENDSEC
  0
SECTION
  2
ENTITIES
  0
LINE
  5
92
330
1F
100
AcDbEntity
  8
1
  6
SLD-Solid
370
    25
100
AcDbLine
 10
47.6028885351
 20
25.75
 30
0.0
 11
50.4028885351
 21
25.75
 31
0.0
  0
LINE
  5
93
330
1F
100
AcDbEntity
  8
1
  6
SLD-Solid
370
    25
100
AcDbLine
 10
25.8528885351
 20
25.75
 30
0.0
 11
29.4057083347
 21
25.75
 31
0.0
  0
LINE
  5
94
330
1F
100
AcDbEntity
  8
1
  6
SLD-Solid
370
    25
100
AcDbLine
 10
30.6856544896
 20
-25.75
 30
0.0
 11
25.8528885351
 21
-25.75
 31
0.0
  0
LINE
  5
95
330
1F
100
AcDbEntity
  8
1
  6
SLD-Solid
370
    25
100
AcDbLine
 10
50.4028885351
 20
-25.75
 30
0.0
 11
46.3113447111
 21
-25.75
 31
0.0
  0
LINE
  5
96
330
1F
100
AcDbEntity
  8
1
  6
SLD-Solid
370
    25
100
AcDbLine
 10
50.4028885351
 20
25.75
 30
0.0
 11
63.0028885351
 21
18.4753866082
 31
0.0
  0
LINE
  5
97
330
1F
100
AcDbEntity
  8
1
  6
SLD-Solid
370
    25
100
AcDbLine
 10
63.0028885351
 20
-18.4753866082
 30
0.0
 11
50.4028885351
 21
-25.75
 31
0.0
  0
LINE
  5
98
330
1F
100
AcDbEntity
  8
1
  6
SLD-Solid
370
    25
100
AcDbLine
 10
19.8775379581
 20
22.99
 30
0.0
 11
21.3528885351
 21
22.99
 31
0.0
  0
LINE
  5
99
330
1F
100
AcDbEntity
  8
1
  6
SLD-Solid
370
    25
100
AcDbLine
 10
21.3528885351
 20
-22.99
 30
0.0
 11
19.8775379762
 21
-22.99
 31
0.0
  0
LINE
  5
9A
330
1F
100
AcDbEntity
  8
1
  6
SLD-Solid
370
    25
100
AcDbLine
 10
22.8528552014
 20
21.5
 30
0.0
 11
24.3528885351
 21
21.5
 31
0.0
  0
LINE
  5
9B
330
1F
100
AcDbEntity
  8
1
  6
SLD-Solid
370
    25
100
AcDbLine
 10
24.3528885351
 20
-21.5
 30
0.0
 11
22.8528552014
 21
-21.5
 31
0.0
  0
LINE
  5
9C
330
1F
100
AcDbEntity
  8
1
  6
SLD-Solid
370
    25
100
AcDbLine
 10
0.0028885351
 20
15.875
 30
0.0
 11
0.2028885351
 21
15.875
 31
0.0
  0
LINE
  5
9D
330
1F
100
AcDbEntity
  8
1
  6
SLD-Solid
370
    25
100
AcDbLine
 10
0.2028885351
 20
-15.875
 30
0.0
 11
0.0028885351
 21
-15.875
 31
0.0
  0
LINE
  5
9E
330
1F
100
AcDbEntity
  8
SK1
  6
SLD-Solid
370
    25
100
AcDbLine
 10
0.0028885351
 20
-15.875
 30
0.0
 11
-48.0762306482
 21
-8.8629194779
 31
0.0
  0
LINE
  5
9F
330
1F
100
AcDbEntity
  8
SK1
  6
SLD-Solid
370
    25
100
AcDbLine
 10
-48.0762306482
 20
8.8629194779
 30
0.0
 11
0.0028885351
 21
15.875
 31
0.0
  0
LINE
  5
A0
330
1F
100
AcDbEntity
  8
1
  6
SLD-Solid
370
    25
100
AcDbLine
 10
0.2028885351
 20
15.875
 30
0.0
 11
0.8647939257
 21
15.5663484474
 31
0.0
  0
LINE
  5
A1
330
1F
100
AcDbEntity
  8
1
  6
SLD-Solid
370
    25
100
AcDbLine
 10
0.8647939257
 20
-15.5663484474
 30
0.0
 11
0.2028885351
 21
-15.875
 31
0.0
  0
LINE
  5
A2
330
1F
100
AcDbEntity
  8
1
  6
SLD-Solid
370
    25
100
AcDbLine
 10
50.4028885351
 20
0.0
 30
0.0
 11
50.4028885351
 21
-25.75
 31
0.0
  0
LINE
  5
A3
330
1F
100
AcDbEntity
  8
1
  6
SLD-Solid
370
    25
100
AcDbLine
 10
50.4028885351
 20
25.75
 30
0.0
 11
50.4028885351
 21
0.0
 31
0.0
  0
LINE
  5
A4
330
1F
100
AcDbEntity
  8
1
  6
SLD-Solid
370
    25
100
AcDbLine
 10
63.0028885351
 20
0.0
 30
0.0
 11
63.0028885351
 21
-18.4753866082
 31
0.0
  0
LINE
  5
A5
330
1F
100
AcDbEntity
  8
1
  6
SLD-Solid
370
    25
100
AcDbLine
 10
63.0028885351
 20
18.4753866082
 30
0.0
 11
63.0028885351
 21
0.0
 31
0.0
  0
LINE
  5
A6
330
1F
100
AcDbEntity
  8
1
  6
SLD-Solid
370
    25
100
AcDbLine
 10
25.1028885351
 20
25.0
 30
0.0
 11
25.1028885351
 21
-25.0
 31
0.0
  0
LINE
  5
A7
330
1F
100
AcDbEntity
  8
1
  6
SLD-Solid
370
    25
100
AcDbLine
 10
2.0028885351
 20
20.5619059185
 30
0.0
 11
2.0028885351
 21
-20.5619059185
 31
0.0
  0
LINE
  5
A8
330
1F
100
AcDbEntity
  8
1
  6
SLD-Solid
370
    25
100
AcDbLine
 10
9.5758704075
 20
-21.3146126652
 30
0.0
 11
2.7528885351
 21
-21.3146126652
 31
0.0
  0
LINE
  5
A9
330
1F
100
AcDbEntity
  8
1
  6
SLD-Solid
370
    25
100
AcDbLine
 10
9.5758704075
 20
21.3146126652
 30
0.0
 11
9.5758704075
 21
-21.3146126652
 31
0.0
  0
LINE
  5
AA
330
1F
100
AcDbEntity
  8
1
  6
SLD-Solid
370
    25
100
AcDbLine
 10
2.7528885351
 20
21.3146126652
 30
0.0
 11
9.5758704075
 21
21.3146126652
 31
0.0
  0
LINE
  5
AB
330
1F
100
AcDbEntity
  8
1
  6
SLD-Solid
370
    25
100
AcDbLine
 10
17.6299085352
 20
22.2347703963
 30
0.0
 11
17.6299094955
 21
-22.2347712933
 31
0.0
  0
LINE
  5
AC
330
1F
100
AcDbEntity
  8
1
  6
SLD-Solid
370
    25
100
AcDbLine
 10
15.6028885351
 20
18.2061912473
 30
0.0
 11
15.6028885351
 21
-18.2061912473
 31
0.0
  0
LINE
  5
AD
330
1F
100
AcDbEntity
  8
1
  6
SLD-Solid
370
    25
100
AcDbLine
 10
17.6299094955
 20
-22.2347712933
 30
0.0
 11
17.3771708568
 21
-21.878893314
 31
0.0
  0
LINE
  5
AE
330
1F
100
AcDbEntity
  8
1
  6
SLD-Solid
370
    25
100
AcDbLine
 10
17.3771700939
 20
21.8788917434
 30
0.0
 11
17.6299085352
 21
22.2347703963
 31
0.0
  0
LINE
  5
AF
330
1F
100
AcDbEntity
  8
1
  6
SLD-Solid
370
    25
100
AcDbLine
 10
9.8719602821
 20
-20.9669406447
 30
0.0
 11
9.5758704075
 21
-21.3146126652
 31
0.0
  0
LINE
  5
B0
330
1F
100
AcDbEntity
  8
1
  6
SLD-Solid
370
    25
100
AcDbLine
 10
11.6028885351
 20
-17.7162467733
 30
0.0
 11
11.4028885351
 21
-18.0953286018
 31
0.0
  0
LINE
  5
B1
330
1F
100
AcDbEntity
  8
1
  6
SLD-Solid
370
    25
100
AcDbLine
 10
11.6028885351
 20
17.7162467733
 30
0.0
 11
11.6028885351
 21
-17.7162467733
 31
0.0
  0
LINE
  5
B2
330
1F
100
AcDbEntity
  8
1
  6
SLD-Solid
370
    25
100
AcDbLine
 10
11.6028885351
 20
17.7162467733
 30
0.0
 11
11.4028885351
 21
18.0953286018
 31
0.0
  0
LINE
  5
B3
330
1F
100
AcDbEntity
  8
1
  6
SLD-Solid
370
    25
100
AcDbLine
 10
11.4028885351
 20
18.0953286018
 30
0.0
 11
9.8719602821
 21
20.9669406447
 31
0.0
  0
LINE
  5
B4
330
1F
100
AcDbEntity
  8
1
  6
SLD-Solid
370
    25
100
AcDbLine
 10
9.5758704075
 20
21.3146126652
 30
0.0
 11
9.8719602821
 21
20.9669406447
 31
0.0
  0
LINE
  5
B5
330
1F
100
AcDbEntity
  8
1
  6
SLD-Solid
370
    25
100
AcDbLine
 10
0.0028885351
 20
0.0
 30
0.0
 11
0.0028885351
 21
-15.875
 31
0.0
  0
LINE
  5
B6
330
1F
100
AcDbEntity
  8
1
  6
SLD-Solid
370
    25
100
AcDbLine
 10
0.0028885351
 20
15.875
 30
0.0
 11
0.0028885351
 21
0.0
 31
0.0
  0
LINE
  5
B7
330
1F
100
AcDbEntity
  8
SK1
  6
SLD-Solid
370
    25
100
AcDbLine
 10
-48.3971114649
 20
8.4918452077
 30
0.0
 11
-48.3971114649
 21
-8.4918452077
 31
0.0
  0
LINE
  5
B8
330
1F
100
AcDbEntity
  8
1
  6
SLD-Solid
370
    25
100
AcDbLine
 10
17.3771708568
 20
-21.878893314
 30
0.0
 11
17.6299094955
 21
-22.2347712933
 31
0.0
  0
LINE
  5
B9
330
1F
100
AcDbEntity
  8
1
  6
SLD-Solid
370
    25
100
AcDbLine
 10
17.6299085352
 20
22.2347703963
 30
0.0
 11
17.3771700939
 21
21.8788917434
 31
0.0
  0
LINE
  5
BA
330
1F
100
AcDbEntity
  8
1
  6
SLD-Solid
370
    25
100
AcDbLine
 10
22.1028718682
 20
0.0
 30
0.0
 11
22.1028718682
 21
-22.245
 31
0.0
  0
LINE
  5
BB
330
1F
100
AcDbEntity
  8
1
  6
SLD-Solid
370
    25
100
AcDbLine
 10
22.1028718682
 20
22.245
 30
0.0
 11
22.1028718682
 21
0.0
 31
0.0
  0
LINE
  5
BC
330
1F
100
AcDbEntity
  8
1
  6
SLD-Solid
370
    25
100
AcDbLine
 10
0.8647939257
 20
0.0
 30
0.0
 11
0.8647939257
 21
-15.5663484474
 31
0.0
  0
LINE
  5
BD
330
1F
100
AcDbEntity
  8
1
  6
SLD-Solid
370
    25
100
AcDbLine
 10
0.8647939257
 20
15.5663484474
 30
0.0
 11
0.8647939257
 21
0.0
 31
0.0
  0
LINE
  5
BE
330
1F
100
AcDbEntity
  8
SK3
  6
SLD-Dashed
370
    18
100
AcDbLine
 10
62.0028885351
 20
0.0
 30
0.0
 11
62.0028885351
 21
-10.0
 31
0.0
  0
LINE
  5
BF
330
1F
100
AcDbEntity
  8
SK3
  6
SLD-Dashed
370
    18
100
AcDbLine
 10
62.0028885351
 20
10.0
 30
0.0
 11
62.0028885351
 21
0.0
 31
0.0
  0
LINE
  5
C0
330
1F
100
AcDbEntity
  8
SK3
  6
SLD-Dashed
370
    18
100
AcDbLine
 10
11.2528885351
 20
10.2383902266
 30
0.0
 11
11.2528885351
 21
-10.2383902266
 31
0.0
  0
LINE
  5
C1
330
1F
100
AcDbEntity
  8
SK3
  6
SLD-Dashed
370
    18
100
AcDbLine
 10
11.0028885351
 20
-10.0
 30
0.0
 11
11.0028885351
 21
10.0
 31
0.0
  0
LINE
  5
C2
330
1F
100
AcDbEntity
  8
SK3
  6
SLD-Dashed
370
    18
100
AcDbLine
 10
13.7528885351
 20
10.2383902266
 30
0.0
 11
13.7528885351
 21
-10.2383902266
 31
0.0
  0
LINE
  5
C3
330
1F
100
AcDbEntity
  8
SK3
  6
SLD-Dashed
370
    18
100
AcDbLine
 10
14.0028885351
 20
-10.0
 30
0.0
 11
14.0028885351
 21
10.0
 31
0.0
  0
LINE
  5
C4
330
1F
100
AcDbEntity
  8
SK3
  6
SLD-Dashed
370
    18
100
AcDbLine
 10
47.6028885351
 20
23.65
 30
0.0
 11
29.4028885351
 21
23.65
 31
0.0
  0
LINE
  5
C5
330
1F
100
AcDbEntity
  8
SK3
  6
SLD-Dashed
370
    18
100
AcDbLine
 10
11.4028885351
 20
16.15
 30
0.0
 11
2.3778885351
 21
16.15
 31
0.0
  0
LINE
  5
C6
330
1F
100
AcDbEntity
  8
SK3
  6
SLD-Dashed
370
    18
100
AcDbLine
 10
11.4028885351
 20
-16.15
 30
0.0
 11
19.1278885351
 21
-16.15
 31
0.0
  0
LINE
  5
C7
330
1F
100
AcDbEntity
  8
SK3
  6
SLD-Dashed
370
    18
100
AcDbLine
 10
19.1278885351
 20
16.15
 30
0.0
 11
11.4028885351
 21
16.15
 31
0.0
  0
LINE
  5
C8
330
1F
100
AcDbEntity
  8
SK3
  6
SLD-Dashed
370
    18
100
AcDbLine
 10
2.3778885351
 20
-16.15
 30
0.0
 11
11.4028885351
 21
-16.15
 31
0.0
  0
LINE
  5
C9
330
1F
100
AcDbEntity
  8
SK3
  6
SLD-Dashed
370
    18
100
AcDbLine
 10
-47.3971114649
 20
-6.2565
 30
0.0
 11
-47.3971114649
 21
6.2565
 31
0.0
  0
LINE
  5
CA
330
1F
100
AcDbEntity
  8
SK3
  6
SLD-Dashed
370
    18
100
AcDbLine
 10
-41.1471114649
 20
-6.625
 30
0.0
 11
-41.1471114649
 21
6.625
 31
0.0
  0
LINE
  5
CB
330
1F
100
AcDbEntity
  8
SK3
  6
SLD-Dashed
370
    18
100
AcDbLine
 10
-43.1471114649
 20
-6.625
 30
0.0
 11
-43.1471114649
 21
6.625
 31
0.0
  0
LINE
  5
CC
330
1F
100
AcDbEntity
  8
SK3
  6
SLD-Dashed
370
    18
100
AcDbLine
 10
-40.2666523044
 20
0.0
 30
0.0
 11
-40.2666523044
 21
5.1
 31
0.0
  0
LINE
  5
CD
330
1F
100
AcDbEntity
  8
SK3
  6
SLD-Dashed
370
    18
100
AcDbLine
 10
-40.2666523044
 20
-5.1
 30
0.0
 11
-40.2666523044
 21
0.0
 31
0.0
  0
LINE
  5
CE
330
1F
100
AcDbEntity
  8
SK3
  6
SLD-Dashed
370
    18
100
AcDbLine
 10
-43.7853721875
 20
-6.2565
 30
0.0
 11
-43.7853721875
 21
6.2565
 31
0.0
  0
LINE
  5
CF
330
1F
100
AcDbEntity
  8
SK3
  6
SLD-Dashed
370
    18
100
AcDbLine
 10
6.3028885921
 20
-11.45
 30
0.0
 11
15.7028885351
 21
-11.45
 31
0.0
  0
LINE
  5
D0
330
1F
100
AcDbEntity
  8
SK3
  6
SLD-Dashed
370
    18
100
AcDbLine
 10
63.0028885351
 20
-10.5773502692
 30
0.0
 11
62.0028885351
 21
-10.0
 31
0.0
  0
LINE
  5
D1
330
1F
100
AcDbEntity
  8
SK3
  6
SLD-Dashed
370
    18
100
AcDbLine
 10
62.0028885351
 20
10.0
 30
0.0
 11
63.0028885351
 21
10.5773502692
 31
0.0
  0
LINE
  5
D2
330
1F
100
AcDbEntity
  8
SK3
  6
SLD-Dashed
370
    18
100
AcDbLine
 10
13.7528885351
 20
-10.25
 30
0.0
 11
11.2528885351
 21
-10.25
 31
0.0
  0
LINE
  5
D3
330
1F
100
AcDbEntity
  8
SK3
  6
SLD-Dashed
370
    18
100
AcDbLine
 10
11.2528885351
 20
10.25
 30
0.0
 11
13.7528885351
 21
10.25
 31
0.0
  0
LINE
  5
D4
330
1F
100
AcDbEntity
  8
SK3
  6
SLD-Dashed
370
    18
100
AcDbLine
 10
62.0028885351
 20
-10.0
 30
0.0
 11
14.0028885351
 21
-10.0
 31
0.0
  0
LINE
  5
D5
330
1F
100
AcDbEntity
  8
SK3
  6
SLD-Dashed
370
    18
100
AcDbLine
 10
45.5028885351
 20
10.0
 30
0.0
 11
62.0028885351
 21
10.0
 31
0.0
  0
LINE
  5
D6
330
1F
100
AcDbEntity
  8
SK3
  6
SLD-Dashed
370
    18
100
AcDbLine
 10
14.0028885351
 20
10.0
 30
0.0
 11
31.5033866032
 21
10.0
 31
0.0
  0
LINE
  5
D7
330
1F
100
AcDbEntity
  8
SK3
  6
SLD-Dashed
370
    18
100
AcDbLine
 10
47.6028885351
 20
25.75
 30
0.0
 11
47.6028885351
 21
23.65
 31
0.0
  0
LINE
  5
D8
330
1F
100
AcDbEntity
  8
SK3
  6
SLD-Dashed
370
    18
100
AcDbLine
 10
29.4028885351
 20
23.65
 30
0.0
 11
29.4028885351
 21
25.75
 31
0.0
  0
LINE
  5
D9
330
1F
100
AcDbEntity
  8
SK3
  6
SLD-Dashed
370
    18
100
AcDbLine
 10
2.3778885351
 20
16.15
 30
0.0
 11
2.0028885351
 21
15.775
 31
0.0
  0
LINE
  5
DA
330
1F
100
AcDbEntity
  8
SK3
  6
SLD-Dashed
370
    18
100
AcDbLine
 10
19.5028885351
 20
-16.525
 30
0.0
 11
19.5028885351
 21
-22.6151875392
 31
0.0
  0
LINE
  5
DB
330
1F
100
AcDbEntity
  8
SK3
  6
SLD-Dashed
370
    18
100
AcDbLine
 10
19.5028885351
 20
22.6152218738
 30
0.0
 11
19.5028885351
 21
16.525
 31
0.0
  0
LINE
  5
DC
330
1F
100
AcDbEntity
  8
SK3
  6
SLD-Dashed
370
    18
100
AcDbLine
 10
45.5028885351
 20
23.65
 30
0.0
 11
45.5028885351
 21
10.0
 31
0.0
  0
LINE
  5
DD
330
1F
100
AcDbEntity
  8
SK3
  6
SLD-Dashed
370
    18
100
AcDbLine
 10
31.5028885351
 20
9.9996533339
 30
0.0
 11
31.5028885351
 21
23.65
 31
0.0
  0
LINE
  5
DE
330
1F
100
AcDbEntity
  8
SK3
  6
SLD-Dashed
370
    18
100
AcDbLine
 10
-48.3971114649
 20
6.8338502692
 30
0.0
 11
-47.3971114649
 21
6.2565
 31
0.0
  0
LINE
  5
DF
330
1F
100
AcDbEntity
  8
SK3
  6
SLD-Dashed
370
    18
100
AcDbLine
 10
-47.3971114649
 20
-6.2565
 30
0.0
 11
-48.3971114649
 21
-6.8338502692
 31
0.0
  0
LINE
  5
E0
330
1F
100
AcDbEntity
  8
SK3
  6
SLD-Dashed
370
    18
100
AcDbLine
 10
-41.1471114649
 20
-6.625
 30
0.0
 11
-43.1471114649
 21
-6.625
 31
0.0
  0
LINE
  5
E1
330
1F
100
AcDbEntity
  8
SK3
  6
SLD-Dashed
370
    18
100
AcDbLine
 10
-43.1471114649
 20
6.625
 30
0.0
 11
-41.1471114649
 21
6.625
 31
0.0
  0
LINE
  5
E2
330
1F
100
AcDbEntity
  8
SK3
  6
SLD-Dashed
370
    18
100
AcDbLine
 10
-41.1471114649
 20
6.625
 30
0.0
 11
-40.2666523044
 21
5.1
 31
0.0
  0
LINE
  5
E3
330
1F
100
AcDbEntity
  8
SK3
  6
SLD-Dashed
370
    18
100
AcDbLine
 10
-40.2666523044
 20
-5.1
 30
0.0
 11
-41.1471114649
 21
-6.625
 31
0.0
  0
LINE
  5
E4
330
1F
100
AcDbEntity
  8
SK3
  6
SLD-Dashed
370
    18
100
AcDbLine
 10
-43.1471114649
 20
-6.625
 30
0.0
 11
-43.7853721875
 21
-6.2565
 31
0.0
  0
LINE
  5
E5
330
1F
100
AcDbEntity
  8
SK3
  6
SLD-Dashed
370
    18
100
AcDbLine
 10
-43.7853721875
 20
6.2565
 30
0.0
 11
-43.1471114649
 21
6.625
 31
0.0
  0
LINE
  5
E6
330
1F
100
AcDbEntity
  8
SK3
  6
SLD-Dashed
370
    18
100
AcDbLine
 10
-43.7853721875
 20
-6.2565
 30
0.0
 11
-47.3971114649
 21
-6.2565
 31
0.0
  0
LINE
  5
E7
330
1F
100
AcDbEntity
  8
SK3
  6
SLD-Dashed
370
    18
100
AcDbLine
 10
-47.3971114649
 20
6.2565
 30
0.0
 11
-43.7853721875
 21
6.2565
 31
0.0
  0
LINE
  5
E8
330
1F
100
AcDbEntity
  8
SK3
  6
SLD-Dashed
370
    18
100
AcDbLine
 10
19.5028885353
 20
-22.6150000385
 30
0.0
 11
19.8778885148
 21
-22.99
 31
0.0
  0
LINE
  5
E9
330
1F
100
AcDbEntity
  8
SK3
  6
SLD-Dashed
370
    18
100
AcDbLine
 10
19.8778884968
 20
22.99
 30
0.0
 11
19.5028885353
 21
22.6150000193
 31
0.0
  0
LINE
  5
EA
330
1F
100
AcDbEntity
  8
SK3
  6
SLD-Dashed
370
    18
100
AcDbLine
 10
-40.2666523044
 20
5.1
 30
0.0
 11
-13.3971114649
 21
5.1
 31
0.0
  0
LINE
  5
EB
330
1F
100
AcDbEntity
  8
SK3
  6
SLD-Dashed
370
    18
100
AcDbLine
 10
-13.3971114649
 20
-5.1
 30
0.0
 11
-40.2666523044
 21
-5.1
 31
0.0
  0
LINE
  5
EC
330
1F
100
AcDbEntity
  8
SK3
  6
SLD-Dashed
370
    18
100
AcDbLine
 10
-13.3971114649
 20
5.1
 30
0.0
 11
-13.33699536
 21
4.99995
 31
0.0
  0
LINE
  5
ED
330
1F
100
AcDbEntity
  8
SK3
  6
SLD-Dashed
370
    18
100
AcDbLine
 10
-13.33699536
 20
-4.99995
 30
0.0
 11
-13.3971114649
 21
-5.1
 31
0.0
  0
LINE
  5
EE
330
1F
100
AcDbEntity
  8
SK3
  6
SLD-Dashed
370
    18
100
AcDbLine
 10
6.0028885351
 20
-16.15
 30
0.0
 11
6.0028885351
 21
-11.75
 31
0.0
  0
LINE
  5
EF
330
1F
100
AcDbEntity
  8
SK3
  6
SLD-Dashed
370
    18
100
AcDbLine
 10
16.0028885351
 20
-11.75
 30
0.0
 11
16.0028885351
 21
-16.15
 31
0.0
  0
LINE
  5
F0
330
1F
100
AcDbEntity
  8
SK3
  6
SLD-Dashed
370
    18
100
AcDbLine
 10
-13.33699536
 20
4.99995
 30
0.0
 11
11.0028885351
 21
4.99995
 31
0.0
  0
LINE
  5
F1
330
1F
100
AcDbEntity
  8
SK3
  6
SLD-Dashed
370
    18
100
AcDbLine
 10
11.0028885351
 20
-4.99995
 30
0.0
 11
-13.33699536
 21
-4.99995
 31
0.0
  0
LINE
  5
F2
330
1F
100
AcDbEntity
  8
1
  6
SLD-Dashed
370
    18
100
AcDbLine
 10
22.1028718682
 20
-22.245
 30
0.0
 11
22.1028718682
 21
22.245
 31
0.0
  0
LINE
  5
F3
330
1F
100
AcDbEntity
  8
1
  6
SLD-Dashed
370
    18
100
AcDbLine
 10
0.8647939257
 20
-15.5663484474
 30
0.0
 11
0.8647939257
 21
15.5663484474
 31
0.0
  0
LINE
  5
F4
330
1F
100
AcDbEntity
  8
SK3
  6
SLD-Solid
370
    18
100
AcDbLine
 10
-40.7862675467
 20
-6.0
 30
0.0
 11
-23.3971114649
 21
-6.0
 31
0.0
  0
LINE
  5
F5
330
1F
100
AcDbEntity
  8
SK3
  6
SLD-Solid
370
    18
100
AcDbLine
 10
-40.7862675467
 20
6.0
 30
0.0
 11
-23.3971114649
 21
6.0
 31
0.0
  0
LINE
  5
F6
330
1F
100
AcDbEntity
  8
SK3
  6
SLD-Dashed
370
    18
100
AcDbLine
 10
-23.3971114649
 20
6.0
 30
0.0
 11
-23.3971114649
 21
-6.0
 31
0.0
  0
LINE
  5
F7
330
1F
100
AcDbEntity
  8
SK3
  6
SLD-Solid
370
    18
100
AcDbLine
 10
30.5028885351
 20
23.65
 30
0.0
 11
30.5028885351
 21
10.0
 31
0.0
  0
LINE
  5
F8
330
1F
100
AcDbEntity
  8
SK3
  6
SLD-Solid
370
    18
100
AcDbLine
 10
46.5028885351
 20
23.65
 30
0.0
 11
46.5028885351
 21
10.0
 31
0.0
  0
LINE
  5
F9
330
1F
100
AcDbEntity
  8
4
  6
SLD-Center
370
    18
100
AcDbLine
 10
38.5028885351
 20
25.65
 30
0.0
 11
38.5028885351
 21
8.0
 31
0.0
  0
LINE
  5
FA
330
1F
100
AcDbEntity
  8
4
  6
SLD-Center
370
    18
100
AcDbLine
 10
0.0
 20
0.0
 30
0.0
 11
65.0028885351
 21
0.0
 31
0.0
  0
LINE
  5
FB
330
1F
100
AcDbEntity
  8
SK4
  6
SLD-Center
370
    18
100
AcDbLine
 10
-49.3971114649
 20
0.0
 30
0.0
 11
65.2242756179
 21
0.0
 31
0.0
  0
ARC
  5
FC
330
1F
100
AcDbEntity
  8
1
  6
SLD-Solid
370
    25
100
AcDbCircle
 10
25.8528885351
 20
-25.0
 30
0.0
 40
0.7500000000000036
100
AcDbArc
 50
180.0
 51
270.0
  0
ARC
  5
FD
330
1F
100
AcDbEntity
  8
1
  6
SLD-Solid
370
    25
100
AcDbCircle
 10
25.8528885351
 20
25.0
 30
0.0
 40
0.7500000000000036
100
AcDbArc
 50
90.0
 51
180.0
  0
ARC
  5
FE
330
1F
100
AcDbEntity
  8
1
  6
SLD-Solid
370
    25
100
AcDbCircle
 10
21.3528885351
 20
22.24
 30
0.0
 40
0.7500000000000107
100
AcDbArc
 50
0.3819746929
 51
90.0
  0
ARC
  5
FF
330
1F
100
AcDbEntity
  8
1
  6
SLD-Solid
370
    25
100
AcDbCircle
 10
21.3528885351
 20
-22.24
 30
0.0
 40
0.7500000000000105
100
AcDbArc
 50
270.0
 51
359.6180253071
  0
ARC
  5
100
330
1F
100
AcDbEntity
  8
1
  6
SLD-Solid
370
    25
100
AcDbCircle
 10
24.3528885351
 20
-22.25
 30
0.0
 40
0.7500000000000036
100
AcDbArc
 50
0.0
 51
90.0
  0
ARC
  5
101
330
1F
100
AcDbEntity
  8
1
  6
SLD-Solid
370
    25
100
AcDbCircle
 10
24.3528885351
 20
22.25
 30
0.0
 40
0.7500000000000036
100
AcDbArc
 50
270.0
 51
0.0
  0
ARC
  5
102
330
1F
100
AcDbEntity
  8
1
  6
SLD-Solid
370
    25
100
AcDbCircle
 10
22.8528552014
 20
22.25
 30
0.0
 40
0.7500000000000071
100
AcDbArc
 50
180.3819746929
 51
270.0
  0
ARC
  5
103
330
1F
100
AcDbEntity
  8
1
  6
SLD-Solid
370
    25
100
AcDbCircle
 10
22.8528552014
 20
-22.25
 30
0.0
 40
0.7500000000000071
100
AcDbArc
 50
90.0
 51
179.6180253071
  0
ARC
  5
104
330
1F
100
AcDbEntity
  8
1
  6
SLD-Solid
370
    25
100
AcDbCircle
 10
1.2028885351
 20
16.291394677
 30
0.0
 40
0.800000000000002
100
AcDbArc
 50
245.0
 51
349.8173681012
  0
ARC
  5
105
330
1F
100
AcDbEntity
  8
1
  6
SLD-Solid
370
    25
100
AcDbCircle
 10
1.2028885351
 20
-16.291394677
 30
0.0
 40
0.800000000000003
100
AcDbArc
 50
10.1715224303
 51
115.0
  0
ARC
  5
106
330
1F
100
AcDbEntity
  8
SK1
  6
SLD-Solid
370
    25
100
AcDbCircle
 10
-48.0221114649
 20
-8.4918452077
 30
0.0
 40
0.375
100
AcDbArc
 50
180.0
 51
261.7022222222
  0
ARC
  5
107
330
1F
100
AcDbEntity
  8
SK1
  6
SLD-Solid
370
    25
100
AcDbCircle
 10
-48.0221114649
 20
8.4918452077
 30
0.0
 40
0.375
100
AcDbArc
 50
98.2977777778
 51
180.0
  0
ARC
  5
108
330
1F
100
AcDbEntity
  8
1
  6
SLD-Solid
370
    25
100
AcDbCircle
 10
38.5029536846
 20
50.4470236171
 30
0.0
 40
26.32017837755935
100
AcDbArc
 50
249.7792731194
 51
290.2269662535
  0
ARC
  5
109
330
1F
100
AcDbEntity
  8
SK3
  6
SLD-Dashed
370
    18
100
AcDbCircle
 10
11.2528885351
 20
-10.0
 30
0.0
 40
0.25
100
AcDbArc
 50
180.0
 51
270.0
  0
ARC
  5
10A
330
1F
100
AcDbEntity
  8
SK3
  6
SLD-Dashed
370
    18
100
AcDbCircle
 10
11.2528885351
 20
10.0
 30
0.0
 40
0.25
100
AcDbArc
 50
90.0
 51
180.0
  0
ARC
  5
10B
330
1F
100
AcDbEntity
  8
SK3
  6
SLD-Dashed
370
    18
100
AcDbCircle
 10
13.7528885351
 20
-10.0
 30
0.0
 40
0.25
100
AcDbArc
 50
270.0
 51
0.0
  0
ARC
  5
10C
330
1F
100
AcDbEntity
  8
SK3
  6
SLD-Dashed
370
    18
100
AcDbCircle
 10
13.7528885351
 20
10.0
 30
0.0
 40
0.25
100
AcDbArc
 50
0.0
 51
90.0
  0
ARC
  5
10D
330
1F
100
AcDbEntity
  8
SK3
  6
SLD-Dashed
370
    18
100
AcDbCircle
 10
19.1278885351
 20
-16.525
 30
0.0
 40
0.375
100
AcDbArc
 50
0.0
 51
90.0
  0
ARC
  5
10E
330
1F
100
AcDbEntity
  8
SK3
  6
SLD-Dashed
370
    18
100
AcDbCircle
 10
19.1278885351
 20
16.525
 30
0.0
 40
0.375
100
AcDbArc
 50
270.0
 51
0.0
  0
ARC
  5
10F
330
1F
100
AcDbEntity
  8
SK3
  6
SLD-Dashed
370
    18
100
AcDbCircle
 10
38.5028885351
 20
-27.4
 30
0.0
 40
7.999999999999998
100
AcDbArc
 50
11.970821306
 51
168.0587939871
  0
ARC
  5
110
330
1F
100
AcDbEntity
  8
SK3
  6
SLD-Dashed
370
    18
100
AcDbCircle
 10
15.7028885351
 20
-11.75
 30
0.0
 40
0.2999999999999989
100
AcDbArc
 50
0.0
 51
90.0
  0
ARC
  5
111
330
1F
100
AcDbEntity
  8
SK3
  6
SLD-Dashed
370
    18
100
AcDbCircle
 10
6.3028885351
 20
-11.75
 30
0.0
 40
0.3000000000000087
100
AcDbArc
 50
89.9999891192
 51
180.0
  0
ARC
  5
112
330
1F
100
AcDbEntity
  8
1
370
    25
100
AcDbCircle
 10
38.4847477569
 20
-52.2688578651
 30
0.0
 40
27.64969154177849
100
AcDbArc
 50
73.5569170929
 51
106.4045114033
  0
SPLINE
  5
113
330
1F
100
AcDbEntity
  8
1
  6
SLD-Solid
370
    25
100
AcDbSpline
210
0.0
220
0.0
230
1.0
 70
     8
 71
     3
 72
    13
 73
     9
 74
     0
 42
0.000000001
 43
0.00000001
 40
0.0
 40
0.0
 40
0.0
 40
0.0
 40
0.1276930445467965
 40
0.2571721777119834
 40
0.3807108240563221
 40
0.5099815904665075
 40
0.7564090097185794
 40
1.0
 40
1.0
 40
1.0
 40
1.0
 10
2.752888535087456
 20
-21.31461266515785
 30
0.0
 10
2.70231845526929
 20
-21.31163087138038
 30
0.0
 10
2.600470953707468
 20
-21.30562557640162
 30
0.0
 10
2.456172484565297
 20
-21.25828029237755
 30
0.0
 10
2.323526607495088
 20
-21.18521584782915
 30
0.0
 10
2.174151011066133
 20
-21.05735346171986
 30
0.0
 10
2.034300266585742
 20
-20.8484325462798
 30
0.0
 10
2.013318628791338
 20
-20.65704551868185
 30
0.0
 10
2.002888535087455
 20
-20.56190591846971
 30
0.0
  0
SPLINE
  5
114
330
1F
100
AcDbEntity
  8
1
  6
SLD-Solid
370
    25
100
AcDbSpline
210
0.0
220
0.0
230
1.0
 70
     8
 71
     3
 72
    13
 73
     9
 74
     0
 42
0.000000001
 43
0.00000001
 40
0.0
 40
0.0
 40
0.0
 40
0.0
 40
0.2431637363802431
 40
0.48955102964171
 40
0.6187925134395665
 40
0.7423253322927309
 40
0.872052163905858
 40
1.0
 40
1.0
 40
1.0
 40
1.0
 10
2.002888535087455
 20
20.56190591846972
 30
0.0
 10
2.01328222448538
 20
20.65687687137433
 30
0.0
 10
2.034207389652973
 20
20.84807778180863
 30
0.0
 10
2.173791333801272
 20
21.05692392405913
 30
0.0
 10
2.323046150954439
 20
21.18488016972467
 30
0.0
 10
2.455705830136906
 20
21.25808969554807
 30
0.0
 10
2.600169122376803
 20
21.3055899818345
 30
0.0
 10
2.702216911431479
 20
21.31161897885687
 30
0.0
 10
2.752888535087456
 20
21.31461266515786
 30
0.0
  0
SPLINE
  5
115
330
1F
100
AcDbEntity
  8
1
  6
SLD-Solid
370
    25
100
AcDbSpline
210
0.0
220
0.0
230
1.0
 70
     8
 71
     3
 72
    11
 73
     7
 74
     0
 42
0.000000001
 43
0.00000001
 40
0.0
 40
0.0
 40
0.0
 40
0.0
 40
0.2495026007141767
 40
0.5006566097649617
 40
0.7500426890765133
 40
1.0
 40
1.0
 40
1.0
 40
1.0
 10
19.8775379762071
 20
-22.9898674574327
 30
0.0
 10
19.84920754321648
 20
-22.9789247223628
 30
0.0
 10
19.79235916370597
 20
-22.95696682442518
 30
0.0
 10
19.33060721196644
 20
-22.78586019503997
 30
0.0
 10
18.63342884137978
 20
-22.5392056341434
 30
0.0
 10
17.96467095610217
 20
-22.33632676904756
 30
0.0
 10
17.62990949548848
 20
-22.23477129328829
 30
0.0
  0
SPLINE
  5
116
330
1F
100
AcDbEntity
  8
1
  6
SLD-Solid
370
    25
100
AcDbSpline
210
0.0
220
0.0
230
1.0
 70
     8
 71
     3
 72
    11
 73
     7
 74
     0
 42
0.000000001
 43
0.00000001
 40
0.0
 40
0.0
 40
0.0
 40
0.0
 40
0.2499573108264314
 40
0.499343390224816
 40
0.7504973994015184
 40
0.9999999999999999
 40
0.9999999999999999
 40
0.9999999999999999
 40
0.9999999999999999
 10
17.62990853521231
 20
22.23477039630352
 30
0.0
 10
17.96466999314529
 20
22.33632587135861
 30
0.0
 10
18.63342787331363
 20
22.53920473512234
 30
0.0
 10
19.33060623833735
 20
22.78585929406265
 30
0.0
 10
19.79235818615264
 20
22.95696592195055
 30
0.0
 10
19.84920656513944
 20
22.97892381967462
 30
0.0
 10
19.87753699785534
 20
22.98986655463279
 30
0.0
  0
SPLINE
  5
117
330
1F
100
AcDbEntity
  8
1
  6
SLD-Solid
370
    25
100
AcDbSpline
210
0.0
220
0.0
230
1.0
 70
     8
 71
     3
 72
     9
 73
     5
 74
     0
 42
0.000000001
 43
0.00000001
 40
0.0
 40
0.0
 40
0.0
 40
0.0
 40
0.4976058161937164
 40
1.0
 40
1.0
 40
1.0
 40
1.0
 10
17.37717085684098
 20
-21.87889331395856
 30
0.0
 10
17.08915949351053
 20
-21.28550019104781
 30
0.0
 10
16.51036528741881
 20
-20.09300383429352
 30
0.0
 10
15.90634487645565
 20
-18.83713329955519
 30
0.0
 10
15.60288853508746
 20
-18.20619124728897
 30
0.0
  0
SPLINE
  5
118
330
1F
100
AcDbEntity
  8
1
  6
SLD-Solid
370
    25
100
AcDbSpline
210
0.0
220
0.0
230
1.0
 70
     8
 71
     3
 72
     9
 73
     5
 74
     0
 42
0.000000001
 43
0.00000001
 40
0.0
 40
0.0
 40
0.0
 40
0.0
 40
0.497605819075272
 40
0.9999999999999999
 40
0.9999999999999999
 40
0.9999999999999999
 40
0.9999999999999999
 10
17.37717009385823
 20
21.87889174342055
 30
0.0
 10
17.08915884775443
 20
21.28549885967222
 30
0.0
 10
16.51036488059584
 20
20.09300299044975
 30
0.0
 10
15.90634473925728
 20
18.83713301496872
 30
0.0
 10
15.60288853508746
 20
18.20619124728897
 30
0.0
  0
SPLINE
  5
119
330
1F
100
AcDbEntity
  8
1
  6
SLD-Solid
370
    25
100
AcDbSpline
210
0.0
220
0.0
230
1.0
 70
     8
 71
     3
 72
     9
 73
     5
 74
     0
 42
0.000000001
 43
0.00000001
 40
0.0
 40
0.0
 40
0.0
 40
0.0
 40
0.2996899280206286
 40
0.9999999999999999
 40
0.9999999999999999
 40
0.9999999999999999
 40
0.9999999999999999
 10
11.40288853508746
 20
-18.0953286017731
 30
0.0
 10
11.25108050363846
 20
-18.38279226453265
 30
0.0
 10
10.74453017526521
 20
-19.34199588094433
 30
0.0
 10
10.23134736964212
 20
-20.29767143128839
 30
0.0
 10
9.871960282097636
 20
-20.96694064473878
 30
0.0
  0
SPLINE
  5
11A
330
1F
100
AcDbEntity
  8
1
  6
SLD-Solid
370
    25
100
AcDbSpline
210
0.0
220
0.0
230
1.0
 70
     8
 71
     3
 72
    13
 73
     9
 74
     0
 42
0.000000001
 43
0.00000001
 40
0.0
 40
0.0
 40
0.0
 40
0.0
 40
0.0063259061439624
 40
0.1701952829511717
 40
0.3653920069217706
 40
0.6023935191828635
 40
0.8752660569633641
 40
1.0
 40
1.0
 40
1.0
 40
1.0
 10
15.60288853508746
 20
-17.96086022438792
 30
0.0
 10
15.60288356917965
 20
-17.959386372625
 30
0.0
 10
15.60274996395941
 20
-17.91973314159225
 30
0.0
 10
15.59043315295733
 20
-17.83449050139621
 30
0.0
 10
15.53868283466148
 20
-17.70747666311436
 30
0.0
 10
15.44378129910598
 20
-17.58312381082188
 30
0.0
 10
15.33193633963864
 20
-17.50232162175443
 30
0.0
 10
15.25273496154288
 20
-17.47957764710517
 30
0.0
 10
15.22788853508746
 20
-17.47244258825881
 30
0.0
  0
SPLINE
  5
11B
330
1F
100
AcDbEntity
  8
1
  6
SLD-Solid
370
    25
100
AcDbSpline
210
0.0
220
0.0
230
1.0
 70
     8
 71
     3
 72
    13
 73
     9
 74
     0
 42
0.000000001
 43
0.00000001
 40
0.0
 40
0.0
 40
0.0
 40
0.0
 40
0.0063259061439674
 40
0.170195282951177
 40
0.3653920069217713
 40
0.6023935191828738
 40
0.8752660569633672
 40
1.0
 40
1.0
 40
1.0
 40
1.0
 10
15.60288853508746
 20
17.96086022438792
 30
0.0
 10
15.60288356917965
 20
17.95938637262499
 30
0.0
 10
15.60274996395943
 20
17.91973314159228
 30
0.0
 10
15.59043315295731
 20
17.83449050139618
 30
0.0
 10
15.53868283466146
 20
17.70747666311436
 30
0.0
 10
15.44378129910599
 20
17.58312381082189
 30
0.0
 10
15.33193633963864
 20
17.50232162175443
 30
0.0
 10
15.25273496154288
 20
17.47957764710518
 30
0.0
 10
15.22788853508746
 20
17.47244258825881
 30
0.0
  0
SPLINE
  5
11C
330
1F
100
AcDbEntity
  8
1
  6
SLD-Solid
370
    25
100
AcDbSpline
210
0.0
220
0.0
230
1.0
 70
     8
 71
     3
 72
    13
 73
     9
 74
     0
 42
0.000000001
 43
0.00000001
 40
0.0
 40
0.0
 40
0.0
 40
0.0
 40
0.1837774491807347
 40
0.3677179083424661
 40
0.5565849668212765
 40
0.7635138418974131
 40
0.9922217845309955
 40
1.0
 40
1.0
 40
1.0
 40
1.0
 10
11.97788853508745
 20
-17.05831908483365
 30
0.0
 10
11.94005210115171
 20
-17.06081523201357
 30
0.0
 10
11.8643456724902
 20
-17.06580974044761
 30
0.0
 10
11.76130856197799
 20
-17.12134961244305
 30
0.0
 10
11.6770612901239
 20
-17.20692196444945
 30
0.0
 10
11.61828622466149
 20
-17.32275366619389
 30
0.0
 10
11.60306073123238
 20
-17.4140233575617
 30
0.0
 10
11.60289401840334
 20
-17.462441945494
 30
0.0
 10
11.60288853508745
 20
-17.46403447087757
 30
0.0
  0
SPLINE
  5
11D
330
1F
100
AcDbEntity
  8
1
  6
SLD-Solid
370
    25
100
AcDbSpline
210
0.0
220
0.0
230
1.0
 70
     8
 71
     3
 72
    13
 73
     9
 74
     0
 42
0.000000001
 43
0.00000001
 40
0.0
 40
0.0
 40
0.0
 40
0.0
 40
0.1837774491807374
 40
0.3677179083424684
 40
0.5565849668212784
 40
0.7635138418974137
 40
0.9922217845309955
 40
1.0
 40
1.0
 40
1.0
 40
1.0
 10
11.97788853508745
 20
17.05831908483365
 30
0.0
 10
11.94005210115171
 20
17.06081523201357
 30
0.0
 10
11.8643456724902
 20
17.06580974044761
 30
0.0
 10
11.76130856197799
 20
17.12134961244305
 30
0.0
 10
11.6770612901239
 20
17.20692196444946
 30
0.0
 10
11.61828622466149
 20
17.32275366619386
 30
0.0
 10
11.60306073123238
 20
17.41402335756177
 30
0.0
 10
11.60289401840334
 20
17.462441945494
 30
0.0
 10
11.60288853508745
 20
17.46403447087757
 30
0.0
  0
SPLINE
  5
11E
330
1F
100
AcDbEntity
  8
1
  6
SLD-Solid
370
    25
100
AcDbSpline
210
0.0
220
0.0
230
1.0
 70
     8
 71
     3
 72
    10
 73
     6
 74
     0
 42
0.000000001
 43
0.00000001
 40
0.0
 40
0.0
 40
0.0
 40
0.0
 40
0.3727033364084612
 40
0.7557565401106641
 40
0.9999999999999999
 40
0.9999999999999999
 40
0.9999999999999999
 40
0.9999999999999999
 10
15.22788853508746
 20
-17.4724425882588
 30
0.0
 10
14.848637741584
 20
-17.39617805769612
 30
0.0
 10
14.07960446623313
 20
-17.24153115191137
 30
0.0
 10
12.96928098963065
 20
-17.10663459882897
 30
0.0
 10
12.25571983244496
 20
-17.07185919387351
 30
0.0
 10
11.97788853508745
 20
-17.05831908483365
 30
0.0
  0
SPLINE
  5
11F
330
1F
100
AcDbEntity
  8
1
  6
SLD-Solid
370
    25
100
AcDbSpline
210
0.0
220
0.0
230
1.0
 70
     8
 71
     3
 72
    10
 73
     6
 74
     0
 42
0.000000001
 43
0.00000001
 40
0.0
 40
0.0
 40
0.0
 40
0.0
 40
0.3727033364084612
 40
0.7557565401106641
 40
0.9999999999999999
 40
0.9999999999999999
 40
0.9999999999999999
 40
0.9999999999999999
 10
15.22788853508746
 20
17.47244258825881
 30
0.0
 10
14.848637741584
 20
17.39617805769612
 30
0.0
 10
14.07960446623313
 20
17.24153115191137
 30
0.0
 10
12.96928098963065
 20
17.10663459882897
 30
0.0
 10
12.25571983244496
 20
17.07185919387351
 30
0.0
 10
11.97788853508745
 20
17.05831908483365
 30
0.0
  0
SPLINE
  5
120
330
1F
100
AcDbEntity
  8
SK3
  6
SLD-Dashed
370
    18
100
AcDbSpline
210
0.0
220
0.0
230
1.0
 70
    24
 71
     3
 72
     9
 73
     5
 74
     0
 42
0.000000001
 43
0.00000001
 40
0.0
 40
0.0
 40
0.0
 40
0.0
 40
0.0773705256641189
 40
1.0
 40
1.0
 40
1.0
 40
1.0
 10
2.001995586234873
 20
16.15
 30
0.0
 10
2.001827952735916
 20
16.15
 30
0.0
 10
1.999661320190568
 20
16.15000000000001
 30
0.0
 10
1.99478923923907
 20
16.15000000000001
 30
0.0
 10
1.990294113751859
 20
16.15
 30
0.0
  0
SPLINE
  5
121
330
1F
100
AcDbEntity
  8
SK3
  6
SLD-Dashed
370
    18
100
AcDbSpline
210
0.0
220
0.0
230
1.0
 70
    24
 71
     3
 72
    10
 73
     6
 74
     0
 42
0.000000001
 43
0.00000001
 40
0.0
 40
0.0
 40
0.0
 40
0.0
 40
0.4888618835283055
 40
0.7771894451347529
 40
1.0
 40
1.0
 40
1.0
 40
1.0
 10
2.002888535087455
 20
-16.15
 30
0.0
 10
2.082227284904856
 20
-16.15
 30
0.0
 10
2.208359513711969
 20
-16.15
 30
0.0
 10
2.350423116913664
 20
-16.15
 30
0.0
 10
2.369550642668139
 20
-16.15
 30
0.0
 10
2.377888535087469
 20
-16.15
 30
0.0
  0
SPLINE
  5
122
330
1F
100
AcDbEntity
  8
SK3
  6
SLD-Dashed
370
    18
100
AcDbSpline
210
0.0
220
0.0
230
1.0
 70
    24
 71
     3
 72
    10
 73
     6
 74
     0
 42
0.000000001
 43
0.00000001
 40
0.0
 40
0.0
 40
0.0
 40
0.0
 40
0.1788894562946426
 40
0.5714234364307331
 40
1.0
 40
1.0
 40
1.0
 40
1.0
 10
2.377888535087469
 20
16.15
 30
0.0
 10
2.37232008725019
 20
16.15
 30
0.0
 10
2.354532892495043
 20
16.15
 30
0.0
 10
2.204906357366143
 20
16.15000000000001
 30
0.0
 10
2.072169960452217
 20
16.15
 30
0.0
 10
2.002888535087455
 20
16.15
 30
0.0
  0
INSERT
  5
123
330
1F
100
AcDbEntity
  8
81
100
AcDbBlockReference
  2
Block11
 10
-28.6235941154
 20
-130.2676275275
 30
0.0
  0
INSERT
  5
124
330
1F
100
AcDbEntity
  8
80
100
AcDbBlockReference
  2
Block12
 10
-61.7244756305
 20
-130.3356800267
 30
0.0
  0
DIMENSION
  5
125
330
1F
100
AcDbEntity
  8
2
100
AcDbDimension
  2
_D
 10
63.0028885351
 20
58.5935350136
 30
0.0
 11
31.0744225447
 21
58.5935350136
 31
0.0
 70
   160
  1
<>
 71
     2
 42
-1.0
  3
SLDDIMSTYLE0
100
AcDbAlignedDimension
 13
0.0028885351
 23
7.9375
 33
0.0
 14
63.0028885351
 24
18.4753866082
 34
0.0
100
AcDbRotatedDimension
  0
DIMENSION
  5
131
330
1F
100
AcDbEntity
  8
SK2
100
AcDbDimension
  2
_D_1
 10
22.1028718682
 20
50.4287686505
 30
0.0
 11
13.6415430128
 21
50.4287686505
 31
0.0
 70
   160
  1
<>
 71
     2
 42
-1.0
  3
SLDDIMSTYLE0
100
AcDbAlignedDimension
 13
0.0028885351
 23
15.875
 33
0.0
 14
22.1028718682
 24
22.245
 34
0.0
100
AcDbRotatedDimension
  0
DIMENSION
  5
13B
330
1F
100
AcDbEntity
  8
SK2
100
AcDbDimension
  2
_D_2
 10
38.5028885351
 20
32.8855544381
 30
0.0
 11
50.8243303688
 21
32.8855544381
 31
0.0
 70
   160
  1
<>
 71
     2
 42
-1.0
  3
SLDDIMSTYLE0
100
AcDbAlignedDimension
 13
63.0028885351
 23
18.4753866082
 33
0.0
 14
38.5028885351
 24
25.65
 34
0.0
100
AcDbRotatedDimension
  0
DIMENSION
  5
145
330
1F
100
AcDbEntity
  8
SK2
100
AcDbDimension
  2
_D_3
 10
25.1028885351
 20
41.1606554817
 30
0.0
 11
43.5422414504
 21
41.1606554817
 31
0.0
 70
   160
  1
<>
 71
     2
 42
-1.0
  3
SLDDIMSTYLE0
100
AcDbAlignedDimension
 13
63.0028885351
 23
18.4753866082
 33
0.0
 14
25.1028885351
 24
25.0
 34
0.0
100
AcDbRotatedDimension
  0
DIMENSION
  5
14F
330
1F
100
AcDbEntity
  8
SK2
100
AcDbDimension
  2
_D_4
 10
22.1028718682
 20
50.4287686505
 30
0.0
 11
43.5422414504
 21
50.4287686505
 31
0.0
 70
   160
  1
<>
 71
     2
 42
-1.0
  3
SLDDIMSTYLE0
100
AcDbAlignedDimension
 13
63.0028885351
 23
18.4753866082
 33
0.0
 14
22.1028718682
 24
22.245
 34
0.0
100
AcDbRotatedDimension
  0
DIMENSION
  5
159
330
1F
100
AcDbEntity
  8
SK2
100
AcDbDimension
  2
_D_5
 10
98.8179641158
 20
-25.75
 30
0.0
 11
98.8179641158
 21
-0.5829732082
 31
0.0
 70
   160
  1
%%c<>
 71
     2
 42
-1.0
  3
SLDDIMSTYLE0
100
AcDbAlignedDimension
 13
50.4028885351
 23
25.75
 33
0.0
 14
50.4028885351
 24
-25.75
 34
0.0
 50
90.0
100
AcDbRotatedDimension
  0
DIMENSION
  5
164
330
1F
100
AcDbEntity
  8
SK2
100
AcDbDimension
  2
_D_6
 10
88.8828985507
 20
-18.4753866082
 30
0.0
 11
88.8828985507
 21
-0.5829732082
 31
0.0
 70
   160
  1
%%c<>
 71
     2
 42
-1.0
  3
SLDDIMSTYLE1
100
AcDbAlignedDimension
 13
63.0028885351
 23
18.4753866082
 33
0.0
 14
63.0028885351
 24
-18.4753866082
 34
0.0
 50
90.0
100
AcDbRotatedDimension
  0
DIMENSION
  5
170
330
1F
100
AcDbEntity
  8
SK2
100
AcDbDimension
  2
_D_7
 10
79.2984248312
 20
10.0
 30
0.0
 11
79.2984248312
 21
-0.5829732082
 31
0.0
 70
   160
  1
%%c<>
 71
     2
 42
-1.0
  3
SLDDIMSTYLE0
100
AcDbAlignedDimension
 13
62.0028885351
 23
-10.0
 33
0.0
 14
62.0028885351
 24
10.0
 34
0.0
 50
90.0
100
AcDbRotatedDimension
  0
DIMENSION
  5
17B
330
1F
100
AcDbEntity
  8
SK2
100
AcDbDimension
  2
_D_8
 10
50.4028885351
 20
-35.1454650113
 30
0.0
 11
56.9759581373
 21
-35.1454650113
 31
0.0
 70
   160
  1
<>
 71
     2
 42
-1.0
  3
SLDDIMSTYLE2
100
AcDbAlignedDimension
 13
63.0028885351
 23
-18.4753866082
 33
0.0
 14
50.4028885351
 24
-25.75
 34
0.0
100
AcDbRotatedDimension
  0
DIMENSION
  5
188
330
1F
100
AcDbEntity
  8
SK2
100
AcDbDimension
  2
_D_9
 10
-54.9345646967
 20
6.0
 30
0.0
 11
-54.9345646967
 21
0.1478005107
 31
0.0
 70
   160
  1
M12
 71
     2
 42
-1.0
  3
SLDDIMSTYLE2
100
AcDbAlignedDimension
 13
-40.7862675467
 23
-6.0
 33
0.0
 14
-40.7862675467
 24
6.0
 34
0.0
 50
90.0
100
AcDbRotatedDimension
  0
DIMENSION
  5
194
330
1F
100
AcDbEntity
  8
SK2
100
AcDbDimension
  2
_D_10
 10
-65.2423977282
 20
-15.875
 30
0.0
 11
-65.2423977282
 21
0.1478005107
 31
0.0
 70
   160
  1
%%c<>
 71
     2
 42
-1.0
  3
SLDDIMSTYLE0
100
AcDbAlignedDimension
 13
0.0028885351
 23
15.875
 33
0.0
 14
0.2028885351
 24
-15.875
 34
0.0
 50
90.0
100
AcDbRotatedDimension
  0
DIMENSION
  5
19F
330
1F
100
AcDbEntity
  8
SK2
100
AcDbDimension
  2
_D_11
 10
-76.0024509722
 20
22.99
 30
0.0
 11
-76.0024509722
 21
0.1478005107
 31
0.0
 70
   160
  1
%%c<>
 71
     2
 42
-1.0
  3
SLDDIMSTYLE0
100
AcDbAlignedDimension
 13
21.3528885351
 23
-22.99
 33
0.0
 14
19.8775379581
 24
22.99
 34
0.0
 50
90.0
100
AcDbRotatedDimension
  0
DIMENSION
  5
1AA
330
1F
100
AcDbEntity
  8
SK2
100
AcDbDimension
  2
_D_12
 10
14.0028885351
 20
-43.7003742782
 30
0.0
 11
40.2458758622
 21
-43.7003742782
 31
0.0
 70
   160
  1
<>
 71
     2
 42
-1.0
  3
SLDDIMSTYLE0
100
AcDbAlignedDimension
 13
63.0028885351
 23
-18.4753866082
 33
0.0
 14
14.0028885351
 24
-10.0
 34
0.0
100
AcDbRotatedDimension
  0
MTEXT
  5
1B4
330
1F
100
AcDbEntity
  8
SK6
 62
     5
100
AcDbMText
 10
-31.431079472
 20
21.2052877838
 30
0.0
 40
3.5
 41
0.0
 71
     1
 72
     1
  1
MAS-403 BT30
  7
SLDTEXTSTYLE0
 73
     1
 44
1.0
  0
MTEXT
  5
1B5
330
1F
100
AcDbEntity
  8
SK6
 62
     5
100
AcDbMText
 10
-48.4954167561
 20
-40.2143316114
 30
0.0
 40
3.5
 41
0.0
 71
     1
 72
     1
  1
A2B20-30 20 063
  7
SLDTEXTSTYLE0
 73
     1
 44
1.0
  0
ENDSEC
  0
SECTION
  2
OBJECTS
  0
DICTIONARY
  5
C
330
0
100
AcDbDictionary
281
     1
  3
ACAD_GROUP
350
D
  3
ACAD_LAYOUT
350
1A
  3
ACAD_MLINESTYLE
350
17
  3
ACAD_PLOTSETTINGS
350
19
  3
ACAD_PLOTSTYLENAME
350
E
  3
ACAD_SCALELIST
350
47
  0
DICTIONARY
  5
D
102
{ACAD_REACTORS
330
C
102
}
330
C
100
AcDbDictionary
281
     1
  0
DICTIONARY
  5
1A
102
{ACAD_REACTORS
330
C
102
}
330
C
100
AcDbDictionary
281
     1
  3
Layout1
350
1E
  3
Layout2
350
26
  3
Model
350
22
  0
DICTIONARY
  5
17
102
{ACAD_REACTORS
330
C
102
}
330
C
100
AcDbDictionary
281
     1
  3
Standard
350
18
  0
DICTIONARY
  5
19
102
{ACAD_REACTORS
330
C
102
}
330
C
100
AcDbDictionary
281
     1
  0
ACDBDICTIONARYWDFLT
  5
E
102
{ACAD_REACTORS
330
C
102
}
330
C
100
AcDbDictionary
281
     1
  3
Normal
350
F
100
AcDbDictionaryWithDefault
340
F
  0
DICTIONARY
  5
47
102
{ACAD_REACTORS
330
C
102
}
330
C
100
AcDbDictionary
281
     1
  3
A0
350
48
  3
A1
350
49
  3
A2
350
4A
  3
A3
350
4B
  3
A4
350
4C
  3
A5
350
4D
  3
A6
350
4E
  3
A7
350
4F
  3
A8
350
50
  3
A9
350
51
  3
B0
350
52
  3
B1
350
53
  3
B2
350
54
  3
B3
350
55
  3
B4
350
56
  3
B5
350
57
  3
B6
350
58
  3
B7
350
59
  3
B8
350
5A
  3
B9
350
5B
  3
C0
350
5C
  3
C1
350
5D
  3
C2
350
5E
  3
C3
350
5F
  3
C4
350
60
  3
C5
350
61
  3
C6
350
62
  3
C7
350
63
  3
C8
350
64
  3
C9
350
65
  3
D0
350
66
  3
D1
350
67
  3
D2
350
68
  0
LAYOUT
  5
1E
102
{ACAD_REACTORS
330
1A
102
}
330
1A
100
AcDbPlotSettings
  1

  2
none_device
  4

  6

 40
0.0
 41
0.0
 42
0.0
 43
0.0
 44
0.0
 45
0.0
 46
0.0
 47
0.0
 48
0.0
 49
0.0
140
0.0
141
0.0
142
1.0
143
1.0
 70
   688
 72
     1
 73
     0
 74
     5
  7

 75
    16
147
1.0
148
0.0
149
0.0
100
AcDbLayout
  1
Layout1
 70
     1
 71
     1
 10
0.0
 20
0.0
 11
420.0
 21
297.0
 12
0.0
 22
0.0
 32
0.0
 14
1.0000000000E+20
 24
1.0000000000E+20
 34
1.0000000000E+20
 15
-1.0000000000E+20
 25
-1.0000000000E+20
 35
-1.0000000000E+20
146
0.0
 13
0.0
 23
0.0
 33
0.0
 16
1.0
 26
0.0
 36
0.0
 17
0.0
 27
1.0
 37
0.0
 76
     0
330
1B
  0
LAYOUT
  5
26
102
{ACAD_REACTORS
330
1A
102
}
330
1A
100
AcDbPlotSettings
  1

  2
none_device
  4

  6

 40
0.0
 41
0.0
 42
0.0
 43
0.0
 44
0.0
 45
0.0
 46
0.0
 47
0.0
 48
0.0
 49
0.0
140
0.0
141
0.0
142
1.0
143
1.0
 70
   688
 72
     1
 73
     0
 74
     5
  7

 75
    16
147
1.0
148
0.0
149
0.0
100
AcDbLayout
  1
Layout2
 70
     1
 71
     2
 10
0.0
 20
0.0
 11
0.0
 21
0.0
 12
0.0
 22
0.0
 32
0.0
 14
0.0
 24
0.0
 34
0.0
 15
0.0
 25
0.0
 35
0.0
146
0.0
 13
0.0
 23
0.0
 33
0.0
 16
1.0
 26
0.0
 36
0.0
 17
0.0
 27
1.0
 37
0.0
 76
     0
330
23
  0
LAYOUT
  5
22
102
{ACAD_REACTORS
330
1A
102
}
330
1A
100
AcDbPlotSettings
  1

  2
none_device
  4
Letter_(8.50_x_11.00_Inches)
  6

 40
6.35
 41
6.35
 42
6.35000508
 43
6.35000508
 44
215.9
 45
279.4
 46
0.0
 47
0.0
 48
0.0
 49
0.0
140
0.0
141
0.0
142
1.0
143
1.0
 70
  1712
 72
     1
 73
     0
 74
     0
  7

 75
     0
147
1.0
148
0.0
149
0.0
100
AcDbLayout
  1
Model
 70
     1
 71
     0
 10
0.0
 20
0.0
 11
297.0
 21
210.0
 12
0.0
 22
0.0
 32
0.0
 14
0.0
 24
0.0
 34
0.0
 15
297.0
 25
210.0
 35
0.0
146
0.0
 13
0.0
 23
0.0
 33
0.0
 16
1.0
 26
0.0
 36
0.0
 17
0.0
 27
1.0
 37
0.0
 76
     0
330
1F
331
29
  0
MLINESTYLE
  5
18
102
{ACAD_REACTORS
330
17
102
}
330
17
100
AcDbMlineStyle
  2
Standard
 70
     0
  3

 62
   256
 51
90.0
 52
90.0
 71
     2
 49
0.5
 62
   256
  6
BYLAYER
 49
-0.5
 62
   256
  6
BYLAYER
  0
ACDBPLACEHOLDER
  5
F
102
{ACAD_REACTORS
330
E
102
}
330
E
  0
SCALE
  5
48
102
{ACAD_REACTORS
330
47
102
}
330
47
100
AcDbScale
 70
     0
300
1:1
140
1.0
141
1.0
290
     1
  0
SCALE
  5
49
102
{ACAD_REACTORS
330
47
102
}
330
47
100
AcDbScale
 70
     0
300
1:2
140
1.0
141
2.0
290
     0
  0
SCALE
  5
4A
102
{ACAD_REACTORS
330
47
102
}
330
47
100
AcDbScale
 70
     0
300
1:4
140
1.0
141
4.0
290
     0
  0
SCALE
  5
4B
102
{ACAD_REACTORS
330
47
102
}
330
47
100
AcDbScale
 70
     0
300
1:5
140
1.0
141
5.0
290
     0
  0
SCALE
  5
4C
102
{ACAD_REACTORS
330
47
102
}
330
47
100
AcDbScale
 70
     0
300
1:8
140
1.0
141
8.0
290
     0
  0
SCALE
  5
4D
102
{ACAD_REACTORS
330
47
102
}
330
47
100
AcDbScale
 70
     0
300
1:10
140
1.0
141
10.0
290
     0
  0
SCALE
  5
4E
102
{ACAD_REACTORS
330
47
102
}
330
47
100
AcDbScale
 70
     0
300
1:16
140
1.0
141
16.0
290
     0
  0
SCALE
  5
4F
102
{ACAD_REACTORS
330
47
102
}
330
47
100
AcDbScale
 70
     0
300
1:20
140
1.0
141
20.0
290
     0
  0
SCALE
  5
50
102
{ACAD_REACTORS
330
47
102
}
330
47
100
AcDbScale
 70
     0
300
1:30
140
1.0
141
30.0
290
     0
  0
SCALE
  5
51
102
{ACAD_REACTORS
330
47
102
}
330
47
100
AcDbScale
 70
     0
300
1:40
140
1.0
141
40.0
290
     0
  0
SCALE
  5
52
102
{ACAD_REACTORS
330
47
102
}
330
47
100
AcDbScale
 70
     0
300
1:50
140
1.0
141
50.0
290
     0
  0
SCALE
  5
53
102
{ACAD_REACTORS
330
47
102
}
330
47
100
AcDbScale
 70
     0
300
1:100
140
1.0
141
100.0
290
     0
  0
SCALE
  5
54
102
{ACAD_REACTORS
330
47
102
}
330
47
100
AcDbScale
 70
     0
300
2:1
140
2.0
141
1.0
290
     0
  0
SCALE
  5
55
102
{ACAD_REACTORS
330
47
102
}
330
47
100
AcDbScale
 70
     0
300
4:1
140
4.0
141
1.0
290
     0
  0
SCALE
  5
56
102
{ACAD_REACTORS
330
47
102
}
330
47
100
AcDbScale
 70
     0
300
8:1
140
8.0
141
1.0
290
     0
  0
SCALE
  5
57
102
{ACAD_REACTORS
330
47
102
}
330
47
100
AcDbScale
 70
     0
300
10:1
140
10.0
141
1.0
290
     0
  0
SCALE
  5
58
102
{ACAD_REACTORS
330
47
102
}
330
47
100
AcDbScale
 70
     0
300
100:1
140
100.0
141
1.0
290
     0
  0
SCALE
  5
59
102
{ACAD_REACTORS
330
47
102
}
330
47
100
AcDbScale
 70
     0
300
1/128" = 1'-0"
140
0.0078125
141
12.0
290
     0
  0
SCALE
  5
5A
102
{ACAD_REACTORS
330
47
102
}
330
47
100
AcDbScale
 70
     0
300
1/64" = 1'-0"
140
0.015625
141
12.0
290
     0
  0
SCALE
  5
5B
102
{ACAD_REACTORS
330
47
102
}
330
47
100
AcDbScale
 70
     0
300
1/32" = 1'-0"
140
0.03125
141
12.0
290
     0
  0
SCALE
  5
5C
102
{ACAD_REACTORS
330
47
102
}
330
47
100
AcDbScale
 70
     0
300
1/16" = 1'-0"
140
0.0625
141
12.0
290
     0
  0
SCALE
  5
5D
102
{ACAD_REACTORS
330
47
102
}
330
47
100
AcDbScale
 70
     0
300
3/32" = 1'-0"
140
0.09375
141
12.0
290
     0
  0
SCALE
  5
5E
102
{ACAD_REACTORS
330
47
102
}
330
47
100
AcDbScale
 70
     0
300
1/8" = 1'-0"
140
0.125
141
12.0
290
     0
  0
SCALE
  5
5F
102
{ACAD_REACTORS
330
47
102
}
330
47
100
AcDbScale
 70
     0
300
3/16" = 1'-0"
140
0.1875
141
12.0
290
     0
  0
SCALE
  5
60
102
{ACAD_REACTORS
330
47
102
}
330
47
100
AcDbScale
 70
     0
300
1/4" = 1'-0"
140
0.25
141
12.0
290
     0
  0
SCALE
  5
61
102
{ACAD_REACTORS
330
47
102
}
330
47
100
AcDbScale
 70
     0
300
3/8" = 1'-0"
140
0.375
141
12.0
290
     0
  0
SCALE
  5
62
102
{ACAD_REACTORS
330
47
102
}
330
47
100
AcDbScale
 70
     0
300
1/2" = 1'-0"
140
0.5
141
12.0
290
     0
  0
SCALE
  5
63
102
{ACAD_REACTORS
330
47
102
}
330
47
100
AcDbScale
 70
     0
300
3/4" = 1'-0"
140
0.75
141
12.0
290
     0
  0
SCALE
  5
64
102
{ACAD_REACTORS
330
47
102
}
330
47
100
AcDbScale
 70
     0
300
1" = 1'-0"
140
1.0
141
12.0
290
     0
  0
SCALE
  5
65
102
{ACAD_REACTORS
330
47
102
}
330
47
100
AcDbScale
 70
     0
300
1-1/2" = 1'-0"
140
1.5
141
12.0
290
     0
  0
SCALE
  5
66
102
{ACAD_REACTORS
330
47
102
}
330
47
100
AcDbScale
 70
     0
300
3" = 1'-0"
140
3.0
141
12.0
290
     0
  0
SCALE
  5
67
102
{ACAD_REACTORS
330
47
102
}
330
47
100
AcDbScale
 70
     0
300
6" = 1'-0"
140
6.0
141
12.0
290
     0
  0
SCALE
  5
68
102
{ACAD_REACTORS
330
47
102
}
330
47
100
AcDbScale
 70
     0
300
1'-0" = 1'-0"
140
12.0
141
12.0
290
     0
  0
ENDSEC
  0
EOF
