  0
SECTION
  2
HEADER
  9
$ACADVER
  1
AC1015
  9
$ACADMAINTVER
 70
     6
  9
$DWGCODEPAGE
  3
ANSI_1250
  9
$INSBASE
 10
0.0
 20
0.0
 30
0.0
  9
$EXTMIN
 10
0.0
 20
0.0
 30
0.0
  9
$EXTMAX
 10
297.0
 20
210.0
 30
0.0
  9
$LIMMIN
 10
0.0
 20
0.0
  9
$LIMMAX
 10
297.0
 20
210.0
  9
$ORTHOMODE
 70
     0
  9
$REGENMODE
 70
     1
  9
$FILLMODE
 70
     1
  9
$QTEXTMODE
 70
     0
  9
$MIRRTEXT
 70
     1
  9
$LTSCALE
 40
1.0
  9
$ATTMODE
 70
     1
  9
$TEXTSIZE
 40
3.5
  9
$TRACEWID
 40
1.0
  9
$TEXTSTYLE
  7
Standard
  9
$CLAYER
  8
0
  9
$CELTYPE
  6
ByLayer
  9
$CECOLOR
 62
   256
  9
$CELTSCALE
 40
1.0
  9
$DISPSILH
 70
     0
  9
$DIMSCALE
 40
1.0
  9
$DIMASZ
 40
3.302
  9
$DIMEXO
 40
1.0
  9
$DIMDLI
 40
3.75
  9
$DIMRND
 40
0.0
  9
$DIMDLE
 40
0.0
  9
$DIMEXE
 40
1.0
  9
$DIMTP
 40
0.0
  9
$DIMTM
 40
0.0
  9
$DIMTXT
 40
3.5
  9
$DIMCEN
 40
2.5
  9
$DIMTSZ
 40
0.0
  9
$DIMTOL
 70
     0
  9
$DIMLIM
 70
     0
  9
$DIMTIH
 70
     1
  9
$DIMTOH
 70
     1
  9
$DIMSE1
 70
     0
  9
$DIMSE2
 70
     0
  9
$DIMTAD
 70
     1
  9
$DIMZIN
 70
     0
  9
$DIMBLK
  1

  9
$DIMASO
 70
     1
  9
$DIMSHO
 70
     1
  9
$DIMPOST
  1

  9
$DIMAPOST
  1

  9
$DIMALT
 70
     0
  9
$DIMALTD
 70
     3
  9
$DIMALTF
 40
0.0393700787
  9
$DIMLFAC
 40
1.0
  9
$DIMTOFL
 70
     1
  9
$DIMTVP
 40
0.0
  9
$DIMTIX
 70
     0
  9
$DIMSOXD
 70
     0
  9
$DIMSAH
 70
     0
  9
$DIMBLK1
  1

  9
$DIMBLK2
  1

  9
$DIMSTYLE
  2
ISO-25
  9
$DIMCLRD
 70
     0
  9
$DIMCLRE
 70
     0
  9
$DIMCLRT
 70
     0
  9
$DIMTFAC
 40
1.0
  9
$DIMGAP
 40
1.524
  9
$DIMJUST
 70
     0
  9
$DIMSD1
 70
     0
  9
$DIMSD2
 70
     0
  9
$DIMTOLJ
 70
     0
  9
$DIMTZIN
 70
     0
  9
$DIMALTZ
 70
     0
  9
$DIMALTTZ
 70
     0
  9
$DIMUPT
 70
     0
  9
$DIMDEC
 70
     2
  9
$DIMTDEC
 70
     2
  9
$DIMALTU
 70
     2
  9
$DIMALTTD
 70
     3
  9
$DIMTXSTY
  7
Standard
  9
$DIMAUNIT
 70
     0
  9
$DIMADEC
 70
     2
  9
$DIMALTRND
 40
0.0
  9
$DIMAZIN
 70
     0
  9
$DIMDSEP
 70
    44
  9
$DIMATFIT
 70
     3
  9
$DIMFRAC
 70
     0
  9
$DIMLDRBLK
  1

  9
$DIMLUNIT
 70
     2
  9
$DIMLWD
 70
    -2
  9
$DIMLWE
 70
    -2
  9
$DIMTMOVE
 70
     0
  9
$LUNITS
 70
     2
  9
$LUPREC
 70
     2
  9
$SKETCHINC
 40
1.0
  9
$FILLETRAD
 40
10.0
  9
$AUNITS
 70
     0
  9
$AUPREC
 70
     2
  9
$MENU
  1
.
  9
$ELEVATION
 40
0.0
  9
$PELEVATION
 40
0.0
  9
$THICKNESS
 40
0.0
  9
$LIMCHECK
 70
     0
  9
$CHAMFERA
 40
0.0
  9
$CHAMFERB
 40
0.0
  9
$CHAMFERC
 40
0.0
  9
$CHAMFERD
 40
0.0
  9
$SKPOLY
 70
     0
  9
$TDCREATE
 40
2459290.468551239
  9
$TDUCREATE
 40
2459290.426884572
  9
$TDUPDATE
 40
2459290.468552431
  9
$TDUUPDATE
 40
2459290.426885764
  9
$TDINDWG
 40
0.0000000116
  9
$TDUSRTIMER
 40
0.0000000116
  9
$USRTIMER
 70
     1
  9
$ANGBASE
 50
0.0
  9
$ANGDIR
 70
     0
  9
$PDMODE
 70
     0
  9
$PDSIZE
 40
-1.0
  9
$PLINEWID
 40
0.0
  9
$SPLFRAME
 70
     0
  9
$SPLINETYPE
 70
     6
  9
$SPLINESEGS
 70
     8
  9
$HANDSEED
  5
1AE
  9
$SURFTAB1
 70
     6
  9
$SURFTAB2
 70
     6
  9
$SURFTYPE
 70
     6
  9
$SURFU
 70
     6
  9
$SURFV
 70
     6
  9
$UCSBASE
  2

  9
$UCSNAME
  2

  9
$UCSORG
 10
0.0
 20
0.0
 30
0.0
  9
$UCSXDIR
 10
1.0
 20
0.0
 30
0.0
  9
$UCSYDIR
 10
0.0
 20
1.0
 30
0.0
  9
$UCSORTHOREF
  2

  9
$UCSORTHOVIEW
 70
     0
  9
$UCSORGTOP
 10
0.0
 20
0.0
 30
0.0
  9
$UCSORGBOTTOM
 10
0.0
 20
0.0
 30
0.0
  9
$UCSORGLEFT
 10
0.0
 20
0.0
 30
0.0
  9
$UCSORGRIGHT
 10
0.0
 20
0.0
 30
0.0
  9
$UCSORGFRONT
 10
0.0
 20
0.0
 30
0.0
  9
$UCSORGBACK
 10
0.0
 20
0.0
 30
0.0
  9
$PUCSBASE
  2

  9
$PUCSNAME
  2

  9
$PUCSORG
 10
0.0
 20
0.0
 30
0.0
  9
$PUCSXDIR
 10
1.0
 20
0.0
 30
0.0
  9
$PUCSYDIR
 10
0.0
 20
1.0
 30
0.0
  9
$PUCSORTHOREF
  2

  9
$PUCSORTHOVIEW
 70
     0
  9
$PUCSORGTOP
 10
0.0
 20
0.0
 30
0.0
  9
$PUCSORGBOTTOM
 10
0.0
 20
0.0
 30
0.0
  9
$PUCSORGLEFT
 10
0.0
 20
0.0
 30
0.0
  9
$PUCSORGRIGHT
 10
0.0
 20
0.0
 30
0.0
  9
$PUCSORGFRONT
 10
0.0
 20
0.0
 30
0.0
  9
$PUCSORGBACK
 10
0.0
 20
0.0
 30
0.0
  9
$USERI1
 70
     0
  9
$USERI2
 70
     0
  9
$USERI3
 70
     0
  9
$USERI4
 70
     0
  9
$USERI5
 70
     0
  9
$USERR1
 40
0.0
  9
$USERR2
 40
0.0
  9
$USERR3
 40
0.0
  9
$USERR4
 40
0.0
  9
$USERR5
 40
0.0
  9
$WORLDVIEW
 70
     1
  9
$SHADEDGE
 70
     3
  9
$SHADEDIF
 70
    70
  9
$TILEMODE
 70
     1
  9
$MAXACTVP
 70
    64
  9
$PINSBASE
 10
0.0
 20
0.0
 30
0.0
  9
$PLIMCHECK
 70
     0
  9
$PEXTMIN
 10
1.0000000000E+20
 20
1.0000000000E+20
 30
1.0000000000E+20
  9
$PEXTMAX
 10
-1.0000000000E+20
 20
-1.0000000000E+20
 30
-1.0000000000E+20
  9
$PLIMMIN
 10
0.0
 20
0.0
  9
$PLIMMAX
 10
420.0
 20
297.0
  9
$UNITMODE
 70
     0
  9
$VISRETAIN
 70
     1
  9
$PLINEGEN
 70
     0
  9
$PSLTSCALE
 70
     1
  9
$TREEDEPTH
 70
  3020
  9
$CMLSTYLE
  2
Standard
  9
$CMLJUST
 70
     0
  9
$CMLSCALE
 40
20.0
  9
$PROXYGRAPHICS
 70
     1
  9
$MEASUREMENT
 70
     1
  9
$CELWEIGHT
370
    -1
  9
$ENDCAPS
280
     0
  9
$JOINSTYLE
280
     0
  9
$LWDISPLAY
290
     1
  9
$INSUNITS
 70
     4
  9
$HYPERLINKBASE
  1

  9
$STYLESHEET
  1

  9
$XEDIT
290
     1
  9
$CEPSNTYPE
380
     0
  9
$PSTYLEMODE
290
     1
  9
$FINGERPRINTGUID
  2
{ACBEABAD-C7D6-4EDB-BD4D-9A00E54DA823}
  9
$VERSIONGUID
  2
{FAEB1C32-E019-11D5-929B-00C0DF256EC4}
  9
$EXTNAMES
290
     1
  9
$PSVPSCALE
 40
0.0
  9
$OLESTARTUP
290
     0
  0
ENDSEC
  0
SECTION
  2
CLASSES
  0
CLASS
  1
ACDBDICTIONARYWDFLT
  2
AcDbDictionaryWithDefault
  3
ObjectDBX Classes
 90
        0
280
     0
281
     0
  0
CLASS
  1
VISUALSTYLE
  2
AcDbVisualStyle
  3
ObjectDBX Classes
 90
     4095
280
     0
281
     0
  0
CLASS
  1
MATERIAL
  2
AcDbMaterial
  3
ObjectDBX Classes
 90
     1153
280
     0
281
     0
  0
CLASS
  1
SCALE
  2
AcDbScale
  3
ObjectDBX Classes
 90
     1153
280
     0
281
     0
  0
CLASS
  1
TABLESTYLE
  2
AcDbTableStyle
  3
ObjectDBX Classes
 90
     4095
280
     0
281
     0
  0
CLASS
  1
MLEADERSTYLE
  2
AcDbMLeaderStyle
  3
ACDB_MLEADERSTYLE_CLASS
 90
     4095
280
     0
281
     0
  0
CLASS
  1
SUN
  2
AcDbSun
  3
SCENEOE
 90
     1153
280
     0
281
     0
  0
CLASS
  1
ACDBPLACEHOLDER
  2
AcDbPlaceHolder
  3
ObjectDBX Classes
 90
        0
280
     0
281
     0
  0
CLASS
  1
LAYOUT
  2
AcDbLayout
  3
ObjectDBX Classes
 90
        0
280
     0
281
     0
  0
ENDSEC
  0
SECTION
  2
TABLES
  0
TABLE
  2
VPORT
  5
8
330
0
100
AcDbSymbolTable
 70
     1
  0
VPORT
  5
29
330
8
100
AcDbSymbolTableRecord
100
AcDbViewportTableRecord
  2
*Active
 70
     0
 10
0.0
 20
0.0
 11
1.0
 21
1.0
 12
148.5
 22
105.0
 13
0.0
 23
0.0
 14
10.0
 24
10.0
 15
10.0
 25
10.0
 16
0.0
 26
0.0
 36
1.0
 17
0.0
 27
0.0
 37
0.0
 40
210.0
 41
1.4142857143
 42
50.0
 43
0.0
 44
0.0
 50
0.0
 51
0.0
 71
     0
 72
  2000
 73
     1
 74
     3
 75
     0
 76
     0
 77
     0
 78
     0
281
     0
 65
     1
110
0.0
120
0.0
130
0.0
111
1.0
121
0.0
131
0.0
112
0.0
122
1.0
132
0.0
 79
     0
146
0.0
  0
ENDTAB
  0
TABLE
  2
LTYPE
  5
5
330
0
100
AcDbSymbolTable
 70
     8
  0
LTYPE
  5
14
330
5
100
AcDbSymbolTableRecord
100
AcDbLinetypeTableRecord
  2
ByBlock
 70
     0
  3

 72
    65
 73
     0
 40
0.0
  0
LTYPE
  5
15
330
5
100
AcDbSymbolTableRecord
100
AcDbLinetypeTableRecord
  2
ByLayer
 70
     0
  3

 72
    65
 73
     0
 40
0.0
  0
LTYPE
  5
16
330
5
100
AcDbSymbolTableRecord
100
AcDbLinetypeTableRecord
  2
Continuous
 70
     0
  3
Solid line
 72
    65
 73
     0
 40
0.0
  0
LTYPE
  5
6E
330
5
100
AcDbSymbolTableRecord
100
AcDbLinetypeTableRecord
  2
SLD-Solid
 70
     0
  3
SolidWorks Line Style
 72
    65
 73
     0
 40
0.0
  0
LTYPE
  5
6F
330
5
100
AcDbSymbolTableRecord
100
AcDbLinetypeTableRecord
  2
SLD-Dashed
 70
     0
  3
SolidWorks Line Style
 72
    65
 73
     2
 40
1.905
 49
1.27
 74
     0
 49
-0.635
 74
     0
  0
LTYPE
  5
70
330
5
100
AcDbSymbolTableRecord
100
AcDbLinetypeTableRecord
  2
SLD-Phantom
 70
     0
  3
SolidWorks Line Style
 72
    65
 73
     6
 40
12.7
 49
6.35
 74
     0
 49
-1.27
 74
     0
 49
1.27
 74
     0
 49
-1.27
 74
     0
 49
1.27
 74
     0
 49
-1.27
 74
     0
  0
LTYPE
  5
71
330
5
100
AcDbSymbolTableRecord
100
AcDbLinetypeTableRecord
  2
SLD-Chain
 70
     0
  3
SolidWorks Line Style
 72
    65
 73
     4
 40
10.16
 49
6.35
 74
     0
 49
-1.27
 74
     0
 49
1.27
 74
     0
 49
-1.27
 74
     0
  0
LTYPE
  5
72
330
5
100
AcDbSymbolTableRecord
100
AcDbLinetypeTableRecord
  2
SLD-Center
 70
     0
  3
SolidWorks Line Style
 72
    65
 73
     4
 40
19.05
 49
15.24
 74
     0
 49
-1.27
 74
     0
 49
1.27
 74
     0
 49
-1.27
 74
     0
  0
LTYPE
  5
73
330
5
100
AcDbSymbolTableRecord
100
AcDbLinetypeTableRecord
  2
SLD-Stitch
 70
     0
  3
SolidWorks Line Style
 72
    65
 73
     2
 40
0.635
 49
0.0
 74
     0
 49
-0.635
 74
     0
  0
LTYPE
  5
74
330
5
100
AcDbSymbolTableRecord
100
AcDbLinetypeTableRecord
  2
SLD-Thin-Thick-Chain
 70
     0
  3
SolidWorks Line Style
 72
    65
 73
     4
 40
10.16
 49
6.35
 74
     0
 49
-1.27
 74
     0
 49
1.27
 74
     0
 49
-1.27
 74
     0
  0
ENDTAB
  0
TABLE
  2
LAYER
  5
2
330
0
100
AcDbSymbolTable
 70
    12
  0
LAYER
  5
10
330
2
100
AcDbSymbolTableRecord
100
AcDbLayerTableRecord
  2
0
 70
     0
 62
     7
  6
Continuous
370
    -3
390
F
  0
LAYER
  5
75
330
2
100
AcDbSymbolTableRecord
100
AcDbLayerTableRecord
  2
SLD-0
 70
     0
 62
   179
  6
SLD-Solid
370
    -3
390
F
  0
LAYER
  5
76
330
2
100
AcDbSymbolTableRecord
100
AcDbLayerTableRecord
  2
80
 70
     0
 62
    -6
  6
SLD-Solid
290
     0
370
    -3
390
F
  0
LAYER
  5
77
330
2
100
AcDbSymbolTableRecord
100
AcDbLayerTableRecord
  2
81
 70
     0
 62
    -3
  6
SLD-Solid
290
     0
370
    -3
390
F
  0
LAYER
  5
78
330
2
100
AcDbSymbolTableRecord
100
AcDbLayerTableRecord
  2
1
 70
     0
 62
     4
  6
SLD-Solid
290
     0
370
    -3
390
F
  0
LAYER
  5
79
330
2
100
AcDbSymbolTableRecord
100
AcDbLayerTableRecord
  2
4
 70
     0
 62
    -2
  6
SLD-Chain
290
     0
370
    -3
390
F
  0
LAYER
  5
7A
330
2
100
AcDbSymbolTableRecord
100
AcDbLayerTableRecord
  2
2
 70
     0
 62
     7
  6
SLD-Solid
290
     0
370
    -3
390
F
  0
LAYER
  5
7B
330
2
100
AcDbSymbolTableRecord
100
AcDbLayerTableRecord
  2
SK3
 70
     0
 62
     1
  6
SLD-Dashed
290
     0
370
    -3
390
F
  0
LAYER
  5
7C
330
2
100
AcDbSymbolTableRecord
100
AcDbLayerTableRecord
  2
SK4
 70
     0
 62
     2
  6
SLD-Chain
290
     0
370
    -3
390
F
  0
LAYER
  5
7D
330
2
100
AcDbSymbolTableRecord
100
AcDbLayerTableRecord
  2
SK2
 70
     0
 62
     7
  6
SLD-Solid
290
     0
370
    -3
390
F
  0
LAYER
  5
7E
330
2
100
AcDbSymbolTableRecord
100
AcDbLayerTableRecord
  2
SK6
 70
     0
 62
     5
  6
SLD-Solid
290
     0
370
    -3
390
F
  0
LAYER
  5
7F
330
2
100
AcDbSymbolTableRecord
100
AcDbLayerTableRecord
  2
SK1
 70
     0
 62
     4
  6
SLD-Solid
370
    -3
390
F
  0
ENDTAB
  0
TABLE
  2
STYLE
  5
3
330
0
100
AcDbSymbolTable
 70
     2
  0
STYLE
  5
11
330
3
100
AcDbSymbolTableRecord
100
AcDbTextStyleTableRecord
  2
Standard
 70
     0
 40
0.0
 41
1.0
 50
0.0
 71
     0
 42
3.5
  3
txt
  4

  0
STYLE
  5
126
330
3
100
AcDbSymbolTableRecord
100
AcDbTextStyleTableRecord
  2
SLDTEXTSTYLE0
 70
     0
 40
0.0
 41
0.75
 50
0.0
 71
     0
 42
3.5
  3
TXT
  4

  0
ENDTAB
  0
TABLE
  2
VIEW
  5
6
330
0
100
AcDbSymbolTable
 70
     0
  0
ENDTAB
  0
TABLE
  2
UCS
  5
7
330
0
100
AcDbSymbolTable
 70
     0
  0
ENDTAB
  0
TABLE
  2
APPID
  5
9
330
0
100
AcDbSymbolTable
 70
     1
  0
APPID
  5
12
330
9
100
AcDbSymbolTableRecord
100
AcDbRegAppTableRecord
  2
ACAD
 70
     0
  0
ENDTAB
  0
TABLE
  2
DIMSTYLE
  5
A
330
0
100
AcDbSymbolTable
 70
     4
100
AcDbDimStyleTable
  0
DIMSTYLE
105
27
330
A
100
AcDbSymbolTableRecord
100
AcDbDimStyleTableRecord
  2
ISO-25
 70
     0
 41
2.5
 42
0.625
 43
3.75
 44
1.25
 73
     0
 74
     0
 77
     1
 78
     8
140
2.5
141
2.5
143
0.0393700787
147
0.625
171
     3
172
     1
178
     0
271
     2
272
     2
274
     3
278
    44
283
     0
284
     8
340
11
  0
DIMSTYLE
105
127
102
{ACAD_REACTORS
330
125
330
13E
330
149
330
179
330
183
330
18D
330
197
330
1A1
102
}
330
A
100
AcDbSymbolTableRecord
100
AcDbDimStyleTableRecord
  2
SLDDIMSTYLE0
 70
     0
 41
3.302
 44
0.0
 45
0.000000001
 73
     0
 74
     0
 77
     1
 78
    12
 79
     3
140
3.5
147
0.875
173
     1
178
     0
271
     2
272
     2
276
     2
284
    12
340
126
  0
DIMSTYLE
105
132
102
{ACAD_REACTORS
330
131
330
160
330
16D
102
}
330
A
100
AcDbSymbolTableRecord
100
AcDbDimStyleTableRecord
  2
SLDDIMSTYLE1
 70
     0
 41
3.302
 44
0.0
 45
0.000000001
 73
     0
 74
     0
 77
     1
 78
    12
 79
     3
140
3.5
147
0.875
172
     1
173
     1
178
     0
271
     2
272
     2
276
     2
284
    12
289
     0
340
126
  0
DIMSTYLE
105
155
102
{ACAD_REACTORS
330
154
102
}
330
A
100
AcDbSymbolTableRecord
100
AcDbDimStyleTableRecord
  2
SLDDIMSTYLE2
 70
     0
 41
3.302
 44
0.0
 45
0.000000001
 73
     0
 74
     0
 77
     1
 78
    12
 79
     3
140
3.5
147
0.875
173
     1
178
     0
271
     0
272
     2
276
     2
284
    12
340
126
  0
ENDTAB
  0
TABLE
  2
BLOCK_RECORD
  5
1
330
0
100
AcDbSymbolTable
 70
    15
  0
BLOCK_RECORD
  5
1F
330
1
100
AcDbSymbolTableRecord
100
AcDbBlockTableRecord
  2
*Model_Space
340
22
  0
BLOCK_RECORD
  5
1B
330
1
100
AcDbSymbolTableRecord
100
AcDbBlockTableRecord
  2
*Paper_Space
340
1E
  0
BLOCK_RECORD
  5
23
330
1
100
AcDbSymbolTableRecord
100
AcDbBlockTableRecord
  2
*Paper_Space0
340
26
  0
BLOCK_RECORD
  5
80
330
1
100
AcDbSymbolTableRecord
100
AcDbBlockTableRecord
  2
Block12
340
0
102
{BLKREFS
331
123
102
}
  0
BLOCK_RECORD
  5
89
330
1
100
AcDbSymbolTableRecord
100
AcDbBlockTableRecord
  2
Block11
340
0
102
{BLKREFS
331
124
102
}
  0
BLOCK_RECORD
  5
128
330
1
100
AcDbSymbolTableRecord
100
AcDbBlockTableRecord
  2
_D
340
0
  0
BLOCK_RECORD
  5
133
330
1
100
AcDbSymbolTableRecord
100
AcDbBlockTableRecord
  2
_D_1
340
0
  0
BLOCK_RECORD
  5
13F
330
1
100
AcDbSymbolTableRecord
100
AcDbBlockTableRecord
  2
_D_2
340
0
  0
BLOCK_RECORD
  5
14A
330
1
100
AcDbSymbolTableRecord
100
AcDbBlockTableRecord
  2
_D_3
340
0
  0
BLOCK_RECORD
  5
156
330
1
100
AcDbSymbolTableRecord
100
AcDbBlockTableRecord
  2
_D_4
340
0
  0
BLOCK_RECORD
  5
161
330
1
100
AcDbSymbolTableRecord
100
AcDbBlockTableRecord
  2
_D_5
340
0
  0
BLOCK_RECORD
  5
16E
330
1
100
AcDbSymbolTableRecord
100
AcDbBlockTableRecord
  2
_D_6
340
0
  0
BLOCK_RECORD
  5
17A
330
1
100
AcDbSymbolTableRecord
100
AcDbBlockTableRecord
  2
_D_7
340
0
  0
BLOCK_RECORD
  5
184
330
1
100
AcDbSymbolTableRecord
100
AcDbBlockTableRecord
  2
_D_8
340
0
  0
BLOCK_RECORD
  5
18E
330
1
100
AcDbSymbolTableRecord
100
AcDbBlockTableRecord
  2
_D_9
340
0
  0
BLOCK_RECORD
  5
198
330
1
100
AcDbSymbolTableRecord
100
AcDbBlockTableRecord
  2
_D_10
340
0
  0
BLOCK_RECORD
  5
1A2
330
1
100
AcDbSymbolTableRecord
100
AcDbBlockTableRecord
  2
_D_11
340
0
  0
ENDTAB
  0
ENDSEC
  0
SECTION
  2
BLOCKS
  0
BLOCK
  5
20
330
1F
100
AcDbEntity
  8
0
100
AcDbBlockBegin
  2
*Model_Space
 70
     0
 10
0.0
 20
0.0
 30
0.0
  3
*Model_Space
  1

  0
ENDBLK
  5
21
330
1F
100
AcDbEntity
  8
0
100
AcDbBlockEnd
  0
BLOCK
  5
1C
330
1B
100
AcDbEntity
 67
     1
  8
0
100
AcDbBlockBegin
  2
*Paper_Space
 70
     0
 10
0.0
 20
0.0
 30
0.0
  3
*Paper_Space
  1

  0
ENDBLK
  5
1D
330
1B
100
AcDbEntity
 67
     1
  8
0
100
AcDbBlockEnd
  0
BLOCK
  5
24
330
23
100
AcDbEntity
  8
0
100
AcDbBlockBegin
  2
*Paper_Space0
 70
     0
 10
0.0
 20
0.0
 30
0.0
  3
*Paper_Space0
  1

  0
ENDBLK
  5
25
330
23
100
AcDbEntity
  8
0
100
AcDbBlockEnd
  0
BLOCK
  5
81
330
80
100
AcDbEntity
  8
0
100
AcDbBlockBegin
  2
Block12
 70
     0
 10
0.0
 20
0.0
 30
0.0
  3
Block12
  1

  0
CIRCLE
  5
83
330
80
100
AcDbEntity
  8
80
370
    18
100
AcDbCircle
 10
61.7273641656
 20
130.3356800267
 30
0.0
 40
2.500000000000004
  0
LINE
  5
84
330
80
100
AcDbEntity
  8
80
370
    18
100
AcDbLine
 10
61.7273641656
 20
130.3356800267
 30
0.0
 11
65.2628980715
 21
133.8712139326
 31
0.0
  0
LINE
  5
85
330
80
100
AcDbEntity
  8
80
370
    18
100
AcDbLine
 10
61.7273641656
 20
130.3356800267
 30
0.0
 11
58.1918302597
 21
126.8001461208
 31
0.0
  0
LINE
  5
86
330
80
100
AcDbEntity
  8
80
370
    18
100
AcDbLine
 10
61.7273641656
 20
130.3356800267
 30
0.0
 11
58.1918302597
 21
133.8712139326
 31
0.0
  0
LINE
  5
87
330
80
100
AcDbEntity
  8
80
370
    18
100
AcDbLine
 10
61.7273641656
 20
130.3356800267
 30
0.0
 11
51.7273641656
 21
130.3356800267
 31
0.0
  0
LINE
  5
88
330
80
100
AcDbEntity
  8
80
370
    18
100
AcDbLine
 10
61.7273641656
 20
130.3356800267
 30
0.0
 11
65.2628980715
 21
126.8001461208
 31
0.0
  0
ENDBLK
  5
82
330
80
100
AcDbEntity
  8
0
100
AcDbBlockEnd
  0
BLOCK
  5
8A
330
89
100
AcDbEntity
  8
0
100
AcDbBlockBegin
  2
Block11
 70
     0
 10
0.0
 20
0.0
 30
0.0
  3
Block11
  1

  0
CIRCLE
  5
8C
330
89
100
AcDbEntity
  8
81
370
    18
100
AcDbCircle
 10
91.6264826505
 20
130.2676275275
 30
0.0
 40
2.499999999999981
  0
LINE
  5
8D
330
89
100
AcDbEntity
  8
81
370
    18
100
AcDbLine
 10
91.6264826505
 20
130.2676275275
 30
0.0
 11
95.1620165565
 21
133.8031614334
 31
0.0
  0
LINE
  5
8E
330
89
100
AcDbEntity
  8
81
370
    18
100
AcDbLine
 10
91.6264826505
 20
130.2676275275
 30
0.0
 11
88.0909487446
 21
126.7320936216
 31
0.0
  0
LINE
  5
8F
330
89
100
AcDbEntity
  8
81
370
    18
100
AcDbLine
 10
91.6264826505
 20
130.2676275275
 30
0.0
 11
88.0909487446
 21
133.8031614334
 31
0.0
  0
LINE
  5
90
330
89
100
AcDbEntity
  8
81
100
AcDbLine
 10
91.6264826505
 20
130.2676275275
 30
0.0
 11
101.6264826505
 21
130.2676275275
 31
0.0
  0
LINE
  5
91
330
89
100
AcDbEntity
  8
81
370
    18
100
AcDbLine
 10
91.6264826505
 20
130.2676275275
 30
0.0
 11
95.1620165565
 21
126.7320936216
 31
0.0
  0
ENDBLK
  5
8B
330
89
100
AcDbEntity
  8
0
100
AcDbBlockEnd
  0
BLOCK
  5
129
330
128
100
AcDbEntity
  8
0
100
AcDbBlockBegin
  2
_D
 70
     0
 10
0.0
 20
0.0
 30
0.0
  3
_D
  1

  0
SOLID
  5
12B
330
128
100
AcDbEntity
  8
2
100
AcDbTrace
 10
0.0
 20
48.0846733185
 30
0.0
 11
3.302
 21
47.5766733185
 31
0.0
 12
3.302
 22
48.5926733185
 32
0.0
 13
3.302
 23
48.5926733185
 33
0.0
  0
SOLID
  5
12C
330
128
100
AcDbEntity
  8
2
100
AcDbTrace
 10
52.0000010729
 20
48.0846733185
 30
0.0
 11
48.6980010729
 21
48.5926733185
 31
0.0
 12
48.6980010729
 22
47.5766733185
 32
0.0
 13
48.6980010729
 23
47.5766733185
 33
0.0
  0
LINE
  5
12D
330
128
100
AcDbEntity
  8
2
100
AcDbLine
 10
0.0
 20
16.8750005066
 30
0.0
 11
0.0
 21
49.0846733185
 31
0.0
  0
LINE
  5
12E
330
128
100
AcDbEntity
  8
2
100
AcDbLine
 10
52.0000010729
 20
14.4753864259
 30
0.0
 11
52.0000010729
 21
49.0846733185
 31
0.0
  0
LINE
  5
12F
330
128
100
AcDbEntity
  8
2
100
AcDbLine
 10
0.0
 20
48.0846733185
 30
0.0
 11
52.0000010729
 21
48.0846733185
 31
0.0
  0
MTEXT
  5
130
330
128
100
AcDbEntity
  8
2
100
AcDbMText
 10
24.0343771092
 20
52.5964102331
 30
0.0
 40
3.5
 41
0.0
 71
     1
 72
     1
  1
52
  7
SLDTEXTSTYLE0
 73
     1
 44
1.0
  0
ENDBLK
  5
12A
330
128
100
AcDbEntity
  8
0
100
AcDbBlockEnd
  0
BLOCK
  5
134
330
133
100
AcDbEntity
  8
0
100
AcDbBlockBegin
  2
_D_1
 70
     0
 10
0.0
 20
0.0
 30
0.0
  3
_D_1
  1

  0
SOLID
  5
136
330
133
100
AcDbEntity
  8
SK2
100
AcDbTrace
 10
-54.9013007876
 20
-6.0
 30
0.0
 11
-55.4093007876
 21
-9.302
 31
0.0
 12
-54.3933007876
 22
-9.302
 32
0.0
 13
-54.3933007876
 23
-9.302
 33
0.0
  0
SOLID
  5
137
330
133
100
AcDbEntity
  8
SK2
100
AcDbTrace
 10
-54.9013007876
 20
6.0
 30
0.0
 11
-54.3933007876
 21
9.302
 31
0.0
 12
-55.4093007876
 22
9.302
 32
0.0
 13
-55.4093007876
 23
9.302
 33
0.0
  0
LINE
  5
138
330
133
100
AcDbEntity
  8
SK2
100
AcDbLine
 10
-41.7891560818
 20
-6.0
 30
0.0
 11
-55.9013007876
 21
-6.0
 31
0.0
  0
LINE
  5
139
330
133
100
AcDbEntity
  8
SK2
100
AcDbLine
 10
-41.7891560818
 20
6.0
 30
0.0
 11
-55.9013007876
 21
6.0
 31
0.0
  0
LINE
  5
13A
330
133
100
AcDbEntity
  8
SK2
100
AcDbLine
 10
-54.9013007876
 20
-6.0
 30
0.0
 11
-54.9013007876
 21
-12.35
 31
0.0
  0
LINE
  5
13B
330
133
100
AcDbEntity
  8
SK2
100
AcDbLine
 10
-54.9013007876
 20
-6.0
 30
0.0
 11
-54.9013007876
 21
6.0
 31
0.0
  0
LINE
  5
13C
330
133
100
AcDbEntity
  8
SK2
100
AcDbLine
 10
-54.9013007876
 20
6.0
 30
0.0
 11
-54.9013007876
 21
12.35
 31
0.0
  0
MTEXT
  5
13D
330
133
100
AcDbEntity
  8
SK2
100
AcDbMText
 10
-59.4130377022
 20
-4.4527962781
 30
0.0
 40
3.5
 41
0.0
 71
     1
 72
     1
  1
M12
  7
SLDTEXTSTYLE0
 11
6.123233995736766E-17
 21
1.0
 31
0.0
 73
     1
 44
1.0
  0
ENDBLK
  5
135
330
133
100
AcDbEntity
  8
0
100
AcDbBlockEnd
  0
BLOCK
  5
140
330
13F
100
AcDbEntity
  8
0
100
AcDbBlockBegin
  2
_D_2
 70
     0
 10
0.0
 20
0.0
 30
0.0
  3
_D_2
  1

  0
SOLID
  5
142
330
13F
100
AcDbEntity
  8
SK2
100
AcDbTrace
 10
-73.3421777815
 20
22.9899994931
 30
0.0
 11
-73.8501777815
 21
19.6879994931
 31
0.0
 12
-72.8341777815
 22
19.6879994931
 32
0.0
 13
-72.8341777815
 23
19.6879994931
 33
0.0
  0
SOLID
  5
143
330
13F
100
AcDbEntity
  8
SK2
100
AcDbTrace
 10
-73.3421777815
 20
-22.9900000097
 30
0.0
 11
-72.8341777815
 21
-19.6880000097
 31
0.0
 12
-73.8501777815
 22
-19.6880000097
 32
0.0
 13
-73.8501777815
 23
-19.6880000097
 33
0.0
  0
LINE
  5
144
330
13F
100
AcDbEntity
  8
SK2
100
AcDbLine
 10
18.8746489267
 20
22.9899994931
 30
0.0
 11
-74.3421777815
 21
22.9899994931
 31
0.0
  0
LINE
  5
145
330
13F
100
AcDbEntity
  8
SK2
100
AcDbLine
 10
18.874766871
 20
-22.9900000097
 30
0.0
 11
-74.3421777815
 21
-22.9900000097
 31
0.0
  0
LINE
  5
146
330
13F
100
AcDbEntity
  8
SK2
100
AcDbLine
 10
-73.3421777815
 20
22.9899994931
 30
0.0
 11
-73.3421777815
 21
-22.9900000097
 31
0.0
  0
MTEXT
  5
147
330
13F
100
AcDbEntity
  8
SK2
100
AcDbMText
 10
-77.8539148707
 20
-6.2744650759
 30
0.0
 40
3.5
 41
0.0
 71
     1
 72
     1
  1
%%c
  7
SLDTEXTSTYLE0
 11
-7.044195017643634E-15
 21
1.0
 31
0.0
 73
     1
 44
1.0
  0
MTEXT
  5
148
330
13F
100
AcDbEntity
  8
SK2
100
AcDbMText
 10
-77.9073870473
 20
-0.9960276775
 30
0.0
 40
3.5
 41
0.0
 71
     1
 72
     1
  1
46
  7
SLDTEXTSTYLE0
 11
-7.044195017643634E-15
 21
1.0
 31
0.0
 73
     1
 44
1.0
  0
ENDBLK
  5
141
330
13F
100
AcDbEntity
  8
0
100
AcDbBlockEnd
  0
BLOCK
  5
14B
330
14A
100
AcDbEntity
  8
0
100
AcDbBlockBegin
  2
_D_3
 70
     0
 10
0.0
 20
0.0
 30
0.0
  3
_D_3
  1

  0
SOLID
  5
14D
330
14A
100
AcDbEntity
  8
SK2
100
AcDbTrace
 10
87.1996260284
 20
20.7499992102
 30
0.0
 11
86.6916260284
 21
17.4479992102
 31
0.0
 12
87.7076260284
 22
17.4479992102
 32
0.0
 13
87.7076260284
 23
17.4479992102
 33
0.0
  0
SOLID
  5
14E
330
14A
100
AcDbEntity
  8
SK2
100
AcDbTrace
 10
87.1996260284
 20
-20.7499992102
 30
0.0
 11
87.7076260284
 21
-17.4479992102
 31
0.0
 12
86.6916260284
 22
-17.4479992102
 32
0.0
 13
86.6916260284
 23
-17.4479992102
 33
0.0
  0
LINE
  5
14F
330
14A
100
AcDbEntity
  8
SK2
100
AcDbLine
 10
40.4000001252
 20
20.7499992102
 30
0.0
 11
88.1996260284
 21
20.7499992102
 31
0.0
  0
LINE
  5
150
330
14A
100
AcDbEntity
  8
SK2
100
AcDbLine
 10
40.4000001252
 20
-20.7499992102
 30
0.0
 11
88.1996260284
 21
-20.7499992102
 31
0.0
  0
LINE
  5
151
330
14A
100
AcDbEntity
  8
SK2
100
AcDbLine
 10
87.1996260284
 20
20.7499992102
 30
0.0
 11
87.1996260284
 21
-20.7499992102
 31
0.0
  0
MTEXT
  5
152
330
14A
100
AcDbEntity
  8
SK2
100
AcDbMText
 10
82.6878889392
 20
-7.8580522795
 30
0.0
 40
3.5
 41
0.0
 71
     1
 72
     1
  1
%%c
  7
SLDTEXTSTYLE0
 11
-7.044195017643634E-15
 21
1.0
 31
0.0
 73
     1
 44
1.0
  0
MTEXT
  5
153
330
14A
100
AcDbEntity
  8
SK2
100
AcDbMText
 10
82.6344167625
 20
-2.5796148812
 30
0.0
 40
3.5
 41
0.0
 71
     1
 72
     1
  1
41,5
  7
SLDTEXTSTYLE0
 11
-7.044195017643634E-15
 21
1.0
 31
0.0
 73
     1
 44
1.0
  0
ENDBLK
  5
14C
330
14A
100
AcDbEntity
  8
0
100
AcDbBlockEnd
  0
BLOCK
  5
157
330
156
100
AcDbEntity
  8
0
100
AcDbBlockBegin
  2
_D_4
 70
     0
 10
0.0
 20
0.0
 30
0.0
  3
_D_4
  1

  0
SOLID
  5
159
330
156
100
AcDbEntity
  8
SK2
100
AcDbTrace
 10
76.9763404392
 20
13.4753864259
 30
0.0
 11
76.4683404392
 21
10.1733864259
 31
0.0
 12
77.4843404392
 22
10.1733864259
 32
0.0
 13
77.4843404392
 23
10.1733864259
 33
0.0
  0
SOLID
  5
15A
330
156
100
AcDbEntity
  8
SK2
100
AcDbTrace
 10
76.9763404392
 20
-13.4753864259
 30
0.0
 11
77.4843404392
 21
-10.1733864259
 31
0.0
 12
76.4683404392
 22
-10.1733864259
 32
0.0
 13
76.4683404392
 23
-10.1733864259
 33
0.0
  0
LINE
  5
15B
330
156
100
AcDbEntity
  8
SK2
100
AcDbLine
 10
53.0000010729
 20
13.4753864259
 30
0.0
 11
77.9763404392
 21
13.4753864259
 31
0.0
  0
LINE
  5
15C
330
156
100
AcDbEntity
  8
SK2
100
AcDbLine
 10
53.0000010729
 20
-13.4753864259
 30
0.0
 11
77.9763404392
 21
-13.4753864259
 31
0.0
  0
LINE
  5
15D
330
156
100
AcDbEntity
  8
SK2
100
AcDbLine
 10
76.9763404392
 20
13.4753864259
 30
0.0
 11
76.9763404392
 21
-13.4753864259
 31
0.0
  0
MTEXT
  5
15E
330
156
100
AcDbEntity
  8
SK2
100
AcDbMText
 10
72.46460335
 20
-5.9184687098
 30
0.0
 40
3.5
 41
0.0
 71
     1
 72
     1
  1
%%c
  7
SLDTEXTSTYLE0
 11
-7.044195017643634E-15
 21
1.0
 31
0.0
 73
     1
 44
1.0
  0
MTEXT
  5
15F
330
156
100
AcDbEntity
  8
SK2
100
AcDbMText
 10
72.4111311733
 20
-0.6400313114
 30
0.0
 40
3.5
 41
0.0
 71
     1
 72
     1
  1
27
  7
SLDTEXTSTYLE0
 11
-7.044195017643634E-15
 21
1.0
 31
0.0
 73
     1
 44
1.0
  0
ENDBLK
  5
158
330
156
100
AcDbEntity
  8
0
100
AcDbBlockEnd
  0
BLOCK
  5
162
330
161
100
AcDbEntity
  8
0
100
AcDbBlockBegin
  2
_D_5
 70
     0
 10
0.0
 20
0.0
 30
0.0
  3
_D_5
  1

  0
SOLID
  5
164
330
161
100
AcDbEntity
  8
SK2
100
AcDbTrace
 10
67.4281258905
 20
6.0000002328
 30
0.0
 11
67.9361258905
 21
9.3020002328
 31
0.0
 12
66.9201258905
 22
9.3020002328
 32
0.0
 13
66.9201258905
 23
9.3020002328
 33
0.0
  0
SOLID
  5
165
330
161
100
AcDbEntity
  8
SK2
100
AcDbTrace
 10
67.4281258905
 20
-5.9999998715
 30
0.0
 11
66.9201258905
 21
-9.3019998715
 31
0.0
 12
67.9361258905
 22
-9.3019998715
 32
0.0
 13
67.9361258905
 23
-9.3019998715
 33
0.0
  0
LINE
  5
166
330
161
100
AcDbEntity
  8
SK2
100
AcDbLine
 10
51.999998847
 20
6.0000002328
 30
0.0
 11
68.4281258905
 21
6.0000002328
 31
0.0
  0
LINE
  5
167
330
161
100
AcDbEntity
  8
SK2
100
AcDbLine
 10
51.999998847
 20
-5.9999998715
 30
0.0
 11
68.4281258905
 21
-5.9999998715
 31
0.0
  0
LINE
  5
168
330
161
100
AcDbEntity
  8
SK2
100
AcDbLine
 10
67.4281258905
 20
6.0000002328
 30
0.0
 11
67.4281258905
 21
12.3500002328
 31
0.0
  0
LINE
  5
169
330
161
100
AcDbEntity
  8
SK2
100
AcDbLine
 10
67.4281258905
 20
6.0000002328
 30
0.0
 11
67.4281258905
 21
-5.9999998715
 31
0.0
  0
LINE
  5
16A
330
161
100
AcDbEntity
  8
SK2
100
AcDbLine
 10
67.4281258905
 20
-5.9999998715
 30
0.0
 11
67.4281258905
 21
-12.3499998715
 31
0.0
  0
MTEXT
  5
16B
330
161
100
AcDbEntity
  8
SK2
100
AcDbMText
 10
62.9163888013
 20
-5.9184687098
 30
0.0
 40
3.5
 41
0.0
 71
     1
 72
     1
  1
%%c
  7
SLDTEXTSTYLE0
 11
-7.044195017643634E-15
 21
1.0
 31
0.0
 73
     1
 44
1.0
  0
MTEXT
  5
16C
330
161
100
AcDbEntity
  8
SK2
100
AcDbMText
 10
62.8629166246
 20
-0.6400313114
 30
0.0
 40
3.5
 41
0.0
 71
     1
 72
     1
  1
12
  7
SLDTEXTSTYLE0
 11
-7.044195017643634E-15
 21
1.0
 31
0.0
 73
     1
 44
1.0
  0
ENDBLK
  5
163
330
161
100
AcDbEntity
  8
0
100
AcDbBlockEnd
  0
BLOCK
  5
16F
330
16E
100
AcDbEntity
  8
0
100
AcDbBlockBegin
  2
_D_6
 70
     0
 10
0.0
 20
0.0
 30
0.0
  3
_D_6
  1

  0
SOLID
  5
171
330
16E
100
AcDbEntity
  8
SK2
100
AcDbTrace
 10
52.0000010729
 20
-29.8677219148
 30
0.0
 11
55.3020010729
 21
-30.3757219148
 31
0.0
 12
55.3020010729
 22
-29.3597219148
 32
0.0
 13
55.3020010729
 23
-29.3597219148
 33
0.0
  0
SOLID
  5
172
330
16E
100
AcDbEntity
  8
SK2
100
AcDbTrace
 10
39.4000001252
 20
-29.8677219148
 30
0.0
 11
36.0980001252
 21
-29.3597219148
 31
0.0
 12
36.0980001252
 22
-30.3757219148
 32
0.0
 13
36.0980001252
 23
-30.3757219148
 33
0.0
  0
LINE
  5
173
330
16E
100
AcDbEntity
  8
SK2
100
AcDbLine
 10
52.0000010729
 20
-14.4753864259
 30
0.0
 11
52.0000010729
 21
-30.8677219148
 31
0.0
  0
LINE
  5
174
330
16E
100
AcDbEntity
  8
SK2
100
AcDbLine
 10
39.4000001252
 20
-21.7499992102
 30
0.0
 11
39.4000001252
 21
-30.8677219148
 31
0.0
  0
LINE
  5
175
330
16E
100
AcDbEntity
  8
SK2
100
AcDbLine
 10
52.0000010729
 20
-29.8677219148
 30
0.0
 11
58.3500010729
 21
-29.8677219148
 31
0.0
  0
LINE
  5
176
330
16E
100
AcDbEntity
  8
SK2
100
AcDbLine
 10
52.0000010729
 20
-29.8677219148
 30
0.0
 11
39.4000001252
 21
-29.8677219148
 31
0.0
  0
LINE
  5
177
330
16E
100
AcDbEntity
  8
SK2
100
AcDbLine
 10
39.4000001252
 20
-29.8677219148
 30
0.0
 11
33.0500001252
 21
-29.8677219148
 31
0.0
  0
MTEXT
  5
178
330
16E
100
AcDbEntity
  8
SK2
100
AcDbMText
 10
41.0209939233
 20
-25.3559850003
 30
0.0
 40
3.5
 41
0.0
 71
     1
 72
     1
  1
12,6
  7
SLDTEXTSTYLE0
 73
     1
 44
1.0
  0
ENDBLK
  5
170
330
16E
100
AcDbEntity
  8
0
100
AcDbBlockEnd
  0
BLOCK
  5
17B
330
17A
100
AcDbEntity
  8
0
100
AcDbBlockBegin
  2
_D_7
 70
     0
 10
0.0
 20
0.0
 30
0.0
  3
_D_7
  1

  0
SOLID
  5
17D
330
17A
100
AcDbEntity
  8
SK2
100
AcDbTrace
 10
52.0000010729
 20
-37.9632735847
 30
0.0
 11
48.6980010729
 21
-37.4552735847
 31
0.0
 12
48.6980010729
 22
-38.4712735847
 32
0.0
 13
48.6980010729
 23
-38.4712735847
 33
0.0
  0
SOLID
  5
17E
330
17A
100
AcDbEntity
  8
SK2
100
AcDbTrace
 10
8.0000001807
 20
-37.9632735847
 30
0.0
 11
11.3020001807
 21
-38.4712735847
 31
0.0
 12
11.3020001807
 22
-37.4552735847
 32
0.0
 13
11.3020001807
 23
-37.4552735847
 33
0.0
  0
LINE
  5
17F
330
17A
100
AcDbEntity
  8
SK2
100
AcDbLine
 10
52.0000010729
 20
-14.4753864259
 30
0.0
 11
52.0000010729
 21
-38.9632735847
 31
0.0
  0
LINE
  5
180
330
17A
100
AcDbEntity
  8
SK2
100
AcDbLine
 10
8.0000001807
 20
-6.9999998715
 30
0.0
 11
8.0000001807
 21
-38.9632735847
 31
0.0
  0
LINE
  5
181
330
17A
100
AcDbEntity
  8
SK2
100
AcDbLine
 10
52.0000010729
 20
-37.9632735847
 30
0.0
 11
8.0000001807
 21
-37.9632735847
 31
0.0
  0
MTEXT
  5
182
330
17A
100
AcDbEntity
  8
SK2
100
AcDbMText
 10
26.6990349398
 20
-33.4515366702
 30
0.0
 40
3.5
 41
0.0
 71
     1
 72
     1
  1
44
  7
SLDTEXTSTYLE0
 73
     1
 44
1.0
  0
ENDBLK
  5
17C
330
17A
100
AcDbEntity
  8
0
100
AcDbBlockEnd
  0
BLOCK
  5
185
330
184
100
AcDbEntity
  8
0
100
AcDbBlockBegin
  2
_D_8
 70
     0
 10
0.0
 20
0.0
 30
0.0
  3
_D_8
  1

  0
SOLID
  5
187
330
184
100
AcDbEntity
  8
SK2
100
AcDbTrace
 10
30.0
 20
29.3966917731
 30
0.0
 11
33.302
 21
28.8886917731
 31
0.0
 12
33.302
 22
29.9046917731
 32
0.0
 13
33.302
 23
29.9046917731
 33
0.0
  0
SOLID
  5
188
330
184
100
AcDbEntity
  8
SK2
100
AcDbTrace
 10
52.0000010729
 20
29.3966917731
 30
0.0
 11
48.6980010729
 21
29.9046917731
 31
0.0
 12
48.6980010729
 22
28.8886917731
 32
0.0
 13
48.6980010729
 23
28.8886917731
 33
0.0
  0
LINE
  5
189
330
184
100
AcDbEntity
  8
SK2
100
AcDbLine
 10
30.0
 20
22.15
 30
0.0
 11
30.0
 21
30.3966917731
 31
0.0
  0
LINE
  5
18A
330
184
100
AcDbEntity
  8
SK2
100
AcDbLine
 10
52.0000010729
 20
14.4753864259
 30
0.0
 11
52.0000010729
 21
30.3966917731
 31
0.0
  0
LINE
  5
18B
330
184
100
AcDbEntity
  8
SK2
100
AcDbLine
 10
30.0
 20
29.3966917731
 30
0.0
 11
52.0000010729
 21
29.3966917731
 31
0.0
  0
MTEXT
  5
18C
330
184
100
AcDbEntity
  8
SK2
100
AcDbMText
 10
38.1108051425
 20
33.9084286876
 30
0.0
 40
3.5
 41
0.0
 71
     1
 72
     1
  1
22
  7
SLDTEXTSTYLE0
 73
     1
 44
1.0
  0
ENDBLK
  5
186
330
184
100
AcDbEntity
  8
0
100
AcDbBlockEnd
  0
BLOCK
  5
18F
330
18E
100
AcDbEntity
  8
0
100
AcDbBlockBegin
  2
_D_9
 70
     0
 10
0.0
 20
0.0
 30
0.0
  3
_D_9
  1

  0
SOLID
  5
191
330
18E
100
AcDbEntity
  8
SK2
100
AcDbTrace
 10
0.0
 20
38.2633418768
 30
0.0
 11
3.302
 21
37.7553418768
 31
0.0
 12
3.302
 22
38.7713418768
 32
0.0
 13
3.302
 23
38.7713418768
 33
0.0
  0
SOLID
  5
192
330
18E
100
AcDbEntity
  8
SK2
100
AcDbTrace
 10
22.0999995655
 20
38.2633418768
 30
0.0
 11
18.7979995655
 21
38.7713418768
 31
0.0
 12
18.7979995655
 22
37.7553418768
 32
0.0
 13
18.7979995655
 23
37.7553418768
 33
0.0
  0
LINE
  5
193
330
18E
100
AcDbEntity
  8
SK2
100
AcDbLine
 10
0.0
 20
16.8750005066
 30
0.0
 11
0.0
 21
39.2633418768
 31
0.0
  0
LINE
  5
194
330
18E
100
AcDbEntity
  8
SK2
100
AcDbLine
 10
22.0999995655
 20
23.2399997514
 30
0.0
 11
22.0999995655
 21
39.2633418768
 31
0.0
  0
LINE
  5
195
330
18E
100
AcDbEntity
  8
SK2
100
AcDbLine
 10
0.0
 20
38.2633418768
 30
0.0
 11
22.0999995655
 21
38.2633418768
 31
0.0
  0
MTEXT
  5
196
330
18E
100
AcDbEntity
  8
SK2
100
AcDbMText
 10
7.6239594907
 20
42.7750787914
 30
0.0
 40
3.5
 41
0.0
 71
     1
 72
     1
  1
22,1
  7
SLDTEXTSTYLE0
 73
     1
 44
1.0
  0
ENDBLK
  5
190
330
18E
100
AcDbEntity
  8
0
100
AcDbBlockEnd
  0
BLOCK
  5
199
330
198
100
AcDbEntity
  8
0
100
AcDbBlockBegin
  2
_D_10
 70
     0
 10
0.0
 20
0.0
 30
0.0
  3
_D_10
  1

  0
SOLID
  5
19B
330
198
100
AcDbEntity
  8
SK2
100
AcDbTrace
 10
22.0999995655
 20
38.2633418768
 30
0.0
 11
25.4019995655
 21
37.7553418768
 31
0.0
 12
25.4019995655
 22
38.7713418768
 32
0.0
 13
25.4019995655
 23
38.7713418768
 33
0.0
  0
SOLID
  5
19C
330
198
100
AcDbEntity
  8
SK2
100
AcDbTrace
 10
52.0000010729
 20
38.2633418768
 30
0.0
 11
48.6980010729
 21
38.7713418768
 31
0.0
 12
48.6980010729
 22
37.7553418768
 32
0.0
 13
48.6980010729
 23
37.7553418768
 33
0.0
  0
LINE
  5
19D
330
198
100
AcDbEntity
  8
SK2
100
AcDbLine
 10
22.0999995655
 20
23.2399997514
 30
0.0
 11
22.0999995655
 21
39.2633418768
 31
0.0
  0
LINE
  5
19E
330
198
100
AcDbEntity
  8
SK2
100
AcDbLine
 10
52.0000010729
 20
14.4753864259
 30
0.0
 11
52.0000010729
 21
39.2633418768
 31
0.0
  0
LINE
  5
19F
330
198
100
AcDbEntity
  8
SK2
100
AcDbLine
 10
22.0999995655
 20
38.2633418768
 30
0.0
 11
52.0000010729
 21
38.2633418768
 31
0.0
  0
MTEXT
  5
1A0
330
198
100
AcDbEntity
  8
SK2
100
AcDbMText
 10
32.4456157801
 20
42.7750787914
 30
0.0
 40
3.5
 41
0.0
 71
     1
 72
     1
  1
29,9
  7
SLDTEXTSTYLE0
 73
     1
 44
1.0
  0
ENDBLK
  5
19A
330
198
100
AcDbEntity
  8
0
100
AcDbBlockEnd
  0
BLOCK
  5
1A3
330
1A2
100
AcDbEntity
  8
0
100
AcDbBlockBegin
  2
_D_11
 70
     0
 10
0.0
 20
0.0
 30
0.0
  3
_D_11
  1

  0
SOLID
  5
1A5
330
1A2
100
AcDbEntity
  8
SK2
100
AcDbTrace
 10
-63.8393292252
 20
15.8750005066
 30
0.0
 11
-64.3473292252
 21
12.5730005066
 31
0.0
 12
-63.3313292252
 22
12.5730005066
 32
0.0
 13
-63.3313292252
 23
12.5730005066
 33
0.0
  0
SOLID
  5
1A6
330
1A2
100
AcDbEntity
  8
SK2
100
AcDbTrace
 10
-63.8393292252
 20
-15.8750005066
 30
0.0
 11
-63.3313292252
 21
-12.5730005066
 31
0.0
 12
-64.3473292252
 22
-12.5730005066
 32
0.0
 13
-64.3473292252
 23
-12.5730005066
 33
0.0
  0
LINE
  5
1A7
330
1A2
100
AcDbEntity
  8
SK2
100
AcDbLine
 10
-1.0
 20
15.8750005066
 30
0.0
 11
-64.8393292252
 21
15.8750005066
 31
0.0
  0
LINE
  5
1A8
330
1A2
100
AcDbEntity
  8
SK2
100
AcDbLine
 10
-0.8000000051
 20
-15.8750005066
 30
0.0
 11
-64.8393292252
 21
-15.8750005066
 31
0.0
  0
LINE
  5
1A9
330
1A2
100
AcDbEntity
  8
SK2
100
AcDbLine
 10
-63.8393292252
 20
15.8750005066
 30
0.0
 11
-63.8393292252
 21
-15.8750005066
 31
0.0
  0
MTEXT
  5
1AA
330
1A2
100
AcDbEntity
  8
SK2
100
AcDbMText
 10
-68.3510663144
 20
-9.507105124
 30
0.0
 40
3.5
 41
0.0
 71
     1
 72
     1
  1
%%c
  7
SLDTEXTSTYLE0
 11
-7.044195017643634E-15
 21
1.0
 31
0.0
 73
     1
 44
1.0
  0
MTEXT
  5
1AB
330
1A2
100
AcDbEntity
  8
SK2
100
AcDbMText
 10
-68.4045384911
 20
-4.2286677256
 30
0.0
 40
3.5
 41
0.0
 71
     1
 72
     1
  1
31,75
  7
SLDTEXTSTYLE0
 11
-7.044195017643634E-15
 21
1.0
 31
0.0
 73
     1
 44
1.0
  0
ENDBLK
  5
1A4
330
1A2
100
AcDbEntity
  8
0
100
AcDbBlockEnd
  0
ENDSEC
  0
SECTION
  2
ENTITIES
  0
LINE
  5
92
330
1F
100
AcDbEntity
  8
1
  6
SLD-Solid
370
    25
100
AcDbLine
 10
19.8746489267
 20
22.9899994931
 30
0.0
 11
21.349999858
 21
22.9899994931
 31
0.0
  0
LINE
  5
93
330
1F
100
AcDbEntity
  8
1
  6
SLD-Solid
370
    25
100
AcDbLine
 10
21.3500004556
 20
-22.9900000097
 30
0.0
 11
19.874766871
 21
-22.9900000097
 31
0.0
  0
LINE
  5
94
330
1F
100
AcDbEntity
  8
1
  6
SLD-Solid
370
    25
100
AcDbLine
 10
37.0999984443
 20
20.7499992102
 30
0.0
 11
39.4000001252
 21
20.7499992102
 31
0.0
  0
LINE
  5
95
330
1F
100
AcDbEntity
  8
1
  6
SLD-Solid
370
    25
100
AcDbLine
 10
24.7148238122
 20
-20.7499992102
 30
0.0
 11
23.1
 21
-20.75
 31
0.0
  0
LINE
  5
96
330
1F
100
AcDbEntity
  8
1
  6
SLD-Solid
370
    25
100
AcDbLine
 10
39.4000001252
 20
-20.7499992102
 30
0.0
 11
35.2915041149
 21
-20.7499992102
 31
0.0
  0
LINE
  5
97
330
1F
100
AcDbEntity
  8
1
  6
SLD-Solid
370
    25
100
AcDbLine
 10
39.4000001252
 20
20.7499992102
 30
0.0
 11
52.0000010729
 21
13.4753864259
 31
0.0
  0
LINE
  5
98
330
1F
100
AcDbEntity
  8
1
  6
SLD-Solid
370
    25
100
AcDbLine
 10
52.0000010729
 20
-13.4753864259
 30
0.0
 11
39.4000001252
 21
-20.7499992102
 31
0.0
  0
LINE
  5
99
330
1F
100
AcDbEntity
  8
1
  6
SLD-Solid
370
    25
100
AcDbLine
 10
0.1999999949
 20
15.8750005066
 30
0.0
 11
0.8619053906
 21
15.5663484474
 31
0.0
  0
LINE
  5
9A
330
1F
100
AcDbEntity
  8
1
  6
SLD-Solid
370
    25
100
AcDbLine
 10
0.8619053906
 20
-15.5663484474
 30
0.0
 11
0.1999999949
 21
-15.8750005066
 31
0.0
  0
LINE
  5
9B
330
1F
100
AcDbEntity
  8
SK1
  6
SLD-Solid
370
    25
100
AcDbLine
 10
0.0
 20
-15.8750005066
 30
0.0
 11
-48.0791181326
 21
-8.8629191741
 31
0.0
  0
LINE
  5
9C
330
1F
100
AcDbEntity
  8
SK1
  6
SLD-Solid
370
    25
100
AcDbLine
 10
-48.0791181326
 20
8.8629191741
 30
0.0
 11
0.0
 21
15.8750005066
 31
0.0
  0
LINE
  5
9D
330
1F
100
AcDbEntity
  8
1
  6
SLD-Solid
370
    25
100
AcDbLine
 10
0.0
 20
15.8750005066
 30
0.0
 11
0.1999999949
 21
15.8750005066
 31
0.0
  0
LINE
  5
9E
330
1F
100
AcDbEntity
  8
1
  6
SLD-Solid
370
    25
100
AcDbLine
 10
0.1999999949
 20
-15.8750005066
 30
0.0
 11
0.0
 21
-15.8750005066
 31
0.0
  0
LINE
  5
9F
330
1F
100
AcDbEntity
  8
1
  6
SLD-Solid
370
    25
100
AcDbLine
 10
2.000000095
 20
20.5892398953
 30
0.0
 11
2.000000095
 21
-20.5892510712
 31
0.0
  0
LINE
  5
A0
330
1F
100
AcDbEntity
  8
1
  6
SLD-Solid
370
    25
100
AcDbLine
 10
17.6270194352
 20
22.2347714007
 30
0.0
 11
17.6270212978
 21
-22.2347714007
 31
0.0
  0
LINE
  5
A1
330
1F
100
AcDbEntity
  8
1
  6
SLD-Solid
370
    25
100
AcDbLine
 10
9.5729818568
 20
-21.3647074997
 30
0.0
 11
2.7499999851
 21
-21.3647074997
 31
0.0
  0
LINE
  5
A2
330
1F
100
AcDbEntity
  8
1
  6
SLD-Solid
370
    25
100
AcDbLine
 10
9.5729818568
 20
21.3646870106
 30
0.0
 11
9.5729818568
 21
-21.3647074997
 31
0.0
  0
LINE
  5
A3
330
1F
100
AcDbEntity
  8
1
  6
SLD-Solid
370
    25
100
AcDbLine
 10
2.7499999851
 20
21.3646870106
 30
0.0
 11
9.5729818568
 21
21.3646870106
 31
0.0
  0
LINE
  5
A4
330
1F
100
AcDbEntity
  8
1
  6
SLD-Solid
370
    25
100
AcDbLine
 10
15.5999995768
 20
18.2061903179
 30
0.0
 11
15.5999995768
 21
-18.2061903179
 31
0.0
  0
LINE
  5
A5
330
1F
100
AcDbEntity
  8
1
  6
SLD-Solid
370
    25
100
AcDbLine
 10
17.6270212978
 20
-22.2347714007
 30
0.0
 11
17.3742827028
 21
-21.8788925558
 31
0.0
  0
LINE
  5
A6
330
1F
100
AcDbEntity
  8
1
  6
SLD-Solid
370
    25
100
AcDbLine
 10
17.3742808402
 20
21.8788925558
 30
0.0
 11
17.6270194352
 21
22.2347714007
 31
0.0
  0
LINE
  5
A7
330
1F
100
AcDbEntity
  8
1
  6
SLD-Solid
370
    25
100
AcDbLine
 10
9.7661791369
 20
-21.157881245
 30
0.0
 11
9.5729818568
 21
-21.3647074997
 31
0.0
  0
LINE
  5
A8
330
1F
100
AcDbEntity
  8
1
  6
SLD-Solid
370
    25
100
AcDbLine
 10
11.5999998525
 20
-17.7162475884
 30
0.0
 11
11.4000001922
 21
-18.0953294039
 31
0.0
  0
LINE
  5
A9
330
1F
100
AcDbEntity
  8
1
  6
SLD-Solid
370
    25
100
AcDbLine
 10
11.5999998525
 20
17.7162475884
 30
0.0
 11
11.5999998525
 21
-17.7162475884
 31
0.0
  0
LINE
  5
AA
330
1F
100
AcDbEntity
  8
1
  6
SLD-Solid
370
    25
100
AcDbLine
 10
11.5999998525
 20
17.7162475884
 30
0.0
 11
11.4000001922
 21
18.0953294039
 31
0.0
  0
LINE
  5
AB
330
1F
100
AcDbEntity
  8
1
  6
SLD-Solid
370
    25
100
AcDbLine
 10
11.4000001922
 20
18.0953294039
 30
0.0
 11
9.7662257031
 21
21.1577937007
 31
0.0
  0
LINE
  5
AC
330
1F
100
AcDbEntity
  8
1
  6
SLD-Solid
370
    25
100
AcDbLine
 10
9.5729818568
 20
21.3646870106
 30
0.0
 11
9.7662257031
 21
21.1577937007
 31
0.0
  0
LINE
  5
AD
330
1F
100
AcDbEntity
  8
1
  6
SLD-Solid
370
    25
100
AcDbLine
 10
22.0999995655
 20
-0.0000002486
 30
0.0
 11
22.0999995655
 21
22.2399997514
 31
0.0
  0
LINE
  5
AE
330
1F
100
AcDbEntity
  8
1
  6
SLD-Solid
370
    25
100
AcDbLine
 10
22.1000001437
 20
-22.2400002486
 30
0.0
 11
22.0999995655
 21
-0.0000002486
 31
0.0
  0
LINE
  5
AF
330
1F
100
AcDbEntity
  8
1
  6
SLD-Solid
370
    25
100
AcDbLine
 10
39.4000001252
 20
0.0
 30
0.0
 11
39.4000001252
 21
-20.7499992102
 31
0.0
  0
LINE
  5
B0
330
1F
100
AcDbEntity
  8
1
  6
SLD-Solid
370
    25
100
AcDbLine
 10
39.4000001252
 20
20.7499992102
 30
0.0
 11
39.4000001252
 21
0.0
 31
0.0
  0
LINE
  5
B1
330
1F
100
AcDbEntity
  8
1
  6
SLD-Solid
370
    25
100
AcDbLine
 10
52.0000010729
 20
0.0
 30
0.0
 11
52.0000010729
 21
-13.4753864259
 31
0.0
  0
LINE
  5
B2
330
1F
100
AcDbEntity
  8
1
  6
SLD-Solid
370
    25
100
AcDbLine
 10
52.0000010729
 20
13.4753864259
 30
0.0
 11
52.0000010729
 21
0.0
 31
0.0
  0
LINE
  5
B3
330
1F
100
AcDbEntity
  8
1
  6
SLD-Solid
370
    25
100
AcDbLine
 10
0.0
 20
0.0
 30
0.0
 11
0.0
 21
-15.8750005066
 31
0.0
  0
LINE
  5
B4
330
1F
100
AcDbEntity
  8
1
  6
SLD-Solid
370
    25
100
AcDbLine
 10
0.0
 20
15.8750005066
 30
0.0
 11
0.0
 21
0.0
 31
0.0
  0
LINE
  5
B5
330
1F
100
AcDbEntity
  8
SK1
  6
SLD-Solid
370
    25
100
AcDbLine
 10
-48.3999997413
 20
8.4918454314
 30
0.0
 11
-48.3999997413
 21
-8.4918449839
 31
0.0
  0
LINE
  5
B6
330
1F
100
AcDbEntity
  8
1
  6
SLD-Solid
370
    25
100
AcDbLine
 10
17.6270194352
 20
22.2347714007
 30
0.0
 11
17.3742808402
 21
21.8788925558
 31
0.0
  0
LINE
  5
B7
330
1F
100
AcDbEntity
  8
1
  6
SLD-Solid
370
    25
100
AcDbLine
 10
17.3742827028
 20
-21.8788925558
 30
0.0
 11
17.6270212978
 21
-22.2347714007
 31
0.0
  0
LINE
  5
B8
330
1F
100
AcDbEntity
  8
1
  6
SLD-Solid
370
    25
100
AcDbLine
 10
0.8619053906
 20
0.0
 30
0.0
 11
0.8619053906
 21
-15.5663484474
 31
0.0
  0
LINE
  5
B9
330
1F
100
AcDbEntity
  8
1
  6
SLD-Solid
370
    25
100
AcDbLine
 10
0.8619053906
 20
15.5663484474
 30
0.0
 11
0.8619053906
 21
0.0
 31
0.0
  0
LINE
  5
BA
330
1F
100
AcDbEntity
  8
SK3
  6
SLD-Dashed
370
    18
100
AcDbLine
 10
2.2225615103
 20
-16.1499995738
 30
0.0
 11
11.4000001922
 21
-16.1499995738
 31
0.0
  0
LINE
  5
BB
330
1F
100
AcDbEntity
  8
SK3
  6
SLD-Dashed
370
    18
100
AcDbLine
 10
11.4000001922
 20
-16.1499995738
 30
0.0
 11
19.1249996424
 21
-16.1499995738
 31
0.0
  0
LINE
  5
BC
330
1F
100
AcDbEntity
  8
SK3
  6
SLD-Dashed
370
    18
100
AcDbLine
 10
11.4000001922
 20
16.1499995738
 30
0.0
 11
2.2226325236
 21
16.1499995738
 31
0.0
  0
LINE
  5
BD
330
1F
100
AcDbEntity
  8
SK3
  6
SLD-Dashed
370
    18
100
AcDbLine
 10
19.1249996424
 20
16.1499995738
 30
0.0
 11
11.4000001922
 21
16.1499995738
 31
0.0
  0
LINE
  5
BE
330
1F
100
AcDbEntity
  8
SK3
  6
SLD-Dashed
370
    18
100
AcDbLine
 10
37.0999984443
 20
19.1500000656
 30
0.0
 11
22.9000002146
 21
19.1500000656
 31
0.0
  0
LINE
  5
BF
330
1F
100
AcDbEntity
  8
SK3
  6
SLD-Dashed
370
    18
100
AcDbLine
 10
-47.4000014365
 20
-6.2564997934
 30
0.0
 11
-47.4000014365
 21
6.2564997934
 31
0.0
  0
LINE
  5
C0
330
1F
100
AcDbEntity
  8
SK3
  6
SLD-Dashed
370
    18
100
AcDbLine
 10
-43.1500002742
 20
-6.6249999218
 30
0.0
 11
-43.1500002742
 21
6.6249999218
 31
0.0
  0
LINE
  5
C1
330
1F
100
AcDbEntity
  8
SK3
  6
SLD-Dashed
370
    18
100
AcDbLine
 10
-43.7882617116
 20
-6.2564997934
 30
0.0
 11
-43.7882617116
 21
6.2564997934
 31
0.0
  0
LINE
  5
C2
330
1F
100
AcDbEntity
  8
SK3
  6
SLD-Dashed
370
    18
100
AcDbLine
 10
-41.1499999464
 20
-6.6249999218
 30
0.0
 11
-41.1499999464
 21
6.6249999218
 31
0.0
  0
LINE
  5
C3
330
1F
100
AcDbEntity
  8
SK3
  6
SLD-Dashed
370
    18
100
AcDbLine
 10
-40.2695424855
 20
0.0
 30
0.0
 11
-40.2695424855
 21
5.100000184
 31
0.0
  0
LINE
  5
C4
330
1F
100
AcDbEntity
  8
SK3
  6
SLD-Dashed
370
    18
100
AcDbLine
 10
-40.2695424855
 20
-5.100000184
 30
0.0
 11
-40.2695424855
 21
0.0
 31
0.0
  0
LINE
  5
C5
330
1F
100
AcDbEntity
  8
SK3
  6
SLD-Dashed
370
    18
100
AcDbLine
 10
50.999998847
 20
0.0000001807
 30
0.0
 11
50.999998847
 21
-5.9999998715
 31
0.0
  0
LINE
  5
C6
330
1F
100
AcDbEntity
  8
SK3
  6
SLD-Dashed
370
    18
100
AcDbLine
 10
50.999998847
 20
6.0000002328
 30
0.0
 11
50.999998847
 21
0.0000001807
 31
0.0
  0
LINE
  5
C7
330
1F
100
AcDbEntity
  8
SK3
  6
SLD-Dashed
370
    18
100
AcDbLine
 10
5.2499999292
 20
6.2394258566
 30
0.0
 11
5.2499999292
 21
-6.2394258566
 31
0.0
  0
LINE
  5
C8
330
1F
100
AcDbEntity
  8
SK3
  6
SLD-Dashed
370
    18
100
AcDbLine
 10
4.9999998882
 20
-6.0000000522
 30
0.0
 11
4.9999998882
 21
6.0000000522
 31
0.0
  0
LINE
  5
C9
330
1F
100
AcDbEntity
  8
SK3
  6
SLD-Dashed
370
    18
100
AcDbLine
 10
7.7499998733
 20
6.2394258566
 30
0.0
 11
7.7499998733
 21
-6.2394258566
 31
0.0
  0
LINE
  5
CA
330
1F
100
AcDbEntity
  8
SK3
  6
SLD-Dashed
370
    18
100
AcDbLine
 10
8.0000001807
 20
-5.9999998715
 30
0.0
 11
8.0000001807
 21
6.0000002328
 31
0.0
  0
LINE
  5
CB
330
1F
100
AcDbEntity
  8
SK3
  6
SLD-Dashed
370
    18
100
AcDbLine
 10
6.3000000067
 20
-11.4500000536
 30
0.0
 11
15.6999994054
 21
-11.4500000536
 31
0.0
  0
LINE
  5
CC
330
1F
100
AcDbEntity
  8
1
  6
SLD-Dashed
370
    18
100
AcDbLine
 10
9.766234085
 20
21.1577787995
 30
0.0
 11
9.5729818568
 21
21.3646870106
 31
0.0
  0
LINE
  5
CD
330
1F
100
AcDbEntity
  8
1
  6
SLD-Dashed
370
    18
100
AcDbLine
 10
9.5729818568
 20
-21.3646925986
 30
0.0
 11
9.7662126645
 21
-21.1578197777
 31
0.0
  0
LINE
  5
CE
330
1F
100
AcDbEntity
  8
1
  6
SLD-Dashed
370
    18
100
AcDbLine
 10
2.2226325236
 20
16.1499995738
 30
0.0
 11
2.000000095
 21
15.8416256309
 31
0.0
  0
LINE
  5
CF
330
1F
100
AcDbEntity
  8
SK3
  6
SLD-Dashed
370
    18
100
AcDbLine
 10
2.000000095
 20
-15.8416498452
 30
0.0
 11
2.2225615103
 21
-16.1499995738
 31
0.0
  0
LINE
  5
D0
330
1F
100
AcDbEntity
  8
SK3
  6
SLD-Dashed
370
    18
100
AcDbLine
 10
19.5000004143
 20
22.6152222484
 30
0.0
 11
19.5000004143
 21
16.5250003219
 31
0.0
  0
LINE
  5
D1
330
1F
100
AcDbEntity
  8
SK3
  6
SLD-Dashed
370
    18
100
AcDbLine
 10
19.5000004143
 20
-16.5250003219
 30
0.0
 11
19.5000004143
 21
-22.6151868582
 31
0.0
  0
LINE
  5
D2
330
1F
100
AcDbEntity
  8
SK3
  6
SLD-Dashed
370
    18
100
AcDbLine
 10
37.0999984443
 20
20.7499992102
 30
0.0
 11
37.0999984443
 21
19.1500000656
 31
0.0
  0
LINE
  5
D3
330
1F
100
AcDbEntity
  8
SK3
  6
SLD-Dashed
370
    18
100
AcDbLine
 10
22.9000002146
 20
19.1500000656
 30
0.0
 11
22.9000002146
 21
20.7499992102
 31
0.0
  0
LINE
  5
D4
330
1F
100
AcDbEntity
  8
SK3
  6
SLD-Dashed
370
    18
100
AcDbLine
 10
-48.3999997377
 20
6.8338504061
 30
0.0
 11
-47.4000014365
 21
6.2564997934
 31
0.0
  0
LINE
  5
D5
330
1F
100
AcDbEntity
  8
SK3
  6
SLD-Dashed
370
    18
100
AcDbLine
 10
-47.4000014365
 20
-6.2564997934
 30
0.0
 11
-48.3999997377
 21
-6.8338504061
 31
0.0
  0
LINE
  5
D6
330
1F
100
AcDbEntity
  8
SK3
  6
SLD-Dashed
370
    18
100
AcDbLine
 10
-43.1500002742
 20
-6.6249999218
 30
0.0
 11
-43.7882617116
 21
-6.2564997934
 31
0.0
  0
LINE
  5
D7
330
1F
100
AcDbEntity
  8
SK3
  6
SLD-Dashed
370
    18
100
AcDbLine
 10
-43.7882617116
 20
6.2564997934
 30
0.0
 11
-43.1500002742
 21
6.6249999218
 31
0.0
  0
LINE
  5
D8
330
1F
100
AcDbEntity
  8
SK3
  6
SLD-Dashed
370
    18
100
AcDbLine
 10
-41.1499999464
 20
-6.6249999218
 30
0.0
 11
-43.1500002742
 21
-6.6249999218
 31
0.0
  0
LINE
  5
D9
330
1F
100
AcDbEntity
  8
SK3
  6
SLD-Dashed
370
    18
100
AcDbLine
 10
-43.1500002742
 20
6.6249999218
 30
0.0
 11
-41.1499999464
 21
6.6249999218
 31
0.0
  0
LINE
  5
DA
330
1F
100
AcDbEntity
  8
SK3
  6
SLD-Dashed
370
    18
100
AcDbLine
 10
-41.1499999464
 20
6.6249999218
 30
0.0
 11
-40.2695424855
 21
5.100000184
 31
0.0
  0
LINE
  5
DB
330
1F
100
AcDbEntity
  8
SK3
  6
SLD-Dashed
370
    18
100
AcDbLine
 10
-40.2695424855
 20
-5.100000184
 30
0.0
 11
-41.1499999464
 21
-6.6249999218
 31
0.0
  0
LINE
  5
DC
330
1F
100
AcDbEntity
  8
SK3
  6
SLD-Dashed
370
    18
100
AcDbLine
 10
52.0000008736
 20
-6.5773500185
 30
0.0
 11
50.999998847
 21
-5.9999998715
 31
0.0
  0
LINE
  5
DD
330
1F
100
AcDbEntity
  8
SK3
  6
SLD-Dashed
370
    18
100
AcDbLine
 10
50.999998847
 20
6.0000002328
 30
0.0
 11
52.0000008736
 21
6.5773503799
 31
0.0
  0
LINE
  5
DE
330
1F
100
AcDbEntity
  8
SK3
  6
SLD-Dashed
370
    18
100
AcDbLine
 10
-43.7882617116
 20
-6.2564997934
 30
0.0
 11
-47.4000014365
 21
-6.2564997934
 31
0.0
  0
LINE
  5
DF
330
1F
100
AcDbEntity
  8
SK3
  6
SLD-Dashed
370
    18
100
AcDbLine
 10
-47.4000014365
 20
6.2564997934
 30
0.0
 11
-43.7882617116
 21
6.2564997934
 31
0.0
  0
LINE
  5
E0
330
1F
100
AcDbEntity
  8
SK3
  6
SLD-Dashed
370
    18
100
AcDbLine
 10
7.7499998175
 20
-6.2500000559
 30
0.0
 11
5.2499999441
 21
-6.2500000559
 31
0.0
  0
LINE
  5
E1
330
1F
100
AcDbEntity
  8
SK3
  6
SLD-Dashed
370
    18
100
AcDbLine
 10
5.2499999441
 20
6.2500000559
 30
0.0
 11
7.7499998175
 21
6.2500000559
 31
0.0
  0
LINE
  5
E2
330
1F
100
AcDbEntity
  8
SK3
  6
SLD-Dashed
370
    18
100
AcDbLine
 10
50.999998847
 20
-5.9999998715
 30
0.0
 11
8.0000001807
 21
-5.9999998715
 31
0.0
  0
LINE
  5
E3
330
1F
100
AcDbEntity
  8
SK3
  6
SLD-Dashed
370
    18
100
AcDbLine
 10
35.1000016425
 20
6.0000002328
 30
0.0
 11
50.999998847
 21
6.0000002328
 31
0.0
  0
LINE
  5
E4
330
1F
100
AcDbEntity
  8
SK3
  6
SLD-Dashed
370
    18
100
AcDbLine
 10
8.0000001807
 20
6.0000002328
 30
0.0
 11
24.9063296113
 21
6.0000002328
 31
0.0
  0
LINE
  5
E5
330
1F
100
AcDbEntity
  8
SK3
  6
SLD-Dashed
370
    18
100
AcDbLine
 10
19.8749992996
 20
22.9899995029
 30
0.0
 11
19.5000004023
 21
22.6150006056
 31
0.0
  0
LINE
  5
E6
330
1F
100
AcDbEntity
  8
SK3
  6
SLD-Dashed
370
    18
100
AcDbLine
 10
19.5000004023
 20
-22.6150006056
 30
0.0
 11
19.8749992996
 21
-22.9899995029
 31
0.0
  0
LINE
  5
E7
330
1F
100
AcDbEntity
  8
SK3
  6
SLD-Dashed
370
    18
100
AcDbLine
 10
35.1000016425
 20
19.1500002462
 30
0.0
 11
35.1000016425
 21
6.0000002328
 31
0.0
  0
LINE
  5
E8
330
1F
100
AcDbEntity
  8
SK3
  6
SLD-Dashed
370
    18
100
AcDbLine
 10
24.9000005424
 20
5.9946267866
 30
0.0
 11
24.9000005424
 21
19.1500000656
 31
0.0
  0
LINE
  5
E9
330
1F
100
AcDbEntity
  8
SK3
  6
SLD-Dashed
370
    18
100
AcDbLine
 10
-40.2695424855
 20
5.100000184
 30
0.0
 11
-13.3999995887
 21
5.100000184
 31
0.0
  0
LINE
  5
EA
330
1F
100
AcDbEntity
  8
SK3
  6
SLD-Dashed
370
    18
100
AcDbLine
 10
-13.3999995887
 20
-5.100000184
 30
0.0
 11
-40.2695424855
 21
-5.100000184
 31
0.0
  0
LINE
  5
EB
330
1F
100
AcDbEntity
  8
SK3
  6
SLD-Dashed
370
    18
100
AcDbLine
 10
-13.3999995887
 20
5.100000184
 30
0.0
 11
-13.3398836479
 21
4.9999500625
 31
0.0
  0
LINE
  5
EC
330
1F
100
AcDbEntity
  8
SK3
  6
SLD-Dashed
370
    18
100
AcDbLine
 10
-13.3398836479
 20
-4.9999500625
 30
0.0
 11
-13.3999995887
 21
-5.100000184
 31
0.0
  0
LINE
  5
ED
330
1F
100
AcDbEntity
  8
SK3
  6
SLD-Dashed
370
    18
100
AcDbLine
 10
6.0000000522
 20
-16.1499995738
 30
0.0
 11
6.0000000522
 21
-11.75
 31
0.0
  0
LINE
  5
EE
330
1F
100
AcDbEntity
  8
SK3
  6
SLD-Dashed
370
    18
100
AcDbLine
 10
15.9999999449
 20
-11.75
 30
0.0
 11
16.0000007048
 21
-16.1499995738
 31
0.0
  0
LINE
  5
EF
330
1F
100
AcDbEntity
  8
SK3
  6
SLD-Dashed
370
    18
100
AcDbLine
 10
-13.3398836479
 20
4.9999500625
 30
0.0
 11
4.9999998882
 21
4.9999500625
 31
0.0
  0
LINE
  5
F0
330
1F
100
AcDbEntity
  8
SK3
  6
SLD-Dashed
370
    18
100
AcDbLine
 10
4.9999998882
 20
-4.9999500625
 30
0.0
 11
-13.3398836479
 21
-4.9999500625
 31
0.0
  0
LINE
  5
F1
330
1F
100
AcDbEntity
  8
1
  6
SLD-Dashed
370
    18
100
AcDbLine
 10
2.2226453293
 20
16.1499995738
 30
0.0
 11
2.000000095
 21
15.8416256309
 31
0.0
  0
LINE
  5
F2
330
1F
100
AcDbEntity
  8
SK3
  6
SLD-Dashed
370
    18
100
AcDbLine
 10
2.000000095
 20
-15.8416330814
 30
0.0
 11
2.2226122674
 21
-16.1499995738
 31
0.0
  0
LINE
  5
F3
330
1F
100
AcDbEntity
  8
1
  6
SLD-Dashed
370
    18
100
AcDbLine
 10
0.8619053906
 20
-15.5663484474
 30
0.0
 11
0.8619053906
 21
15.5663484474
 31
0.0
  0
LINE
  5
F4
330
1F
100
AcDbEntity
  8
SK3
  6
SLD-Solid
370
    18
100
AcDbLine
 10
-40.7891560818
 20
-6.0
 30
0.0
 11
-23.4
 21
-6.0
 31
0.0
  0
LINE
  5
F5
330
1F
100
AcDbEntity
  8
SK3
  6
SLD-Solid
370
    18
100
AcDbLine
 10
-40.7891560818
 20
6.0
 30
0.0
 11
-23.4
 21
6.0
 31
0.0
  0
LINE
  5
F6
330
1F
100
AcDbEntity
  8
SK3
  6
SLD-Dashed
370
    18
100
AcDbLine
 10
-23.4
 20
6.0
 30
0.0
 11
-23.4
 21
-6.0
 31
0.0
  0
LINE
  5
F7
330
1F
100
AcDbEntity
  8
SK3
  6
SLD-Solid
370
    18
100
AcDbLine
 10
24.0
 20
19.15
 30
0.0
 11
24.0
 21
6.0
 31
0.0
  0
LINE
  5
F8
330
1F
100
AcDbEntity
  8
SK3
  6
SLD-Solid
370
    18
100
AcDbLine
 10
36.0
 20
19.15
 30
0.0
 11
36.0
 21
6.0
 31
0.0
  0
LINE
  5
F9
330
1F
100
AcDbEntity
  8
4
  6
SLD-Center
370
    18
100
AcDbLine
 10
0.1503853285
 20
0.0
 30
0.0
 11
54.0
 21
0.0
 31
0.0
  0
LINE
  5
FA
330
1F
100
AcDbEntity
  8
4
  6
SLD-Center
370
    18
100
AcDbLine
 10
30.0
 20
21.15
 30
0.0
 11
30.0
 21
4.0
 31
0.0
  0
LINE
  5
FB
330
1F
100
AcDbEntity
  8
SK4
  6
SLD-Center
370
    18
100
AcDbLine
 10
-49.4
 20
0.0
 30
0.0
 11
53.9608939945
 21
0.0
 31
0.0
  0
ARC
  5
FC
330
1F
100
AcDbEntity
  8
1
  6
SLD-Solid
370
    25
100
AcDbCircle
 10
21.3499998141
 20
22.2399997417
 30
0.0
 40
0.7499997514486303
100
AcDbArc
 50
0.0000007448
 51
89.9999966466
  0
ARC
  5
FD
330
1F
100
AcDbEntity
  8
1
  6
SLD-Solid
370
    25
100
AcDbCircle
 10
21.3500003923
 20
-22.2400002583
 30
0.0
 40
0.7499997514486338
100
AcDbArc
 50
270.0000048429
 51
0.0000007448
  0
ARC
  5
FE
330
1F
100
AcDbEntity
  8
1
  6
SLD-Solid
370
    25
100
AcDbCircle
 10
23.1
 20
-21.75
 30
0.0
 40
1.000000000000004
100
AcDbArc
 50
90.0
 51
180.0
  0
ARC
  5
FF
330
1F
100
AcDbEntity
  8
1
  6
SLD-Solid
370
    25
100
AcDbCircle
 10
1.2
 20
16.291394677
 30
0.0
 40
0.8000000000000114
100
AcDbArc
 50
245.0
 51
349.8173681012
  0
ARC
  5
100
330
1F
100
AcDbEntity
  8
1
  6
SLD-Solid
370
    25
100
AcDbCircle
 10
1.2
 20
-16.291394677
 30
0.0
 40
0.8000000000000064
100
AcDbArc
 50
10.1715224303
 51
115.0
  0
ARC
  5
101
330
1F
100
AcDbEntity
  8
SK1
  6
SLD-Solid
370
    25
100
AcDbCircle
 10
-48.0249999674
 20
-8.4918449839
 30
0.0
 40
0.3749997739126781
100
AcDbArc
 50
180.0
 51
261.7023743759
  0
ARC
  5
102
330
1F
100
AcDbEntity
  8
SK1
  6
SLD-Solid
370
    25
100
AcDbCircle
 10
-48.0249999674
 20
8.4918449839
 30
0.0
 40
0.3749997739126743
100
AcDbArc
 50
98.2976256241
 51
179.999931636
  0
ARC
  5
103
330
1F
100
AcDbEntity
  8
1
  6
SLD-Solid
370
    25
100
AcDbCircle
 10
23.0999664715
 20
21.7275551108
 30
0.0
 40
0.9999660617002939
100
AcDbArc
 50
179.6569110113
 51
260.7351870101
  0
ARC
  5
104
330
1F
100
AcDbEntity
  8
1
  6
SLD-Solid
370
    25
100
AcDbCircle
 10
23.0983719678
 20
21.6807928416
 30
0.0
 40
0.9983735872450079
100
AcDbArc
 50
180.0935364126
 51
270.0934241915
  0
ARC
  5
105
330
1F
100
AcDbEntity
  8
1
  6
SLD-Solid
370
    25
100
AcDbCircle
 10
30.0000227515
 20
-47.3317617754
 30
0.0
 40
27.10331854388783
100
AcDbArc
 50
78.7416235495
 51
101.2448352897
  0
ARC
  5
106
330
1F
100
AcDbEntity
  8
1
  6
SLD-Dashed
370
    18
100
AcDbCircle
 10
23.0983719678
 20
21.6807928416
 30
0.0
 40
0.9983735872450079
100
AcDbArc
 50
180.0935364126
 51
270.0934241915
  0
ARC
  5
107
330
1F
100
AcDbEntity
  8
SK3
  6
SLD-Dashed
370
    18
100
AcDbCircle
 10
19.125
 20
-16.5249999881
 30
0.0
 40
0.3750004142524468
100
AcDbArc
 50
359.9999490013
 51
90.0000546414
  0
ARC
  5
108
330
1F
100
AcDbEntity
  8
SK3
  6
SLD-Dashed
370
    18
100
AcDbCircle
 10
19.125
 20
16.5249999881
 30
0.0
 40
0.3750004142524546
100
AcDbArc
 50
269.9999453586
 51
0.0000509987
  0
ARC
  5
109
330
1F
100
AcDbEntity
  8
SK3
  6
SLD-Dashed
370
    18
100
AcDbCircle
 10
5.2499999441
 20
-6.0
 30
0.0
 40
0.25000005587935
100
AcDbArc
 50
180.0000119528
 51
270.0
  0
ARC
  5
10A
330
1F
100
AcDbEntity
  8
SK3
  6
SLD-Dashed
370
    18
100
AcDbCircle
 10
5.2499999441
 20
6.0
 30
0.0
 40
0.25000005587935
100
AcDbArc
 50
90.0
 51
179.9999880472
  0
ARC
  5
10B
330
1F
100
AcDbEntity
  8
SK3
  6
SLD-Dashed
370
    18
100
AcDbCircle
 10
7.7499999441
 20
-5.9999998193
 30
0.0
 40
0.2500002365559616
100
AcDbArc
 50
269.9999709717
 51
359.9999880472
  0
ARC
  5
10C
330
1F
100
AcDbEntity
  8
SK3
  6
SLD-Dashed
370
    18
100
AcDbCircle
 10
7.7499999441
 20
5.9999998193
 30
0.0
 40
0.250000236555965
100
AcDbArc
 50
0.0000947688
 51
90.0000290284
  0
ARC
  5
10D
330
1F
100
AcDbEntity
  8
SK3
  6
SLD-Dashed
370
    18
100
AcDbCircle
 10
15.6999999985
 20
-11.75
 30
0.0
 40
0.2999999463561168
100
AcDbArc
 50
0.0
 51
90.0001132673
  0
ARC
  5
10E
330
1F
100
AcDbEntity
  8
SK3
  6
SLD-Dashed
370
    18
100
AcDbCircle
 10
6.2999999985
 20
-11.75
 30
0.0
 40
0.2999999463558219
100
AcDbArc
 50
89.9999984348
 51
180.0
  0
ARC
  5
10F
330
1F
100
AcDbEntity
  8
SK3
  6
SLD-Dashed
370
    18
100
AcDbCircle
 10
30.0
 20
-26.75
 30
0.0
 40
7.999999999999995
100
AcDbArc
 50
48.5877311549
 51
131.3671777392
  0
SPLINE
  5
110
330
1F
100
AcDbEntity
  8
1
  6
SLD-Solid
370
    25
100
AcDbSpline
210
0.0
220
0.0
230
1.0
 70
     8
 71
     3
 72
    13
 73
     9
 74
     0
 42
0.000000001
 43
0.00000001
 40
0.0
 40
0.0
 40
0.0
 40
0.0
 40
0.1273796510901593
 40
0.2548023132324157
 40
0.3810137752727651
 40
0.5067356755527628
 40
0.7541714792932378
 40
1.0
 40
1.0
 40
1.0
 40
1.0
 10
2.749999985098839
 20
-21.3647074997425
 30
0.0
 10
2.699072159949731
 20
-21.36159746517169
 30
0.0
 10
2.597199313346447
 20
-21.35537634589483
 30
0.0
 10
2.451698922676063
 20
-21.30610898033725
 30
0.0
 10
2.319530640484409
 20
-21.23071838798524
 30
0.0
 10
2.170242457987727
 20
-21.09843780289749
 30
0.0
 10
2.03124815008221
 20
-20.88405937761559
 30
0.0
 10
2.010393461954744
 20
-20.68730680308893
 30
0.0
 10
2.000000094994903
 20
-20.58925107121467
 30
0.0
  0
SPLINE
  5
111
330
1F
100
AcDbEntity
  8
1
  6
SLD-Solid
370
    25
100
AcDbSpline
210
0.0
220
0.0
230
1.0
 70
     8
 71
     3
 72
    13
 73
     9
 74
     0
 42
0.000000001
 43
0.00000001
 40
0.0
 40
0.0
 40
0.0
 40
0.0
 40
0.2453878575590204
 40
0.492792270848615
 40
0.6178980062229874
 40
0.7446954090942679
 40
0.8714114447108553
 40
1.0
 40
1.0
 40
1.0
 40
1.0
 10
2.000000094994903
 20
20.58923989534377
 30
0.0
 10
2.010356133736138
 20
20.68711697930205
 30
0.0
 10
2.031153315385864
 20
20.88367548446869
 30
0.0
 10
2.169752534870166
 20
21.09777011228752
 30
0.0
 10
2.318849231406614
 20
21.23020857840565
 30
0.0
 10
2.450675404658743
 20
21.30562398979295
 30
0.0
 10
2.596507313800712
 20
21.35523137669013
 30
0.0
 10
2.698586197055645
 20
21.36151975871193
 30
0.0
 10
2.749999985098839
 20
21.36468701064586
 30
0.0
  0
SPLINE
  5
112
330
1F
100
AcDbEntity
  8
1
  6
SLD-Solid
370
    25
100
AcDbSpline
210
0.0
220
0.0
230
1.0
 70
     8
 71
     3
 72
    12
 73
     8
 74
     0
 42
0.000000001
 43
0.00000001
 40
0.0
 40
0.0
 40
0.0
 40
0.0
 40
0.1663813572529823
 40
0.3332082082878497
 40
0.5008782451581129
 40
0.7501536777561935
 40
1.0
 40
1.0
 40
1.0
 40
1.0
 10
19.87476646900178
 20
-22.98991195857525
 30
0.0
 10
19.86212217265367
 20
-22.98508722853842
 30
0.0
 10
19.83679972426895
 20
-22.97542485002685
 30
0.0
 10
19.63213174865329
 20
-22.89805633346498
 30
0.0
 10
19.25361962388571
 20
-22.75986490483406
 30
0.0
 10
18.62955792255994
 20
-22.53879327074707
 30
0.0
 10
17.96145489554674
 20
-22.33618926940751
 30
0.0
 10
17.62702129781248
 20
-22.23477140069008
 30
0.0
  0
SPLINE
  5
113
330
1F
100
AcDbEntity
  8
1
  6
SLD-Solid
370
    25
100
AcDbSpline
210
0.0
220
0.0
230
1.0
 70
     8
 71
     3
 72
    11
 73
     7
 74
     0
 42
0.000000001
 43
0.00000001
 40
0.0
 40
0.0
 40
0.0
 40
0.0
 40
0.2499572501908022
 40
0.4993433572696046
 40
0.7504973822680822
 40
1.0
 40
1.0
 40
1.0
 40
1.0
 10
17.62701943516733
 20
22.23477140069007
 30
0.0
 10
17.96178082338916
 20
22.33632648309628
 30
0.0
 10
18.63053868238837
 20
22.53920459828517
 30
0.0
 10
19.32771592898798
 20
22.78586089779335
 30
0.0
 10
19.78946819115633
 20
22.95696755018272
 30
0.0
 10
19.84631674151323
 20
22.97892482868968
 30
0.0
 10
19.87464725971223
 20
22.98986725509166
 30
0.0
  0
SPLINE
  5
114
330
1F
100
AcDbEntity
  8
1
  6
SLD-Solid
370
    25
100
AcDbSpline
210
0.0
220
0.0
230
1.0
 70
     8
 71
     3
 72
     9
 73
     5
 74
     0
 42
0.000000001
 43
0.00000001
 40
0.0
 40
0.0
 40
0.0
 40
0.0
 40
0.4976056576607235
 40
1.0
 40
1.0
 40
1.0
 40
1.0
 10
17.37428270280363
 20
-21.87889255583286
 30
0.0
 10
17.08627156803901
 20
-21.28549952887689
 30
0.0
 10
16.50747763687962
 20
-20.09300298503624
 30
0.0
 10
15.90345641921474
 20
-18.83713252946115
 30
0.0
 10
15.59999957680704
 20
-18.20619031786918
 30
0.0
  0
SPLINE
  5
115
330
1F
100
AcDbEntity
  8
1
  6
SLD-Solid
370
    25
100
AcDbSpline
210
0.0
220
0.0
230
1.0
 70
     8
 71
     3
 72
     9
 73
     5
 74
     0
 42
0.000000001
 43
0.00000001
 40
0.0
 40
0.0
 40
0.0
 40
0.0
 40
0.4976057258748064
 40
1.0
 40
1.0
 40
1.0
 40
1.0
 10
17.37428084015848
 20
21.87889255583286
 30
0.0
 10
17.08626957293684
 20
21.28549957166118
 30
0.0
 10
16.5074754549325
 20
20.09300327727371
 30
0.0
 10
15.90345566215616
 20
18.83713257016311
 30
0.0
 10
15.59999957680704
 20
18.20619031786918
 30
0.0
  0
SPLINE
  5
116
330
1F
100
AcDbEntity
  8
1
  6
SLD-Solid
370
    25
100
AcDbSpline
210
0.0
220
0.0
230
1.0
 70
     8
 71
     3
 72
     9
 73
     5
 74
     0
 42
0.000000001
 43
0.00000001
 40
0.0
 40
0.0
 40
0.0
 40
0.0
 40
0.2809632074841785
 40
1.0
 40
1.0
 40
1.0
 40
1.0
 10
11.40000019222498
 20
-18.09532940387725
 30
0.0
 10
11.24819034344257
 20
-18.38279189228648
 30
0.0
 10
10.70787102497464
 20
-19.40592403468776
 30
0.0
 10
10.16006896969428
 20
-20.42507453685083
 30
0.0
 10
9.766179136931896
 20
-21.15788124501705
 30
0.0
  0
SPLINE
  5
117
330
1F
100
AcDbEntity
  8
1
  6
SLD-Solid
370
    25
100
AcDbSpline
210
0.0
220
0.0
230
1.0
 70
     8
 71
     3
 72
    36
 73
    32
 74
     0
 42
0.000000001
 43
0.00000001
 40
0.0
 40
0.0
 40
0.0
 40
0.0
 40
0.0352441867495671
 40
0.0851666650611543
 40
0.1336690888263084
 40
0.1759870112838967
 40
0.1973800594812994
 40
0.2481652342269687
 40
0.2701964294150648
 40
0.292565583751144
 40
0.3150302939295536
 40
0.3656791703633427
 40
0.3876798392989537
 40
0.4100584785005799
 40
0.4325446476776815
 40
0.4804820483532271
 40
0.5224132923140761
 40
0.5436463194444413
 40
0.5906509920382617
 40
0.631668896610899
 40
0.6524041622496028
 40
0.7015615658339844
 40
0.7444568614121811
 40
0.7661459547640312
 40
0.7952172313934244
 40
0.8173225352035333
 40
0.8395193122473521
 40
0.8847007700133677
 40
0.9344204807178799
 40
0.9779435021778107
 40
1.0
 40
1.0
 40
1.0
 40
1.0
 10
23.09999987483026
 20
20.6824205815792
 30
0.0
 10
23.16452136486914
 20
20.66101634028546
 30
0.0
 10
23.32043587554961
 20
20.60929354520138
 30
0.0
 10
23.69694565537493
 20
20.48934569540716
 30
0.0
 10
24.20507679629173
 20
20.33818647678958
 30
0.0
 10
24.69249622659758
 20
20.2053810932341
 30
0.0
 10
25.24114618722208
 20
20.06755307314022
 30
0.0
 10
25.73978093885361
 20
19.95431514649199
 30
0.0
 10
26.28311096437703
 20
19.84740144503498
 30
0.0
 10
26.68088205161524
 20
19.77663488696157
 30
0.0
 10
27.26955925251866
 20
19.68368711908492
 30
0.0
 10
27.8875143765896
 20
19.60691923721502
 30
0.0
 10
28.52450858244825
 20
19.55153546963155
 30
0.0
 10
28.97981683903198
 20
19.52236375535326
 30
0.0
 10
29.61835512384055
 20
19.49648837032051
 30
0.0
 10
30.3995562974952
 20
19.49409544776742
 30
0.0
 10
31.16452903633438
 20
19.52860803131553
 30
0.0
 10
31.90797526753649
 20
19.58644695839967
 30
0.0
 10
32.62582689612785
 20
19.66759489540832
 30
0.0
 10
33.30128637428745
 20
19.77241649838071
 30
0.0
 10
33.95528910480044
 20
19.89145767470112
 30
0.0
 10
34.57809423016391
 20
20.02370179780468
 30
0.0
 10
35.13832970771115
 20
20.16164089916974
 30
0.0
 10
35.5558143495307
 20
20.27279258052175
 30
0.0
 10
35.85274660722387
 20
20.35634179985446
 30
0.0
 10
36.12143494298007
 20
20.43546669355418
 30
0.0
 10
36.41575346602583
 20
20.52516928028326
 30
0.0
 10
36.73252812762522
 20
20.62640705064419
 30
0.0
 10
36.98189446778713
 20
20.70966137957014
 30
0.0
 10
37.08814618085718
 20
20.74594344979213
 30
0.0
 10
37.09701543080598
 20
20.7489784441835
 30
0.0
 10
37.09999844431879
 20
20.74999921023845
 30
0.0
  0
SPLINE
  5
118
330
1F
100
AcDbEntity
  8
1
  6
SLD-Solid
370
    25
100
AcDbSpline
210
0.0
220
0.0
230
1.0
 70
     8
 71
     3
 72
    13
 73
     9
 74
     0
 42
0.000000001
 43
0.00000001
 40
0.0
 40
0.0
 40
0.0
 40
0.0
 40
0.1837767193380704
 40
0.3677192685051416
 40
0.5565849058146647
 40
0.7635140597837621
 40
0.9922220578957636
 40
1.0
 40
1.0
 40
1.0
 40
1.0
 10
11.97499968111515
 20
-17.05831848084926
 30
0.0
 10
11.93716334760463
 20
-17.06081445339413
 30
0.0
 10
11.86145653919322
 20
-17.06580865070983
 30
0.0
 10
11.75842045374513
 20
-17.12135049859853
 30
0.0
 10
11.67417256649493
 20
-17.206921996123
 30
0.0
 10
11.61539717119274
 20
-17.32275363253872
 30
0.0
 10
11.60017303909
 20
-17.4140232751634
 30
0.0
 10
11.60000536715151
 20
-17.46244179081498
 30
0.0
 10
11.5999998524785
 20
-17.46403425931931
 30
0.0
  0
SPLINE
  5
119
330
1F
100
AcDbEntity
  8
1
  6
SLD-Solid
370
    25
100
AcDbSpline
210
0.0
220
0.0
230
1.0
 70
     8
 71
     3
 72
    13
 73
     9
 74
     0
 42
0.000000001
 43
0.00000001
 40
0.0
 40
0.0
 40
0.0
 40
0.0
 40
0.1837767193380704
 40
0.3677192685051416
 40
0.5565849058146647
 40
0.7635140597837621
 40
0.9922220578957636
 40
1.0
 40
1.0
 40
1.0
 40
1.0
 10
11.97499968111515
 20
17.05831848084927
 30
0.0
 10
11.93716334760463
 20
17.06081445339413
 30
0.0
 10
11.86145653919322
 20
17.06580865070983
 30
0.0
 10
11.75842045374513
 20
17.12135049859852
 30
0.0
 10
11.67417256649493
 20
17.20692199612301
 30
0.0
 10
11.61539717119274
 20
17.32275363253872
 30
0.0
 10
11.60017303909
 20
17.4140232751634
 30
0.0
 10
11.60000536715151
 20
17.46244179081499
 30
0.0
 10
11.5999998524785
 20
17.46403425931931
 30
0.0
  0
SPLINE
  5
11A
330
1F
100
AcDbEntity
  8
1
  6
SLD-Solid
370
    25
100
AcDbSpline
210
0.0
220
0.0
230
1.0
 70
     8
 71
     3
 72
    13
 73
     9
 74
     0
 42
0.000000001
 43
0.00000001
 40
0.0
 40
0.0
 40
0.0
 40
0.0
 40
0.0063236585474037
 40
0.1701942981920675
 40
0.3653919479381984
 40
0.6023923876907024
 40
0.8752655669485406
 40
1.0
 40
1.0
 40
1.0
 40
1.0
 10
15.59999957680704
 20
-17.96085946261883
 30
0.0
 10
15.59999470655672
 20
-17.95938613413758
 30
0.0
 10
15.59986362913908
 20
-17.91973312235775
 30
0.0
 10
15.5875439578462
 20
-17.834490465116
 30
0.0
 10
15.53579563664742
 20
-17.70747613107826
 30
0.0
 10
15.44089237754698
 20
-17.58312415591833
 30
0.0
 10
15.32904814317315
 20
-17.50232118714103
 30
0.0
 10
15.24984633610228
 20
-17.47957728374237
 30
0.0
 10
15.22499974817039
 20
-17.47244223952293
 30
0.0
  0
SPLINE
  5
11B
330
1F
100
AcDbEntity
  8
1
  6
SLD-Solid
370
    25
100
AcDbSpline
210
0.0
220
0.0
230
1.0
 70
     8
 71
     3
 72
    13
 73
     9
 74
     0
 42
0.000000001
 43
0.00000001
 40
0.0
 40
0.0
 40
0.0
 40
0.0
 40
0.0063236585474037
 40
0.1701942981920675
 40
0.3653919479381984
 40
0.6023923876907024
 40
0.8752655669485406
 40
1.0
 40
1.0
 40
1.0
 40
1.0
 10
15.59999957680704
 20
17.96085946261883
 30
0.0
 10
15.59999470655673
 20
17.95938613413758
 30
0.0
 10
15.59986362913908
 20
17.91973312235775
 30
0.0
 10
15.5875439578462
 20
17.83449046511601
 30
0.0
 10
15.53579563664742
 20
17.70747613107826
 30
0.0
 10
15.44089237754698
 20
17.58312415591836
 30
0.0
 10
15.32904814317315
 20
17.50232118714104
 30
0.0
 10
15.24984633610228
 20
17.47957728374238
 30
0.0
 10
15.22499974817039
 20
17.47244223952294
 30
0.0
  0
SPLINE
  5
11C
330
1F
100
AcDbEntity
  8
1
  6
SLD-Solid
370
    25
100
AcDbSpline
210
0.0
220
0.0
230
1.0
 70
     8
 71
     3
 72
    10
 73
     6
 74
     0
 42
0.000000001
 43
0.00000001
 40
0.0
 40
0.0
 40
0.0
 40
0.0
 40
0.3727033432400792
 40
0.7557563991629161
 40
1.0
 40
1.0
 40
1.0
 40
1.0
 10
15.22499974817039
 20
-17.47244223952293
 30
0.0
 10
14.84574896699388
 20
-17.3961776885958
 30
0.0
 10
14.07671587415935
 20
-17.24153077319276
 30
0.0
 10
12.96639239171053
 20
-17.10663472415516
 30
0.0
 10
12.2528311678064
 20
-17.07185880000387
 30
0.0
 10
11.97499968111515
 20
-17.05831848084926
 30
0.0
  0
SPLINE
  5
11D
330
1F
100
AcDbEntity
  8
1
  6
SLD-Solid
370
    25
100
AcDbSpline
210
0.0
220
0.0
230
1.0
 70
     8
 71
     3
 72
    10
 73
     6
 74
     0
 42
0.000000001
 43
0.00000001
 40
0.0
 40
0.0
 40
0.0
 40
0.0
 40
0.3727033432400792
 40
0.7557563991629161
 40
1.0
 40
1.0
 40
1.0
 40
1.0
 10
15.22499974817039
 20
17.47244223952294
 30
0.0
 10
14.84574896699388
 20
17.3961776885958
 30
0.0
 10
14.07671587415935
 20
17.24153077319276
 30
0.0
 10
12.96639239171053
 20
17.10663472415515
 30
0.0
 10
12.2528311678064
 20
17.07185880000388
 30
0.0
 10
11.97499968111515
 20
17.05831848084927
 30
0.0
  0
SPLINE
  5
11E
330
1F
100
AcDbEntity
  8
1
  6
SLD-Solid
370
    25
100
AcDbSpline
210
0.0
220
0.0
230
1.0
 70
     8
 71
     3
 72
    10
 73
     6
 74
     0
 42
0.000000001
 43
0.00000001
 40
0.0
 40
0.0
 40
0.0
 40
0.0
 40
0.0007489144291045
 40
0.7039952669756799
 40
1.0
 40
1.0
 40
1.0
 40
1.0
 10
22.90010266005994
 20
20.74996568262576
 30
0.0
 10
22.9000684779493
 20
20.74997686972837
 30
0.0
 10
22.86793657721709
 20
20.7604929807443
 30
0.0
 10
22.94887738898331
 20
20.73313738760709
 30
0.0
 10
23.06546386238012
 20
20.69401089015965
 30
0.0
 10
23.09999987483026
 20
20.6824205815792
 30
0.0
  0
SPLINE
  5
11F
330
1F
100
AcDbEntity
  8
1
  6
SLD-Dashed
370
    18
100
AcDbSpline
210
0.0
220
0.0
230
1.0
 70
    24
 71
     3
 72
     9
 73
     5
 74
     0
 42
0.000000001
 43
0.00000001
 40
0.0
 40
0.0
 40
0.0
 40
0.0
 40
0.1254153030300331
 40
1.0
 40
1.0
 40
1.0
 40
1.0
 10
1.99947552755475
 20
16.14999957382678
 30
0.0
 10
1.999194643695551
 20
16.14999957382678
 30
0.0
 10
1.996955013822563
 20
16.1499995738268
 30
0.0
 10
1.991860857847499
 20
16.1499995738268
 30
0.0
 10
1.987405586987734
 20
16.14999957382678
 30
0.0
  0
SPLINE
  5
120
330
1F
100
AcDbEntity
  8
1
  6
SLD-Dashed
370
    18
100
AcDbSpline
210
0.0
220
0.0
230
1.0
 70
    24
 71
     3
 72
    11
 73
     7
 74
     0
 42
0.000000001
 43
0.00000001
 40
0.0
 40
0.0
 40
0.0
 40
0.0
 40
0.1470277606662251
 40
0.297848344615969
 40
0.6459186180171662
 40
1.0
 40
1.0
 40
1.0
 40
1.0
 10
2.222632523626089
 20
16.14999957382678
 30
0.0
 10
2.221047119089326
 20
16.1499995738268
 30
0.0
 10
2.217835411894166
 20
16.1499995738268
 30
0.0
 10
2.183553271797152
 20
16.14999957382678
 30
0.0
 10
2.110709942588052
 20
16.1499995738268
 30
0.0
 10
2.03711339712434
 20
16.14999957382678
 30
0.0
 10
2.000000094994903
 20
16.14999957382678
 30
0.0
  0
SPLINE
  5
121
330
1F
100
AcDbEntity
  8
SK3
  6
SLD-Dashed
370
    18
100
AcDbSpline
210
0.0
220
0.0
230
1.0
 70
    24
 71
     3
 72
     9
 73
     5
 74
     0
 42
0.000000001
 43
0.00000001
 40
0.0
 40
0.0
 40
0.0
 40
0.0
 40
0.6271754573230991
 40
1.0
 40
1.0
 40
1.0
 40
1.0
 10
2.000000094994903
 20
-16.14999957382679
 30
0.0
 10
2.069591300538499
 20
-16.14999957382679
 30
0.0
 10
2.180551008433673
 20
-16.14999957382679
 30
0.0
 10
2.211152516885861
 20
-16.14999957382679
 30
0.0
 10
2.222561510279775
 20
-16.14999957382679
 30
0.0
  0
SPLINE
  5
122
330
1F
100
AcDbEntity
  8
SK3
  6
SLD-Dashed
370
    18
100
AcDbSpline
210
0.0
220
0.0
230
1.0
 70
     8
 71
     3
 72
    44
 73
    40
 74
     0
 42
0.000000001
 43
0.00000001
 40
0.0
 40
0.0
 40
0.0
 40
0.0
 40
0.0205821828101429
 40
0.0415117950218672
 40
0.0626157501058332
 40
0.0840693084877118
 40
0.1254530554850614
 40
0.1464161255458239
 40
0.1676227929456351
 40
0.1959087291671975
 40
0.2244119924809306
 40
0.2535249571957178
 40
0.2828209500211298
 40
0.311736353524517
 40
0.3408149422163156
 40
0.3704446993980778
 40
0.400308213710363
 40
0.4235458314465264
 40
0.4628037277545637
 40
0.493990768113191
 40
0.5261070955202259
 40
0.5528688239713883
 40
0.5801879737581109
 40
0.6046574881389741
 40
0.6294842435832229
 40
0.6544607000583716
 40
0.6797240010036867
 40
0.7061578247700467
 40
0.7327155033473343
 40
0.7596696617670509
 40
0.7867708873169913
 40
0.810862323782245
 40
0.8352399345531765
 40
0.8597735277259384
 40
0.8846457039672321
 40
0.9249361108670666
 40
0.9453685420087856
 40
0.9660966049467207
 40
1.0
 40
1.0
 40
1.0
 40
1.0
 10
35.1000016424806
 20
6.000000232830663
 30
0.0
 10
35.09763066209981
 20
5.997984801599896
 30
0.0
 10
35.0928486789411
 20
5.99391991844811
 30
0.0
 10
35.0540317793776
 20
5.960957344623333
 30
0.0
 10
34.99161551979176
 20
5.908106402904477
 30
0.0
 10
34.87671235859504
 20
5.811225694017486
 30
0.0
 10
34.71778026709129
 20
5.6782686962185
 30
0.0
 10
34.52199107703886
 20
5.516858396531655
 30
0.0
 10
34.33720551922824
 20
5.366248397336106
 30
0.0
 10
34.10915756462335
 20
5.183311084182226
 30
0.0
 10
33.83148835185869
 20
4.965770972751867
 30
0.0
 10
33.5258458812744
 20
4.733551330057123
 30
0.0
 10
33.19547134211808
 20
4.492429286642903
 30
0.0
 10
32.84308264210158
 20
4.248426684692594
 30
0.0
 10
32.46736705795429
 20
4.005851409556726
 30
0.0
 10
32.06444943500872
 20
3.769795806743331
 30
0.0
 10
31.66459411977204
 20
3.566389112606178
 30
0.0
 10
31.19375675240522
 20
3.368400031319024
 30
0.0
 10
30.68440673699297
 20
3.216277359746889
 30
0.0
 10
30.09886687249688
 20
3.146291043576673
 30
0.0
 10
29.58008876765822
 20
3.175465571638898
 30
0.0
 10
29.09927268611495
 20
3.27732727639584
 30
0.0
 10
28.68095954007413
 20
3.418215894439442
 30
0.0
 10
28.29360031153809
 20
3.587142783931185
 30
0.0
 10
27.93645989669466
 20
3.770894959801339
 30
0.0
 10
27.59325965124687
 20
3.969720583489759
 30
0.0
 10
27.26002599858289
 20
4.180546026997669
 30
0.0
 10
26.93749646903262
 20
4.399042527023417
 30
0.0
 10
26.62633273275029
 20
4.621405018072913
 30
0.0
 10
26.33176560811816
 20
4.840907138411628
 30
0.0
 10
26.06610901688031
 20
5.045529234352954
 30
0.0
 10
25.82902197992752
 20
5.232712602621141
 30
0.0
 10
25.61972967006881
 20
5.401132593478658
 30
0.0
 10
25.4303373818405
 20
5.55593428331988
 30
0.0
 10
25.2303089476007
 20
5.72150731546936
 30
0.0
 10
25.08055981845961
 20
5.847175603407099
 30
0.0
 10
24.98213191171161
 20
5.930310653358751
 30
0.0
 10
24.91534106911392
 20
5.986946276136884
 30
0.0
 10
24.90978044455562
 20
5.991683724276671
 30
0.0
 10
24.90632961131643
 20
5.994623707607401
 30
0.0
  0
INSERT
  5
123
330
1F
100
AcDbEntity
  8
80
100
AcDbBlockReference
  2
Block12
 10
-61.7273641656
 20
-130.3356800267
 30
0.0
  0
INSERT
  5
124
330
1F
100
AcDbEntity
  8
81
100
AcDbBlockReference
  2
Block11
 10
-39.6264815777
 20
-130.2676275275
 30
0.0
  0
DIMENSION
  5
125
330
1F
100
AcDbEntity
  8
2
100
AcDbDimension
  2
_D
 10
52.0000010729
 20
48.0846733185
 30
0.0
 11
26.6204883028
 21
48.0846733185
 31
0.0
 70
   160
  1
<>
 71
     2
 42
-1.0
  3
SLDDIMSTYLE0
100
AcDbAlignedDimension
 13
0.0
 23
15.8750005066
 33
0.0
 14
52.0000010729
 24
13.4753864259
 34
0.0
100
AcDbRotatedDimension
  0
DIMENSION
  5
131
330
1F
100
AcDbEntity
  8
SK2
100
AcDbDimension
  2
_D_1
 10
-54.9013007876
 20
6.0
 30
0.0
 11
-54.9013007876
 21
0.2770651154
 31
0.0
 70
   160
  1
M12
 71
     2
 42
-1.0
  3
SLDDIMSTYLE1
100
AcDbAlignedDimension
 13
-40.7891560818
 23
-6.0
 33
0.0
 14
-40.7891560818
 24
6.0
 34
0.0
 50
90.0
100
AcDbRotatedDimension
  0
DIMENSION
  5
13E
330
1F
100
AcDbEntity
  8
SK2
100
AcDbDimension
  2
_D_2
 10
-73.3421777815
 20
-22.9900000097
 30
0.0
 11
-73.3421777815
 21
-1.0491349503
 31
0.0
 70
   160
  1
%%c<>
 71
     2
 42
-1.0
  3
SLDDIMSTYLE0
100
AcDbAlignedDimension
 13
19.8746489267
 23
22.9899994931
 33
0.0
 14
19.874766871
 24
-22.9900000097
 34
0.0
 50
90.0
100
AcDbRotatedDimension
  0
DIMENSION
  5
149
330
1F
100
AcDbEntity
  8
SK2
100
AcDbDimension
  2
_D_3
 10
87.1996260284
 20
-20.7499992102
 30
0.0
 11
87.1996260284
 21
-0.6931385842
 31
0.0
 70
   160
  1
%%c<>
 71
     2
 42
-1.0
  3
SLDDIMSTYLE0
100
AcDbAlignedDimension
 13
39.4000001252
 23
20.7499992102
 33
0.0
 14
39.4000001252
 24
-20.7499992102
 34
0.0
 50
90.0
100
AcDbRotatedDimension
  0
DIMENSION
  5
154
330
1F
100
AcDbEntity
  8
SK2
100
AcDbDimension
  2
_D_4
 10
76.9763404392
 20
-13.4753864259
 30
0.0
 11
76.9763404392
 21
-0.6931385842
 31
0.0
 70
   160
  1
%%c<>
 71
     2
 42
-1.0
  3
SLDDIMSTYLE2
100
AcDbAlignedDimension
 13
52.0000010729
 23
13.4753864259
 33
0.0
 14
52.0000010729
 24
-13.4753864259
 34
0.0
 50
90.0
100
AcDbRotatedDimension
  0
DIMENSION
  5
160
330
1F
100
AcDbEntity
  8
SK2
100
AcDbDimension
  2
_D_5
 10
67.4281258905
 20
-5.9999998715
 30
0.0
 11
67.4281258905
 21
-0.6931385842
 31
0.0
 70
   160
  1
%%c<>
 71
     2
 42
-1.0
  3
SLDDIMSTYLE1
100
AcDbAlignedDimension
 13
50.999998847
 23
6.0000002328
 33
0.0
 14
50.999998847
 24
-5.9999998715
 34
0.0
 50
90.0
100
AcDbRotatedDimension
  0
DIMENSION
  5
16D
330
1F
100
AcDbEntity
  8
SK2
100
AcDbDimension
  2
_D_6
 10
39.4000001252
 20
-29.8677219148
 30
0.0
 11
45.5466884537
 21
-29.8677219148
 31
0.0
 70
   160
  1
<>
 71
     2
 42
-1.0
  3
SLDDIMSTYLE1
100
AcDbAlignedDimension
 13
52.0000010729
 23
-13.4753864259
 33
0.0
 14
39.4000001252
 24
-20.7499992102
 34
0.0
100
AcDbRotatedDimension
  0
DIMENSION
  5
179
330
1F
100
AcDbEntity
  8
SK2
100
AcDbDimension
  2
_D_7
 10
8.0000001807
 20
-37.9632735847
 30
0.0
 11
29.2851461333
 21
-37.9632735847
 31
0.0
 70
   160
  1
<>
 71
     2
 42
-1.0
  3
SLDDIMSTYLE0
100
AcDbAlignedDimension
 13
52.0000010729
 23
-13.4753864259
 33
0.0
 14
8.0000001807
 24
-5.9999998715
 34
0.0
100
AcDbRotatedDimension
  0
DIMENSION
  5
183
330
1F
100
AcDbEntity
  8
SK2
100
AcDbDimension
  2
_D_8
 10
52.0000010729
 20
29.3966917731
 30
0.0
 11
40.696916336
 21
29.3966917731
 31
0.0
 70
   160
  1
<>
 71
     2
 42
-1.0
  3
SLDDIMSTYLE0
100
AcDbAlignedDimension
 13
30.0
 23
21.15
 33
0.0
 14
52.0000010729
 24
13.4753864259
 34
0.0
100
AcDbRotatedDimension
  0
DIMENSION
  5
18D
330
1F
100
AcDbEntity
  8
SK2
100
AcDbDimension
  2
_D_9
 10
22.0999995655
 20
38.2633418768
 30
0.0
 11
12.1496540212
 21
38.2633418768
 31
0.0
 70
   160
  1
<>
 71
     2
 42
-1.0
  3
SLDDIMSTYLE0
100
AcDbAlignedDimension
 13
0.0
 23
15.8750005066
 33
0.0
 14
22.0999995655
 24
22.2399997514
 34
0.0
100
AcDbRotatedDimension
  0
DIMENSION
  5
197
330
1F
100
AcDbEntity
  8
SK2
100
AcDbDimension
  2
_D_10
 10
52.0000010729
 20
38.2633418768
 30
0.0
 11
36.9713103106
 21
38.2633418768
 31
0.0
 70
   160
  1
<>
 71
     2
 42
-1.0
  3
SLDDIMSTYLE0
100
AcDbAlignedDimension
 13
22.0999995655
 23
22.2399997514
 33
0.0
 14
52.0000010729
 24
13.4753864259
 34
0.0
100
AcDbRotatedDimension
  0
DIMENSION
  5
1A1
330
1F
100
AcDbEntity
  8
SK2
100
AcDbDimension
  2
_D_11
 10
-63.8393292252
 20
-15.8750005066
 30
0.0
 11
-63.8393292252
 21
-1.0491361812
 31
0.0
 70
   160
  1
%%c<>
 71
     2
 42
-1.0
  3
SLDDIMSTYLE0
100
AcDbAlignedDimension
 13
0.0
 23
15.8750005066
 33
0.0
 14
0.1999999949
 24
-15.8750005066
 34
0.0
 50
90.0
100
AcDbRotatedDimension
  0
MTEXT
  5
1AC
330
1F
100
AcDbEntity
  8
SK6
 62
     5
100
AcDbMText
 10
-46.7587183855
 20
-34.477230918
 30
0.0
 40
3.5
 41
0.0
 71
     1
 72
     1
  1
A2B20-30 12 052
  7
SLDTEXTSTYLE0
 73
     1
 44
1.0
  0
MTEXT
  5
1AD
330
1F
100
AcDbEntity
  8
SK6
 62
     5
100
AcDbMText
 10
-32.3230233354
 20
21.1901736473
 30
0.0
 40
3.5
 41
0.0
 71
     1
 72
     1
  1
MAS-403 BT30
  7
SLDTEXTSTYLE0
 73
     1
 44
1.0
  0
ENDSEC
  0
SECTION
  2
OBJECTS
  0
DICTIONARY
  5
C
330
0
100
AcDbDictionary
281
     1
  3
ACAD_GROUP
350
D
  3
ACAD_LAYOUT
350
1A
  3
ACAD_MLINESTYLE
350
17
  3
ACAD_PLOTSETTINGS
350
19
  3
ACAD_PLOTSTYLENAME
350
E
  3
ACAD_SCALELIST
350
47
  0
DICTIONARY
  5
D
102
{ACAD_REACTORS
330
C
102
}
330
C
100
AcDbDictionary
281
     1
  0
DICTIONARY
  5
1A
102
{ACAD_REACTORS
330
C
102
}
330
C
100
AcDbDictionary
281
     1
  3
Layout1
350
1E
  3
Layout2
350
26
  3
Model
350
22
  0
DICTIONARY
  5
17
102
{ACAD_REACTORS
330
C
102
}
330
C
100
AcDbDictionary
281
     1
  3
Standard
350
18
  0
DICTIONARY
  5
19
102
{ACAD_REACTORS
330
C
102
}
330
C
100
AcDbDictionary
281
     1
  0
ACDBDICTIONARYWDFLT
  5
E
102
{ACAD_REACTORS
330
C
102
}
330
C
100
AcDbDictionary
281
     1
  3
Normal
350
F
100
AcDbDictionaryWithDefault
340
F
  0
DICTIONARY
  5
47
102
{ACAD_REACTORS
330
C
102
}
330
C
100
AcDbDictionary
281
     1
  3
A0
350
48
  3
A1
350
49
  3
A2
350
4A
  3
A3
350
4B
  3
A4
350
4C
  3
A5
350
4D
  3
A6
350
4E
  3
A7
350
4F
  3
A8
350
50
  3
A9
350
51
  3
B0
350
52
  3
B1
350
53
  3
B2
350
54
  3
B3
350
55
  3
B4
350
56
  3
B5
350
57
  3
B6
350
58
  3
B7
350
59
  3
B8
350
5A
  3
B9
350
5B
  3
C0
350
5C
  3
C1
350
5D
  3
C2
350
5E
  3
C3
350
5F
  3
C4
350
60
  3
C5
350
61
  3
C6
350
62
  3
C7
350
63
  3
C8
350
64
  3
C9
350
65
  3
D0
350
66
  3
D1
350
67
  3
D2
350
68
  0
LAYOUT
  5
1E
102
{ACAD_REACTORS
330
1A
102
}
330
1A
100
AcDbPlotSettings
  1

  2
none_device
  4

  6

 40
0.0
 41
0.0
 42
0.0
 43
0.0
 44
0.0
 45
0.0
 46
0.0
 47
0.0
 48
0.0
 49
0.0
140
0.0
141
0.0
142
1.0
143
1.0
 70
   688
 72
     1
 73
     0
 74
     5
  7

 75
    16
147
1.0
148
0.0
149
0.0
100
AcDbLayout
  1
Layout1
 70
     1
 71
     1
 10
0.0
 20
0.0
 11
420.0
 21
297.0
 12
0.0
 22
0.0
 32
0.0
 14
1.0000000000E+20
 24
1.0000000000E+20
 34
1.0000000000E+20
 15
-1.0000000000E+20
 25
-1.0000000000E+20
 35
-1.0000000000E+20
146
0.0
 13
0.0
 23
0.0
 33
0.0
 16
1.0
 26
0.0
 36
0.0
 17
0.0
 27
1.0
 37
0.0
 76
     0
330
1B
  0
LAYOUT
  5
26
102
{ACAD_REACTORS
330
1A
102
}
330
1A
100
AcDbPlotSettings
  1

  2
none_device
  4

  6

 40
0.0
 41
0.0
 42
0.0
 43
0.0
 44
0.0
 45
0.0
 46
0.0
 47
0.0
 48
0.0
 49
0.0
140
0.0
141
0.0
142
1.0
143
1.0
 70
   688
 72
     1
 73
     0
 74
     5
  7

 75
    16
147
1.0
148
0.0
149
0.0
100
AcDbLayout
  1
Layout2
 70
     1
 71
     2
 10
0.0
 20
0.0
 11
0.0
 21
0.0
 12
0.0
 22
0.0
 32
0.0
 14
0.0
 24
0.0
 34
0.0
 15
0.0
 25
0.0
 35
0.0
146
0.0
 13
0.0
 23
0.0
 33
0.0
 16
1.0
 26
0.0
 36
0.0
 17
0.0
 27
1.0
 37
0.0
 76
     0
330
23
  0
LAYOUT
  5
22
102
{ACAD_REACTORS
330
1A
102
}
330
1A
100
AcDbPlotSettings
  1

  2
none_device
  4
Letter_(8.50_x_11.00_Inches)
  6

 40
6.35
 41
6.35
 42
6.35000508
 43
6.35000508
 44
215.9
 45
279.4
 46
0.0
 47
0.0
 48
0.0
 49
0.0
140
0.0
141
0.0
142
1.0
143
1.0
 70
  1712
 72
     1
 73
     0
 74
     0
  7

 75
     0
147
1.0
148
0.0
149
0.0
100
AcDbLayout
  1
Model
 70
     1
 71
     0
 10
0.0
 20
0.0
 11
297.0
 21
210.0
 12
0.0
 22
0.0
 32
0.0
 14
0.0
 24
0.0
 34
0.0
 15
297.0
 25
210.0
 35
0.0
146
0.0
 13
0.0
 23
0.0
 33
0.0
 16
1.0
 26
0.0
 36
0.0
 17
0.0
 27
1.0
 37
0.0
 76
     0
330
1F
331
29
  0
MLINESTYLE
  5
18
102
{ACAD_REACTORS
330
17
102
}
330
17
100
AcDbMlineStyle
  2
Standard
 70
     0
  3

 62
   256
 51
90.0
 52
90.0
 71
     2
 49
0.5
 62
   256
  6
BYLAYER
 49
-0.5
 62
   256
  6
BYLAYER
  0
ACDBPLACEHOLDER
  5
F
102
{ACAD_REACTORS
330
E
102
}
330
E
  0
SCALE
  5
48
102
{ACAD_REACTORS
330
47
102
}
330
47
100
AcDbScale
 70
     0
300
1:1
140
1.0
141
1.0
290
     1
  0
SCALE
  5
49
102
{ACAD_REACTORS
330
47
102
}
330
47
100
AcDbScale
 70
     0
300
1:2
140
1.0
141
2.0
290
     0
  0
SCALE
  5
4A
102
{ACAD_REACTORS
330
47
102
}
330
47
100
AcDbScale
 70
     0
300
1:4
140
1.0
141
4.0
290
     0
  0
SCALE
  5
4B
102
{ACAD_REACTORS
330
47
102
}
330
47
100
AcDbScale
 70
     0
300
1:5
140
1.0
141
5.0
290
     0
  0
SCALE
  5
4C
102
{ACAD_REACTORS
330
47
102
}
330
47
100
AcDbScale
 70
     0
300
1:8
140
1.0
141
8.0
290
     0
  0
SCALE
  5
4D
102
{ACAD_REACTORS
330
47
102
}
330
47
100
AcDbScale
 70
     0
300
1:10
140
1.0
141
10.0
290
     0
  0
SCALE
  5
4E
102
{ACAD_REACTORS
330
47
102
}
330
47
100
AcDbScale
 70
     0
300
1:16
140
1.0
141
16.0
290
     0
  0
SCALE
  5
4F
102
{ACAD_REACTORS
330
47
102
}
330
47
100
AcDbScale
 70
     0
300
1:20
140
1.0
141
20.0
290
     0
  0
SCALE
  5
50
102
{ACAD_REACTORS
330
47
102
}
330
47
100
AcDbScale
 70
     0
300
1:30
140
1.0
141
30.0
290
     0
  0
SCALE
  5
51
102
{ACAD_REACTORS
330
47
102
}
330
47
100
AcDbScale
 70
     0
300
1:40
140
1.0
141
40.0
290
     0
  0
SCALE
  5
52
102
{ACAD_REACTORS
330
47
102
}
330
47
100
AcDbScale
 70
     0
300
1:50
140
1.0
141
50.0
290
     0
  0
SCALE
  5
53
102
{ACAD_REACTORS
330
47
102
}
330
47
100
AcDbScale
 70
     0
300
1:100
140
1.0
141
100.0
290
     0
  0
SCALE
  5
54
102
{ACAD_REACTORS
330
47
102
}
330
47
100
AcDbScale
 70
     0
300
2:1
140
2.0
141
1.0
290
     0
  0
SCALE
  5
55
102
{ACAD_REACTORS
330
47
102
}
330
47
100
AcDbScale
 70
     0
300
4:1
140
4.0
141
1.0
290
     0
  0
SCALE
  5
56
102
{ACAD_REACTORS
330
47
102
}
330
47
100
AcDbScale
 70
     0
300
8:1
140
8.0
141
1.0
290
     0
  0
SCALE
  5
57
102
{ACAD_REACTORS
330
47
102
}
330
47
100
AcDbScale
 70
     0
300
10:1
140
10.0
141
1.0
290
     0
  0
SCALE
  5
58
102
{ACAD_REACTORS
330
47
102
}
330
47
100
AcDbScale
 70
     0
300
100:1
140
100.0
141
1.0
290
     0
  0
SCALE
  5
59
102
{ACAD_REACTORS
330
47
102
}
330
47
100
AcDbScale
 70
     0
300
1/128" = 1'-0"
140
0.0078125
141
12.0
290
     0
  0
SCALE
  5
5A
102
{ACAD_REACTORS
330
47
102
}
330
47
100
AcDbScale
 70
     0
300
1/64" = 1'-0"
140
0.015625
141
12.0
290
     0
  0
SCALE
  5
5B
102
{ACAD_REACTORS
330
47
102
}
330
47
100
AcDbScale
 70
     0
300
1/32" = 1'-0"
140
0.03125
141
12.0
290
     0
  0
SCALE
  5
5C
102
{ACAD_REACTORS
330
47
102
}
330
47
100
AcDbScale
 70
     0
300
1/16" = 1'-0"
140
0.0625
141
12.0
290
     0
  0
SCALE
  5
5D
102
{ACAD_REACTORS
330
47
102
}
330
47
100
AcDbScale
 70
     0
300
3/32" = 1'-0"
140
0.09375
141
12.0
290
     0
  0
SCALE
  5
5E
102
{ACAD_REACTORS
330
47
102
}
330
47
100
AcDbScale
 70
     0
300
1/8" = 1'-0"
140
0.125
141
12.0
290
     0
  0
SCALE
  5
5F
102
{ACAD_REACTORS
330
47
102
}
330
47
100
AcDbScale
 70
     0
300
3/16" = 1'-0"
140
0.1875
141
12.0
290
     0
  0
SCALE
  5
60
102
{ACAD_REACTORS
330
47
102
}
330
47
100
AcDbScale
 70
     0
300
1/4" = 1'-0"
140
0.25
141
12.0
290
     0
  0
SCALE
  5
61
102
{ACAD_REACTORS
330
47
102
}
330
47
100
AcDbScale
 70
     0
300
3/8" = 1'-0"
140
0.375
141
12.0
290
     0
  0
SCALE
  5
62
102
{ACAD_REACTORS
330
47
102
}
330
47
100
AcDbScale
 70
     0
300
1/2" = 1'-0"
140
0.5
141
12.0
290
     0
  0
SCALE
  5
63
102
{ACAD_REACTORS
330
47
102
}
330
47
100
AcDbScale
 70
     0
300
3/4" = 1'-0"
140
0.75
141
12.0
290
     0
  0
SCALE
  5
64
102
{ACAD_REACTORS
330
47
102
}
330
47
100
AcDbScale
 70
     0
300
1" = 1'-0"
140
1.0
141
12.0
290
     0
  0
SCALE
  5
65
102
{ACAD_REACTORS
330
47
102
}
330
47
100
AcDbScale
 70
     0
300
1-1/2" = 1'-0"
140
1.5
141
12.0
290
     0
  0
SCALE
  5
66
102
{ACAD_REACTORS
330
47
102
}
330
47
100
AcDbScale
 70
     0
300
3" = 1'-0"
140
3.0
141
12.0
290
     0
  0
SCALE
  5
67
102
{ACAD_REACTORS
330
47
102
}
330
47
100
AcDbScale
 70
     0
300
6" = 1'-0"
140
6.0
141
12.0
290
     0
  0
SCALE
  5
68
102
{ACAD_REACTORS
330
47
102
}
330
47
100
AcDbScale
 70
     0
300
1'-0" = 1'-0"
140
12.0
141
12.0
290
     0
  0
ENDSEC
  0
EOF
