  0
SECTION
  2
HEADER
  9
$ACADVER
  1
AC1015
  9
$ACADMAINTVER
 70
     6
  9
$DWGCODEPAGE
  3
ANSI_1250
  9
$INSBASE
 10
0.0
 20
0.0
 30
0.0
  9
$EXTMIN
 10
0.0
 20
0.0
 30
0.0
  9
$EXTMAX
 10
297.0
 20
210.0
 30
0.0
  9
$LIMMIN
 10
0.0
 20
0.0
  9
$LIMMAX
 10
297.0
 20
210.0
  9
$ORTHOMODE
 70
     0
  9
$REGENMODE
 70
     1
  9
$FILLMODE
 70
     1
  9
$QTEXTMODE
 70
     0
  9
$MIRRTEXT
 70
     1
  9
$LTSCALE
 40
1.0
  9
$ATTMODE
 70
     1
  9
$TEXTSIZE
 40
3.5
  9
$TRACEWID
 40
1.0
  9
$TEXTSTYLE
  7
Standard
  9
$CLAYER
  8
0
  9
$CELTYPE
  6
ByLayer
  9
$CECOLOR
 62
   256
  9
$CELTSCALE
 40
1.0
  9
$DISPSILH
 70
     0
  9
$DIMSCALE
 40
1.0
  9
$DIMASZ
 40
3.302
  9
$DIMEXO
 40
1.0
  9
$DIMDLI
 40
3.75
  9
$DIMRND
 40
0.0
  9
$DIMDLE
 40
0.0
  9
$DIMEXE
 40
1.0
  9
$DIMTP
 40
0.0
  9
$DIMTM
 40
0.0
  9
$DIMTXT
 40
3.5
  9
$DIMCEN
 40
2.5
  9
$DIMTSZ
 40
0.0
  9
$DIMTOL
 70
     0
  9
$DIMLIM
 70
     0
  9
$DIMTIH
 70
     1
  9
$DIMTOH
 70
     1
  9
$DIMSE1
 70
     0
  9
$DIMSE2
 70
     0
  9
$DIMTAD
 70
     1
  9
$DIMZIN
 70
     0
  9
$DIMBLK
  1

  9
$DIMASO
 70
     1
  9
$DIMSHO
 70
     1
  9
$DIMPOST
  1

  9
$DIMAPOST
  1

  9
$DIMALT
 70
     0
  9
$DIMALTD
 70
     3
  9
$DIMALTF
 40
0.0393700787
  9
$DIMLFAC
 40
1.0
  9
$DIMTOFL
 70
     1
  9
$DIMTVP
 40
0.0
  9
$DIMTIX
 70
     0
  9
$DIMSOXD
 70
     0
  9
$DIMSAH
 70
     0
  9
$DIMBLK1
  1

  9
$DIMBLK2
  1

  9
$DIMSTYLE
  2
ISO-25
  9
$DIMCLRD
 70
     0
  9
$DIMCLRE
 70
     0
  9
$DIMCLRT
 70
     0
  9
$DIMTFAC
 40
1.0
  9
$DIMGAP
 40
1.524
  9
$DIMJUST
 70
     0
  9
$DIMSD1
 70
     0
  9
$DIMSD2
 70
     0
  9
$DIMTOLJ
 70
     0
  9
$DIMTZIN
 70
     0
  9
$DIMALTZ
 70
     0
  9
$DIMALTTZ
 70
     0
  9
$DIMUPT
 70
     0
  9
$DIMDEC
 70
     2
  9
$DIMTDEC
 70
     2
  9
$DIMALTU
 70
     2
  9
$DIMALTTD
 70
     3
  9
$DIMTXSTY
  7
Standard
  9
$DIMAUNIT
 70
     0
  9
$DIMADEC
 70
     2
  9
$DIMALTRND
 40
0.0
  9
$DIMAZIN
 70
     0
  9
$DIMDSEP
 70
    44
  9
$DIMATFIT
 70
     3
  9
$DIMFRAC
 70
     0
  9
$DIMLDRBLK
  1

  9
$DIMLUNIT
 70
     2
  9
$DIMLWD
 70
    -2
  9
$DIMLWE
 70
    -2
  9
$DIMTMOVE
 70
     0
  9
$LUNITS
 70
     2
  9
$LUPREC
 70
     2
  9
$SKETCHINC
 40
1.0
  9
$FILLETRAD
 40
10.0
  9
$AUNITS
 70
     0
  9
$AUPREC
 70
     2
  9
$MENU
  1
.
  9
$ELEVATION
 40
0.0
  9
$PELEVATION
 40
0.0
  9
$THICKNESS
 40
0.0
  9
$LIMCHECK
 70
     0
  9
$CHAMFERA
 40
0.0
  9
$CHAMFERB
 40
0.0
  9
$CHAMFERC
 40
0.0
  9
$CHAMFERD
 40
0.0
  9
$SKPOLY
 70
     0
  9
$TDCREATE
 40
2459290.491278692
  9
$TDUCREATE
 40
2459290.449612026
  9
$TDUPDATE
 40
2459290.491279815
  9
$TDUUPDATE
 40
2459290.449613148
  9
$TDINDWG
 40
0.0000000116
  9
$TDUSRTIMER
 40
0.0000000116
  9
$USRTIMER
 70
     1
  9
$ANGBASE
 50
0.0
  9
$ANGDIR
 70
     0
  9
$PDMODE
 70
     0
  9
$PDSIZE
 40
-1.0
  9
$PLINEWID
 40
0.0
  9
$SPLFRAME
 70
     0
  9
$SPLINETYPE
 70
     6
  9
$SPLINESEGS
 70
     8
  9
$HANDSEED
  5
37D
  9
$SURFTAB1
 70
     6
  9
$SURFTAB2
 70
     6
  9
$SURFTYPE
 70
     6
  9
$SURFU
 70
     6
  9
$SURFV
 70
     6
  9
$UCSBASE
  2

  9
$UCSNAME
  2

  9
$UCSORG
 10
0.0
 20
0.0
 30
0.0
  9
$UCSXDIR
 10
1.0
 20
0.0
 30
0.0
  9
$UCSYDIR
 10
0.0
 20
1.0
 30
0.0
  9
$UCSORTHOREF
  2

  9
$UCSORTHOVIEW
 70
     0
  9
$UCSORGTOP
 10
0.0
 20
0.0
 30
0.0
  9
$UCSORGBOTTOM
 10
0.0
 20
0.0
 30
0.0
  9
$UCSORGLEFT
 10
0.0
 20
0.0
 30
0.0
  9
$UCSORGRIGHT
 10
0.0
 20
0.0
 30
0.0
  9
$UCSORGFRONT
 10
0.0
 20
0.0
 30
0.0
  9
$UCSORGBACK
 10
0.0
 20
0.0
 30
0.0
  9
$PUCSBASE
  2

  9
$PUCSNAME
  2

  9
$PUCSORG
 10
0.0
 20
0.0
 30
0.0
  9
$PUCSXDIR
 10
1.0
 20
0.0
 30
0.0
  9
$PUCSYDIR
 10
0.0
 20
1.0
 30
0.0
  9
$PUCSORTHOREF
  2

  9
$PUCSORTHOVIEW
 70
     0
  9
$PUCSORGTOP
 10
0.0
 20
0.0
 30
0.0
  9
$PUCSORGBOTTOM
 10
0.0
 20
0.0
 30
0.0
  9
$PUCSORGLEFT
 10
0.0
 20
0.0
 30
0.0
  9
$PUCSORGRIGHT
 10
0.0
 20
0.0
 30
0.0
  9
$PUCSORGFRONT
 10
0.0
 20
0.0
 30
0.0
  9
$PUCSORGBACK
 10
0.0
 20
0.0
 30
0.0
  9
$USERI1
 70
     0
  9
$USERI2
 70
     0
  9
$USERI3
 70
     0
  9
$USERI4
 70
     0
  9
$USERI5
 70
     0
  9
$USERR1
 40
0.0
  9
$USERR2
 40
0.0
  9
$USERR3
 40
0.0
  9
$USERR4
 40
0.0
  9
$USERR5
 40
0.0
  9
$WORLDVIEW
 70
     1
  9
$SHADEDGE
 70
     3
  9
$SHADEDIF
 70
    70
  9
$TILEMODE
 70
     1
  9
$MAXACTVP
 70
    64
  9
$PINSBASE
 10
0.0
 20
0.0
 30
0.0
  9
$PLIMCHECK
 70
     0
  9
$PEXTMIN
 10
1.0000000000E+20
 20
1.0000000000E+20
 30
1.0000000000E+20
  9
$PEXTMAX
 10
-1.0000000000E+20
 20
-1.0000000000E+20
 30
-1.0000000000E+20
  9
$PLIMMIN
 10
0.0
 20
0.0
  9
$PLIMMAX
 10
420.0
 20
297.0
  9
$UNITMODE
 70
     0
  9
$VISRETAIN
 70
     1
  9
$PLINEGEN
 70
     0
  9
$PSLTSCALE
 70
     1
  9
$TREEDEPTH
 70
  3020
  9
$CMLSTYLE
  2
Standard
  9
$CMLJUST
 70
     0
  9
$CMLSCALE
 40
20.0
  9
$PROXYGRAPHICS
 70
     1
  9
$MEASUREMENT
 70
     1
  9
$CELWEIGHT
370
    -1
  9
$ENDCAPS
280
     0
  9
$JOINSTYLE
280
     0
  9
$LWDISPLAY
290
     1
  9
$INSUNITS
 70
     4
  9
$HYPERLINKBASE
  1

  9
$STYLESHEET
  1

  9
$XEDIT
290
     1
  9
$CEPSNTYPE
380
     0
  9
$PSTYLEMODE
290
     1
  9
$FINGERPRINTGUID
  2
{1B806951-515F-40D5-8253-CA8FA1820338}
  9
$VERSIONGUID
  2
{FAEB1C32-E019-11D5-929B-00C0DF256EC4}
  9
$EXTNAMES
290
     1
  9
$PSVPSCALE
 40
0.0
  9
$OLESTARTUP
290
     0
  0
ENDSEC
  0
SECTION
  2
CLASSES
  0
CLASS
  1
ACDBDICTIONARYWDFLT
  2
AcDbDictionaryWithDefault
  3
ObjectDBX Classes
 90
        0
280
     0
281
     0
  0
CLASS
  1
VISUALSTYLE
  2
AcDbVisualStyle
  3
ObjectDBX Classes
 90
     4095
280
     0
281
     0
  0
CLASS
  1
MATERIAL
  2
AcDbMaterial
  3
ObjectDBX Classes
 90
     1153
280
     0
281
     0
  0
CLASS
  1
SCALE
  2
AcDbScale
  3
ObjectDBX Classes
 90
     1153
280
     0
281
     0
  0
CLASS
  1
TABLESTYLE
  2
AcDbTableStyle
  3
ObjectDBX Classes
 90
     4095
280
     0
281
     0
  0
CLASS
  1
MLEADERSTYLE
  2
AcDbMLeaderStyle
  3
ACDB_MLEADERSTYLE_CLASS
 90
     4095
280
     0
281
     0
  0
CLASS
  1
SUN
  2
AcDbSun
  3
SCENEOE
 90
     1153
280
     0
281
     0
  0
CLASS
  1
ACDBPLACEHOLDER
  2
AcDbPlaceHolder
  3
ObjectDBX Classes
 90
        0
280
     0
281
     0
  0
CLASS
  1
LAYOUT
  2
AcDbLayout
  3
ObjectDBX Classes
 90
        0
280
     0
281
     0
  0
ENDSEC
  0
SECTION
  2
TABLES
  0
TABLE
  2
VPORT
  5
8
330
0
100
AcDbSymbolTable
 70
     1
  0
VPORT
  5
29
330
8
100
AcDbSymbolTableRecord
100
AcDbViewportTableRecord
  2
*Active
 70
     0
 10
0.0
 20
0.0
 11
1.0
 21
1.0
 12
148.5
 22
105.0
 13
0.0
 23
0.0
 14
10.0
 24
10.0
 15
10.0
 25
10.0
 16
0.0
 26
0.0
 36
1.0
 17
0.0
 27
0.0
 37
0.0
 40
210.0
 41
1.4142857143
 42
50.0
 43
0.0
 44
0.0
 50
0.0
 51
0.0
 71
     0
 72
  2000
 73
     1
 74
     3
 75
     0
 76
     0
 77
     0
 78
     0
281
     0
 65
     1
110
0.0
120
0.0
130
0.0
111
1.0
121
0.0
131
0.0
112
0.0
122
1.0
132
0.0
 79
     0
146
0.0
  0
ENDTAB
  0
TABLE
  2
LTYPE
  5
5
330
0
100
AcDbSymbolTable
 70
     8
  0
LTYPE
  5
14
330
5
100
AcDbSymbolTableRecord
100
AcDbLinetypeTableRecord
  2
ByBlock
 70
     0
  3

 72
    65
 73
     0
 40
0.0
  0
LTYPE
  5
15
330
5
100
AcDbSymbolTableRecord
100
AcDbLinetypeTableRecord
  2
ByLayer
 70
     0
  3

 72
    65
 73
     0
 40
0.0
  0
LTYPE
  5
16
330
5
100
AcDbSymbolTableRecord
100
AcDbLinetypeTableRecord
  2
Continuous
 70
     0
  3
Solid line
 72
    65
 73
     0
 40
0.0
  0
LTYPE
  5
6E
330
5
100
AcDbSymbolTableRecord
100
AcDbLinetypeTableRecord
  2
SLD-Solid
 70
     0
  3
SolidWorks Line Style
 72
    65
 73
     0
 40
0.0
  0
LTYPE
  5
6F
330
5
100
AcDbSymbolTableRecord
100
AcDbLinetypeTableRecord
  2
SLD-Dashed
 70
     0
  3
SolidWorks Line Style
 72
    65
 73
     2
 40
1.905
 49
1.27
 74
     0
 49
-0.635
 74
     0
  0
LTYPE
  5
70
330
5
100
AcDbSymbolTableRecord
100
AcDbLinetypeTableRecord
  2
SLD-Phantom
 70
     0
  3
SolidWorks Line Style
 72
    65
 73
     6
 40
12.7
 49
6.35
 74
     0
 49
-1.27
 74
     0
 49
1.27
 74
     0
 49
-1.27
 74
     0
 49
1.27
 74
     0
 49
-1.27
 74
     0
  0
LTYPE
  5
71
330
5
100
AcDbSymbolTableRecord
100
AcDbLinetypeTableRecord
  2
SLD-Chain
 70
     0
  3
SolidWorks Line Style
 72
    65
 73
     4
 40
10.16
 49
6.35
 74
     0
 49
-1.27
 74
     0
 49
1.27
 74
     0
 49
-1.27
 74
     0
  0
LTYPE
  5
72
330
5
100
AcDbSymbolTableRecord
100
AcDbLinetypeTableRecord
  2
SLD-Center
 70
     0
  3
SolidWorks Line Style
 72
    65
 73
     4
 40
19.05
 49
15.24
 74
     0
 49
-1.27
 74
     0
 49
1.27
 74
     0
 49
-1.27
 74
     0
  0
LTYPE
  5
73
330
5
100
AcDbSymbolTableRecord
100
AcDbLinetypeTableRecord
  2
SLD-Stitch
 70
     0
  3
SolidWorks Line Style
 72
    65
 73
     2
 40
0.635
 49
0.0
 74
     0
 49
-0.635
 74
     0
  0
LTYPE
  5
74
330
5
100
AcDbSymbolTableRecord
100
AcDbLinetypeTableRecord
  2
SLD-Thin-Thick-Chain
 70
     0
  3
SolidWorks Line Style
 72
    65
 73
     4
 40
10.16
 49
6.35
 74
     0
 49
-1.27
 74
     0
 49
1.27
 74
     0
 49
-1.27
 74
     0
  0
ENDTAB
  0
TABLE
  2
LAYER
  5
2
330
0
100
AcDbSymbolTable
 70
    12
  0
LAYER
  5
10
330
2
100
AcDbSymbolTableRecord
100
AcDbLayerTableRecord
  2
0
 70
     0
 62
     7
  6
Continuous
370
    -3
390
F
  0
LAYER
  5
75
330
2
100
AcDbSymbolTableRecord
100
AcDbLayerTableRecord
  2
SLD-0
 70
     0
 62
   179
  6
SLD-Solid
370
    -3
390
F
  0
LAYER
  5
76
330
2
100
AcDbSymbolTableRecord
100
AcDbLayerTableRecord
  2
80
 70
     0
 62
    -6
  6
SLD-Solid
290
     0
370
    -3
390
F
  0
LAYER
  5
77
330
2
100
AcDbSymbolTableRecord
100
AcDbLayerTableRecord
  2
81
 70
     0
 62
    -3
  6
SLD-Solid
290
     0
370
    -3
390
F
  0
LAYER
  5
78
330
2
100
AcDbSymbolTableRecord
100
AcDbLayerTableRecord
  2
1
 70
     0
 62
     4
  6
SLD-Solid
290
     0
370
    -3
390
F
  0
LAYER
  5
79
330
2
100
AcDbSymbolTableRecord
100
AcDbLayerTableRecord
  2
4
 70
     0
 62
    -2
  6
SLD-Chain
290
     0
370
    -3
390
F
  0
LAYER
  5
7A
330
2
100
AcDbSymbolTableRecord
100
AcDbLayerTableRecord
  2
2
 70
     0
 62
     7
  6
SLD-Solid
290
     0
370
    -3
390
F
  0
LAYER
  5
7B
330
2
100
AcDbSymbolTableRecord
100
AcDbLayerTableRecord
  2
SK3
 70
     0
 62
     1
  6
SLD-Dashed
290
     0
370
    -3
390
F
  0
LAYER
  5
7C
330
2
100
AcDbSymbolTableRecord
100
AcDbLayerTableRecord
  2
SK4
 70
     0
 62
     2
  6
SLD-Chain
290
     0
370
    -3
390
F
  0
LAYER
  5
7D
330
2
100
AcDbSymbolTableRecord
100
AcDbLayerTableRecord
  2
SK2
 70
     0
 62
     7
  6
SLD-Solid
290
     0
370
    -3
390
F
  0
LAYER
  5
7E
330
2
100
AcDbSymbolTableRecord
100
AcDbLayerTableRecord
  2
SK6
 70
     0
 62
     5
  6
SLD-Solid
290
     0
370
    -3
390
F
  0
LAYER
  5
7F
330
2
100
AcDbSymbolTableRecord
100
AcDbLayerTableRecord
  2
SK1
 70
     0
 62
     4
  6
SLD-Solid
370
    -3
390
F
  0
ENDTAB
  0
TABLE
  2
STYLE
  5
3
330
0
100
AcDbSymbolTable
 70
     2
  0
STYLE
  5
11
330
3
100
AcDbSymbolTableRecord
100
AcDbTextStyleTableRecord
  2
Standard
 70
     0
 40
0.0
 41
1.0
 50
0.0
 71
     0
 42
3.5
  3
txt
  4

  0
STYLE
  5
31B
330
3
100
AcDbSymbolTableRecord
100
AcDbTextStyleTableRecord
  2
SLDTEXTSTYLE0
 70
     0
 40
0.0
 41
0.75
 50
0.0
 71
     0
 42
3.5
  3
TXT
  4

  0
ENDTAB
  0
TABLE
  2
VIEW
  5
6
330
0
100
AcDbSymbolTable
 70
     0
  0
ENDTAB
  0
TABLE
  2
UCS
  5
7
330
0
100
AcDbSymbolTable
 70
     0
  0
ENDTAB
  0
TABLE
  2
APPID
  5
9
330
0
100
AcDbSymbolTable
 70
     1
  0
APPID
  5
12
330
9
100
AcDbSymbolTableRecord
100
AcDbRegAppTableRecord
  2
ACAD
 70
     0
  0
ENDTAB
  0
TABLE
  2
DIMSTYLE
  5
A
330
0
100
AcDbSymbolTable
 70
     2
100
AcDbDimStyleTable
  0
DIMSTYLE
105
27
330
A
100
AcDbSymbolTableRecord
100
AcDbDimStyleTableRecord
  2
ISO-25
 70
     0
 41
2.5
 42
0.625
 43
3.75
 44
1.25
 73
     0
 74
     0
 77
     1
 78
     8
140
2.5
141
2.5
143
0.0393700787
147
0.625
171
     3
172
     1
178
     0
271
     2
272
     2
274
     3
278
    44
283
     0
284
     8
340
11
  0
DIMSTYLE
105
31C
102
{ACAD_REACTORS
330
31A
330
326
330
330
330
33A
330
344
330
34F
330
35A
330
365
330
370
102
}
330
A
100
AcDbSymbolTableRecord
100
AcDbDimStyleTableRecord
  2
SLDDIMSTYLE0
 70
     0
 41
3.302
 44
0.0
 45
0.000000001
 73
     0
 74
     0
 77
     1
 78
    12
 79
     3
140
3.5
147
0.875
173
     1
178
     0
271
     2
272
     2
276
     2
284
    12
340
31B
  0
ENDTAB
  0
TABLE
  2
BLOCK_RECORD
  5
1
330
0
100
AcDbSymbolTable
 70
    12
  0
BLOCK_RECORD
  5
1F
330
1
100
AcDbSymbolTableRecord
100
AcDbBlockTableRecord
  2
*Model_Space
340
22
  0
BLOCK_RECORD
  5
1B
330
1
100
AcDbSymbolTableRecord
100
AcDbBlockTableRecord
  2
*Paper_Space
340
1E
  0
BLOCK_RECORD
  5
23
330
1
100
AcDbSymbolTableRecord
100
AcDbBlockTableRecord
  2
*Paper_Space0
340
26
  0
BLOCK_RECORD
  5
80
330
1
100
AcDbSymbolTableRecord
100
AcDbBlockTableRecord
  2
Block11
340
0
102
{BLKREFS
331
319
102
}
  0
BLOCK_RECORD
  5
89
330
1
100
AcDbSymbolTableRecord
100
AcDbBlockTableRecord
  2
Block12
340
0
102
{BLKREFS
331
318
102
}
  0
BLOCK_RECORD
  5
31D
330
1
100
AcDbSymbolTableRecord
100
AcDbBlockTableRecord
  2
_D
340
0
  0
BLOCK_RECORD
  5
327
330
1
100
AcDbSymbolTableRecord
100
AcDbBlockTableRecord
  2
_D_1
340
0
  0
BLOCK_RECORD
  5
331
330
1
100
AcDbSymbolTableRecord
100
AcDbBlockTableRecord
  2
_D_2
340
0
  0
BLOCK_RECORD
  5
33B
330
1
100
AcDbSymbolTableRecord
100
AcDbBlockTableRecord
  2
_D_3
340
0
  0
BLOCK_RECORD
  5
345
330
1
100
AcDbSymbolTableRecord
100
AcDbBlockTableRecord
  2
_D_4
340
0
  0
BLOCK_RECORD
  5
350
330
1
100
AcDbSymbolTableRecord
100
AcDbBlockTableRecord
  2
_D_5
340
0
  0
BLOCK_RECORD
  5
35B
330
1
100
AcDbSymbolTableRecord
100
AcDbBlockTableRecord
  2
_D_6
340
0
  0
BLOCK_RECORD
  5
366
330
1
100
AcDbSymbolTableRecord
100
AcDbBlockTableRecord
  2
_D_7
340
0
  0
BLOCK_RECORD
  5
371
330
1
100
AcDbSymbolTableRecord
100
AcDbBlockTableRecord
  2
_D_8
340
0
  0
ENDTAB
  0
ENDSEC
  0
SECTION
  2
BLOCKS
  0
BLOCK
  5
20
330
1F
100
AcDbEntity
  8
0
100
AcDbBlockBegin
  2
*Model_Space
 70
     0
 10
0.0
 20
0.0
 30
0.0
  3
*Model_Space
  1

  0
ENDBLK
  5
21
330
1F
100
AcDbEntity
  8
0
100
AcDbBlockEnd
  0
BLOCK
  5
1C
330
1B
100
AcDbEntity
 67
     1
  8
0
100
AcDbBlockBegin
  2
*Paper_Space
 70
     0
 10
0.0
 20
0.0
 30
0.0
  3
*Paper_Space
  1

  0
ENDBLK
  5
1D
330
1B
100
AcDbEntity
 67
     1
  8
0
100
AcDbBlockEnd
  0
BLOCK
  5
24
330
23
100
AcDbEntity
  8
0
100
AcDbBlockBegin
  2
*Paper_Space0
 70
     0
 10
0.0
 20
0.0
 30
0.0
  3
*Paper_Space0
  1

  0
ENDBLK
  5
25
330
23
100
AcDbEntity
  8
0
100
AcDbBlockEnd
  0
BLOCK
  5
81
330
80
100
AcDbEntity
  8
0
100
AcDbBlockBegin
  2
Block11
 70
     0
 10
0.0
 20
0.0
 30
0.0
  3
Block11
  1

  0
CIRCLE
  5
83
330
80
100
AcDbEntity
  8
81
370
    18
100
AcDbCircle
 10
91.6264826505
 20
130.2676275275
 30
0.0
 40
2.499999999999981
  0
LINE
  5
84
330
80
100
AcDbEntity
  8
81
370
    18
100
AcDbLine
 10
91.6264826505
 20
130.2676275275
 30
0.0
 11
95.1620165565
 21
133.8031614334
 31
0.0
  0
LINE
  5
85
330
80
100
AcDbEntity
  8
81
370
    18
100
AcDbLine
 10
91.6264826505
 20
130.2676275275
 30
0.0
 11
88.0909487446
 21
126.7320936216
 31
0.0
  0
LINE
  5
86
330
80
100
AcDbEntity
  8
81
370
    18
100
AcDbLine
 10
91.6264826505
 20
130.2676275275
 30
0.0
 11
88.0909487446
 21
133.8031614334
 31
0.0
  0
LINE
  5
87
330
80
100
AcDbEntity
  8
81
100
AcDbLine
 10
91.6264826505
 20
130.2676275275
 30
0.0
 11
101.6264826505
 21
130.2676275275
 31
0.0
  0
LINE
  5
88
330
80
100
AcDbEntity
  8
81
370
    18
100
AcDbLine
 10
91.6264826505
 20
130.2676275275
 30
0.0
 11
95.1620165565
 21
126.7320936216
 31
0.0
  0
ENDBLK
  5
82
330
80
100
AcDbEntity
  8
0
100
AcDbBlockEnd
  0
BLOCK
  5
8A
330
89
100
AcDbEntity
  8
0
100
AcDbBlockBegin
  2
Block12
 70
     0
 10
0.0
 20
0.0
 30
0.0
  3
Block12
  1

  0
CIRCLE
  5
8C
330
89
100
AcDbEntity
  8
80
370
    18
100
AcDbCircle
 10
61.7273641656
 20
130.3356800267
 30
0.0
 40
2.500000000000004
  0
LINE
  5
8D
330
89
100
AcDbEntity
  8
80
370
    18
100
AcDbLine
 10
61.7273641656
 20
130.3356800267
 30
0.0
 11
65.2628980715
 21
133.8712139326
 31
0.0
  0
LINE
  5
8E
330
89
100
AcDbEntity
  8
80
370
    18
100
AcDbLine
 10
61.7273641656
 20
130.3356800267
 30
0.0
 11
58.1918302597
 21
126.8001461208
 31
0.0
  0
LINE
  5
8F
330
89
100
AcDbEntity
  8
80
370
    18
100
AcDbLine
 10
61.7273641656
 20
130.3356800267
 30
0.0
 11
58.1918302597
 21
133.8712139326
 31
0.0
  0
LINE
  5
90
330
89
100
AcDbEntity
  8
80
370
    18
100
AcDbLine
 10
61.7273641656
 20
130.3356800267
 30
0.0
 11
51.7273641656
 21
130.3356800267
 31
0.0
  0
LINE
  5
91
330
89
100
AcDbEntity
  8
80
370
    18
100
AcDbLine
 10
61.7273641656
 20
130.3356800267
 30
0.0
 11
65.2628980715
 21
126.8001461208
 31
0.0
  0
ENDBLK
  5
8B
330
89
100
AcDbEntity
  8
0
100
AcDbBlockEnd
  0
BLOCK
  5
31E
330
31D
100
AcDbEntity
  8
0
100
AcDbBlockBegin
  2
_D
 70
     0
 10
0.0
 20
0.0
 30
0.0
  3
_D
  1

  0
SOLID
  5
320
330
31D
100
AcDbEntity
  8
SK2
100
AcDbTrace
 10
0.0
 20
62.1622850149
 30
0.0
 11
3.302
 21
61.6542850149
 31
0.0
 12
3.302
 22
62.6702850149
 32
0.0
 13
3.302
 23
62.6702850149
 33
0.0
  0
SOLID
  5
321
330
31D
100
AcDbEntity
  8
SK2
100
AcDbTrace
 10
38.0
 20
62.1622850149
 30
0.0
 11
34.698
 21
62.6702850149
 31
0.0
 12
34.698
 22
61.6542850149
 32
0.0
 13
34.698
 23
61.6542850149
 33
0.0
  0
LINE
  5
322
330
31D
100
AcDbEntity
  8
SK2
100
AcDbLine
 10
0.0
 20
35.925
 30
0.0
 11
0.0
 21
63.1622850149
 31
0.0
  0
LINE
  5
323
330
31D
100
AcDbEntity
  8
SK2
100
AcDbLine
 10
38.0
 20
50.228682327
 30
0.0
 11
38.0
 21
63.1622850149
 31
0.0
  0
LINE
  5
324
330
31D
100
AcDbEntity
  8
SK2
100
AcDbLine
 10
0.0
 20
62.1622850149
 30
0.0
 11
38.0
 21
62.1622850149
 31
0.0
  0
MTEXT
  5
325
330
31D
100
AcDbEntity
  8
SK2
100
AcDbMText
 10
15.9145932869
 20
66.6740219295
 30
0.0
 40
3.5
 41
0.0
 71
     1
 72
     1
  1
38
  7
SLDTEXTSTYLE0
 73
     1
 44
1.0
  0
ENDBLK
  5
31F
330
31D
100
AcDbEntity
  8
0
100
AcDbBlockEnd
  0
BLOCK
  5
328
330
327
100
AcDbEntity
  8
0
100
AcDbBlockBegin
  2
_D_1
 70
     0
 10
0.0
 20
0.0
 30
0.0
  3
_D_1
  1

  0
SOLID
  5
32A
330
327
100
AcDbEntity
  8
SK2
100
AcDbTrace
 10
38.0
 20
62.1622850149
 30
0.0
 11
41.302
 21
61.6542850149
 31
0.0
 12
41.302
 22
62.6702850149
 32
0.0
 13
41.302
 23
62.6702850149
 33
0.0
  0
SOLID
  5
32B
330
327
100
AcDbEntity
  8
SK2
100
AcDbTrace
 10
100.0
 20
62.1622850149
 30
0.0
 11
96.698
 21
62.6702850149
 31
0.0
 12
96.698
 22
61.6542850149
 32
0.0
 13
96.698
 23
61.6542850149
 33
0.0
  0
LINE
  5
32C
330
327
100
AcDbEntity
  8
SK2
100
AcDbLine
 10
38.0
 20
50.228682327
 30
0.0
 11
38.0
 21
63.1622850149
 31
0.0
  0
LINE
  5
32D
330
327
100
AcDbEntity
  8
SK2
100
AcDbLine
 10
100.0
 20
39.2
 30
0.0
 11
100.0
 21
63.1622850149
 31
0.0
  0
LINE
  5
32E
330
327
100
AcDbEntity
  8
SK2
100
AcDbLine
 10
38.0
 20
62.1622850149
 30
0.0
 11
100.0
 21
62.1622850149
 31
0.0
  0
MTEXT
  5
32F
330
327
100
AcDbEntity
  8
SK2
100
AcDbMText
 10
66.912345598
 20
66.6740219295
 30
0.0
 40
3.5
 41
0.0
 71
     1
 72
     1
  1
62
  7
SLDTEXTSTYLE0
 73
     1
 44
1.0
  0
ENDBLK
  5
329
330
327
100
AcDbEntity
  8
0
100
AcDbBlockEnd
  0
BLOCK
  5
332
330
331
100
AcDbEntity
  8
0
100
AcDbBlockBegin
  2
_D_2
 70
     0
 10
0.0
 20
0.0
 30
0.0
  3
_D_2
  1

  0
SOLID
  5
334
330
331
100
AcDbEntity
  8
2
100
AcDbTrace
 10
100.0
 20
72.6580121522
 30
0.0
 11
96.698
 21
73.1660121522
 31
0.0
 12
96.698
 22
72.1500121522
 32
0.0
 13
96.698
 23
72.1500121522
 33
0.0
  0
SOLID
  5
335
330
331
100
AcDbEntity
  8
2
100
AcDbTrace
 10
0.0
 20
72.6580121522
 30
0.0
 11
3.302
 21
72.1500121522
 31
0.0
 12
3.302
 22
73.1660121522
 32
0.0
 13
3.302
 23
73.1660121522
 33
0.0
  0
LINE
  5
336
330
331
100
AcDbEntity
  8
2
100
AcDbLine
 10
100.0
 20
35.0030676894
 30
0.0
 11
100.0
 21
73.6580121522
 31
0.0
  0
LINE
  5
337
330
331
100
AcDbEntity
  8
2
100
AcDbLine
 10
0.0
 20
35.925
 30
0.0
 11
0.0
 21
73.6580121522
 31
0.0
  0
LINE
  5
338
330
331
100
AcDbEntity
  8
2
100
AcDbLine
 10
100.0
 20
72.6580121522
 30
0.0
 11
0.0
 21
72.6580121522
 31
0.0
  0
MTEXT
  5
339
330
331
100
AcDbEntity
  8
2
100
AcDbMText
 10
45.8520831377
 20
77.1697490667
 30
0.0
 40
3.5
 41
0.0
 71
     1
 72
     1
  1
100
  7
SLDTEXTSTYLE0
 73
     1
 44
1.0
  0
ENDBLK
  5
333
330
331
100
AcDbEntity
  8
0
100
AcDbBlockEnd
  0
BLOCK
  5
33C
330
33B
100
AcDbEntity
  8
0
100
AcDbBlockBegin
  2
_D_3
 70
     0
 10
0.0
 20
0.0
 30
0.0
  3
_D_3
  1

  0
SOLID
  5
33E
330
33B
100
AcDbEntity
  8
SK2
100
AcDbTrace
 10
100.0
 20
62.1622850149
 30
0.0
 11
103.302
 21
61.6542850149
 31
0.0
 12
103.302
 22
62.6702850149
 32
0.0
 13
103.302
 23
62.6702850149
 33
0.0
  0
SOLID
  5
33F
330
33B
100
AcDbEntity
  8
SK2
100
AcDbTrace
 10
124.0
 20
62.1622850149
 30
0.0
 11
120.698
 21
62.6702850149
 31
0.0
 12
120.698
 22
61.6542850149
 32
0.0
 13
120.698
 23
61.6542850149
 33
0.0
  0
LINE
  5
340
330
33B
100
AcDbEntity
  8
SK2
100
AcDbLine
 10
100.0
 20
39.2
 30
0.0
 11
100.0
 21
63.1622850149
 31
0.0
  0
LINE
  5
341
330
33B
100
AcDbEntity
  8
SK2
100
AcDbLine
 10
124.0
 20
16.4710190579
 30
0.0
 11
124.0
 21
63.1622850149
 31
0.0
  0
LINE
  5
342
330
33B
100
AcDbEntity
  8
SK2
100
AcDbLine
 10
100.0
 20
62.1622850149
 30
0.0
 11
124.0
 21
62.1622850149
 31
0.0
  0
MTEXT
  5
343
330
33B
100
AcDbEntity
  8
SK2
100
AcDbMText
 10
110.0360232311
 20
66.6740219295
 30
0.0
 40
3.5
 41
0.0
 71
     1
 72
     1
  1
24
  7
SLDTEXTSTYLE0
 73
     1
 44
1.0
  0
ENDBLK
  5
33D
330
33B
100
AcDbEntity
  8
0
100
AcDbBlockEnd
  0
BLOCK
  5
346
330
345
100
AcDbEntity
  8
0
100
AcDbBlockBegin
  2
_D_4
 70
     0
 10
0.0
 20
0.0
 30
0.0
  3
_D_4
  1

  0
SOLID
  5
348
330
345
100
AcDbEntity
  8
SK2
100
AcDbTrace
 10
168.424647827
 20
39.0
 30
0.0
 11
167.916647827
 21
35.698
 31
0.0
 12
168.932647827
 22
35.698
 32
0.0
 13
168.932647827
 23
35.698
 33
0.0
  0
SOLID
  5
349
330
345
100
AcDbEntity
  8
SK2
100
AcDbTrace
 10
168.424647827
 20
-39.0
 30
0.0
 11
168.932647827
 21
-35.698
 31
0.0
 12
167.916647827
 22
-35.698
 32
0.0
 13
167.916647827
 23
-35.698
 33
0.0
  0
LINE
  5
34A
330
345
100
AcDbEntity
  8
SK2
100
AcDbLine
 10
100.2
 20
39.0
 30
0.0
 11
169.424647827
 21
39.0
 31
0.0
  0
LINE
  5
34B
330
345
100
AcDbEntity
  8
SK2
100
AcDbLine
 10
100.2
 20
-39.0
 30
0.0
 11
169.424647827
 21
-39.0
 31
0.0
  0
LINE
  5
34C
330
345
100
AcDbEntity
  8
SK2
100
AcDbLine
 10
168.424647827
 20
39.0
 30
0.0
 11
168.424647827
 21
-39.0
 31
0.0
  0
MTEXT
  5
34D
330
345
100
AcDbEntity
  8
SK2
100
AcDbMText
 10
163.9129107378
 20
-5.8343471191
 30
0.0
 40
3.5
 41
0.0
 71
     1
 72
     1
  1
%%c
  7
SLDTEXTSTYLE0
 11
-7.044195017643634E-15
 21
1.0
 31
0.0
 73
     1
 44
1.0
  0
MTEXT
  5
34E
330
345
100
AcDbEntity
  8
SK2
100
AcDbMText
 10
163.8594385611
 20
-0.5559097208
 30
0.0
 40
3.5
 41
0.0
 71
     1
 72
     1
  1
78
  7
SLDTEXTSTYLE0
 11
-7.044195017643634E-15
 21
1.0
 31
0.0
 73
     1
 44
1.0
  0
ENDBLK
  5
347
330
345
100
AcDbEntity
  8
0
100
AcDbBlockEnd
  0
BLOCK
  5
351
330
350
100
AcDbEntity
  8
0
100
AcDbBlockBegin
  2
_D_5
 70
     0
 10
0.0
 20
0.0
 30
0.0
  3
_D_5
  1

  0
SOLID
  5
353
330
350
100
AcDbEntity
  8
SK2
100
AcDbTrace
 10
155.4814417165
 20
16.0
 30
0.0
 11
154.9734417165
 21
12.698
 31
0.0
 12
155.9894417165
 22
12.698
 32
0.0
 13
155.9894417165
 23
12.698
 33
0.0
  0
SOLID
  5
354
330
350
100
AcDbEntity
  8
SK2
100
AcDbTrace
 10
155.4814417165
 20
-16.0
 30
0.0
 11
155.9894417165
 21
-12.698
 31
0.0
 12
154.9734417165
 22
-12.698
 32
0.0
 13
154.9734417165
 23
-12.698
 33
0.0
  0
LINE
  5
355
330
350
100
AcDbEntity
  8
SK2
100
AcDbLine
 10
122.0
 20
16.0
 30
0.0
 11
156.4814417165
 21
16.0
 31
0.0
  0
LINE
  5
356
330
350
100
AcDbEntity
  8
SK2
100
AcDbLine
 10
122.0
 20
-16.0
 30
0.0
 11
156.4814417165
 21
-16.0
 31
0.0
  0
LINE
  5
357
330
350
100
AcDbEntity
  8
SK2
100
AcDbLine
 10
155.4814417165
 20
16.0
 30
0.0
 11
155.4814417165
 21
-16.0
 31
0.0
  0
MTEXT
  5
358
330
350
100
AcDbEntity
  8
SK2
100
AcDbMText
 10
150.9697046273
 20
-5.8343471191
 30
0.0
 40
3.5
 41
0.0
 71
     1
 72
     1
  1
%%c
  7
SLDTEXTSTYLE0
 11
-7.044195017643634E-15
 21
1.0
 31
0.0
 73
     1
 44
1.0
  0
MTEXT
  5
359
330
350
100
AcDbEntity
  8
SK2
100
AcDbMText
 10
150.9162324506
 20
-0.5559097208
 30
0.0
 40
3.5
 41
0.0
 71
     1
 72
     1
  1
32
  7
SLDTEXTSTYLE0
 11
-7.044195017643634E-15
 21
1.0
 31
0.0
 73
     1
 44
1.0
  0
ENDBLK
  5
352
330
350
100
AcDbEntity
  8
0
100
AcDbBlockEnd
  0
BLOCK
  5
35C
330
35B
100
AcDbEntity
  8
0
100
AcDbBlockBegin
  2
_D_6
 70
     0
 10
0.0
 20
0.0
 30
0.0
  3
_D_6
  1

  0
SOLID
  5
35E
330
35B
100
AcDbEntity
  8
SK2
100
AcDbTrace
 10
-140.2808570511
 20
49.978682327
 30
0.0
 11
-140.7888570511
 21
46.676682327
 31
0.0
 12
-139.7728570511
 22
46.676682327
 32
0.0
 13
-139.7728570511
 23
46.676682327
 33
0.0
  0
SOLID
  5
35F
330
35B
100
AcDbEntity
  8
SK2
100
AcDbTrace
 10
-140.2808570511
 20
-49.978682327
 30
0.0
 11
-139.7728570511
 21
-46.676682327
 31
0.0
 12
-140.7888570511
 22
-46.676682327
 32
0.0
 13
-140.7888570511
 23
-46.676682327
 33
0.0
  0
LINE
  5
360
330
35B
100
AcDbEntity
  8
SK2
100
AcDbLine
 10
34.2499629843
 20
49.978682327
 30
0.0
 11
-141.2808570511
 21
49.978682327
 31
0.0
  0
LINE
  5
361
330
35B
100
AcDbEntity
  8
SK2
100
AcDbLine
 10
34.2499629447
 20
-49.978682327
 30
0.0
 11
-141.2808570511
 21
-49.978682327
 31
0.0
  0
LINE
  5
362
330
35B
100
AcDbEntity
  8
SK2
100
AcDbLine
 10
-140.2808570511
 20
49.978682327
 30
0.0
 11
-140.2808570511
 21
-49.978682327
 31
0.0
  0
MTEXT
  5
363
330
35B
100
AcDbEntity
  8
SK2
100
AcDbMText
 10
-144.7925941403
 20
-5.9384763939
 30
0.0
 40
3.5
 41
0.0
 71
     1
 72
     1
  1
%%c
  7
SLDTEXTSTYLE0
 11
-7.044195017643634E-15
 21
1.0
 31
0.0
 73
     1
 44
1.0
  0
MTEXT
  5
364
330
35B
100
AcDbEntity
  8
SK2
100
AcDbMText
 10
-144.846066317
 20
-0.6600389955
 30
0.0
 40
3.5
 41
0.0
 71
     1
 72
     1
  1
100
  7
SLDTEXTSTYLE0
 11
-7.044195017643634E-15
 21
1.0
 31
0.0
 73
     1
 44
1.0
  0
ENDBLK
  5
35D
330
35B
100
AcDbEntity
  8
0
100
AcDbBlockEnd
  0
BLOCK
  5
367
330
366
100
AcDbEntity
  8
0
100
AcDbBlockBegin
  2
_D_7
 70
     0
 10
0.0
 20
0.0
 30
0.0
  3
_D_7
  1

  0
SOLID
  5
369
330
366
100
AcDbEntity
  8
SK2
100
AcDbTrace
 10
-125.9765691065
 20
34.925
 30
0.0
 11
-126.4845691065
 21
31.623
 31
0.0
 12
-125.4685691065
 22
31.623
 32
0.0
 13
-125.4685691065
 23
31.623
 33
0.0
  0
SOLID
  5
36A
330
366
100
AcDbEntity
  8
SK2
100
AcDbTrace
 10
-125.9765691065
 20
-34.925
 30
0.0
 11
-125.4685691065
 21
-31.623
 31
0.0
 12
-126.4845691065
 22
-31.623
 32
0.0
 13
-126.4845691065
 23
-31.623
 33
0.0
  0
LINE
  5
36B
330
366
100
AcDbEntity
  8
SK2
100
AcDbLine
 10
-1.0
 20
34.925
 30
0.0
 11
-126.9765691065
 21
34.925
 31
0.0
  0
LINE
  5
36C
330
366
100
AcDbEntity
  8
SK2
100
AcDbLine
 10
-0.8
 20
-34.925
 30
0.0
 11
-126.9765691065
 21
-34.925
 31
0.0
  0
LINE
  5
36D
330
366
100
AcDbEntity
  8
SK2
100
AcDbLine
 10
-125.9765691065
 20
34.925
 30
0.0
 11
-125.9765691065
 21
-34.925
 31
0.0
  0
MTEXT
  5
36E
330
366
100
AcDbEntity
  8
SK2
100
AcDbMText
 10
-130.4883061957
 20
-7.878059498
 30
0.0
 40
3.5
 41
0.0
 71
     1
 72
     1
  1
%%c
  7
SLDTEXTSTYLE0
 11
-7.044195017643634E-15
 21
1.0
 31
0.0
 73
     1
 44
1.0
  0
MTEXT
  5
36F
330
366
100
AcDbEntity
  8
SK2
100
AcDbMText
 10
-130.5417783724
 20
-2.5996220996
 30
0.0
 40
3.5
 41
0.0
 71
     1
 72
     1
  1
69,85
  7
SLDTEXTSTYLE0
 11
-7.044195017643634E-15
 21
1.0
 31
0.0
 73
     1
 44
1.0
  0
ENDBLK
  5
368
330
366
100
AcDbEntity
  8
0
100
AcDbBlockEnd
  0
BLOCK
  5
372
330
371
100
AcDbEntity
  8
0
100
AcDbBlockBegin
  2
_D_8
 70
     0
 10
0.0
 20
0.0
 30
0.0
  3
_D_8
  1

  0
SOLID
  5
374
330
371
100
AcDbEntity
  8
SK2
100
AcDbTrace
 10
-113.2389405199
 20
12.0000001043
 30
0.0
 11
-113.7469405199
 21
8.6980001043
 31
0.0
 12
-112.7309405199
 22
8.6980001043
 32
0.0
 13
-112.7309405199
 23
8.6980001043
 33
0.0
  0
SOLID
  5
375
330
371
100
AcDbEntity
  8
SK2
100
AcDbTrace
 10
-113.2389405199
 20
-12.0000001043
 30
0.0
 11
-112.7309405199
 21
-8.6980001043
 31
0.0
 12
-113.7469405199
 22
-8.6980001043
 32
0.0
 13
-113.7469405199
 23
-8.6980001043
 33
0.0
  0
LINE
  5
376
330
371
100
AcDbEntity
  8
SK2
100
AcDbLine
 10
-89.1169885397
 20
12.0000001043
 30
0.0
 11
-114.2389405199
 21
12.0000001043
 31
0.0
  0
LINE
  5
377
330
371
100
AcDbEntity
  8
SK2
100
AcDbLine
 10
-89.1169885397
 20
-12.0000001043
 30
0.0
 11
-114.2389405199
 21
-12.0000001043
 31
0.0
  0
LINE
  5
378
330
371
100
AcDbEntity
  8
SK2
100
AcDbLine
 10
-113.2389405199
 20
12.0000001043
 30
0.0
 11
-113.2389405199
 21
-12.0000001043
 31
0.0
  0
MTEXT
  5
379
330
371
100
AcDbEntity
  8
SK2
100
AcDbMText
 10
-117.7506774344
 20
-4.1499519488
 30
0.0
 40
3.5
 41
0.0
 71
     1
 72
     1
  1
M
  7
SLDTEXTSTYLE0
 11
-7.044195017643634E-15
 21
1.0
 31
0.0
 73
     1
 44
1.0
  0
MTEXT
  5
37A
330
371
100
AcDbEntity
  8
SK2
100
AcDbMText
 10
-117.7506774344
 20
0.1375479857
 30
0.0
 40
3.5
 41
0.0
 71
     1
 72
     1
  1
24
  7
SLDTEXTSTYLE0
 11
-7.044195017643634E-15
 21
1.0
 31
0.0
 73
     1
 44
1.0
  0
ENDBLK
  5
373
330
371
100
AcDbEntity
  8
0
100
AcDbBlockEnd
  0
ENDSEC
  0
SECTION
  2
ENTITIES
  0
LINE
  5
92
330
1F
100
AcDbEntity
  8
SK1
  6
SLD-Solid
370
    25
100
AcDbLine
 10
133.6770266121
 20
-12.0
 30
0.0
 11
142.3770266121
 21
-12.0
 31
0.0
  0
LINE
  5
93
330
1F
100
AcDbEntity
  8
SK1
  6
SLD-Solid
370
    25
100
AcDbLine
 10
142.3770266121
 20
12.0
 30
0.0
 11
133.6770266121
 21
12.0
 31
0.0
  0
LINE
  5
94
330
1F
100
AcDbEntity
  8
SK1
  6
SLD-Solid
370
    25
100
AcDbLine
 10
142.3770266121
 20
-12.0
 30
0.0
 11
143.3770266121
 21
-11.0
 31
0.0
  0
LINE
  5
95
330
1F
100
AcDbEntity
  8
SK1
  6
SLD-Solid
370
    25
100
AcDbLine
 10
143.3770266121
 20
11.0
 30
0.0
 11
142.3770266121
 21
12.0
 31
0.0
  0
LINE
  5
96
330
1F
100
AcDbEntity
  8
SK1
  6
SLD-Solid
370
    25
100
AcDbLine
 10
124.0
 20
-7.105
 30
0.0
 11
127.3770266121
 21
-7.105
 31
0.0
  0
LINE
  5
97
330
1F
100
AcDbEntity
  8
SK1
  6
SLD-Solid
370
    25
100
AcDbLine
 10
127.3770266121
 20
7.105
 30
0.0
 11
124.0
 21
7.105
 31
0.0
  0
LINE
  5
98
330
1F
100
AcDbEntity
  8
SK1
  6
SLD-Solid
370
    25
100
AcDbLine
 10
127.6770266121
 20
-20.0
 30
0.0
 11
132.3770266121
 21
-20.0
 31
0.0
  0
LINE
  5
99
330
1F
100
AcDbEntity
  8
SK1
  6
SLD-Solid
370
    25
100
AcDbLine
 10
132.3770266121
 20
20.0
 30
0.0
 11
127.6770266121
 21
20.0
 31
0.0
  0
LINE
  5
9A
330
1F
100
AcDbEntity
  8
SK1
  6
SLD-Solid
370
    25
100
AcDbLine
 10
127.6770266121
 20
20.0
 30
0.0
 11
127.3770266121
 21
19.7
 31
0.0
  0
LINE
  5
9B
330
1F
100
AcDbEntity
  8
SK1
  6
SLD-Solid
370
    25
100
AcDbLine
 10
127.3770266121
 20
-19.7
 30
0.0
 11
127.6770266121
 21
-20.0
 31
0.0
  0
LINE
  5
9C
330
1F
100
AcDbEntity
  8
SK1
  6
SLD-Solid
370
    25
100
AcDbLine
 10
132.3770266121
 20
-20.0
 30
0.0
 11
133.3770266121
 21
-19.0
 31
0.0
  0
LINE
  5
9D
330
1F
100
AcDbEntity
  8
SK1
  6
SLD-Solid
370
    25
100
AcDbLine
 10
133.3770266121
 20
19.0
 30
0.0
 11
132.3770266121
 21
20.0
 31
0.0
  0
LINE
  5
9E
330
1F
100
AcDbEntity
  8
1
  6
SLD-Solid
370
    25
100
AcDbLine
 10
37.25
 20
49.978682327
 30
0.0
 11
35.2499629843
 21
49.978682327
 31
0.0
  0
LINE
  5
9F
330
1F
100
AcDbEntity
  8
1
  6
SLD-Solid
370
    25
100
AcDbLine
 10
35.2499629447
 20
-49.978682327
 30
0.0
 11
37.25
 21
-49.978682327
 31
0.0
  0
LINE
  5
A0
330
1F
100
AcDbEntity
  8
1
  6
SLD-Solid
370
    25
100
AcDbLine
 10
70.3597944129
 20
39.0
 30
0.0
 11
41.0
 21
39.0
 31
0.0
  0
LINE
  5
A1
330
1F
100
AcDbEntity
  8
1
  6
SLD-Solid
370
    25
100
AcDbLine
 10
99.2
 20
39.0
 30
0.0
 11
81.5829615815
 21
39.0
 31
0.0
  0
LINE
  5
A2
330
1F
100
AcDbEntity
  8
1
  6
SLD-Solid
370
    25
100
AcDbLine
 10
41.0
 20
-39.0
 30
0.0
 11
99.2
 21
-39.0
 31
0.0
  0
LINE
  5
A3
330
1F
100
AcDbEntity
  8
1
  6
SLD-Solid
370
    25
100
AcDbLine
 10
0.2
 20
-34.925
 30
0.0
 11
0.3290707856
 21
-34.8504809472
 31
0.0
  0
LINE
  5
A4
330
1F
100
AcDbEntity
  8
1
  6
SLD-Solid
370
    25
100
AcDbLine
 10
0.3290707856
 20
34.8504809472
 30
0.0
 11
0.2
 21
34.925
 31
0.0
  0
LINE
  5
A5
330
1F
100
AcDbEntity
  8
1
  6
SLD-Solid
370
    25
100
AcDbLine
 10
0.2
 20
34.925
 30
0.0
 11
0.0
 21
34.925
 31
0.0
  0
LINE
  5
A6
330
1F
100
AcDbEntity
  8
1
  6
SLD-Solid
370
    25
100
AcDbLine
 10
0.0
 20
-34.925
 30
0.0
 11
0.2
 21
-34.925
 31
0.0
  0
LINE
  5
A7
330
1F
100
AcDbEntity
  8
SK1
  6
SLD-Solid
370
    25
100
AcDbLine
 10
0.0
 20
34.925
 30
0.0
 11
-100.944317822
 21
20.2028150506
 31
0.0
  0
LINE
  5
A8
330
1F
100
AcDbEntity
  8
SK1
  6
SLD-Solid
370
    25
100
AcDbLine
 10
-100.944317822
 20
-20.2028150506
 30
0.0
 11
0.0
 21
-34.925
 31
0.0
  0
LINE
  5
A9
330
1F
100
AcDbEntity
  8
1
  6
SLD-Solid
370
    25
100
AcDbLine
 10
2.25
 20
34.75
 30
0.0
 11
0.7040707856
 21
34.75
 31
0.0
  0
LINE
  5
AA
330
1F
100
AcDbEntity
  8
1
  6
SLD-Solid
370
    25
100
AcDbLine
 10
0.7040707856
 20
-34.75
 30
0.0
 11
2.25
 21
-34.75
 31
0.0
  0
LINE
  5
AB
330
1F
100
AcDbEntity
  8
SK1
  6
SLD-Solid
370
    25
100
AcDbLine
 10
121.0
 20
-16.0
 30
0.0
 11
124.0
 21
-15.4710190579
 31
0.0
  0
LINE
  5
AC
330
1F
100
AcDbEntity
  8
SK1
  6
SLD-Solid
370
    25
100
AcDbLine
 10
124.0
 20
15.4710190579
 30
0.0
 11
121.0
 21
16.0
 31
0.0
  0
LINE
  5
AD
330
1F
100
AcDbEntity
  8
SK1
  6
SLD-Solid
370
    25
100
AcDbLine
 10
121.0
 20
16.0
 30
0.0
 11
101.3439594644
 21
16.0
 31
0.0
  0
LINE
  5
AE
330
1F
100
AcDbEntity
  8
SK1
  6
SLD-Solid
370
    25
100
AcDbLine
 10
101.3439594644
 20
-16.0
 30
0.0
 11
121.0
 21
-16.0
 31
0.0
  0
LINE
  5
AF
330
1F
100
AcDbEntity
  8
SK1
  6
SLD-Solid
370
    25
100
AcDbLine
 10
101.3439594644
 20
16.0
 30
0.0
 11
100.6605646396
 21
15.7845264394
 31
0.0
  0
LINE
  5
B0
330
1F
100
AcDbEntity
  8
SK1
  6
SLD-Solid
370
    25
100
AcDbLine
 10
100.6605646396
 20
-15.7845264394
 30
0.0
 11
101.3439594644
 21
-16.0
 31
0.0
  0
LINE
  5
B1
330
1F
100
AcDbEntity
  8
SK1
  6
SLD-Solid
370
    25
100
AcDbLine
 10
142.3770266121
 20
-12.0
 30
0.0
 11
142.3770266121
 21
12.0
 31
0.0
  0
LINE
  5
B2
330
1F
100
AcDbEntity
  8
SK1
  6
SLD-Solid
370
    25
100
AcDbLine
 10
143.3770266121
 20
11.0
 30
0.0
 11
143.3770266121
 21
-11.0
 31
0.0
  0
LINE
  5
B3
330
1F
100
AcDbEntity
  8
SK1
  6
SLD-Solid
370
    25
100
AcDbLine
 10
132.3770266121
 20
-20.0
 30
0.0
 11
132.3770266121
 21
20.0
 31
0.0
  0
LINE
  5
B4
330
1F
100
AcDbEntity
  8
SK1
  6
SLD-Solid
370
    25
100
AcDbLine
 10
127.6770266121
 20
0.267799715
 30
0.0
 11
127.6770266121
 21
-20.0
 31
0.0
  0
LINE
  5
B5
330
1F
100
AcDbEntity
  8
SK1
  6
SLD-Solid
370
    25
100
AcDbLine
 10
127.6770266121
 20
20.0
 30
0.0
 11
127.6770266121
 21
0.267799715
 31
0.0
  0
LINE
  5
B6
330
1F
100
AcDbEntity
  8
SK1
  6
SLD-Solid
370
    25
100
AcDbLine
 10
127.3770266121
 20
0.2637827193
 30
0.0
 11
127.3770266121
 21
19.7
 31
0.0
  0
LINE
  5
B7
330
1F
100
AcDbEntity
  8
SK1
  6
SLD-Solid
370
    25
100
AcDbLine
 10
127.3770266121
 20
-19.7
 30
0.0
 11
127.3770266121
 21
0.2637827193
 31
0.0
  0
LINE
  5
B8
330
1F
100
AcDbEntity
  8
SK1
  6
SLD-Solid
370
    25
100
AcDbLine
 10
133.3770266121
 20
-19.0
 30
0.0
 11
133.3770266121
 21
19.0
 31
0.0
  0
LINE
  5
B9
330
1F
100
AcDbEntity
  8
SK1
  6
SLD-Solid
370
    25
100
AcDbLine
 10
100.0
 20
-32.0686192004
 30
0.0
 11
105.7009618943
 21
-32.0686192004
 31
0.0
  0
LINE
  5
BA
330
1F
100
AcDbEntity
  8
SK1
  6
SLD-Solid
370
    25
100
AcDbLine
 10
100.0
 20
-26.6639241297
 30
0.0
 11
100.0296155741
 21
-26.6639241297
 31
0.0
  0
LINE
  5
BB
330
1F
100
AcDbEntity
  8
SK1
  6
SLD-Solid
370
    25
100
AcDbLine
 10
100.0296155741
 20
-25.3360758703
 30
0.0
 11
100.0
 21
-25.3360758703
 31
0.0
  0
LINE
  5
BC
330
1F
100
AcDbEntity
  8
SK1
  6
SLD-Solid
370
    25
100
AcDbLine
 10
105.7009618943
 20
-19.9313807996
 30
0.0
 11
100.0
 21
-19.9313807996
 31
0.0
  0
LINE
  5
BD
330
1F
100
AcDbEntity
  8
SK1
  6
SLD-Solid
370
    25
100
AcDbLine
 10
107.0
 20
-25.484598215
 30
0.0
 11
107.0
 21
-26.515401785
 31
0.0
  0
LINE
  5
BE
330
1F
100
AcDbEntity
  8
SK1
  6
SLD-Solid
370
    25
100
AcDbLine
 10
105.7009618943
 20
-19.019
 30
0.0
 11
105.7009618943
 21
-19.9313807996
 31
0.0
  0
LINE
  5
BF
330
1F
100
AcDbEntity
  8
SK1
  6
SLD-Solid
370
    25
100
AcDbLine
 10
107.0
 20
-19.019
 30
0.0
 11
107.0
 21
-25.484598215
 31
0.0
  0
LINE
  5
C0
330
1F
100
AcDbEntity
  8
SK1
  6
SLD-Solid
370
    25
100
AcDbLine
 10
105.7009618943
 20
-32.0686192004
 30
0.0
 11
105.7009618943
 21
-32.981
 31
0.0
  0
LINE
  5
C1
330
1F
100
AcDbEntity
  8
SK1
  6
SLD-Solid
370
    25
100
AcDbLine
 10
107.0
 20
-26.515401785
 30
0.0
 11
107.0
 21
-32.981
 31
0.0
  0
LINE
  5
C2
330
1F
100
AcDbEntity
  8
SK1
  6
SLD-Solid
370
    25
100
AcDbLine
 10
105.7009618943
 20
-32.981
 30
0.0
 11
100.0
 21
-32.981
 31
0.0
  0
LINE
  5
C3
330
1F
100
AcDbEntity
  8
SK1
  6
SLD-Solid
370
    25
100
AcDbLine
 10
100.0
 20
-19.019
 30
0.0
 11
105.7009618943
 21
-19.019
 31
0.0
  0
LINE
  5
C4
330
1F
100
AcDbEntity
  8
SK1
  6
SLD-Solid
370
    25
100
AcDbLine
 10
100.0
 20
19.9313807996
 30
0.0
 11
105.7009618943
 21
19.9313807996
 31
0.0
  0
LINE
  5
C5
330
1F
100
AcDbEntity
  8
SK1
  6
SLD-Solid
370
    25
100
AcDbLine
 10
100.0
 20
25.3360758703
 30
0.0
 11
100.0296155741
 21
25.3360758703
 31
0.0
  0
LINE
  5
C6
330
1F
100
AcDbEntity
  8
SK1
  6
SLD-Solid
370
    25
100
AcDbLine
 10
100.0296155741
 20
26.6639241297
 30
0.0
 11
100.0
 21
26.6639241297
 31
0.0
  0
LINE
  5
C7
330
1F
100
AcDbEntity
  8
SK1
  6
SLD-Solid
370
    25
100
AcDbLine
 10
105.7009618943
 20
32.0686192004
 30
0.0
 11
100.0
 21
32.0686192004
 31
0.0
  0
LINE
  5
C8
330
1F
100
AcDbEntity
  8
SK1
  6
SLD-Solid
370
    25
100
AcDbLine
 10
107.0
 20
26.515401785
 30
0.0
 11
107.0
 21
25.484598215
 31
0.0
  0
LINE
  5
C9
330
1F
100
AcDbEntity
  8
SK1
  6
SLD-Solid
370
    25
100
AcDbLine
 10
100.0
 20
32.981
 30
0.0
 11
105.7009618943
 21
32.981
 31
0.0
  0
LINE
  5
CA
330
1F
100
AcDbEntity
  8
SK1
  6
SLD-Solid
370
    25
100
AcDbLine
 10
105.7009618943
 20
32.981
 30
0.0
 11
105.7009618943
 21
32.0686192004
 31
0.0
  0
LINE
  5
CB
330
1F
100
AcDbEntity
  8
SK1
  6
SLD-Solid
370
    25
100
AcDbLine
 10
107.0
 20
32.981
 30
0.0
 11
107.0
 21
26.515401785
 31
0.0
  0
LINE
  5
CC
330
1F
100
AcDbEntity
  8
SK1
  6
SLD-Solid
370
    25
100
AcDbLine
 10
107.0
 20
25.484598215
 30
0.0
 11
107.0
 21
19.019
 31
0.0
  0
LINE
  5
CD
330
1F
100
AcDbEntity
  8
SK1
  6
SLD-Solid
370
    25
100
AcDbLine
 10
105.7009618943
 20
19.9313807996
 30
0.0
 11
105.7009618943
 21
19.019
 31
0.0
  0
LINE
  5
CE
330
1F
100
AcDbEntity
  8
SK1
  6
SLD-Solid
370
    25
100
AcDbLine
 10
105.7009618943
 20
19.019
 30
0.0
 11
100.0
 21
19.019
 31
0.0
  0
LINE
  5
CF
330
1F
100
AcDbEntity
  8
1
  6
SLD-Solid
370
    25
100
AcDbLine
 10
26.705
 20
41.3432989685
 30
0.0
 11
26.705
 21
-41.3432989685
 31
0.0
  0
LINE
  5
D0
330
1F
100
AcDbEntity
  8
1
  6
SLD-Solid
370
    25
100
AcDbLine
 10
30.7300000011
 20
48.9054375669
 30
0.0
 11
30.7300000011
 21
-48.9054375766
 31
0.0
  0
LINE
  5
D1
330
1F
100
AcDbEntity
  8
1
  6
SLD-Solid
370
    25
100
AcDbLine
 10
3.75
 20
-48.0190137994
 30
0.0
 11
15.68
 21
-48.0190137994
 31
0.0
  0
LINE
  5
D2
330
1F
100
AcDbEntity
  8
1
  6
SLD-Solid
370
    25
100
AcDbLine
 10
15.68
 20
48.0190137994
 30
0.0
 11
3.75
 21
48.0190137994
 31
0.0
  0
LINE
  5
D3
330
1F
100
AcDbEntity
  8
1
  6
SLD-Solid
370
    25
100
AcDbLine
 10
15.68
 20
48.0190137994
 30
0.0
 11
15.68
 21
-48.0190137994
 31
0.0
  0
LINE
  5
D4
330
1F
100
AcDbEntity
  8
1
  6
SLD-Solid
370
    25
100
AcDbLine
 10
3.0
 20
-47.2984213653
 30
0.0
 11
3.0
 21
47.2984213653
 31
0.0
  0
LINE
  5
D5
330
1F
100
AcDbEntity
  8
1
  6
SLD-Solid
370
    25
100
AcDbLine
 10
38.0
 20
49.228682327
 30
0.0
 11
38.0
 21
-49.228682327
 31
0.0
  0
LINE
  5
D6
330
1F
100
AcDbEntity
  8
1
  6
SLD-Solid
370
    25
100
AcDbLine
 10
19.705
 20
41.0269100055
 30
0.0
 11
19.705
 21
-41.0269100055
 31
0.0
  0
LINE
  5
D7
330
1F
100
AcDbEntity
  8
1
  6
SLD-Solid
370
    25
100
AcDbLine
 10
20.08
 20
-40.4949379553
 30
0.0
 11
21.6
 21
-40.4949379553
 31
0.0
  0
LINE
  5
D8
330
1F
100
AcDbEntity
  8
1
  6
SLD-Solid
370
    25
100
AcDbLine
 10
20.08
 20
40.4949379553
 30
0.0
 11
21.6
 21
40.4949379553
 31
0.0
  0
LINE
  5
D9
330
1F
100
AcDbEntity
  8
1
  6
SLD-Solid
370
    25
100
AcDbLine
 10
100.0
 20
38.2
 30
0.0
 11
100.0
 21
-38.2
 31
0.0
  0
LINE
  5
DA
330
1F
100
AcDbEntity
  8
1
  6
SLD-Solid
370
    25
100
AcDbLine
 10
0.0
 20
0.0
 30
0.0
 11
0.0
 21
-34.925
 31
0.0
  0
LINE
  5
DB
330
1F
100
AcDbEntity
  8
1
  6
SLD-Solid
370
    25
100
AcDbLine
 10
0.0
 20
34.925
 30
0.0
 11
0.0
 21
0.0
 31
0.0
  0
LINE
  5
DC
330
1F
100
AcDbEntity
  8
SK1
  6
SLD-Solid
370
    25
100
AcDbLine
 10
-101.8
 20
0.0
 30
0.0
 11
-101.8
 21
19.2132836634
 31
0.0
  0
LINE
  5
DD
330
1F
100
AcDbEntity
  8
SK1
  6
SLD-Solid
370
    25
100
AcDbLine
 10
-101.8
 20
-19.2132836634
 30
0.0
 11
-101.8
 21
0.0
 31
0.0
  0
LINE
  5
DE
330
1F
100
AcDbEntity
  8
SK1
  6
SLD-Solid
370
    25
100
AcDbLine
 10
121.0
 20
0.0
 30
0.0
 11
121.0
 21
-16.0
 31
0.0
  0
LINE
  5
DF
330
1F
100
AcDbEntity
  8
SK1
  6
SLD-Solid
370
    25
100
AcDbLine
 10
121.0
 20
16.0
 30
0.0
 11
121.0
 21
0.0
 31
0.0
  0
LINE
  5
E0
330
1F
100
AcDbEntity
  8
SK1
  6
SLD-Solid
370
    25
100
AcDbLine
 10
124.0
 20
0.0
 30
0.0
 11
124.0
 21
-15.4710190579
 31
0.0
  0
LINE
  5
E1
330
1F
100
AcDbEntity
  8
SK1
  6
SLD-Solid
370
    25
100
AcDbLine
 10
124.0
 20
15.4710190579
 30
0.0
 11
124.0
 21
0.0
 31
0.0
  0
LINE
  5
E2
330
1F
100
AcDbEntity
  8
SK1
  6
SLD-Solid
370
    25
100
AcDbLine
 10
101.3439594644
 20
0.0
 30
0.0
 11
101.3439594644
 21
-16.0
 31
0.0
  0
LINE
  5
E3
330
1F
100
AcDbEntity
  8
SK1
  6
SLD-Solid
370
    25
100
AcDbLine
 10
101.3439594644
 20
16.0
 30
0.0
 11
101.3439594644
 21
0.0
 31
0.0
  0
LINE
  5
E4
330
1F
100
AcDbEntity
  8
SK1
  6
SLD-Solid
370
    25
100
AcDbLine
 10
133.6770266121
 20
0.0
 30
0.0
 11
133.6770266121
 21
-12.0
 31
0.0
  0
LINE
  5
E5
330
1F
100
AcDbEntity
  8
SK1
  6
SLD-Solid
370
    25
100
AcDbLine
 10
133.6770266121
 20
12.0
 30
0.0
 11
133.6770266121
 21
0.0
 31
0.0
  0
LINE
  5
E6
330
1F
100
AcDbEntity
  8
SK1
  6
SLD-Solid
370
    25
100
AcDbLine
 10
100.0296155741
 20
-26.6639241297
 30
0.0
 11
100.0296155741
 21
-28.9689933449
 31
0.0
  0
LINE
  5
E7
330
1F
100
AcDbEntity
  8
SK1
  6
SLD-Solid
370
    25
100
AcDbLine
 10
100.0296155741
 20
-23.0262044714
 30
0.0
 11
100.0296155741
 21
-25.3360758703
 31
0.0
  0
LINE
  5
E8
330
1F
100
AcDbEntity
  8
SK1
  6
SLD-Solid
370
    25
100
AcDbLine
 10
100.0296155741
 20
25.3360758703
 30
0.0
 11
100.0296155741
 21
23.0313677501
 31
0.0
  0
LINE
  5
E9
330
1F
100
AcDbEntity
  8
SK1
  6
SLD-Solid
370
    25
100
AcDbLine
 10
100.0296155741
 20
28.9760324974
 30
0.0
 11
100.0296155741
 21
26.6639241297
 31
0.0
  0
LINE
  5
EA
330
1F
100
AcDbEntity
  8
SK3
  6
SLD-Dashed
370
    18
100
AcDbLine
 10
3.1949403416
 20
-13.9015950424
 30
0.0
 11
3.3816002207
 21
-14.6176762606
 31
0.0
  0
LINE
  5
EB
330
1F
100
AcDbEntity
  8
SK3
  6
SLD-Dashed
370
    18
100
AcDbLine
 10
3.3816002207
 20
-14.6176762606
 30
0.0
 11
3.6777929979
 21
-15.2757448372
 31
0.0
  0
LINE
  5
EC
330
1F
100
AcDbEntity
  8
SK3
  6
SLD-Dashed
370
    18
100
AcDbLine
 10
3.6777929979
 20
-15.2757448372
 30
0.0
 11
4.0595228959
 21
-15.8224879698
 31
0.0
  0
LINE
  5
ED
330
1F
100
AcDbEntity
  8
SK3
  6
SLD-Dashed
370
    18
100
AcDbLine
 10
4.0595228959
 20
-15.8224879698
 30
0.0
 11
4.4958644286
 21
-16.2136117815
 31
0.0
  0
LINE
  5
EE
330
1F
100
AcDbEntity
  8
SK3
  6
SLD-Dashed
370
    18
100
AcDbLine
 10
4.4958644286
 20
-16.2136117815
 30
0.0
 11
4.9514678
 21
-16.417429747
 31
0.0
  0
LINE
  5
EF
330
1F
100
AcDbEntity
  8
SK3
  6
SLD-Dashed
370
    18
100
AcDbLine
 10
4.9514678
 20
-16.417429747
 30
0.0
 11
5.3894227346
 21
-16.417429747
 31
0.0
  0
LINE
  5
F0
330
1F
100
AcDbEntity
  8
SK3
  6
SLD-Dashed
370
    18
100
AcDbLine
 10
5.3894227346
 20
-16.417429747
 30
0.0
 11
5.7742487283
 21
-16.2136117815
 31
0.0
  0
LINE
  5
F1
330
1F
100
AcDbEntity
  8
SK3
  6
SLD-Dashed
370
    18
100
AcDbLine
 10
5.7742487283
 20
-16.2136117815
 30
0.0
 11
6.0747694675
 21
-15.8224879698
 31
0.0
  0
LINE
  5
F2
330
1F
100
AcDbEntity
  8
SK3
  6
SLD-Dashed
370
    18
100
AcDbLine
 10
6.0747694675
 20
-15.8224879698
 30
0.0
 11
6.2666385494
 21
-15.2757448372
 31
0.0
  0
LINE
  5
F3
330
1F
100
AcDbEntity
  8
SK3
  6
SLD-Dashed
370
    18
100
AcDbLine
 10
6.2666385494
 20
-15.2757448372
 30
0.0
 11
6.3343118819
 21
-14.6176762606
 31
0.0
  0
LINE
  5
F4
330
1F
100
AcDbEntity
  8
SK3
  6
SLD-Dashed
370
    18
100
AcDbLine
 10
6.3343118819
 20
-14.6176762606
 30
0.0
 11
6.2723069743
 21
-13.9015950424
 31
0.0
  0
LINE
  5
F5
330
1F
100
AcDbEntity
  8
SK3
  6
SLD-Dashed
370
    18
100
AcDbLine
 10
6.2723069743
 20
-13.9015950424
 30
0.0
 11
6.0856470952
 21
-13.1855138242
 31
0.0
  0
LINE
  5
F6
330
1F
100
AcDbEntity
  8
SK3
  6
SLD-Dashed
370
    18
100
AcDbLine
 10
6.0856470952
 20
-13.1855138242
 30
0.0
 11
5.789454318
 21
-12.5274452476
 31
0.0
  0
LINE
  5
F7
330
1F
100
AcDbEntity
  8
SK3
  6
SLD-Dashed
370
    18
100
AcDbLine
 10
5.789454318
 20
-12.5274452476
 30
0.0
 11
5.40772442
 21
-11.980702115
 31
0.0
  0
LINE
  5
F8
330
1F
100
AcDbEntity
  8
SK3
  6
SLD-Dashed
370
    18
100
AcDbLine
 10
5.40772442
 20
-11.980702115
 30
0.0
 11
4.9713828873
 21
-11.5895783033
 31
0.0
  0
LINE
  5
F9
330
1F
100
AcDbEntity
  8
SK3
  6
SLD-Dashed
370
    18
100
AcDbLine
 10
4.9713828873
 20
-11.5895783033
 30
0.0
 11
4.5157795159
 21
-11.3857603378
 31
0.0
  0
LINE
  5
FA
330
1F
100
AcDbEntity
  8
SK3
  6
SLD-Dashed
370
    18
100
AcDbLine
 10
4.5157795159
 20
-11.3857603378
 30
0.0
 11
4.0778245812
 21
-11.3857603378
 31
0.0
  0
LINE
  5
FB
330
1F
100
AcDbEntity
  8
SK3
  6
SLD-Dashed
370
    18
100
AcDbLine
 10
4.0778245812
 20
-11.3857603378
 30
0.0
 11
3.6929985876
 21
-11.5895783033
 31
0.0
  0
LINE
  5
FC
330
1F
100
AcDbEntity
  8
SK3
  6
SLD-Dashed
370
    18
100
AcDbLine
 10
3.6929985876
 20
-11.5895783033
 30
0.0
 11
3.3924778483
 21
-11.980702115
 31
0.0
  0
LINE
  5
FD
330
1F
100
AcDbEntity
  8
SK3
  6
SLD-Dashed
370
    18
100
AcDbLine
 10
3.3924778483
 20
-11.980702115
 30
0.0
 11
3.2006087665
 21
-12.5274452476
 31
0.0
  0
LINE
  5
FE
330
1F
100
AcDbEntity
  8
SK3
  6
SLD-Dashed
370
    18
100
AcDbLine
 10
3.2006087665
 20
-12.5274452476
 30
0.0
 11
3.1329354339
 21
-13.1855138242
 31
0.0
  0
LINE
  5
FF
330
1F
100
AcDbEntity
  8
SK3
  6
SLD-Dashed
370
    18
100
AcDbLine
 10
3.1329354339
 20
-13.1855138242
 30
0.0
 11
3.1949403416
 21
-13.9015950424
 31
0.0
  0
LINE
  5
100
330
1F
100
AcDbEntity
  8
SK3
  6
SLD-Dashed
370
    18
100
AcDbLine
 10
3.0
 20
-11.6830262215
 30
0.0
 11
3.0
 21
-17.0466658179
 31
0.0
  0
LINE
  5
101
330
1F
100
AcDbEntity
  8
SK3
  6
SLD-Dashed
370
    18
100
AcDbLine
 10
3.2837105329
 20
-13.9015950424
 30
0.0
 11
3.4596015728
 21
-14.5763638826
 31
0.0
  0
LINE
  5
102
330
1F
100
AcDbEntity
  8
SK3
  6
SLD-Dashed
370
    18
100
AcDbLine
 10
3.4596015728
 20
-14.5763638826
 30
0.0
 11
3.7387063052
 21
-15.1964669645
 31
0.0
  0
LINE
  5
103
330
1F
100
AcDbEntity
  8
SK3
  6
SLD-Dashed
370
    18
100
AcDbLine
 10
3.7387063052
 20
-15.1964669645
 30
0.0
 11
4.0984133244
 21
-15.711667224
 31
0.0
  0
LINE
  5
104
330
1F
100
AcDbEntity
  8
SK3
  6
SLD-Dashed
370
    18
100
AcDbLine
 10
4.0984133244
 20
-15.711667224
 30
0.0
 11
4.5095813072
 21
-16.0802262004
 31
0.0
  0
LINE
  5
105
330
1F
100
AcDbEntity
  8
SK3
  6
SLD-Dashed
370
    18
100
AcDbLine
 10
4.5095813072
 20
-16.0802262004
 30
0.0
 11
4.9388998687
 21
-16.2722854371
 31
0.0
  0
LINE
  5
106
330
1F
100
AcDbEntity
  8
SK3
  6
SLD-Dashed
370
    18
100
AcDbLine
 10
4.9388998687
 20
-16.2722854371
 30
0.0
 11
5.3515881725
 21
-16.2722854371
 31
0.0
  0
LINE
  5
107
330
1F
100
AcDbEntity
  8
SK3
  6
SLD-Dashed
370
    18
100
AcDbLine
 10
5.3515881725
 20
-16.2722854371
 30
0.0
 11
5.7142126665
 21
-16.0802262004
 31
0.0
  0
LINE
  5
108
330
1F
100
AcDbEntity
  8
SK3
  6
SLD-Dashed
370
    18
100
AcDbLine
 10
5.7142126665
 20
-16.0802262004
 30
0.0
 11
5.9973956708
 21
-15.711667224
 31
0.0
  0
LINE
  5
109
330
1F
100
AcDbEntity
  8
SK3
  6
SLD-Dashed
370
    18
100
AcDbLine
 10
5.9973956708
 20
-15.711667224
 30
0.0
 11
6.1781953826
 21
-15.1964669645
 31
0.0
  0
LINE
  5
10A
330
1F
100
AcDbEntity
  8
SK3
  6
SLD-Dashed
370
    18
100
AcDbLine
 10
6.1781953826
 20
-15.1964669645
 30
0.0
 11
6.2419644844
 21
-14.5763638826
 31
0.0
  0
LINE
  5
10B
330
1F
100
AcDbEntity
  8
SK3
  6
SLD-Dashed
370
    18
100
AcDbLine
 10
6.2419644844
 20
-14.5763638826
 30
0.0
 11
6.1835367829
 21
-13.9015950424
 31
0.0
  0
LINE
  5
10C
330
1F
100
AcDbEntity
  8
SK3
  6
SLD-Dashed
370
    18
100
AcDbLine
 10
6.1835367829
 20
-13.9015950424
 30
0.0
 11
6.007645743
 21
-13.2268262022
 31
0.0
  0
LINE
  5
10D
330
1F
100
AcDbEntity
  8
SK3
  6
SLD-Dashed
370
    18
100
AcDbLine
 10
6.007645743
 20
-13.2268262022
 30
0.0
 11
5.7285410107
 21
-12.6067231204
 31
0.0
  0
LINE
  5
10E
330
1F
100
AcDbEntity
  8
SK3
  6
SLD-Dashed
370
    18
100
AcDbLine
 10
5.7285410107
 20
-12.6067231204
 30
0.0
 11
5.3688339914
 21
-12.0915228608
 31
0.0
  0
LINE
  5
10F
330
1F
100
AcDbEntity
  8
SK3
  6
SLD-Dashed
370
    18
100
AcDbLine
 10
5.3688339914
 20
-12.0915228608
 30
0.0
 11
4.9576660087
 21
-11.7229638844
 31
0.0
  0
LINE
  5
110
330
1F
100
AcDbEntity
  8
SK3
  6
SLD-Dashed
370
    18
100
AcDbLine
 10
4.9576660087
 20
-11.7229638844
 30
0.0
 11
4.5283474471
 21
-11.5309046477
 31
0.0
  0
LINE
  5
111
330
1F
100
AcDbEntity
  8
SK3
  6
SLD-Dashed
370
    18
100
AcDbLine
 10
4.5283474471
 20
-11.5309046477
 30
0.0
 11
4.1156591434
 21
-11.5309046477
 31
0.0
  0
LINE
  5
112
330
1F
100
AcDbEntity
  8
SK3
  6
SLD-Dashed
370
    18
100
AcDbLine
 10
4.1156591434
 20
-11.5309046477
 30
0.0
 11
3.7530346494
 21
-11.7229638844
 31
0.0
  0
LINE
  5
113
330
1F
100
AcDbEntity
  8
SK3
  6
SLD-Dashed
370
    18
100
AcDbLine
 10
3.7530346494
 20
-11.7229638844
 30
0.0
 11
3.4698516451
 21
-12.0915228608
 31
0.0
  0
LINE
  5
114
330
1F
100
AcDbEntity
  8
SK3
  6
SLD-Dashed
370
    18
100
AcDbLine
 10
3.4698516451
 20
-12.0915228608
 30
0.0
 11
3.2890519333
 21
-12.6067231204
 31
0.0
  0
LINE
  5
115
330
1F
100
AcDbEntity
  8
SK3
  6
SLD-Dashed
370
    18
100
AcDbLine
 10
3.2890519333
 20
-12.6067231204
 30
0.0
 11
3.2252828315
 21
-13.2268262022
 31
0.0
  0
LINE
  5
116
330
1F
100
AcDbEntity
  8
SK3
  6
SLD-Dashed
370
    18
100
AcDbLine
 10
3.2252828315
 20
-13.2268262022
 30
0.0
 11
3.2837105329
 21
-13.9015950424
 31
0.0
  0
LINE
  5
117
330
1F
100
AcDbEntity
  8
SK3
  6
SLD-Dashed
370
    18
100
AcDbLine
 10
14.0794578574
 20
-11.0168048658
 30
0.0
 11
14.2553488973
 21
-11.691573706
 31
0.0
  0
LINE
  5
118
330
1F
100
AcDbEntity
  8
SK3
  6
SLD-Dashed
370
    18
100
AcDbLine
 10
14.2553488973
 20
-11.691573706
 30
0.0
 11
14.5344536296
 21
-12.3116767878
 31
0.0
  0
LINE
  5
119
330
1F
100
AcDbEntity
  8
SK3
  6
SLD-Dashed
370
    18
100
AcDbLine
 10
14.5344536296
 20
-12.3116767878
 30
0.0
 11
14.8941606488
 21
-12.8268770474
 31
0.0
  0
LINE
  5
11A
330
1F
100
AcDbEntity
  8
SK3
  6
SLD-Dashed
370
    18
100
AcDbLine
 10
14.8941606488
 20
-12.8268770474
 30
0.0
 11
15.3053286316
 21
-13.1954360238
 31
0.0
  0
LINE
  5
11B
330
1F
100
AcDbEntity
  8
SK3
  6
SLD-Dashed
370
    18
100
AcDbLine
 10
15.3053286316
 20
-13.1954360238
 30
0.0
 11
15.7346471931
 21
-13.3874952605
 31
0.0
  0
LINE
  5
11C
330
1F
100
AcDbEntity
  8
SK3
  6
SLD-Dashed
370
    18
100
AcDbLine
 10
15.7346471931
 20
-13.3874952605
 30
0.0
 11
16.1473354969
 21
-13.3874952605
 31
0.0
  0
LINE
  5
11D
330
1F
100
AcDbEntity
  8
SK3
  6
SLD-Dashed
370
    18
100
AcDbLine
 10
16.1473354969
 20
-13.3874952605
 30
0.0
 11
16.5099599909
 21
-13.1954360238
 31
0.0
  0
LINE
  5
11E
330
1F
100
AcDbEntity
  8
SK3
  6
SLD-Dashed
370
    18
100
AcDbLine
 10
16.5099599909
 20
-13.1954360238
 30
0.0
 11
16.7931429952
 21
-12.8268770474
 31
0.0
  0
LINE
  5
11F
330
1F
100
AcDbEntity
  8
SK3
  6
SLD-Dashed
370
    18
100
AcDbLine
 10
16.7931429952
 20
-12.8268770474
 30
0.0
 11
16.973942707
 21
-12.3116767878
 31
0.0
  0
LINE
  5
120
330
1F
100
AcDbEntity
  8
SK3
  6
SLD-Dashed
370
    18
100
AcDbLine
 10
16.973942707
 20
-12.3116767878
 30
0.0
 11
17.0377118088
 21
-11.691573706
 31
0.0
  0
LINE
  5
121
330
1F
100
AcDbEntity
  8
SK3
  6
SLD-Dashed
370
    18
100
AcDbLine
 10
17.0377118088
 20
-11.691573706
 30
0.0
 11
16.9792841073
 21
-11.0168048658
 31
0.0
  0
LINE
  5
122
330
1F
100
AcDbEntity
  8
SK3
  6
SLD-Dashed
370
    18
100
AcDbLine
 10
16.9792841073
 20
-11.0168048658
 30
0.0
 11
16.8033930674
 21
-10.3420360255
 31
0.0
  0
LINE
  5
123
330
1F
100
AcDbEntity
  8
SK3
  6
SLD-Dashed
370
    18
100
AcDbLine
 10
16.8033930674
 20
-10.3420360255
 30
0.0
 11
16.5242883351
 21
-9.7219329437
 31
0.0
  0
LINE
  5
124
330
1F
100
AcDbEntity
  8
SK3
  6
SLD-Dashed
370
    18
100
AcDbLine
 10
16.5242883351
 20
-9.7219329437
 30
0.0
 11
16.1645813158
 21
-9.2067326842
 31
0.0
  0
LINE
  5
125
330
1F
100
AcDbEntity
  8
SK3
  6
SLD-Dashed
370
    18
100
AcDbLine
 10
16.1645813158
 20
-9.2067326842
 30
0.0
 11
15.7534133331
 21
-8.8381737078
 31
0.0
  0
LINE
  5
126
330
1F
100
AcDbEntity
  8
SK3
  6
SLD-Dashed
370
    18
100
AcDbLine
 10
15.7534133331
 20
-8.8381737078
 30
0.0
 11
15.3240947716
 21
-8.6461144711
 31
0.0
  0
LINE
  5
127
330
1F
100
AcDbEntity
  8
SK3
  6
SLD-Dashed
370
    18
100
AcDbLine
 10
15.3240947716
 20
-8.6461144711
 30
0.0
 11
14.9114064678
 21
-8.6461144711
 31
0.0
  0
LINE
  5
128
330
1F
100
AcDbEntity
  8
SK3
  6
SLD-Dashed
370
    18
100
AcDbLine
 10
14.9114064678
 20
-8.6461144711
 30
0.0
 11
14.5487819738
 21
-8.8381737078
 31
0.0
  0
LINE
  5
129
330
1F
100
AcDbEntity
  8
SK3
  6
SLD-Dashed
370
    18
100
AcDbLine
 10
14.5487819738
 20
-8.8381737078
 30
0.0
 11
14.2655989695
 21
-9.2067326842
 31
0.0
  0
LINE
  5
12A
330
1F
100
AcDbEntity
  8
SK3
  6
SLD-Dashed
370
    18
100
AcDbLine
 10
14.2655989695
 20
-9.2067326842
 30
0.0
 11
14.0847992577
 21
-9.7219329437
 31
0.0
  0
LINE
  5
12B
330
1F
100
AcDbEntity
  8
SK3
  6
SLD-Dashed
370
    18
100
AcDbLine
 10
14.0847992577
 20
-9.7219329437
 30
0.0
 11
14.0210301559
 21
-10.3420360255
 31
0.0
  0
LINE
  5
12C
330
1F
100
AcDbEntity
  8
SK3
  6
SLD-Dashed
370
    18
100
AcDbLine
 10
14.0210301559
 20
-10.3420360255
 30
0.0
 11
14.0794578574
 21
-11.0168048658
 31
0.0
  0
LINE
  5
12D
330
1F
100
AcDbEntity
  8
SK3
  6
SLD-Dashed
370
    18
100
AcDbLine
 10
87.0
 20
-21.8495995387
 30
0.0
 11
86.2956686079
 21
-21.9212065213
 31
0.0
  0
LINE
  5
12E
330
1F
100
AcDbEntity
  8
SK3
  6
SLD-Dashed
370
    18
100
AcDbLine
 10
86.2956686079
 20
-21.9212065213
 30
0.0
 11
85.6483979564
 21
-22.1302262972
 31
0.0
  0
LINE
  5
12F
330
1F
100
AcDbEntity
  8
SK3
  6
SLD-Dashed
370
    18
100
AcDbLine
 10
85.6483979564
 20
-22.1302262972
 30
0.0
 11
85.1106260641
 21
-22.4597253274
 31
0.0
  0
LINE
  5
130
330
1F
100
AcDbEntity
  8
SK3
  6
SLD-Dashed
370
    18
100
AcDbLine
 10
85.1106260641
 20
-22.4597253274
 30
0.0
 11
84.7259200116
 21
-22.8830095599
 31
0.0
  0
LINE
  5
131
330
1F
100
AcDbEntity
  8
SK3
  6
SLD-Dashed
370
    18
100
AcDbLine
 10
84.7259200116
 20
-22.8830095599
 30
0.0
 11
84.5254463953
 21
-23.3657870236
 31
0.0
  0
LINE
  5
132
330
1F
100
AcDbEntity
  8
SK3
  6
SLD-Dashed
370
    18
100
AcDbLine
 10
84.5254463953
 20
-23.3657870236
 30
0.0
 11
84.5254463953
 21
-23.8689459596
 31
0.0
  0
LINE
  5
133
330
1F
100
AcDbEntity
  8
SK3
  6
SLD-Dashed
370
    18
100
AcDbLine
 10
84.5254463953
 20
-23.8689459596
 30
0.0
 11
84.7259200116
 21
-24.3517234234
 31
0.0
  0
LINE
  5
134
330
1F
100
AcDbEntity
  8
SK3
  6
SLD-Dashed
370
    18
100
AcDbLine
 10
84.7259200116
 20
-24.3517234234
 30
0.0
 11
85.1106260641
 21
-24.7750076559
 31
0.0
  0
LINE
  5
135
330
1F
100
AcDbEntity
  8
SK3
  6
SLD-Dashed
370
    18
100
AcDbLine
 10
85.1106260641
 20
-24.7750076559
 30
0.0
 11
85.6483979564
 21
-25.104506686
 31
0.0
  0
LINE
  5
136
330
1F
100
AcDbEntity
  8
SK3
  6
SLD-Dashed
370
    18
100
AcDbLine
 10
85.6483979564
 20
-25.104506686
 30
0.0
 11
86.2956686079
 21
-25.313526462
 31
0.0
  0
LINE
  5
137
330
1F
100
AcDbEntity
  8
SK3
  6
SLD-Dashed
370
    18
100
AcDbLine
 10
86.2956686079
 20
-25.313526462
 30
0.0
 11
87.0
 21
-25.3851334446
 31
0.0
  0
LINE
  5
138
330
1F
100
AcDbEntity
  8
SK3
  6
SLD-Dashed
370
    18
100
AcDbLine
 10
87.0
 20
-25.3851334446
 30
0.0
 11
87.7043313921
 21
-25.313526462
 31
0.0
  0
LINE
  5
139
330
1F
100
AcDbEntity
  8
SK3
  6
SLD-Dashed
370
    18
100
AcDbLine
 10
87.7043313921
 20
-25.313526462
 30
0.0
 11
88.3516020436
 21
-25.104506686
 31
0.0
  0
LINE
  5
13A
330
1F
100
AcDbEntity
  8
SK3
  6
SLD-Dashed
370
    18
100
AcDbLine
 10
88.3516020436
 20
-25.104506686
 30
0.0
 11
88.8893739359
 21
-24.7750076559
 31
0.0
  0
LINE
  5
13B
330
1F
100
AcDbEntity
  8
SK3
  6
SLD-Dashed
370
    18
100
AcDbLine
 10
88.8893739359
 20
-24.7750076559
 30
0.0
 11
89.2740799884
 21
-24.3517234234
 31
0.0
  0
LINE
  5
13C
330
1F
100
AcDbEntity
  8
SK3
  6
SLD-Dashed
370
    18
100
AcDbLine
 10
89.2740799884
 20
-24.3517234234
 30
0.0
 11
89.4745536047
 21
-23.8689459596
 31
0.0
  0
LINE
  5
13D
330
1F
100
AcDbEntity
  8
SK3
  6
SLD-Dashed
370
    18
100
AcDbLine
 10
89.4745536047
 20
-23.8689459596
 30
0.0
 11
89.4745536047
 21
-23.3657870236
 31
0.0
  0
LINE
  5
13E
330
1F
100
AcDbEntity
  8
SK3
  6
SLD-Dashed
370
    18
100
AcDbLine
 10
89.4745536047
 20
-23.3657870236
 30
0.0
 11
89.2740799884
 21
-22.8830095599
 31
0.0
  0
LINE
  5
13F
330
1F
100
AcDbEntity
  8
SK3
  6
SLD-Dashed
370
    18
100
AcDbLine
 10
89.2740799884
 20
-22.8830095599
 30
0.0
 11
88.8893739359
 21
-22.4597253274
 31
0.0
  0
LINE
  5
140
330
1F
100
AcDbEntity
  8
SK3
  6
SLD-Dashed
370
    18
100
AcDbLine
 10
88.8893739359
 20
-22.4597253274
 30
0.0
 11
88.3516020436
 21
-22.1302262972
 31
0.0
  0
LINE
  5
141
330
1F
100
AcDbEntity
  8
SK3
  6
SLD-Dashed
370
    18
100
AcDbLine
 10
88.3516020436
 20
-22.1302262972
 30
0.0
 11
87.7043313921
 21
-21.9212065213
 31
0.0
  0
LINE
  5
142
330
1F
100
AcDbEntity
  8
SK3
  6
SLD-Dashed
370
    18
100
AcDbLine
 10
87.7043313921
 20
-21.9212065213
 30
0.0
 11
87.0
 21
-21.8495995387
 31
0.0
  0
LINE
  5
143
330
1F
100
AcDbEntity
  8
SK3
  6
SLD-Dashed
370
    18
100
AcDbLine
 10
87.0
 20
-21.999028784
 30
0.0
 11
86.3819660113
 21
-22.0682453225
 31
0.0
  0
LINE
  5
144
330
1F
100
AcDbEntity
  8
SK3
  6
SLD-Dashed
370
    18
100
AcDbLine
 10
86.3819660113
 20
-22.0682453225
 30
0.0
 11
85.8244294954
 21
-22.2691195408
 31
0.0
  0
LINE
  5
145
330
1F
100
AcDbEntity
  8
SK3
  6
SLD-Dashed
370
    18
100
AcDbLine
 10
85.8244294954
 20
-22.2691195408
 30
0.0
 11
85.3819660113
 21
-22.5819884708
 31
0.0
  0
LINE
  5
146
330
1F
100
AcDbEntity
  8
SK3
  6
SLD-Dashed
370
    18
100
AcDbLine
 10
85.3819660113
 20
-22.5819884708
 30
0.0
 11
85.0978869674
 21
-22.976226322
 31
0.0
  0
LINE
  5
147
330
1F
100
AcDbEntity
  8
SK3
  6
SLD-Dashed
370
    18
100
AcDbLine
 10
85.0978869674
 20
-22.976226322
 30
0.0
 11
85.0
 21
-23.4132423464
 31
0.0
  0
LINE
  5
148
330
1F
100
AcDbEntity
  8
SK3
  6
SLD-Dashed
370
    18
100
AcDbLine
 10
85.0
 20
-23.4132423464
 30
0.0
 11
85.0978869674
 21
-23.8502583708
 31
0.0
  0
LINE
  5
149
330
1F
100
AcDbEntity
  8
SK3
  6
SLD-Dashed
370
    18
100
AcDbLine
 10
85.0978869674
 20
-23.8502583708
 30
0.0
 11
85.3819660113
 21
-24.244496222
 31
0.0
  0
LINE
  5
14A
330
1F
100
AcDbEntity
  8
SK3
  6
SLD-Dashed
370
    18
100
AcDbLine
 10
85.3819660113
 20
-24.244496222
 30
0.0
 11
85.8244294954
 21
-24.557365152
 31
0.0
  0
LINE
  5
14B
330
1F
100
AcDbEntity
  8
SK3
  6
SLD-Dashed
370
    18
100
AcDbLine
 10
85.8244294954
 20
-24.557365152
 30
0.0
 11
86.3819660113
 21
-24.7582393703
 31
0.0
  0
LINE
  5
14C
330
1F
100
AcDbEntity
  8
SK3
  6
SLD-Dashed
370
    18
100
AcDbLine
 10
86.3819660113
 20
-24.7582393703
 30
0.0
 11
87.0
 21
-24.8274559088
 31
0.0
  0
LINE
  5
14D
330
1F
100
AcDbEntity
  8
SK3
  6
SLD-Dashed
370
    18
100
AcDbLine
 10
87.0
 20
-24.8274559088
 30
0.0
 11
87.6180339887
 21
-24.7582393703
 31
0.0
  0
LINE
  5
14E
330
1F
100
AcDbEntity
  8
SK3
  6
SLD-Dashed
370
    18
100
AcDbLine
 10
87.6180339887
 20
-24.7582393703
 30
0.0
 11
88.1755705046
 21
-24.557365152
 31
0.0
  0
LINE
  5
14F
330
1F
100
AcDbEntity
  8
SK3
  6
SLD-Dashed
370
    18
100
AcDbLine
 10
88.1755705046
 20
-24.557365152
 30
0.0
 11
88.6180339887
 21
-24.244496222
 31
0.0
  0
LINE
  5
150
330
1F
100
AcDbEntity
  8
SK3
  6
SLD-Dashed
370
    18
100
AcDbLine
 10
88.6180339887
 20
-24.244496222
 30
0.0
 11
88.9021130326
 21
-23.8502583708
 31
0.0
  0
LINE
  5
151
330
1F
100
AcDbEntity
  8
SK3
  6
SLD-Dashed
370
    18
100
AcDbLine
 10
88.9021130326
 20
-23.8502583708
 30
0.0
 11
89.0
 21
-23.4132423464
 31
0.0
  0
LINE
  5
152
330
1F
100
AcDbEntity
  8
SK3
  6
SLD-Dashed
370
    18
100
AcDbLine
 10
89.0
 20
-23.4132423464
 30
0.0
 11
88.9021130326
 21
-22.976226322
 31
0.0
  0
LINE
  5
153
330
1F
100
AcDbEntity
  8
SK3
  6
SLD-Dashed
370
    18
100
AcDbLine
 10
88.9021130326
 20
-22.976226322
 30
0.0
 11
88.6180339887
 21
-22.5819884708
 31
0.0
  0
LINE
  5
154
330
1F
100
AcDbEntity
  8
SK3
  6
SLD-Dashed
370
    18
100
AcDbLine
 10
88.6180339887
 20
-22.5819884708
 30
0.0
 11
88.1755705046
 21
-22.2691195408
 31
0.0
  0
LINE
  5
155
330
1F
100
AcDbEntity
  8
SK3
  6
SLD-Dashed
370
    18
100
AcDbLine
 10
88.1755705046
 20
-22.2691195408
 30
0.0
 11
87.6180339887
 21
-22.0682453225
 31
0.0
  0
LINE
  5
156
330
1F
100
AcDbEntity
  8
SK3
  6
SLD-Dashed
370
    18
100
AcDbLine
 10
87.6180339887
 20
-22.0682453225
 30
0.0
 11
87.0
 21
-21.999028784
 31
0.0
  0
LINE
  5
157
330
1F
100
AcDbEntity
  8
SK3
  6
SLD-Dashed
370
    18
100
AcDbLine
 10
-100.05
 20
12.5075
 30
0.0
 11
-100.05
 21
-12.5075
 31
0.0
  0
LINE
  5
158
330
1F
100
AcDbEntity
  8
SK3
  6
SLD-Dashed
370
    18
100
AcDbLine
 10
-101.8
 20
13.5178629711
 30
0.0
 11
-101.8
 21
-13.5178629711
 31
0.0
  0
LINE
  5
159
330
1F
100
AcDbEntity
  8
1
  6
SLD-Dashed
370
    18
100
AcDbLine
 10
19.705
 20
-41.0269100055
 30
0.0
 11
19.705
 21
-40.8883311594
 31
0.0
  0
LINE
  5
15A
330
1F
100
AcDbEntity
  8
1
  6
SLD-Dashed
370
    18
100
AcDbLine
 10
19.705
 20
41.0269100055
 30
0.0
 11
19.705
 21
40.8883311594
 31
0.0
  0
LINE
  5
15B
330
1F
100
AcDbEntity
  8
SK3
  6
SLD-Dashed
370
    18
100
AcDbLine
 10
21.6
 20
35.3
 30
0.0
 11
34.125
 21
35.3
 31
0.0
  0
LINE
  5
15C
330
1F
100
AcDbEntity
  8
SK3
  6
SLD-Dashed
370
    18
100
AcDbLine
 10
21.6
 20
-35.3
 30
0.0
 11
3.75
 21
-35.3
 31
0.0
  0
LINE
  5
15D
330
1F
100
AcDbEntity
  8
SK3
  6
SLD-Dashed
370
    18
100
AcDbLine
 10
3.75
 20
35.3
 30
0.0
 11
21.6
 21
35.3
 31
0.0
  0
LINE
  5
15E
330
1F
100
AcDbEntity
  8
1
  6
SLD-Dashed
370
    18
100
AcDbLine
 10
26.705
 20
-41.3432989685
 30
0.0
 11
26.705
 21
-41.2057841813
 31
0.0
  0
LINE
  5
15F
330
1F
100
AcDbEntity
  8
SK3
  6
SLD-Dashed
370
    18
100
AcDbLine
 10
21.6
 20
-35.3
 30
0.0
 11
34.125
 21
-35.3
 31
0.0
  0
LINE
  5
160
330
1F
100
AcDbEntity
  8
1
  6
SLD-Dashed
370
    18
100
AcDbLine
 10
26.705
 20
41.3432989685
 30
0.0
 11
26.705
 21
41.2057841813
 31
0.0
  0
LINE
  5
161
330
1F
100
AcDbEntity
  8
SK3
  6
SLD-Dashed
370
    18
100
AcDbLine
 10
-91.55
 20
12.75
 30
0.0
 11
-91.55
 21
-12.75
 31
0.0
  0
LINE
  5
162
330
1F
100
AcDbEntity
  8
SK3
  6
SLD-Dashed
370
    18
100
AcDbLine
 10
-91.9700223208
 20
12.5075
 30
0.0
 11
-91.9700223208
 21
-12.5075
 31
0.0
  0
LINE
  5
163
330
1F
100
AcDbEntity
  8
SK3
  6
SLD-Dashed
370
    18
100
AcDbLine
 10
-88.55
 20
12.75
 30
0.0
 11
-88.55
 21
-12.75
 31
0.0
  0
LINE
  5
164
330
1F
100
AcDbEntity
  8
SK3
  6
SLD-Dashed
370
    18
100
AcDbLine
 10
-87.2509618943
 20
-10.5
 30
0.0
 11
-87.2509618943
 21
10.5
 31
0.0
  0
LINE
  5
165
330
1F
100
AcDbEntity
  8
SK3
  6
SLD-Dashed
370
    18
100
AcDbLine
 10
87.0
 20
9.8994949366
 30
0.0
 11
86.3819660113
 21
9.9687114751
 31
0.0
  0
LINE
  5
166
330
1F
100
AcDbEntity
  8
SK3
  6
SLD-Dashed
370
    18
100
AcDbLine
 10
86.3819660113
 20
9.9687114751
 30
0.0
 11
85.8244294954
 21
10.1695856933
 31
0.0
  0
LINE
  5
167
330
1F
100
AcDbEntity
  8
SK3
  6
SLD-Dashed
370
    18
100
AcDbLine
 10
85.8244294954
 20
10.1695856933
 30
0.0
 11
85.3819660113
 21
10.4824546234
 31
0.0
  0
LINE
  5
168
330
1F
100
AcDbEntity
  8
SK3
  6
SLD-Dashed
370
    18
100
AcDbLine
 10
85.3819660113
 20
10.4824546234
 30
0.0
 11
85.0978869674
 21
10.8766924745
 31
0.0
  0
LINE
  5
169
330
1F
100
AcDbEntity
  8
SK3
  6
SLD-Dashed
370
    18
100
AcDbLine
 10
85.0978869674
 20
10.8766924745
 30
0.0
 11
85.0
 21
11.313708499
 31
0.0
  0
LINE
  5
16A
330
1F
100
AcDbEntity
  8
SK3
  6
SLD-Dashed
370
    18
100
AcDbLine
 10
85.0
 20
11.313708499
 30
0.0
 11
85.0978869674
 21
11.7507245234
 31
0.0
  0
LINE
  5
16B
330
1F
100
AcDbEntity
  8
SK3
  6
SLD-Dashed
370
    18
100
AcDbLine
 10
85.0978869674
 20
11.7507245234
 30
0.0
 11
85.3819660113
 21
12.1449623745
 31
0.0
  0
LINE
  5
16C
330
1F
100
AcDbEntity
  8
SK3
  6
SLD-Dashed
370
    18
100
AcDbLine
 10
85.3819660113
 20
12.1449623745
 30
0.0
 11
85.8244294954
 21
12.4578313046
 31
0.0
  0
LINE
  5
16D
330
1F
100
AcDbEntity
  8
SK3
  6
SLD-Dashed
370
    18
100
AcDbLine
 10
85.8244294954
 20
12.4578313046
 30
0.0
 11
86.3819660113
 21
12.6587055229
 31
0.0
  0
LINE
  5
16E
330
1F
100
AcDbEntity
  8
SK3
  6
SLD-Dashed
370
    18
100
AcDbLine
 10
86.3819660113
 20
12.6587055229
 30
0.0
 11
87.0
 21
12.7279220614
 31
0.0
  0
LINE
  5
16F
330
1F
100
AcDbEntity
  8
SK3
  6
SLD-Dashed
370
    18
100
AcDbLine
 10
87.0
 20
12.7279220614
 30
0.0
 11
87.6180339887
 21
12.6587055229
 31
0.0
  0
LINE
  5
170
330
1F
100
AcDbEntity
  8
SK3
  6
SLD-Dashed
370
    18
100
AcDbLine
 10
87.6180339887
 20
12.6587055229
 30
0.0
 11
88.1755705046
 21
12.4578313046
 31
0.0
  0
LINE
  5
171
330
1F
100
AcDbEntity
  8
SK3
  6
SLD-Dashed
370
    18
100
AcDbLine
 10
88.1755705046
 20
12.4578313046
 30
0.0
 11
88.6180339887
 21
12.1449623745
 31
0.0
  0
LINE
  5
172
330
1F
100
AcDbEntity
  8
SK3
  6
SLD-Dashed
370
    18
100
AcDbLine
 10
88.6180339887
 20
12.1449623745
 30
0.0
 11
88.9021130326
 21
11.7507245234
 31
0.0
  0
LINE
  5
173
330
1F
100
AcDbEntity
  8
SK3
  6
SLD-Dashed
370
    18
100
AcDbLine
 10
88.9021130326
 20
11.7507245234
 30
0.0
 11
89.0
 21
11.313708499
 31
0.0
  0
LINE
  5
174
330
1F
100
AcDbEntity
  8
SK3
  6
SLD-Dashed
370
    18
100
AcDbLine
 10
89.0
 20
11.313708499
 30
0.0
 11
88.9021130326
 21
10.8766924745
 31
0.0
  0
LINE
  5
175
330
1F
100
AcDbEntity
  8
SK3
  6
SLD-Dashed
370
    18
100
AcDbLine
 10
88.9021130326
 20
10.8766924745
 30
0.0
 11
88.6180339887
 21
10.4824546234
 31
0.0
  0
LINE
  5
176
330
1F
100
AcDbEntity
  8
SK3
  6
SLD-Dashed
370
    18
100
AcDbLine
 10
88.6180339887
 20
10.4824546234
 30
0.0
 11
88.1755705046
 21
10.1695856933
 31
0.0
  0
LINE
  5
177
330
1F
100
AcDbEntity
  8
SK3
  6
SLD-Dashed
370
    18
100
AcDbLine
 10
88.1755705046
 20
10.1695856933
 30
0.0
 11
87.6180339887
 21
9.9687114751
 31
0.0
  0
LINE
  5
178
330
1F
100
AcDbEntity
  8
SK3
  6
SLD-Dashed
370
    18
100
AcDbLine
 10
87.6180339887
 20
9.9687114751
 30
0.0
 11
87.0
 21
9.8994949366
 31
0.0
  0
LINE
  5
179
330
1F
100
AcDbEntity
  8
SK3
  6
SLD-Dashed
370
    18
100
AcDbLine
 10
28.2
 20
10.5
 30
0.0
 11
28.2
 21
-10.5
 31
0.0
  0
LINE
  5
17A
330
1F
100
AcDbEntity
  8
SK3
  6
SLD-Dashed
370
    18
100
AcDbLine
 10
30.3030121666
 20
-7.0
 30
0.0
 11
30.3030121666
 21
7.0
 31
0.0
  0
LINE
  5
17B
330
1F
100
AcDbEntity
  8
SK3
  6
SLD-Dashed
370
    18
100
AcDbLine
 10
124.0
 20
10.4852813742
 30
0.0
 11
124.0
 21
6.4852813742
 31
0.0
  0
LINE
  5
17C
330
1F
100
AcDbEntity
  8
SK3
  6
SLD-Dashed
370
    18
100
AcDbLine
 10
84.0
 20
10.4852813742
 30
0.0
 11
84.0
 21
6.4852813742
 31
0.0
  0
LINE
  5
17D
330
1F
100
AcDbEntity
  8
SK3
  6
SLD-Dashed
370
    18
100
AcDbLine
 10
124.0
 20
-6.4852813742
 30
0.0
 11
124.0
 21
-10.4852813742
 31
0.0
  0
LINE
  5
17E
330
1F
100
AcDbEntity
  8
SK3
  6
SLD-Dashed
370
    18
100
AcDbLine
 10
84.0
 20
-6.4852813742
 30
0.0
 11
84.0
 21
-10.4852813742
 31
0.0
  0
LINE
  5
17F
330
1F
100
AcDbEntity
  8
SK3
  6
SLD-Dashed
370
    18
100
AcDbLine
 10
122.0
 20
8.5
 30
0.0
 11
122.0
 21
-8.5
 31
0.0
  0
LINE
  5
180
330
1F
100
AcDbEntity
  8
SK3
  6
SLD-Dashed
370
    18
100
AcDbLine
 10
124.0
 20
9.6547005384
 30
0.0
 11
124.0
 21
-9.6547005384
 31
0.0
  0
LINE
  5
181
330
1F
100
AcDbEntity
  8
SK3
  6
SLD-Dashed
370
    18
100
AcDbLine
 10
118.0
 20
8.5
 30
0.0
 11
118.0
 21
-8.5
 31
0.0
  0
LINE
  5
182
330
1F
100
AcDbEntity
  8
SK3
  6
SLD-Dashed
370
    18
100
AcDbLine
 10
117.0987090715
 20
-7.0
 30
0.0
 11
117.0987090715
 21
7.0
 31
0.0
  0
LINE
  5
183
330
1F
100
AcDbEntity
  8
SK1
  6
SLD-Dashed
370
    18
100
AcDbLine
 10
100.0
 20
17.9969323106
 30
0.0
 11
100.0
 21
34.0030676894
 31
0.0
  0
LINE
  5
184
330
1F
100
AcDbEntity
  8
SK1
  6
SLD-Dashed
370
    18
100
AcDbLine
 10
100.0
 20
-17.9969323106
 30
0.0
 11
100.0
 21
-34.0030676894
 31
0.0
  0
LINE
  5
185
330
1F
100
AcDbEntity
  8
SK3
  6
SLD-Dashed
370
    18
100
AcDbLine
 10
15.8
 20
-30.6
 30
0.0
 11
25.2
 21
-30.6
 31
0.0
  0
LINE
  5
186
330
1F
100
AcDbEntity
  8
SK3
  6
SLD-Dashed
370
    18
100
AcDbLine
 10
15.5
 20
-35.3
 30
0.0
 11
25.474346617
 21
-35.3
 31
0.0
  0
LINE
  5
187
330
1F
100
AcDbEntity
  8
SK3
  6
SLD-Dashed
370
    18
100
AcDbLine
 10
84.0
 20
10.4852813742
 30
0.0
 11
84.0
 21
6.4852813742
 31
0.0
  0
LINE
  5
188
330
1F
100
AcDbEntity
  8
SK3
  6
SLD-Dashed
370
    18
100
AcDbLine
 10
124.0
 20
10.4852813742
 30
0.0
 11
124.0
 21
6.4852813742
 31
0.0
  0
LINE
  5
189
330
1F
100
AcDbEntity
  8
SK3
  6
SLD-Dashed
370
    18
100
AcDbLine
 10
124.0
 20
-6.4852813742
 30
0.0
 11
124.0
 21
-10.4852813742
 31
0.0
  0
LINE
  5
18A
330
1F
100
AcDbEntity
  8
SK3
  6
SLD-Dashed
370
    18
100
AcDbLine
 10
84.0
 20
-6.4852813742
 30
0.0
 11
84.0
 21
-10.4852813742
 31
0.0
  0
LINE
  5
18B
330
1F
100
AcDbEntity
  8
SK3
  6
SLD-Dashed
370
    18
100
AcDbLine
 10
87.0
 20
12.7279220614
 30
0.0
 11
86.3819660113
 21
12.6587055229
 31
0.0
  0
LINE
  5
18C
330
1F
100
AcDbEntity
  8
SK3
  6
SLD-Dashed
370
    18
100
AcDbLine
 10
86.3819660113
 20
12.6587055229
 30
0.0
 11
85.8244294954
 21
12.4578313046
 31
0.0
  0
LINE
  5
18D
330
1F
100
AcDbEntity
  8
SK3
  6
SLD-Dashed
370
    18
100
AcDbLine
 10
85.8244294954
 20
12.4578313046
 30
0.0
 11
85.3819660113
 21
12.1449623745
 31
0.0
  0
LINE
  5
18E
330
1F
100
AcDbEntity
  8
SK3
  6
SLD-Dashed
370
    18
100
AcDbLine
 10
85.3819660113
 20
12.1449623745
 30
0.0
 11
85.0978869674
 21
11.7507245234
 31
0.0
  0
LINE
  5
18F
330
1F
100
AcDbEntity
  8
SK3
  6
SLD-Dashed
370
    18
100
AcDbLine
 10
85.0978869674
 20
11.7507245234
 30
0.0
 11
85.0
 21
11.313708499
 31
0.0
  0
LINE
  5
190
330
1F
100
AcDbEntity
  8
SK3
  6
SLD-Dashed
370
    18
100
AcDbLine
 10
85.0
 20
11.313708499
 30
0.0
 11
85.0978869674
 21
10.8766924745
 31
0.0
  0
LINE
  5
191
330
1F
100
AcDbEntity
  8
SK3
  6
SLD-Dashed
370
    18
100
AcDbLine
 10
85.0978869674
 20
10.8766924745
 30
0.0
 11
85.3819660113
 21
10.4824546234
 31
0.0
  0
LINE
  5
192
330
1F
100
AcDbEntity
  8
SK3
  6
SLD-Dashed
370
    18
100
AcDbLine
 10
85.3819660113
 20
10.4824546234
 30
0.0
 11
85.8244294954
 21
10.1695856933
 31
0.0
  0
LINE
  5
193
330
1F
100
AcDbEntity
  8
SK3
  6
SLD-Dashed
370
    18
100
AcDbLine
 10
85.8244294954
 20
10.1695856933
 30
0.0
 11
86.3819660113
 21
9.9687114751
 31
0.0
  0
LINE
  5
194
330
1F
100
AcDbEntity
  8
SK3
  6
SLD-Dashed
370
    18
100
AcDbLine
 10
86.3819660113
 20
9.9687114751
 30
0.0
 11
87.0
 21
9.8994949366
 31
0.0
  0
LINE
  5
195
330
1F
100
AcDbEntity
  8
SK3
  6
SLD-Dashed
370
    18
100
AcDbLine
 10
87.0
 20
9.8994949366
 30
0.0
 11
87.6180339887
 21
9.9687114751
 31
0.0
  0
LINE
  5
196
330
1F
100
AcDbEntity
  8
SK3
  6
SLD-Dashed
370
    18
100
AcDbLine
 10
87.6180339887
 20
9.9687114751
 30
0.0
 11
88.1755705046
 21
10.1695856933
 31
0.0
  0
LINE
  5
197
330
1F
100
AcDbEntity
  8
SK3
  6
SLD-Dashed
370
    18
100
AcDbLine
 10
88.1755705046
 20
10.1695856933
 30
0.0
 11
88.6180339887
 21
10.4824546234
 31
0.0
  0
LINE
  5
198
330
1F
100
AcDbEntity
  8
SK3
  6
SLD-Dashed
370
    18
100
AcDbLine
 10
88.6180339887
 20
10.4824546234
 30
0.0
 11
88.9021130326
 21
10.8766924745
 31
0.0
  0
LINE
  5
199
330
1F
100
AcDbEntity
  8
SK3
  6
SLD-Dashed
370
    18
100
AcDbLine
 10
88.9021130326
 20
10.8766924745
 30
0.0
 11
89.0
 21
11.313708499
 31
0.0
  0
LINE
  5
19A
330
1F
100
AcDbEntity
  8
SK3
  6
SLD-Dashed
370
    18
100
AcDbLine
 10
89.0
 20
11.313708499
 30
0.0
 11
88.9021130326
 21
11.7507245234
 31
0.0
  0
LINE
  5
19B
330
1F
100
AcDbEntity
  8
SK3
  6
SLD-Dashed
370
    18
100
AcDbLine
 10
88.9021130326
 20
11.7507245234
 30
0.0
 11
88.6180339887
 21
12.1449623745
 31
0.0
  0
LINE
  5
19C
330
1F
100
AcDbEntity
  8
SK3
  6
SLD-Dashed
370
    18
100
AcDbLine
 10
88.6180339887
 20
12.1449623745
 30
0.0
 11
88.1755705046
 21
12.4578313046
 31
0.0
  0
LINE
  5
19D
330
1F
100
AcDbEntity
  8
SK3
  6
SLD-Dashed
370
    18
100
AcDbLine
 10
88.1755705046
 20
12.4578313046
 30
0.0
 11
87.6180339887
 21
12.6587055229
 31
0.0
  0
LINE
  5
19E
330
1F
100
AcDbEntity
  8
SK3
  6
SLD-Dashed
370
    18
100
AcDbLine
 10
87.6180339887
 20
12.6587055229
 30
0.0
 11
87.0
 21
12.7279220614
 31
0.0
  0
LINE
  5
19F
330
1F
100
AcDbEntity
  8
SK3
  6
SLD-Dashed
370
    18
100
AcDbLine
 10
87.0
 20
-24.8274559088
 30
0.0
 11
86.3819660113
 21
-24.7582393703
 31
0.0
  0
LINE
  5
1A0
330
1F
100
AcDbEntity
  8
SK3
  6
SLD-Dashed
370
    18
100
AcDbLine
 10
86.3819660113
 20
-24.7582393703
 30
0.0
 11
85.8244294954
 21
-24.557365152
 31
0.0
  0
LINE
  5
1A1
330
1F
100
AcDbEntity
  8
SK3
  6
SLD-Dashed
370
    18
100
AcDbLine
 10
85.8244294954
 20
-24.557365152
 30
0.0
 11
85.3819660113
 21
-24.244496222
 31
0.0
  0
LINE
  5
1A2
330
1F
100
AcDbEntity
  8
SK3
  6
SLD-Dashed
370
    18
100
AcDbLine
 10
85.3819660113
 20
-24.244496222
 30
0.0
 11
85.0978869674
 21
-23.8502583708
 31
0.0
  0
LINE
  5
1A3
330
1F
100
AcDbEntity
  8
SK3
  6
SLD-Dashed
370
    18
100
AcDbLine
 10
85.0978869674
 20
-23.8502583708
 30
0.0
 11
85.0
 21
-23.4132423464
 31
0.0
  0
LINE
  5
1A4
330
1F
100
AcDbEntity
  8
SK3
  6
SLD-Dashed
370
    18
100
AcDbLine
 10
85.0
 20
-23.4132423464
 30
0.0
 11
85.0978869674
 21
-22.976226322
 31
0.0
  0
LINE
  5
1A5
330
1F
100
AcDbEntity
  8
SK3
  6
SLD-Dashed
370
    18
100
AcDbLine
 10
85.0978869674
 20
-22.976226322
 30
0.0
 11
85.3819660113
 21
-22.5819884708
 31
0.0
  0
LINE
  5
1A6
330
1F
100
AcDbEntity
  8
SK3
  6
SLD-Dashed
370
    18
100
AcDbLine
 10
85.3819660113
 20
-22.5819884708
 30
0.0
 11
85.8244294954
 21
-22.2691195408
 31
0.0
  0
LINE
  5
1A7
330
1F
100
AcDbEntity
  8
SK3
  6
SLD-Dashed
370
    18
100
AcDbLine
 10
85.8244294954
 20
-22.2691195408
 30
0.0
 11
86.3819660113
 21
-22.0682453225
 31
0.0
  0
LINE
  5
1A8
330
1F
100
AcDbEntity
  8
SK3
  6
SLD-Dashed
370
    18
100
AcDbLine
 10
86.3819660113
 20
-22.0682453225
 30
0.0
 11
87.0
 21
-21.999028784
 31
0.0
  0
LINE
  5
1A9
330
1F
100
AcDbEntity
  8
SK3
  6
SLD-Dashed
370
    18
100
AcDbLine
 10
87.0
 20
-21.999028784
 30
0.0
 11
87.6180339887
 21
-22.0682453225
 31
0.0
  0
LINE
  5
1AA
330
1F
100
AcDbEntity
  8
SK3
  6
SLD-Dashed
370
    18
100
AcDbLine
 10
87.6180339887
 20
-22.0682453225
 30
0.0
 11
88.1755705046
 21
-22.2691195408
 31
0.0
  0
LINE
  5
1AB
330
1F
100
AcDbEntity
  8
SK3
  6
SLD-Dashed
370
    18
100
AcDbLine
 10
88.1755705046
 20
-22.2691195408
 30
0.0
 11
88.6180339887
 21
-22.5819884708
 31
0.0
  0
LINE
  5
1AC
330
1F
100
AcDbEntity
  8
SK3
  6
SLD-Dashed
370
    18
100
AcDbLine
 10
88.6180339887
 20
-22.5819884708
 30
0.0
 11
88.9021130326
 21
-22.976226322
 31
0.0
  0
LINE
  5
1AD
330
1F
100
AcDbEntity
  8
SK3
  6
SLD-Dashed
370
    18
100
AcDbLine
 10
88.9021130326
 20
-22.976226322
 30
0.0
 11
89.0
 21
-23.4132423464
 31
0.0
  0
LINE
  5
1AE
330
1F
100
AcDbEntity
  8
SK3
  6
SLD-Dashed
370
    18
100
AcDbLine
 10
89.0
 20
-23.4132423464
 30
0.0
 11
88.9021130326
 21
-23.8502583708
 31
0.0
  0
LINE
  5
1AF
330
1F
100
AcDbEntity
  8
SK3
  6
SLD-Dashed
370
    18
100
AcDbLine
 10
88.9021130326
 20
-23.8502583708
 30
0.0
 11
88.6180339887
 21
-24.244496222
 31
0.0
  0
LINE
  5
1B0
330
1F
100
AcDbEntity
  8
SK3
  6
SLD-Dashed
370
    18
100
AcDbLine
 10
88.6180339887
 20
-24.244496222
 30
0.0
 11
88.1755705046
 21
-24.557365152
 31
0.0
  0
LINE
  5
1B1
330
1F
100
AcDbEntity
  8
SK3
  6
SLD-Dashed
370
    18
100
AcDbLine
 10
88.1755705046
 20
-24.557365152
 30
0.0
 11
87.6180339887
 21
-24.7582393703
 31
0.0
  0
LINE
  5
1B2
330
1F
100
AcDbEntity
  8
SK3
  6
SLD-Dashed
370
    18
100
AcDbLine
 10
87.6180339887
 20
-24.7582393703
 30
0.0
 11
87.0
 21
-24.8274559088
 31
0.0
  0
LINE
  5
1B3
330
1F
100
AcDbEntity
  8
1
  6
SLD-Dashed
370
    18
100
AcDbLine
 10
21.6
 20
40.4949379553
 30
0.0
 11
20.08
 21
40.4949379553
 31
0.0
  0
LINE
  5
1B4
330
1F
100
AcDbEntity
  8
1
  6
SLD-Dashed
370
    18
100
AcDbLine
 10
21.6
 20
-40.4949379553
 30
0.0
 11
20.08
 21
-40.4949379553
 31
0.0
  0
LINE
  5
1B5
330
1F
100
AcDbEntity
  8
SK3
  6
SLD-Dashed
370
    18
100
AcDbLine
 10
87.0
 20
-25.3851334446
 30
0.0
 11
86.2956686079
 21
-25.313526462
 31
0.0
  0
LINE
  5
1B6
330
1F
100
AcDbEntity
  8
SK3
  6
SLD-Dashed
370
    18
100
AcDbLine
 10
86.2956686079
 20
-25.313526462
 30
0.0
 11
85.6483979564
 21
-25.104506686
 31
0.0
  0
LINE
  5
1B7
330
1F
100
AcDbEntity
  8
SK3
  6
SLD-Dashed
370
    18
100
AcDbLine
 10
85.6483979564
 20
-25.104506686
 30
0.0
 11
85.1106260641
 21
-24.7750076559
 31
0.0
  0
LINE
  5
1B8
330
1F
100
AcDbEntity
  8
SK3
  6
SLD-Dashed
370
    18
100
AcDbLine
 10
85.1106260641
 20
-24.7750076559
 30
0.0
 11
84.7259200116
 21
-24.3517234234
 31
0.0
  0
LINE
  5
1B9
330
1F
100
AcDbEntity
  8
SK3
  6
SLD-Dashed
370
    18
100
AcDbLine
 10
84.7259200116
 20
-24.3517234234
 30
0.0
 11
84.5254463953
 21
-23.8689459596
 31
0.0
  0
LINE
  5
1BA
330
1F
100
AcDbEntity
  8
SK3
  6
SLD-Dashed
370
    18
100
AcDbLine
 10
84.5254463953
 20
-23.8689459596
 30
0.0
 11
84.5254463953
 21
-23.3657870236
 31
0.0
  0
LINE
  5
1BB
330
1F
100
AcDbEntity
  8
SK3
  6
SLD-Dashed
370
    18
100
AcDbLine
 10
84.5254463953
 20
-23.3657870236
 30
0.0
 11
84.7259200116
 21
-22.8830095599
 31
0.0
  0
LINE
  5
1BC
330
1F
100
AcDbEntity
  8
SK3
  6
SLD-Dashed
370
    18
100
AcDbLine
 10
84.7259200116
 20
-22.8830095599
 30
0.0
 11
85.1106260641
 21
-22.4597253274
 31
0.0
  0
LINE
  5
1BD
330
1F
100
AcDbEntity
  8
SK3
  6
SLD-Dashed
370
    18
100
AcDbLine
 10
85.1106260641
 20
-22.4597253274
 30
0.0
 11
85.6483979564
 21
-22.1302262972
 31
0.0
  0
LINE
  5
1BE
330
1F
100
AcDbEntity
  8
SK3
  6
SLD-Dashed
370
    18
100
AcDbLine
 10
85.6483979564
 20
-22.1302262972
 30
0.0
 11
86.2956686079
 21
-21.9212065213
 31
0.0
  0
LINE
  5
1BF
330
1F
100
AcDbEntity
  8
SK3
  6
SLD-Dashed
370
    18
100
AcDbLine
 10
86.2956686079
 20
-21.9212065213
 30
0.0
 11
87.0
 21
-21.8495995387
 31
0.0
  0
LINE
  5
1C0
330
1F
100
AcDbEntity
  8
SK3
  6
SLD-Dashed
370
    18
100
AcDbLine
 10
87.0
 20
-21.8495995387
 30
0.0
 11
87.7043313921
 21
-21.9212065213
 31
0.0
  0
LINE
  5
1C1
330
1F
100
AcDbEntity
  8
SK3
  6
SLD-Dashed
370
    18
100
AcDbLine
 10
87.7043313921
 20
-21.9212065213
 30
0.0
 11
88.3516020436
 21
-22.1302262972
 31
0.0
  0
LINE
  5
1C2
330
1F
100
AcDbEntity
  8
SK3
  6
SLD-Dashed
370
    18
100
AcDbLine
 10
88.3516020436
 20
-22.1302262972
 30
0.0
 11
88.8893739359
 21
-22.4597253274
 31
0.0
  0
LINE
  5
1C3
330
1F
100
AcDbEntity
  8
SK3
  6
SLD-Dashed
370
    18
100
AcDbLine
 10
88.8893739359
 20
-22.4597253274
 30
0.0
 11
89.2740799884
 21
-22.8830095599
 31
0.0
  0
LINE
  5
1C4
330
1F
100
AcDbEntity
  8
SK3
  6
SLD-Dashed
370
    18
100
AcDbLine
 10
89.2740799884
 20
-22.8830095599
 30
0.0
 11
89.4745536047
 21
-23.3657870236
 31
0.0
  0
LINE
  5
1C5
330
1F
100
AcDbEntity
  8
SK3
  6
SLD-Dashed
370
    18
100
AcDbLine
 10
89.4745536047
 20
-23.3657870236
 30
0.0
 11
89.4745536047
 21
-23.8689459596
 31
0.0
  0
LINE
  5
1C6
330
1F
100
AcDbEntity
  8
SK3
  6
SLD-Dashed
370
    18
100
AcDbLine
 10
89.4745536047
 20
-23.8689459596
 30
0.0
 11
89.2740799884
 21
-24.3517234234
 31
0.0
  0
LINE
  5
1C7
330
1F
100
AcDbEntity
  8
SK3
  6
SLD-Dashed
370
    18
100
AcDbLine
 10
89.2740799884
 20
-24.3517234234
 30
0.0
 11
88.8893739359
 21
-24.7750076559
 31
0.0
  0
LINE
  5
1C8
330
1F
100
AcDbEntity
  8
SK3
  6
SLD-Dashed
370
    18
100
AcDbLine
 10
88.8893739359
 20
-24.7750076559
 30
0.0
 11
88.3516020436
 21
-25.104506686
 31
0.0
  0
LINE
  5
1C9
330
1F
100
AcDbEntity
  8
SK3
  6
SLD-Dashed
370
    18
100
AcDbLine
 10
88.3516020436
 20
-25.104506686
 30
0.0
 11
87.7043313921
 21
-25.313526462
 31
0.0
  0
LINE
  5
1CA
330
1F
100
AcDbEntity
  8
SK3
  6
SLD-Dashed
370
    18
100
AcDbLine
 10
87.7043313921
 20
-25.313526462
 30
0.0
 11
87.0
 21
-25.3851334446
 31
0.0
  0
LINE
  5
1CB
330
1F
100
AcDbEntity
  8
SK3
  6
SLD-Dashed
370
    18
100
AcDbLine
 10
6.1835367829
 20
13.9015950424
 30
0.0
 11
6.007645743
 21
13.2268262022
 31
0.0
  0
LINE
  5
1CC
330
1F
100
AcDbEntity
  8
SK3
  6
SLD-Dashed
370
    18
100
AcDbLine
 10
6.007645743
 20
13.2268262022
 30
0.0
 11
5.7285410107
 21
12.6067231204
 31
0.0
  0
LINE
  5
1CD
330
1F
100
AcDbEntity
  8
SK3
  6
SLD-Dashed
370
    18
100
AcDbLine
 10
5.7285410107
 20
12.6067231204
 30
0.0
 11
5.3688339914
 21
12.0915228608
 31
0.0
  0
LINE
  5
1CE
330
1F
100
AcDbEntity
  8
SK3
  6
SLD-Dashed
370
    18
100
AcDbLine
 10
5.3688339914
 20
12.0915228608
 30
0.0
 11
4.9576660087
 21
11.7229638844
 31
0.0
  0
LINE
  5
1CF
330
1F
100
AcDbEntity
  8
SK3
  6
SLD-Dashed
370
    18
100
AcDbLine
 10
4.9576660087
 20
11.7229638844
 30
0.0
 11
4.5283474471
 21
11.5309046477
 31
0.0
  0
LINE
  5
1D0
330
1F
100
AcDbEntity
  8
SK3
  6
SLD-Dashed
370
    18
100
AcDbLine
 10
4.5283474471
 20
11.5309046477
 30
0.0
 11
4.1156591434
 21
11.5309046477
 31
0.0
  0
LINE
  5
1D1
330
1F
100
AcDbEntity
  8
SK3
  6
SLD-Dashed
370
    18
100
AcDbLine
 10
4.1156591434
 20
11.5309046477
 30
0.0
 11
3.7530346494
 21
11.7229638844
 31
0.0
  0
LINE
  5
1D2
330
1F
100
AcDbEntity
  8
SK3
  6
SLD-Dashed
370
    18
100
AcDbLine
 10
3.7530346494
 20
11.7229638844
 30
0.0
 11
3.4698516451
 21
12.0915228608
 31
0.0
  0
LINE
  5
1D3
330
1F
100
AcDbEntity
  8
SK3
  6
SLD-Dashed
370
    18
100
AcDbLine
 10
3.4698516451
 20
12.0915228608
 30
0.0
 11
3.2890519333
 21
12.6067231204
 31
0.0
  0
LINE
  5
1D4
330
1F
100
AcDbEntity
  8
SK3
  6
SLD-Dashed
370
    18
100
AcDbLine
 10
3.2890519333
 20
12.6067231204
 30
0.0
 11
3.2252828315
 21
13.2268262022
 31
0.0
  0
LINE
  5
1D5
330
1F
100
AcDbEntity
  8
SK3
  6
SLD-Dashed
370
    18
100
AcDbLine
 10
3.2252828315
 20
13.2268262022
 30
0.0
 11
3.2837105329
 21
13.9015950424
 31
0.0
  0
LINE
  5
1D6
330
1F
100
AcDbEntity
  8
SK3
  6
SLD-Dashed
370
    18
100
AcDbLine
 10
3.2837105329
 20
13.9015950424
 30
0.0
 11
3.4596015728
 21
14.5763638826
 31
0.0
  0
LINE
  5
1D7
330
1F
100
AcDbEntity
  8
SK3
  6
SLD-Dashed
370
    18
100
AcDbLine
 10
3.4596015728
 20
14.5763638826
 30
0.0
 11
3.7387063052
 21
15.1964669645
 31
0.0
  0
LINE
  5
1D8
330
1F
100
AcDbEntity
  8
SK3
  6
SLD-Dashed
370
    18
100
AcDbLine
 10
3.7387063052
 20
15.1964669645
 30
0.0
 11
4.0984133244
 21
15.711667224
 31
0.0
  0
LINE
  5
1D9
330
1F
100
AcDbEntity
  8
SK3
  6
SLD-Dashed
370
    18
100
AcDbLine
 10
4.0984133244
 20
15.711667224
 30
0.0
 11
4.5095813072
 21
16.0802262004
 31
0.0
  0
LINE
  5
1DA
330
1F
100
AcDbEntity
  8
SK3
  6
SLD-Dashed
370
    18
100
AcDbLine
 10
4.5095813072
 20
16.0802262004
 30
0.0
 11
4.9388998687
 21
16.2722854371
 31
0.0
  0
LINE
  5
1DB
330
1F
100
AcDbEntity
  8
SK3
  6
SLD-Dashed
370
    18
100
AcDbLine
 10
4.9388998687
 20
16.2722854371
 30
0.0
 11
5.3515881725
 21
16.2722854371
 31
0.0
  0
LINE
  5
1DC
330
1F
100
AcDbEntity
  8
SK3
  6
SLD-Dashed
370
    18
100
AcDbLine
 10
5.3515881725
 20
16.2722854371
 30
0.0
 11
5.7142126665
 21
16.0802262004
 31
0.0
  0
LINE
  5
1DD
330
1F
100
AcDbEntity
  8
SK3
  6
SLD-Dashed
370
    18
100
AcDbLine
 10
5.7142126665
 20
16.0802262004
 30
0.0
 11
5.9973956708
 21
15.711667224
 31
0.0
  0
LINE
  5
1DE
330
1F
100
AcDbEntity
  8
SK3
  6
SLD-Dashed
370
    18
100
AcDbLine
 10
5.9973956708
 20
15.711667224
 30
0.0
 11
6.1781953826
 21
15.1964669645
 31
0.0
  0
LINE
  5
1DF
330
1F
100
AcDbEntity
  8
SK3
  6
SLD-Dashed
370
    18
100
AcDbLine
 10
6.1781953826
 20
15.1964669645
 30
0.0
 11
6.2419644844
 21
14.5763638826
 31
0.0
  0
LINE
  5
1E0
330
1F
100
AcDbEntity
  8
SK3
  6
SLD-Dashed
370
    18
100
AcDbLine
 10
6.2419644844
 20
14.5763638826
 30
0.0
 11
6.1835367829
 21
13.9015950424
 31
0.0
  0
LINE
  5
1E1
330
1F
100
AcDbEntity
  8
SK3
  6
SLD-Dashed
370
    18
100
AcDbLine
 10
16.9792841073
 20
11.0168048658
 30
0.0
 11
16.8033930674
 21
10.3420360255
 31
0.0
  0
LINE
  5
1E2
330
1F
100
AcDbEntity
  8
SK3
  6
SLD-Dashed
370
    18
100
AcDbLine
 10
16.8033930674
 20
10.3420360255
 30
0.0
 11
16.5242883351
 21
9.7219329437
 31
0.0
  0
LINE
  5
1E3
330
1F
100
AcDbEntity
  8
SK3
  6
SLD-Dashed
370
    18
100
AcDbLine
 10
16.5242883351
 20
9.7219329437
 30
0.0
 11
16.1645813158
 21
9.2067326842
 31
0.0
  0
LINE
  5
1E4
330
1F
100
AcDbEntity
  8
SK3
  6
SLD-Dashed
370
    18
100
AcDbLine
 10
16.1645813158
 20
9.2067326842
 30
0.0
 11
15.7534133331
 21
8.8381737078
 31
0.0
  0
LINE
  5
1E5
330
1F
100
AcDbEntity
  8
SK3
  6
SLD-Dashed
370
    18
100
AcDbLine
 10
15.7534133331
 20
8.8381737078
 30
0.0
 11
15.3240947716
 21
8.6461144711
 31
0.0
  0
LINE
  5
1E6
330
1F
100
AcDbEntity
  8
SK3
  6
SLD-Dashed
370
    18
100
AcDbLine
 10
15.3240947716
 20
8.6461144711
 30
0.0
 11
14.9114064678
 21
8.6461144711
 31
0.0
  0
LINE
  5
1E7
330
1F
100
AcDbEntity
  8
SK3
  6
SLD-Dashed
370
    18
100
AcDbLine
 10
14.9114064678
 20
8.6461144711
 30
0.0
 11
14.5487819738
 21
8.8381737078
 31
0.0
  0
LINE
  5
1E8
330
1F
100
AcDbEntity
  8
SK3
  6
SLD-Dashed
370
    18
100
AcDbLine
 10
14.5487819738
 20
8.8381737078
 30
0.0
 11
14.2655989695
 21
9.2067326842
 31
0.0
  0
LINE
  5
1E9
330
1F
100
AcDbEntity
  8
SK3
  6
SLD-Dashed
370
    18
100
AcDbLine
 10
14.2655989695
 20
9.2067326842
 30
0.0
 11
14.0847992577
 21
9.7219329437
 31
0.0
  0
LINE
  5
1EA
330
1F
100
AcDbEntity
  8
SK3
  6
SLD-Dashed
370
    18
100
AcDbLine
 10
14.0847992577
 20
9.7219329437
 30
0.0
 11
14.0210301559
 21
10.3420360255
 31
0.0
  0
LINE
  5
1EB
330
1F
100
AcDbEntity
  8
SK3
  6
SLD-Dashed
370
    18
100
AcDbLine
 10
14.0210301559
 20
10.3420360255
 30
0.0
 11
14.0794578574
 21
11.0168048658
 31
0.0
  0
LINE
  5
1EC
330
1F
100
AcDbEntity
  8
SK3
  6
SLD-Dashed
370
    18
100
AcDbLine
 10
14.0794578574
 20
11.0168048658
 30
0.0
 11
14.2553488973
 21
11.691573706
 31
0.0
  0
LINE
  5
1ED
330
1F
100
AcDbEntity
  8
SK3
  6
SLD-Dashed
370
    18
100
AcDbLine
 10
14.2553488973
 20
11.691573706
 30
0.0
 11
14.5344536296
 21
12.3116767878
 31
0.0
  0
LINE
  5
1EE
330
1F
100
AcDbEntity
  8
SK3
  6
SLD-Dashed
370
    18
100
AcDbLine
 10
14.5344536296
 20
12.3116767878
 30
0.0
 11
14.8941606488
 21
12.8268770474
 31
0.0
  0
LINE
  5
1EF
330
1F
100
AcDbEntity
  8
SK3
  6
SLD-Dashed
370
    18
100
AcDbLine
 10
14.8941606488
 20
12.8268770474
 30
0.0
 11
15.3053286316
 21
13.1954360238
 31
0.0
  0
LINE
  5
1F0
330
1F
100
AcDbEntity
  8
SK3
  6
SLD-Dashed
370
    18
100
AcDbLine
 10
15.3053286316
 20
13.1954360238
 30
0.0
 11
15.7346471931
 21
13.3874952605
 31
0.0
  0
LINE
  5
1F1
330
1F
100
AcDbEntity
  8
SK3
  6
SLD-Dashed
370
    18
100
AcDbLine
 10
15.7346471931
 20
13.3874952605
 30
0.0
 11
16.1473354969
 21
13.3874952605
 31
0.0
  0
LINE
  5
1F2
330
1F
100
AcDbEntity
  8
SK3
  6
SLD-Dashed
370
    18
100
AcDbLine
 10
16.1473354969
 20
13.3874952605
 30
0.0
 11
16.5099599909
 21
13.1954360238
 31
0.0
  0
LINE
  5
1F3
330
1F
100
AcDbEntity
  8
SK3
  6
SLD-Dashed
370
    18
100
AcDbLine
 10
16.5099599909
 20
13.1954360238
 30
0.0
 11
16.7931429952
 21
12.8268770474
 31
0.0
  0
LINE
  5
1F4
330
1F
100
AcDbEntity
  8
SK3
  6
SLD-Dashed
370
    18
100
AcDbLine
 10
16.7931429952
 20
12.8268770474
 30
0.0
 11
16.973942707
 21
12.3116767878
 31
0.0
  0
LINE
  5
1F5
330
1F
100
AcDbEntity
  8
SK3
  6
SLD-Dashed
370
    18
100
AcDbLine
 10
16.973942707
 20
12.3116767878
 30
0.0
 11
17.0377118088
 21
11.691573706
 31
0.0
  0
LINE
  5
1F6
330
1F
100
AcDbEntity
  8
SK3
  6
SLD-Dashed
370
    18
100
AcDbLine
 10
17.0377118088
 20
11.691573706
 30
0.0
 11
16.9792841073
 21
11.0168048658
 31
0.0
  0
LINE
  5
1F7
330
1F
100
AcDbEntity
  8
SK3
  6
SLD-Dashed
370
    18
100
AcDbLine
 10
11.1
 20
16.2646500609
 30
0.0
 11
10.5356667635
 21
16.1711439022
 31
0.0
  0
LINE
  5
1F8
330
1F
100
AcDbEntity
  8
SK3
  6
SLD-Dashed
370
    18
100
AcDbLine
 10
10.5356667635
 20
16.1711439022
 30
0.0
 11
10.039400444
 21
15.9019036487
 31
0.0
  0
LINE
  5
1F9
330
1F
100
AcDbEntity
  8
SK3
  6
SLD-Dashed
370
    18
100
AcDbLine
 10
10.039400444
 20
15.9019036487
 30
0.0
 11
9.6710580838
 21
15.4894036487
 31
0.0
  0
LINE
  5
1FA
330
1F
100
AcDbEntity
  8
SK3
  6
SLD-Dashed
370
    18
100
AcDbLine
 10
9.6710580838
 20
15.4894036487
 30
0.0
 11
9.4750672075
 21
14.98339749
 31
0.0
  0
LINE
  5
1FB
330
1F
100
AcDbEntity
  8
SK3
  6
SLD-Dashed
370
    18
100
AcDbLine
 10
9.4750672075
 20
14.98339749
 30
0.0
 11
9.4750672075
 21
14.4449169832
 31
0.0
  0
LINE
  5
1FC
330
1F
100
AcDbEntity
  8
SK3
  6
SLD-Dashed
370
    18
100
AcDbLine
 10
9.4750672075
 20
14.4449169832
 30
0.0
 11
9.6710580838
 21
13.9389108244
 31
0.0
  0
LINE
  5
1FD
330
1F
100
AcDbEntity
  8
SK3
  6
SLD-Dashed
370
    18
100
AcDbLine
 10
9.6710580838
 20
13.9389108244
 30
0.0
 11
10.039400444
 21
13.5264108244
 31
0.0
  0
LINE
  5
1FE
330
1F
100
AcDbEntity
  8
SK3
  6
SLD-Dashed
370
    18
100
AcDbLine
 10
10.039400444
 20
13.5264108244
 30
0.0
 11
10.5356667635
 21
13.257170571
 31
0.0
  0
LINE
  5
1FF
330
1F
100
AcDbEntity
  8
SK3
  6
SLD-Dashed
370
    18
100
AcDbLine
 10
10.5356667635
 20
13.257170571
 30
0.0
 11
11.1
 21
13.1636644123
 31
0.0
  0
LINE
  5
200
330
1F
100
AcDbEntity
  8
SK3
  6
SLD-Dashed
370
    18
100
AcDbLine
 10
11.1
 20
13.1636644123
 30
0.0
 11
11.6643332365
 21
13.257170571
 31
0.0
  0
LINE
  5
201
330
1F
100
AcDbEntity
  8
SK3
  6
SLD-Dashed
370
    18
100
AcDbLine
 10
11.6643332365
 20
13.257170571
 30
0.0
 11
12.160599556
 21
13.5264108244
 31
0.0
  0
LINE
  5
202
330
1F
100
AcDbEntity
  8
SK3
  6
SLD-Dashed
370
    18
100
AcDbLine
 10
12.160599556
 20
13.5264108244
 30
0.0
 11
12.5289419162
 21
13.9389108244
 31
0.0
  0
LINE
  5
203
330
1F
100
AcDbEntity
  8
SK3
  6
SLD-Dashed
370
    18
100
AcDbLine
 10
12.5289419162
 20
13.9389108244
 30
0.0
 11
12.7249327925
 21
14.4449169832
 31
0.0
  0
LINE
  5
204
330
1F
100
AcDbEntity
  8
SK3
  6
SLD-Dashed
370
    18
100
AcDbLine
 10
12.7249327925
 20
14.4449169832
 30
0.0
 11
12.7249327925
 21
14.98339749
 31
0.0
  0
LINE
  5
205
330
1F
100
AcDbEntity
  8
SK3
  6
SLD-Dashed
370
    18
100
AcDbLine
 10
12.7249327925
 20
14.98339749
 30
0.0
 11
12.5289419162
 21
15.4894036487
 31
0.0
  0
LINE
  5
206
330
1F
100
AcDbEntity
  8
SK3
  6
SLD-Dashed
370
    18
100
AcDbLine
 10
12.5289419162
 20
15.4894036487
 30
0.0
 11
12.160599556
 21
15.9019036487
 31
0.0
  0
LINE
  5
207
330
1F
100
AcDbEntity
  8
SK3
  6
SLD-Dashed
370
    18
100
AcDbLine
 10
12.160599556
 20
15.9019036487
 30
0.0
 11
11.6643332365
 21
16.1711439022
 31
0.0
  0
LINE
  5
208
330
1F
100
AcDbEntity
  8
SK3
  6
SLD-Dashed
370
    18
100
AcDbLine
 10
11.6643332365
 20
16.1711439022
 30
0.0
 11
11.1
 21
16.2646500609
 31
0.0
  0
LINE
  5
209
330
1F
100
AcDbEntity
  8
SK3
  6
SLD-Dashed
370
    18
100
AcDbLine
 10
6.2723069743
 20
13.9015950424
 30
0.0
 11
6.0856470952
 21
13.1855138242
 31
0.0
  0
LINE
  5
20A
330
1F
100
AcDbEntity
  8
SK3
  6
SLD-Dashed
370
    18
100
AcDbLine
 10
6.0856470952
 20
13.1855138242
 30
0.0
 11
5.789454318
 21
12.5274452476
 31
0.0
  0
LINE
  5
20B
330
1F
100
AcDbEntity
  8
SK3
  6
SLD-Dashed
370
    18
100
AcDbLine
 10
5.789454318
 20
12.5274452476
 30
0.0
 11
5.40772442
 21
11.980702115
 31
0.0
  0
LINE
  5
20C
330
1F
100
AcDbEntity
  8
SK3
  6
SLD-Dashed
370
    18
100
AcDbLine
 10
5.40772442
 20
11.980702115
 30
0.0
 11
4.9713828873
 21
11.5895783033
 31
0.0
  0
LINE
  5
20D
330
1F
100
AcDbEntity
  8
SK3
  6
SLD-Dashed
370
    18
100
AcDbLine
 10
4.9713828873
 20
11.5895783033
 30
0.0
 11
4.5157795159
 21
11.3857603378
 31
0.0
  0
LINE
  5
20E
330
1F
100
AcDbEntity
  8
SK3
  6
SLD-Dashed
370
    18
100
AcDbLine
 10
4.5157795159
 20
11.3857603378
 30
0.0
 11
4.0778245812
 21
11.3857603378
 31
0.0
  0
LINE
  5
20F
330
1F
100
AcDbEntity
  8
SK3
  6
SLD-Dashed
370
    18
100
AcDbLine
 10
4.0778245812
 20
11.3857603378
 30
0.0
 11
3.6929985876
 21
11.5895783033
 31
0.0
  0
LINE
  5
210
330
1F
100
AcDbEntity
  8
SK3
  6
SLD-Dashed
370
    18
100
AcDbLine
 10
3.6929985876
 20
11.5895783033
 30
0.0
 11
3.3924778483
 21
11.980702115
 31
0.0
  0
LINE
  5
211
330
1F
100
AcDbEntity
  8
SK3
  6
SLD-Dashed
370
    18
100
AcDbLine
 10
3.3924778483
 20
11.980702115
 30
0.0
 11
3.2006087665
 21
12.5274452476
 31
0.0
  0
LINE
  5
212
330
1F
100
AcDbEntity
  8
SK3
  6
SLD-Dashed
370
    18
100
AcDbLine
 10
3.2006087665
 20
12.5274452476
 30
0.0
 11
3.1329354339
 21
13.1855138242
 31
0.0
  0
LINE
  5
213
330
1F
100
AcDbEntity
  8
SK3
  6
SLD-Dashed
370
    18
100
AcDbLine
 10
3.1329354339
 20
13.1855138242
 30
0.0
 11
3.1949403416
 21
13.9015950424
 31
0.0
  0
LINE
  5
214
330
1F
100
AcDbEntity
  8
SK3
  6
SLD-Dashed
370
    18
100
AcDbLine
 10
3.1949403416
 20
13.9015950424
 30
0.0
 11
3.3816002207
 21
14.6176762606
 31
0.0
  0
LINE
  5
215
330
1F
100
AcDbEntity
  8
SK3
  6
SLD-Dashed
370
    18
100
AcDbLine
 10
3.3816002207
 20
14.6176762606
 30
0.0
 11
3.6777929979
 21
15.2757448372
 31
0.0
  0
LINE
  5
216
330
1F
100
AcDbEntity
  8
SK3
  6
SLD-Dashed
370
    18
100
AcDbLine
 10
3.6777929979
 20
15.2757448372
 30
0.0
 11
4.0595228959
 21
15.8224879698
 31
0.0
  0
LINE
  5
217
330
1F
100
AcDbEntity
  8
SK3
  6
SLD-Dashed
370
    18
100
AcDbLine
 10
4.0595228959
 20
15.8224879698
 30
0.0
 11
4.4958644286
 21
16.2136117815
 31
0.0
  0
LINE
  5
218
330
1F
100
AcDbEntity
  8
SK3
  6
SLD-Dashed
370
    18
100
AcDbLine
 10
4.4958644286
 20
16.2136117815
 30
0.0
 11
4.9514678
 21
16.417429747
 31
0.0
  0
LINE
  5
219
330
1F
100
AcDbEntity
  8
SK3
  6
SLD-Dashed
370
    18
100
AcDbLine
 10
4.9514678
 20
16.417429747
 30
0.0
 11
5.3894227346
 21
16.417429747
 31
0.0
  0
LINE
  5
21A
330
1F
100
AcDbEntity
  8
SK3
  6
SLD-Dashed
370
    18
100
AcDbLine
 10
5.3894227346
 20
16.417429747
 30
0.0
 11
5.7742487283
 21
16.2136117815
 31
0.0
  0
LINE
  5
21B
330
1F
100
AcDbEntity
  8
SK3
  6
SLD-Dashed
370
    18
100
AcDbLine
 10
5.7742487283
 20
16.2136117815
 30
0.0
 11
6.0747694675
 21
15.8224879698
 31
0.0
  0
LINE
  5
21C
330
1F
100
AcDbEntity
  8
SK3
  6
SLD-Dashed
370
    18
100
AcDbLine
 10
6.0747694675
 20
15.8224879698
 30
0.0
 11
6.2666385494
 21
15.2757448372
 31
0.0
  0
LINE
  5
21D
330
1F
100
AcDbEntity
  8
SK3
  6
SLD-Dashed
370
    18
100
AcDbLine
 10
6.2666385494
 20
15.2757448372
 30
0.0
 11
6.3343118819
 21
14.6176762606
 31
0.0
  0
LINE
  5
21E
330
1F
100
AcDbEntity
  8
SK3
  6
SLD-Dashed
370
    18
100
AcDbLine
 10
6.3343118819
 20
14.6176762606
 30
0.0
 11
6.2723069743
 21
13.9015950424
 31
0.0
  0
LINE
  5
21F
330
1F
100
AcDbEntity
  8
SK3
  6
SLD-Dashed
370
    18
100
AcDbLine
 10
3.0
 20
11.6830262215
 30
0.0
 11
3.0
 21
17.0466658179
 31
0.0
  0
LINE
  5
220
330
1F
100
AcDbEntity
  8
SK3
  6
SLD-Dashed
370
    18
100
AcDbLine
 10
12.75
 20
-15.6223206074
 30
0.0
 11
12.75
 21
-12.8224054946
 31
0.0
  0
LINE
  5
221
330
1F
100
AcDbEntity
  8
SK3
  6
SLD-Dashed
370
    18
100
AcDbLine
 10
9.45
 20
-13.7022627845
 30
0.0
 11
9.45
 21
-15.6223206074
 31
0.0
  0
LINE
  5
222
330
1F
100
AcDbEntity
  8
SK3
  6
SLD-Dashed
370
    18
100
AcDbLine
 10
3.0
 20
-17.0560709439
 30
0.0
 11
5.4048333499
 21
-16.4134623855
 31
0.0
  0
LINE
  5
223
330
1F
100
AcDbEntity
  8
SK3
  6
SLD-Dashed
370
    18
100
AcDbLine
 10
4.0624139659
 20
-11.3897276993
 30
0.0
 11
3.0
 21
-11.6736210955
 31
0.0
  0
LINE
  5
224
330
1F
100
AcDbEntity
  8
SK3
  6
SLD-Dashed
370
    18
100
AcDbLine
 10
5.3661097138
 20
-16.2685469619
 30
0.0
 11
16.1618570383
 21
-13.3837567853
 31
0.0
  0
LINE
  5
225
330
1F
100
AcDbEntity
  8
SK3
  6
SLD-Dashed
370
    18
100
AcDbLine
 10
14.8968849264
 20
-8.6498529463
 30
0.0
 11
4.101137602
 21
-11.5346431229
 31
0.0
  0
LINE
  5
226
330
1F
100
AcDbEntity
  8
SK3
  6
SLD-Dashed
370
    18
100
AcDbLine
 10
12.75
 20
-10.7006836848
 30
0.0
 11
12.75
 21
-3.5910923016
 31
0.0
  0
LINE
  5
227
330
1F
100
AcDbEntity
  8
SK3
  6
SLD-Dashed
370
    18
100
AcDbLine
 10
9.45
 20
-3.5901214152
 30
0.0
 11
9.45
 21
-11.5782458517
 31
0.0
  0
LINE
  5
228
330
1F
100
AcDbEntity
  8
SK3
  6
SLD-Dashed
370
    18
100
AcDbLine
 10
89.5
 20
-27.5757353347
 30
0.0
 11
89.5
 21
-23.6173664916
 31
0.0
  0
LINE
  5
229
330
1F
100
AcDbEntity
  8
SK3
  6
SLD-Dashed
370
    18
100
AcDbLine
 10
84.5
 20
-23.6173664916
 30
0.0
 11
84.5
 21
-27.5770297496
 31
0.0
  0
LINE
  5
22A
330
1F
100
AcDbEntity
  8
SK3
  6
SLD-Dashed
370
    18
100
AcDbLine
 10
89.0
 20
-23.4132423464
 30
0.0
 11
89.0
 21
-9.8994949366
 31
0.0
  0
LINE
  5
22B
330
1F
100
AcDbEntity
  8
SK3
  6
SLD-Dashed
370
    18
100
AcDbLine
 10
85.0
 20
-9.8994949366
 30
0.0
 11
85.0
 21
-23.4132423464
 31
0.0
  0
LINE
  5
22C
330
1F
100
AcDbEntity
  8
SK3
  6
SLD-Dashed
370
    18
100
AcDbLine
 10
-101.8
 20
-13.5178629711
 30
0.0
 11
-100.05
 21
-12.5075
 31
0.0
  0
LINE
  5
22D
330
1F
100
AcDbEntity
  8
SK3
  6
SLD-Dashed
370
    18
100
AcDbLine
 10
-100.05
 20
12.5075
 30
0.0
 11
-101.8
 21
13.5178629711
 31
0.0
  0
LINE
  5
22E
330
1F
100
AcDbEntity
  8
SK3
  6
SLD-Dashed
370
    18
100
AcDbLine
 10
34.5
 20
-49.2290573668
 30
0.0
 11
34.5
 21
-35.675
 31
0.0
  0
LINE
  5
22F
330
1F
100
AcDbEntity
  8
SK3
  6
SLD-Dashed
370
    18
100
AcDbLine
 10
34.5
 20
35.675
 30
0.0
 11
34.5
 21
49.229059558
 31
0.0
  0
LINE
  5
230
330
1F
100
AcDbEntity
  8
SK3
  6
SLD-Dashed
370
    18
100
AcDbLine
 10
-91.55
 20
12.75
 30
0.0
 11
-91.9700223208
 21
12.5075
 31
0.0
  0
LINE
  5
231
330
1F
100
AcDbEntity
  8
SK3
  6
SLD-Dashed
370
    18
100
AcDbLine
 10
-91.9700223208
 20
-12.5075
 30
0.0
 11
-91.55
 21
-12.75
 31
0.0
  0
LINE
  5
232
330
1F
100
AcDbEntity
  8
SK3
  6
SLD-Dashed
370
    18
100
AcDbLine
 10
-88.55
 20
-12.75
 30
0.0
 11
-87.2509618943
 21
-10.5
 31
0.0
  0
LINE
  5
233
330
1F
100
AcDbEntity
  8
SK3
  6
SLD-Dashed
370
    18
100
AcDbLine
 10
-87.2509618943
 20
10.5
 30
0.0
 11
-88.55
 21
12.75
 31
0.0
  0
LINE
  5
234
330
1F
100
AcDbEntity
  8
SK3
  6
SLD-Dashed
370
    18
100
AcDbLine
 10
-88.55
 20
12.75
 30
0.0
 11
-91.55
 21
12.75
 31
0.0
  0
LINE
  5
235
330
1F
100
AcDbEntity
  8
SK3
  6
SLD-Dashed
370
    18
100
AcDbLine
 10
-91.55
 20
-12.75
 30
0.0
 11
-88.55
 21
-12.75
 31
0.0
  0
LINE
  5
236
330
1F
100
AcDbEntity
  8
SK3
  6
SLD-Dashed
370
    18
100
AcDbLine
 10
89.0
 20
9.8994949366
 30
0.0
 11
89.0
 21
11.313708499
 31
0.0
  0
LINE
  5
237
330
1F
100
AcDbEntity
  8
SK3
  6
SLD-Dashed
370
    18
100
AcDbLine
 10
85.0
 20
11.313708499
 30
0.0
 11
85.0
 21
9.8994949366
 31
0.0
  0
LINE
  5
238
330
1F
100
AcDbEntity
  8
SK3
  6
SLD-Dashed
370
    18
100
AcDbLine
 10
-91.9700223208
 20
12.5075
 30
0.0
 11
-100.05
 21
12.5075
 31
0.0
  0
LINE
  5
239
330
1F
100
AcDbEntity
  8
SK3
  6
SLD-Dashed
370
    18
100
AcDbLine
 10
-100.05
 20
-12.5075
 30
0.0
 11
-91.9700223208
 21
-12.5075
 31
0.0
  0
LINE
  5
23A
330
1F
100
AcDbEntity
  8
SK3
  6
SLD-Dashed
370
    18
100
AcDbLine
 10
-87.2509618943
 20
-10.5
 30
0.0
 11
28.2
 21
-10.5
 31
0.0
  0
LINE
  5
23B
330
1F
100
AcDbEntity
  8
SK3
  6
SLD-Dashed
370
    18
100
AcDbLine
 10
28.2
 20
10.5
 30
0.0
 11
-87.2509618943
 21
10.5
 31
0.0
  0
LINE
  5
23C
330
1F
100
AcDbEntity
  8
SK3
  6
SLD-Dashed
370
    18
100
AcDbLine
 10
28.2
 20
-10.5
 30
0.0
 11
30.3030121666
 21
-7.0
 31
0.0
  0
LINE
  5
23D
330
1F
100
AcDbEntity
  8
SK3
  6
SLD-Dashed
370
    18
100
AcDbLine
 10
30.3030121666
 20
7.0
 30
0.0
 11
28.2
 21
10.5
 31
0.0
  0
LINE
  5
23E
330
1F
100
AcDbEntity
  8
SK3
  6
SLD-Dashed
370
    18
100
AcDbLine
 10
124.0
 20
10.4852813742
 30
0.0
 11
88.4142135624
 21
10.4852813742
 31
0.0
  0
LINE
  5
23F
330
1F
100
AcDbEntity
  8
SK3
  6
SLD-Dashed
370
    18
100
AcDbLine
 10
88.4142135624
 20
6.4852813742
 30
0.0
 11
124.0
 21
6.4852813742
 31
0.0
  0
LINE
  5
240
330
1F
100
AcDbEntity
  8
SK3
  6
SLD-Dashed
370
    18
100
AcDbLine
 10
85.5857864376
 20
10.4852813742
 30
0.0
 11
84.0
 21
10.4852813742
 31
0.0
  0
LINE
  5
241
330
1F
100
AcDbEntity
  8
SK3
  6
SLD-Dashed
370
    18
100
AcDbLine
 10
84.0
 20
6.4852813742
 30
0.0
 11
85.5857864376
 21
6.4852813742
 31
0.0
  0
LINE
  5
242
330
1F
100
AcDbEntity
  8
SK3
  6
SLD-Dashed
370
    18
100
AcDbLine
 10
84.0
 20
10.4852813742
 30
0.0
 11
82.7982787619
 21
8.4852813742
 31
0.0
  0
LINE
  5
243
330
1F
100
AcDbEntity
  8
SK3
  6
SLD-Dashed
370
    18
100
AcDbLine
 10
82.7982787619
 20
8.4852813742
 30
0.0
 11
84.0
 21
6.4852813742
 31
0.0
  0
LINE
  5
244
330
1F
100
AcDbEntity
  8
SK3
  6
SLD-Dashed
370
    18
100
AcDbLine
 10
124.0
 20
-6.4852813742
 30
0.0
 11
88.4142135624
 21
-6.4852813742
 31
0.0
  0
LINE
  5
245
330
1F
100
AcDbEntity
  8
SK3
  6
SLD-Dashed
370
    18
100
AcDbLine
 10
88.4142135624
 20
-10.4852813742
 30
0.0
 11
124.0
 21
-10.4852813742
 31
0.0
  0
LINE
  5
246
330
1F
100
AcDbEntity
  8
SK3
  6
SLD-Dashed
370
    18
100
AcDbLine
 10
85.5857864376
 20
-6.4852813742
 30
0.0
 11
84.0
 21
-6.4852813742
 31
0.0
  0
LINE
  5
247
330
1F
100
AcDbEntity
  8
SK3
  6
SLD-Dashed
370
    18
100
AcDbLine
 10
84.0
 20
-10.4852813742
 30
0.0
 11
85.5857864376
 21
-10.4852813742
 31
0.0
  0
LINE
  5
248
330
1F
100
AcDbEntity
  8
SK3
  6
SLD-Dashed
370
    18
100
AcDbLine
 10
84.0
 20
-6.4852813742
 30
0.0
 11
82.7982787619
 21
-8.4852813742
 31
0.0
  0
LINE
  5
249
330
1F
100
AcDbEntity
  8
SK3
  6
SLD-Dashed
370
    18
100
AcDbLine
 10
82.7982787619
 20
-8.4852813742
 30
0.0
 11
84.0
 21
-10.4852813742
 31
0.0
  0
LINE
  5
24A
330
1F
100
AcDbEntity
  8
SK3
  6
SLD-Dashed
370
    18
100
AcDbLine
 10
89.0
 20
4.9451645962
 30
0.0
 11
89.0
 21
7.0710678119
 31
0.0
  0
LINE
  5
24B
330
1F
100
AcDbEntity
  8
SK3
  6
SLD-Dashed
370
    18
100
AcDbLine
 10
85.0
 20
7.0710678119
 30
0.0
 11
85.0
 21
4.9468885437
 31
0.0
  0
LINE
  5
24C
330
1F
100
AcDbEntity
  8
SK3
  6
SLD-Dashed
370
    18
100
AcDbLine
 10
89.0
 20
-7.0710678119
 30
0.0
 11
89.0
 21
-4.9468885437
 31
0.0
  0
LINE
  5
24D
330
1F
100
AcDbEntity
  8
SK3
  6
SLD-Dashed
370
    18
100
AcDbLine
 10
85.0
 20
-4.9451645962
 30
0.0
 11
85.0
 21
-7.0710678119
 31
0.0
  0
LINE
  5
24E
330
1F
100
AcDbEntity
  8
SK3
  6
SLD-Dashed
370
    18
100
AcDbLine
 10
124.0
 20
9.6547005384
 30
0.0
 11
122.0
 21
8.5
 31
0.0
  0
LINE
  5
24F
330
1F
100
AcDbEntity
  8
SK3
  6
SLD-Dashed
370
    18
100
AcDbLine
 10
122.0
 20
-8.5
 30
0.0
 11
124.0
 21
-9.6547005384
 31
0.0
  0
LINE
  5
250
330
1F
100
AcDbEntity
  8
SK3
  6
SLD-Dashed
370
    18
100
AcDbLine
 10
118.0
 20
8.5
 30
0.0
 11
117.0987090715
 21
7.0
 31
0.0
  0
LINE
  5
251
330
1F
100
AcDbEntity
  8
SK3
  6
SLD-Dashed
370
    18
100
AcDbLine
 10
117.0987090715
 20
-7.0
 30
0.0
 11
118.0
 21
-8.5
 31
0.0
  0
LINE
  5
252
330
1F
100
AcDbEntity
  8
SK3
  6
SLD-Dashed
370
    18
100
AcDbLine
 10
122.0
 20
8.5
 30
0.0
 11
118.0
 21
8.5
 31
0.0
  0
LINE
  5
253
330
1F
100
AcDbEntity
  8
SK3
  6
SLD-Dashed
370
    18
100
AcDbLine
 10
118.0
 20
-8.5
 30
0.0
 11
122.0
 21
-8.5
 31
0.0
  0
LINE
  5
254
330
1F
100
AcDbEntity
  8
SK3
  6
SLD-Dashed
370
    18
100
AcDbLine
 10
117.0987090715
 20
7.0
 30
0.0
 11
30.3030121666
 21
7.0
 31
0.0
  0
LINE
  5
255
330
1F
100
AcDbEntity
  8
SK3
  6
SLD-Dashed
370
    18
100
AcDbLine
 10
30.3030121666
 20
-7.0
 30
0.0
 11
117.0987090715
 21
-7.0
 31
0.0
  0
LINE
  5
256
330
1F
100
AcDbEntity
  8
SK3
  6
SLD-Dashed
370
    18
100
AcDbLine
 10
25.5
 20
-35.3
 30
0.0
 11
25.5
 21
-30.9
 31
0.0
  0
LINE
  5
257
330
1F
100
AcDbEntity
  8
SK3
  6
SLD-Dashed
370
    18
100
AcDbLine
 10
15.5
 20
-30.9
 30
0.0
 11
15.5
 21
-35.3
 31
0.0
  0
LINE
  5
258
330
1F
100
AcDbEntity
  8
SK3
  6
SLD-Dashed
370
    18
100
AcDbLine
 10
89.0
 20
4.9451645962
 30
0.0
 11
89.0
 21
7.0710678119
 31
0.0
  0
LINE
  5
259
330
1F
100
AcDbEntity
  8
SK3
  6
SLD-Dashed
370
    18
100
AcDbLine
 10
85.0
 20
7.0710678119
 30
0.0
 11
85.0
 21
4.9468885437
 31
0.0
  0
LINE
  5
25A
330
1F
100
AcDbEntity
  8
SK3
  6
SLD-Dashed
370
    18
100
AcDbLine
 10
89.0
 20
-7.0710678119
 30
0.0
 11
89.0
 21
-4.9468885437
 31
0.0
  0
LINE
  5
25B
330
1F
100
AcDbEntity
  8
SK3
  6
SLD-Dashed
370
    18
100
AcDbLine
 10
85.0
 20
-4.9451645962
 30
0.0
 11
85.0
 21
-7.0710678119
 31
0.0
  0
LINE
  5
25C
330
1F
100
AcDbEntity
  8
SK3
  6
SLD-Dashed
370
    18
100
AcDbLine
 10
85.5857864376
 20
10.4852813742
 30
0.0
 11
84.0
 21
10.4852813742
 31
0.0
  0
LINE
  5
25D
330
1F
100
AcDbEntity
  8
SK3
  6
SLD-Dashed
370
    18
100
AcDbLine
 10
84.0
 20
6.4852813742
 30
0.0
 11
85.5857864376
 21
6.4852813742
 31
0.0
  0
LINE
  5
25E
330
1F
100
AcDbEntity
  8
SK3
  6
SLD-Dashed
370
    18
100
AcDbLine
 10
124.0
 20
10.4852813742
 30
0.0
 11
88.4142135624
 21
10.4852813742
 31
0.0
  0
LINE
  5
25F
330
1F
100
AcDbEntity
  8
SK3
  6
SLD-Dashed
370
    18
100
AcDbLine
 10
88.4142135624
 20
6.4852813742
 30
0.0
 11
124.0
 21
6.4852813742
 31
0.0
  0
LINE
  5
260
330
1F
100
AcDbEntity
  8
SK3
  6
SLD-Dashed
370
    18
100
AcDbLine
 10
84.0
 20
10.4852813742
 30
0.0
 11
82.7982787619
 21
8.4852813742
 31
0.0
  0
LINE
  5
261
330
1F
100
AcDbEntity
  8
SK3
  6
SLD-Dashed
370
    18
100
AcDbLine
 10
82.7982787619
 20
8.4852813742
 30
0.0
 11
84.0
 21
6.4852813742
 31
0.0
  0
LINE
  5
262
330
1F
100
AcDbEntity
  8
SK3
  6
SLD-Dashed
370
    18
100
AcDbLine
 10
124.0
 20
-6.4852813742
 30
0.0
 11
88.4142135624
 21
-6.4852813742
 31
0.0
  0
LINE
  5
263
330
1F
100
AcDbEntity
  8
SK3
  6
SLD-Dashed
370
    18
100
AcDbLine
 10
88.4142135624
 20
-10.4852813742
 30
0.0
 11
124.0
 21
-10.4852813742
 31
0.0
  0
LINE
  5
264
330
1F
100
AcDbEntity
  8
SK3
  6
SLD-Dashed
370
    18
100
AcDbLine
 10
85.5857864376
 20
-6.4852813742
 30
0.0
 11
84.0
 21
-6.4852813742
 31
0.0
  0
LINE
  5
265
330
1F
100
AcDbEntity
  8
SK3
  6
SLD-Dashed
370
    18
100
AcDbLine
 10
84.0
 20
-10.4852813742
 30
0.0
 11
85.5857864376
 21
-10.4852813742
 31
0.0
  0
LINE
  5
266
330
1F
100
AcDbEntity
  8
SK3
  6
SLD-Dashed
370
    18
100
AcDbLine
 10
84.0
 20
-6.4852813742
 30
0.0
 11
82.7982787619
 21
-8.4852813742
 31
0.0
  0
LINE
  5
267
330
1F
100
AcDbEntity
  8
SK3
  6
SLD-Dashed
370
    18
100
AcDbLine
 10
82.7982787619
 20
-8.4852813742
 30
0.0
 11
84.0
 21
-10.4852813742
 31
0.0
  0
LINE
  5
268
330
1F
100
AcDbEntity
  8
SK3
  6
SLD-Dashed
370
    18
100
AcDbLine
 10
89.0
 20
9.8994949366
 30
0.0
 11
89.0
 21
11.313708499
 31
0.0
  0
LINE
  5
269
330
1F
100
AcDbEntity
  8
SK3
  6
SLD-Dashed
370
    18
100
AcDbLine
 10
85.0
 20
11.313708499
 30
0.0
 11
85.0
 21
9.8994949366
 31
0.0
  0
LINE
  5
26A
330
1F
100
AcDbEntity
  8
SK3
  6
SLD-Dashed
370
    18
100
AcDbLine
 10
89.0
 20
-23.4132423464
 30
0.0
 11
89.0
 21
-9.8994949366
 31
0.0
  0
LINE
  5
26B
330
1F
100
AcDbEntity
  8
SK3
  6
SLD-Dashed
370
    18
100
AcDbLine
 10
85.0
 20
-9.8994949366
 30
0.0
 11
85.0
 21
-23.4132423464
 31
0.0
  0
LINE
  5
26C
330
1F
100
AcDbEntity
  8
SK3
  6
SLD-Dashed
370
    18
100
AcDbLine
 10
12.75
 20
3.5901214152
 30
0.0
 11
12.75
 21
10.7006575908
 31
0.0
  0
LINE
  5
26D
330
1F
100
AcDbEntity
  8
SK3
  6
SLD-Dashed
370
    18
100
AcDbLine
 10
9.45
 20
11.5783960277
 30
0.0
 11
9.45
 21
3.5910923016
 31
0.0
  0
LINE
  5
26E
330
1F
100
AcDbEntity
  8
SK3
  6
SLD-Dashed
370
    18
100
AcDbLine
 10
89.5
 20
-27.5757353347
 30
0.0
 11
89.5
 21
-23.6173664916
 31
0.0
  0
LINE
  5
26F
330
1F
100
AcDbEntity
  8
SK3
  6
SLD-Dashed
370
    18
100
AcDbLine
 10
84.5
 20
-23.6173664916
 30
0.0
 11
84.5
 21
-27.5770297496
 31
0.0
  0
LINE
  5
270
330
1F
100
AcDbEntity
  8
SK3
  6
SLD-Dashed
370
    18
100
AcDbLine
 10
4.101137602
 20
11.5346431229
 30
0.0
 11
14.8968849264
 21
8.6498529463
 31
0.0
  0
LINE
  5
271
330
1F
100
AcDbEntity
  8
SK3
  6
SLD-Dashed
370
    18
100
AcDbLine
 10
16.1618570383
 20
13.3837567853
 30
0.0
 11
5.3661097138
 21
16.2685469619
 31
0.0
  0
LINE
  5
272
330
1F
100
AcDbEntity
  8
SK3
  6
SLD-Dashed
370
    18
100
AcDbLine
 10
12.75
 20
12.8224121442
 30
0.0
 11
12.75
 21
14.7141572366
 31
0.0
  0
LINE
  5
273
330
1F
100
AcDbEntity
  8
SK3
  6
SLD-Dashed
370
    18
100
AcDbLine
 10
9.45
 20
14.7141572366
 30
0.0
 11
9.45
 21
13.7021403289
 31
0.0
  0
LINE
  5
274
330
1F
100
AcDbEntity
  8
SK3
  6
SLD-Dashed
370
    18
100
AcDbLine
 10
3.0
 20
11.6736210955
 30
0.0
 11
4.0624139659
 21
11.3897276993
 31
0.0
  0
LINE
  5
275
330
1F
100
AcDbEntity
  8
SK3
  6
SLD-Dashed
370
    18
100
AcDbLine
 10
5.4048333499
 20
16.4134623855
 30
0.0
 11
3.0
 21
17.0560709439
 31
0.0
  0
LINE
  5
276
330
1F
100
AcDbEntity
  8
SK3
  6
SLD-Solid
370
    18
100
AcDbLine
 10
-55.799998343
 20
12.0000001043
 30
0.0
 11
-88.1169885397
 21
12.0000001043
 31
0.0
  0
LINE
  5
277
330
1F
100
AcDbEntity
  8
SK3
  6
SLD-Solid
370
    18
100
AcDbLine
 10
-88.1169885397
 20
-12.0000001043
 30
0.0
 11
-55.799998343
 21
-12.0000001043
 31
0.0
  0
LINE
  5
278
330
1F
100
AcDbEntity
  8
SK3
  6
SLD-Solid
370
    18
100
AcDbLine
 10
-55.799998343
 20
12.0000001043
 30
0.0
 11
-55.799998343
 21
11.8522597477
 31
0.0
  0
LINE
  5
279
330
1F
100
AcDbEntity
  8
SK3
  6
SLD-Solid
370
    18
100
AcDbLine
 10
-55.799998343
 20
11.8522597477
 30
0.0
 11
-55.799998343
 21
11.4126782864
 31
0.0
  0
LINE
  5
27A
330
1F
100
AcDbEntity
  8
SK3
  6
SLD-Solid
370
    18
100
AcDbLine
 10
-55.799998343
 20
11.4126782864
 30
0.0
 11
-55.799998343
 21
10.6920786202
 31
0.0
  0
LINE
  5
27B
330
1F
100
AcDbEntity
  8
SK3
  6
SLD-Solid
370
    18
100
AcDbLine
 10
-55.799998343
 20
10.6920786202
 30
0.0
 11
-55.799998343
 21
9.7082043067
 31
0.0
  0
LINE
  5
27C
330
1F
100
AcDbEntity
  8
SK3
  6
SLD-Solid
370
    18
100
AcDbLine
 10
-55.799998343
 20
9.7082043067
 30
0.0
 11
-55.799998343
 21
8.4852809086
 31
0.0
  0
LINE
  5
27D
330
1F
100
AcDbEntity
  8
SK3
  6
SLD-Solid
370
    18
100
AcDbLine
 10
-55.799998343
 20
8.4852809086
 30
0.0
 11
-55.799998343
 21
7.0534232073
 31
0.0
  0
LINE
  5
27E
330
1F
100
AcDbEntity
  8
SK3
  6
SLD-Solid
370
    18
100
AcDbLine
 10
-55.799998343
 20
7.0534232073
 30
0.0
 11
-55.799998343
 21
5.4478859529
 31
0.0
  0
LINE
  5
27F
330
1F
100
AcDbEntity
  8
SK3
  6
SLD-Solid
370
    18
100
AcDbLine
 10
-55.799998343
 20
5.4478859529
 30
0.0
 11
-55.799998343
 21
3.7082040217
 31
0.0
  0
LINE
  5
280
330
1F
100
AcDbEntity
  8
SK3
  6
SLD-Solid
370
    18
100
AcDbLine
 10
-55.799998343
 20
3.7082040217
 30
0.0
 11
-55.799998343
 21
1.8772135954
 31
0.0
  0
LINE
  5
281
330
1F
100
AcDbEntity
  8
SK3
  6
SLD-Solid
370
    18
100
AcDbLine
 10
-55.799998343
 20
1.8772135954
 30
0.0
 11
-55.799998343
 21
0.0
 31
0.0
  0
LINE
  5
282
330
1F
100
AcDbEntity
  8
SK3
  6
SLD-Solid
370
    18
100
AcDbLine
 10
-55.799998343
 20
0.0
 30
0.0
 11
-55.799998343
 21
-1.8772135954
 31
0.0
  0
LINE
  5
283
330
1F
100
AcDbEntity
  8
SK3
  6
SLD-Solid
370
    18
100
AcDbLine
 10
-55.799998343
 20
-1.8772135954
 30
0.0
 11
-55.799998343
 21
-3.7082040217
 31
0.0
  0
LINE
  5
284
330
1F
100
AcDbEntity
  8
SK3
  6
SLD-Solid
370
    18
100
AcDbLine
 10
-55.799998343
 20
-3.7082040217
 30
0.0
 11
-55.799998343
 21
-5.4478859529
 31
0.0
  0
LINE
  5
285
330
1F
100
AcDbEntity
  8
SK3
  6
SLD-Solid
370
    18
100
AcDbLine
 10
-55.799998343
 20
-5.4478859529
 30
0.0
 11
-55.799998343
 21
-7.0534232073
 31
0.0
  0
LINE
  5
286
330
1F
100
AcDbEntity
  8
SK3
  6
SLD-Solid
370
    18
100
AcDbLine
 10
-55.799998343
 20
-7.0534232073
 30
0.0
 11
-55.799998343
 21
-8.4852809086
 31
0.0
  0
LINE
  5
287
330
1F
100
AcDbEntity
  8
SK3
  6
SLD-Solid
370
    18
100
AcDbLine
 10
-55.799998343
 20
-8.4852809086
 30
0.0
 11
-55.799998343
 21
-9.7082043067
 31
0.0
  0
LINE
  5
288
330
1F
100
AcDbEntity
  8
SK3
  6
SLD-Solid
370
    18
100
AcDbLine
 10
-55.799998343
 20
-9.7082043067
 30
0.0
 11
-55.799998343
 21
-10.6920786202
 31
0.0
  0
LINE
  5
289
330
1F
100
AcDbEntity
  8
SK3
  6
SLD-Solid
370
    18
100
AcDbLine
 10
-55.799998343
 20
-10.6920786202
 30
0.0
 11
-55.799998343
 21
-11.4126782864
 31
0.0
  0
LINE
  5
28A
330
1F
100
AcDbEntity
  8
SK3
  6
SLD-Solid
370
    18
100
AcDbLine
 10
-55.799998343
 20
-11.4126782864
 30
0.0
 11
-55.799998343
 21
-11.8522597477
 31
0.0
  0
LINE
  5
28B
330
1F
100
AcDbEntity
  8
SK3
  6
SLD-Solid
370
    18
100
AcDbLine
 10
-55.799998343
 20
-11.8522597477
 30
0.0
 11
-55.799998343
 21
-12.0000001043
 31
0.0
  0
LINE
  5
28C
330
1F
100
AcDbEntity
  8
SK3
  6
SLD-Solid
370
    18
100
AcDbLine
 10
87.9999995232
 20
-8.00000038
 30
0.0
 11
117.6995709538
 21
-8.00000038
 31
0.0
  0
LINE
  5
28D
330
1F
100
AcDbEntity
  8
SK3
  6
SLD-Solid
370
    18
100
AcDbLine
 10
117.6995709538
 20
8.00000038
 30
0.0
 11
87.9999995232
 21
8.00000038
 31
0.0
  0
LINE
  5
28E
330
1F
100
AcDbEntity
  8
SK3
  6
SLD-Solid
370
    18
100
AcDbLine
 10
87.9999995232
 20
-8.00000038
 30
0.0
 11
87.9999995232
 21
-7.9197157174
 31
0.0
  0
LINE
  5
28F
330
1F
100
AcDbEntity
  8
SK3
  6
SLD-Solid
370
    18
100
AcDbLine
 10
87.9999995232
 20
6.7474255338
 30
0.0
 11
87.9999995232
 21
7.287079934
 31
0.0
  0
LINE
  5
290
330
1F
100
AcDbEntity
  8
SK3
  6
SLD-Solid
370
    18
100
AcDbLine
 10
87.9999995232
 20
-6.0205762275
 30
0.0
 11
87.9999995232
 21
-6.7474255338
 31
0.0
  0
LINE
  5
291
330
1F
100
AcDbEntity
  8
SK3
  6
SLD-Solid
370
    18
100
AcDbLine
 10
87.9999995232
 20
6.7474255338
 30
0.0
 11
87.9999995232
 21
6.0205762275
 31
0.0
  0
LINE
  5
292
330
1F
100
AcDbEntity
  8
SK3
  6
SLD-Solid
370
    18
100
AcDbLine
 10
87.9999160559
 20
-7.9197157174
 30
0.0
 11
87.9999995232
 21
-7.6804752462
 31
0.0
  0
LINE
  5
293
330
1F
100
AcDbEntity
  8
SK3
  6
SLD-Solid
370
    18
100
AcDbLine
 10
87.9999995232
 20
-7.6804752462
 30
0.0
 11
87.9999995232
 21
-7.287079934
 31
0.0
  0
LINE
  5
294
330
1F
100
AcDbEntity
  8
SK3
  6
SLD-Solid
370
    18
100
AcDbLine
 10
87.9999995232
 20
-7.287079934
 30
0.0
 11
87.9999995232
 21
-6.7474255338
 31
0.0
  0
LINE
  5
295
330
1F
100
AcDbEntity
  8
SK3
  6
SLD-Solid
370
    18
100
AcDbLine
 10
87.9999160559
 20
-4.2979358695
 30
0.0
 11
87.9999995232
 21
-3.3012826461
 31
0.0
  0
LINE
  5
296
330
1F
100
AcDbEntity
  8
SK3
  6
SLD-Solid
370
    18
100
AcDbLine
 10
87.9999995232
 20
-3.3012826461
 30
0.0
 11
87.9999995232
 21
-2.2383695468
 31
0.0
  0
LINE
  5
297
330
1F
100
AcDbEntity
  8
SK3
  6
SLD-Solid
370
    18
100
AcDbLine
 10
87.9999995232
 20
-2.2383695468
 30
0.0
 11
87.9999995232
 21
-1.1305302614
 31
0.0
  0
LINE
  5
298
330
1F
100
AcDbEntity
  8
SK3
  6
SLD-Solid
370
    18
100
AcDbLine
 10
87.9999995232
 20
-1.1305302614
 30
0.0
 11
87.9999995232
 21
0.0
 31
0.0
  0
LINE
  5
299
330
1F
100
AcDbEntity
  8
SK3
  6
SLD-Solid
370
    18
100
AcDbLine
 10
87.9999995232
 20
0.0
 30
0.0
 11
87.9999995232
 21
1.1305302614
 31
0.0
  0
LINE
  5
29A
330
1F
100
AcDbEntity
  8
SK3
  6
SLD-Solid
370
    18
100
AcDbLine
 10
87.9999995232
 20
1.1305302614
 30
0.0
 11
87.9999995232
 21
2.2383695468
 31
0.0
  0
LINE
  5
29B
330
1F
100
AcDbEntity
  8
SK3
  6
SLD-Solid
370
    18
100
AcDbLine
 10
87.9999995232
 20
2.2383695468
 30
0.0
 11
87.9999995232
 21
3.3012826461
 31
0.0
  0
LINE
  5
29C
330
1F
100
AcDbEntity
  8
SK3
  6
SLD-Solid
370
    18
100
AcDbLine
 10
87.9999995232
 20
3.3012826461
 30
0.0
 11
87.9999995232
 21
4.2979358695
 31
0.0
  0
LINE
  5
29D
330
1F
100
AcDbEntity
  8
SK3
  6
SLD-Solid
370
    18
100
AcDbLine
 10
87.9999160559
 20
7.287079934
 30
0.0
 11
87.9999995232
 21
7.6804752462
 31
0.0
  0
LINE
  5
29E
330
1F
100
AcDbEntity
  8
SK3
  6
SLD-Solid
370
    18
100
AcDbLine
 10
87.9999995232
 20
7.6804752462
 30
0.0
 11
87.9999995232
 21
7.9197157174
 31
0.0
  0
LINE
  5
29F
330
1F
100
AcDbEntity
  8
SK3
  6
SLD-Solid
370
    18
100
AcDbLine
 10
87.9999995232
 20
7.9197157174
 30
0.0
 11
87.9999995232
 21
8.00000038
 31
0.0
  0
LINE
  5
2A0
330
1F
100
AcDbEntity
  8
4
  6
SLD-Center
370
    18
100
AcDbLine
 10
126.0
 20
0.0
 30
0.0
 11
0.7180731403
 21
0.0
 31
0.0
  0
LINE
  5
2A1
330
1F
100
AcDbEntity
  8
SK4
  6
SLD-Center
370
    18
100
AcDbLine
 10
126.1955381173
 20
0.0
 30
0.0
 11
-105.6306594135
 21
0.0
 31
0.0
  0
ARC
  5
2A2
330
1F
100
AcDbEntity
  8
SK1
  6
SLD-Solid
370
    25
100
AcDbCircle
 10
133.6770266121
 20
11.7
 30
0.0
 40
0.3000000000000007
100
AcDbArc
 50
90.0
 51
180.0
  0
ARC
  5
2A3
330
1F
100
AcDbEntity
  8
SK1
  6
SLD-Solid
370
    25
100
AcDbCircle
 10
133.6770266121
 20
-11.7
 30
0.0
 40
0.3000000000000114
100
AcDbArc
 50
180.0
 51
270.0
  0
ARC
  5
2A4
330
1F
100
AcDbEntity
  8
1
  6
SLD-Solid
370
    25
100
AcDbCircle
 10
37.25
 20
-49.228682327
 30
0.0
 40
0.75
100
AcDbArc
 50
270.0
 51
0.0
  0
ARC
  5
2A5
330
1F
100
AcDbEntity
  8
1
  6
SLD-Solid
370
    25
100
AcDbCircle
 10
37.25
 20
49.228682327
 30
0.0
 40
0.75
100
AcDbArc
 50
0.0
 51
90.0
  0
ARC
  5
2A6
330
1F
100
AcDbEntity
  8
1
  6
SLD-Solid
370
    25
100
AcDbCircle
 10
41.0
 20
-42.0
 30
0.0
 40
3.0
100
AcDbArc
 50
90.0
 51
180.0
  0
ARC
  5
2A7
330
1F
100
AcDbEntity
  8
1
  6
SLD-Solid
370
    25
100
AcDbCircle
 10
41.0
 20
42.0
 30
0.0
 40
3.0
100
AcDbArc
 50
180.0
 51
270.0
  0
ARC
  5
2A8
330
1F
100
AcDbEntity
  8
1
  6
SLD-Solid
370
    25
100
AcDbCircle
 10
99.2
 20
-38.2
 30
0.0
 40
0.7999999999999972
100
AcDbArc
 50
270.0
 51
0.0
  0
ARC
  5
2A9
330
1F
100
AcDbEntity
  8
1
  6
SLD-Solid
370
    25
100
AcDbCircle
 10
99.2
 20
38.2
 30
0.0
 40
0.8000000000000114
100
AcDbArc
 50
0.0
 51
90.0
  0
ARC
  5
2AA
330
1F
100
AcDbEntity
  8
1
  6
SLD-Solid
370
    25
100
AcDbCircle
 10
2.25
 20
35.5
 30
0.0
 40
0.75
100
AcDbArc
 50
270.0
 51
344.49764585
  0
ARC
  5
2AB
330
1F
100
AcDbEntity
  8
1
  6
SLD-Solid
370
    25
100
AcDbCircle
 10
2.25
 20
-35.5
 30
0.0
 40
0.7499999999999929
100
AcDbArc
 50
15.1278950957
 51
90.0
  0
ARC
  5
2AC
330
1F
100
AcDbEntity
  8
1
  6
SLD-Solid
370
    25
100
AcDbCircle
 10
0.7040707856
 20
35.5
 30
0.0
 40
0.7500000000000071
100
AcDbArc
 50
240.0
 51
270.0
  0
ARC
  5
2AD
330
1F
100
AcDbEntity
  8
1
  6
SLD-Solid
370
    25
100
AcDbCircle
 10
0.7040707856
 20
-35.5
 30
0.0
 40
0.7500000000000142
100
AcDbArc
 50
90.0
 51
120.0
  0
ARC
  5
2AE
330
1F
100
AcDbEntity
  8
SK1
  6
SLD-Solid
370
    25
100
AcDbCircle
 10
-100.8
 20
19.2132836634
 30
0.0
 40
1.000000000000009
100
AcDbArc
 50
98.2977777778
 51
180.0
  0
ARC
  5
2AF
330
1F
100
AcDbEntity
  8
SK1
  6
SLD-Solid
370
    25
100
AcDbCircle
 10
-100.8
 20
-19.2132836634
 30
0.0
 40
1.0
100
AcDbArc
 50
180.0
 51
261.7022222222
  0
ARC
  5
2B0
330
1F
100
AcDbEntity
  8
SK1
  6
SLD-Solid
370
    25
100
AcDbCircle
 10
100.42
 20
16.5475
 30
0.0
 40
0.8000000000000181
100
AcDbArc
 50
238.3317567465
 51
287.5
  0
ARC
  5
2B1
330
1F
100
AcDbEntity
  8
SK1
  6
SLD-Solid
370
    25
100
AcDbCircle
 10
100.42
 20
-16.5475
 30
0.0
 40
0.8000000000000176
100
AcDbArc
 50
72.5
 51
121.6682432535
  0
ARC
  5
2B2
330
1F
100
AcDbEntity
  8
1
  6
SLD-Solid
370
    25
100
AcDbCircle
 10
11.1002644777
 20
-15.5360584204
 30
0.0
 40
2.043882175466791
100
AcDbArc
 50
204.6709199124
 51
334.8394035666
  0
ARC
  5
2B3
330
1F
100
AcDbEntity
  8
1
  6
SLD-Solid
370
    25
100
AcDbCircle
 10
11.1004627089
 20
-15.5127511565
 30
0.0
 40
1.67164707637754
100
AcDbArc
 50
195.3857935002
 51
343.7829427108
  0
ARC
  5
2B4
330
1F
100
AcDbEntity
  8
SK3
  6
SLD-Dashed
370
    18
100
AcDbCircle
 10
11.0298973571
 20
-15.6429604726
 30
0.0
 40
1.572695872834811
100
AcDbArc
 50
87.4452041671
 51
191.491153532
  0
ARC
  5
2B5
330
1F
100
AcDbEntity
  8
SK3
  6
SLD-Dashed
370
    18
100
AcDbCircle
 10
11.1705375093
 20
-15.6419906371
 30
0.0
 40
1.571746457959999
100
AcDbArc
 50
347.5961341253
 51
92.5722084119
  0
ARC
  5
2B6
330
1F
100
AcDbEntity
  8
1
370
    25
100
AcDbCircle
 10
22.4286146042
 20
93.9211845285
 30
0.0
 40
45.77477989045806
100
AcDbArc
 50
280.4485676345
 51
286.2659547519
  0
ARC
  5
2B7
330
1F
100
AcDbEntity
  8
1
370
    25
100
AcDbCircle
 10
75.9713779972
 20
78.5388426968
 30
0.0
 40
39.93507170550028
100
AcDbArc
 50
261.9221968058
 51
278.0778031942
  0
SPLINE
  5
2B8
330
1F
100
AcDbEntity
  8
SK1
  6
SLD-Solid
370
    25
100
AcDbSpline
210
0.0
220
0.0
230
1.0
 70
     8
 71
     3
 72
    21
 73
    17
 74
     0
 42
0.000000001
 43
0.00000001
 40
0.0
 40
0.0
 40
0.0
 40
0.0
 40
0.0005966424710675
 40
0.0053744927110355
 40
0.011754787899601
 40
0.0286785125966573
 40
0.1008253757771998
 40
0.3871673294310364
 40
0.5873119986477058
 40
0.7729408751933483
 40
0.8410663325132267
 40
0.9157611271938038
 40
0.9532504891382774
 40
0.971069449239043
 40
0.9890378182370432
 40
1.0
 40
1.0
 40
1.0
 40
1.0
 10
100.0296155740813
 20
-26.66392412970158
 30
0.0
 10
100.030109287806
 20
-26.66393262250578
 30
0.0
 10
100.0345566091816
 20
-26.66400912479401
 30
0.0
 10
100.0441876781452
 20
-26.66684430077031
 30
0.0
 10
100.0628529835837
 20
-26.68125640137796
 30
0.0
 10
100.1057554669316
 20
-26.74905348981654
 30
0.0
 10
100.1956852364217
 20
-27.04834633959039
 30
0.0
 10
100.278451056438
 20
-27.5038560091591
 30
0.0
 10
100.324581083875
 20
-28.05848234674566
 30
0.0
 10
100.3091022333452
 20
-28.43653855473499
 30
0.0
 10
100.2502640468399
 20
-28.70219320279241
 30
0.0
 10
100.1947399106132
 20
-28.84258771525599
 30
0.0
 10
100.1247543553077
 20
-28.92743469578573
 30
0.0
 10
100.0718119946607
 20
-28.95830974569896
 30
0.0
 10
100.0325480493308
 20
-28.9661077792822
 30
0.0
 10
100.0089439256281
 20
-28.96147564668002
 30
0.0
 10
100.0000000000001
 20
-28.95972046821992
 30
0.0
  0
SPLINE
  5
2B9
330
1F
100
AcDbEntity
  8
SK1
  6
SLD-Solid
370
    25
100
AcDbSpline
210
0.0
220
0.0
230
1.0
 70
     8
 71
     3
 72
    20
 73
    16
 74
     0
 42
0.000000001
 43
0.00000001
 40
0.0
 40
0.0
 40
0.0
 40
0.0
 40
0.008811335565839
 40
0.0248512046742801
 40
0.04081608663569
 40
0.068151867946298
 40
0.1201232837044086
 40
0.2732577827994636
 40
0.76071838298763
 40
0.9630861795858768
 40
0.9756617714721281
 40
0.9888276779847269
 40
0.9936871460963375
 40
0.99859550053988
 40
1.0
 40
1.0
 40
1.0
 40
1.0
 10
100.0000000000097
 20
-23.04027953177751
 30
0.0
 10
100.0071438885474
 20
-23.03877904969431
 30
0.0
 10
100.0272922797754
 20
-23.0345471387563
 30
0.0
 10
100.0617048918007
 20
-23.0387558353104
 30
0.0
 10
100.1065894930971
 20
-23.05980478535045
 30
0.0
 10
100.1646283602047
 20
-23.11507806480373
 30
0.0
 10
100.2573926089696
 20
-23.28598783098317
 30
0.0
 10
100.3603776582881
 20
-23.85913115769242
 30
0.0
 10
100.2629035514826
 20
-24.55099974938258
 30
0.0
 10
100.1621553824666
 20
-25.13305490624642
 30
0.0
 10
100.0751376097199
 20
-25.30007164088638
 30
0.0
 10
100.0600499570995
 20
-25.32089568653007
 30
0.0
 10
100.0449058661096
 20
-25.33244395082421
 30
0.0
 10
100.0359950989154
 20
-25.33582159296883
 30
0.0
 10
100.0307765989511
 20
-25.33602959376353
 30
0.0
 10
100.0296155740813
 20
-25.33607587029841
 30
0.0
  0
SPLINE
  5
2BA
330
1F
100
AcDbEntity
  8
SK1
  6
SLD-Solid
370
    25
100
AcDbSpline
210
0.0
220
0.0
230
1.0
 70
     8
 71
     3
 72
    10
 73
     6
 74
     0
 42
0.000000001
 43
0.00000001
 40
0.0
 40
0.0
 40
0.0
 40
0.0
 40
0.3386794853348047
 40
0.6835141788175985
 40
1.0
 40
1.0
 40
1.0
 40
1.0
 10
107.0000000000001
 20
-25.48459821498177
 30
0.0
 10
106.9418101391338
 20
-24.83991226096642
 30
0.0
 10
106.8243728667633
 20
-23.53882374059612
 30
0.0
 10
106.3324761099226
 20
-21.68680833415938
 30
0.0
 10
105.9053636125216
 20
-20.49955867327925
 30
0.0
 10
105.7009618943234
 20
-19.93138079955579
 30
0.0
  0
SPLINE
  5
2BB
330
1F
100
AcDbEntity
  8
SK1
  6
SLD-Solid
370
    25
100
AcDbSpline
210
0.0
220
0.0
230
1.0
 70
     8
 71
     3
 72
    10
 73
     6
 74
     0
 42
0.000000001
 43
0.00000001
 40
0.0
 40
0.0
 40
0.0
 40
0.0
 40
0.4369080587517386
 40
0.8802097485016401
 40
1.0
 40
1.0
 40
1.0
 40
1.0
 10
105.7009618943234
 20
-32.0686192004442
 30
0.0
 10
105.9799846783364
 20
-31.28285626384322
 30
0.0
 10
106.5421134137138
 20
-29.69983168246221
 30
0.0
 10
106.9214302526483
 20
-27.81612122202375
 30
0.0
 10
106.9862174033891
 20
-26.74357219294907
 30
0.0
 10
107.0000000000001
 20
-26.51540178501823
 30
0.0
  0
SPLINE
  5
2BC
330
1F
100
AcDbEntity
  8
SK1
  6
SLD-Solid
370
    25
100
AcDbSpline
210
0.0
220
0.0
230
1.0
 70
    24
 71
     3
 72
    10
 73
     6
 74
     0
 42
0.000000001
 43
0.00000001
 40
0.0
 40
0.0
 40
0.0
 40
0.0
 40
0.43690805875174
 40
0.880209748501642
 40
1.0
 40
1.0
 40
1.0
 40
1.0
 10
105.7009618943234
 20
-19.01899999999999
 30
0.0
 10
105.9799846783364
 20
-19.01899999999998
 30
0.0
 10
106.5421134137137
 20
-19.01899999999996
 30
0.0
 10
106.9214302526484
 20
-19.01899999999999
 30
0.0
 10
106.9862174033891
 20
-19.01899999999999
 30
0.0
 10
107.0000000000001
 20
-19.01899999999999
 30
0.0
  0
SPLINE
  5
2BD
330
1F
100
AcDbEntity
  8
SK1
  6
SLD-Solid
370
    25
100
AcDbSpline
210
0.0
220
0.0
230
1.0
 70
    24
 71
     3
 72
    10
 73
     6
 74
     0
 42
0.000000001
 43
0.00000001
 40
0.0
 40
0.0
 40
0.0
 40
0.0
 40
0.3386794853348039
 40
0.6835141788175964
 40
1.0
 40
1.0
 40
1.0
 40
1.0
 10
107.0000000000001
 20
-32.981
 30
0.0
 10
106.9418101391338
 20
-32.981
 30
0.0
 10
106.8243728667632
 20
-32.98099999999998
 30
0.0
 10
106.3324761099226
 20
-32.981
 30
0.0
 10
105.9053636125216
 20
-32.98099999999998
 30
0.0
 10
105.7009618943234
 20
-32.981
 30
0.0
  0
SPLINE
  5
2BE
330
1F
100
AcDbEntity
  8
SK1
  6
SLD-Solid
370
    25
100
AcDbSpline
210
0.0
220
0.0
230
1.0
 70
     8
 71
     3
 72
    21
 73
    17
 74
     0
 42
0.000000001
 43
0.00000001
 40
0.0
 40
0.0
 40
0.0
 40
0.0
 40
0.0010741149496991
 40
0.0048362963453633
 40
0.0106689124766183
 40
0.0252679703954765
 40
0.0828782887975806
 40
0.3113654611500113
 40
0.7701268255802732
 40
0.8339768345627815
 40
0.9077620161451256
 40
0.9347438287498072
 40
0.9619216471836378
 40
0.9786937059331495
 40
0.9911921379381923
 40
1.0
 40
1.0
 40
1.0
 40
1.0
 10
100.0296155740813
 20
25.33607587029841
 30
0.0
 10
100.0305035084561
 20
25.33604878401117
 30
0.0
 10
100.034501510507
 20
25.33592682563782
 30
0.0
 10
100.0431555135482
 20
25.33344398610254
 30
0.0
 10
100.0597914535913
 20
25.32180026467671
 30
0.0
 10
100.0971291372143
 20
25.26790531776555
 30
0.0
 10
100.1763565716441
 20
25.030357997201
 30
0.0
 10
100.2924367544704
 20
24.42830314374349
 30
0.0
 10
100.3557670115218
 20
23.79394950690066
 30
0.0
 10
100.2539837571958
 20
23.31140302356024
 30
0.0
 10
100.2056341431617
 20
23.18216917311761
 30
0.0
 10
100.1449411646241
 20
23.09512277116901
 30
0.0
 10
100.1003443927374
 20
23.05524716689238
 30
0.0
 10
100.0563545742829
 20
23.03764884239169
 30
0.0
 10
100.0244267684194
 20
23.03514161054738
 30
0.0
 10
100.0071444009899
 20
23.03877678000749
 30
0.0
 10
100.0000000000001
 20
23.04027953178007
 30
0.0
  0
SPLINE
  5
2BF
330
1F
100
AcDbEntity
  8
SK1
  6
SLD-Solid
370
    25
100
AcDbSpline
210
0.0
220
0.0
230
1.0
 70
     8
 71
     3
 72
    25
 73
    21
 74
     0
 42
0.000000001
 43
0.00000001
 40
0.0
 40
0.0
 40
0.0
 40
0.0
 40
0.0109177295595355
 40
0.027251264444702
 40
0.0470917346137304
 40
0.0789448914793913
 40
0.143674522209768
 40
0.344864241029095
 40
0.5540699142552956
 40
0.6984003566278165
 40
0.7965827369113193
 40
0.8628822774290418
 40
0.9075442365095262
 40
0.9376713767714047
 40
0.9580972030162636
 40
0.9720805818122178
 40
0.9862761232028647
 40
0.9920710141930664
 40
0.996913803565116
 40
1.0
 40
1.0
 40
1.0
 40
1.0
 10
100.0000000000001
 20
28.95972046821993
 30
0.0
 10
100.0089066678264
 20
28.96147195945862
 30
0.0
 10
100.0311382095525
 20
28.96584377968531
 30
0.0
 10
100.0706363219573
 20
28.95886850566034
 30
0.0
 10
100.1202575484218
 20
28.93052620431191
 30
0.0
 10
100.1847988227944
 20
28.85684152481666
 30
0.0
 10
100.2854653281307
 20
28.62868057985852
 30
0.0
 10
100.3264350337821
 20
28.23103274017653
 30
0.0
 10
100.3052917425057
 20
27.77283326399024
 30
0.0
 10
100.2557842771922
 20
27.40186741793783
 30
0.0
 10
100.2095964919563
 20
27.1504944781673
 30
0.0
 10
100.171541117803
 20
26.98161917217539
 30
0.0
 10
100.1412248510936
 20
26.8688254501118
 30
0.0
 10
100.1170619506085
 20
26.79381390003193
 30
0.0
 10
100.0975645070967
 20
26.74400355398017
 30
0.0
 10
100.0798358641804
 20
26.70794640531032
 30
0.0
 10
100.0643238613612
 20
26.68407102661492
 30
0.0
 10
100.0490623120995
 20
26.67021171607341
 30
0.0
 10
100.0387547731444
 20
26.66472056095025
 30
0.0
 10
100.032176163906
 20
26.66414727111009
 30
0.0
 10
100.0296155740813
 20
26.66392412970159
 30
0.0
  0
SPLINE
  5
2C0
330
1F
100
AcDbEntity
  8
SK1
  6
SLD-Solid
370
    25
100
AcDbSpline
210
0.0
220
0.0
230
1.0
 70
     8
 71
     3
 72
    10
 73
     6
 74
     0
 42
0.000000001
 43
0.00000001
 40
0.0
 40
0.0
 40
0.0
 40
0.0
 40
0.3386794853348036
 40
0.6835141788175951
 40
1.0
 40
1.0
 40
1.0
 40
1.0
 10
107.0000000000001
 20
26.51540178501824
 30
0.0
 10
106.9418101391338
 20
27.16008773903359
 30
0.0
 10
106.8243728667632
 20
28.46117625940389
 30
0.0
 10
106.3324761099226
 20
30.31319166584062
 30
0.0
 10
105.9053636125216
 20
31.50044132672073
 30
0.0
 10
105.7009618943234
 20
32.0686192004442
 30
0.0
  0
SPLINE
  5
2C1
330
1F
100
AcDbEntity
  8
SK1
  6
SLD-Solid
370
    25
100
AcDbSpline
210
0.0
220
0.0
230
1.0
 70
     8
 71
     3
 72
    10
 73
     6
 74
     0
 42
0.000000001
 43
0.00000001
 40
0.0
 40
0.0
 40
0.0
 40
0.0
 40
0.4369080587517392
 40
0.880209748501642
 40
1.0
 40
1.0
 40
1.0
 40
1.0
 10
105.7009618943234
 20
19.93138079955579
 30
0.0
 10
105.9799846783365
 20
20.71714373615676
 30
0.0
 10
106.5421134137138
 20
22.30016831753777
 30
0.0
 10
106.9214302526483
 20
24.18387877797624
 30
0.0
 10
106.9862174033891
 20
25.25642780705093
 30
0.0
 10
107.0000000000001
 20
25.48459821498176
 30
0.0
  0
SPLINE
  5
2C2
330
1F
100
AcDbEntity
  8
SK1
  6
SLD-Solid
370
    25
100
AcDbSpline
210
0.0
220
0.0
230
1.0
 70
    24
 71
     3
 72
    10
 73
     6
 74
     0
 42
0.000000001
 43
0.00000001
 40
0.0
 40
0.0
 40
0.0
 40
0.0
 40
0.4369080587517395
 40
0.880209748501641
 40
1.0
 40
1.0
 40
1.0
 40
1.0
 10
105.7009618943234
 20
32.981
 30
0.0
 10
105.9799846783365
 20
32.981
 30
0.0
 10
106.5421134137138
 20
32.981
 30
0.0
 10
106.9214302526483
 20
32.981
 30
0.0
 10
106.9862174033891
 20
32.981
 30
0.0
 10
107.0000000000001
 20
32.981
 30
0.0
  0
SPLINE
  5
2C3
330
1F
100
AcDbEntity
  8
SK1
  6
SLD-Solid
370
    25
100
AcDbSpline
210
0.0
220
0.0
230
1.0
 70
    24
 71
     3
 72
    10
 73
     6
 74
     0
 42
0.000000001
 43
0.00000001
 40
0.0
 40
0.0
 40
0.0
 40
0.0
 40
0.3386794853348043
 40
0.683514178817597
 40
1.0
 40
1.0
 40
1.0
 40
1.0
 10
107.0000000000001
 20
19.019
 30
0.0
 10
106.9418101391338
 20
19.019
 30
0.0
 10
106.8243728667632
 20
19.01899999999997
 30
0.0
 10
106.3324761099226
 20
19.01899999999999
 30
0.0
 10
105.9053636125216
 20
19.01899999999999
 30
0.0
 10
105.7009618943234
 20
19.01899999999999
 30
0.0
  0
SPLINE
  5
2C4
330
1F
100
AcDbEntity
  8
1
  6
SLD-Solid
370
    25
100
AcDbSpline
210
0.0
220
0.0
230
1.0
 70
     8
 71
     3
 72
     9
 73
     5
 74
     0
 42
0.000000001
 43
0.00000001
 40
0.0
 40
0.0
 40
0.0
 40
0.0
 40
0.497536220713506
 40
1.0
 40
1.0
 40
1.0
 40
1.0
 10
30.2324361493182
 20
-48.17236247754365
 30
0.0
 10
30.31472977396069
 20
-48.29389425760704
 30
0.0
 10
30.48013205266212
 20
-48.53816145867456
 30
0.0
 10
30.64643752493709
 20
-48.78261069129913
 30
0.0
 10
30.73000000105244
 20
-48.90543757656737
 30
0.0
  0
SPLINE
  5
2C5
330
1F
100
AcDbEntity
  8
1
  6
SLD-Solid
370
    25
100
AcDbSpline
210
0.0
220
0.0
230
1.0
 70
     8
 71
     3
 72
    10
 73
     6
 74
     0
 42
0.000000001
 43
0.00000001
 40
0.0
 40
0.0
 40
0.0
 40
0.0
 40
0.5
 40
0.5
 40
1.0
 40
1.0
 40
1.0
 40
1.0
 10
26.70500000000001
 20
-41.34329896850785
 30
0.0
 10
27.31223561299534
 20
-42.51237097116858
 30
0.0
 10
27.91047592759899
 20
-43.66801754590161
 30
0.0
 10
29.0873008840043
 20
-45.94697720973238
 30
0.0
 10
29.66595731812236
 20
-47.07044218510313
 30
0.0
 10
30.2324361493182
 20
-48.17236247754365
 30
0.0
  0
SPLINE
  5
2C6
330
1F
100
AcDbEntity
  8
1
  6
SLD-Solid
370
    25
100
AcDbSpline
210
0.0
220
0.0
230
1.0
 70
     8
 71
     3
 72
    10
 73
     6
 74
     0
 42
0.000000001
 43
0.00000001
 40
0.0
 40
0.0
 40
0.0
 40
0.0
 40
0.5
 40
0.5
 40
1.0
 40
1.0
 40
1.0
 40
1.0
 10
26.70500000000001
 20
41.34329896850788
 30
0.0
 10
27.31223561623652
 20
42.51237097767519
 30
0.0
 10
27.91047593398208
 20
43.66801755876417
 30
0.0
 10
29.0873008964378
 20
45.94697723490033
 30
0.0
 10
29.66595733346705
 20
47.07044221622599
 30
0.0
 10
30.23243616739898
 20
48.17236251429156
 30
0.0
  0
SPLINE
  5
2C7
330
1F
100
AcDbEntity
  8
1
  6
SLD-Solid
370
    25
100
AcDbSpline
210
0.0
220
0.0
230
1.0
 70
     8
 71
     3
 72
     9
 73
     5
 74
     0
 42
0.000000001
 43
0.00000001
 40
0.0
 40
0.0
 40
0.0
 40
0.0
 40
0.5024637794296067
 40
1.0
 40
1.0
 40
1.0
 40
1.0
 10
30.73000000105244
 20
48.90543756691396
 30
0.0
 10
30.64643752787283
 20
48.78261068935418
 30
0.0
 10
30.48013206148793
 20
48.5381614721405
 30
0.0
 10
30.31472978895083
 20
48.2938942865965
 30
0.0
 10
30.23243616739898
 20
48.17236251429156
 30
0.0
  0
SPLINE
  5
2C8
330
1F
100
AcDbEntity
  8
1
  6
SLD-Solid
370
    25
100
AcDbSpline
210
0.0
220
0.0
230
1.0
 70
     8
 71
     3
 72
    11
 73
     7
 74
     0
 42
0.000000001
 43
0.00000001
 40
0.0
 40
0.0
 40
0.0
 40
0.0
 40
0.2493611190347733
 40
0.499546312301287
 40
0.748772509513895
 40
1.0
 40
1.0
 40
1.0
 40
1.0
 10
30.73000000105244
 20
-48.90543757656737
 30
0.0
 10
31.39850976716127
 20
-49.04292011860623
 30
0.0
 10
32.73773855186407
 20
-49.31833954705266
 30
0.0
 10
34.14134581196596
 20
-49.67534882049083
 30
0.0
 10
35.07549647867017
 20
-49.92866295783001
 30
0.0
 10
35.19165261839274
 20
-49.96195795522022
 30
0.0
 10
35.24996294001561
 20
-49.97867202656324
 30
0.0
  0
SPLINE
  5
2C9
330
1F
100
AcDbEntity
  8
1
  6
SLD-Solid
370
    25
100
AcDbSpline
210
0.0
220
0.0
230
1.0
 70
     8
 71
     3
 72
    32
 73
    28
 74
     0
 42
0.000000001
 43
0.00000001
 40
0.5000000000000024
 40
0.5000000000000024
 40
0.5000000000000024
 40
0.5000000000000024
 40
0.5625000000000029
 40
0.5625000000000029
 40
0.6250000000000033
 40
0.6250000000000033
 40
0.656250000000003
 40
0.656250000000003
 40
0.6875000000000028
 40
0.6875000000000028
 40
0.7187500000000026
 40
0.7187500000000026
 40
0.7500000000000023
 40
0.7500000000000023
 40
0.7812500000000021
 40
0.7812500000000021
 40
0.8125000000000019
 40
0.8125000000000019
 40
0.8437500000000017
 40
0.8437500000000017
 40
0.8750000000000013
 40
0.8750000000000013
 40
0.9062500000000011
 40
0.9062500000000011
 40
0.9375000000000009
 40
0.9375000000000009
 40
1.0
 40
1.0
 40
1.0
 40
1.0
 10
11.10071146249392
 20
-18.95940909228646
 30
0.0
 10
10.83966036263011
 20
-18.95949508392321
 30
0.0
 10
10.57654432887647
 20
-18.91108273398618
 30
0.0
 10
10.09503969318679
 20
-18.72651722868189
 30
0.0
 10
9.871736797758906
 20
-18.58839775992276
 30
0.0
 10
9.594869119672236
 20
-18.33140926547159
 30
0.0
 10
9.51035580802792
 20
-18.23575282781648
 30
0.0
 10
9.364898225395866
 20
-18.03306921593142
 30
0.0
 10
9.303391160574353
 20
-17.92593466645429
 30
0.0
 10
9.202887905830876
 20
-17.69995542999257
 30
0.0
 10
9.164237099226009
 20
-17.58095959977286
 30
0.0
 10
9.113189380564435
 20
-17.34139921954408
 30
0.0
 10
9.10013437108692
 20
-17.21957298460659
 30
0.0
 10
9.099867672658357
 20
-16.9716588275597
 30
0.0
 10
9.112745529051406
 20
-16.84887051827421
 30
0.0
 10
9.163318778191169
 20
-16.60799445644036
 30
0.0
 10
9.201564549821613
 20
-16.48833425787468
 30
0.0
 10
9.301851471514272
 20
-16.25910364824257
 30
0.0
 10
9.36321306078007
 20
-16.1503460685298
 30
0.0
 10
9.508037288393695
 20
-15.94445135605049
 30
0.0
 10
9.592426282887978
 20
-15.84671892122774
 30
0.0
 10
9.776893191111705
 20
-15.67131280329974
 30
0.0
 10
9.877477150479347
 20
-15.59259093469143
 30
0.0
 10
10.09565052704874
 20
-15.45353041520567
 30
0.0
 10
10.21229123388061
 20
-15.39411502703218
 30
0.0
 10
10.57316681370773
 20
-15.25131259711657
 30
0.0
 10
10.83571231733925
 20
-15.20063872632262
 30
0.0
 10
11.10000000000001
 20
-15.20063872632262
 30
0.0
  0
SPLINE
  5
2CA
330
1F
100
AcDbEntity
  8
1
  6
SLD-Solid
370
    25
100
AcDbSpline
210
0.0
220
0.0
230
1.0
 70
     8
 71
     3
 72
    34
 73
    30
 74
     0
 42
0.000000001
 43
0.00000001
 40
0.0
 40
0.0
 40
0.0
 40
0.0
 40
0.0312500000000001
 40
0.0312500000000001
 40
0.0625000000000002
 40
0.0625000000000002
 40
0.0937500000000003
 40
0.0937500000000003
 40
0.1250000000000004
 40
0.1250000000000004
 40
0.1875000000000006
 40
0.1875000000000006
 40
0.2500000000000008
 40
0.2500000000000008
 40
0.281250000000001
 40
0.281250000000001
 40
0.3125000000000012
 40
0.3125000000000012
 40
0.3437500000000014
 40
0.3437500000000014
 40
0.3750000000000016
 40
0.3750000000000016
 40
0.4062500000000018
 40
0.4062500000000018
 40
0.4375000000000021
 40
0.4375000000000021
 40
0.4687500000000022
 40
0.4687500000000022
 40
0.5000000000000024
 40
0.5000000000000024
 40
0.5000000000000024
 40
0.5000000000000024
 10
11.10000000000001
 20
-15.20063872632262
 30
0.0
 10
11.23214384133037
 20
-15.20063872632262
 30
0.0
 10
11.36207683011831
 20
-15.21300366956795
 30
0.0
 10
11.61770274340582
 20
-15.26142991294576
 30
0.0
 10
11.74472034796746
 20
-15.29807928696864
 30
0.0
 10
11.98691872226756
 20
-15.39368649190843
 30
0.0
 10
12.10178825693582
 20
-15.45216608318072
 30
0.0
 10
12.3191838976514
 20
-15.5902017703709
 30
0.0
 10
12.42210399098251
 20
-15.67048292542399
 30
0.0
 10
12.69882146131236
 20
-15.93323931693798
 30
0.0
 10
12.84782549231939
 20
-16.14468145796949
 30
0.0
 10
13.04732370421205
 20
-16.59948122829185
 30
0.0
 10
13.09986054057429
 20
-16.84755397556366
 30
0.0
 10
13.10006930284501
 20
-17.21529328281686
 30
0.0
 10
13.08708888085483
 20
-17.33961998402065
 30
0.0
 10
13.0360710029948
 20
-17.57998170651962
 30
0.0
 10
12.99832227536034
 20
-17.69663871376956
 30
0.0
 10
12.89820560779052
 20
-17.92292358836764
 30
0.0
 10
12.83559212600237
 20
-18.03221760939899
 30
0.0
 10
12.69084705245929
 20
-18.23424312112873
 30
0.0
 10
12.60821628179984
 20
-18.32828618578591
 30
0.0
 10
12.42162673177076
 20
-18.50199126043448
 30
0.0
 10
12.32044387441546
 20
-18.57901439621875
 30
0.0
 10
12.1038893478486
 20
-18.71351785608448
 30
0.0
 10
11.98703949363668
 20
-18.7715980751318
 30
0.0
 10
11.74469982813359
 20
-18.86472639130621
 30
0.0
 10
11.62003428466961
 20
-18.89978409519356
 30
0.0
 10
11.36379198463244
 20
-18.94721337815949
 30
0.0
 10
11.2312370124258
 20
-18.95936609646809
 30
0.0
 10
11.10071146249392
 20
-18.95940909228646
 30
0.0
  0
SPLINE
  5
2CB
330
1F
100
AcDbEntity
  8
1
  6
SLD-Solid
370
    25
100
AcDbSpline
210
0.0
220
0.0
230
1.0
 70
     8
 71
     3
 72
    10
 73
     6
 74
     0
 42
0.000000001
 43
0.00000001
 40
0.0
 40
0.0
 40
0.0
 40
0.0
 40
0.5
 40
0.5
 40
1.0
 40
1.0
 40
1.0
 40
1.0
 10
3.000000000000016
 20
-47.29842136528794
 30
0.0
 10
3.00000000000003
 20
-47.48707202337976
 30
0.0
 10
3.080829822292658
 20
-47.67456100227748
 30
0.0
 10
3.358510005927545
 20
-47.94135332150152
 30
0.0
 10
3.553650459150654
 20
-48.01901379935644
 30
0.0
 10
3.750000000000017
 20
-48.01901379935645
 30
0.0
  0
SPLINE
  5
2CC
330
1F
100
AcDbEntity
  8
1
  6
SLD-Solid
370
    25
100
AcDbSpline
210
0.0
220
0.0
230
1.0
 70
     8
 71
     3
 72
    10
 73
     6
 74
     0
 42
0.000000001
 43
0.00000001
 40
0.0
 40
0.0
 40
0.0
 40
0.0
 40
0.5
 40
0.5
 40
1.0
 40
1.0
 40
1.0
 40
1.0
 10
3.750000000000024
 20
48.01901379935649
 30
0.0
 10
3.553650459150633
 20
48.01901379935647
 30
0.0
 10
3.358510005927537
 20
47.94135332150158
 30
0.0
 10
3.080829822292647
 20
47.67456100227748
 30
0.0
 10
3.000000000000004
 20
47.48707202337981
 30
0.0
 10
3.000000000000016
 20
47.29842136528796
 30
0.0
  0
SPLINE
  5
2CD
330
1F
100
AcDbEntity
  8
1
  6
SLD-Solid
370
    25
100
AcDbSpline
210
0.0
220
0.0
230
1.0
 70
     8
 71
     3
 72
     8
 73
     4
 74
     0
 42
0.000000001
 43
0.00000001
 40
0.0
 40
0.0
 40
0.0
 40
0.0
 40
1.0
 40
1.0
 40
1.0
 40
1.0
 10
16.2300196942419
 20
-47.29842136528791
 30
0.0
 10
17.39299174097687
 20
-45.21052038593813
 30
0.0
 10
18.55200333802343
 20
-43.12035142813716
 30
0.0
 10
19.705
 20
-41.02691000550032
 30
0.0
  0
SPLINE
  5
2CE
330
1F
100
AcDbEntity
  8
1
  6
SLD-Solid
370
    25
100
AcDbSpline
210
0.0
220
0.0
230
1.0
 70
     8
 71
     3
 72
     8
 73
     4
 74
     0
 42
0.000000001
 43
0.00000001
 40
0.0
 40
0.0
 40
0.0
 40
0.0
 40
0.0013188854064185
 40
0.0013188854064185
 40
0.0013188854064185
 40
0.0013188854064185
 10
15.67999999999999
 20
-48.01901379935645
 30
0.0
 10
15.86418062995507
 20
-47.77904885862083
 30
0.0
 10
16.04753937863335
 20
-47.53885526362163
 30
0.0
 10
16.2300196942419
 20
-47.29842136528791
 30
0.0
  0
SPLINE
  5
2CF
330
1F
100
AcDbEntity
  8
1
  6
SLD-Solid
370
    25
100
AcDbSpline
210
0.0
220
0.0
230
1.0
 70
     8
 71
     3
 72
     8
 73
     4
 74
     0
 42
0.000000001
 43
0.00000001
 40
0.0000000000000038
 40
0.0000000000000038
 40
0.0000000000000038
 40
0.0000000000000038
 40
0.0013188854064221
 40
0.0013188854064221
 40
0.0013188854064221
 40
0.0013188854064221
 10
16.23001969425063
 20
47.29842136528801
 30
0.0
 10
16.04753937864156
 20
47.53885526362236
 30
0.0
 10
15.86418062995555
 20
47.77904885862023
 30
0.0
 10
15.67999999999999
 20
48.01901379935648
 30
0.0
  0
SPLINE
  5
2D0
330
1F
100
AcDbEntity
  8
1
  6
SLD-Solid
370
    25
100
AcDbSpline
210
0.0
220
0.0
230
1.0
 70
     8
 71
     3
 72
     8
 73
     4
 74
     0
 42
0.000000001
 43
0.00000001
 40
0.0
 40
0.0
 40
0.0
 40
0.0
 40
1.0
 40
1.0
 40
1.0
 40
1.0
 10
16.23001969424849
 20
47.29842136529185
 30
0.0
 10
17.3930393559963
 20
45.21043490199742
 30
0.0
 10
18.55203671462922
 20
43.12029082782034
 30
0.0
 10
19.705
 20
41.02691000550033
 30
0.0
  0
SPLINE
  5
2D1
330
1F
100
AcDbEntity
  8
1
  6
SLD-Solid
370
    25
100
AcDbSpline
210
0.0
220
0.0
230
1.0
 70
     8
 71
     3
 72
    10
 73
     6
 74
     0
 42
0.000000001
 43
0.00000001
 40
0.0
 40
0.0
 40
0.0
 40
0.0
 40
0.5
 40
0.5
 40
1.0
 40
1.0
 40
1.0
 40
1.0
 10
19.705
 20
-40.88833115939068
 30
0.0
 10
19.705
 20
-40.78785700331397
 30
0.0
 10
19.74338373915058
 20
-40.68707612346073
 30
0.0
 10
19.87949500418876
 20
-40.54053424392844
 30
0.0
 10
19.97908463495332
 20
-40.49493795525557
 30
0.0
 10
20.07999999999999
 20
-40.49493795525557
 30
0.0
  0
SPLINE
  5
2D2
330
1F
100
AcDbEntity
  8
1
  6
SLD-Solid
370
    25
100
AcDbSpline
210
0.0
220
0.0
230
1.0
 70
     8
 71
     3
 72
    10
 73
     6
 74
     0
 42
0.000000001
 43
0.00000001
 40
0.0
 40
0.0
 40
0.0
 40
0.0
 40
0.5
 40
0.5
 40
1.0
 40
1.0
 40
1.0
 40
1.0
 10
19.705
 20
40.8883311593907
 30
0.0
 10
19.705
 20
40.78817010856145
 30
0.0
 10
19.74335670622612
 20
40.68702226230894
 30
0.0
 10
19.87981820626392
 20
40.5402694199115
 30
0.0
 10
19.97834545492383
 20
40.4949379552556
 30
0.0
 10
20.07999999999999
 20
40.49493795525559
 30
0.0
  0
SPLINE
  5
2D3
330
1F
100
AcDbEntity
  8
1
  6
SLD-Solid
370
    25
100
AcDbSpline
210
0.0
220
0.0
230
1.0
 70
     8
 71
     3
 72
    10
 73
     6
 74
     0
 42
0.000000001
 43
0.00000001
 40
0.0
 40
0.0
 40
0.0
 40
0.0
 40
0.5
 40
0.5
 40
1.0
 40
1.0
 40
1.0
 40
1.0
 10
26.32999999999999
 20
-40.77024527765314
 30
0.0
 10
26.43105474608823
 20
-40.78196924315156
 30
0.0
 10
26.5242386172293
 20
-40.83494772625561
 30
0.0
 10
26.66160793191028
 20
-40.99237978017026
 30
0.0
 10
26.70499999999995
 20
-41.09766982332233
 30
0.0
 10
26.70500000000001
 20
-41.20578418134979
 30
0.0
  0
SPLINE
  5
2D4
330
1F
100
AcDbEntity
  8
1
  6
SLD-Solid
370
    25
100
AcDbSpline
210
0.0
220
0.0
230
1.0
 70
     8
 71
     3
 72
    10
 73
     6
 74
     0
 42
0.000000001
 43
0.00000001
 40
0.0
 40
0.0
 40
0.0
 40
0.0
 40
0.5
 40
0.5
 40
1.0
 40
1.0
 40
1.0
 40
1.0
 10
26.32999999999999
 20
40.77024527765315
 30
0.0
 10
26.43105474608823
 20
40.78196924315159
 30
0.0
 10
26.5242386172293
 20
40.83494772625561
 30
0.0
 10
26.66160793191028
 20
40.99237978017027
 30
0.0
 10
26.70499999999995
 20
41.09766982332232
 30
0.0
 10
26.70500000000001
 20
41.20578418134981
 30
0.0
  0
SPLINE
  5
2D5
330
1F
100
AcDbEntity
  8
1
  6
SLD-Solid
370
    25
100
AcDbSpline
210
0.0
220
0.0
230
1.0
 70
     8
 71
     3
 72
    10
 73
     6
 74
     0
 42
0.000000001
 43
0.00000001
 40
0.0
 40
0.0
 40
0.0
 40
0.0
 40
0.5
 40
0.5
 40
1.0
 40
1.0
 40
1.0
 40
1.0
 10
21.60000000000001
 20
-40.49493795525557
 30
0.0
 10
22.41944729352555
 20
-40.49493795525557
 30
0.0
 10
23.22275585238484
 20
-40.51980029582823
 30
0.0
 10
24.79922683720337
 20
-40.6134944545927
 30
0.0
 10
25.57238485928232
 20
-40.68234981391016
 30
0.0
 10
26.32999999999999
 20
-40.77024527765314
 30
0.0
  0
SPLINE
  5
2D6
330
1F
100
AcDbEntity
  8
1
  6
SLD-Solid
370
    25
100
AcDbSpline
210
0.0
220
0.0
230
1.0
 70
     8
 71
     3
 72
    10
 73
     6
 74
     0
 42
0.000000001
 43
0.00000001
 40
0.0
 40
0.0
 40
0.0
 40
0.0
 40
0.5
 40
0.5
 40
1.0
 40
1.0
 40
1.0
 40
1.0
 10
21.60000000000001
 20
40.49493795525557
 30
0.0
 10
22.41944729352558
 20
40.49493795525557
 30
0.0
 10
23.22275585238484
 20
40.51980029582823
 30
0.0
 10
24.79922683720337
 20
40.61349445459272
 30
0.0
 10
25.57238485928232
 20
40.68234981391016
 30
0.0
 10
26.32999999999999
 20
40.77024527765315
 30
0.0
  0
SPLINE
  5
2D7
330
1F
100
AcDbEntity
  8
1
  6
SLD-Solid
370
    25
100
AcDbSpline
210
0.0
220
0.0
230
1.0
 70
     8
 71
     3
 72
    34
 73
    30
 74
     0
 42
0.000000001
 43
0.00000001
 40
0.4999999999999994
 40
0.4999999999999994
 40
0.4999999999999994
 40
0.4999999999999994
 40
0.5312499999999994
 40
0.5312499999999994
 40
0.5624999999999993
 40
0.5624999999999993
 40
0.6249999999999988
 40
0.6249999999999988
 40
0.6562499999999988
 40
0.6562499999999988
 40
0.6874999999999989
 40
0.6874999999999989
 40
0.718749999999999
 40
0.718749999999999
 40
0.7499999999999991
 40
0.7499999999999991
 40
0.7812499999999991
 40
0.7812499999999991
 40
0.8124999999999992
 40
0.8124999999999992
 40
0.8437499999999993
 40
0.8437499999999993
 40
0.8749999999999993
 40
0.8749999999999993
 40
0.9062499999999994
 40
0.9062499999999994
 40
0.9374999999999996
 40
0.9374999999999996
 40
1.0
 40
1.0
 40
1.0
 40
1.0
 10
23.20589587497795
 20
34.4388197050978
 30
0.0
 10
23.04273018062972
 20
34.43878538313597
 30
0.0
 10
22.88054309480278
 20
34.44804533520766
 30
0.0
 10
22.55816751359419
 20
34.48545864690045
 30
0.0
 10
22.40015203955667
 20
34.51354112138264
 30
0.0
 10
21.94874116448109
 20
34.622405126419
 30
0.0
 10
21.66966170742895
 20
34.73049953215763
 30
0.0
 10
21.32358800293058
 20
34.92822416887064
 30
0.0
 10
21.2179459870159
 20
35.00135013796231
 30
0.0
 10
21.03616251104512
 20
35.15486117112745
 30
0.0
 10
20.95927468766118
 20
35.23537673769479
 30
0.0
 10
20.8336201302908
 20
35.40357830368197
 30
0.0
 10
20.78531205437617
 20
35.49130773247136
 30
0.0
 10
20.72149416893582
 20
35.66612396078161
 30
0.0
 10
20.70516599189298
 20
35.75415796648369
 30
0.0
 10
20.7048365018333
 20
35.93143167917452
 30
0.0
 10
20.72093301366795
 20
36.01822040317638
 30
0.0
 10
20.78416175092918
 20
36.1868382181281
 30
0.0
 10
20.83199834433971
 20
36.26972922484272
 30
0.0
 10
20.95734166225313
 20
36.42687506777435
 30
0.0
 10
21.03403833677831
 20
36.50065817755723
 30
0.0
 10
21.21508970343008
 20
36.63916846092427
 30
0.0
 10
21.32056531379098
 20
36.70425135893829
 30
0.0
 10
21.5510918824672
 20
36.82020983748722
 30
0.0
 10
21.67681132009752
 20
36.87181378655243
 30
0.0
 10
21.94957816929436
 20
36.96249173345618
 30
0.0
 10
22.09529754570039
 20
37.00092322406771
 30
0.0
 10
22.54636665080845
 20
37.09303614727767
 30
0.0
 10
22.87459941867226
 20
37.12531765260813
 30
0.0
 10
23.205
 20
37.12531765260813
 30
0.0
  0
SPLINE
  5
2D8
330
1F
100
AcDbEntity
  8
1
  6
SLD-Solid
370
    25
100
AcDbSpline
210
0.0
220
0.0
230
1.0
 70
     8
 71
     3
 72
    38
 73
    34
 74
     0
 42
0.000000001
 43
0.00000001
 40
0.0
 40
0.0
 40
0.0
 40
0.0
 40
0.03125
 40
0.03125
 40
0.0624999999999999
 40
0.0624999999999999
 40
0.0937499999999999
 40
0.0937499999999999
 40
0.1249999999999999
 40
0.1249999999999999
 40
0.1562499999999998
 40
0.1562499999999998
 40
0.1874999999999998
 40
0.1874999999999998
 40
0.2187499999999998
 40
0.2187499999999998
 40
0.2499999999999997
 40
0.2499999999999997
 40
0.2812499999999997
 40
0.2812499999999997
 40
0.3124999999999997
 40
0.3124999999999997
 40
0.3437499999999996
 40
0.3437499999999996
 40
0.3749999999999996
 40
0.3749999999999996
 40
0.4062499999999996
 40
0.4062499999999996
 40
0.4374999999999995
 40
0.4374999999999995
 40
0.4687499999999995
 40
0.4687499999999995
 40
0.4999999999999994
 40
0.4999999999999994
 40
0.4999999999999994
 40
0.4999999999999994
 10
23.205
 20
37.12531765260813
 30
0.0
 10
23.37020029066386
 20
37.12531765260813
 30
0.0
 10
23.53263283196042
 20
37.11741929664205
 30
0.0
 10
23.8521909875504
 20
37.08638526323934
 30
0.0
 10
24.01097432552746
 20
37.06287043322062
 30
0.0
 10
24.31371234200683
 20
37.00120158067551
 30
0.0
 10
24.45729150714115
 20
36.96335430477583
 30
0.0
 10
24.72902123700918
 20
36.87337254515385
 30
0.0
 10
24.85764980054692
 20
36.82075824627643
 30
0.0
 10
25.08821556221411
 20
36.70494823790187
 30
0.0
 10
25.19168956346346
 20
36.64136174744348
 30
0.0
 10
25.37445010138925
 20
36.50207832504564
 30
0.0
 10
25.45209435761786
 20
36.42736879690476
 30
0.0
 10
25.57678700830793
 20
36.27146237747247
 30
0.0
 10
25.62479098888637
 20
36.18911628497408
 30
0.0
 10
25.68902273120466
 20
36.0188444812359
 30
0.0
 10
25.70491217524684
 20
35.93247420935283
 30
0.0
 10
25.70508710560201
 20
35.75723952500357
 30
0.0
 10
25.68885645426711
 20
35.667425277832
 30
0.0
 10
25.62507523155752
 20
35.49203168212792
 30
0.0
 10
25.57788312016124
 20
35.40601706108839
 30
0.0
 10
25.4527165025033
 20
35.23762736686199
 30
0.0
 10
25.3744570151283
 20
35.15550602813542
 30
0.0
 10
25.19353683177292
 20
35.00248205721384
 30
0.0
 10
25.09025160284906
 20
34.9306080809346
 30
0.0
 10
24.85699986080036
 20
34.7969665185306
 30
0.0
 10
24.73058599253475
 20
34.73727203404471
 30
0.0
 10
24.45991372184012
 20
34.63248683699359
 30
0.0
 10
24.31383194967584
 20
34.58694342486458
 30
0.0
 10
24.01094750420299
 20
34.51371520539182
 30
0.0
 10
23.85511714456326
 20
34.48601271283216
 30
0.0
 10
23.5347716552978
 20
34.44849385219229
 30
0.0
 10
23.3690615693262
 20
34.43885402705964
 30
0.0
 10
23.20589587497795
 20
34.4388197050978
 30
0.0
  0
SPLINE
  5
2D9
330
1F
100
AcDbEntity
  8
SK3
  6
SLD-Solid
370
    25
100
AcDbSpline
210
0.0
220
0.0
230
1.0
 70
     8
 71
     3
 72
    34
 73
    30
 74
     0
 42
0.000000001
 43
0.00000001
 40
0.5000000000000105
 40
0.5000000000000105
 40
0.5000000000000105
 40
0.5000000000000105
 40
0.5312500000000112
 40
0.5312500000000112
 40
0.5625000000000119
 40
0.5625000000000119
 40
0.6250000000000108
 40
0.6250000000000108
 40
0.6562500000000101
 40
0.6562500000000101
 40
0.6875000000000094
 40
0.6875000000000094
 40
0.7187500000000088
 40
0.7187500000000088
 40
0.750000000000008
 40
0.750000000000008
 40
0.7812500000000073
 40
0.7812500000000073
 40
0.8125000000000067
 40
0.8125000000000067
 40
0.843750000000006
 40
0.843750000000006
 40
0.8750000000000053
 40
0.8750000000000053
 40
0.9062500000000047
 40
0.9062500000000047
 40
0.937500000000004
 40
0.937500000000004
 40
1.0
 40
1.0
 40
1.0
 40
1.0
 10
87.00089816399809
 20
-29.28821379025563
 30
0.0
 10
86.83772937525674
 20
-29.28825257890917
 30
0.0
 10
86.67553435134498
 20
-29.27782984929382
 30
0.0
 10
86.35313329797195
 20
-29.23552698586058
 30
0.0
 10
86.19513171898488
 20
-29.20372809433783
 30
0.0
 10
85.74372059405738
 20
-29.07956729177108
 30
0.0
 10
85.46465849751739
 20
-28.9554031848437
 30
0.0
 10
85.11858842832068
 20
-28.72226067226429
 30
0.0
 10
85.01294653898431
 20
-28.63518310390753
 30
0.0
 10
84.83117638075858
 20
-28.44989579102295
 30
0.0
 10
84.75428712039454
 20
-28.35154485967082
 30
0.0
 10
84.62862360277049
 20
-28.14301401503203
 30
0.0
 10
84.58031753853324
 20
-28.03275064865372
 30
0.0
 10
84.51649674849213
 20
-27.80960855587858
 30
0.0
 10
84.50016528087347
 20
-27.69556822903349
 30
0.0
 10
84.49983719107892
 20
-27.46227623634395
 30
0.0
 10
84.5159334028228
 20
-27.34627990495361
 30
0.0
 10
84.57916645600999
 20
-27.11750136991919
 30
0.0
 10
84.62701315700116
 20
-27.00325895380973
 30
0.0
 10
84.75235124131608
 20
-26.78364923099624
 30
0.0
 10
84.82904614286652
 20
-26.67895555753908
 30
0.0
 10
85.0101050642223
 20
-26.47999004360532
 30
0.0
 10
85.11557654487578
 20
-26.38518499593528
 30
0.0
 10
85.34608346385453
 20
-26.21453145177501
 30
0.0
 10
85.47179937220875
 20
-26.13764030020719
 30
0.0
 10
85.74458403949642
 20
-26.00147582371441
 30
0.0
 10
85.89027432936153
 20
-25.94318555167427
 30
0.0
 10
86.3413350232056
 20
-25.80278203293611
 30
0.0
 10
86.66958509651546
 20
-25.75267999107917
 30
0.0
 10
87.00000000000003
 20
-25.75267999107917
 30
0.0
  0
SPLINE
  5
2DA
330
1F
100
AcDbEntity
  8
SK3
  6
SLD-Solid
370
    25
100
AcDbSpline
210
0.0
220
0.0
230
1.0
 70
     8
 71
     3
 72
    38
 73
    34
 74
     0
 42
0.000000001
 43
0.00000001
 40
0.0
 40
0.0
 40
0.0
 40
0.0
 40
0.0312500000000007
 40
0.0312500000000007
 40
0.0625000000000013
 40
0.0625000000000013
 40
0.093750000000002
 40
0.093750000000002
 40
0.1250000000000026
 40
0.1250000000000026
 40
0.1562500000000033
 40
0.1562500000000033
 40
0.1875000000000039
 40
0.1875000000000039
 40
0.2187500000000046
 40
0.2187500000000046
 40
0.2500000000000053
 40
0.2500000000000053
 40
0.2812500000000059
 40
0.2812500000000059
 40
0.3125000000000066
 40
0.3125000000000066
 40
0.3437500000000073
 40
0.3437500000000073
 40
0.3750000000000079
 40
0.3750000000000079
 40
0.4062500000000085
 40
0.4062500000000085
 40
0.4375000000000092
 40
0.4375000000000092
 40
0.4687500000000099
 40
0.4687500000000099
 40
0.5000000000000105
 40
0.5000000000000105
 40
0.5000000000000105
 40
0.5000000000000105
 10
87.00000000000003
 20
-25.75267999107916
 30
0.0
 10
87.16520745174228
 20
-25.75267999107916
 30
0.0
 10
87.32764568993973
 20
-25.7648890212113
 30
0.0
 10
87.64721284402196
 20
-25.81263825262042
 30
0.0
 10
87.80600012936077
 20
-25.84875885434509
 30
0.0
 10
88.10873466230706
 20
-25.94276339035226
 30
0.0
 10
88.25231111495138
 20
-26.00018157081556
 30
0.0
 10
88.52403566158756
 20
-26.13531247097779
 30
0.0
 10
88.65265667322208
 20
-26.21371607366095
 30
0.0
 10
88.88321123009754
 20
-26.38417143987628
 30
0.0
 10
88.98668272079918
 20
-26.47682527400428
 30
0.0
 10
89.16944343572698
 20
-26.67693995195548
 30
0.0
 10
89.24708361304798
 20
-26.78294141527484
 30
0.0
 10
89.37177846651917
 20
-27.00086330516279
 30
0.0
 10
89.41978650922938
 20
-27.1143920744474
 30
0.0
 10
89.4840209828781
 20
-27.34544745581494
 30
0.0
 10
89.49991200579949
 20
-27.46089194876618
 30
0.0
 10
89.50008727234699
 20
-27.69153714388323
 30
0.0
 10
89.48385483386679
 20
-27.80793021145769
 30
0.0
 10
89.42007050431394
 20
-28.0318378105629
 30
0.0
 10
89.3728762199146
 20
-28.13996959308077
 30
0.0
 10
89.24770232298981
 20
-28.34878381983757
 30
0.0
 10
89.16944544104311
 20
-28.44910639042438
 30
0.0
 10
88.98852910811522
 20
-28.63383265877659
 30
0.0
 10
88.8852449858191
 20
-28.7194421722151
 30
0.0
 10
88.651988038605
 20
-28.87705092277231
 30
0.0
 10
88.52559686159547
 20
-28.94659694922708
 30
0.0
 10
88.25493182035845
 20
-29.06782515497368
 30
0.0
 10
88.10884339026539
 20
-29.12001219780353
 30
0.0
 10
87.80597292294529
 20
-29.20353023078875
 30
0.0
 10
87.6501430885378
 20
-29.23490065067541
 30
0.0
 10
87.32978263947025
 20
-29.27732343240078
 30
0.0
 10
87.16406695273946
 20
-29.28817500160208
 30
0.0
 10
87.00089816399809
 20
-29.28821379025563
 30
0.0
  0
SPLINE
  5
2DB
330
1F
100
AcDbEntity
  8
1
  6
SLD-Solid
370
    25
100
AcDbSpline
210
0.0
220
0.0
230
1.0
 70
     8
 71
     3
 72
     9
 73
     5
 74
     0
 42
0.000000001
 43
0.00000001
 40
0.0
 40
0.0
 40
0.0
 40
0.0
 40
0.4975362171672355
 40
1.0
 40
1.0
 40
1.0
 40
1.0
 10
30.23243616739898
 20
48.17236251429156
 30
0.0
 10
30.31472978844743
 20
48.29389428589723
 30
0.0
 10
30.48013206110409
 20
48.53816147170661
 30
0.0
 10
30.64643752736782
 20
48.78261068865537
 30
0.0
 10
30.73000000105244
 20
48.90543756691396
 30
0.0
  0
SPLINE
  5
2DC
330
1F
100
AcDbEntity
  8
1
  6
SLD-Solid
370
    25
100
AcDbSpline
210
0.0
220
0.0
230
1.0
 70
     8
 71
     3
 72
     9
 73
     5
 74
     0
 42
0.000000001
 43
0.00000001
 40
0.0
 40
0.0
 40
0.0
 40
0.0
 40
0.5024637826897491
 40
1.0
 40
1.0
 40
1.0
 40
1.0
 10
30.73000000105245
 20
-48.90543757656738
 30
0.0
 10
30.64643752443206
 20
-48.78261069060032
 30
0.0
 10
30.48013205227828
 20
-48.53816145824061
 30
0.0
 10
30.31472977345728
 20
-48.29389425690778
 30
0.0
 10
30.2324361493182
 20
-48.17236247754365
 30
0.0
  0
SPLINE
  5
2DD
330
1F
100
AcDbEntity
  8
SK3
  6
SLD-Dashed
370
    18
100
AcDbSpline
210
0.0
220
0.0
230
1.0
 70
     8
 71
     3
 72
    34
 73
    30
 74
     0
 42
0.000000001
 43
0.00000001
 40
0.4999999999999962
 40
0.4999999999999962
 40
0.4999999999999962
 40
0.4999999999999962
 40
0.5624999999999959
 40
0.5624999999999959
 40
0.5937499999999963
 40
0.5937499999999963
 40
0.6249999999999967
 40
0.6249999999999967
 40
0.656249999999997
 40
0.656249999999997
 40
0.6874999999999973
 40
0.6874999999999973
 40
0.7187499999999977
 40
0.7187499999999977
 40
0.749999999999998
 40
0.749999999999998
 40
0.7812499999999984
 40
0.7812499999999984
 40
0.8124999999999988
 40
0.8124999999999988
 40
0.8437499999999991
 40
0.8437499999999991
 40
0.8749999999999994
 40
0.8749999999999994
 40
0.9062499999999998
 40
0.9062499999999998
 40
0.9375000000000002
 40
0.9375000000000002
 40
1.0
 40
1.0
 40
1.0
 40
1.0
 10
10.58308274902045
 20
-14.62842261501448
 30
0.0
 10
10.7464399435272
 20
-14.61595130338687
 30
0.0
 10
10.9289607682107
 20
-14.58461707288063
 30
0.0
 10
11.23312245907614
 20
-14.50015500712344
 30
0.0
 10
11.34141585866903
 20
-14.46495618260171
 30
0.0
 10
11.56074352105282
 20
-14.3795839304209
 30
0.0
 10
11.67215944869876
 20
-14.32949275723389
 30
0.0
 10
11.89617180667887
 20
-14.20807441746603
 30
0.0
 10
12.0039352359772
 20
-14.13911064101066
 30
0.0
 10
12.20461030853029
 20
-13.9830706368053
 30
0.0
 10
12.29767742835867
 20
-13.89550631671878
 30
0.0
 10
12.4587254301865
 20
-13.70738749332894
 30
0.0
 10
12.52866053916098
 20
-13.60454053215046
 30
0.0
 10
12.63989321927142
 20
-13.3901550410023
 30
0.0
 10
12.6821773018843
 20
-13.27758844010356
 30
0.0
 10
12.73826417564929
 20
-13.04311897935236
 30
0.0
 10
12.75135511926062
 20
-12.92472769173532
 30
0.0
 10
12.74842672652901
 20
-12.68534814453354
 30
0.0
 10
12.7318497945824
 20
-12.56384474106832
 30
0.0
 10
12.67052150102997
 20
-12.330972273127
 30
0.0
 10
12.62533349294084
 20
-12.2169763959061
 30
0.0
 10
12.50798957942553
 20
-12.00233343048589
 30
0.0
 10
12.43714536200848
 20
-11.90346130197446
 30
0.0
 10
12.2715127732214
 20
-11.72467140402964
 30
0.0
 10
12.17650676240363
 20
-11.64543318855285
 30
0.0
 10
11.97426684334574
 20
-11.51856750209626
 30
0.0
 10
11.86385801145316
 20
-11.46911227285065
 30
0.0
 10
11.52899205333036
 20
-11.37393005842412
 30
0.0
 10
11.30216468948121
 20
-11.38194813997108
 30
0.0
 10
11.10000000000001
 20
-11.43596966277543
 30
0.0
  0
SPLINE
  5
2DE
330
1F
100
AcDbEntity
  8
SK3
  6
SLD-Dashed
370
    18
100
AcDbSpline
210
0.0
220
0.0
230
1.0
 70
     8
 71
     3
 72
    30
 73
    26
 74
     0
 42
0.000000001
 43
0.00000001
 40
0.0
 40
0.0
 40
0.0
 40
0.0
 40
0.0624999999999985
 40
0.0624999999999985
 40
0.124999999999997
 40
0.124999999999997
 40
0.1562499999999969
 40
0.1562499999999969
 40
0.1874999999999969
 40
0.1874999999999969
 40
0.2187499999999969
 40
0.2187499999999969
 40
0.2499999999999968
 40
0.2499999999999968
 40
0.2812499999999968
 40
0.2812499999999968
 40
0.3124999999999968
 40
0.3124999999999968
 40
0.3437499999999967
 40
0.3437499999999967
 40
0.3749999999999967
 40
0.3749999999999967
 40
0.4374999999999964
 40
0.4374999999999964
 40
0.4999999999999962
 40
0.4999999999999962
 40
0.4999999999999962
 40
0.4999999999999962
 10
11.10000000000001
 20
-11.43596966277544
 30
0.0
 10
10.89783531051878
 20
-11.48999118557977
 30
0.0
 10
10.72214710048237
 20
-11.58348246510713
 30
0.0
 10
10.39566988662173
 20
-11.81778164838016
 30
0.0
 10
10.24875737476432
 20
-11.95731114402997
 30
0.0
 10
10.04648943268483
 20
-12.19501569319418
 30
0.0
 10
9.981990152996689
 20
-12.27933069886467
 30
0.0
 10
9.858509956371172
 20
-12.46024737290918
 30
0.0
 10
9.799268573097828
 20
-12.5573945946419
 30
0.0
 10
9.690154706090297
 20
-12.76258381247339
 30
0.0
 10
9.639396735733435
 20
-12.87227353005595
 30
0.0
 10
9.551981863499112
 20
-13.10215583857425
 30
0.0
 10
9.515303532497471
 20
-13.22154996343838
 30
0.0
 10
9.462704529937989
 20
-13.47404712221982
 30
0.0
 10
9.448745253197975
 20
-13.60170425787093
 30
0.0
 10
9.451438089560522
 20
-13.84023987972599
 30
0.0
 10
9.468197896428002
 20
-13.9500578378726
 30
0.0
 10
9.524353346861208
 20
-14.13698669911055
 30
0.0
 10
9.56358947784801
 20
-14.21555240578225
 30
0.0
 10
9.653480018824297
 20
-14.34524919507793
 30
0.0
 10
9.705204466999158
 20
-14.39820395616759
 30
0.0
 10
9.87134859518446
 20
-14.52794988930347
 30
0.0
 10
9.99583275682618
 20
-14.57778939463076
 30
0.0
 10
10.27208420272974
 20
-14.63501792265948
 30
0.0
 10
10.4197255545137
 20
-14.64089392664208
 30
0.0
 10
10.58308274902045
 20
-14.62842261501448
 30
0.0
  0
SPLINE
  5
2DF
330
1F
100
AcDbEntity
  8
SK3
  6
SLD-Dashed
370
    18
100
AcDbSpline
210
0.0
220
0.0
230
1.0
 70
     8
 71
     3
 72
    34
 73
    30
 74
     0
 42
0.000000001
 43
0.00000001
 40
0.4999999999999994
 40
0.4999999999999994
 40
0.4999999999999994
 40
0.4999999999999994
 40
0.5312499999999992
 40
0.5312499999999992
 40
0.562499999999999
 40
0.562499999999999
 40
0.5937499999999988
 40
0.5937499999999988
 40
0.6249999999999986
 40
0.6249999999999986
 40
0.6562499999999982
 40
0.6562499999999982
 40
0.687499999999998
 40
0.687499999999998
 40
0.7499999999999978
 40
0.7499999999999978
 40
0.8124999999999976
 40
0.8124999999999976
 40
0.8437499999999979
 40
0.8437499999999979
 40
0.8749999999999983
 40
0.8749999999999983
 40
0.9062499999999987
 40
0.9062499999999987
 40
0.9374999999999991
 40
0.9374999999999991
 40
0.9687499999999996
 40
0.9687499999999996
 40
1.0
 40
1.0
 40
1.0
 40
1.0
 10
9.613805742161711
 20
-10.90716232481947
 30
0.0
 10
9.668881160736303
 20
-10.80029617155305
 30
0.0
 10
9.738179283156622
 20
-10.69763375951879
 30
0.0
 10
9.898515798149973
 20
-10.50916445243492
 30
0.0
 10
9.988902763524502
 20
-10.42344465460576
 30
0.0
 10
10.18945694949208
 20
-10.26620282844662
 30
0.0
 10
10.29767837600207
 20
-10.19657238658012
 30
0.0
 10
10.5180752649812
 20
-10.07612666067175
 30
0.0
 10
10.6329165859682
 20
-10.02394104847505
 30
0.0
 10
10.85319871140986
 20
-9.937700483198697
 30
0.0
 10
10.96108094611135
 20
-9.902442580895663
 30
0.0
 10
11.16468749579591
 20
-9.845541560626822
 30
0.0
 10
11.26027842069083
 20
-9.823817349771655
 30
0.0
 10
11.5339829745022
 20
-9.7740071914678
 30
0.0
 10
11.69837034356694
 20
-9.761334090706564
 30
0.0
 10
11.99694861504763
 20
-9.774714833857583
 30
0.0
 10
12.13420875119764
 20
-9.800547489334544
 30
0.0
 10
12.32260730605758
 20
-9.881061993902248
 30
0.0
 10
12.38188352391456
 20
-9.914741048161188
 30
0.0
 10
12.49280294837551
 20
-10.00073538762963
 30
0.0
 10
12.54469006353044
 20
-10.05345559201612
 30
0.0
 10
12.6349193190084
 20
-10.1825750691471
 30
0.0
 10
12.67429072119647
 20
-10.260721235286
 30
0.0
 10
12.73086568636479
 20
-10.44626462156813
 30
0.0
 10
12.74803399215493
 20
-10.55614078497286
 30
0.0
 10
12.75163319740259
 20
-10.79225096143695
 30
0.0
 10
12.73806993948381
 20
-10.92090501223913
 30
0.0
 10
12.68670841969952
 20
-11.17161468255935
 30
0.0
 10
12.64969993892521
 20
-11.29381148541116
 30
0.0
 10
12.60540931107558
 20
-11.41069337006344
 30
0.0
  0
SPLINE
  5
2E0
330
1F
100
AcDbEntity
  8
SK3
  6
SLD-Dashed
370
    18
100
AcDbSpline
210
0.0
220
0.0
230
1.0
 70
     8
 71
     3
 72
    26
 73
    22
 74
     0
 42
0.000000001
 43
0.00000001
 40
0.0
 40
0.0
 40
0.0
 40
0.0
 40
0.0625
 40
0.0625
 40
0.1249999999999999
 40
0.1249999999999999
 40
0.1874999999999999
 40
0.1874999999999999
 40
0.2499999999999999
 40
0.2499999999999999
 40
0.2812499999999999
 40
0.2812499999999999
 40
0.3124999999999999
 40
0.3124999999999999
 40
0.375
 40
0.375
 40
0.4375
 40
0.4375
 40
0.4687499999999997
 40
0.4687499999999997
 40
0.4999999999999994
 40
0.4999999999999994
 40
0.4999999999999994
 40
0.4999999999999994
 10
12.60540931107558
 20
-11.41069337006344
 30
0.0
 10
12.51682805537631
 20
-11.64445713936801
 30
0.0
 10
12.40700682775375
 20
-11.84379887230959
 30
0.0
 10
12.15919932759159
 20
-12.2083814192953
 30
0.0
 10
12.02334522926916
 20
-12.36787129268407
 30
0.0
 10
11.72814013646127
 20
-12.64497254527587
 30
0.0
 10
11.56591385222426
 20
-12.76526488716912
 30
0.0
 10
11.20504729019511
 20
-12.94565160909029
 30
0.0
 10
11.00228334192552
 20
-13.00667563690432
 30
0.0
 10
10.67487000905187
 20
-13.00970724342621
 30
0.0
 10
10.56031472788943
 20
-12.99521337121302
 30
0.0
 10
10.33896153134628
 20
-12.93268343776061
 30
0.0
 10
10.22949961952684
 20
-12.88426424546109
 30
0.0
 10
9.922578697971307
 20
-12.69271892030072
 30
0.0
 10
9.751646578307197
 20
-12.50669770943282
 30
0.0
 10
9.517451961566184
 20
-12.08001761115036
 30
0.0
 10
9.45361205537791
 20
-11.83904370818366
 30
0.0
 10
9.448421112414271
 20
-11.47889250871112
 30
0.0
 10
9.461345898652635
 20
-11.36073091682664
 30
0.0
 10
9.516390615621026
 20
-11.12782882024474
 30
0.0
 10
9.558730323587117
 20
-11.01402847808588
 30
0.0
 10
9.613805742161711
 20
-10.90716232481947
 30
0.0
  0
SPLINE
  5
2E1
330
1F
100
AcDbEntity
  8
SK3
  6
SLD-Dashed
370
    18
100
AcDbSpline
210
0.0
220
0.0
230
1.0
 70
     8
 71
     3
 72
    34
 73
    30
 74
     0
 42
0.000000001
 43
0.00000001
 40
0.5000000000000074
 40
0.5000000000000074
 40
0.5000000000000074
 40
0.5000000000000074
 40
0.5312500000000079
 40
0.5312500000000079
 40
0.5625000000000083
 40
0.5625000000000083
 40
0.6250000000000069
 40
0.6250000000000069
 40
0.6562500000000061
 40
0.6562500000000061
 40
0.6875000000000053
 40
0.6875000000000053
 40
0.7187500000000046
 40
0.7187500000000046
 40
0.7500000000000038
 40
0.7500000000000038
 40
0.7812500000000031
 40
0.7812500000000031
 40
0.8125000000000023
 40
0.8125000000000023
 40
0.8437500000000016
 40
0.8437500000000016
 40
0.8750000000000008
 40
0.8750000000000008
 40
0.90625
 40
0.90625
 40
0.9374999999999993
 40
0.9374999999999993
 40
1.0
 40
1.0
 40
1.0
 40
1.0
 10
87.00089816399809
 20
-25.75268011249113
 30
0.0
 10
86.83772937525674
 20
-25.75263599862132
 30
0.0
 10
86.67553435134501
 20
-25.76450470136142
 30
0.0
 10
86.35313329797195
 20
-25.81249668377105
 30
0.0
 10
86.19513171898485
 20
-25.84852318115076
 30
0.0
 10
85.74372059405741
 20
-25.98834945011557
 30
0.0
 10
85.46465849751739
 20
-26.12733738316366
 30
0.0
 10
85.1185884283207
 20
-26.38266523604354
 30
0.0
 10
85.01294653898428
 20
-26.47725006389972
 30
0.0
 10
84.8311763807586
 20
-26.67624246067133
 30
0.0
 10
84.75428712039454
 20
-26.78082843132339
 30
0.0
 10
84.62862360277049
 20
-26.99988202840184
 30
0.0
 10
84.58031753853324
 20
-27.11439522428203
 30
0.0
 10
84.51649674849213
 20
-27.34321139290279
 30
0.0
 10
84.50016528087347
 20
-27.45874572003431
 30
0.0
 10
84.49983719107895
 20
-27.69206745559618
 30
0.0
 10
84.5159334028228
 20
-27.80659112109249
 30
0.0
 10
84.57916645601001
 20
-28.02974587591044
 30
0.0
 10
84.62701315700122
 20
-28.13977601777572
 30
0.0
 10
84.75235124131619
 20
-28.34888220597148
 30
0.0
 10
84.82904614286652
 20
-28.44735156378858
 30
0.0
 10
85.01010506422233
 20
-28.63264933472787
 30
0.0
 10
85.11557654487581
 20
-28.71994717502364
 30
0.0
 10
85.34608346385455
 20
-28.87579771659609
 30
0.0
 10
85.47179937220878
 20
-28.94533017252461
 30
0.0
 10
85.74458403949642
 20
-29.06770775703296
 30
0.0
 10
85.89027432936153
 20
-29.11966759992642
 30
0.0
 10
86.34133502320557
 20
-29.24435176501542
 30
0.0
 10
86.66958509651543
 20
-29.28821389701131
 30
0.0
 10
87.00000000000003
 20
-29.28821389701131
 30
0.0
  0
SPLINE
  5
2E2
330
1F
100
AcDbEntity
  8
SK3
  6
SLD-Dashed
370
    18
100
AcDbSpline
210
0.0
220
0.0
230
1.0
 70
     8
 71
     3
 72
    38
 73
    34
 74
     0
 42
0.000000001
 43
0.00000001
 40
0.0
 40
0.0
 40
0.0
 40
0.0
 40
0.0312500000000005
 40
0.0312500000000005
 40
0.0625000000000009
 40
0.0625000000000009
 40
0.0937500000000014
 40
0.0937500000000014
 40
0.1250000000000019
 40
0.1250000000000019
 40
0.1562500000000023
 40
0.1562500000000023
 40
0.1875000000000028
 40
0.1875000000000028
 40
0.2187500000000032
 40
0.2187500000000032
 40
0.2500000000000037
 40
0.2500000000000037
 40
0.2812500000000042
 40
0.2812500000000042
 40
0.3125000000000047
 40
0.3125000000000047
 40
0.3437500000000051
 40
0.3437500000000051
 40
0.3750000000000056
 40
0.3750000000000056
 40
0.4062500000000061
 40
0.4062500000000061
 40
0.4375000000000065
 40
0.4375000000000065
 40
0.468750000000007
 40
0.468750000000007
 40
0.5000000000000074
 40
0.5000000000000074
 40
0.5000000000000074
 40
0.5000000000000074
 10
87.00000000000003
 20
-29.2882138970113
 30
0.0
 10
87.16520745174233
 20
-29.28821389701131
 30
0.0
 10
87.32764568993981
 20
-29.27749146710912
 30
0.0
 10
87.64721284402196
 20
-29.23540181562993
 30
0.0
 10
87.80600012936083
 20
-29.20352062642733
 30
0.0
 10
88.10873466230709
 20
-29.12004428156744
 30
0.0
 10
88.25231111495138
 20
-29.06886323702535
 30
0.0
 10
88.52403566158759
 20
-28.94742982809724
 30
0.0
 10
88.65265667322211
 20
-28.87653737634371
 30
0.0
 10
88.88321123009757
 20
-28.72087774893208
 30
0.0
 10
88.98668272079918
 20
-28.63557952929752
 30
0.0
 10
89.16944343572695
 20
-28.44924544462711
 30
0.0
 10
89.24708361304792
 20
-28.34954467416853
 30
0.0
 10
89.37177846651917
 20
-28.14206841834185
 30
0.0
 10
89.41978650922941
 20
-28.0327626900756
 30
0.0
 10
89.48402098287814
 20
-27.80741888500647
 30
0.0
 10
89.49991200579952
 20
-27.69342900669673
 30
0.0
 10
89.50008727234702
 20
-27.46279970031637
 30
0.0
 10
89.48385483386676
 20
-27.34492142373097
 30
0.0
 10
89.42007050431391
 20
-27.11534213831019
 30
0.0
 10
89.37287621991466
 20
-27.00305604358553
 30
0.0
 10
89.24770232298978
 20
-26.78375217046048
 30
0.0
 10
89.16944544104314
 20
-26.67708219764733
 30
0.0
 10
88.98852910811519
 20
-26.47870835714796
 30
0.0
 10
88.88524498581904
 20
-26.38574042410307
 30
0.0
 10
88.65198803860497
 20
-26.21315674265444
 30
0.0
 10
88.5255968615955
 20
-26.13623439109481
 30
0.0
 10
88.25493182035845
 20
-26.00134157783266
 30
0.0
 10
88.10884339026536
 20
-25.94279947946434
 30
0.0
 10
87.80597292294526
 20
-25.84874807976834
 30
0.0
 10
87.6501430885378
 20
-25.81320617230164
 30
0.0
 10
87.32978263947031
 20
-25.76508027511675
 30
0.0
 10
87.16406695273943
 20
-25.75272422636095
 30
0.0
 10
87.00089816399809
 20
-25.75268011249113
 30
0.0
  0
SPLINE
  5
2E3
330
1F
100
AcDbEntity
  8
SK3
  6
SLD-Dashed
370
    18
100
AcDbSpline
210
0.0
220
0.0
230
1.0
 70
    24
 71
     2
 72
     6
 73
     3
 74
     0
 42
0.000000001
 43
0.00000001
 40
0.0
 40
0.0
 40
0.0
 40
0.2499999999999999
 40
0.2499999999999999
 40
0.2499999999999999
 10
3.000000000000003
 20
-35.29999999999999
 30
0.0
 10
2.991678313258042
 20
-35.29999999999999
 30
0.0
 10
2.98486946722433
 20
-35.29999999999999
 30
0.0
  0
SPLINE
  5
2E4
330
1F
100
AcDbEntity
  8
SK3
  6
SLD-Dashed
370
    18
100
AcDbSpline
210
0.0
220
0.0
230
1.0
 70
    24
 71
     2
 72
     6
 73
     3
 74
     0
 42
0.000000001
 43
0.00000001
 40
0.7499999999999999
 40
0.7499999999999999
 40
0.7499999999999999
 40
1.0
 40
1.0
 40
1.0
 10
2.98486946722433
 20
-35.29999999999999
 30
0.0
 10
2.991678729951319
 20
-35.29999999999999
 30
0.0
 10
3.000000000000003
 20
-35.29999999999999
 30
0.0
  0
SPLINE
  5
2E5
330
1F
100
AcDbEntity
  8
1
  6
SLD-Dashed
370
    18
100
AcDbSpline
210
0.0
220
0.0
230
1.0
 70
    24
 71
     2
 72
     6
 73
     3
 74
     0
 42
0.000000001
 43
0.00000001
 40
0.0
 40
0.0
 40
0.0
 40
0.2499999999999999
 40
0.2499999999999999
 40
0.2499999999999999
 10
3.000000000000003
 20
35.3
 30
0.0
 10
2.991678313258042
 20
35.3
 30
0.0
 10
2.98486946722433
 20
35.3
 30
0.0
  0
SPLINE
  5
2E6
330
1F
100
AcDbEntity
  8
1
  6
SLD-Dashed
370
    18
100
AcDbSpline
210
0.0
220
0.0
230
1.0
 70
    24
 71
     2
 72
     6
 73
     3
 74
     0
 42
0.000000001
 43
0.00000001
 40
0.7499999999999999
 40
0.7499999999999999
 40
0.7499999999999999
 40
1.0
 40
1.0
 40
1.0
 10
2.98486946722433
 20
35.3
 30
0.0
 10
2.991678729951319
 20
35.3
 30
0.0
 10
3.000000000000003
 20
35.3
 30
0.0
  0
SPLINE
  5
2E7
330
1F
100
AcDbEntity
  8
SK3
  6
SLD-Dashed
370
    18
100
AcDbSpline
210
0.0
220
0.0
230
1.0
 70
     8
 71
     3
 72
    28
 73
    24
 74
     0
 42
0.000000001
 43
0.00000001
 40
0.4999999999999972
 40
0.4999999999999972
 40
0.4999999999999972
 40
0.4999999999999972
 40
0.5624999999999976
 40
0.5624999999999976
 40
0.6249999999999978
 40
0.6249999999999978
 40
0.656249999999998
 40
0.656249999999998
 40
0.6874999999999982
 40
0.6874999999999982
 40
0.7499999999999986
 40
0.7499999999999986
 40
0.7812499999999987
 40
0.7812499999999987
 40
0.8124999999999988
 40
0.8124999999999988
 40
0.8437499999999989
 40
0.8437499999999989
 40
0.8749999999999989
 40
0.8749999999999989
 40
0.9374999999999994
 40
0.9374999999999994
 40
1.0
 40
1.0
 40
1.0
 40
1.0
 10
11.0993600537384
 20
-5.097086583382697
 30
0.0
 10
11.31488562047077
 20
-5.097160583832736
 30
0.0
 10
11.53232167442222
 20
-5.058927670124218
 30
0.0
 10
11.92960566062909
 20
-4.912677242283781
 30
0.0
 10
12.11338916186498
 20
-4.803297967249355
 30
0.0
 10
12.34174817482667
 20
-4.597838458596355
 30
0.0
 10
12.41142359557634
 20
-4.521151198634998
 30
0.0
 10
12.53113473401267
 20
-4.358419513695207
 30
0.0
 10
12.5819193073098
 20
-4.271935060808605
 30
0.0
 10
12.70662372652385
 20
-3.996380017332012
 30
0.0
 10
12.74981888810718
 20
-3.797425146083694
 30
0.0
 10
12.75008970785607
 20
-3.49002998761351
 30
0.0
 10
12.7394746351789
 20
-3.388630582932664
 30
0.0
 10
12.69763839499744
 20
-3.187941017992253
 30
0.0
 10
12.66587299470583
 20
-3.087576006019451
 30
0.0
 10
12.58323811087248
 20
-2.895868188771675
 30
0.0
 10
12.53264216253898
 20
-2.804381628702959
 30
0.0
 10
12.41295046640882
 20
-2.630333473030516
 30
0.0
 10
12.34349706837069
 20
-2.547796395584605
 30
0.0
 10
12.11584013457034
 20
-2.324831507384183
 30
0.0
 10
11.93210187850989
 20
-2.203317580297841
 30
0.0
 10
11.53529580374733
 20
-2.039937583109504
 30
0.0
 10
11.3183767043404
 20
-1.996101044651623
 30
0.0
 10
11.10000000000001
 20
-1.996101044651616
 30
0.0
  0
SPLINE
  5
2E8
330
1F
100
AcDbEntity
  8
SK3
  6
SLD-Dashed
370
    18
100
AcDbSpline
210
0.0
220
0.0
230
1.0
 70
     8
 71
     3
 72
    32
 73
    28
 74
     0
 42
0.000000001
 43
0.00000001
 40
0.0
 40
0.0
 40
0.0
 40
0.0
 40
0.0312499999999998
 40
0.0312499999999998
 40
0.0624999999999995
 40
0.0624999999999995
 40
0.0937499999999993
 40
0.0937499999999993
 40
0.1249999999999991
 40
0.1249999999999991
 40
0.1874999999999987
 40
0.1874999999999987
 40
0.2499999999999983
 40
0.2499999999999983
 40
0.2812499999999981
 40
0.2812499999999981
 40
0.3124999999999978
 40
0.3124999999999978
 40
0.3749999999999976
 40
0.3749999999999976
 40
0.4062499999999975
 40
0.4062499999999975
 40
0.4374999999999974
 40
0.4374999999999974
 40
0.4687499999999973
 40
0.4687499999999973
 40
0.4999999999999972
 40
0.4999999999999972
 40
0.4999999999999972
 40
0.4999999999999972
 10
11.10000000000001
 20
-1.996101044651623
 30
0.0
 10
10.99081164782979
 20
-1.996101044651623
 30
0.0
 10
10.88348229007881
 20
-2.006774489306203
 30
0.0
 10
10.67237880135693
 20
-2.048496370893514
 30
0.0
 10
10.56749811499481
 20
-2.080062202259196
 30
0.0
 10
10.36776793872453
 20
-2.162097541962005
 30
0.0
 10
10.27306530291032
 20
-2.212190897345354
 30
0.0
 10
10.09383723733681
 20
-2.330096968954781
 30
0.0
 10
10.00911032775668
 20
-2.39842909289742
 30
0.0
 10
9.781209980126771
 20
-2.621349293016287
 30
0.0
 10
9.65832814379236
 20
-2.799888215129324
 30
0.0
 10
9.49363355565333
 20
-3.181070070677333
 30
0.0
 10
9.45012298194614
 20
-3.387740235847328
 30
0.0
 10
9.449938909992795
 20
-3.691623257817307
 30
0.0
 10
9.46068950077232
 20
-3.793949374151777
 30
0.0
 10
9.502853799000954
 20
-3.990698923252392
 30
0.0
 10
9.534048982658208
 20
-4.085797326516621
 30
0.0
 10
9.658206297152777
 20
-4.361493222071064
 30
0.0
 10
9.779247454552678
 20
-4.526400962507345
 30
0.0
 10
10.00974287902696
 20
-4.734313476061493
 30
0.0
 10
10.09288081798106
 20
-4.795456382091758
 30
0.0
 10
10.27137949850369
 20
-4.902358398560354
 30
0.0
 10
10.36791317519604
 20
-4.948485047428362
 30
0.0
 10
10.56752114107808
 20
-5.022147421466512
 30
0.0
 10
10.67036195960278
 20
-5.049894805337115
 30
0.0
 10
10.88212812463579
 20
-5.087454485186376
 30
0.0
 10
10.99159727037222
 20
-5.097049583157681
 30
0.0
 10
11.0993600537384
 20
-5.097086583382697
 30
0.0
  0
SPLINE
  5
2E9
330
1F
100
AcDbEntity
  8
SK3
  6
SLD-Dashed
370
    18
100
AcDbSpline
210
0.0
220
0.0
230
1.0
 70
    24
 71
     2
 72
     6
 73
     3
 74
     0
 42
0.000000001
 43
0.00000001
 40
0.0
 40
0.0
 40
0.0
 40
0.124999999999999
 40
0.124999999999999
 40
0.124999999999999
 10
3.750000000000031
 20
-35.3
 30
0.0
 10
3.736967821211412
 20
-35.3
 30
0.0
 10
3.71660496932702
 20
-35.29999999999999
 30
0.0
  0
SPLINE
  5
2EA
330
1F
100
AcDbEntity
  8
SK3
  6
SLD-Dashed
370
    18
100
AcDbSpline
210
0.0
220
0.0
230
1.0
 70
    24
 71
     3
 72
     8
 73
     4
 74
     0
 42
0.000000001
 43
0.00000001
 40
0.124999999999999
 40
0.124999999999999
 40
0.124999999999999
 40
0.124999999999999
 40
0.249999999999998
 40
0.249999999999998
 40
0.249999999999998
 40
0.249999999999998
 10
3.716604969327034
 20
-35.29999999999999
 30
0.0
 10
3.696242117442669
 20
-35.29999999999999
 30
0.0
 10
3.669519274943259
 20
-35.29999999999999
 30
0.0
 10
3.640137676434146
 20
-35.29999999999999
 30
0.0
  0
SPLINE
  5
2EB
330
1F
100
AcDbEntity
  8
SK3
  6
SLD-Dashed
370
    18
100
AcDbSpline
210
0.0
220
0.0
230
1.0
 70
    24
 71
     3
 72
     8
 73
     4
 74
     0
 42
0.000000001
 43
0.00000001
 40
0.249999999999998
 40
0.249999999999998
 40
0.249999999999998
 40
0.249999999999998
 40
0.4999999999999989
 40
0.4999999999999989
 40
0.4999999999999989
 40
0.4999999999999989
 10
3.640137676434146
 20
-35.29999999999999
 30
0.0
 10
3.58137447941595
 20
-35.29999999999999
 30
0.0
 10
3.512332936533719
 20
-35.29999999999999
 30
0.0
 10
3.441834254914983
 20
-35.29999999999998
 30
0.0
  0
SPLINE
  5
2EC
330
1F
100
AcDbEntity
  8
SK3
  6
SLD-Dashed
370
    18
100
AcDbSpline
210
0.0
220
0.0
230
1.0
 70
    24
 71
     3
 72
     8
 73
     4
 74
     0
 42
0.000000001
 43
0.00000001
 40
0.4999999999999989
 40
0.4999999999999989
 40
0.4999999999999989
 40
0.4999999999999989
 40
1.0
 40
1.0
 40
1.0
 40
1.0
 10
3.441834254914983
 20
-35.29999999999998
 30
0.0
 10
3.300836891677525
 20
-35.29999999999999
 30
0.0
 10
3.150896944932563
 20
-35.29999999999999
 30
0.0
 10
3.000000000000016
 20
-35.29999999999999
 30
0.0
  0
SPLINE
  5
2ED
330
1F
100
AcDbEntity
  8
1
  6
SLD-Dashed
370
    18
100
AcDbSpline
210
0.0
220
0.0
230
1.0
 70
     8
 71
     3
 72
    10
 73
     6
 74
     0
 42
0.000000001
 43
0.00000001
 40
0.0
 40
0.0
 40
0.0
 40
0.0
 40
0.5
 40
0.5
 40
1.0
 40
1.0
 40
1.0
 40
1.0
 10
26.70500000000104
 20
-41.20578418135099
 30
0.0
 10
26.70500000000068
 20
-41.0972683224098
 30
0.0
 10
26.66092467021609
 20
-40.99144228921185
 30
0.0
 10
26.52433049195496
 20
-40.83520812885388
 30
0.0
 10
26.43081087715118
 20
-40.78194095045735
 30
0.0
 10
26.32999999999999
 20
-40.77024527765314
 30
0.0
  0
SPLINE
  5
2EE
330
1F
100
AcDbEntity
  8
1
  6
SLD-Dashed
370
    18
100
AcDbSpline
210
0.0
220
0.0
230
1.0
 70
     8
 71
     3
 72
    10
 73
     6
 74
     0
 42
0.000000001
 43
0.00000001
 40
0.0
 40
0.0
 40
0.0
 40
0.0
 40
0.5
 40
0.5
 40
1.0
 40
1.0
 40
1.0
 40
1.0
 10
26.32999999999999
 20
-40.77024527765314
 30
0.0
 10
25.57238485928232
 20
-40.68234981391016
 30
0.0
 10
24.79922683720337
 20
-40.61349445459273
 30
0.0
 10
23.22275585238484
 20
-40.51980029582822
 30
0.0
 10
22.41944729352555
 20
-40.49493795525558
 30
0.0
 10
21.60000000000001
 20
-40.49493795525557
 30
0.0
  0
SPLINE
  5
2EF
330
1F
100
AcDbEntity
  8
1
  6
SLD-Dashed
370
    18
100
AcDbSpline
210
0.0
220
0.0
230
1.0
 70
     8
 71
     3
 72
    10
 73
     6
 74
     0
 42
0.000000001
 43
0.00000001
 40
0.0
 40
0.0
 40
0.0
 40
0.0
 40
0.5
 40
0.5
 40
1.0
 40
1.0
 40
1.0
 40
1.0
 10
30.23243614931819
 20
-48.17236247754364
 30
0.0
 10
29.6659573181299
 20
-47.07044218511685
 30
0.0
 10
29.08730088401428
 20
-45.94697720975023
 30
0.0
 10
27.91047592760815
 20
-43.66801754591749
 30
0.0
 10
27.31223561300114
 20
-42.51237097117829
 30
0.0
 10
26.70500000000001
 20
-41.34329896850786
 30
0.0
  0
SPLINE
  5
2F0
330
1F
100
AcDbEntity
  8
1
  6
SLD-Dashed
370
    18
100
AcDbSpline
210
0.0
220
0.0
230
1.0
 70
     8
 71
     3
 72
    10
 73
     6
 74
     0
 42
0.000000001
 43
0.00000001
 40
0.0
 40
0.0
 40
0.0
 40
0.0
 40
0.5
 40
0.5
 40
1.0
 40
1.0
 40
1.0
 40
1.0
 10
26.32999999999999
 20
40.77024527765315
 30
0.0
 10
25.57238485928232
 20
40.68234981391017
 30
0.0
 10
24.79922683720337
 20
40.61349445459275
 30
0.0
 10
23.22275585238484
 20
40.51980029582823
 30
0.0
 10
22.41944729352558
 20
40.49493795525557
 30
0.0
 10
21.60000000000001
 20
40.49493795525557
 30
0.0
  0
SPLINE
  5
2F1
330
1F
100
AcDbEntity
  8
1
  6
SLD-Dashed
370
    18
100
AcDbSpline
210
0.0
220
0.0
230
1.0
 70
     8
 71
     3
 72
    10
 73
     6
 74
     0
 42
0.000000001
 43
0.00000001
 40
0.0
 40
0.0
 40
0.0
 40
0.0
 40
0.5
 40
0.5
 40
1.0
 40
1.0
 40
1.0
 40
1.0
 10
26.70500000000105
 20
41.20578418135103
 30
0.0
 10
26.70500000000069
 20
41.09726832240985
 30
0.0
 10
26.6609246702161
 20
40.99144228921187
 30
0.0
 10
26.52433049195496
 20
40.83520812885392
 30
0.0
 10
26.43081087715121
 20
40.78194095045739
 30
0.0
 10
26.32999999999999
 20
40.77024527765315
 30
0.0
  0
SPLINE
  5
2F2
330
1F
100
AcDbEntity
  8
1
  6
SLD-Dashed
370
    18
100
AcDbSpline
210
0.0
220
0.0
230
1.0
 70
     8
 71
     3
 72
    10
 73
     6
 74
     0
 42
0.000000001
 43
0.00000001
 40
0.0
 40
0.0
 40
0.0
 40
0.0
 40
0.5
 40
0.5
 40
1.0
 40
1.0
 40
1.0
 40
1.0
 10
30.23243616739898
 20
48.17236251429156
 30
0.0
 10
29.66595733348551
 20
47.07044221625963
 30
0.0
 10
29.08730089646233
 20
45.94697723494393
 30
0.0
 10
27.91047593400453
 20
43.66801755880312
 30
0.0
 10
27.31223561625065
 20
42.51237097769899
 30
0.0
 10
26.70500000000001
 20
41.34329896850787
 30
0.0
  0
SPLINE
  5
2F3
330
1F
100
AcDbEntity
  8
SK3
  6
SLD-Dashed
370
    18
100
AcDbSpline
210
0.0
220
0.0
230
1.0
 70
     8
 71
     3
 72
    28
 73
    24
 74
     0
 42
0.000000001
 43
0.00000001
 40
0.4999999999999964
 40
0.4999999999999964
 40
0.4999999999999964
 40
0.4999999999999964
 40
0.5624999999999968
 40
0.5624999999999968
 40
0.6249999999999971
 40
0.6249999999999971
 40
0.6562499999999974
 40
0.6562499999999974
 40
0.6874999999999978
 40
0.6874999999999978
 40
0.7499999999999981
 40
0.7499999999999981
 40
0.7812499999999984
 40
0.7812499999999984
 40
0.8124999999999987
 40
0.8124999999999987
 40
0.843749999999999
 40
0.843749999999999
 40
0.8749999999999992
 40
0.8749999999999992
 40
0.9374999999999997
 40
0.9374999999999997
 40
1.0
 40
1.0
 40
1.0
 40
1.0
 10
11.10063994626162
 20
1.996101168021618
 30
0.0
 10
10.88511437952924
 20
1.99601806918874
 30
0.0
 10
10.66767832557776
 20
2.039126344320012
 30
0.0
 10
10.27039433937091
 20
2.201882125499405
 30
0.0
 10
10.08661083813502
 20
2.322930192641515
 30
0.0
 10
9.858251825173332
 20
2.545838823969151
 30
0.0
 10
9.788576404423669
 20
2.628421736312995
 30
0.0
 10
9.668865265987343
 20
2.801888809725734
 30
0.0
 10
9.618080692690183
 20
2.893265101092023
 30
0.0
 10
9.493376273476157
 20
3.181219677072446
 30
0.0
 10
9.45018111189283
 20
3.384978395674115
 30
0.0
 10
9.449910292143926
 20
3.69240266510322
 30
0.0
 10
9.460525364821116
 20
3.792650637691103
 30
0.0
 10
9.502361605002562
 20
3.988926781036545
 30
0.0
 10
9.534127005294199
 20
4.085974642666648
 30
0.0
 10
9.616761889127536
 20
4.269460320685855
 30
0.0
 10
9.667357837461033
 20
4.356067786520278
 30
0.0
 10
9.787049533591205
 20
4.519370626251816
 30
0.0
 10
9.856502931629318
 20
4.596024389578346
 30
0.0
 10
10.08415986542965
 20
4.801564579329655
 30
0.0
 10
10.26789812149012
 20
4.911381338388268
 30
0.0
 10
10.66470419625268
 20
5.058204639393632
 30
0.0
 10
10.88162329565962
 20
5.09708669324508
 30
0.0
 10
11.10000000000001
 20
5.09708669324508
 30
0.0
  0
SPLINE
  5
2F4
330
1F
100
AcDbEntity
  8
SK3
  6
SLD-Dashed
370
    18
100
AcDbSpline
210
0.0
220
0.0
230
1.0
 70
     8
 71
     3
 72
    32
 73
    28
 74
     0
 42
0.000000001
 43
0.00000001
 40
0.0
 40
0.0
 40
0.0
 40
0.0
 40
0.0312499999999997
 40
0.0312499999999997
 40
0.0624999999999995
 40
0.0624999999999995
 40
0.0937499999999992
 40
0.0937499999999992
 40
0.1249999999999989
 40
0.1249999999999989
 40
0.1874999999999984
 40
0.1874999999999984
 40
0.2499999999999979
 40
0.2499999999999979
 40
0.2812499999999976
 40
0.2812499999999976
 40
0.3124999999999973
 40
0.3124999999999973
 40
0.3749999999999968
 40
0.3749999999999968
 40
0.4062499999999967
 40
0.4062499999999967
 40
0.4374999999999966
 40
0.4374999999999966
 40
0.4687499999999965
 40
0.4687499999999965
 40
0.4999999999999964
 40
0.4999999999999964
 40
0.4999999999999964
 40
0.4999999999999964
 10
11.10000000000001
 20
5.09708669324508
 30
0.0
 10
11.20918835217019
 20
5.09708669324508
 30
0.0
 10
11.3165177099212
 20
5.087592280637251
 30
0.0
 10
11.52762119864308
 20
5.050353282823162
 30
0.0
 10
11.6325018850052
 20
5.022144718194656
 30
0.0
 10
11.83223206127548
 20
4.948425651004243
 30
0.0
 10
11.92693469708966
 20
4.903253657614008
 30
0.0
 10
12.10616276266317
 20
4.796141864208021
 30
0.0
 10
12.19088967224333
 20
4.733714962607355
 30
0.0
 10
12.41879001987324
 20
4.528226954003664
 30
0.0
 10
12.54167185620765
 20
4.361307298992652
 30
0.0
 10
12.70636644434667
 20
3.996506848037401
 30
0.0
 10
12.74987701805389
 20
3.794669554412905
 30
0.0
 10
12.7500610900072
 20
3.490806318710508
 30
0.0
 10
12.73931049922769
 20
3.387314094537936
 30
0.0
 10
12.69714620099906
 20
3.186117396486707
 30
0.0
 10
12.6659510173418
 20
3.087761111022082
 30
0.0
 10
12.54179370284721
 20
2.799711533441551
 30
0.0
 10
12.42075254544735
 20
2.623327713085835
 30
0.0
 10
12.19025712097305
 20
2.39778104086813
 30
0.0
 10
12.10711918201893
 20
2.330847797333869
 30
0.0
 10
11.92862050149632
 20
2.213180055808422
 30
0.0
 10
11.83208682480397
 20
2.162031547661529
 30
0.0
 10
11.63247885892194
 20
2.080059091289742
 30
0.0
 10
11.52963804039721
 20
2.049009526200372
 30
0.0
 10
11.31787187536422
 20
2.006929379023199
 30
0.0
 10
11.20840272962779
 20
1.99614271743806
 30
0.0
 10
11.10063994626162
 20
1.996101168021618
 30
0.0
  0
SPLINE
  5
2F5
330
1F
100
AcDbEntity
  8
SK3
  6
SLD-Dashed
370
    18
100
AcDbSpline
210
0.0
220
0.0
230
1.0
 70
     8
 71
     3
 72
    34
 73
    30
 74
     0
 42
0.000000001
 43
0.00000001
 40
0.4999999999999876
 40
0.4999999999999876
 40
0.4999999999999876
 40
0.4999999999999876
 40
0.5624999999999877
 40
0.5624999999999877
 40
0.5937499999999891
 40
0.5937499999999891
 40
0.6249999999999906
 40
0.6249999999999906
 40
0.656249999999992
 40
0.656249999999992
 40
0.6874999999999934
 40
0.6874999999999934
 40
0.7187499999999949
 40
0.7187499999999949
 40
0.7499999999999962
 40
0.7499999999999962
 40
0.7812499999999977
 40
0.7812499999999977
 40
0.8124999999999991
 40
0.8124999999999991
 40
0.8750000000000009
 40
0.8750000000000009
 40
0.9062500000000007
 40
0.9062500000000007
 40
0.9375000000000004
 40
0.9375000000000004
 40
0.9687500000000002
 40
0.9687500000000002
 40
1.0
 40
1.0
 40
1.0
 40
1.0
 10
87.00086547247865
 20
6.157629959690339
 30
0.0
 10
86.73898172326561
 20
6.157686202354788
 30
0.0
 10
86.47453465677584
 20
6.131884394623991
 30
0.0
 10
86.11296002623357
 20
6.054820983573676
 30
0.0
 10
85.99591909619068
 20
6.022203307657993
 30
0.0
 10
85.77932394714702
 20
5.94475748521825
 30
0.0
 10
85.67905789733521
 20
5.899948256202332
 30
0.0
 10
85.49441691059533
 20
5.796478088308701
 30
0.0
 10
85.41067062605882
 20
5.737866002512228
 30
0.0
 10
85.26617459074245
 20
5.609921711260825
 30
0.0
 10
85.20440237236542
 20
5.540079139837867
 30
0.0
 10
85.10284381877675
 20
5.386644808699124
 30
0.0
 10
85.0647698325529
 20
5.30558312032283
 30
0.0
 10
85.01336197861808
 20
5.134573342815932
 30
0.0
 10
85.0000464031421
 20
5.043469702953093
 30
0.0
 10
84.99995384324937
 20
4.857017940435575
 30
0.0
 10
85.01282088750442
 20
4.762265349870523
 30
0.0
 10
85.06404550997526
 20
4.570011986679217
 30
0.0
 10
85.10291329440444
 20
4.472111174404235
 30
0.0
 10
85.25311677514566
 20
4.188202378616966
 30
0.0
 10
85.40186517727614
 20
4.004679457425713
 30
0.0
 10
85.67685574056888
 20
3.769940625466074
 30
0.0
 10
85.77868031306024
 20
3.697085827320048
 30
0.0
 10
85.995815277222
 20
3.569154438452717
 30
0.0
 10
86.11030395711377
 20
3.514267898975423
 30
0.0
 10
86.35128397130532
 20
3.423859355451753
 30
0.0
 10
86.47893235870677
 20
3.388313174077451
 30
0.0
 10
86.7363438142765
 20
3.341269175543851
 30
0.0
 10
86.8671222634046
 20
3.329202927879416
 30
0.0
 10
87.0
 20
3.329202927879416
 30
0.0
  0
SPLINE
  5
2F6
330
1F
100
AcDbEntity
  8
SK3
  6
SLD-Dashed
370
    18
100
AcDbSpline
210
0.0
220
0.0
230
1.0
 70
     8
 71
     3
 72
    34
 73
    30
 74
     0
 42
0.000000001
 43
0.00000001
 40
0.0
 40
0.0
 40
0.0
 40
0.0
 40
0.0312500000000008
 40
0.0312500000000008
 40
0.0625000000000015
 40
0.0625000000000015
 40
0.0937500000000023
 40
0.0937500000000023
 40
0.1250000000000031
 40
0.1250000000000031
 40
0.1875000000000022
 40
0.1875000000000022
 40
0.2187500000000011
 40
0.2187500000000011
 40
0.2499999999999999
 40
0.2499999999999999
 40
0.2812499999999988
 40
0.2812499999999988
 40
0.3124999999999977
 40
0.3124999999999977
 40
0.3749999999999943
 40
0.3749999999999943
 40
0.4062499999999926
 40
0.4062499999999926
 40
0.437499999999991
 40
0.437499999999991
 40
0.4687499999999893
 40
0.4687499999999893
 40
0.4999999999999876
 40
0.4999999999999876
 40
0.4999999999999876
 40
0.4999999999999876
 10
87.0
 20
3.329202927879416
 30
0.0
 10
87.13287773659536
 20
3.329202927879423
 30
0.0
 10
87.26338835847949
 20
3.341264004975676
 30
0.0
 10
87.51991677029456
 20
3.388059307657919
 30
0.0
 10
87.6472973119222
 20
3.423393915846548
 30
0.0
 10
87.8891232656587
 20
3.513986737262338
 30
0.0
 10
88.00370758982764
 20
3.568921369755978
 30
0.0
 10
88.22056464993203
 20
3.696593199456977
 30
0.0
 10
88.322659806017
 20
3.769571908802019
 30
0.0
 10
88.5977733066817
 20
4.004281532886483
 30
0.0
 10
88.7465609146314
 20
4.18787822611548
 30
0.0
 10
88.89657562631143
 20
4.471003575842368
 30
0.0
 10
88.93537613260219
 20
4.568281767026463
 30
0.0
 10
88.98704267358887
 20
4.761318901532557
 30
0.0
 10
88.99991507200103
 20
4.856034756511571
 30
0.0
 10
89.00008409834706
 20
5.041638307955447
 30
0.0
 10
88.98692903604142
 20
5.133223192269797
 30
0.0
 10
88.93557309094449
 20
5.304819778387905
 30
0.0
 10
88.8975826975813
 20
5.385766413493094
 30
0.0
 10
88.74620941542108
 20
5.615157561445088
 30
0.0
 10
88.59886575484133
 20
5.744073455790283
 30
0.0
 10
88.32163402393708
 20
5.899625281290274
 30
0.0
 10
88.22142063186025
 20
5.944433790487452
 30
0.0
 10
88.00539190719803
 20
6.021791463716085
 30
0.0
 10
87.8883042804606
 20
6.054499016702082
 30
0.0
 10
87.64723424204642
 20
6.105983407365498
 30
0.0
 10
87.52254684248811
 20
6.125171607030827
 30
0.0
 10
87.26455848570416
 20
6.151100388433452
 30
0.0
 10
87.13180734708514
 20
6.157601838358125
 30
0.0
 10
87.00086547247865
 20
6.157629959690339
 30
0.0
  0
SPLINE
  5
2F7
330
1F
100
AcDbEntity
  8
SK3
  6
SLD-Dashed
370
    18
100
AcDbSpline
210
0.0
220
0.0
230
1.0
 70
     8
 71
     3
 72
    34
 73
    30
 74
     0
 42
0.000000001
 43
0.00000001
 40
0.4999999999999883
 40
0.4999999999999883
 40
0.4999999999999883
 40
0.4999999999999883
 40
0.5624999999999881
 40
0.5624999999999881
 40
0.5937499999999896
 40
0.5937499999999896
 40
0.6249999999999909
 40
0.6249999999999909
 40
0.6562499999999923
 40
0.6562499999999923
 40
0.6874999999999938
 40
0.6874999999999938
 40
0.7187499999999951
 40
0.7187499999999951
 40
0.7499999999999966
 40
0.7499999999999966
 40
0.781249999999998
 40
0.781249999999998
 40
0.8124999999999993
 40
0.8124999999999993
 40
0.8750000000000011
 40
0.8750000000000011
 40
0.9062500000000009
 40
0.9062500000000009
 40
0.9375000000000007
 40
0.9375000000000007
 40
0.9687500000000003
 40
0.9687500000000003
 40
1.0
 40
1.0
 40
1.0
 40
1.0
 10
86.99913452752136
 20
-6.157629959690408
 30
0.0
 10
87.26101827673443
 20
-6.157686202354857
 30
0.0
 10
87.52546534322417
 20
-6.13188439462406
 30
0.0
 10
87.88703997376643
 20
-6.054820983573745
 30
0.0
 10
88.00408090380942
 20
-6.022203307658069
 30
0.0
 10
88.22067605285297
 20
-5.944757485218326
 30
0.0
 10
88.3209421026648
 20
-5.899948256202402
 30
0.0
 10
88.50558308940471
 20
-5.796478088308771
 30
0.0
 10
88.58932937394127
 20
-5.737866002512297
 30
0.0
 10
88.73382540925759
 20
-5.609921711260901
 30
0.0
 10
88.79559762763456
 20
-5.540079139837957
 30
0.0
 10
88.89715618122327
 20
-5.386644808699208
 30
0.0
 10
88.93523016744717
 20
-5.305583120322914
 30
0.0
 10
88.98663802138199
 20
-5.134573342816022
 30
0.0
 10
88.99995359685798
 20
-5.043469702953191
 30
0.0
 10
89.00004615675064
 20
-4.857017940435679
 30
0.0
 10
88.98717911249557
 20
-4.762265349870634
 30
0.0
 10
88.93595449002476
 20
-4.570011986679321
 30
0.0
 10
88.89708670559563
 20
-4.472111174404346
 30
0.0
 10
88.74688322485436
 20
-4.188202378617084
 30
0.0
 10
88.59813482272394
 20
-4.00467945742583
 30
0.0
 10
88.32314425943105
 20
-3.769940625466199
 30
0.0
 10
88.22131968693981
 20
-3.697085827320174
 30
0.0
 10
88.00418472277802
 20
-3.569154438452841
 30
0.0
 10
87.88969604288627
 20
-3.514267898975548
 30
0.0
 10
87.64871602869474
 20
-3.423859355451871
 30
0.0
 10
87.52106764129321
 20
-3.388313174077583
 30
0.0
 10
87.26365618572352
 20
-3.341269175543969
 30
0.0
 10
87.13287773659539
 20
-3.32920292787954
 30
0.0
 10
87.00000000000004
 20
-3.32920292787954
 30
0.0
  0
SPLINE
  5
2F8
330
1F
100
AcDbEntity
  8
SK3
  6
SLD-Dashed
370
    18
100
AcDbSpline
210
0.0
220
0.0
230
1.0
 70
     8
 71
     3
 72
    34
 73
    30
 74
     0
 42
0.000000001
 43
0.00000001
 40
0.0
 40
0.0
 40
0.0
 40
0.0
 40
0.0312500000000008
 40
0.0312500000000008
 40
0.0625000000000017
 40
0.0625000000000017
 40
0.0937500000000025
 40
0.0937500000000025
 40
0.1250000000000034
 40
0.1250000000000034
 40
0.1875000000000027
 40
0.1875000000000027
 40
0.2187500000000016
 40
0.2187500000000016
 40
0.2500000000000006
 40
0.2500000000000006
 40
0.2812499999999995
 40
0.2812499999999995
 40
0.3124999999999984
 40
0.3124999999999984
 40
0.3749999999999951
 40
0.3749999999999951
 40
0.4062499999999934
 40
0.4062499999999934
 40
0.4374999999999917
 40
0.4374999999999917
 40
0.46874999999999
 40
0.46874999999999
 40
0.4999999999999883
 40
0.4999999999999883
 40
0.4999999999999883
 40
0.4999999999999883
 10
87.00000000000004
 20
-3.32920292787954
 30
0.0
 10
86.86712226340465
 20
-3.32920292787954
 30
0.0
 10
86.73661164152058
 20
-3.341264004975801
 30
0.0
 10
86.48008322970543
 20
-3.388059307658044
 30
0.0
 10
86.35270268807795
 20
-3.423393915846659
 30
0.0
 10
86.11087673434135
 20
-3.513986737262442
 30
0.0
 10
85.99629241017243
 20
-3.568921369756069
 30
0.0
 10
85.77943535006804
 20
-3.696593199457074
 30
0.0
 10
85.67734019398301
 20
-3.769571908802123
 30
0.0
 10
85.40222669331834
 20
-4.00428153288656
 30
0.0
 10
85.25343908536867
 20
-4.187878226115563
 30
0.0
 10
85.10342437368863
 20
-4.471003575842437
 30
0.0
 10
85.06462386739788
 20
-4.568281767026526
 30
0.0
 10
85.01295732641115
 20
-4.761318901532626
 30
0.0
 10
85.00008492799901
 20
-4.85603475651164
 30
0.0
 10
84.99991590165298
 20
-5.041638307955509
 30
0.0
 10
85.0130709639586
 20
-5.133223192269852
 30
0.0
 10
85.06442690905558
 20
-5.30481977838796
 30
0.0
 10
85.10241730241871
 20
-5.385766413493156
 30
0.0
 10
85.25379058457891
 20
-5.615157561445136
 30
0.0
 10
85.40113424515874
 20
-5.744073455790331
 30
0.0
 10
85.67836597606299
 20
-5.89962528129033
 30
0.0
 10
85.77857936813976
 20
-5.944433790487494
 30
0.0
 10
85.99460809280207
 20
-6.021791463716126
 30
0.0
 10
86.11169571953944
 20
-6.054499016702124
 30
0.0
 10
86.35276575795362
 20
-6.10598340736556
 30
0.0
 10
86.47745315751196
 20
-6.125171607030897
 30
0.0
 10
86.73544151429586
 20
-6.151100388433514
 30
0.0
 10
86.86819265291484
 20
-6.157601838358187
 30
0.0
 10
86.99913452752136
 20
-6.157629959690408
 30
0.0
  0
SPLINE
  5
2F9
330
1F
100
AcDbEntity
  8
SK3
  6
SLD-Dashed
370
    18
100
AcDbSpline
210
0.0
220
0.0
230
1.0
 70
     8
 71
     3
 72
    34
 73
    30
 74
     0
 42
0.000000001
 43
0.00000001
 40
0.499999999999988
 40
0.499999999999988
 40
0.499999999999988
 40
0.499999999999988
 40
0.5624999999999879
 40
0.5624999999999879
 40
0.5937499999999893
 40
0.5937499999999893
 40
0.6249999999999908
 40
0.6249999999999908
 40
0.6562499999999923
 40
0.6562499999999923
 40
0.6874999999999939
 40
0.6874999999999939
 40
0.7187499999999954
 40
0.7187499999999954
 40
0.7499999999999969
 40
0.7499999999999969
 40
0.7812499999999984
 40
0.7812499999999984
 40
0.8125
 40
0.8125
 40
0.8750000000000014
 40
0.8750000000000014
 40
0.9062500000000011
 40
0.9062500000000011
 40
0.9375000000000008
 40
0.9375000000000008
 40
0.9687500000000004
 40
0.9687500000000004
 40
1.0
 40
1.0
 40
1.0
 40
1.0
 10
86.99913452752133
 20
-3.329203099770708
 30
0.0
 10
87.26101827673438
 20
-3.329099074421325
 30
0.0
 10
87.52546534322417
 20
-3.37797971764503
 30
0.0
 10
87.88703997376646
 20
-3.513094242592802
 30
0.0
 10
88.00408090380942
 20
-3.569122353209851
 30
0.0
 10
88.220676052853
 20
-3.696677629019152
 30
0.0
 10
88.3209421026648
 20
-3.768218807124357
 30
0.0
 10
88.50558308940468
 20
-3.925519605859539
 30
0.0
 10
88.58932937394127
 20
-4.011087768493689
 30
0.0
 10
88.73382540925756
 20
-4.188163051132287
 30
0.0
 10
88.79559762763456
 20
-4.280488449992424
 30
0.0
 10
88.89715618122327
 20
-4.472037114235529
 30
0.0
 10
88.93523016744714
 20
-4.568069407592981
 30
0.0
 10
88.98663802138196
 20
-4.759477591762075
 30
0.0
 10
88.99995359685795
 20
-4.856006483958716
 30
0.0
 10
89.00004615675067
 20
-5.042495646318569
 30
0.0
 10
88.98717911249562
 20
-5.132003345401724
 30
0.0
 10
88.93595449002476
 20
-5.303924965664605
 30
0.0
 10
88.89708670559557
 20
-5.386550786582893
 30
0.0
 10
88.74688322485436
 20
-5.614070872942634
 30
0.0
 10
88.59813482272396
 20
-5.744357153438775
 30
0.0
 10
88.32314425943105
 20
-5.898840720532081
 30
0.0
 10
88.22131968693984
 20
-5.944506418981192
 30
0.0
 10
88.00418472277802
 20
-6.022187042458292
 30
0.0
 10
87.8896960428863
 20
-6.054141542097422
 30
0.0
 10
87.64871602869471
 20
-6.105726475334798
 30
0.0
 10
87.52106764129327
 20
-6.12536148923841
 30
0.0
 10
87.26365618572352
 20
-6.151149472743478
 30
0.0
 10
87.13287773659539
 20
-6.15763005262561
 30
0.0
 10
87.0
 20
-6.15763005262561
 30
0.0
  0
SPLINE
  5
2FA
330
1F
100
AcDbEntity
  8
SK3
  6
SLD-Dashed
370
    18
100
AcDbSpline
210
0.0
220
0.0
230
1.0
 70
     8
 71
     3
 72
    34
 73
    30
 74
     0
 42
0.000000001
 43
0.00000001
 40
0.0
 40
0.0
 40
0.0
 40
0.0
 40
0.0312500000000008
 40
0.0312500000000008
 40
0.0625000000000015
 40
0.0625000000000015
 40
0.0937500000000023
 40
0.0937500000000023
 40
0.1250000000000031
 40
0.1250000000000031
 40
0.1875000000000023
 40
0.1875000000000023
 40
0.2187500000000013
 40
0.2187500000000013
 40
0.2500000000000003
 40
0.2500000000000003
 40
0.2812499999999993
 40
0.2812499999999993
 40
0.3124999999999983
 40
0.3124999999999983
 40
0.3749999999999948
 40
0.3749999999999948
 40
0.4062499999999931
 40
0.4062499999999931
 40
0.4374999999999914
 40
0.4374999999999914
 40
0.4687499999999897
 40
0.4687499999999897
 40
0.499999999999988
 40
0.499999999999988
 40
0.499999999999988
 40
0.499999999999988
 10
87.0
 20
-6.157630052625603
 30
0.0
 10
86.8671222634046
 20
-6.15763005262561
 30
0.0
 10
86.73661164152053
 20
-6.15115166326953
 30
0.0
 10
86.4800832297054
 20
-6.125501290774666
 30
0.0
 10
86.35270268807787
 20
-6.105988342378834
 30
0.0
 10
86.11087673434129
 20
-6.054305637367981
 30
0.0
 10
85.9962924101724
 20
-6.022323249742417
 30
0.0
 10
85.77943535006798
 20
-5.944810828413076
 30
0.0
 10
85.67734019398301
 20
-5.899076102204075
 30
0.0
 10
85.40222669331831
 20
-5.744633525847011
 30
0.0
 10
85.25343908536864
 20
-5.614282512318547
 30
0.0
 10
85.10342437368863
 20
-5.38746230297981
 30
0.0
 10
85.06462386739788
 20
-5.305427360451046
 30
0.0
 10
85.01295732641113
 20
-5.132893930121472
 30
0.0
 10
85.00008492799898
 20
-5.04342586401281
 30
0.0
 10
84.99991590165298
 20
-4.85789060951334
 30
0.0
 10
85.01307096395857
 20
-4.760944742260103
 30
0.0
 10
85.06442690905556
 20
-4.568967312132494
 30
0.0
 10
85.10241730241869
 20
-4.47308276267247
 30
0.0
 10
85.25379058457888
 20
-4.186860710587361
 30
0.0
 10
85.40113424515869
 20
-4.0051486751283
 30
0.0
 10
85.67836597606296
 20
-3.768729293038842
 30
0.0
 10
85.7785793681397
 20
-3.697196159829115
 30
0.0
 10
85.99460809280204
 20
-3.56981513544613
 30
0.0
 10
86.11169571953941
 20
-3.513650612050473
 30
0.0
 10
86.35276575795359
 20
-3.423399713119432
 30
0.0
 10
86.47745315751187
 20
-3.388657567272739
 30
0.0
 10
86.73544151429586
 20
-3.341360701155337
 30
0.0
 10
86.86819265291484
 20
-3.329255112445404
 30
0.0
 10
86.99913452752133
 20
-3.329203099770708
 30
0.0
  0
SPLINE
  5
2FB
330
1F
100
AcDbEntity
  8
SK3
  6
SLD-Dashed
370
    18
100
AcDbSpline
210
0.0
220
0.0
230
1.0
 70
     8
 71
     3
 72
    34
 73
    30
 74
     0
 42
0.000000001
 43
0.00000001
 40
0.4999999999999878
 40
0.4999999999999878
 40
0.4999999999999878
 40
0.4999999999999878
 40
0.5624999999999877
 40
0.5624999999999877
 40
0.5937499999999892
 40
0.5937499999999892
 40
0.6249999999999908
 40
0.6249999999999908
 40
0.6562499999999922
 40
0.6562499999999922
 40
0.6874999999999938
 40
0.6874999999999938
 40
0.7187499999999953
 40
0.7187499999999953
 40
0.7499999999999968
 40
0.7499999999999968
 40
0.7812499999999983
 40
0.7812499999999983
 40
0.8124999999999999
 40
0.8124999999999999
 40
0.8750000000000016
 40
0.8750000000000016
 40
0.9062500000000012
 40
0.9062500000000012
 40
0.9375000000000009
 40
0.9375000000000009
 40
0.9687500000000004
 40
0.9687500000000004
 40
1.0
 40
1.0
 40
1.0
 40
1.0
 10
87.00086547247865
 20
3.32920309977084
 30
0.0
 10
86.73898172326561
 20
3.329099074421464
 30
0.0
 10
86.4745346567759
 20
3.377979717645176
 30
0.0
 10
86.11296002623357
 20
3.513094242592926
 30
0.0
 10
85.99591909619068
 20
3.569122353209976
 30
0.0
 10
85.77932394714708
 20
3.696677629019284
 30
0.0
 10
85.67905789733524
 20
3.768218807124482
 30
0.0
 10
85.49441691059528
 20
3.925519605859677
 30
0.0
 10
85.41067062605879
 20
4.011087768493807
 30
0.0
 10
85.26617459074237
 20
4.188163051132412
 30
0.0
 10
85.20440237236545
 20
4.280488449992563
 30
0.0
 10
85.10284381877675
 20
4.472037114235647
 30
0.0
 10
85.06476983255281
 20
4.568069407593099
 30
0.0
 10
85.01336197861805
 20
4.7594775917622
 30
0.0
 10
85.0000464031421
 20
4.856006483958828
 30
0.0
 10
84.99995384324934
 20
5.04249564631868
 30
0.0
 10
85.01282088750445
 20
5.132003345401835
 30
0.0
 10
85.06404550997526
 20
5.303924965664709
 30
0.0
 10
85.10291329440442
 20
5.386550786583004
 30
0.0
 10
85.25311677514563
 20
5.61407087294271
 30
0.0
 10
85.40186517727616
 20
5.744357153438878
 30
0.0
 10
85.67685574056894
 20
5.898840720532164
 30
0.0
 10
85.77868031306026
 20
5.944506418981269
 30
0.0
 10
85.99581527722202
 20
6.022187042458368
 30
0.0
 10
86.11030395711377
 20
6.054141542097498
 30
0.0
 10
86.35128397130532
 20
6.105726475334874
 30
0.0
 10
86.47893235870683
 20
6.125361489238486
 30
0.0
 10
86.73634381427647
 20
6.151149472743554
 30
0.0
 10
86.86712226340462
 20
6.157630052625692
 30
0.0
 10
87.0
 20
6.157630052625686
 30
0.0
  0
SPLINE
  5
2FC
330
1F
100
AcDbEntity
  8
SK3
  6
SLD-Dashed
370
    18
100
AcDbSpline
210
0.0
220
0.0
230
1.0
 70
     8
 71
     3
 72
    34
 73
    30
 74
     0
 42
0.000000001
 43
0.00000001
 40
0.0
 40
0.0
 40
0.0
 40
0.0
 40
0.0312500000000007
 40
0.0312500000000007
 40
0.0625000000000015
 40
0.0625000000000015
 40
0.0937500000000022
 40
0.0937500000000022
 40
0.125000000000003
 40
0.125000000000003
 40
0.1875000000000022
 40
0.1875000000000022
 40
0.2187500000000011
 40
0.2187500000000011
 40
0.2500000000000001
 40
0.2500000000000001
 40
0.2812499999999991
 40
0.2812499999999991
 40
0.3124999999999981
 40
0.3124999999999981
 40
0.3749999999999946
 40
0.3749999999999946
 40
0.4062499999999929
 40
0.4062499999999929
 40
0.4374999999999912
 40
0.4374999999999912
 40
0.4687499999999895
 40
0.4687499999999895
 40
0.4999999999999878
 40
0.4999999999999878
 40
0.4999999999999878
 40
0.4999999999999878
 10
87.0
 20
6.157630052625692
 30
0.0
 10
87.13287773659536
 20
6.157630052625686
 30
0.0
 10
87.26338835847952
 20
6.1511516632696
 30
0.0
 10
87.51991677029453
 20
6.125501290774736
 30
0.0
 10
87.64729731192212
 20
6.105988342378916
 30
0.0
 10
87.88912326565865
 20
6.054305637368071
 30
0.0
 10
88.00370758982767
 20
6.022323249742508
 30
0.0
 10
88.220564649932
 20
5.944810828413153
 30
0.0
 10
88.32265980601703
 20
5.899076102204165
 30
0.0
 10
88.59777330668167
 20
5.744633525847108
 30
0.0
 10
88.74656091463137
 20
5.61428251231863
 30
0.0
 10
88.89657562631143
 20
5.387462302979921
 30
0.0
 10
88.93537613260216
 20
5.305427360451157
 30
0.0
 10
88.98704267358887
 20
5.132893930121583
 30
0.0
 10
88.999915072001
 20
5.043425864012928
 30
0.0
 10
89.00008409834703
 20
4.857890609513457
 30
0.0
 10
88.98692903604142
 20
4.760944742260214
 30
0.0
 10
88.93557309094449
 20
4.568967312132605
 30
0.0
 10
88.8975826975813
 20
4.473082762672581
 30
0.0
 10
88.7462094154211
 20
4.186860710587492
 30
0.0
 10
88.59886575484133
 20
4.005148675128447
 30
0.0
 10
88.32163402393708
 20
3.76872929303898
 30
0.0
 10
88.22142063186023
 20
3.697196159829247
 30
0.0
 10
88.005391907198
 20
3.569815135446262
 30
0.0
 10
87.8883042804606
 20
3.513650612050619
 30
0.0
 10
87.64723424204645
 20
3.423399713119564
 30
0.0
 10
87.52254684248808
 20
3.388657567272871
 30
0.0
 10
87.26455848570413
 20
3.34136070115549
 30
0.0
 10
87.13180734708514
 20
3.329255112445535
 30
0.0
 10
87.00086547247865
 20
3.32920309977084
 30
0.0
  0
SPLINE
  5
2FD
330
1F
100
AcDbEntity
  8
SK3
  6
SLD-Dashed
370
    18
100
AcDbSpline
210
0.0
220
0.0
230
1.0
 70
     8
 71
     3
 72
    26
 73
    22
 74
     0
 42
0.000000001
 43
0.00000001
 40
0.4999999999999876
 40
0.4999999999999876
 40
0.4999999999999876
 40
0.4999999999999876
 40
0.5624999999999881
 40
0.5624999999999881
 40
0.6249999999999887
 40
0.6249999999999887
 40
0.6562499999999896
 40
0.6562499999999896
 40
0.6874999999999903
 40
0.6874999999999903
 40
0.7187499999999911
 40
0.7187499999999911
 40
0.7499999999999919
 40
0.7499999999999919
 40
0.8124999999999939
 40
0.8124999999999939
 40
0.8749999999999959
 40
0.8749999999999959
 40
0.937499999999998
 40
0.937499999999998
 40
1.0
 40
1.0
 40
1.0
 40
1.0
 10
11.61369831779571
 20
9.77262767249694
 30
0.0
 10
11.77817915771352
 20
9.759831768139298
 30
0.0
 10
11.9258178296232
 20
9.765669382612412
 30
0.0
 10
12.20116299685257
 20
9.822076602756747
 30
0.0
 10
12.32736515469925
 20
9.872190922035708
 30
0.0
 10
12.49374661426346
 20
10.00161019176419
 30
0.0
 10
12.5455195339626
 20
10.05438730455482
 30
0.0
 10
12.63570184098391
 20
10.18395474142594
 30
0.0
 10
12.67501796005853
 20
10.26245268576566
 30
0.0
 10
12.73124339139552
 20
10.44816988181842
 30
0.0
 10
12.74823165300573
 20
10.55811887110952
 30
0.0
 10
12.75149462889751
 20
10.79434030169368
 30
0.0
 10
12.73778670669286
 20
10.92300773139128
 30
0.0
 10
12.66016730486988
 20
11.2997086770681
 30
0.0
 10
12.56496305158954
 20
11.53412544539292
 30
0.0
 10
12.34815603453723
 20
11.94271445514997
 30
0.0
 10
12.22247178673941
 20
12.12456577079685
 30
0.0
 10
11.95176737519447
 20
12.44305079158821
 30
0.0
 10
11.80602686354768
 20
12.58151739400475
 30
0.0
 10
11.48008373269932
 20
12.81600081695228
 30
0.0
 10
11.30247339457478
 20
12.91072852732558
 30
0.0
 10
11.09999999999999
 20
12.96483254089176
 30
0.0
  0
SPLINE
  5
2FE
330
1F
100
AcDbEntity
  8
SK3
  6
SLD-Dashed
370
    18
100
AcDbSpline
210
0.0
220
0.0
230
1.0
 70
     8
 71
     3
 72
    34
 73
    30
 74
     0
 42
0.000000001
 43
0.00000001
 40
0.0
 40
0.0
 40
0.0
 40
0.0
 40
0.031249999999999
 40
0.031249999999999
 40
0.062499999999998
 40
0.062499999999998
 40
0.093749999999997
 40
0.093749999999997
 40
0.1249999999999961
 40
0.1249999999999961
 40
0.1562499999999951
 40
0.1562499999999951
 40
0.1874999999999941
 40
0.1874999999999941
 40
0.2187499999999931
 40
0.2187499999999931
 40
0.2499999999999921
 40
0.2499999999999921
 40
0.2812499999999911
 40
0.2812499999999911
 40
0.3124999999999901
 40
0.3124999999999901
 40
0.3749999999999888
 40
0.3749999999999888
 40
0.4062499999999885
 40
0.4062499999999885
 40
0.4374999999999882
 40
0.4374999999999882
 40
0.4999999999999876
 40
0.4999999999999876
 40
0.4999999999999876
 40
0.4999999999999876
 10
11.09999999999999
 20
12.96483254089176
 30
0.0
 10
10.99876330271261
 20
12.99188454767485
 30
0.0
 10
10.89375434041331
 20
13.00765498701254
 30
0.0
 10
10.67482193729477
 20
13.0097331717666
 30
0.0
 10
10.56065504429782
 20
12.99527268555181
 30
0.0
 10
10.33933306908848
 20
12.93282509643415
 30
0.0
 10
10.22886240054302
 20
12.88390048803669
 30
0.0
 10
10.0249875386661
 20
12.75659692400088
 30
0.0
 10
9.93088787302096
 20
12.67838560692542
 30
0.0
 10
9.764076352163546
 20
12.49898896718386
 30
0.0
 10
9.693022202672056
 20
12.39998452320638
 30
0.0
 10
9.575536001433155
 20
12.18574592066871
 30
0.0
 10
9.530159683901196
 20
12.07174745482191
 30
0.0
 10
9.468538953914294
 20
11.83909108430541
 30
0.0
 10
9.451799814585938
 20
11.71774996216411
 30
0.0
 10
9.448480888754677
 20
11.47856989357558
 30
0.0
 10
9.46135422537181
 20
11.36028759492973
 30
0.0
 10
9.516906609790432
 20
11.1260575416365
 30
0.0
 10
9.558939125903803
 20
11.01349387847718
 30
0.0
 10
9.669361385739608
 20
10.7994946206207
 30
0.0
 10
9.739046986917355
 20
10.69649740772899
 30
0.0
 10
9.978991200491782
 20
10.41480305529736
 30
0.0
 10
10.18777179464267
 20
10.25650759469705
 30
0.0
 10
10.51946991129013
 20
10.07542901804448
 30
0.0
 10
10.63425898590062
 20
10.02336297375404
 30
0.0
 10
10.85434718809658
 20
9.93730397638358
 30
0.0
 10
10.96264418607855
 20
9.901964126305854
 30
0.0
 10
11.26710738731389
 20
9.817002664640375
 30
0.0
 10
11.44921747787792
 20
9.78542357685458
 30
0.0
 10
11.61369831779571
 20
9.77262767249694
 30
0.0
  0
SPLINE
  5
2FF
330
1F
100
AcDbEntity
  8
SK3
  6
SLD-Dashed
370
    18
100
AcDbSpline
210
0.0
220
0.0
230
1.0
 70
    24
 71
     3
 72
     8
 73
     4
 74
     0
 42
0.000000001
 43
0.00000001
 40
0.0
 40
0.0
 40
0.0
 40
0.0
 40
0.4999999999999997
 40
0.4999999999999997
 40
0.4999999999999997
 40
0.4999999999999997
 10
3.000000000000016
 20
-35.29999999999999
 30
0.0
 10
3.151041253001849
 20
-35.29999999999999
 30
0.0
 10
3.301228701601433
 20
-35.29999999999999
 30
0.0
 10
3.442409358508494
 20
-35.29999999999999
 30
0.0
  0
SPLINE
  5
300
330
1F
100
AcDbEntity
  8
SK3
  6
SLD-Dashed
370
    18
100
AcDbSpline
210
0.0
220
0.0
230
1.0
 70
    24
 71
     3
 72
     8
 73
     4
 74
     0
 42
0.000000001
 43
0.00000001
 40
0.4999999999999997
 40
0.4999999999999997
 40
0.4999999999999997
 40
0.4999999999999997
 40
0.7499999999999998
 40
0.7499999999999998
 40
0.7499999999999998
 40
0.7499999999999998
 10
3.442409358508494
 20
-35.29999999999999
 30
0.0
 10
3.512999686962032
 20
-35.29999999999999
 30
0.0
 10
3.581751481358156
 20
-35.29999999999999
 30
0.0
 10
3.640649966598519
 20
-35.29999999999999
 30
0.0
  0
SPLINE
  5
301
330
1F
100
AcDbEntity
  8
SK3
  6
SLD-Dashed
370
    18
100
AcDbSpline
210
0.0
220
0.0
230
1.0
 70
    24
 71
     2
 72
     6
 73
     3
 74
     0
 42
0.000000001
 43
0.00000001
 40
0.7499999999999998
 40
0.7499999999999998
 40
0.7499999999999998
 40
1.0
 40
1.0
 40
1.0
 10
3.640649966598499
 20
-35.29999999999999
 30
0.0
 10
3.699548451838863
 20
-35.3
 30
0.0
 10
3.750000000000011
 20
-35.3
 30
0.0
  0
SPLINE
  5
302
330
1F
100
AcDbEntity
  8
1
  6
SLD-Dashed
370
    18
100
AcDbSpline
210
0.0
220
0.0
230
1.0
 70
     8
 71
     3
 72
    10
 73
     6
 74
     0
 42
0.000000001
 43
0.00000001
 40
0.0
 40
0.0
 40
0.0
 40
0.0
 40
0.5
 40
0.5
 40
1.0
 40
1.0
 40
1.0
 40
1.0
 10
20.07999999999998
 20
40.49493795525559
 30
0.0
 10
19.9799238327227
 20
40.49493795525559
 30
0.0
 10
19.88062321655437
 20
40.53943621280958
 30
0.0
 10
19.74266647044523
 20
40.687732066141
 30
0.0
 10
19.705
 20
40.78818217895952
 30
0.0
 10
19.705
 20
40.8883311593907
 30
0.0
  0
SPLINE
  5
303
330
1F
100
AcDbEntity
  8
1
  6
SLD-Dashed
370
    18
100
AcDbSpline
210
0.0
220
0.0
230
1.0
 70
     8
 71
     3
 72
     8
 73
     4
 74
     0
 42
0.000000001
 43
0.00000001
 40
0.0
 40
0.0
 40
0.0
 40
0.0
 40
1.0
 40
1.0
 40
1.0
 40
1.0
 10
19.70500000000206
 20
41.02691000549665
 30
0.0
 10
18.55203671463132
 20
43.12029082781662
 30
0.0
 10
17.39303935599844
 20
45.21043490199365
 30
0.0
 10
16.23001969425063
 20
47.29842136528801
 30
0.0
  0
SPLINE
  5
304
330
1F
100
AcDbEntity
  8
1
  6
SLD-Dashed
370
    18
100
AcDbSpline
210
0.0
220
0.0
230
1.0
 70
     8
 71
     3
 72
    10
 73
     6
 74
     0
 42
0.000000001
 43
0.00000001
 40
0.0
 40
0.0
 40
0.0
 40
0.0
 40
0.5
 40
0.5
 40
1.0
 40
1.0
 40
1.0
 40
1.0
 10
20.07999999999999
 20
-40.49493795525557
 30
0.0
 10
19.97988956666463
 20
-40.49493795525557
 30
0.0
 10
19.87972107531741
 20
-40.54029694773563
 30
0.0
 10
19.74317938603659
 20
-40.68729003829234
 30
0.0
 10
19.705
 20
-40.78825674301803
 30
0.0
 10
19.705
 20
-40.88833115939068
 30
0.0
  0
SPLINE
  5
305
330
1F
100
AcDbEntity
  8
1
  6
SLD-Dashed
370
    18
100
AcDbSpline
210
0.0
220
0.0
230
1.0
 70
     8
 71
     3
 72
     8
 73
     4
 74
     0
 42
0.000000001
 43
0.00000001
 40
0.0
 40
0.0
 40
0.0
 40
0.0
 40
1.0
 40
1.0
 40
1.0
 40
1.0
 10
19.705
 20
-41.02691000550032
 30
0.0
 10
18.5519882858111
 20
-43.12037875772609
 30
0.0
 10
17.39299087975341
 20
-45.2105219321054
 30
0.0
 10
16.23001969424187
 20
-47.29842136528794
 30
0.0
  0
SPLINE
  5
306
330
1F
100
AcDbEntity
  8
SK3
  6
SLD-Dashed
370
    18
100
AcDbSpline
210
0.0
220
0.0
230
1.0
 70
     8
 71
     3
 72
    30
 73
    26
 74
     0
 42
0.000000001
 43
0.00000001
 40
0.4999999999999982
 40
0.4999999999999982
 40
0.4999999999999982
 40
0.4999999999999982
 40
0.5624999999999979
 40
0.5624999999999979
 40
0.6249999999999977
 40
0.6249999999999977
 40
0.6874999999999973
 40
0.6874999999999973
 40
0.7499999999999971
 40
0.7499999999999971
 40
0.7812499999999974
 40
0.7812499999999974
 40
0.8124999999999978
 40
0.8124999999999978
 40
0.8437499999999982
 40
0.8437499999999982
 40
0.8749999999999986
 40
0.8749999999999986
 40
0.9062499999999989
 40
0.9062499999999989
 40
0.9374999999999992
 40
0.9374999999999992
 40
0.9687499999999997
 40
0.9687499999999997
 40
1.0
 40
1.0
 40
1.0
 40
1.0
 10
9.577846279599914
 20
14.23238764721506
 30
0.0
 10
9.661456538693935
 20
14.37449148753436
 30
0.0
 10
9.772407143447973
 20
14.46455463884006
 30
0.0
 10
10.01510223607219
 20
14.58566105042363
 30
0.0
 10
10.15071106347548
 20
14.61758130155871
 30
0.0
 10
10.44343928875974
 20
14.64108820780103
 30
0.0
 10
10.60055865364914
 20
14.63326763721772
 30
0.0
 10
10.95645473780855
 20
14.57760383536255
 30
0.0
 10
11.15657682258685
 20
14.52955951954237
 30
0.0
 10
11.48301002825779
 20
14.41184623552313
 30
0.0
 10
11.59373162334221
 20
14.3656667477627
 30
0.0
 10
11.81720113938131
 20
14.25386986331294
 30
0.0
 10
11.92912269444714
 20
14.18813820274422
 30
0.0
 10
12.13607863552177
 20
14.0407143514894
 30
0.0
 10
12.23401625186757
 20
13.95690514918118
 30
0.0
 10
12.40552677631534
 20
13.77573704535147
 30
0.0
 10
12.48093330594183
 20
13.67674237041629
 30
0.0
 10
12.6050030332497
 20
13.46691160194158
 30
0.0
 10
12.65341410243623
 20
13.35722216972512
 30
0.0
 10
12.72289370637354
 20
13.12683611928116
 30
0.0
 10
12.74310124630632
 20
13.00791934047579
 30
0.0
 10
12.75391027826542
 20
12.76968555540301
 30
0.0
 10
12.74440813581845
 20
12.64773243024133
 30
0.0
 10
12.69629905847905
 20
12.41140989749646
 30
0.0
 10
12.65801625646422
 20
12.29628533426088
 30
0.0
 10
12.60540931107558
 20
12.1855716650523
 30
0.0
  0
SPLINE
  5
307
330
1F
100
AcDbEntity
  8
SK3
  6
SLD-Dashed
370
    18
100
AcDbSpline
210
0.0
220
0.0
230
1.0
 70
     8
 71
     3
 72
    30
 73
    26
 74
     0
 42
0.000000001
 43
0.00000001
 40
0.0
 40
0.0
 40
0.0
 40
0.0
 40
0.0312499999999997
 40
0.0312499999999997
 40
0.0624999999999994
 40
0.0624999999999994
 40
0.0937499999999991
 40
0.0937499999999991
 40
0.1249999999999988
 40
0.1249999999999988
 40
0.1874999999999986
 40
0.1874999999999986
 40
0.2499999999999983
 40
0.2499999999999983
 40
0.3124999999999981
 40
0.3124999999999981
 40
0.3749999999999979
 40
0.3749999999999979
 40
0.4062499999999979
 40
0.4062499999999979
 40
0.4374999999999981
 40
0.4374999999999981
 40
0.4687499999999981
 40
0.4687499999999981
 40
0.4999999999999982
 40
0.4999999999999982
 40
0.4999999999999982
 40
0.4999999999999982
 10
12.60540931107558
 20
12.1855716650523
 30
0.0
 10
12.5528023656869
 20
12.07485799584372
 30
0.0
 10
12.48767206459292
 20
11.97219939974269
 30
0.0
 10
12.33321503903327
 20
11.78446947788794
 30
0.0
 10
12.24300655859498
 20
11.69933495182436
 30
0.0
 10
12.04843499093603
 20
11.55929524444873
 30
0.0
 10
11.94143370486041
 20
11.502438519203
 30
0.0
 10
11.7207326429819
 20
11.42305449509475
 30
0.0
 10
11.60906552497737
 20
11.40072398398812
 30
0.0
 10
11.27451801742664
 20
11.38094416676321
 30
0.0
 10
11.06698428069929
 20
11.43130609789062
 30
0.0
 10
10.69717844091632
 20
11.59559973924669
 30
0.0
 10
10.53344908096578
 20
11.70819781209441
 30
0.0
 10
10.2282495888269
 20
11.97752315604526
 30
0.0
 10
10.09076882260296
 20
12.13119623364009
 30
0.0
 10
9.83752561936517
 20
12.48311824891787
 30
0.0
 10
9.721260896401851
 20
12.68242440309824
 30
0.0
 10
9.580692660850348
 20
13.01969487010853
 30
0.0
 10
9.540421636405977
 20
13.13643691703242
 30
0.0
 10
9.478286004234517
 20
13.38260506227689
 30
0.0
 10
9.457363995141243
 20
13.51075799945848
 30
0.0
 10
9.445908412243757
 20
13.75870529834606
 30
0.0
 10
9.455664817462697
 20
13.87407687729467
 30
0.0
 10
9.500951505689734
 20
14.07563205189071
 30
0.0
 10
9.536041150052881
 20
14.16133572705541
 30
0.0
 10
9.577846279599914
 20
14.23238764721506
 30
0.0
  0
ELLIPSE
  5
308
330
1F
100
AcDbEntity
  8
SK3
  6
SLD-Dashed
370
    18
100
AcDbEllipse
 10
87.0
 20
-8.4852813742
 30
0.0
 11
1.847759065022544
 21
1.847759065022575
 31
0.0
210
0.0
220
0.0
230
1.0
 40
0.4142135624
 41
1.178097245096171
 42
4.319689898685981
  0
ELLIPSE
  5
309
330
1F
100
AcDbEntity
  8
SK3
  6
SLD-Dashed
370
    18
100
AcDbEllipse
 10
87.0
 20
-8.4852813742
 30
0.0
 11
1.847759065022544
 21
-1.847759065022583
 31
0.0
210
0.0
220
0.0
230
1.0
 40
0.4142135624
 41
5.105088062083433
 42
8.24668071567321
  0
ELLIPSE
  5
30A
330
1F
100
AcDbEntity
  8
SK3
  6
SLD-Dashed
370
    18
100
AcDbEllipse
 10
87.0
 20
8.4852813742
 30
0.0
 11
1.847759065022544
 21
1.847759065022567
 31
0.0
210
0.0
220
0.0
230
1.0
 40
0.4142135624
 41
4.319689898685969
 42
7.461282552275745
  0
ELLIPSE
  5
30B
330
1F
100
AcDbEntity
  8
SK3
  6
SLD-Dashed
370
    18
100
AcDbEllipse
 10
87.0
 20
8.4852813742
 30
0.0
 11
1.847759065022544
 21
-1.847759065022576
 31
0.0
210
0.0
220
0.0
230
1.0
 40
0.4142135624
 41
1.963495408493623
 42
5.105088062083433
  0
ELLIPSE
  5
30C
330
1F
100
AcDbEntity
  8
SK3
  6
SLD-Dashed
370
    18
100
AcDbEllipse
 10
87.0
 20
8.4852813742
 30
0.0
 11
1.847759065022544
 21
-1.847759065022576
 31
0.0
210
0.0
220
0.0
230
1.0
 40
0.4142135624
 41
5.105088062083442
 42
8.246680715673218
  0
ELLIPSE
  5
30D
330
1F
100
AcDbEntity
  8
SK3
  6
SLD-Dashed
370
    18
100
AcDbEllipse
 10
87.0
 20
8.4852813742
 30
0.0
 11
1.847759065022544
 21
1.847759065022567
 31
0.0
210
0.0
220
0.0
230
1.0
 40
0.4142135624
 41
1.178097245096168
 42
4.319689898685978
  0
ELLIPSE
  5
30E
330
1F
100
AcDbEntity
  8
SK3
  6
SLD-Dashed
370
    18
100
AcDbEllipse
 10
87.0
 20
-8.4852813742
 30
0.0
 11
1.847759065022544
 21
1.847759065022575
 31
0.0
210
0.0
220
0.0
230
1.0
 40
0.4142135624
 41
4.319689898685981
 42
7.461282552275758
  0
ELLIPSE
  5
30F
330
1F
100
AcDbEntity
  8
SK3
  6
SLD-Dashed
370
    18
100
AcDbEllipse
 10
87.0
 20
-8.4852813742
 30
0.0
 11
1.847759065022544
 21
-1.847759065022583
 31
0.0
210
0.0
220
0.0
230
1.0
 40
0.4142135624
 41
1.963495408493618
 42
5.105088062083428
  0
ELLIPSE
  5
310
330
1F
100
AcDbEntity
  8
SK3
  6
SLD-Dashed
370
    18
100
AcDbEllipse
 10
87.0
 20
8.4852813742
 30
0.0
 11
1.847759065022544
 21
1.847759065022727
 31
0.0
210
0.0
220
0.0
230
1.0
 40
0.4142135624
 41
1.178097245096121
 42
4.31968989868593
  0
ELLIPSE
  5
311
330
1F
100
AcDbEntity
  8
SK3
  6
SLD-Dashed
370
    18
100
AcDbEllipse
 10
87.0
 20
8.4852813742
 30
0.0
 11
1.847759065022543
 21
-1.847759065022423
 31
0.0
210
0.0
220
0.0
230
1.0
 40
0.4142135624
 41
5.105088062083448
 42
8.246680715673223
  0
ELLIPSE
  5
312
330
1F
100
AcDbEntity
  8
SK3
  6
SLD-Dashed
370
    18
100
AcDbEllipse
 10
87.0
 20
-8.4852813742
 30
0.0
 11
1.847759065022544
 21
1.847759065022748
 31
0.0
210
0.0
220
0.0
230
1.0
 40
0.4142135624
 41
4.31968989868591
 42
7.461282552275686
  0
ELLIPSE
  5
313
330
1F
100
AcDbEntity
  8
SK3
  6
SLD-Dashed
370
    18
100
AcDbEllipse
 10
87.0
 20
-8.4852813742
 30
0.0
 11
1.847759065022544
 21
-1.847759065022388
 31
0.0
210
0.0
220
0.0
230
1.0
 40
0.4142135624
 41
1.963495408493644
 42
5.105088062083455
  0
ELLIPSE
  5
314
330
1F
100
AcDbEntity
  8
SK3
  6
SLD-Dashed
370
    18
100
AcDbEllipse
 10
87.0
 20
8.4852813742
 30
0.0
 11
1.847759065022543
 21
-1.847759065022423
 31
0.0
210
0.0
220
0.0
230
1.0
 40
0.4142135624
 41
1.963495408493643
 42
5.105088062083453
  0
ELLIPSE
  5
315
330
1F
100
AcDbEntity
  8
SK3
  6
SLD-Dashed
370
    18
100
AcDbEllipse
 10
87.0
 20
8.4852813742
 30
0.0
 11
1.847759065022544
 21
1.847759065022727
 31
0.0
210
0.0
220
0.0
230
1.0
 40
0.4142135624
 41
4.31968989868593
 42
7.461282552275705
  0
ELLIPSE
  5
316
330
1F
100
AcDbEntity
  8
SK3
  6
SLD-Dashed
370
    18
100
AcDbEllipse
 10
87.0
 20
-8.4852813742
 30
0.0
 11
1.847759065022544
 21
-1.847759065022388
 31
0.0
210
0.0
220
0.0
230
1.0
 40
0.4142135624
 41
5.105088062083466
 42
8.246680715673243
  0
ELLIPSE
  5
317
330
1F
100
AcDbEntity
  8
SK3
  6
SLD-Dashed
370
    18
100
AcDbEllipse
 10
87.0
 20
-8.4852813742
 30
0.0
 11
1.847759065022544
 21
1.847759065022748
 31
0.0
210
0.0
220
0.0
230
1.0
 40
0.4142135624
 41
1.178097245096108
 42
4.319689898685918
  0
INSERT
  5
318
330
1F
100
AcDbEntity
  8
80
100
AcDbBlockReference
  2
Block12
 10
-61.7273641656
 20
-130.3356800267
 30
0.0
  0
INSERT
  5
319
330
1F
100
AcDbEntity
  8
81
100
AcDbBlockReference
  2
Block11
 10
8.3735173495
 20
-130.2676275275
 30
0.0
  0
DIMENSION
  5
31A
330
1F
100
AcDbEntity
  8
SK2
100
AcDbDimension
  2
_D
 10
38.0
 20
62.1622850149
 30
0.0
 11
18.5007044805
 21
62.1622850149
 31
0.0
 70
   160
  1
<>
 71
     2
 42
-1.0
  3
SLDDIMSTYLE0
100
AcDbAlignedDimension
 13
0.0
 23
34.925
 33
0.0
 14
38.0
 24
49.228682327
 34
0.0
100
AcDbRotatedDimension
  0
DIMENSION
  5
326
330
1F
100
AcDbEntity
  8
SK2
100
AcDbDimension
  2
_D_1
 10
100.0
 20
62.1622850149
 30
0.0
 11
69.4984567915
 21
62.1622850149
 31
0.0
 70
   160
  1
<>
 71
     2
 42
-1.0
  3
SLDDIMSTYLE0
100
AcDbAlignedDimension
 13
38.0
 23
49.228682327
 33
0.0
 14
100.0
 24
38.2
 34
0.0
100
AcDbRotatedDimension
  0
DIMENSION
  5
330
330
1F
100
AcDbEntity
  8
2
100
AcDbDimension
  2
_D_2
 10
0.0
 20
72.6580121522
 30
0.0
 11
49.7312498116
 21
72.6580121522
 31
0.0
 70
   160
  1
<>
 71
     2
 42
-1.0
  3
SLDDIMSTYLE0
100
AcDbAlignedDimension
 13
100.0
 23
34.0030676894
 33
0.0
 14
0.0
 24
34.925
 34
0.0
100
AcDbRotatedDimension
  0
DIMENSION
  5
33A
330
1F
100
AcDbEntity
  8
SK2
100
AcDbDimension
  2
_D_3
 10
124.0
 20
62.1622850149
 30
0.0
 11
112.6221344246
 21
62.1622850149
 31
0.0
 70
   160
  1
<>
 71
     2
 42
-1.0
  3
SLDDIMSTYLE0
100
AcDbAlignedDimension
 13
100.0
 23
38.2
 33
0.0
 14
124.0
 24
15.4710190579
 34
0.0
100
AcDbRotatedDimension
  0
DIMENSION
  5
344
330
1F
100
AcDbEntity
  8
SK2
100
AcDbDimension
  2
_D_4
 10
168.424647827
 20
-39.0
 30
0.0
 11
168.424647827
 21
-0.6090169936
 31
0.0
 70
   160
  1
%%c<>
 71
     2
 42
-1.0
  3
SLDDIMSTYLE0
100
AcDbAlignedDimension
 13
99.2
 23
39.0
 33
0.0
 14
99.2
 24
-39.0
 34
0.0
 50
90.0
100
AcDbRotatedDimension
  0
DIMENSION
  5
34F
330
1F
100
AcDbEntity
  8
SK2
100
AcDbDimension
  2
_D_5
 10
155.4814417165
 20
-16.0
 30
0.0
 11
155.4814417165
 21
-0.6090169936
 31
0.0
 70
   160
  1
%%c<>
 71
     2
 42
-1.0
  3
SLDDIMSTYLE0
100
AcDbAlignedDimension
 13
121.0
 23
16.0
 33
0.0
 14
121.0
 24
-16.0
 34
0.0
 50
90.0
100
AcDbRotatedDimension
  0
DIMENSION
  5
35A
330
1F
100
AcDbEntity
  8
SK2
100
AcDbDimension
  2
_D_6
 10
-140.2808570511
 20
-49.978682327
 30
0.0
 11
-140.2808570511
 21
0.5799094448
 31
0.0
 70
   160
  1
%%c<>
 71
     2
 42
-1.0
  3
SLDDIMSTYLE0
100
AcDbAlignedDimension
 13
35.2499629843
 23
49.978682327
 33
0.0
 14
35.2499629447
 24
-49.978682327
 34
0.0
 50
90.0
100
AcDbRotatedDimension
  0
DIMENSION
  5
365
330
1F
100
AcDbEntity
  8
SK2
100
AcDbDimension
  2
_D_7
 10
-125.9765691065
 20
-34.925
 30
0.0
 11
-125.9765691065
 21
0.5799094448
 31
0.0
 70
   160
  1
%%c<>
 71
     2
 42
-1.0
  3
SLDDIMSTYLE0
100
AcDbAlignedDimension
 13
0.0
 23
34.925
 33
0.0
 14
0.2
 24
-34.925
 34
0.0
 50
90.0
100
AcDbRotatedDimension
  0
DIMENSION
  5
370
330
1F
100
AcDbEntity
  8
SK2
100
AcDbDimension
  2
_D_8
 10
-113.2389405199
 20
-12.0000001043
 30
0.0
 11
-113.2389405199
 21
0.5799094448
 31
0.0
 70
   160
  1
M<>
 71
     2
 42
-1.0
  3
SLDDIMSTYLE0
100
AcDbAlignedDimension
 13
-88.1169885397
 23
12.0000001043
 33
0.0
 14
-88.1169885397
 24
-12.0000001043
 34
0.0
 50
90.0
100
AcDbRotatedDimension
  0
MTEXT
  5
37B
330
1F
100
AcDbEntity
  8
SK6
 62
     5
100
AcDbMText
 10
-101.0648457428
 20
-57.3384223527
 30
0.0
 40
3.5
 41
0.0
 71
     1
 72
     1
  1
A2B05-50 32 100
  7
SLDTEXTSTYLE0
 73
     1
 44
1.0
  0
MTEXT
  5
37C
330
1F
100
AcDbEntity
  8
SK6
 62
     5
100
AcDbMText
 10
-34.497943542
 20
43.4158958543
 30
0.0
 40
3.5
 41
0.0
 71
     1
 72
     1
  1
MAS-403 BT50
  7
SLDTEXTSTYLE0
 73
     1
 44
1.0
  0
ENDSEC
  0
SECTION
  2
OBJECTS
  0
DICTIONARY
  5
C
330
0
100
AcDbDictionary
281
     1
  3
ACAD_GROUP
350
D
  3
ACAD_LAYOUT
350
1A
  3
ACAD_MLINESTYLE
350
17
  3
ACAD_PLOTSETTINGS
350
19
  3
ACAD_PLOTSTYLENAME
350
E
  3
ACAD_SCALELIST
350
47
  0
DICTIONARY
  5
D
102
{ACAD_REACTORS
330
C
102
}
330
C
100
AcDbDictionary
281
     1
  0
DICTIONARY
  5
1A
102
{ACAD_REACTORS
330
C
102
}
330
C
100
AcDbDictionary
281
     1
  3
Layout1
350
1E
  3
Layout2
350
26
  3
Model
350
22
  0
DICTIONARY
  5
17
102
{ACAD_REACTORS
330
C
102
}
330
C
100
AcDbDictionary
281
     1
  3
Standard
350
18
  0
DICTIONARY
  5
19
102
{ACAD_REACTORS
330
C
102
}
330
C
100
AcDbDictionary
281
     1
  0
ACDBDICTIONARYWDFLT
  5
E
102
{ACAD_REACTORS
330
C
102
}
330
C
100
AcDbDictionary
281
     1
  3
Normal
350
F
100
AcDbDictionaryWithDefault
340
F
  0
DICTIONARY
  5
47
102
{ACAD_REACTORS
330
C
102
}
330
C
100
AcDbDictionary
281
     1
  3
A0
350
48
  3
A1
350
49
  3
A2
350
4A
  3
A3
350
4B
  3
A4
350
4C
  3
A5
350
4D
  3
A6
350
4E
  3
A7
350
4F
  3
A8
350
50
  3
A9
350
51
  3
B0
350
52
  3
B1
350
53
  3
B2
350
54
  3
B3
350
55
  3
B4
350
56
  3
B5
350
57
  3
B6
350
58
  3
B7
350
59
  3
B8
350
5A
  3
B9
350
5B
  3
C0
350
5C
  3
C1
350
5D
  3
C2
350
5E
  3
C3
350
5F
  3
C4
350
60
  3
C5
350
61
  3
C6
350
62
  3
C7
350
63
  3
C8
350
64
  3
C9
350
65
  3
D0
350
66
  3
D1
350
67
  3
D2
350
68
  0
LAYOUT
  5
1E
102
{ACAD_REACTORS
330
1A
102
}
330
1A
100
AcDbPlotSettings
  1

  2
none_device
  4

  6

 40
0.0
 41
0.0
 42
0.0
 43
0.0
 44
0.0
 45
0.0
 46
0.0
 47
0.0
 48
0.0
 49
0.0
140
0.0
141
0.0
142
1.0
143
1.0
 70
   688
 72
     1
 73
     0
 74
     5
  7

 75
    16
147
1.0
148
0.0
149
0.0
100
AcDbLayout
  1
Layout1
 70
     1
 71
     1
 10
0.0
 20
0.0
 11
420.0
 21
297.0
 12
0.0
 22
0.0
 32
0.0
 14
1.0000000000E+20
 24
1.0000000000E+20
 34
1.0000000000E+20
 15
-1.0000000000E+20
 25
-1.0000000000E+20
 35
-1.0000000000E+20
146
0.0
 13
0.0
 23
0.0
 33
0.0
 16
1.0
 26
0.0
 36
0.0
 17
0.0
 27
1.0
 37
0.0
 76
     0
330
1B
  0
LAYOUT
  5
26
102
{ACAD_REACTORS
330
1A
102
}
330
1A
100
AcDbPlotSettings
  1

  2
none_device
  4

  6

 40
0.0
 41
0.0
 42
0.0
 43
0.0
 44
0.0
 45
0.0
 46
0.0
 47
0.0
 48
0.0
 49
0.0
140
0.0
141
0.0
142
1.0
143
1.0
 70
   688
 72
     1
 73
     0
 74
     5
  7

 75
    16
147
1.0
148
0.0
149
0.0
100
AcDbLayout
  1
Layout2
 70
     1
 71
     2
 10
0.0
 20
0.0
 11
0.0
 21
0.0
 12
0.0
 22
0.0
 32
0.0
 14
0.0
 24
0.0
 34
0.0
 15
0.0
 25
0.0
 35
0.0
146
0.0
 13
0.0
 23
0.0
 33
0.0
 16
1.0
 26
0.0
 36
0.0
 17
0.0
 27
1.0
 37
0.0
 76
     0
330
23
  0
LAYOUT
  5
22
102
{ACAD_REACTORS
330
1A
102
}
330
1A
100
AcDbPlotSettings
  1

  2
none_device
  4
Letter_(8.50_x_11.00_Inches)
  6

 40
6.35
 41
6.35
 42
6.35000508
 43
6.35000508
 44
215.9
 45
279.4
 46
0.0
 47
0.0
 48
0.0
 49
0.0
140
0.0
141
0.0
142
1.0
143
1.0
 70
  1712
 72
     1
 73
     0
 74
     0
  7

 75
     0
147
1.0
148
0.0
149
0.0
100
AcDbLayout
  1
Model
 70
     1
 71
     0
 10
0.0
 20
0.0
 11
297.0
 21
210.0
 12
0.0
 22
0.0
 32
0.0
 14
0.0
 24
0.0
 34
0.0
 15
297.0
 25
210.0
 35
0.0
146
0.0
 13
0.0
 23
0.0
 33
0.0
 16
1.0
 26
0.0
 36
0.0
 17
0.0
 27
1.0
 37
0.0
 76
     0
330
1F
331
29
  0
MLINESTYLE
  5
18
102
{ACAD_REACTORS
330
17
102
}
330
17
100
AcDbMlineStyle
  2
Standard
 70
     0
  3

 62
   256
 51
90.0
 52
90.0
 71
     2
 49
0.5
 62
   256
  6
BYLAYER
 49
-0.5
 62
   256
  6
BYLAYER
  0
ACDBPLACEHOLDER
  5
F
102
{ACAD_REACTORS
330
E
102
}
330
E
  0
SCALE
  5
48
102
{ACAD_REACTORS
330
47
102
}
330
47
100
AcDbScale
 70
     0
300
1:1
140
1.0
141
1.0
290
     1
  0
SCALE
  5
49
102
{ACAD_REACTORS
330
47
102
}
330
47
100
AcDbScale
 70
     0
300
1:2
140
1.0
141
2.0
290
     0
  0
SCALE
  5
4A
102
{ACAD_REACTORS
330
47
102
}
330
47
100
AcDbScale
 70
     0
300
1:4
140
1.0
141
4.0
290
     0
  0
SCALE
  5
4B
102
{ACAD_REACTORS
330
47
102
}
330
47
100
AcDbScale
 70
     0
300
1:5
140
1.0
141
5.0
290
     0
  0
SCALE
  5
4C
102
{ACAD_REACTORS
330
47
102
}
330
47
100
AcDbScale
 70
     0
300
1:8
140
1.0
141
8.0
290
     0
  0
SCALE
  5
4D
102
{ACAD_REACTORS
330
47
102
}
330
47
100
AcDbScale
 70
     0
300
1:10
140
1.0
141
10.0
290
     0
  0
SCALE
  5
4E
102
{ACAD_REACTORS
330
47
102
}
330
47
100
AcDbScale
 70
     0
300
1:16
140
1.0
141
16.0
290
     0
  0
SCALE
  5
4F
102
{ACAD_REACTORS
330
47
102
}
330
47
100
AcDbScale
 70
     0
300
1:20
140
1.0
141
20.0
290
     0
  0
SCALE
  5
50
102
{ACAD_REACTORS
330
47
102
}
330
47
100
AcDbScale
 70
     0
300
1:30
140
1.0
141
30.0
290
     0
  0
SCALE
  5
51
102
{ACAD_REACTORS
330
47
102
}
330
47
100
AcDbScale
 70
     0
300
1:40
140
1.0
141
40.0
290
     0
  0
SCALE
  5
52
102
{ACAD_REACTORS
330
47
102
}
330
47
100
AcDbScale
 70
     0
300
1:50
140
1.0
141
50.0
290
     0
  0
SCALE
  5
53
102
{ACAD_REACTORS
330
47
102
}
330
47
100
AcDbScale
 70
     0
300
1:100
140
1.0
141
100.0
290
     0
  0
SCALE
  5
54
102
{ACAD_REACTORS
330
47
102
}
330
47
100
AcDbScale
 70
     0
300
2:1
140
2.0
141
1.0
290
     0
  0
SCALE
  5
55
102
{ACAD_REACTORS
330
47
102
}
330
47
100
AcDbScale
 70
     0
300
4:1
140
4.0
141
1.0
290
     0
  0
SCALE
  5
56
102
{ACAD_REACTORS
330
47
102
}
330
47
100
AcDbScale
 70
     0
300
8:1
140
8.0
141
1.0
290
     0
  0
SCALE
  5
57
102
{ACAD_REACTORS
330
47
102
}
330
47
100
AcDbScale
 70
     0
300
10:1
140
10.0
141
1.0
290
     0
  0
SCALE
  5
58
102
{ACAD_REACTORS
330
47
102
}
330
47
100
AcDbScale
 70
     0
300
100:1
140
100.0
141
1.0
290
     0
  0
SCALE
  5
59
102
{ACAD_REACTORS
330
47
102
}
330
47
100
AcDbScale
 70
     0
300
1/128" = 1'-0"
140
0.0078125
141
12.0
290
     0
  0
SCALE
  5
5A
102
{ACAD_REACTORS
330
47
102
}
330
47
100
AcDbScale
 70
     0
300
1/64" = 1'-0"
140
0.015625
141
12.0
290
     0
  0
SCALE
  5
5B
102
{ACAD_REACTORS
330
47
102
}
330
47
100
AcDbScale
 70
     0
300
1/32" = 1'-0"
140
0.03125
141
12.0
290
     0
  0
SCALE
  5
5C
102
{ACAD_REACTORS
330
47
102
}
330
47
100
AcDbScale
 70
     0
300
1/16" = 1'-0"
140
0.0625
141
12.0
290
     0
  0
SCALE
  5
5D
102
{ACAD_REACTORS
330
47
102
}
330
47
100
AcDbScale
 70
     0
300
3/32" = 1'-0"
140
0.09375
141
12.0
290
     0
  0
SCALE
  5
5E
102
{ACAD_REACTORS
330
47
102
}
330
47
100
AcDbScale
 70
     0
300
1/8" = 1'-0"
140
0.125
141
12.0
290
     0
  0
SCALE
  5
5F
102
{ACAD_REACTORS
330
47
102
}
330
47
100
AcDbScale
 70
     0
300
3/16" = 1'-0"
140
0.1875
141
12.0
290
     0
  0
SCALE
  5
60
102
{ACAD_REACTORS
330
47
102
}
330
47
100
AcDbScale
 70
     0
300
1/4" = 1'-0"
140
0.25
141
12.0
290
     0
  0
SCALE
  5
61
102
{ACAD_REACTORS
330
47
102
}
330
47
100
AcDbScale
 70
     0
300
3/8" = 1'-0"
140
0.375
141
12.0
290
     0
  0
SCALE
  5
62
102
{ACAD_REACTORS
330
47
102
}
330
47
100
AcDbScale
 70
     0
300
1/2" = 1'-0"
140
0.5
141
12.0
290
     0
  0
SCALE
  5
63
102
{ACAD_REACTORS
330
47
102
}
330
47
100
AcDbScale
 70
     0
300
3/4" = 1'-0"
140
0.75
141
12.0
290
     0
  0
SCALE
  5
64
102
{ACAD_REACTORS
330
47
102
}
330
47
100
AcDbScale
 70
     0
300
1" = 1'-0"
140
1.0
141
12.0
290
     0
  0
SCALE
  5
65
102
{ACAD_REACTORS
330
47
102
}
330
47
100
AcDbScale
 70
     0
300
1-1/2" = 1'-0"
140
1.5
141
12.0
290
     0
  0
SCALE
  5
66
102
{ACAD_REACTORS
330
47
102
}
330
47
100
AcDbScale
 70
     0
300
3" = 1'-0"
140
3.0
141
12.0
290
     0
  0
SCALE
  5
67
102
{ACAD_REACTORS
330
47
102
}
330
47
100
AcDbScale
 70
     0
300
6" = 1'-0"
140
6.0
141
12.0
290
     0
  0
SCALE
  5
68
102
{ACAD_REACTORS
330
47
102
}
330
47
100
AcDbScale
 70
     0
300
1'-0" = 1'-0"
140
12.0
141
12.0
290
     0
  0
ENDSEC
  0
EOF
