  0
SECTION
  2
HEADER
  9
$ACADVER
  1
AC1015
  9
$ACADMAINTVER
 70
     6
  9
$DWGCODEPAGE
  3
ANSI_1250
  9
$INSBASE
 10
0.0
 20
0.0
 30
0.0
  9
$EXTMIN
 10
0.0
 20
0.0
 30
0.0
  9
$EXTMAX
 10
297.0
 20
210.0
 30
0.0
  9
$LIMMIN
 10
0.0
 20
0.0
  9
$LIMMAX
 10
297.0
 20
210.0
  9
$ORTHOMODE
 70
     0
  9
$REGENMODE
 70
     1
  9
$FILLMODE
 70
     1
  9
$QTEXTMODE
 70
     0
  9
$MIRRTEXT
 70
     1
  9
$LTSCALE
 40
1.0
  9
$ATTMODE
 70
     1
  9
$TEXTSIZE
 40
3.5
  9
$TRACEWID
 40
1.0
  9
$TEXTSTYLE
  7
Standard
  9
$CLAYER
  8
0
  9
$CELTYPE
  6
ByLayer
  9
$CECOLOR
 62
   256
  9
$CELTSCALE
 40
1.0
  9
$DISPSILH
 70
     0
  9
$DIMSCALE
 40
1.0
  9
$DIMASZ
 40
3.302
  9
$DIMEXO
 40
1.0
  9
$DIMDLI
 40
3.75
  9
$DIMRND
 40
0.0
  9
$DIMDLE
 40
0.0
  9
$DIMEXE
 40
1.0
  9
$DIMTP
 40
0.0
  9
$DIMTM
 40
0.0
  9
$DIMTXT
 40
3.5
  9
$DIMCEN
 40
2.5
  9
$DIMTSZ
 40
0.0
  9
$DIMTOL
 70
     0
  9
$DIMLIM
 70
     0
  9
$DIMTIH
 70
     1
  9
$DIMTOH
 70
     1
  9
$DIMSE1
 70
     0
  9
$DIMSE2
 70
     0
  9
$DIMTAD
 70
     1
  9
$DIMZIN
 70
     0
  9
$DIMBLK
  1

  9
$DIMASO
 70
     1
  9
$DIMSHO
 70
     1
  9
$DIMPOST
  1

  9
$DIMAPOST
  1

  9
$DIMALT
 70
     0
  9
$DIMALTD
 70
     3
  9
$DIMALTF
 40
0.0393700787
  9
$DIMLFAC
 40
1.0
  9
$DIMTOFL
 70
     1
  9
$DIMTVP
 40
0.0
  9
$DIMTIX
 70
     0
  9
$DIMSOXD
 70
     0
  9
$DIMSAH
 70
     0
  9
$DIMBLK1
  1

  9
$DIMBLK2
  1

  9
$DIMSTYLE
  2
ISO-25
  9
$DIMCLRD
 70
     0
  9
$DIMCLRE
 70
     0
  9
$DIMCLRT
 70
     0
  9
$DIMTFAC
 40
1.0
  9
$DIMGAP
 40
1.524
  9
$DIMJUST
 70
     0
  9
$DIMSD1
 70
     0
  9
$DIMSD2
 70
     0
  9
$DIMTOLJ
 70
     0
  9
$DIMTZIN
 70
     0
  9
$DIMALTZ
 70
     0
  9
$DIMALTTZ
 70
     0
  9
$DIMUPT
 70
     0
  9
$DIMDEC
 70
     2
  9
$DIMTDEC
 70
     2
  9
$DIMALTU
 70
     2
  9
$DIMALTTD
 70
     3
  9
$DIMTXSTY
  7
Standard
  9
$DIMAUNIT
 70
     0
  9
$DIMADEC
 70
     2
  9
$DIMALTRND
 40
0.0
  9
$DIMAZIN
 70
     0
  9
$DIMDSEP
 70
    44
  9
$DIMATFIT
 70
     3
  9
$DIMFRAC
 70
     0
  9
$DIMLDRBLK
  1

  9
$DIMLUNIT
 70
     2
  9
$DIMLWD
 70
    -2
  9
$DIMLWE
 70
    -2
  9
$DIMTMOVE
 70
     0
  9
$LUNITS
 70
     2
  9
$LUPREC
 70
     2
  9
$SKETCHINC
 40
1.0
  9
$FILLETRAD
 40
10.0
  9
$AUNITS
 70
     0
  9
$AUPREC
 70
     2
  9
$MENU
  1
.
  9
$ELEVATION
 40
0.0
  9
$PELEVATION
 40
0.0
  9
$THICKNESS
 40
0.0
  9
$LIMCHECK
 70
     0
  9
$CHAMFERA
 40
0.0
  9
$CHAMFERB
 40
0.0
  9
$CHAMFERC
 40
0.0
  9
$CHAMFERD
 40
0.0
  9
$SKPOLY
 70
     0
  9
$TDCREATE
 40
2459290.490953634
  9
$TDUCREATE
 40
2459290.449286968
  9
$TDUPDATE
 40
2459290.490954606
  9
$TDUUPDATE
 40
2459290.44928794
  9
$TDINDWG
 40
0.0000000116
  9
$TDUSRTIMER
 40
0.0000000116
  9
$USRTIMER
 70
     1
  9
$ANGBASE
 50
0.0
  9
$ANGDIR
 70
     0
  9
$PDMODE
 70
     0
  9
$PDSIZE
 40
-1.0
  9
$PLINEWID
 40
0.0
  9
$SPLFRAME
 70
     0
  9
$SPLINETYPE
 70
     6
  9
$SPLINESEGS
 70
     8
  9
$HANDSEED
  5
22D
  9
$SURFTAB1
 70
     6
  9
$SURFTAB2
 70
     6
  9
$SURFTYPE
 70
     6
  9
$SURFU
 70
     6
  9
$SURFV
 70
     6
  9
$UCSBASE
  2

  9
$UCSNAME
  2

  9
$UCSORG
 10
0.0
 20
0.0
 30
0.0
  9
$UCSXDIR
 10
1.0
 20
0.0
 30
0.0
  9
$UCSYDIR
 10
0.0
 20
1.0
 30
0.0
  9
$UCSORTHOREF
  2

  9
$UCSORTHOVIEW
 70
     0
  9
$UCSORGTOP
 10
0.0
 20
0.0
 30
0.0
  9
$UCSORGBOTTOM
 10
0.0
 20
0.0
 30
0.0
  9
$UCSORGLEFT
 10
0.0
 20
0.0
 30
0.0
  9
$UCSORGRIGHT
 10
0.0
 20
0.0
 30
0.0
  9
$UCSORGFRONT
 10
0.0
 20
0.0
 30
0.0
  9
$UCSORGBACK
 10
0.0
 20
0.0
 30
0.0
  9
$PUCSBASE
  2

  9
$PUCSNAME
  2

  9
$PUCSORG
 10
0.0
 20
0.0
 30
0.0
  9
$PUCSXDIR
 10
1.0
 20
0.0
 30
0.0
  9
$PUCSYDIR
 10
0.0
 20
1.0
 30
0.0
  9
$PUCSORTHOREF
  2

  9
$PUCSORTHOVIEW
 70
     0
  9
$PUCSORGTOP
 10
0.0
 20
0.0
 30
0.0
  9
$PUCSORGBOTTOM
 10
0.0
 20
0.0
 30
0.0
  9
$PUCSORGLEFT
 10
0.0
 20
0.0
 30
0.0
  9
$PUCSORGRIGHT
 10
0.0
 20
0.0
 30
0.0
  9
$PUCSORGFRONT
 10
0.0
 20
0.0
 30
0.0
  9
$PUCSORGBACK
 10
0.0
 20
0.0
 30
0.0
  9
$USERI1
 70
     0
  9
$USERI2
 70
     0
  9
$USERI3
 70
     0
  9
$USERI4
 70
     0
  9
$USERI5
 70
     0
  9
$USERR1
 40
0.0
  9
$USERR2
 40
0.0
  9
$USERR3
 40
0.0
  9
$USERR4
 40
0.0
  9
$USERR5
 40
0.0
  9
$WORLDVIEW
 70
     1
  9
$SHADEDGE
 70
     3
  9
$SHADEDIF
 70
    70
  9
$TILEMODE
 70
     1
  9
$MAXACTVP
 70
    64
  9
$PINSBASE
 10
0.0
 20
0.0
 30
0.0
  9
$PLIMCHECK
 70
     0
  9
$PEXTMIN
 10
1.0000000000E+20
 20
1.0000000000E+20
 30
1.0000000000E+20
  9
$PEXTMAX
 10
-1.0000000000E+20
 20
-1.0000000000E+20
 30
-1.0000000000E+20
  9
$PLIMMIN
 10
0.0
 20
0.0
  9
$PLIMMAX
 10
420.0
 20
297.0
  9
$UNITMODE
 70
     0
  9
$VISRETAIN
 70
     1
  9
$PLINEGEN
 70
     0
  9
$PSLTSCALE
 70
     1
  9
$TREEDEPTH
 70
  3020
  9
$CMLSTYLE
  2
Standard
  9
$CMLJUST
 70
     0
  9
$CMLSCALE
 40
20.0
  9
$PROXYGRAPHICS
 70
     1
  9
$MEASUREMENT
 70
     1
  9
$CELWEIGHT
370
    -1
  9
$ENDCAPS
280
     0
  9
$JOINSTYLE
280
     0
  9
$LWDISPLAY
290
     1
  9
$INSUNITS
 70
     4
  9
$HYPERLINKBASE
  1

  9
$STYLESHEET
  1

  9
$XEDIT
290
     1
  9
$CEPSNTYPE
380
     0
  9
$PSTYLEMODE
290
     1
  9
$FINGERPRINTGUID
  2
{0C2FAC0C-9172-4DB3-BE5D-1510009C82D6}
  9
$VERSIONGUID
  2
{FAEB1C32-E019-11D5-929B-00C0DF256EC4}
  9
$EXTNAMES
290
     1
  9
$PSVPSCALE
 40
0.0
  9
$OLESTARTUP
290
     0
  0
ENDSEC
  0
SECTION
  2
CLASSES
  0
CLASS
  1
ACDBDICTIONARYWDFLT
  2
AcDbDictionaryWithDefault
  3
ObjectDBX Classes
 90
        0
280
     0
281
     0
  0
CLASS
  1
VISUALSTYLE
  2
AcDbVisualStyle
  3
ObjectDBX Classes
 90
     4095
280
     0
281
     0
  0
CLASS
  1
MATERIAL
  2
AcDbMaterial
  3
ObjectDBX Classes
 90
     1153
280
     0
281
     0
  0
CLASS
  1
SCALE
  2
AcDbScale
  3
ObjectDBX Classes
 90
     1153
280
     0
281
     0
  0
CLASS
  1
TABLESTYLE
  2
AcDbTableStyle
  3
ObjectDBX Classes
 90
     4095
280
     0
281
     0
  0
CLASS
  1
MLEADERSTYLE
  2
AcDbMLeaderStyle
  3
ACDB_MLEADERSTYLE_CLASS
 90
     4095
280
     0
281
     0
  0
CLASS
  1
SUN
  2
AcDbSun
  3
SCENEOE
 90
     1153
280
     0
281
     0
  0
CLASS
  1
ACDBPLACEHOLDER
  2
AcDbPlaceHolder
  3
ObjectDBX Classes
 90
        0
280
     0
281
     0
  0
CLASS
  1
LAYOUT
  2
AcDbLayout
  3
ObjectDBX Classes
 90
        0
280
     0
281
     0
  0
ENDSEC
  0
SECTION
  2
TABLES
  0
TABLE
  2
VPORT
  5
8
330
0
100
AcDbSymbolTable
 70
     1
  0
VPORT
  5
29
330
8
100
AcDbSymbolTableRecord
100
AcDbViewportTableRecord
  2
*Active
 70
     0
 10
0.0
 20
0.0
 11
1.0
 21
1.0
 12
148.5
 22
105.0
 13
0.0
 23
0.0
 14
10.0
 24
10.0
 15
10.0
 25
10.0
 16
0.0
 26
0.0
 36
1.0
 17
0.0
 27
0.0
 37
0.0
 40
210.0
 41
1.4142857143
 42
50.0
 43
0.0
 44
0.0
 50
0.0
 51
0.0
 71
     0
 72
  2000
 73
     1
 74
     3
 75
     0
 76
     0
 77
     0
 78
     0
281
     0
 65
     1
110
0.0
120
0.0
130
0.0
111
1.0
121
0.0
131
0.0
112
0.0
122
1.0
132
0.0
 79
     0
146
0.0
  0
ENDTAB
  0
TABLE
  2
LTYPE
  5
5
330
0
100
AcDbSymbolTable
 70
     8
  0
LTYPE
  5
14
330
5
100
AcDbSymbolTableRecord
100
AcDbLinetypeTableRecord
  2
ByBlock
 70
     0
  3

 72
    65
 73
     0
 40
0.0
  0
LTYPE
  5
15
330
5
100
AcDbSymbolTableRecord
100
AcDbLinetypeTableRecord
  2
ByLayer
 70
     0
  3

 72
    65
 73
     0
 40
0.0
  0
LTYPE
  5
16
330
5
100
AcDbSymbolTableRecord
100
AcDbLinetypeTableRecord
  2
Continuous
 70
     0
  3
Solid line
 72
    65
 73
     0
 40
0.0
  0
LTYPE
  5
6E
330
5
100
AcDbSymbolTableRecord
100
AcDbLinetypeTableRecord
  2
SLD-Solid
 70
     0
  3
SolidWorks Line Style
 72
    65
 73
     0
 40
0.0
  0
LTYPE
  5
6F
330
5
100
AcDbSymbolTableRecord
100
AcDbLinetypeTableRecord
  2
SLD-Dashed
 70
     0
  3
SolidWorks Line Style
 72
    65
 73
     2
 40
1.905
 49
1.27
 74
     0
 49
-0.635
 74
     0
  0
LTYPE
  5
70
330
5
100
AcDbSymbolTableRecord
100
AcDbLinetypeTableRecord
  2
SLD-Phantom
 70
     0
  3
SolidWorks Line Style
 72
    65
 73
     6
 40
12.7
 49
6.35
 74
     0
 49
-1.27
 74
     0
 49
1.27
 74
     0
 49
-1.27
 74
     0
 49
1.27
 74
     0
 49
-1.27
 74
     0
  0
LTYPE
  5
71
330
5
100
AcDbSymbolTableRecord
100
AcDbLinetypeTableRecord
  2
SLD-Chain
 70
     0
  3
SolidWorks Line Style
 72
    65
 73
     4
 40
10.16
 49
6.35
 74
     0
 49
-1.27
 74
     0
 49
1.27
 74
     0
 49
-1.27
 74
     0
  0
LTYPE
  5
72
330
5
100
AcDbSymbolTableRecord
100
AcDbLinetypeTableRecord
  2
SLD-Center
 70
     0
  3
SolidWorks Line Style
 72
    65
 73
     4
 40
19.05
 49
15.24
 74
     0
 49
-1.27
 74
     0
 49
1.27
 74
     0
 49
-1.27
 74
     0
  0
LTYPE
  5
73
330
5
100
AcDbSymbolTableRecord
100
AcDbLinetypeTableRecord
  2
SLD-Stitch
 70
     0
  3
SolidWorks Line Style
 72
    65
 73
     2
 40
0.635
 49
0.0
 74
     0
 49
-0.635
 74
     0
  0
LTYPE
  5
74
330
5
100
AcDbSymbolTableRecord
100
AcDbLinetypeTableRecord
  2
SLD-Thin-Thick-Chain
 70
     0
  3
SolidWorks Line Style
 72
    65
 73
     4
 40
10.16
 49
6.35
 74
     0
 49
-1.27
 74
     0
 49
1.27
 74
     0
 49
-1.27
 74
     0
  0
ENDTAB
  0
TABLE
  2
LAYER
  5
2
330
0
100
AcDbSymbolTable
 70
    12
  0
LAYER
  5
10
330
2
100
AcDbSymbolTableRecord
100
AcDbLayerTableRecord
  2
0
 70
     0
 62
     7
  6
Continuous
370
    -3
390
F
  0
LAYER
  5
75
330
2
100
AcDbSymbolTableRecord
100
AcDbLayerTableRecord
  2
SLD-0
 70
     0
 62
   179
  6
SLD-Solid
370
    -3
390
F
  0
LAYER
  5
76
330
2
100
AcDbSymbolTableRecord
100
AcDbLayerTableRecord
  2
80
 70
     0
 62
    -6
  6
SLD-Solid
290
     0
370
    -3
390
F
  0
LAYER
  5
77
330
2
100
AcDbSymbolTableRecord
100
AcDbLayerTableRecord
  2
81
 70
     0
 62
    -3
  6
SLD-Solid
290
     0
370
    -3
390
F
  0
LAYER
  5
78
330
2
100
AcDbSymbolTableRecord
100
AcDbLayerTableRecord
  2
1
 70
     0
 62
     4
  6
SLD-Solid
290
     0
370
    -3
390
F
  0
LAYER
  5
79
330
2
100
AcDbSymbolTableRecord
100
AcDbLayerTableRecord
  2
4
 70
     0
 62
    -2
  6
SLD-Chain
290
     0
370
    -3
390
F
  0
LAYER
  5
7A
330
2
100
AcDbSymbolTableRecord
100
AcDbLayerTableRecord
  2
2
 70
     0
 62
     7
  6
SLD-Solid
290
     0
370
    -3
390
F
  0
LAYER
  5
7B
330
2
100
AcDbSymbolTableRecord
100
AcDbLayerTableRecord
  2
SK3
 70
     0
 62
     1
  6
SLD-Dashed
290
     0
370
    -3
390
F
  0
LAYER
  5
7C
330
2
100
AcDbSymbolTableRecord
100
AcDbLayerTableRecord
  2
SK4
 70
     0
 62
     2
  6
SLD-Chain
290
     0
370
    -3
390
F
  0
LAYER
  5
7D
330
2
100
AcDbSymbolTableRecord
100
AcDbLayerTableRecord
  2
SK2
 70
     0
 62
     7
  6
SLD-Solid
290
     0
370
    -3
390
F
  0
LAYER
  5
7E
330
2
100
AcDbSymbolTableRecord
100
AcDbLayerTableRecord
  2
SK6
 70
     0
 62
     5
  6
SLD-Solid
290
     0
370
    -3
390
F
  0
LAYER
  5
7F
330
2
100
AcDbSymbolTableRecord
100
AcDbLayerTableRecord
  2
SK1
 70
     0
 62
     4
  6
SLD-Solid
370
    -3
390
F
  0
ENDTAB
  0
TABLE
  2
STYLE
  5
3
330
0
100
AcDbSymbolTable
 70
     2
  0
STYLE
  5
11
330
3
100
AcDbSymbolTableRecord
100
AcDbTextStyleTableRecord
  2
Standard
 70
     0
 40
0.0
 41
1.0
 50
0.0
 71
     0
 42
3.5
  3
txt
  4

  0
STYLE
  5
1CB
330
3
100
AcDbSymbolTableRecord
100
AcDbTextStyleTableRecord
  2
SLDTEXTSTYLE0
 70
     0
 40
0.0
 41
0.75
 50
0.0
 71
     0
 42
3.5
  3
TXT
  4

  0
ENDTAB
  0
TABLE
  2
VIEW
  5
6
330
0
100
AcDbSymbolTable
 70
     0
  0
ENDTAB
  0
TABLE
  2
UCS
  5
7
330
0
100
AcDbSymbolTable
 70
     0
  0
ENDTAB
  0
TABLE
  2
APPID
  5
9
330
0
100
AcDbSymbolTable
 70
     1
  0
APPID
  5
12
330
9
100
AcDbSymbolTableRecord
100
AcDbRegAppTableRecord
  2
ACAD
 70
     0
  0
ENDTAB
  0
TABLE
  2
DIMSTYLE
  5
A
330
0
100
AcDbSymbolTable
 70
     2
100
AcDbDimStyleTable
  0
DIMSTYLE
105
27
330
A
100
AcDbSymbolTableRecord
100
AcDbDimStyleTableRecord
  2
ISO-25
 70
     0
 41
2.5
 42
0.625
 43
3.75
 44
1.25
 73
     0
 74
     0
 77
     1
 78
     8
140
2.5
141
2.5
143
0.0393700787
147
0.625
171
     3
172
     1
178
     0
271
     2
272
     2
274
     3
278
    44
283
     0
284
     8
340
11
  0
DIMSTYLE
105
1CC
102
{ACAD_REACTORS
330
1CA
330
1D6
330
1E0
330
1EA
330
1F4
330
1FF
330
20A
330
215
330
220
102
}
330
A
100
AcDbSymbolTableRecord
100
AcDbDimStyleTableRecord
  2
SLDDIMSTYLE0
 70
     0
 41
3.302
 44
0.0
 45
0.000000001
 73
     0
 74
     0
 77
     1
 78
    12
 79
     3
140
3.5
147
0.875
173
     1
178
     0
271
     2
272
     2
276
     2
284
    12
340
1CB
  0
ENDTAB
  0
TABLE
  2
BLOCK_RECORD
  5
1
330
0
100
AcDbSymbolTable
 70
    12
  0
BLOCK_RECORD
  5
1F
330
1
100
AcDbSymbolTableRecord
100
AcDbBlockTableRecord
  2
*Model_Space
340
22
  0
BLOCK_RECORD
  5
1B
330
1
100
AcDbSymbolTableRecord
100
AcDbBlockTableRecord
  2
*Paper_Space
340
1E
  0
BLOCK_RECORD
  5
23
330
1
100
AcDbSymbolTableRecord
100
AcDbBlockTableRecord
  2
*Paper_Space0
340
26
  0
BLOCK_RECORD
  5
80
330
1
100
AcDbSymbolTableRecord
100
AcDbBlockTableRecord
  2
Block11
340
0
102
{BLKREFS
331
1C8
102
}
  0
BLOCK_RECORD
  5
89
330
1
100
AcDbSymbolTableRecord
100
AcDbBlockTableRecord
  2
Block12
340
0
102
{BLKREFS
331
1C9
102
}
  0
BLOCK_RECORD
  5
1CD
330
1
100
AcDbSymbolTableRecord
100
AcDbBlockTableRecord
  2
_D
340
0
  0
BLOCK_RECORD
  5
1D7
330
1
100
AcDbSymbolTableRecord
100
AcDbBlockTableRecord
  2
_D_1
340
0
  0
BLOCK_RECORD
  5
1E1
330
1
100
AcDbSymbolTableRecord
100
AcDbBlockTableRecord
  2
_D_2
340
0
  0
BLOCK_RECORD
  5
1EB
330
1
100
AcDbSymbolTableRecord
100
AcDbBlockTableRecord
  2
_D_3
340
0
  0
BLOCK_RECORD
  5
1F5
330
1
100
AcDbSymbolTableRecord
100
AcDbBlockTableRecord
  2
_D_4
340
0
  0
BLOCK_RECORD
  5
200
330
1
100
AcDbSymbolTableRecord
100
AcDbBlockTableRecord
  2
_D_5
340
0
  0
BLOCK_RECORD
  5
20B
330
1
100
AcDbSymbolTableRecord
100
AcDbBlockTableRecord
  2
_D_6
340
0
  0
BLOCK_RECORD
  5
216
330
1
100
AcDbSymbolTableRecord
100
AcDbBlockTableRecord
  2
_D_7
340
0
  0
BLOCK_RECORD
  5
221
330
1
100
AcDbSymbolTableRecord
100
AcDbBlockTableRecord
  2
_D_8
340
0
  0
ENDTAB
  0
ENDSEC
  0
SECTION
  2
BLOCKS
  0
BLOCK
  5
20
330
1F
100
AcDbEntity
  8
0
100
AcDbBlockBegin
  2
*Model_Space
 70
     0
 10
0.0
 20
0.0
 30
0.0
  3
*Model_Space
  1

  0
ENDBLK
  5
21
330
1F
100
AcDbEntity
  8
0
100
AcDbBlockEnd
  0
BLOCK
  5
1C
330
1B
100
AcDbEntity
 67
     1
  8
0
100
AcDbBlockBegin
  2
*Paper_Space
 70
     0
 10
0.0
 20
0.0
 30
0.0
  3
*Paper_Space
  1

  0
ENDBLK
  5
1D
330
1B
100
AcDbEntity
 67
     1
  8
0
100
AcDbBlockEnd
  0
BLOCK
  5
24
330
23
100
AcDbEntity
  8
0
100
AcDbBlockBegin
  2
*Paper_Space0
 70
     0
 10
0.0
 20
0.0
 30
0.0
  3
*Paper_Space0
  1

  0
ENDBLK
  5
25
330
23
100
AcDbEntity
  8
0
100
AcDbBlockEnd
  0
BLOCK
  5
81
330
80
100
AcDbEntity
  8
0
100
AcDbBlockBegin
  2
Block11
 70
     0
 10
0.0
 20
0.0
 30
0.0
  3
Block11
  1

  0
CIRCLE
  5
83
330
80
100
AcDbEntity
  8
81
370
    18
100
AcDbCircle
 10
91.6264826505
 20
130.2676275275
 30
0.0
 40
2.499999999999981
  0
LINE
  5
84
330
80
100
AcDbEntity
  8
81
370
    18
100
AcDbLine
 10
91.6264826505
 20
130.2676275275
 30
0.0
 11
95.1620165565
 21
133.8031614334
 31
0.0
  0
LINE
  5
85
330
80
100
AcDbEntity
  8
81
370
    18
100
AcDbLine
 10
91.6264826505
 20
130.2676275275
 30
0.0
 11
88.0909487446
 21
126.7320936216
 31
0.0
  0
LINE
  5
86
330
80
100
AcDbEntity
  8
81
370
    18
100
AcDbLine
 10
91.6264826505
 20
130.2676275275
 30
0.0
 11
88.0909487446
 21
133.8031614334
 31
0.0
  0
LINE
  5
87
330
80
100
AcDbEntity
  8
81
100
AcDbLine
 10
91.6264826505
 20
130.2676275275
 30
0.0
 11
101.6264826505
 21
130.2676275275
 31
0.0
  0
LINE
  5
88
330
80
100
AcDbEntity
  8
81
370
    18
100
AcDbLine
 10
91.6264826505
 20
130.2676275275
 30
0.0
 11
95.1620165565
 21
126.7320936216
 31
0.0
  0
ENDBLK
  5
82
330
80
100
AcDbEntity
  8
0
100
AcDbBlockEnd
  0
BLOCK
  5
8A
330
89
100
AcDbEntity
  8
0
100
AcDbBlockBegin
  2
Block12
 70
     0
 10
0.0
 20
0.0
 30
0.0
  3
Block12
  1

  0
CIRCLE
  5
8C
330
89
100
AcDbEntity
  8
80
370
    18
100
AcDbCircle
 10
61.7273641656
 20
130.3356800267
 30
0.0
 40
2.500000000000004
  0
LINE
  5
8D
330
89
100
AcDbEntity
  8
80
370
    18
100
AcDbLine
 10
61.7273641656
 20
130.3356800267
 30
0.0
 11
65.2628980715
 21
133.8712139326
 31
0.0
  0
LINE
  5
8E
330
89
100
AcDbEntity
  8
80
370
    18
100
AcDbLine
 10
61.7273641656
 20
130.3356800267
 30
0.0
 11
58.1918302597
 21
126.8001461208
 31
0.0
  0
LINE
  5
8F
330
89
100
AcDbEntity
  8
80
370
    18
100
AcDbLine
 10
61.7273641656
 20
130.3356800267
 30
0.0
 11
58.1918302597
 21
133.8712139326
 31
0.0
  0
LINE
  5
90
330
89
100
AcDbEntity
  8
80
370
    18
100
AcDbLine
 10
61.7273641656
 20
130.3356800267
 30
0.0
 11
51.7273641656
 21
130.3356800267
 31
0.0
  0
LINE
  5
91
330
89
100
AcDbEntity
  8
80
370
    18
100
AcDbLine
 10
61.7273641656
 20
130.3356800267
 30
0.0
 11
65.2628980715
 21
126.8001461208
 31
0.0
  0
ENDBLK
  5
8B
330
89
100
AcDbEntity
  8
0
100
AcDbBlockEnd
  0
BLOCK
  5
1CE
330
1CD
100
AcDbEntity
  8
0
100
AcDbBlockBegin
  2
_D
 70
     0
 10
0.0
 20
0.0
 30
0.0
  3
_D
  1

  0
SOLID
  5
1D0
330
1CD
100
AcDbEntity
  8
SK2
100
AcDbTrace
 10
0.0
 20
58.8413100063
 30
0.0
 11
3.302
 21
58.3333100063
 31
0.0
 12
3.302
 22
59.3493100063
 32
0.0
 13
3.302
 23
59.3493100063
 33
0.0
  0
SOLID
  5
1D1
330
1CD
100
AcDbEntity
  8
SK2
100
AcDbTrace
 10
38.0
 20
58.8413100063
 30
0.0
 11
34.698
 21
59.3493100063
 31
0.0
 12
34.698
 22
58.3333100063
 32
0.0
 13
34.698
 23
58.3333100063
 33
0.0
  0
LINE
  5
1D2
330
1CD
100
AcDbEntity
  8
SK2
100
AcDbLine
 10
0.0
 20
35.925
 30
0.0
 11
0.0
 21
59.8413100063
 31
0.0
  0
LINE
  5
1D3
330
1CD
100
AcDbEntity
  8
SK2
100
AcDbLine
 10
38.0
 20
50.228682327
 30
0.0
 11
38.0
 21
59.8413100063
 31
0.0
  0
LINE
  5
1D4
330
1CD
100
AcDbEntity
  8
SK2
100
AcDbLine
 10
0.0
 20
58.8413100063
 30
0.0
 11
38.0
 21
58.8413100063
 31
0.0
  0
MTEXT
  5
1D5
330
1CD
100
AcDbEntity
  8
SK2
100
AcDbMText
 10
16.2294639064
 20
63.3530469209
 30
0.0
 40
3.5
 41
0.0
 71
     1
 72
     1
  1
38
  7
SLDTEXTSTYLE0
 73
     1
 44
1.0
  0
ENDBLK
  5
1CF
330
1CD
100
AcDbEntity
  8
0
100
AcDbBlockEnd
  0
BLOCK
  5
1D8
330
1D7
100
AcDbEntity
  8
0
100
AcDbBlockBegin
  2
_D_1
 70
     0
 10
0.0
 20
0.0
 30
0.0
  3
_D_1
  1

  0
SOLID
  5
1DA
330
1D7
100
AcDbEntity
  8
SK2
100
AcDbTrace
 10
38.0
 20
58.8413100063
 30
0.0
 11
41.302
 21
58.3333100063
 31
0.0
 12
41.302
 22
59.3493100063
 32
0.0
 13
41.302
 23
59.3493100063
 33
0.0
  0
SOLID
  5
1DB
330
1D7
100
AcDbEntity
  8
SK2
100
AcDbTrace
 10
100.0
 20
58.8413100063
 30
0.0
 11
96.698
 21
59.3493100063
 31
0.0
 12
96.698
 22
58.3333100063
 32
0.0
 13
96.698
 23
58.3333100063
 33
0.0
  0
LINE
  5
1DC
330
1D7
100
AcDbEntity
  8
SK2
100
AcDbLine
 10
38.0
 20
50.228682327
 30
0.0
 11
38.0
 21
59.8413100063
 31
0.0
  0
LINE
  5
1DD
330
1D7
100
AcDbEntity
  8
SK2
100
AcDbLine
 10
100.0
 20
30.2
 30
0.0
 11
100.0
 21
59.8413100063
 31
0.0
  0
LINE
  5
1DE
330
1D7
100
AcDbEntity
  8
SK2
100
AcDbLine
 10
38.0
 20
58.8413100063
 30
0.0
 11
100.0
 21
58.8413100063
 31
0.0
  0
MTEXT
  5
1DF
330
1D7
100
AcDbEntity
  8
SK2
100
AcDbMText
 10
64.3305041288
 20
63.3530469209
 30
0.0
 40
3.5
 41
0.0
 71
     1
 72
     1
  1
62
  7
SLDTEXTSTYLE0
 73
     1
 44
1.0
  0
ENDBLK
  5
1D9
330
1D7
100
AcDbEntity
  8
0
100
AcDbBlockEnd
  0
BLOCK
  5
1E2
330
1E1
100
AcDbEntity
  8
0
100
AcDbBlockBegin
  2
_D_2
 70
     0
 10
0.0
 20
0.0
 30
0.0
  3
_D_2
  1

  0
SOLID
  5
1E4
330
1E1
100
AcDbEntity
  8
2
100
AcDbTrace
 10
100.0
 20
70.2666162401
 30
0.0
 11
96.698
 21
70.7746162401
 31
0.0
 12
96.698
 22
69.7586162401
 32
0.0
 13
96.698
 23
69.7586162401
 33
0.0
  0
SOLID
  5
1E5
330
1E1
100
AcDbEntity
  8
2
100
AcDbTrace
 10
0.0
 20
70.2666162401
 30
0.0
 11
3.302
 21
69.7586162401
 31
0.0
 12
3.302
 22
70.7746162401
 32
0.0
 13
3.302
 23
70.7746162401
 33
0.0
  0
LINE
  5
1E6
330
1E1
100
AcDbEntity
  8
2
100
AcDbLine
 10
100.0
 20
16.687031056
 30
0.0
 11
100.0
 21
71.2666162401
 31
0.0
  0
LINE
  5
1E7
330
1E1
100
AcDbEntity
  8
2
100
AcDbLine
 10
0.0
 20
35.925
 30
0.0
 11
0.0
 21
71.2666162401
 31
0.0
  0
LINE
  5
1E8
330
1E1
100
AcDbEntity
  8
2
100
AcDbLine
 10
100.0
 20
70.2666162401
 30
0.0
 11
0.0
 21
70.2666162401
 31
0.0
  0
MTEXT
  5
1E9
330
1E1
100
AcDbEntity
  8
2
100
AcDbMText
 10
45.8520831377
 20
74.7783531546
 30
0.0
 40
3.5
 41
0.0
 71
     1
 72
     1
  1
100
  7
SLDTEXTSTYLE0
 73
     1
 44
1.0
  0
ENDBLK
  5
1E3
330
1E1
100
AcDbEntity
  8
0
100
AcDbBlockEnd
  0
BLOCK
  5
1EC
330
1EB
100
AcDbEntity
  8
0
100
AcDbBlockBegin
  2
_D_3
 70
     0
 10
0.0
 20
0.0
 30
0.0
  3
_D_3
  1

  0
SOLID
  5
1EE
330
1EB
100
AcDbEntity
  8
SK2
100
AcDbTrace
 10
100.0
 20
58.8413100063
 30
0.0
 11
103.302
 21
58.3333100063
 31
0.0
 12
103.302
 22
59.3493100063
 32
0.0
 13
103.302
 23
59.3493100063
 33
0.0
  0
SOLID
  5
1EF
330
1EB
100
AcDbEntity
  8
SK2
100
AcDbTrace
 10
121.0
 20
58.8413100063
 30
0.0
 11
117.698
 21
59.3493100063
 31
0.0
 12
117.698
 22
58.3333100063
 32
0.0
 13
117.698
 23
58.3333100063
 33
0.0
  0
LINE
  5
1F0
330
1EB
100
AcDbEntity
  8
SK2
100
AcDbLine
 10
100.0
 20
30.2
 30
0.0
 11
100.0
 21
59.8413100063
 31
0.0
  0
LINE
  5
1F1
330
1EB
100
AcDbEntity
  8
SK2
100
AcDbLine
 10
121.0
 20
13.9710190579
 30
0.0
 11
121.0
 21
59.8413100063
 31
0.0
  0
LINE
  5
1F2
330
1EB
100
AcDbEntity
  8
SK2
100
AcDbLine
 10
100.0
 20
58.8413100063
 30
0.0
 11
121.0
 21
58.8413100063
 31
0.0
  0
MTEXT
  5
1F3
330
1EB
100
AcDbEntity
  8
SK2
100
AcDbMText
 10
108.2736959745
 20
63.3530469209
 30
0.0
 40
3.5
 41
0.0
 71
     1
 72
     1
  1
21
  7
SLDTEXTSTYLE0
 73
     1
 44
1.0
  0
ENDBLK
  5
1ED
330
1EB
100
AcDbEntity
  8
0
100
AcDbBlockEnd
  0
BLOCK
  5
1F6
330
1F5
100
AcDbEntity
  8
0
100
AcDbBlockBegin
  2
_D_4
 70
     0
 10
0.0
 20
0.0
 30
0.0
  3
_D_4
  1

  0
SOLID
  5
1F8
330
1F5
100
AcDbEntity
  8
SK2
100
AcDbTrace
 10
161.3400590157
 20
30.0
 30
0.0
 11
160.8320590157
 21
26.698
 31
0.0
 12
161.8480590157
 22
26.698
 32
0.0
 13
161.8480590157
 23
26.698
 33
0.0
  0
SOLID
  5
1F9
330
1F5
100
AcDbEntity
  8
SK2
100
AcDbTrace
 10
161.3400590157
 20
-30.0
 30
0.0
 11
161.8480590157
 21
-26.698
 31
0.0
 12
160.8320590157
 22
-26.698
 32
0.0
 13
160.8320590157
 23
-26.698
 33
0.0
  0
LINE
  5
1FA
330
1F5
100
AcDbEntity
  8
SK2
100
AcDbLine
 10
100.2
 20
30.0
 30
0.0
 11
162.3400590157
 21
30.0
 31
0.0
  0
LINE
  5
1FB
330
1F5
100
AcDbEntity
  8
SK2
100
AcDbLine
 10
100.2
 20
-30.0
 30
0.0
 11
162.3400590157
 21
-30.0
 31
0.0
  0
LINE
  5
1FC
330
1F5
100
AcDbEntity
  8
SK2
100
AcDbLine
 10
161.3400590157
 20
30.0
 30
0.0
 11
161.3400590157
 21
-30.0
 31
0.0
  0
MTEXT
  5
1FD
330
1F5
100
AcDbEntity
  8
SK2
100
AcDbMText
 10
156.8283219265
 20
-6.0589581499
 30
0.0
 40
3.5
 41
0.0
 71
     1
 72
     1
  1
%%c
  7
SLDTEXTSTYLE0
 11
-7.044195017643634E-15
 21
1.0
 31
0.0
 73
     1
 44
1.0
  0
MTEXT
  5
1FE
330
1F5
100
AcDbEntity
  8
SK2
100
AcDbMText
 10
156.7748497498
 20
-0.7805207515
 30
0.0
 40
3.5
 41
0.0
 71
     1
 72
     1
  1
60
  7
SLDTEXTSTYLE0
 11
-7.044195017643634E-15
 21
1.0
 31
0.0
 73
     1
 44
1.0
  0
ENDBLK
  5
1F7
330
1F5
100
AcDbEntity
  8
0
100
AcDbBlockEnd
  0
BLOCK
  5
201
330
200
100
AcDbEntity
  8
0
100
AcDbBlockBegin
  2
_D_5
 70
     0
 10
0.0
 20
0.0
 30
0.0
  3
_D_5
  1

  0
SOLID
  5
203
330
200
100
AcDbEntity
  8
SK2
100
AcDbTrace
 10
150.1482870044
 20
13.5
 30
0.0
 11
149.6402870044
 21
10.198
 31
0.0
 12
150.6562870044
 22
10.198
 32
0.0
 13
150.6562870044
 23
10.198
 33
0.0
  0
SOLID
  5
204
330
200
100
AcDbEntity
  8
SK2
100
AcDbTrace
 10
150.1482870044
 20
-13.5
 30
0.0
 11
150.6562870044
 21
-10.198
 31
0.0
 12
149.6402870044
 22
-10.198
 32
0.0
 13
149.6402870044
 23
-10.198
 33
0.0
  0
LINE
  5
205
330
200
100
AcDbEntity
  8
SK2
100
AcDbLine
 10
119.0
 20
13.5
 30
0.0
 11
151.1482870044
 21
13.5
 31
0.0
  0
LINE
  5
206
330
200
100
AcDbEntity
  8
SK2
100
AcDbLine
 10
119.0
 20
-13.5
 30
0.0
 11
151.1482870044
 21
-13.5
 31
0.0
  0
LINE
  5
207
330
200
100
AcDbEntity
  8
SK2
100
AcDbLine
 10
150.1482870044
 20
13.5
 30
0.0
 11
150.1482870044
 21
-13.5
 31
0.0
  0
MTEXT
  5
208
330
200
100
AcDbEntity
  8
SK2
100
AcDbMText
 10
145.6365499152
 20
-6.0589581499
 30
0.0
 40
3.5
 41
0.0
 71
     1
 72
     1
  1
%%c
  7
SLDTEXTSTYLE0
 11
-7.044195017643634E-15
 21
1.0
 31
0.0
 73
     1
 44
1.0
  0
MTEXT
  5
209
330
200
100
AcDbEntity
  8
SK2
100
AcDbMText
 10
145.5830777386
 20
-0.7805207515
 30
0.0
 40
3.5
 41
0.0
 71
     1
 72
     1
  1
27
  7
SLDTEXTSTYLE0
 11
-7.044195017643634E-15
 21
1.0
 31
0.0
 73
     1
 44
1.0
  0
ENDBLK
  5
202
330
200
100
AcDbEntity
  8
0
100
AcDbBlockEnd
  0
BLOCK
  5
20C
330
20B
100
AcDbEntity
  8
0
100
AcDbBlockBegin
  2
_D_6
 70
     0
 10
0.0
 20
0.0
 30
0.0
  3
_D_6
  1

  0
SOLID
  5
20E
330
20B
100
AcDbEntity
  8
SK2
100
AcDbTrace
 10
-138.5039073677
 20
-49.978682327
 30
0.0
 11
-137.9959073677
 21
-46.676682327
 31
0.0
 12
-139.0119073677
 22
-46.676682327
 32
0.0
 13
-139.0119073677
 23
-46.676682327
 33
0.0
  0
SOLID
  5
20F
330
20B
100
AcDbEntity
  8
SK2
100
AcDbTrace
 10
-138.5039073677
 20
49.978682327
 30
0.0
 11
-139.0119073677
 21
46.676682327
 31
0.0
 12
-137.9959073677
 22
46.676682327
 32
0.0
 13
-137.9959073677
 23
46.676682327
 33
0.0
  0
LINE
  5
210
330
20B
100
AcDbEntity
  8
SK2
100
AcDbLine
 10
36.25
 20
-49.978682327
 30
0.0
 11
-139.5039073677
 21
-49.978682327
 31
0.0
  0
LINE
  5
211
330
20B
100
AcDbEntity
  8
SK2
100
AcDbLine
 10
34.2499629447
 20
49.978682327
 30
0.0
 11
-139.5039073677
 21
49.978682327
 31
0.0
  0
LINE
  5
212
330
20B
100
AcDbEntity
  8
SK2
100
AcDbLine
 10
-138.5039073677
 20
-49.978682327
 30
0.0
 11
-138.5039073677
 21
49.978682327
 31
0.0
  0
MTEXT
  5
213
330
20B
100
AcDbEntity
  8
SK2
100
AcDbMText
 10
-143.0156444569
 20
-7.3520138631
 30
0.0
 40
3.5
 41
0.0
 71
     1
 72
     1
  1
%%c
  7
SLDTEXTSTYLE0
 11
6.123233995736766E-17
 21
1.0
 31
0.0
 73
     1
 44
1.0
  0
MTEXT
  5
214
330
20B
100
AcDbEntity
  8
SK2
100
AcDbMText
 10
-143.0691166336
 20
-2.0735764647
 30
0.0
 40
3.5
 41
0.0
 71
     1
 72
     1
  1
100
  7
SLDTEXTSTYLE0
 11
6.123233995736766E-17
 21
1.0
 31
0.0
 73
     1
 44
1.0
  0
ENDBLK
  5
20D
330
20B
100
AcDbEntity
  8
0
100
AcDbBlockEnd
  0
BLOCK
  5
217
330
216
100
AcDbEntity
  8
0
100
AcDbBlockBegin
  2
_D_7
 70
     0
 10
0.0
 20
0.0
 30
0.0
  3
_D_7
  1

  0
SOLID
  5
219
330
216
100
AcDbEntity
  8
SK2
100
AcDbTrace
 10
-124.4927380429
 20
34.925
 30
0.0
 11
-125.0007380429
 21
31.623
 31
0.0
 12
-123.9847380429
 22
31.623
 32
0.0
 13
-123.9847380429
 23
31.623
 33
0.0
  0
SOLID
  5
21A
330
216
100
AcDbEntity
  8
SK2
100
AcDbTrace
 10
-124.4927380429
 20
-34.925
 30
0.0
 11
-123.9847380429
 21
-31.623
 31
0.0
 12
-125.0007380429
 22
-31.623
 32
0.0
 13
-125.0007380429
 23
-31.623
 33
0.0
  0
LINE
  5
21B
330
216
100
AcDbEntity
  8
SK2
100
AcDbLine
 10
-1.0
 20
34.925
 30
0.0
 11
-125.4927380429
 21
34.925
 31
0.0
  0
LINE
  5
21C
330
216
100
AcDbEntity
  8
SK2
100
AcDbLine
 10
-1.0
 20
-34.925
 30
0.0
 11
-125.4927380429
 21
-34.925
 31
0.0
  0
LINE
  5
21D
330
216
100
AcDbEntity
  8
SK2
100
AcDbLine
 10
-124.4927380429
 20
34.925
 30
0.0
 11
-124.4927380429
 21
-34.925
 31
0.0
  0
MTEXT
  5
21E
330
216
100
AcDbEntity
  8
SK2
100
AcDbMText
 10
-129.0044751321
 20
-9.2915969672
 30
0.0
 40
3.5
 41
0.0
 71
     1
 72
     1
  1
%%c
  7
SLDTEXTSTYLE0
 11
-7.044195017643634E-15
 21
1.0
 31
0.0
 73
     1
 44
1.0
  0
MTEXT
  5
21F
330
216
100
AcDbEntity
  8
SK2
100
AcDbMText
 10
-129.0579473087
 20
-4.0131595688
 30
0.0
 40
3.5
 41
0.0
 71
     1
 72
     1
  1
69,85
  7
SLDTEXTSTYLE0
 11
-7.044195017643634E-15
 21
1.0
 31
0.0
 73
     1
 44
1.0
  0
ENDBLK
  5
218
330
216
100
AcDbEntity
  8
0
100
AcDbBlockEnd
  0
BLOCK
  5
222
330
221
100
AcDbEntity
  8
0
100
AcDbBlockBegin
  2
_D_8
 70
     0
 10
0.0
 20
0.0
 30
0.0
  3
_D_8
  1

  0
SOLID
  5
224
330
221
100
AcDbEntity
  8
SK2
100
AcDbTrace
 10
-111.9681164114
 20
-12.0000001043
 30
0.0
 11
-111.4601164114
 21
-8.6980001043
 31
0.0
 12
-112.4761164114
 22
-8.6980001043
 32
0.0
 13
-112.4761164114
 23
-8.6980001043
 33
0.0
  0
SOLID
  5
225
330
221
100
AcDbEntity
  8
SK2
100
AcDbTrace
 10
-111.9681164114
 20
12.0000001043
 30
0.0
 11
-112.4761164114
 21
8.6980001043
 31
0.0
 12
-111.4601164114
 22
8.6980001043
 32
0.0
 13
-111.4601164114
 23
8.6980001043
 33
0.0
  0
LINE
  5
226
330
221
100
AcDbEntity
  8
SK2
100
AcDbLine
 10
-89.1169885397
 20
-12.0000001043
 30
0.0
 11
-112.9681164114
 21
-12.0000001043
 31
0.0
  0
LINE
  5
227
330
221
100
AcDbEntity
  8
SK2
100
AcDbLine
 10
-89.1169885397
 20
12.0000001043
 30
0.0
 11
-112.9681164114
 21
12.0000001043
 31
0.0
  0
LINE
  5
228
330
221
100
AcDbEntity
  8
SK2
100
AcDbLine
 10
-111.9681164114
 20
-12.0000001043
 30
0.0
 11
-111.9681164114
 21
12.0000001043
 31
0.0
  0
MTEXT
  5
229
330
221
100
AcDbEntity
  8
SK2
100
AcDbMText
 10
-116.4798533259
 20
-4.0544988599
 30
0.0
 40
3.5
 41
0.0
 71
     1
 72
     1
  1
M
  7
SLDTEXTSTYLE0
 11
6.123233995736766E-17
 21
1.0
 31
0.0
 73
     1
 44
1.0
  0
MTEXT
  5
22A
330
221
100
AcDbEntity
  8
SK2
100
AcDbMText
 10
-116.4798533259
 20
0.2330010745
 30
0.0
 40
3.5
 41
0.0
 71
     1
 72
     1
  1
24
  7
SLDTEXTSTYLE0
 11
6.123233995736766E-17
 21
1.0
 31
0.0
 73
     1
 44
1.0
  0
ENDBLK
  5
223
330
221
100
AcDbEntity
  8
0
100
AcDbBlockEnd
  0
ENDSEC
  0
SECTION
  2
ENTITIES
  0
LINE
  5
92
330
1F
100
AcDbEntity
  8
SK1
  6
SLD-Solid
370
    25
100
AcDbLine
 10
138.0
 20
-8.0
 30
0.0
 11
139.0
 21
-7.0
 31
0.0
  0
LINE
  5
93
330
1F
100
AcDbEntity
  8
SK1
  6
SLD-Solid
370
    25
100
AcDbLine
 10
139.0
 20
7.0
 30
0.0
 11
138.0
 21
8.0
 31
0.0
  0
LINE
  5
94
330
1F
100
AcDbEntity
  8
SK1
  6
SLD-Solid
370
    25
100
AcDbLine
 10
131.3
 20
-8.0
 30
0.0
 11
138.0
 21
-8.0
 31
0.0
  0
LINE
  5
95
330
1F
100
AcDbEntity
  8
SK1
  6
SLD-Solid
370
    25
100
AcDbLine
 10
138.0
 20
8.0
 30
0.0
 11
131.3
 21
8.0
 31
0.0
  0
LINE
  5
96
330
1F
100
AcDbEntity
  8
SK1
  6
SLD-Solid
370
    25
100
AcDbLine
 10
121.0
 20
-5.22
 30
0.0
 11
126.0
 21
-5.22
 31
0.0
  0
LINE
  5
97
330
1F
100
AcDbEntity
  8
SK1
  6
SLD-Solid
370
    25
100
AcDbLine
 10
126.0
 20
5.22
 30
0.0
 11
121.0
 21
5.22
 31
0.0
  0
LINE
  5
98
330
1F
100
AcDbEntity
  8
SK1
  6
SLD-Solid
370
    25
100
AcDbLine
 10
126.3
 20
17.0
 30
0.0
 11
126.0
 21
16.7
 31
0.0
  0
LINE
  5
99
330
1F
100
AcDbEntity
  8
SK1
  6
SLD-Solid
370
    25
100
AcDbLine
 10
126.0
 20
-16.7
 30
0.0
 11
126.3
 21
-17.0
 31
0.0
  0
LINE
  5
9A
330
1F
100
AcDbEntity
  8
SK1
  6
SLD-Solid
370
    25
100
AcDbLine
 10
126.3
 20
-17.0
 30
0.0
 11
130.0
 21
-17.0
 31
0.0
  0
LINE
  5
9B
330
1F
100
AcDbEntity
  8
SK1
  6
SLD-Solid
370
    25
100
AcDbLine
 10
130.0
 20
17.0
 30
0.0
 11
126.3
 21
17.0
 31
0.0
  0
LINE
  5
9C
330
1F
100
AcDbEntity
  8
SK1
  6
SLD-Solid
370
    25
100
AcDbLine
 10
130.0
 20
-17.0
 30
0.0
 11
131.0
 21
-16.0
 31
0.0
  0
LINE
  5
9D
330
1F
100
AcDbEntity
  8
SK1
  6
SLD-Solid
370
    25
100
AcDbLine
 10
131.0
 20
16.0
 30
0.0
 11
130.0
 21
17.0
 31
0.0
  0
LINE
  5
9E
330
1F
100
AcDbEntity
  8
1
  6
SLD-Solid
370
    25
100
AcDbLine
 10
37.25
 20
49.978682327
 30
0.0
 11
35.2499629447
 21
49.978682327
 31
0.0
  0
LINE
  5
9F
330
1F
100
AcDbEntity
  8
1
  6
SLD-Solid
370
    25
100
AcDbLine
 10
35.2499629843
 20
-49.978682327
 30
0.0
 11
37.25
 21
-49.978682327
 31
0.0
  0
LINE
  5
A0
330
1F
100
AcDbEntity
  8
1
  6
SLD-Solid
370
    25
100
AcDbLine
 10
0.2
 20
-34.925
 30
0.0
 11
0.3290707856
 21
-34.8504809472
 31
0.0
  0
LINE
  5
A1
330
1F
100
AcDbEntity
  8
1
  6
SLD-Solid
370
    25
100
AcDbLine
 10
0.3290707856
 20
34.8504809472
 30
0.0
 11
0.2
 21
34.925
 31
0.0
  0
LINE
  5
A2
330
1F
100
AcDbEntity
  8
SK1
  6
SLD-Solid
370
    25
100
AcDbLine
 10
0.0
 20
34.925
 30
0.0
 11
-100.944317822
 21
20.2028150506
 31
0.0
  0
LINE
  5
A3
330
1F
100
AcDbEntity
  8
SK1
  6
SLD-Solid
370
    25
100
AcDbLine
 10
-100.944317822
 20
-20.2028150506
 30
0.0
 11
0.0
 21
-34.925
 31
0.0
  0
LINE
  5
A4
330
1F
100
AcDbEntity
  8
1
  6
SLD-Solid
370
    25
100
AcDbLine
 10
0.2
 20
34.925
 30
0.0
 11
0.0
 21
34.925
 31
0.0
  0
LINE
  5
A5
330
1F
100
AcDbEntity
  8
1
  6
SLD-Solid
370
    25
100
AcDbLine
 10
0.0
 20
-34.925
 30
0.0
 11
0.2
 21
-34.925
 31
0.0
  0
LINE
  5
A6
330
1F
100
AcDbEntity
  8
1
  6
SLD-Solid
370
    25
100
AcDbLine
 10
2.25
 20
34.75
 30
0.0
 11
0.7040707856
 21
34.75
 31
0.0
  0
LINE
  5
A7
330
1F
100
AcDbEntity
  8
1
  6
SLD-Solid
370
    25
100
AcDbLine
 10
0.7040707856
 20
-34.75
 30
0.0
 11
2.25
 21
-34.75
 31
0.0
  0
LINE
  5
A8
330
1F
100
AcDbEntity
  8
1
  6
SLD-Solid
370
    25
100
AcDbLine
 10
99.2
 20
30.0
 30
0.0
 11
41.0
 21
30.0
 31
0.0
  0
LINE
  5
A9
330
1F
100
AcDbEntity
  8
1
  6
SLD-Solid
370
    25
100
AcDbLine
 10
41.0
 20
-30.0
 30
0.0
 11
99.2
 21
-30.0
 31
0.0
  0
LINE
  5
AA
330
1F
100
AcDbEntity
  8
SK1
  6
SLD-Solid
370
    25
100
AcDbLine
 10
118.0
 20
13.5
 30
0.0
 11
101.3439594644
 21
13.5
 31
0.0
  0
LINE
  5
AB
330
1F
100
AcDbEntity
  8
SK1
  6
SLD-Solid
370
    25
100
AcDbLine
 10
101.3439594644
 20
-13.5
 30
0.0
 11
118.0
 21
-13.5
 31
0.0
  0
LINE
  5
AC
330
1F
100
AcDbEntity
  8
SK1
  6
SLD-Solid
370
    25
100
AcDbLine
 10
101.3439594644
 20
13.5
 30
0.0
 11
100.6605646396
 21
13.2845264394
 31
0.0
  0
LINE
  5
AD
330
1F
100
AcDbEntity
  8
SK1
  6
SLD-Solid
370
    25
100
AcDbLine
 10
100.6605646396
 20
-13.2845264394
 30
0.0
 11
101.3439594644
 21
-13.5
 31
0.0
  0
LINE
  5
AE
330
1F
100
AcDbEntity
  8
SK1
  6
SLD-Solid
370
    25
100
AcDbLine
 10
118.0
 20
-13.5
 30
0.0
 11
121.0
 21
-12.9710190579
 31
0.0
  0
LINE
  5
AF
330
1F
100
AcDbEntity
  8
SK1
  6
SLD-Solid
370
    25
100
AcDbLine
 10
121.0
 20
12.9710190579
 30
0.0
 11
118.0
 21
13.5
 31
0.0
  0
LINE
  5
B0
330
1F
100
AcDbEntity
  8
SK1
  6
SLD-Solid
370
    25
100
AcDbLine
 10
138.0
 20
4.0
 30
0.0
 11
138.0
 21
8.0
 31
0.0
  0
LINE
  5
B1
330
1F
100
AcDbEntity
  8
SK1
  6
SLD-Solid
370
    25
100
AcDbLine
 10
138.0
 20
-8.0
 30
0.0
 11
138.0
 21
4.0
 31
0.0
  0
LINE
  5
B2
330
1F
100
AcDbEntity
  8
SK1
  6
SLD-Solid
370
    25
100
AcDbLine
 10
139.0
 20
3.5
 30
0.0
 11
139.0
 21
-7.0
 31
0.0
  0
LINE
  5
B3
330
1F
100
AcDbEntity
  8
SK1
  6
SLD-Solid
370
    25
100
AcDbLine
 10
139.0
 20
7.0
 30
0.0
 11
139.0
 21
3.5
 31
0.0
  0
LINE
  5
B4
330
1F
100
AcDbEntity
  8
SK1
  6
SLD-Solid
370
    25
100
AcDbLine
 10
126.0
 20
-16.7
 30
0.0
 11
126.0
 21
16.7
 31
0.0
  0
LINE
  5
B5
330
1F
100
AcDbEntity
  8
SK1
  6
SLD-Solid
370
    25
100
AcDbLine
 10
126.3
 20
17.0
 30
0.0
 11
126.3
 21
-17.0
 31
0.0
  0
LINE
  5
B6
330
1F
100
AcDbEntity
  8
SK1
  6
SLD-Solid
370
    25
100
AcDbLine
 10
130.0
 20
1.2757379775
 30
0.0
 11
130.0
 21
17.0
 31
0.0
  0
LINE
  5
B7
330
1F
100
AcDbEntity
  8
SK1
  6
SLD-Solid
370
    25
100
AcDbLine
 10
130.0
 20
-17.0
 30
0.0
 11
130.0
 21
1.2757379775
 31
0.0
  0
LINE
  5
B8
330
1F
100
AcDbEntity
  8
SK1
  6
SLD-Solid
370
    25
100
AcDbLine
 10
131.0
 20
1.200694567
 30
0.0
 11
131.0
 21
16.0
 31
0.0
  0
LINE
  5
B9
330
1F
100
AcDbEntity
  8
SK1
  6
SLD-Solid
370
    25
100
AcDbLine
 10
131.0
 20
-16.0
 30
0.0
 11
131.0
 21
1.200694567
 31
0.0
  0
LINE
  5
BA
330
1F
100
AcDbEntity
  8
SK1
  6
SLD-Solid
370
    25
100
AcDbLine
 10
100.0
 20
15.687031056
 30
0.0
 11
105.1452994616
 21
15.687031056
 31
0.0
  0
LINE
  5
BB
330
1F
100
AcDbEntity
  8
SK1
  6
SLD-Solid
370
    25
100
AcDbLine
 10
100.0
 20
20.3853494895
 30
0.0
 11
100.0296155741
 21
20.3853494895
 31
0.0
  0
LINE
  5
BC
330
1F
100
AcDbEntity
  8
SK1
  6
SLD-Solid
370
    25
100
AcDbLine
 10
100.0296155741
 20
21.6146505105
 30
0.0
 11
100.0
 21
21.6146505105
 31
0.0
  0
LINE
  5
BD
330
1F
100
AcDbEntity
  8
SK1
  6
SLD-Solid
370
    25
100
AcDbLine
 10
105.1452994616
 20
26.312968944
 30
0.0
 11
100.0
 21
26.312968944
 31
0.0
  0
LINE
  5
BE
330
1F
100
AcDbEntity
  8
SK1
  6
SLD-Solid
370
    25
100
AcDbLine
 10
106.3
 20
21.4771152901
 30
0.0
 11
106.3
 21
20.5228847099
 31
0.0
  0
LINE
  5
BF
330
1F
100
AcDbEntity
  8
SK1
  6
SLD-Solid
370
    25
100
AcDbLine
 10
105.1452994616
 20
15.687031056
 30
0.0
 11
105.1452994616
 21
15.019
 31
0.0
  0
LINE
  5
C0
330
1F
100
AcDbEntity
  8
SK1
  6
SLD-Solid
370
    25
100
AcDbLine
 10
105.1452994616
 20
15.019
 30
0.0
 11
100.0
 21
15.019
 31
0.0
  0
LINE
  5
C1
330
1F
100
AcDbEntity
  8
SK1
  6
SLD-Solid
370
    25
100
AcDbLine
 10
106.3
 20
20.5228847099
 30
0.0
 11
106.3
 21
15.019
 31
0.0
  0
LINE
  5
C2
330
1F
100
AcDbEntity
  8
SK1
  6
SLD-Solid
370
    25
100
AcDbLine
 10
105.1452994616
 20
26.981
 30
0.0
 11
105.1452994616
 21
26.312968944
 31
0.0
  0
LINE
  5
C3
330
1F
100
AcDbEntity
  8
SK1
  6
SLD-Solid
370
    25
100
AcDbLine
 10
106.3
 20
26.981
 30
0.0
 11
106.3
 21
21.4771152901
 31
0.0
  0
LINE
  5
C4
330
1F
100
AcDbEntity
  8
SK1
  6
SLD-Solid
370
    25
100
AcDbLine
 10
100.0
 20
26.981
 30
0.0
 11
105.1452994616
 21
26.981
 31
0.0
  0
LINE
  5
C5
330
1F
100
AcDbEntity
  8
SK1
  6
SLD-Solid
370
    25
100
AcDbLine
 10
100.0
 20
-26.312968944
 30
0.0
 11
105.1452994616
 21
-26.312968944
 31
0.0
  0
LINE
  5
C6
330
1F
100
AcDbEntity
  8
SK1
  6
SLD-Solid
370
    25
100
AcDbLine
 10
100.0
 20
-21.6146505105
 30
0.0
 11
100.0296155741
 21
-21.6146505105
 31
0.0
  0
LINE
  5
C7
330
1F
100
AcDbEntity
  8
SK1
  6
SLD-Solid
370
    25
100
AcDbLine
 10
100.0296155741
 20
-20.3853494895
 30
0.0
 11
100.0
 21
-20.3853494895
 31
0.0
  0
LINE
  5
C8
330
1F
100
AcDbEntity
  8
SK1
  6
SLD-Solid
370
    25
100
AcDbLine
 10
105.1452994616
 20
-15.687031056
 30
0.0
 11
100.0
 21
-15.687031056
 31
0.0
  0
LINE
  5
C9
330
1F
100
AcDbEntity
  8
SK1
  6
SLD-Solid
370
    25
100
AcDbLine
 10
106.3
 20
-20.5228847099
 30
0.0
 11
106.3
 21
-21.4771152901
 31
0.0
  0
LINE
  5
CA
330
1F
100
AcDbEntity
  8
SK1
  6
SLD-Solid
370
    25
100
AcDbLine
 10
105.1452994616
 20
-15.019
 30
0.0
 11
105.1452994616
 21
-15.687031056
 31
0.0
  0
LINE
  5
CB
330
1F
100
AcDbEntity
  8
SK1
  6
SLD-Solid
370
    25
100
AcDbLine
 10
106.3
 20
-15.019
 30
0.0
 11
106.3
 21
-20.5228847099
 31
0.0
  0
LINE
  5
CC
330
1F
100
AcDbEntity
  8
SK1
  6
SLD-Solid
370
    25
100
AcDbLine
 10
105.1452994616
 20
-26.312968944
 30
0.0
 11
105.1452994616
 21
-26.981
 31
0.0
  0
LINE
  5
CD
330
1F
100
AcDbEntity
  8
SK1
  6
SLD-Solid
370
    25
100
AcDbLine
 10
106.3
 20
-21.4771152901
 30
0.0
 11
106.3
 21
-26.981
 31
0.0
  0
LINE
  5
CE
330
1F
100
AcDbEntity
  8
SK1
  6
SLD-Solid
370
    25
100
AcDbLine
 10
105.1452994616
 20
-26.981
 30
0.0
 11
100.0
 21
-26.981
 31
0.0
  0
LINE
  5
CF
330
1F
100
AcDbEntity
  8
SK1
  6
SLD-Solid
370
    25
100
AcDbLine
 10
100.0
 20
-15.019
 30
0.0
 11
105.1452994616
 21
-15.019
 31
0.0
  0
LINE
  5
D0
330
1F
100
AcDbEntity
  8
1
  6
SLD-Solid
370
    25
100
AcDbLine
 10
26.705
 20
41.3432989685
 30
0.0
 11
26.705
 21
-41.3432989685
 31
0.0
  0
LINE
  5
D1
330
1F
100
AcDbEntity
  8
1
  6
SLD-Solid
370
    25
100
AcDbLine
 10
30.7299999991
 20
48.9054375781
 30
0.0
 11
30.73
 21
-48.9054375688
 31
0.0
  0
LINE
  5
D2
330
1F
100
AcDbEntity
  8
1
  6
SLD-Solid
370
    25
100
AcDbLine
 10
3.0
 20
-47.2984213653
 30
0.0
 11
3.0
 21
47.2984213653
 31
0.0
  0
LINE
  5
D3
330
1F
100
AcDbEntity
  8
1
  6
SLD-Solid
370
    25
100
AcDbLine
 10
15.68
 20
48.0190137994
 30
0.0
 11
3.75
 21
48.0190137994
 31
0.0
  0
LINE
  5
D4
330
1F
100
AcDbEntity
  8
1
  6
SLD-Solid
370
    25
100
AcDbLine
 10
15.68
 20
48.0190137994
 30
0.0
 11
15.68
 21
-48.0190137994
 31
0.0
  0
LINE
  5
D5
330
1F
100
AcDbEntity
  8
1
  6
SLD-Solid
370
    25
100
AcDbLine
 10
3.75
 20
-48.0190137994
 30
0.0
 11
15.68
 21
-48.0190137994
 31
0.0
  0
LINE
  5
D6
330
1F
100
AcDbEntity
  8
1
  6
SLD-Solid
370
    25
100
AcDbLine
 10
38.0
 20
0.0
 30
0.0
 11
38.0
 21
-49.228682327
 31
0.0
  0
LINE
  5
D7
330
1F
100
AcDbEntity
  8
1
  6
SLD-Solid
370
    25
100
AcDbLine
 10
38.0
 20
49.228682327
 30
0.0
 11
38.0
 21
0.0
 31
0.0
  0
LINE
  5
D8
330
1F
100
AcDbEntity
  8
1
  6
SLD-Solid
370
    25
100
AcDbLine
 10
19.705
 20
41.0269100055
 30
0.0
 11
19.705
 21
-41.0269100055
 31
0.0
  0
LINE
  5
D9
330
1F
100
AcDbEntity
  8
1
  6
SLD-Solid
370
    25
100
AcDbLine
 10
21.6
 20
-40.4949379553
 30
0.0
 11
20.08
 21
-40.4949379553
 31
0.0
  0
LINE
  5
DA
330
1F
100
AcDbEntity
  8
1
  6
SLD-Solid
370
    25
100
AcDbLine
 10
21.6
 20
40.4949379553
 30
0.0
 11
20.08
 21
40.4949379553
 31
0.0
  0
LINE
  5
DB
330
1F
100
AcDbEntity
  8
1
  6
SLD-Solid
370
    25
100
AcDbLine
 10
0.0
 20
34.925
 30
0.0
 11
0.0
 21
-34.925
 31
0.0
  0
LINE
  5
DC
330
1F
100
AcDbEntity
  8
1
  6
SLD-Solid
370
    25
100
AcDbLine
 10
100.0
 20
0.0
 30
0.0
 11
100.0
 21
-29.2
 31
0.0
  0
LINE
  5
DD
330
1F
100
AcDbEntity
  8
1
  6
SLD-Solid
370
    25
100
AcDbLine
 10
100.0
 20
29.2
 30
0.0
 11
100.0
 21
0.0
 31
0.0
  0
LINE
  5
DE
330
1F
100
AcDbEntity
  8
SK1
  6
SLD-Solid
370
    25
100
AcDbLine
 10
-101.8
 20
-19.2132836634
 30
0.0
 11
-101.8
 21
19.2132836634
 31
0.0
  0
LINE
  5
DF
330
1F
100
AcDbEntity
  8
SK1
  6
SLD-Solid
370
    25
100
AcDbLine
 10
101.3439594644
 20
13.5
 30
0.0
 11
101.3439594644
 21
-13.5
 31
0.0
  0
LINE
  5
E0
330
1F
100
AcDbEntity
  8
SK1
  6
SLD-Solid
370
    25
100
AcDbLine
 10
118.0
 20
13.5
 30
0.0
 11
118.0
 21
-13.5
 31
0.0
  0
LINE
  5
E1
330
1F
100
AcDbEntity
  8
SK1
  6
SLD-Solid
370
    25
100
AcDbLine
 10
121.0
 20
12.9710190579
 30
0.0
 11
121.0
 21
-12.9710190579
 31
0.0
  0
LINE
  5
E2
330
1F
100
AcDbEntity
  8
SK1
  6
SLD-Solid
370
    25
100
AcDbLine
 10
131.3
 20
8.0
 30
0.0
 11
131.3
 21
-8.0
 31
0.0
  0
LINE
  5
E3
330
1F
100
AcDbEntity
  8
SK1
  6
SLD-Solid
370
    25
100
AcDbLine
 10
100.0296155741
 20
20.3853494895
 30
0.0
 11
100.0296155741
 21
18.2377136018
 31
0.0
  0
LINE
  5
E4
330
1F
100
AcDbEntity
  8
SK1
  6
SLD-Solid
370
    25
100
AcDbLine
 10
100.0296155741
 20
23.7862161489
 30
0.0
 11
100.0296155741
 21
21.6146505105
 31
0.0
  0
LINE
  5
E5
330
1F
100
AcDbEntity
  8
SK1
  6
SLD-Solid
370
    25
100
AcDbLine
 10
100.0296155741
 20
-18.2126040992
 30
0.0
 11
100.0296155741
 21
-20.3853494895
 31
0.0
  0
LINE
  5
E6
330
1F
100
AcDbEntity
  8
SK1
  6
SLD-Solid
370
    25
100
AcDbLine
 10
100.0296155741
 20
-21.6146505105
 30
0.0
 11
100.0296155741
 21
-23.7611081761
 31
0.0
  0
LINE
  5
E7
330
1F
100
AcDbEntity
  8
1
  6
SLD-Solid
370
    25
100
AcDbLine
 10
2.25
 20
34.75
 30
0.0
 11
2.25
 21
-34.75
 31
0.0
  0
LINE
  5
E8
330
1F
100
AcDbEntity
  8
1
  6
SLD-Solid
370
    25
100
AcDbLine
 10
0.7040707856
 20
34.75
 30
0.0
 11
0.7040707856
 21
-34.75
 31
0.0
  0
LINE
  5
E9
330
1F
100
AcDbEntity
  8
SK3
  6
SLD-Dashed
370
    18
100
AcDbLine
 10
-100.05
 20
-12.5075
 30
0.0
 11
-100.05
 21
12.5075
 31
0.0
  0
LINE
  5
EA
330
1F
100
AcDbEntity
  8
SK3
  6
SLD-Dashed
370
    18
100
AcDbLine
 10
-101.8
 20
-13.5178629711
 30
0.0
 11
-101.8
 21
13.5178629711
 31
0.0
  0
LINE
  5
EB
330
1F
100
AcDbEntity
  8
SK3
  6
SLD-Dashed
370
    18
100
AcDbLine
 10
3.75
 20
35.675
 30
0.0
 11
3.75
 21
47.2984213653
 31
0.0
  0
LINE
  5
EC
330
1F
100
AcDbEntity
  8
SK3
  6
SLD-Dashed
370
    18
100
AcDbLine
 10
3.75
 20
47.2984213653
 30
0.0
 11
16.2300196942
 21
47.2984213653
 31
0.0
  0
LINE
  5
ED
330
1F
100
AcDbEntity
  8
1
  6
SLD-Dashed
370
    18
100
AcDbLine
 10
19.705
 20
40.8883311594
 30
0.0
 11
19.705
 21
41.0269100055
 31
0.0
  0
LINE
  5
EE
330
1F
100
AcDbEntity
  8
SK3
  6
SLD-Dashed
370
    18
100
AcDbLine
 10
3.75
 20
-47.2984213653
 30
0.0
 11
3.75
 21
-35.675
 31
0.0
  0
LINE
  5
EF
330
1F
100
AcDbEntity
  8
SK3
  6
SLD-Dashed
370
    18
100
AcDbLine
 10
16.2300196942
 20
-47.2984213653
 30
0.0
 11
3.75
 21
-47.2984213653
 31
0.0
  0
LINE
  5
F0
330
1F
100
AcDbEntity
  8
1
  6
SLD-Dashed
370
    18
100
AcDbLine
 10
19.705
 20
-40.8883311594
 30
0.0
 11
19.705
 21
-41.0269100055
 31
0.0
  0
LINE
  5
F1
330
1F
100
AcDbEntity
  8
SK3
  6
SLD-Dashed
370
    18
100
AcDbLine
 10
3.75
 20
35.3
 30
0.0
 11
21.6
 21
35.3
 31
0.0
  0
LINE
  5
F2
330
1F
100
AcDbEntity
  8
SK3
  6
SLD-Dashed
370
    18
100
AcDbLine
 10
21.6
 20
35.675
 30
0.0
 11
3.75
 21
35.675
 31
0.0
  0
LINE
  5
F3
330
1F
100
AcDbEntity
  8
SK3
  6
SLD-Dashed
370
    18
100
AcDbLine
 10
21.6
 20
-35.3
 30
0.0
 11
3.75
 21
-35.3
 31
0.0
  0
LINE
  5
F4
330
1F
100
AcDbEntity
  8
SK3
  6
SLD-Dashed
370
    18
100
AcDbLine
 10
3.75
 20
-35.675
 30
0.0
 11
21.6
 21
-35.675
 31
0.0
  0
LINE
  5
F5
330
1F
100
AcDbEntity
  8
SK3
  6
SLD-Dashed
370
    18
100
AcDbLine
 10
21.6
 20
35.675
 30
0.0
 11
34.4745447967
 21
35.675
 31
0.0
  0
LINE
  5
F6
330
1F
100
AcDbEntity
  8
SK3
  6
SLD-Dashed
370
    18
100
AcDbLine
 10
21.6
 20
40.4949379553
 30
0.0
 11
21.6
 21
35.675
 31
0.0
  0
LINE
  5
F7
330
1F
100
AcDbEntity
  8
1
  6
SLD-Dashed
370
    18
100
AcDbLine
 10
26.705
 20
41.2057841814
 30
0.0
 11
26.705
 21
41.3432989685
 31
0.0
  0
LINE
  5
F8
330
1F
100
AcDbEntity
  8
SK3
  6
SLD-Dashed
370
    18
100
AcDbLine
 10
21.6
 20
35.3
 30
0.0
 11
34.125
 21
35.3
 31
0.0
  0
LINE
  5
F9
330
1F
100
AcDbEntity
  8
1
  6
SLD-Dashed
370
    18
100
AcDbLine
 10
26.705
 20
-41.2057841814
 30
0.0
 11
26.705
 21
-41.3432989685
 31
0.0
  0
LINE
  5
FA
330
1F
100
AcDbEntity
  8
SK3
  6
SLD-Dashed
370
    18
100
AcDbLine
 10
21.6
 20
-40.4949379553
 30
0.0
 11
21.6
 21
-35.675
 31
0.0
  0
LINE
  5
FB
330
1F
100
AcDbEntity
  8
SK3
  6
SLD-Dashed
370
    18
100
AcDbLine
 10
21.6
 20
-35.675
 30
0.0
 11
34.4745447967
 21
-35.675
 31
0.0
  0
LINE
  5
FC
330
1F
100
AcDbEntity
  8
SK3
  6
SLD-Dashed
370
    18
100
AcDbLine
 10
21.6
 20
-35.3
 30
0.0
 11
34.125
 21
-35.3
 31
0.0
  0
LINE
  5
FD
330
1F
100
AcDbEntity
  8
SK3
  6
SLD-Dashed
370
    18
100
AcDbLine
 10
-88.55
 20
-12.75
 30
0.0
 11
-88.55
 21
12.75
 31
0.0
  0
LINE
  5
FE
330
1F
100
AcDbEntity
  8
SK3
  6
SLD-Dashed
370
    18
100
AcDbLine
 10
-87.2509618943
 20
10.5
 30
0.0
 11
-87.2509618943
 21
-10.5
 31
0.0
  0
LINE
  5
FF
330
1F
100
AcDbEntity
  8
SK3
  6
SLD-Dashed
370
    18
100
AcDbLine
 10
-91.55
 20
-12.75
 30
0.0
 11
-91.55
 21
12.75
 31
0.0
  0
LINE
  5
100
330
1F
100
AcDbEntity
  8
SK3
  6
SLD-Dashed
370
    18
100
AcDbLine
 10
-91.9700223208
 20
-12.5075
 30
0.0
 11
-91.9700223208
 21
12.5075
 31
0.0
  0
LINE
  5
101
330
1F
100
AcDbEntity
  8
SK3
  6
SLD-Dashed
370
    18
100
AcDbLine
 10
79.0
 20
-6.1772748389
 30
0.0
 11
83.2
 21
-6.1772748389
 31
0.0
  0
LINE
  5
102
330
1F
100
AcDbEntity
  8
SK3
  6
SLD-Dashed
370
    18
100
AcDbLine
 10
83.2
 20
-8.490658135
 30
0.0
 11
79.0
 21
-8.490658135
 31
0.0
  0
LINE
  5
103
330
1F
100
AcDbEntity
  8
SK3
  6
SLD-Dashed
370
    18
100
AcDbLine
 10
83.2
 20
-8.490658135
 30
0.0
 11
83.2
 21
-10.5
 31
0.0
  0
LINE
  5
104
330
1F
100
AcDbEntity
  8
SK3
  6
SLD-Dashed
370
    18
100
AcDbLine
 10
83.2
 20
-6.1772748389
 30
0.0
 11
83.2
 21
6.1772748389
 31
0.0
  0
LINE
  5
105
330
1F
100
AcDbEntity
  8
SK3
  6
SLD-Dashed
370
    18
100
AcDbLine
 10
79.0
 20
6.1772748389
 30
0.0
 11
83.2
 21
6.1772748389
 31
0.0
  0
LINE
  5
106
330
1F
100
AcDbEntity
  8
SK3
  6
SLD-Dashed
370
    18
100
AcDbLine
 10
83.2
 20
8.490658135
 30
0.0
 11
79.0
 21
8.490658135
 31
0.0
  0
LINE
  5
107
330
1F
100
AcDbEntity
  8
SK3
  6
SLD-Dashed
370
    18
100
AcDbLine
 10
83.2
 20
8.490658135
 30
0.0
 11
83.2
 21
10.5
 31
0.0
  0
LINE
  5
108
330
1F
100
AcDbEntity
  8
SK3
  6
SLD-Dashed
370
    18
100
AcDbLine
 10
83.2
 20
6.1772748389
 30
0.0
 11
83.2
 21
-6.1772748389
 31
0.0
  0
LINE
  5
109
330
1F
100
AcDbEntity
  8
SK3
  6
SLD-Dashed
370
    18
100
AcDbLine
 10
86.4446473427
 20
5.1
 30
0.0
 11
86.4446473427
 21
-5.1
 31
0.0
  0
LINE
  5
10A
330
1F
100
AcDbEntity
  8
SK3
  6
SLD-Dashed
370
    18
100
AcDbLine
 10
119.0
 20
-6.5
 30
0.0
 11
119.0
 21
6.5
 31
0.0
  0
LINE
  5
10B
330
1F
100
AcDbEntity
  8
SK3
  6
SLD-Dashed
370
    18
100
AcDbLine
 10
121.0
 20
-7.6484925622
 30
0.0
 11
121.0
 21
7.6484925622
 31
0.0
  0
LINE
  5
10C
330
1F
100
AcDbEntity
  8
SK3
  6
SLD-Dashed
370
    18
100
AcDbLine
 10
115.5
 20
-6.5
 30
0.0
 11
115.5
 21
6.5
 31
0.0
  0
LINE
  5
10D
330
1F
100
AcDbEntity
  8
SK3
  6
SLD-Dashed
370
    18
100
AcDbLine
 10
114.6587951334
 20
5.1
 30
0.0
 11
114.6587951334
 21
-5.1
 31
0.0
  0
LINE
  5
10E
330
1F
100
AcDbEntity
  8
SK3
  6
SLD-Dashed
370
    18
100
AcDbLine
 10
25.5
 20
30.9
 30
0.0
 11
15.5
 21
30.9
 31
0.0
  0
LINE
  5
10F
330
1F
100
AcDbEntity
  8
SK3
  6
SLD-Dashed
370
    18
100
AcDbLine
 10
15.5
 20
35.3
 30
0.0
 11
25.5
 21
35.3
 31
0.0
  0
LINE
  5
110
330
1F
100
AcDbEntity
  8
SK3
  6
SLD-Dashed
370
    18
100
AcDbLine
 10
15.8000005661
 20
30.6
 30
0.0
 11
25.2
 21
30.6
 31
0.0
  0
LINE
  5
111
330
1F
100
AcDbEntity
  8
1
  6
SLD-Dashed
370
    18
100
AcDbLine
 10
20.08
 20
-40.4949379553
 30
0.0
 11
21.6
 21
-40.4949379553
 31
0.0
  0
LINE
  5
112
330
1F
100
AcDbEntity
  8
1
  6
SLD-Dashed
370
    18
100
AcDbLine
 10
20.08
 20
40.4949379553
 30
0.0
 11
21.6
 21
40.4949379553
 31
0.0
  0
LINE
  5
113
330
1F
100
AcDbEntity
  8
SK3
  6
SLD-Dashed
370
    18
100
AcDbLine
 10
-101.8
 20
-13.5178629711
 30
0.0
 11
-100.05
 21
-12.5075
 31
0.0
  0
LINE
  5
114
330
1F
100
AcDbEntity
  8
SK3
  6
SLD-Dashed
370
    18
100
AcDbLine
 10
-100.05
 20
12.5075
 30
0.0
 11
-101.8
 21
13.5178629711
 31
0.0
  0
LINE
  5
115
330
1F
100
AcDbEntity
  8
SK3
  6
SLD-Dashed
370
    18
100
AcDbLine
 10
34.5
 20
35.675
 30
0.0
 11
34.5
 21
49.2290573668
 31
0.0
  0
LINE
  5
116
330
1F
100
AcDbEntity
  8
SK3
  6
SLD-Dashed
370
    18
100
AcDbLine
 10
34.5
 20
-49.229059558
 30
0.0
 11
34.5
 21
-35.675
 31
0.0
  0
LINE
  5
117
330
1F
100
AcDbEntity
  8
SK3
  6
SLD-Dashed
370
    18
100
AcDbLine
 10
-88.55
 20
-12.75
 30
0.0
 11
-87.2509618943
 21
-10.5
 31
0.0
  0
LINE
  5
118
330
1F
100
AcDbEntity
  8
SK3
  6
SLD-Dashed
370
    18
100
AcDbLine
 10
-87.2509618943
 20
10.5
 30
0.0
 11
-88.55
 21
12.75
 31
0.0
  0
LINE
  5
119
330
1F
100
AcDbEntity
  8
SK3
  6
SLD-Dashed
370
    18
100
AcDbLine
 10
-88.55
 20
12.75
 30
0.0
 11
-91.55
 21
12.75
 31
0.0
  0
LINE
  5
11A
330
1F
100
AcDbEntity
  8
SK3
  6
SLD-Dashed
370
    18
100
AcDbLine
 10
-91.55
 20
-12.75
 30
0.0
 11
-88.55
 21
-12.75
 31
0.0
  0
LINE
  5
11B
330
1F
100
AcDbEntity
  8
SK3
  6
SLD-Dashed
370
    18
100
AcDbLine
 10
-91.55
 20
12.75
 30
0.0
 11
-91.9700223208
 21
12.5075
 31
0.0
  0
LINE
  5
11C
330
1F
100
AcDbEntity
  8
SK3
  6
SLD-Dashed
370
    18
100
AcDbLine
 10
-91.9700223208
 20
-12.5075
 30
0.0
 11
-91.55
 21
-12.75
 31
0.0
  0
LINE
  5
11D
330
1F
100
AcDbEntity
  8
SK3
  6
SLD-Dashed
370
    18
100
AcDbLine
 10
-91.9700223208
 20
12.5075
 30
0.0
 11
-100.05
 21
12.5075
 31
0.0
  0
LINE
  5
11E
330
1F
100
AcDbEntity
  8
SK3
  6
SLD-Dashed
370
    18
100
AcDbLine
 10
-100.05
 20
-12.5075
 30
0.0
 11
-91.9700223208
 21
-12.5075
 31
0.0
  0
LINE
  5
11F
330
1F
100
AcDbEntity
  8
SK3
  6
SLD-Dashed
370
    18
100
AcDbLine
 10
-87.2509618943
 20
-10.5
 30
0.0
 11
83.2
 21
-10.5
 31
0.0
  0
LINE
  5
120
330
1F
100
AcDbEntity
  8
SK3
  6
SLD-Dashed
370
    18
100
AcDbLine
 10
83.2
 20
10.5
 30
0.0
 11
-87.2509618943
 21
10.5
 31
0.0
  0
LINE
  5
121
330
1F
100
AcDbEntity
  8
SK3
  6
SLD-Dashed
370
    18
100
AcDbLine
 10
83.2
 20
-10.5
 30
0.0
 11
86.4446473427
 21
-5.1
 31
0.0
  0
LINE
  5
122
330
1F
100
AcDbEntity
  8
SK3
  6
SLD-Dashed
370
    18
100
AcDbLine
 10
86.4446473427
 20
5.1
 30
0.0
 11
83.2
 21
10.5
 31
0.0
  0
LINE
  5
123
330
1F
100
AcDbEntity
  8
SK3
  6
SLD-Dashed
370
    18
100
AcDbLine
 10
121.0
 20
7.6547005384
 30
0.0
 11
119.0
 21
6.5
 31
0.0
  0
LINE
  5
124
330
1F
100
AcDbEntity
  8
SK3
  6
SLD-Dashed
370
    18
100
AcDbLine
 10
119.0
 20
-6.5
 30
0.0
 11
121.0
 21
-7.6547005384
 31
0.0
  0
LINE
  5
125
330
1F
100
AcDbEntity
  8
SK3
  6
SLD-Dashed
370
    18
100
AcDbLine
 10
115.5
 20
6.5
 30
0.0
 11
114.6587951334
 21
5.1
 31
0.0
  0
LINE
  5
126
330
1F
100
AcDbEntity
  8
SK3
  6
SLD-Dashed
370
    18
100
AcDbLine
 10
114.6587951334
 20
-5.1
 30
0.0
 11
115.5
 21
-6.5
 31
0.0
  0
LINE
  5
127
330
1F
100
AcDbEntity
  8
SK3
  6
SLD-Dashed
370
    18
100
AcDbLine
 10
119.0
 20
6.5
 30
0.0
 11
115.5
 21
6.5
 31
0.0
  0
LINE
  5
128
330
1F
100
AcDbEntity
  8
SK3
  6
SLD-Dashed
370
    18
100
AcDbLine
 10
115.5
 20
-6.5
 30
0.0
 11
119.0
 21
-6.5
 31
0.0
  0
LINE
  5
129
330
1F
100
AcDbEntity
  8
SK3
  6
SLD-Dashed
370
    18
100
AcDbLine
 10
114.6587951334
 20
5.1
 30
0.0
 11
86.4446473427
 21
5.1
 31
0.0
  0
LINE
  5
12A
330
1F
100
AcDbEntity
  8
SK3
  6
SLD-Dashed
370
    18
100
AcDbLine
 10
86.4446473427
 20
-5.1
 30
0.0
 11
114.6587951334
 21
-5.1
 31
0.0
  0
LINE
  5
12B
330
1F
100
AcDbEntity
  8
SK3
  6
SLD-Dashed
370
    18
100
AcDbLine
 10
15.5
 20
35.3
 30
0.0
 11
15.5
 21
30.9
 31
0.0
  0
LINE
  5
12C
330
1F
100
AcDbEntity
  8
SK3
  6
SLD-Dashed
370
    18
100
AcDbLine
 10
25.5
 20
30.9
 30
0.0
 11
25.5
 21
35.3
 31
0.0
  0
LINE
  5
12D
330
1F
100
AcDbEntity
  8
SK3
  6
SLD-Solid
370
    18
100
AcDbLine
 10
-55.799998343
 20
12.0000001043
 30
0.0
 11
-88.1169885397
 21
12.0000001043
 31
0.0
  0
LINE
  5
12E
330
1F
100
AcDbEntity
  8
SK3
  6
SLD-Solid
370
    18
100
AcDbLine
 10
-88.1169885397
 20
-12.0000001043
 30
0.0
 11
-55.799998343
 21
-12.0000001043
 31
0.0
  0
LINE
  5
12F
330
1F
100
AcDbEntity
  8
SK3
  6
SLD-Solid
370
    18
100
AcDbLine
 10
-55.799998343
 20
0.0
 30
0.0
 11
-55.799998343
 21
-1.8317913637
 31
0.0
  0
LINE
  5
130
330
1F
100
AcDbEntity
  8
SK3
  6
SLD-Solid
370
    18
100
AcDbLine
 10
-55.799998343
 20
-1.8317913637
 30
0.0
 11
-55.799998343
 21
-3.6206471268
 31
0.0
  0
LINE
  5
131
330
1F
100
AcDbEntity
  8
SK3
  6
SLD-Solid
370
    18
100
AcDbLine
 10
-55.799998343
 20
-3.6206471268
 30
0.0
 11
-55.799998343
 21
-5.324637983
 31
0.0
  0
LINE
  5
132
330
1F
100
AcDbEntity
  8
SK3
  6
SLD-Solid
370
    18
100
AcDbLine
 10
-55.799998343
 20
-5.324637983
 30
0.0
 11
-55.799998343
 21
-6.9038239308
 31
0.0
  0
LINE
  5
133
330
1F
100
AcDbEntity
  8
SK3
  6
SLD-Solid
370
    18
100
AcDbLine
 10
-55.799998343
 20
-6.9038239308
 30
0.0
 11
-55.799998343
 21
-8.3211902529
 31
0.0
  0
LINE
  5
134
330
1F
100
AcDbEntity
  8
SK3
  6
SLD-Solid
370
    18
100
AcDbLine
 10
-55.799998343
 20
-8.3211902529
 30
0.0
 11
-55.799998343
 21
-9.5435148105
 31
0.0
  0
LINE
  5
135
330
1F
100
AcDbEntity
  8
SK3
  6
SLD-Solid
370
    18
100
AcDbLine
 10
-55.799998343
 20
-9.5435148105
 30
0.0
 11
-55.799998343
 21
-10.5421468616
 31
0.0
  0
LINE
  5
136
330
1F
100
AcDbEntity
  8
SK3
  6
SLD-Solid
370
    18
100
AcDbLine
 10
-55.799998343
 20
-10.5421468616
 30
0.0
 11
-55.799998343
 21
-11.2936804071
 31
0.0
  0
LINE
  5
137
330
1F
100
AcDbEntity
  8
SK3
  6
SLD-Solid
370
    18
100
AcDbLine
 10
-55.799998343
 20
-11.2936804071
 30
0.0
 11
-55.799998343
 21
-11.7804994807
 31
0.0
  0
LINE
  5
138
330
1F
100
AcDbEntity
  8
SK3
  6
SLD-Solid
370
    18
100
AcDbLine
 10
-55.799998343
 20
-11.7804994807
 30
0.0
 11
-55.799998343
 21
-11.9911944494
 31
0.0
  0
LINE
  5
139
330
1F
100
AcDbEntity
  8
SK3
  6
SLD-Solid
370
    18
100
AcDbLine
 10
-55.799998343
 20
-11.9911944494
 30
0.0
 11
-55.799998343
 21
-12.0000001043
 31
0.0
  0
LINE
  5
13A
330
1F
100
AcDbEntity
  8
SK3
  6
SLD-Solid
370
    18
100
AcDbLine
 10
-55.799998343
 20
12.0000001043
 30
0.0
 11
-55.799998343
 21
11.9911944494
 31
0.0
  0
LINE
  5
13B
330
1F
100
AcDbEntity
  8
SK3
  6
SLD-Solid
370
    18
100
AcDbLine
 10
-55.799998343
 20
11.9911944494
 30
0.0
 11
-55.799998343
 21
11.7804994807
 31
0.0
  0
LINE
  5
13C
330
1F
100
AcDbEntity
  8
SK3
  6
SLD-Solid
370
    18
100
AcDbLine
 10
-55.799998343
 20
11.7804994807
 30
0.0
 11
-55.799998343
 21
11.2936804071
 31
0.0
  0
LINE
  5
13D
330
1F
100
AcDbEntity
  8
SK3
  6
SLD-Solid
370
    18
100
AcDbLine
 10
-55.799998343
 20
11.2936804071
 30
0.0
 11
-55.799998343
 21
10.5421468616
 31
0.0
  0
LINE
  5
13E
330
1F
100
AcDbEntity
  8
SK3
  6
SLD-Solid
370
    18
100
AcDbLine
 10
-55.799998343
 20
10.5421468616
 30
0.0
 11
-55.799998343
 21
9.5435148105
 31
0.0
  0
LINE
  5
13F
330
1F
100
AcDbEntity
  8
SK3
  6
SLD-Solid
370
    18
100
AcDbLine
 10
-55.799998343
 20
9.5435148105
 30
0.0
 11
-55.799998343
 21
8.3211902529
 31
0.0
  0
LINE
  5
140
330
1F
100
AcDbEntity
  8
SK3
  6
SLD-Solid
370
    18
100
AcDbLine
 10
-55.799998343
 20
8.3211902529
 30
0.0
 11
-55.799998343
 21
6.9038239308
 31
0.0
  0
LINE
  5
141
330
1F
100
AcDbEntity
  8
SK3
  6
SLD-Solid
370
    18
100
AcDbLine
 10
-55.799998343
 20
6.9038239308
 30
0.0
 11
-55.799998343
 21
5.324637983
 31
0.0
  0
LINE
  5
142
330
1F
100
AcDbEntity
  8
SK3
  6
SLD-Solid
370
    18
100
AcDbLine
 10
-55.799998343
 20
5.324637983
 30
0.0
 11
-55.799998343
 21
3.6206471268
 31
0.0
  0
LINE
  5
143
330
1F
100
AcDbEntity
  8
SK3
  6
SLD-Solid
370
    18
100
AcDbLine
 10
-55.799998343
 20
3.6206471268
 30
0.0
 11
-55.799998343
 21
1.8317913637
 31
0.0
  0
LINE
  5
144
330
1F
100
AcDbEntity
  8
SK3
  6
SLD-Solid
370
    18
100
AcDbLine
 10
-55.799998343
 20
1.8317913637
 30
0.0
 11
-55.799998343
 21
0.0
 31
0.0
  0
LINE
  5
145
330
1F
100
AcDbEntity
  8
SK3
  6
SLD-Solid
370
    18
100
AcDbLine
 10
89.0000015497
 20
-6.0000000522
 30
0.0
 11
115.199573338
 21
-6.0000000522
 31
0.0
  0
LINE
  5
146
330
1F
100
AcDbEntity
  8
SK3
  6
SLD-Solid
370
    18
100
AcDbLine
 10
115.199573338
 20
6.0000000522
 30
0.0
 11
89.0000015497
 21
6.0000000522
 31
0.0
  0
LINE
  5
147
330
1F
100
AcDbEntity
  8
SK3
  6
SLD-Solid
370
    18
100
AcDbLine
 10
89.0000015497
 20
0.0
 30
0.0
 11
89.0000015497
 21
1.2898226269
 31
0.0
  0
LINE
  5
148
330
1F
100
AcDbEntity
  8
SK3
  6
SLD-Solid
370
    18
100
AcDbLine
 10
88.9999015509
 20
1.2898226269
 30
0.0
 11
89.0000015497
 21
2.5193346664
 31
0.0
  0
LINE
  5
149
330
1F
100
AcDbEntity
  8
SK3
  6
SLD-Solid
370
    18
100
AcDbLine
 10
89.0000015497
 20
2.5193346664
 30
0.0
 11
89.0000015497
 21
3.6310453434
 31
0.0
  0
LINE
  5
14A
330
1F
100
AcDbEntity
  8
SK3
  6
SLD-Solid
370
    18
100
AcDbLine
 10
89.0000015497
 20
3.6310453434
 30
0.0
 11
89.0000015497
 21
4.5729721896
 31
0.0
  0
LINE
  5
14B
330
1F
100
AcDbEntity
  8
SK3
  6
SLD-Solid
370
    18
100
AcDbLine
 10
89.0000015497
 20
4.5729721896
 30
0.0
 11
89.0000015497
 21
5.3010722622
 31
0.0
  0
LINE
  5
14C
330
1F
100
AcDbEntity
  8
SK3
  6
SLD-Solid
370
    18
100
AcDbLine
 10
89.0000015497
 20
5.3010722622
 30
0.0
 11
89.0000015497
 21
5.7812999003
 31
0.0
  0
LINE
  5
14D
330
1F
100
AcDbEntity
  8
SK3
  6
SLD-Solid
370
    18
100
AcDbLine
 10
89.0000015497
 20
5.7812999003
 30
0.0
 11
89.0000015497
 21
5.9912004508
 31
0.0
  0
LINE
  5
14E
330
1F
100
AcDbEntity
  8
SK3
  6
SLD-Solid
370
    18
100
AcDbLine
 10
89.0000015497
 20
5.9912004508
 30
0.0
 11
89.0000015497
 21
6.0000000522
 31
0.0
  0
LINE
  5
14F
330
1F
100
AcDbEntity
  8
SK3
  6
SLD-Solid
370
    18
100
AcDbLine
 10
88.9999015509
 20
-6.0000000522
 30
0.0
 11
89.0000015497
 21
-5.9912004508
 31
0.0
  0
LINE
  5
150
330
1F
100
AcDbEntity
  8
SK3
  6
SLD-Solid
370
    18
100
AcDbLine
 10
89.0000015497
 20
-5.9912004508
 30
0.0
 11
89.0000015497
 21
-5.7812999003
 31
0.0
  0
LINE
  5
151
330
1F
100
AcDbEntity
  8
SK3
  6
SLD-Solid
370
    18
100
AcDbLine
 10
89.0000015497
 20
-5.7812999003
 30
0.0
 11
89.0000015497
 21
-5.3010722622
 31
0.0
  0
LINE
  5
152
330
1F
100
AcDbEntity
  8
SK3
  6
SLD-Solid
370
    18
100
AcDbLine
 10
89.0000015497
 20
-5.3010722622
 30
0.0
 11
89.0000015497
 21
-4.5729721896
 31
0.0
  0
LINE
  5
153
330
1F
100
AcDbEntity
  8
SK3
  6
SLD-Solid
370
    18
100
AcDbLine
 10
89.0000015497
 20
-4.5729721896
 30
0.0
 11
89.0000015497
 21
-3.6310453434
 31
0.0
  0
LINE
  5
154
330
1F
100
AcDbEntity
  8
SK3
  6
SLD-Solid
370
    18
100
AcDbLine
 10
89.0000015497
 20
-3.6310453434
 30
0.0
 11
89.0000015497
 21
-2.5193346664
 31
0.0
  0
LINE
  5
155
330
1F
100
AcDbEntity
  8
SK3
  6
SLD-Solid
370
    18
100
AcDbLine
 10
89.0000015497
 20
-2.5193346664
 30
0.0
 11
89.0000015497
 21
-1.2898226269
 31
0.0
  0
LINE
  5
156
330
1F
100
AcDbEntity
  8
SK3
  6
SLD-Solid
370
    18
100
AcDbLine
 10
89.0000015497
 20
-1.2898226269
 30
0.0
 11
89.0000015497
 21
0.0
 31
0.0
  0
LINE
  5
157
330
1F
100
AcDbEntity
  8
SK1
  6
SLD-Solid
370
    18
100
AcDbLine
 10
126.0000020266
 20
4.250000231
 30
0.0
 11
120.9999993443
 21
4.250000231
 31
0.0
  0
LINE
  5
158
330
1F
100
AcDbEntity
  8
SK1
  6
SLD-Solid
370
    18
100
AcDbLine
 10
120.9999993443
 20
-4.250000231
 30
0.0
 11
126.0000020266
 21
-4.250000231
 31
0.0
  0
LINE
  5
159
330
1F
100
AcDbEntity
  8
4
  6
SLD-Center
370
    18
100
AcDbLine
 10
123.0
 20
0.0
 30
0.0
 11
0.3811609566
 21
0.0
 31
0.0
  0
LINE
  5
15A
330
1F
100
AcDbEntity
  8
SK4
  6
SLD-Center
370
    18
100
AcDbLine
 10
122.7106790893
 20
0.0
 30
0.0
 11
-106.0598418042
 21
0.0
 31
0.0
  0
ARC
  5
15B
330
1F
100
AcDbEntity
  8
SK1
  6
SLD-Solid
370
    25
100
AcDbCircle
 10
131.3
 20
7.7
 30
0.0
 40
0.3000000000000114
100
AcDbArc
 50
90.0
 51
180.0
  0
ARC
  5
15C
330
1F
100
AcDbEntity
  8
SK1
  6
SLD-Solid
370
    25
100
AcDbCircle
 10
131.3
 20
-7.7
 30
0.0
 40
0.3000000000000114
100
AcDbArc
 50
180.0
 51
270.0
  0
ARC
  5
15D
330
1F
100
AcDbEntity
  8
1
  6
SLD-Solid
370
    25
100
AcDbCircle
 10
37.25
 20
-49.228682327
 30
0.0
 40
0.75
100
AcDbArc
 50
270.0
 51
0.0
  0
ARC
  5
15E
330
1F
100
AcDbEntity
  8
1
  6
SLD-Solid
370
    25
100
AcDbCircle
 10
37.25
 20
49.228682327
 30
0.0
 40
0.75
100
AcDbArc
 50
0.0
 51
90.0
  0
ARC
  5
15F
330
1F
100
AcDbEntity
  8
1
  6
SLD-Solid
370
    25
100
AcDbCircle
 10
2.25
 20
35.5
 30
0.0
 40
0.75
100
AcDbArc
 50
270.0
 51
344.498683183
  0
ARC
  5
160
330
1F
100
AcDbEntity
  8
1
  6
SLD-Solid
370
    25
100
AcDbCircle
 10
2.25
 20
-35.5
 30
0.0
 40
0.7500000000000182
100
AcDbArc
 50
15.135559224
 51
90.0
  0
ARC
  5
161
330
1F
100
AcDbEntity
  8
1
  6
SLD-Solid
370
    25
100
AcDbCircle
 10
0.7040707856
 20
35.5
 30
0.0
 40
0.7500000000000001
100
AcDbArc
 50
240.0
 51
270.0
  0
ARC
  5
162
330
1F
100
AcDbEntity
  8
1
  6
SLD-Solid
370
    25
100
AcDbCircle
 10
0.7040707856
 20
-35.5
 30
0.0
 40
0.7500000000000142
100
AcDbArc
 50
90.0
 51
120.0
  0
ARC
  5
163
330
1F
100
AcDbEntity
  8
1
  6
SLD-Solid
370
    25
100
AcDbCircle
 10
41.0
 20
-33.0
 30
0.0
 40
3.0
100
AcDbArc
 50
90.0
 51
180.0
  0
ARC
  5
164
330
1F
100
AcDbEntity
  8
1
  6
SLD-Solid
370
    25
100
AcDbCircle
 10
41.0
 20
33.0
 30
0.0
 40
3.0
100
AcDbArc
 50
180.0
 51
270.0
  0
ARC
  5
165
330
1F
100
AcDbEntity
  8
1
  6
SLD-Solid
370
    25
100
AcDbCircle
 10
99.2
 20
-29.2
 30
0.0
 40
0.8000000000000149
100
AcDbArc
 50
270.0
 51
0.0
  0
ARC
  5
166
330
1F
100
AcDbEntity
  8
1
  6
SLD-Solid
370
    25
100
AcDbCircle
 10
99.2
 20
29.2
 30
0.0
 40
0.8000000000000114
100
AcDbArc
 50
0.0
 51
90.0
  0
ARC
  5
167
330
1F
100
AcDbEntity
  8
SK1
  6
SLD-Solid
370
    25
100
AcDbCircle
 10
-100.8
 20
19.2132836634
 30
0.0
 40
1.0
100
AcDbArc
 50
98.2977777778
 51
180.0
  0
ARC
  5
168
330
1F
100
AcDbEntity
  8
SK1
  6
SLD-Solid
370
    25
100
AcDbCircle
 10
-100.8
 20
-19.2132836634
 30
0.0
 40
1.000000000000002
100
AcDbArc
 50
180.0
 51
261.7022222222
  0
ARC
  5
169
330
1F
100
AcDbEntity
  8
SK1
  6
SLD-Solid
370
    25
100
AcDbCircle
 10
100.42
 20
14.0475
 30
0.0
 40
0.8000000000000073
100
AcDbArc
 50
238.3317567465
 51
287.5
  0
ARC
  5
16A
330
1F
100
AcDbEntity
  8
SK1
  6
SLD-Solid
370
    25
100
AcDbCircle
 10
100.42
 20
-14.0475
 30
0.0
 40
0.8000000000000012
100
AcDbArc
 50
72.5
 51
121.6682432535
  0
SPLINE
  5
16B
330
1F
100
AcDbEntity
  8
SK1
  6
SLD-Solid
370
    25
100
AcDbSpline
210
0.0
220
0.0
230
1.0
 70
     8
 71
     3
 72
    22
 73
    18
 74
     0
 42
0.000000001
 43
0.00000001
 40
0.0
 40
0.0
 40
0.0
 40
0.0
 40
0.0000426820658281
 40
0.0044540591791671
 40
0.0104840622624933
 40
0.0218325122901679
 40
0.0637123435819837
 40
0.2297089043335457
 40
0.4570369409432384
 40
0.6132853755057741
 40
0.7751506476367239
 40
0.8595594920544423
 40
0.9155911903790104
 40
0.9447773513704503
 40
0.9677396776232857
 40
0.9849141671222716
 40
1.0
 40
1.0
 40
1.0
 40
1.0
 10
100.0296155740812
 20
20.3853494895471
 30
0.0
 10
100.029648697291
 20
20.38534945306621
 30
0.0
 10
100.0331052482764
 20
20.38534564612601
 30
0.0
 10
100.0412823934352
 20
20.38381017082802
 30
0.0
 10
100.0560500012619
 20
20.37499249808361
 30
0.0
 10
100.0864018631372
 20
20.33965583252599
 30
0.0
 10
100.153017992725
 20
20.18094035007989
 30
0.0
 10
100.2308762355709
 20
19.85229979384029
 30
0.0
 10
100.2992658036365
 20
19.43033578153845
 30
0.0
 10
100.3228758014983
 20
19.007312782616
 30
0.0
 10
100.3020862199924
 20
18.69369888780481
 30
0.0
 10
100.2423514498046
 20
18.46561933174719
 30
0.0
 10
100.182502431171
 20
18.34674231218103
 30
0.0
 10
100.1258298136482
 20
18.28356098887528
 30
0.0
 10
100.0793242165605
 20
18.25501411925648
 30
0.0
 10
100.0365282493934
 20
18.24500945574449
 30
0.0
 10
100.0116389401304
 20
18.24909815121688
 30
0.0
 10
100.0000000000231
 20
18.25101014006386
 30
0.0
  0
SPLINE
  5
16C
330
1F
100
AcDbEntity
  8
SK1
  6
SLD-Solid
370
    25
100
AcDbSpline
210
0.0
220
0.0
230
1.0
 70
     8
 71
     3
 72
    24
 73
    20
 74
     0
 42
0.000000001
 43
0.00000001
 40
0.0
 40
0.0
 40
0.0
 40
0.0
 40
0.0063998671530799
 40
0.0249948629448747
 40
0.0424688617708849
 40
0.0711505444562424
 40
0.1228579652821991
 40
0.2630962651584853
 40
0.6788839611339776
 40
0.7821397450078277
 40
0.8521028408894267
 40
0.8994680208739955
 40
0.9316131648926159
 40
0.953564028184082
 40
0.9687196354003996
 40
0.984274549936854
 40
0.9907521967230679
 40
0.9973024487610673
 40
1.0
 40
1.0
 40
1.0
 40
1.0
 10
100.0000000000001
 20
23.74898985993038
 30
0.0
 10
100.0048557803513
 20
23.75002098990349
 30
0.0
 10
100.0238201684341
 20
23.75404809730121
 30
0.0
 10
100.0575876338243
 20
23.75177162091811
 30
0.0
 10
100.1044841410439
 20
23.73227068466085
 30
0.0
 10
100.1626575168464
 20
23.68144472861627
 30
0.0
 10
100.2510605763271
 20
23.5323124369517
 30
0.0
 10
100.3502941312242
 20
23.06408506661001
 30
0.0
 10
100.3013089665451
 20
22.5473642619482
 30
0.0
 10
100.2169861274558
 20
22.09910021868658
 30
0.0
 10
100.1777270489307
 20
21.93259647201661
 30
0.0
 10
100.146396517378
 20
21.8210140573655
 30
0.0
 10
100.1213780849803
 20
21.74643506444607
 30
0.0
 10
100.1011661931015
 20
21.69661839250814
 30
0.0
 10
100.082761120883
 20
21.66022597918059
 30
0.0
 10
100.0665901353896
 20
21.63593836579714
 30
0.0
 10
100.0501624173414
 20
21.62101412757554
 30
0.0
 10
100.0388916662686
 20
21.61526866596637
 30
0.0
 10
100.0317103410418
 20
21.61479010498472
 30
0.0
 10
100.0296155740812
 20
21.61465051045289
 30
0.0
  0
SPLINE
  5
16D
330
1F
100
AcDbEntity
  8
SK1
  6
SLD-Solid
370
    25
100
AcDbSpline
210
0.0
220
0.0
230
1.0
 70
     8
 71
     3
 72
    10
 73
     6
 74
     0
 42
0.000000001
 43
0.00000001
 40
0.0
 40
0.0
 40
0.0
 40
0.0
 40
0.3293498629994396
 40
0.664519187055604
 40
0.9999999999999999
 40
0.9999999999999999
 40
0.9999999999999999
 40
0.9999999999999999
 10
106.3000000000001
 20
21.47711529005053
 30
0.0
 10
106.249145762819
 20
22.02349829093061
 30
0.0
 10
106.146538717405
 20
23.12591862977394
 30
0.0
 10
105.7173583338829
 20
24.74018808565637
 30
0.0
 10
105.3360447870967
 20
25.7885463517285
 30
0.0
 10
105.1452994616209
 20
26.31296894400861
 30
0.0
  0
SPLINE
  5
16E
330
1F
100
AcDbEntity
  8
SK1
  6
SLD-Solid
370
    25
100
AcDbSpline
210
0.0
220
0.0
230
1.0
 70
     8
 71
     3
 72
    10
 73
     6
 74
     0
 42
0.000000001
 43
0.00000001
 40
0.0
 40
0.0
 40
0.0
 40
0.0
 40
0.4412985942281925
 40
0.8892001741287873
 40
1.0
 40
1.0
 40
1.0
 40
1.0
 10
105.1452994616209
 20
15.68703105599138
 30
0.0
 10
105.3939524732154
 20
16.37783681128907
 30
0.0
 10
105.8949789983378
 20
17.76978458980899
 30
0.0
 10
106.2302238236517
 20
19.4113816765767
 30
0.0
 10
106.2884523167039
 20
20.33893532086351
 30
0.0
 10
106.3000000000001
 20
20.52288470994945
 30
0.0
  0
SPLINE
  5
16F
330
1F
100
AcDbEntity
  8
SK1
  6
SLD-Solid
370
    25
100
AcDbSpline
210
0.0
220
0.0
230
1.0
 70
    24
 71
     3
 72
    10
 73
     6
 74
     0
 42
0.000000001
 43
0.00000001
 40
0.0
 40
0.0
 40
0.0
 40
0.0
 40
0.3293498629994396
 40
0.664519187055604
 40
1.0
 40
1.0
 40
1.0
 40
1.0
 10
106.3000000000001
 20
15.01899999999999
 30
0.0
 10
106.249145762819
 20
15.01899999999999
 30
0.0
 10
106.1465387174051
 20
15.01899999999999
 30
0.0
 10
105.7173583338829
 20
15.01899999999999
 30
0.0
 10
105.3360447870967
 20
15.01899999999999
 30
0.0
 10
105.1452994616209
 20
15.01899999999999
 30
0.0
  0
SPLINE
  5
170
330
1F
100
AcDbEntity
  8
SK1
  6
SLD-Solid
370
    25
100
AcDbSpline
210
0.0
220
0.0
230
1.0
 70
    24
 71
     3
 72
    10
 73
     6
 74
     0
 42
0.000000001
 43
0.00000001
 40
0.0
 40
0.0
 40
0.0
 40
0.0
 40
0.4412985942281901
 40
0.8892001741287844
 40
1.0
 40
1.0
 40
1.0
 40
1.0
 10
105.1452994616209
 20
26.98100000000001
 30
0.0
 10
105.3939524732154
 20
26.98100000000001
 30
0.0
 10
105.8949789983379
 20
26.98100000000002
 30
0.0
 10
106.2302238236516
 20
26.98100000000001
 30
0.0
 10
106.2884523167039
 20
26.98100000000001
 30
0.0
 10
106.3000000000001
 20
26.98100000000001
 30
0.0
  0
SPLINE
  5
171
330
1F
100
AcDbEntity
  8
SK1
  6
SLD-Solid
370
    25
100
AcDbSpline
210
0.0
220
0.0
230
1.0
 70
     8
 71
     3
 72
    20
 73
    16
 74
     0
 42
0.000000001
 43
0.00000001
 40
0.0
 40
0.0
 40
0.0
 40
0.0
 40
0.0035561867230738
 40
0.0082319551360886
 40
0.0171826768664113
 40
0.0454250344423374
 40
0.1768225645826967
 40
0.7028904025717568
 40
0.8336916909304407
 40
0.8824570832082472
 40
0.9315031340109055
 40
0.9543716570629418
 40
0.9774478569774961
 40
0.9949961310811204
 40
1.0
 40
1.0
 40
1.0
 40
1.0
 10
100.0296155740812
 20
-21.61465051045288
 30
0.0
 10
100.0323775431737
 20
-21.61488833506047
 30
0.0
 10
100.0387710223206
 20
-21.61543885775579
 30
0.0
 10
100.0509814593353
 20
-21.62142164949917
 30
0.0
 10
100.0748072585772
 20
-21.64397161480187
 30
0.0
 10
100.1353557457523
 20
-21.7619372335531
 30
0.0
 10
100.2657773001272
 20
-22.27705555540046
 30
0.0
 10
100.3599721493471
 20
-22.8933211341318
 30
0.0
 10
100.2742136083533
 20
-23.43824155558837
 30
0.0
 10
100.2100454050957
 20
-23.6036978352756
 30
0.0
 10
100.1594160066287
 20
-23.68409182072731
 30
0.0
 10
100.1033228184107
 20
-23.73276211275508
 30
0.0
 10
100.0570476023539
 20
-23.75264358401184
 30
0.0
 10
100.0208525940461
 20
-23.75357879573977
 30
0.0
 10
100.003786601902
 20
-23.74982316023944
 30
0.0
 10
100.0000000000001
 20
-23.74898985993038
 30
0.0
  0
SPLINE
  5
172
330
1F
100
AcDbEntity
  8
SK1
  6
SLD-Solid
370
    25
100
AcDbSpline
210
0.0
220
0.0
230
1.0
 70
     8
 71
     3
 72
    20
 73
    16
 74
     0
 42
0.000000001
 43
0.00000001
 40
0.0
 40
0.0
 40
0.0
 40
0.0
 40
0.0151005813472533
 40
0.0344543817697889
 40
0.0589402924983903
 40
0.0994597882443429
 40
0.1832088879369393
 40
0.4394356023092544
 40
0.7179026471201965
 40
0.9456265837801007
 40
0.9641672685710527
 40
0.9820539626453437
 40
0.9889302604655283
 40
0.9958715265882533
 40
1.0
 40
1.0
 40
1.0
 40
1.0
 10
99.99999999999956
 20
-18.25101014006977
 30
0.0
 10
100.0116397790202
 20
-18.24910288699796
 30
0.0
 10
100.0381977889983
 20
-18.2447511853014
 30
0.0
 10
100.08382470338
 20
-18.25652507075969
 30
0.0
 10
100.1388272056632
 20
-18.29358696768353
 30
0.0
 10
100.2097206109281
 20
-18.38697936930398
 30
0.0
 10
100.3116247874843
 20
-18.66747065338336
 30
0.0
 10
100.3305223018523
 20
-19.15558691513121
 30
0.0
 10
100.2519989607661
 20
-19.73853016220685
 30
0.0
 10
100.1734723996075
 20
-20.14365378600635
 30
0.0
 10
100.088485589764
 20
-20.32981713371447
 30
0.0
 10
100.0708120641068
 20
-20.3588388284131
 30
0.0
 10
100.0535967481205
 20
-20.37635037556422
 30
0.0
 10
100.0414362005982
 20
-20.38413232055007
 30
0.0
 10
100.03282655306
 20
-20.38501885529035
 30
0.0
 10
100.0296155740812
 20
-20.38534948954712
 30
0.0
  0
SPLINE
  5
173
330
1F
100
AcDbEntity
  8
SK1
  6
SLD-Solid
370
    25
100
AcDbSpline
210
0.0
220
0.0
230
1.0
 70
     8
 71
     3
 72
    10
 73
     6
 74
     0
 42
0.000000001
 43
0.00000001
 40
0.0
 40
0.0
 40
0.0
 40
0.0
 40
0.3293498629994407
 40
0.6645191870556068
 40
1.0
 40
1.0
 40
1.0
 40
1.0
 10
106.3000000000001
 20
-20.52288470994949
 30
0.0
 10
106.249145762819
 20
-19.9765017090694
 30
0.0
 10
106.146538717405
 20
-18.87408137022608
 30
0.0
 10
105.717358333883
 20
-17.25981191434364
 30
0.0
 10
105.3360447870967
 20
-16.21145364827152
 30
0.0
 10
105.1452994616209
 20
-15.6870310559914
 30
0.0
  0
SPLINE
  5
174
330
1F
100
AcDbEntity
  8
SK1
  6
SLD-Solid
370
    25
100
AcDbSpline
210
0.0
220
0.0
230
1.0
 70
     8
 71
     3
 72
    10
 73
     6
 74
     0
 42
0.000000001
 43
0.00000001
 40
0.0
 40
0.0
 40
0.0
 40
0.0
 40
0.4412985942281904
 40
0.889200174128785
 40
1.0
 40
1.0
 40
1.0
 40
1.0
 10
105.1452994616209
 20
-26.31296894400863
 30
0.0
 10
105.3939524732154
 20
-25.62216318871091
 30
0.0
 10
105.8949789983379
 20
-24.23021541019101
 30
0.0
 10
106.2302238236516
 20
-22.58861832342332
 30
0.0
 10
106.288452316704
 20
-21.66106467913649
 30
0.0
 10
106.3000000000001
 20
-21.47711529005053
 30
0.0
  0
SPLINE
  5
175
330
1F
100
AcDbEntity
  8
SK1
  6
SLD-Solid
370
    25
100
AcDbSpline
210
0.0
220
0.0
230
1.0
 70
    24
 71
     3
 72
    10
 73
     6
 74
     0
 42
0.000000001
 43
0.00000001
 40
0.0
 40
0.0
 40
0.0
 40
0.0
 40
0.4412985942281901
 40
0.8892001741287844
 40
0.9999999999999999
 40
0.9999999999999999
 40
0.9999999999999999
 40
0.9999999999999999
 10
105.1452994616209
 20
-15.01900000000001
 30
0.0
 10
105.3939524732154
 20
-15.019
 30
0.0
 10
105.8949789983379
 20
-15.01900000000001
 30
0.0
 10
106.2302238236515
 20
-15.01899999999999
 30
0.0
 10
106.288452316704
 20
-15.01900000000001
 30
0.0
 10
106.3000000000001
 20
-15.019
 30
0.0
  0
SPLINE
  5
176
330
1F
100
AcDbEntity
  8
SK1
  6
SLD-Solid
370
    25
100
AcDbSpline
210
0.0
220
0.0
230
1.0
 70
    24
 71
     3
 72
    10
 73
     6
 74
     0
 42
0.000000001
 43
0.00000001
 40
0.0
 40
0.0
 40
0.0
 40
0.0
 40
0.3293498629994393
 40
0.6645191870556035
 40
1.0
 40
1.0
 40
1.0
 40
1.0
 10
106.3000000000001
 20
-26.98100000000003
 30
0.0
 10
106.2491457628191
 20
-26.98100000000003
 30
0.0
 10
106.1465387174051
 20
-26.98100000000003
 30
0.0
 10
105.7173583338829
 20
-26.98100000000001
 30
0.0
 10
105.3360447870967
 20
-26.98100000000003
 30
0.0
 10
105.1452994616209
 20
-26.98100000000003
 30
0.0
  0
SPLINE
  5
177
330
1F
100
AcDbEntity
  8
1
  6
SLD-Solid
370
    25
100
AcDbSpline
210
0.0
220
0.0
230
1.0
 70
     8
 71
     3
 72
    10
 73
     6
 74
     0
 42
0.000000001
 43
0.00000001
 40
0.0
 40
0.0
 40
0.0
 40
0.0
 40
0.5
 40
0.5
 40
1.0
 40
1.0
 40
1.0
 40
1.0
 10
30.23243614862717
 20
48.17236247777645
 30
0.0
 10
29.66595731755034
 20
47.07044218531232
 30
0.0
 10
29.08730088354841
 20
45.94697720990759
 30
0.0
 10
27.91047592737286
 20
43.66801754599719
 30
0.0
 10
27.31223561288279
 20
42.51237097121846
 30
0.0
 10
26.70500000000001
 20
41.34329896850786
 30
0.0
  0
SPLINE
  5
178
330
1F
100
AcDbEntity
  8
1
  6
SLD-Solid
370
    25
100
AcDbSpline
210
0.0
220
0.0
230
1.0
 70
     8
 71
     3
 72
     9
 73
     5
 74
     0
 42
0.000000001
 43
0.00000001
 40
0.0
 40
0.0
 40
0.0
 40
0.0
 40
0.5024637826893291
 40
1.0
 40
1.0
 40
1.0
 40
1.0
 10
30.72999999911674
 20
48.90543757807517
 30
0.0
 10
30.64643752270488
 20
48.78261069189421
 30
0.0
 10
30.480132050966
 20
48.53816145910859
 30
0.0
 10
30.31472977255989
 20
48.29389425735167
 30
0.0
 10
30.23243614862717
 20
48.17236247777645
 30
0.0
  0
SPLINE
  5
179
330
1F
100
AcDbEntity
  8
1
  6
SLD-Solid
370
    25
100
AcDbSpline
210
0.0
220
0.0
230
1.0
 70
     8
 71
     3
 72
     9
 73
     5
 74
     0
 42
0.000000001
 43
0.00000001
 40
0.0
 40
0.0
 40
0.0
 40
0.0
 40
0.4975362171667
 40
0.9999999999999999
 40
0.9999999999999999
 40
0.9999999999999999
 40
0.9999999999999999
 10
30.23243616778132
 20
-48.17236251682414
 30
0.0
 10
30.31472978859215
 20
-48.29389428832032
 30
0.0
 10
30.48013206077133
 20
-48.53816147390987
 30
0.0
 10
30.64643752655599
 20
-48.78261069063937
 30
0.0
 10
30.73000000000001
 20
-48.90543756878791
 30
0.0
  0
SPLINE
  5
17A
330
1F
100
AcDbEntity
  8
1
  6
SLD-Solid
370
    25
100
AcDbSpline
210
0.0
220
0.0
230
1.0
 70
     8
 71
     3
 72
    10
 73
     6
 74
     0
 42
0.000000001
 43
0.00000001
 40
0.0
 40
0.0
 40
0.0
 40
0.0
 40
0.5
 40
0.5
 40
1.0
 40
1.0
 40
1.0
 40
1.0
 10
30.23243616778132
 20
-48.17236251682414
 30
0.0
 10
29.66595733380698
 20
-47.07044221838385
 30
0.0
 10
29.0873008967214
 20
-45.9469772366517
 30
0.0
 10
27.91047593413612
 20
-43.66801755966577
 30
0.0
 10
27.31223561631715
 20
-42.51237097813292
 30
0.0
 10
26.70500000000001
 20
-41.34329896850787
 30
0.0
  0
SPLINE
  5
17B
330
1F
100
AcDbEntity
  8
1
  6
SLD-Solid
370
    25
100
AcDbSpline
210
0.0
220
0.0
230
1.0
 70
     8
 71
     3
 72
    10
 73
     6
 74
     0
 42
0.000000001
 43
0.00000001
 40
0.0
 40
0.0
 40
0.0
 40
0.0
 40
0.5
 40
0.5
 40
1.0
 40
1.0
 40
1.0
 40
1.0
 10
3.750000000000024
 20
48.01901379935648
 30
0.0
 10
3.553650459150647
 20
48.01901379935645
 30
0.0
 10
3.358510005927567
 20
47.9413533215016
 30
0.0
 10
3.080829822292654
 20
47.67456100227749
 30
0.0
 10
3.000000000000029
 20
47.4870720233798
 30
0.0
 10
3.00000000000003
 20
47.29842136528797
 30
0.0
  0
SPLINE
  5
17C
330
1F
100
AcDbEntity
  8
1
  6
SLD-Solid
370
    25
100
AcDbSpline
210
0.0
220
0.0
230
1.0
 70
     8
 71
     3
 72
    10
 73
     6
 74
     0
 42
0.000000001
 43
0.00000001
 40
0.0
 40
0.0
 40
0.0
 40
0.0
 40
0.5
 40
0.5
 40
1.0
 40
1.0
 40
1.0
 40
1.0
 10
3.00000000000003
 20
-47.29842136528798
 30
0.0
 10
3.00000000000003
 20
-47.48707202337981
 30
0.0
 10
3.080829822292644
 20
-47.6745610022775
 30
0.0
 10
3.358510005927559
 20
-47.94135332150156
 30
0.0
 10
3.553650459150667
 20
-48.0190137993565
 30
0.0
 10
3.750000000000017
 20
-48.01901379935648
 30
0.0
  0
SPLINE
  5
17D
330
1F
100
AcDbEntity
  8
1
  6
SLD-Solid
370
    25
100
AcDbSpline
210
0.0
220
0.0
230
1.0
 70
     8
 71
     3
 72
     8
 73
     4
 74
     0
 42
0.000000001
 43
0.00000001
 40
0.0
 40
0.0
 40
0.0
 40
0.0
 40
0.0013188854064184
 40
0.0013188854064184
 40
0.0013188854064184
 40
0.0013188854064184
 10
16.23001969424186
 20
47.29842136528797
 30
0.0
 10
16.04753937863332
 20
47.53885526362168
 30
0.0
 10
15.86418062995508
 20
47.77904885862088
 30
0.0
 10
15.68
 20
48.01901379935647
 30
0.0
  0
SPLINE
  5
17E
330
1F
100
AcDbEntity
  8
1
  6
SLD-Solid
370
    25
100
AcDbSpline
210
0.0
220
0.0
230
1.0
 70
     8
 71
     3
 72
     8
 73
     4
 74
     0
 42
0.000000001
 43
0.00000001
 40
0.0
 40
0.0
 40
0.0
 40
0.0
 40
1.0
 40
1.0
 40
1.0
 40
1.0
 10
19.705
 20
41.02691000550031
 30
0.0
 10
18.55198828581112
 20
43.12037875772611
 30
0.0
 10
17.39299087975339
 20
45.21052193210544
 30
0.0
 10
16.23001969424186
 20
47.29842136528799
 30
0.0
  0
SPLINE
  5
17F
330
1F
100
AcDbEntity
  8
1
  6
SLD-Solid
370
    25
100
AcDbSpline
210
0.0
220
0.0
230
1.0
 70
     8
 71
     3
 72
     8
 73
     4
 74
     0
 42
0.000000001
 43
0.00000001
 40
0.0
 40
0.0
 40
0.0
 40
0.0
 40
1.0
 40
1.0
 40
1.0
 40
1.0
 10
19.705
 20
-41.02691000550033
 30
0.0
 10
18.55203671462706
 20
-43.12029082781905
 30
0.0
 10
17.39303935599189
 20
-45.21043490199484
 30
0.0
 10
16.23001969424189
 20
-47.29842136528795
 30
0.0
  0
SPLINE
  5
180
330
1F
100
AcDbEntity
  8
1
  6
SLD-Solid
370
    25
100
AcDbSpline
210
0.0
220
0.0
230
1.0
 70
     8
 71
     3
 72
     8
 73
     4
 74
     0
 42
0.000000001
 43
0.00000001
 40
0.0
 40
0.0
 40
0.0
 40
0.0
 40
0.0013188854064184
 40
0.0013188854064184
 40
0.0013188854064184
 40
0.0013188854064184
 10
15.68
 20
-48.01901379935648
 30
0.0
 10
15.86418062995505
 20
-47.77904885862088
 30
0.0
 10
16.04753937863332
 20
-47.53885526362164
 30
0.0
 10
16.23001969424189
 20
-47.29842136528795
 30
0.0
  0
SPLINE
  5
181
330
1F
100
AcDbEntity
  8
1
  6
SLD-Solid
370
    25
100
AcDbSpline
210
0.0
220
0.0
230
1.0
 70
     8
 71
     3
 72
    10
 73
     6
 74
     0
 42
0.000000001
 43
0.00000001
 40
0.0
 40
0.0
 40
0.0
 40
0.0
 40
0.5
 40
0.5
 40
1.0
 40
1.0
 40
1.0
 40
1.0
 10
20.08000000000002
 20
40.49493795525558
 30
0.0
 10
19.97988956666463
 20
40.49493795525558
 30
0.0
 10
19.87972107531741
 20
40.54029694773564
 30
0.0
 10
19.74317938603662
 20
40.68729003829233
 30
0.0
 10
19.70499999999997
 20
40.78825674301803
 30
0.0
 10
19.70499999999997
 20
40.88833115939067
 30
0.0
  0
SPLINE
  5
182
330
1F
100
AcDbEntity
  8
1
  6
SLD-Solid
370
    25
100
AcDbSpline
210
0.0
220
0.0
230
1.0
 70
     8
 71
     3
 72
    10
 73
     6
 74
     0
 42
0.000000001
 43
0.00000001
 40
0.0
 40
0.0
 40
0.0
 40
0.0
 40
0.5
 40
0.5
 40
1.0
 40
1.0
 40
1.0
 40
1.0
 10
20.08000000000002
 20
-40.49493795525559
 30
0.0
 10
19.97992383272271
 20
-40.49493795525559
 30
0.0
 10
19.8806232165544
 20
-40.53943621280957
 30
0.0
 10
19.7426664704452
 20
-40.68773206614099
 30
0.0
 10
19.705
 20
-40.78818217895951
 30
0.0
 10
19.70499999999997
 20
-40.8883311593907
 30
0.0
  0
SPLINE
  5
183
330
1F
100
AcDbEntity
  8
1
  6
SLD-Solid
370
    25
100
AcDbSpline
210
0.0
220
0.0
230
1.0
 70
     8
 71
     3
 72
    10
 73
     6
 74
     0
 42
0.000000001
 43
0.00000001
 40
0.0
 40
0.0
 40
0.0
 40
0.0
 40
0.5
 40
0.5
 40
1.0
 40
1.0
 40
1.0
 40
1.0
 10
26.70500000000001
 20
41.20578418135005
 30
0.0
 10
26.70500000000001
 20
41.09726832240887
 30
0.0
 10
26.66092467021577
 20
40.99144228921074
 30
0.0
 10
26.52433049195515
 20
40.83520812885232
 30
0.0
 10
26.4308108771516
 20
40.78194095045548
 30
0.0
 10
26.33000000000041
 20
40.7702452776509
 30
0.0
  0
SPLINE
  5
184
330
1F
100
AcDbEntity
  8
1
  6
SLD-Solid
370
    25
100
AcDbSpline
210
0.0
220
0.0
230
1.0
 70
     8
 71
     3
 72
    10
 73
     6
 74
     0
 42
0.000000001
 43
0.00000001
 40
0.0
 40
0.0
 40
0.0
 40
0.0
 40
0.5
 40
0.5
 40
1.0
 40
1.0
 40
1.0
 40
1.0
 10
26.70500000000001
 20
-41.20578418135007
 30
0.0
 10
26.70500000000001
 20
-41.09726832240889
 30
0.0
 10
26.66092467021577
 20
-40.99144228921077
 30
0.0
 10
26.52433049195515
 20
-40.83520812885233
 30
0.0
 10
26.4308108771516
 20
-40.78194095045548
 30
0.0
 10
26.33000000000041
 20
-40.77024527765091
 30
0.0
  0
SPLINE
  5
185
330
1F
100
AcDbEntity
  8
1
  6
SLD-Solid
370
    25
100
AcDbSpline
210
0.0
220
0.0
230
1.0
 70
     8
 71
     3
 72
    10
 73
     6
 74
     0
 42
0.000000001
 43
0.00000001
 40
0.0
 40
0.0
 40
0.0
 40
0.0
 40
0.5
 40
0.5
 40
1.0
 40
1.0
 40
1.0
 40
1.0
 10
26.33000000000016
 20
40.77024527765089
 30
0.0
 10
25.57238485928243
 20
40.68234981390825
 30
0.0
 10
24.79922683720345
 20
40.6134944545912
 30
0.0
 10
23.2227558523849
 20
40.51980029582745
 30
0.0
 10
22.41944729352558
 20
40.49493795525517
 30
0.0
 10
21.60000000000001
 20
40.49493795525558
 30
0.0
  0
SPLINE
  5
186
330
1F
100
AcDbEntity
  8
1
  6
SLD-Solid
370
    25
100
AcDbSpline
210
0.0
220
0.0
230
1.0
 70
     8
 71
     3
 72
    10
 73
     6
 74
     0
 42
0.000000001
 43
0.00000001
 40
0.0
 40
0.0
 40
0.0
 40
0.0
 40
0.5
 40
0.5
 40
1.0
 40
1.0
 40
1.0
 40
1.0
 10
26.3300000000001
 20
-40.77024527765089
 30
0.0
 10
25.5723848592824
 20
-40.68234981390827
 30
0.0
 10
24.79922683720342
 20
-40.61349445459121
 30
0.0
 10
23.22275585238487
 20
-40.51980029582744
 30
0.0
 10
22.41944729352558
 20
-40.49493795525519
 30
0.0
 10
21.60000000000001
 20
-40.49493795525559
 30
0.0
  0
SPLINE
  5
187
330
1F
100
AcDbEntity
  8
1
  6
SLD-Solid
370
    25
100
AcDbSpline
210
0.0
220
0.0
230
1.0
 70
     8
 71
     3
 72
    34
 73
    30
 74
     0
 42
0.000000001
 43
0.00000001
 40
0.4999999999999964
 40
0.4999999999999964
 40
0.4999999999999964
 40
0.4999999999999964
 40
0.5312499999999962
 40
0.5312499999999962
 40
0.562499999999996
 40
0.562499999999996
 40
0.6249999999999962
 40
0.6249999999999962
 40
0.6562499999999966
 40
0.6562499999999966
 40
0.6874999999999969
 40
0.6874999999999969
 40
0.7187499999999972
 40
0.7187499999999972
 40
0.7499999999999976
 40
0.7499999999999976
 40
0.7812499999999979
 40
0.7812499999999979
 40
0.8124999999999982
 40
0.8124999999999982
 40
0.8437499999999986
 40
0.8437499999999986
 40
0.8749999999999989
 40
0.8749999999999989
 40
0.9062499999999992
 40
0.9062499999999992
 40
0.9374999999999996
 40
0.9374999999999996
 40
1.0
 40
1.0
 40
1.0
 40
1.0
 10
23.20589587497795
 20
-29.72100113108846
 30
0.0
 10
23.04273018062972
 20
-29.72104299889365
 30
0.0
 10
22.88054309480278
 20
-29.70976258832758
 30
0.0
 10
22.55816751359421
 20
-29.66400263942705
 30
0.0
 10
22.40015203955667
 20
-29.62960507017488
 30
0.0
 10
21.94874116448112
 20
-29.49539605039492
 30
0.0
 10
21.66966170742895
 20
-29.36126507752363
 30
0.0
 10
21.32358800293055
 20
-29.11002820297054
 30
0.0
 10
21.21794598701593
 20
-29.01627839646894
 30
0.0
 10
21.03616251104512
 20
-28.8170203737771
 30
0.0
 10
20.95927468766121
 20
-28.71137196193323
 30
0.0
 10
20.8336201302908
 20
-28.48767708778121
 30
0.0
 10
20.78531205437617
 20
-28.36952537796822
 30
0.0
 10
20.72149416893582
 20
-28.13074916548125
 30
0.0
 10
20.70516599189301
 20
-28.0088776392539
 30
0.0
 10
20.7048365018333
 20
-27.75990853831907
 30
0.0
 10
20.72093301366798
 20
-27.63624311799486
 30
0.0
 10
20.7841617509292
 20
-27.39268024094759
 30
0.0
 10
20.83199834433971
 20
-27.2712186763022
 30
0.0
 10
20.95734166225316
 20
-27.03794085162358
 30
0.0
 10
21.03403833677833
 20
-26.9268685875438
 30
0.0
 10
21.21508970343011
 20
-26.71598981970994
 30
0.0
 10
21.32056531379101
 20
-26.6156062577078
 30
0.0
 10
21.55109188246723
 20
-26.43504771397119
 30
0.0
 10
21.67681132009755
 20
-26.35377547947819
 30
0.0
 10
21.94957816929436
 20
-26.20994393859728
 30
0.0
 10
22.09529754570039
 20
-26.14840115916887
 30
0.0
 10
22.54636665080845
 20
-26.00024644366685
 30
0.0
 10
22.87459941867223
 20
-25.94745334491397
 30
0.0
 10
23.205
 20
-25.94745334491395
 30
0.0
  0
SPLINE
  5
188
330
1F
100
AcDbEntity
  8
1
  6
SLD-Solid
370
    25
100
AcDbSpline
210
0.0
220
0.0
230
1.0
 70
     8
 71
     3
 72
    38
 73
    34
 74
     0
 42
0.000000001
 43
0.00000001
 40
0.0
 40
0.0
 40
0.0
 40
0.0
 40
0.0312499999999998
 40
0.0312499999999998
 40
0.0624999999999996
 40
0.0624999999999996
 40
0.0937499999999993
 40
0.0937499999999993
 40
0.1249999999999991
 40
0.1249999999999991
 40
0.1562499999999989
 40
0.1562499999999989
 40
0.1874999999999987
 40
0.1874999999999987
 40
0.2187499999999984
 40
0.2187499999999984
 40
0.2499999999999982
 40
0.2499999999999982
 40
0.281249999999998
 40
0.281249999999998
 40
0.3124999999999978
 40
0.3124999999999978
 40
0.3437499999999976
 40
0.3437499999999976
 40
0.3749999999999973
 40
0.3749999999999973
 40
0.4062499999999971
 40
0.4062499999999971
 40
0.4374999999999969
 40
0.4374999999999969
 40
0.4687499999999967
 40
0.4687499999999967
 40
0.4999999999999964
 40
0.4999999999999964
 40
0.4999999999999964
 40
0.4999999999999964
 10
23.205
 20
-25.94745334491395
 30
0.0
 10
23.37020029066389
 20
-25.94745334491395
 30
0.0
 10
23.53263283196042
 20
-25.96032249420525
 30
0.0
 10
23.85219098755043
 20
-26.01067118597199
 30
0.0
 10
24.01097432552749
 20
-26.04876257573818
 30
0.0
 10
24.31371234200686
 20
-26.14795591398745
 30
0.0
 10
24.45729150714118
 20
-26.20856518088499
 30
0.0
 10
24.72902123700918
 20
-26.3513132917379
 30
0.0
 10
24.85764980054692
 20
-26.43418711150759
 30
0.0
 10
25.08821556221413
 20
-26.61452775553015
 30
0.0
 10
25.19168956346352
 20
-26.71262816111726
 30
0.0
 10
25.37445010138928
 20
-26.92472830033941
 30
0.0
 10
25.45209435761783
 20
-27.03719330704483
 30
0.0
 10
25.57678700830793
 20
-27.26866028096663
 30
0.0
 10
25.62479098888637
 20
-27.38936990747531
 30
0.0
 10
25.68902273120469
 20
-27.6353610651801
 30
0.0
 10
25.70491217524684
 20
-27.75841695185541
 30
0.0
 10
25.70508710560201
 20
-28.00457658049365
 30
0.0
 10
25.68885645426711
 20
-28.12895903350185
 30
0.0
 10
25.62507523155755
 20
-28.36854911342357
 30
0.0
 10
25.57788312016124
 20
-28.48440665574046
 30
0.0
 10
25.45271650250333
 20
-28.70840513446146
 30
0.0
 10
25.3744570151283
 20
-28.81617450583524
 30
0.0
 10
25.19353683177295
 20
-29.01481789865113
 30
0.0
 10
25.09025160284908
 20
-29.10698674379551
 30
0.0
 10
24.85699986080036
 20
-29.27682154714432
 30
0.0
 10
24.73058599253475
 20
-29.35186037591142
 30
0.0
 10
24.45991372184017
 20
-29.48272776477087
 30
0.0
 10
24.31383194967584
 20
-29.53911154354164
 30
0.0
 10
24.01094750420302
 20
-29.62939260036541
 30
0.0
 10
23.85511714456326
 20
-29.66332385808113
 30
0.0
 10
23.53477165529785
 20
-29.70921508861433
 30
0.0
 10
23.3690615693262
 20
-29.72095926328327
 30
0.0
 10
23.20589587497795
 20
-29.72100113108846
 30
0.0
  0
SPLINE
  5
189
330
1F
100
AcDbEntity
  8
1
  6
SLD-Solid
370
    25
100
AcDbSpline
210
0.0
220
0.0
230
1.0
 70
     8
 71
     3
 72
     9
 73
     5
 74
     0
 42
0.000000001
 43
0.00000001
 40
0.0
 40
0.0
 40
0.0
 40
0.0
 40
0.5024637794299895
 40
1.0
 40
1.0
 40
1.0
 40
1.0
 10
30.73000000000001
 20
-48.90543756878792
 30
0.0
 10
30.64643752706104
 20
-48.7826106913382
 30
0.0
 10
30.48013206115516
 20
-48.53816147434381
 30
0.0
 10
30.31472978909552
 20
-48.29389428901963
 30
0.0
 10
30.23243616778132
 20
-48.17236251682414
 30
0.0
  0
SPLINE
  5
18A
330
1F
100
AcDbEntity
  8
1
  6
SLD-Solid
370
    25
100
AcDbSpline
210
0.0
220
0.0
230
1.0
 70
     8
 71
     3
 72
     9
 73
     5
 74
     0
 42
0.000000001
 43
0.00000001
 40
0.0
 40
0.0
 40
0.0
 40
0.0
 40
0.4975362207133335
 40
1.0
 40
1.0
 40
1.0
 40
1.0
 10
30.23243614862718
 20
48.17236247777646
 30
0.0
 10
30.31472977306327
 20
48.29389425805081
 30
0.0
 10
30.48013205134976
 20
48.53816145954242
 30
0.0
 10
30.64643752320987
 20
48.78261069259289
 30
0.0
 10
30.72999999911674
 20
48.90543757807517
 30
0.0
  0
SPLINE
  5
18B
330
1F
100
AcDbEntity
  8
SK3
  6
SLD-Dashed
370
    18
100
AcDbSpline
210
0.0
220
0.0
230
1.0
 70
    24
 71
     2
 72
     6
 73
     3
 74
     0
 42
0.000000001
 43
0.00000001
 40
0.0
 40
0.0
 40
0.0
 40
0.2499999999999999
 40
0.2499999999999999
 40
0.2499999999999999
 10
3.000000000000016
 20
35.3
 30
0.0
 10
2.991678313258056
 20
35.3
 30
0.0
 10
2.98486946722433
 20
35.3
 30
0.0
  0
SPLINE
  5
18C
330
1F
100
AcDbEntity
  8
SK3
  6
SLD-Dashed
370
    18
100
AcDbSpline
210
0.0
220
0.0
230
1.0
 70
    24
 71
     2
 72
     6
 73
     3
 74
     0
 42
0.000000001
 43
0.00000001
 40
0.7499999999999999
 40
0.7499999999999999
 40
0.7499999999999999
 40
1.0
 40
1.0
 40
1.0
 10
2.98486946722433
 20
35.3
 30
0.0
 10
2.991678729951319
 20
35.3
 30
0.0
 10
3.000000000000016
 20
35.3
 30
0.0
  0
SPLINE
  5
18D
330
1F
100
AcDbEntity
  8
1
  6
SLD-Dashed
370
    18
100
AcDbSpline
210
0.0
220
0.0
230
1.0
 70
    24
 71
     2
 72
     6
 73
     3
 74
     0
 42
0.000000001
 43
0.00000001
 40
0.0
 40
0.0
 40
0.0
 40
0.2499999999999999
 40
0.2499999999999999
 40
0.2499999999999999
 10
3.000000000000016
 20
-35.3
 30
0.0
 10
2.991678313258056
 20
-35.3
 30
0.0
 10
2.98486946722433
 20
-35.3
 30
0.0
  0
SPLINE
  5
18E
330
1F
100
AcDbEntity
  8
1
  6
SLD-Dashed
370
    18
100
AcDbSpline
210
0.0
220
0.0
230
1.0
 70
    24
 71
     2
 72
     6
 73
     3
 74
     0
 42
0.000000001
 43
0.00000001
 40
0.7499999999999999
 40
0.7499999999999999
 40
0.7499999999999999
 40
1.0
 40
1.0
 40
1.0
 10
2.98486946722433
 20
-35.3
 30
0.0
 10
2.991678729951319
 20
-35.3
 30
0.0
 10
3.000000000000016
 20
-35.3
 30
0.0
  0
SPLINE
  5
18F
330
1F
100
AcDbEntity
  8
SK3
  6
SLD-Dashed
370
    18
100
AcDbSpline
210
0.0
220
0.0
230
1.0
 70
     8
 71
     3
 72
    28
 73
    24
 74
     0
 42
0.000000001
 43
0.00000001
 40
0.499999999999999
 40
0.499999999999999
 40
0.499999999999999
 40
0.499999999999999
 40
0.5624999999999988
 40
0.5624999999999988
 40
0.6249999999999986
 40
0.6249999999999986
 40
0.6562499999999984
 40
0.6562499999999984
 40
0.6874999999999984
 40
0.6874999999999984
 40
0.7499999999999984
 40
0.7499999999999984
 40
0.7812499999999986
 40
0.7812499999999986
 40
0.8124999999999988
 40
0.8124999999999988
 40
0.843749999999999
 40
0.843749999999999
 40
0.8749999999999992
 40
0.8749999999999992
 40
0.9374999999999996
 40
0.9374999999999996
 40
1.0
 40
1.0
 40
1.0
 40
1.0
 10
11.10063994626162
 20
-1.996101168021625
 30
0.0
 10
10.88511437952924
 20
-1.996018069188747
 30
0.0
 10
10.66767832557777
 20
-2.039126344320012
 30
0.0
 10
10.2703943393709
 20
-2.201882125499405
 30
0.0
 10
10.08661083813503
 20
-2.322930192641515
 30
0.0
 10
9.858251825173358
 20
-2.545838823969151
 30
0.0
 10
9.788576404423669
 20
-2.628421736312995
 30
0.0
 10
9.668865265987355
 20
-2.801888809725726
 30
0.0
 10
9.618080692690183
 20
-2.893265101092023
 30
0.0
 10
9.493376273476128
 20
-3.181219677072446
 30
0.0
 10
9.450181111892803
 20
-3.384978395674108
 30
0.0
 10
9.449910292143912
 20
-3.692402665103213
 30
0.0
 10
9.460525364821128
 20
-3.792650637691103
 30
0.0
 10
9.502361605002548
 20
-3.988926781036552
 30
0.0
 10
9.534127005294199
 20
-4.085974642666648
 30
0.0
 10
9.616761889127524
 20
-4.269460320685849
 30
0.0
 10
9.667357837461047
 20
-4.356067786520285
 30
0.0
 10
9.787049533591205
 20
-4.519370626251816
 30
0.0
 10
9.856502931629333
 20
-4.596024389578353
 30
0.0
 10
10.08415986542964
 20
-4.801564579329655
 30
0.0
 10
10.26789812149009
 20
-4.911381338388268
 30
0.0
 10
10.66470419625269
 20
-5.058204639393632
 30
0.0
 10
10.88162329565963
 20
-5.097086693245094
 30
0.0
 10
11.10000000000001
 20
-5.097086693245094
 30
0.0
  0
SPLINE
  5
190
330
1F
100
AcDbEntity
  8
SK3
  6
SLD-Dashed
370
    18
100
AcDbSpline
210
0.0
220
0.0
230
1.0
 70
     8
 71
     3
 72
    32
 73
    28
 74
     0
 42
0.000000001
 43
0.00000001
 40
0.0
 40
0.0
 40
0.0
 40
0.0
 40
0.03125
 40
0.03125
 40
0.0625
 40
0.0625
 40
0.09375
 40
0.09375
 40
0.1249999999999999
 40
0.1249999999999999
 40
0.1874999999999999
 40
0.1874999999999999
 40
0.2499999999999999
 40
0.2499999999999999
 40
0.2812499999999998
 40
0.2812499999999998
 40
0.3124999999999997
 40
0.3124999999999997
 40
0.3749999999999995
 40
0.3749999999999995
 40
0.4062499999999994
 40
0.4062499999999994
 40
0.4374999999999993
 40
0.4374999999999993
 40
0.4687499999999991
 40
0.4687499999999991
 40
0.499999999999999
 40
0.499999999999999
 40
0.499999999999999
 40
0.499999999999999
 10
11.10000000000001
 20
-5.097086693245094
 30
0.0
 10
11.20918835217019
 20
-5.097086693245087
 30
0.0
 10
11.3165177099212
 20
-5.087592280637258
 30
0.0
 10
11.52762119864308
 20
-5.050353282823162
 30
0.0
 10
11.63250188500517
 20
-5.022144718194656
 30
0.0
 10
11.8322320612755
 20
-4.94842565100425
 30
0.0
 10
11.92693469708966
 20
-4.903253657614008
 30
0.0
 10
12.10616276266319
 20
-4.796141864208021
 30
0.0
 10
12.1908896722433
 20
-4.733714962607355
 30
0.0
 10
12.41879001987321
 20
-4.528226954003671
 30
0.0
 10
12.54167185620766
 20
-4.361307298992652
 30
0.0
 10
12.70636644434668
 20
-3.996506848037394
 30
0.0
 10
12.74987701805389
 20
-3.794669554412905
 30
0.0
 10
12.75006109000722
 20
-3.490806318710508
 30
0.0
 10
12.7393104992277
 20
-3.387314094537936
 30
0.0
 10
12.69714620099906
 20
-3.186117396486707
 30
0.0
 10
12.66595101734182
 20
-3.087761111022082
 30
0.0
 10
12.54179370284722
 20
-2.799711533441551
 30
0.0
 10
12.42075254544735
 20
-2.623327713085835
 30
0.0
 10
12.19025712097305
 20
-2.397781040868137
 30
0.0
 10
12.10711918201894
 20
-2.330847797333869
 30
0.0
 10
11.92862050149633
 20
-2.213180055808429
 30
0.0
 10
11.83208682480394
 20
-2.162031547661536
 30
0.0
 10
11.63247885892195
 20
-2.080059091289742
 30
0.0
 10
11.52963804039722
 20
-2.049009526200372
 30
0.0
 10
11.31787187536422
 20
-2.006929379023206
 30
0.0
 10
11.20840272962779
 20
-1.996142717438067
 30
0.0
 10
11.10063994626162
 20
-1.996101168021625
 30
0.0
  0
SPLINE
  5
191
330
1F
100
AcDbEntity
  8
SK3
  6
SLD-Dashed
370
    18
100
AcDbSpline
210
0.0
220
0.0
230
1.0
 70
    24
 71
     2
 72
     6
 73
     3
 74
     0
 42
0.000000001
 43
0.00000001
 40
0.0
 40
0.0
 40
0.0
 40
0.1249999999999998
 40
0.1249999999999998
 40
0.1249999999999998
 10
3.750000000000045
 20
-35.3
 30
0.0
 10
3.736967821211426
 20
-35.3
 30
0.0
 10
3.716604969327047
 20
-35.3
 30
0.0
  0
SPLINE
  5
192
330
1F
100
AcDbEntity
  8
SK3
  6
SLD-Dashed
370
    18
100
AcDbSpline
210
0.0
220
0.0
230
1.0
 70
    24
 71
     3
 72
     8
 73
     4
 74
     0
 42
0.000000001
 43
0.00000001
 40
0.1249999999999998
 40
0.1249999999999998
 40
0.1249999999999998
 40
0.1249999999999998
 40
0.2499999999999997
 40
0.2499999999999997
 40
0.2499999999999997
 40
0.2499999999999997
 10
3.716604969327047
 20
-35.3
 30
0.0
 10
3.696242117442655
 20
-35.3
 30
0.0
 10
3.669519274943259
 20
-35.3
 30
0.0
 10
3.64013767643416
 20
-35.3
 30
0.0
  0
SPLINE
  5
193
330
1F
100
AcDbEntity
  8
SK3
  6
SLD-Dashed
370
    18
100
AcDbSpline
210
0.0
220
0.0
230
1.0
 70
    24
 71
     3
 72
     8
 73
     4
 74
     0
 42
0.000000001
 43
0.00000001
 40
0.2499999999999997
 40
0.2499999999999997
 40
0.2499999999999997
 40
0.2499999999999997
 40
0.4999999999999998
 40
0.4999999999999998
 40
0.4999999999999998
 40
0.4999999999999998
 10
3.64013767643416
 20
-35.3
 30
0.0
 10
3.58137447941595
 20
-35.3
 30
0.0
 10
3.512332936533733
 20
-35.3
 30
0.0
 10
3.44183425491501
 20
-35.30000000000001
 30
0.0
  0
SPLINE
  5
194
330
1F
100
AcDbEntity
  8
SK3
  6
SLD-Dashed
370
    18
100
AcDbSpline
210
0.0
220
0.0
230
1.0
 70
    24
 71
     3
 72
     8
 73
     4
 74
     0
 42
0.000000001
 43
0.00000001
 40
0.4999999999999998
 40
0.4999999999999998
 40
0.4999999999999998
 40
0.4999999999999998
 40
1.0
 40
1.0
 40
1.0
 40
1.0
 10
3.44183425491501
 20
-35.30000000000001
 30
0.0
 10
3.300836891677525
 20
-35.3
 30
0.0
 10
3.150896944932577
 20
-35.3
 30
0.0
 10
3.000000000000016
 20
-35.3
 30
0.0
  0
SPLINE
  5
195
330
1F
100
AcDbEntity
  8
SK3
  6
SLD-Dashed
370
    18
100
AcDbSpline
210
0.0
220
0.0
230
1.0
 70
    24
 71
     3
 72
     8
 73
     4
 74
     0
 42
0.000000001
 43
0.00000001
 40
0.0
 40
0.0
 40
0.0
 40
0.0
 40
0.4999999999999984
 40
0.4999999999999984
 40
0.4999999999999984
 40
0.4999999999999984
 10
3.000000000000016
 20
35.3
 30
0.0
 10
3.151041253001849
 20
35.3
 30
0.0
 10
3.301228701601405
 20
35.29999999999998
 30
0.0
 10
3.44240935850848
 20
35.3
 30
0.0
  0
SPLINE
  5
196
330
1F
100
AcDbEntity
  8
SK3
  6
SLD-Dashed
370
    18
100
AcDbSpline
210
0.0
220
0.0
230
1.0
 70
    24
 71
     3
 72
     8
 73
     4
 74
     0
 42
0.000000001
 43
0.00000001
 40
0.4999999999999984
 40
0.4999999999999984
 40
0.4999999999999984
 40
0.4999999999999984
 40
0.7499999999999992
 40
0.7499999999999992
 40
0.7499999999999992
 40
0.7499999999999992
 10
3.44240935850848
 20
35.3
 30
0.0
 10
3.512999686962004
 20
35.3
 30
0.0
 10
3.581751481358128
 20
35.3
 30
0.0
 10
3.640649966598505
 20
35.3
 30
0.0
  0
SPLINE
  5
197
330
1F
100
AcDbEntity
  8
SK3
  6
SLD-Dashed
370
    18
100
AcDbSpline
210
0.0
220
0.0
230
1.0
 70
    24
 71
     2
 72
     6
 73
     3
 74
     0
 42
0.000000001
 43
0.00000001
 40
0.7499999999999992
 40
0.7499999999999992
 40
0.7499999999999992
 40
1.0
 40
1.0
 40
1.0
 10
3.640649966598505
 20
35.3
 30
0.0
 10
3.699548451838855
 20
35.3
 30
0.0
 10
3.750000000000017
 20
35.3
 30
0.0
  0
SPLINE
  5
198
330
1F
100
AcDbEntity
  8
1
  6
SLD-Dashed
370
    18
100
AcDbSpline
210
0.0
220
0.0
230
1.0
 70
     8
 71
     3
 72
    10
 73
     6
 74
     0
 42
0.000000001
 43
0.00000001
 40
0.0
 40
0.0
 40
0.0
 40
0.0
 40
0.5
 40
0.5
 40
1.0
 40
1.0
 40
1.0
 40
1.0
 10
21.60000000000026
 20
40.49493795525559
 30
0.0
 10
22.41944729352582
 20
40.49493795525519
 30
0.0
 10
23.22275585238514
 20
40.51980029582747
 30
0.0
 10
24.7992268372037
 20
40.61349445459118
 30
0.0
 10
25.57238485928267
 20
40.68234981390827
 30
0.0
 10
26.33000000000041
 20
40.7702452776509
 30
0.0
  0
SPLINE
  5
199
330
1F
100
AcDbEntity
  8
1
  6
SLD-Dashed
370
    18
100
AcDbSpline
210
0.0
220
0.0
230
1.0
 70
     8
 71
     3
 72
    10
 73
     6
 74
     0
 42
0.000000001
 43
0.00000001
 40
0.0
 40
0.0
 40
0.0
 40
0.0
 40
0.5
 40
0.5
 40
1.0
 40
1.0
 40
1.0
 40
1.0
 10
26.33000000000148
 20
40.77024527765215
 30
0.0
 10
26.43105474608966
 20
40.78196924315091
 30
0.0
 10
26.52423861723057
 20
40.83494772625525
 30
0.0
 10
26.66160793191099
 20
40.99237978017035
 30
0.0
 10
26.70500000000031
 20
41.09766982332258
 30
0.0
 10
26.70500000000001
 20
41.20578418135005
 30
0.0
  0
SPLINE
  5
19A
330
1F
100
AcDbEntity
  8
1
  6
SLD-Dashed
370
    18
100
AcDbSpline
210
0.0
220
0.0
230
1.0
 70
     8
 71
     3
 72
    10
 73
     6
 74
     0
 42
0.000000001
 43
0.00000001
 40
0.0
 40
0.0
 40
0.0
 40
0.0
 40
0.5
 40
0.5
 40
1.0
 40
1.0
 40
1.0
 40
1.0
 10
26.70500000000001
 20
41.34329896850787
 30
0.0
 10
27.31223561287697
 20
42.51237097120874
 30
0.0
 10
27.91047592736369
 20
43.66801754598127
 30
0.0
 10
29.08730088353839
 20
45.94697720988972
 30
0.0
 10
29.66595731754282
 20
47.07044218529859
 30
0.0
 10
30.23243614862717
 20
48.17236247777645
 30
0.0
  0
SPLINE
  5
19B
330
1F
100
AcDbEntity
  8
SK3
  6
SLD-Dashed
370
    18
100
AcDbSpline
210
0.0
220
0.0
230
1.0
 70
     8
 71
     3
 72
     8
 73
     4
 74
     0
 42
0.000000001
 43
0.00000001
 40
0.0
 40
0.0
 40
0.0
 40
0.0
 40
0.0114576265912047
 40
0.0114576265912047
 40
0.0114576265912047
 40
0.0114576265912047
 10
30.23243614862717
 20
48.17236247777645
 30
0.0
 10
30.29311656274758
 20
48.18461931058343
 30
0.0
 10
30.35379697686797
 20
48.19687614339041
 30
0.0
 10
30.41383883883564
 20
48.2091426996878
 30
0.0
  0
SPLINE
  5
19C
330
1F
100
AcDbEntity
  8
SK3
  6
SLD-Dashed
370
    18
100
AcDbSpline
210
0.0
220
0.0
230
1.0
 70
     8
 71
     3
 72
     8
 73
     4
 74
     0
 42
0.000000001
 43
0.00000001
 40
0.0114576265912047
 40
0.0114576265912047
 40
0.0114576265912047
 40
0.0114576265912047
 40
0.0313181038200326
 40
0.0313181038200326
 40
0.0313181038200326
 40
0.0313181038200326
 10
30.41383883883564
 20
48.2091426996878
 30
0.0
 10
30.51791449734073
 20
48.2304053634761
 30
0.0
 10
30.62007154716681
 20
48.25169724269027
 30
0.0
 10
30.72063407518277
 20
48.27298000909884
 30
0.0
  0
SPLINE
  5
19D
330
1F
100
AcDbEntity
  8
SK3
  6
SLD-Dashed
370
    18
100
AcDbSpline
210
0.0
220
0.0
230
1.0
 70
     8
 71
     3
 72
     8
 73
     4
 74
     0
 42
0.000000001
 43
0.00000001
 40
0.0313181038200326
 40
0.0313181038200326
 40
0.0313181038200326
 40
0.0313181038200326
 40
0.0625127256570733
 40
0.0625127256570733
 40
0.0625127256570733
 40
0.0625127256570733
 10
30.72063407518277
 20
48.27298000909884
 30
0.0
 10
30.87858647462877
 20
48.30640860409743
 30
0.0
 10
31.03260508966901
 20
48.33981471723819
 30
0.0
 10
31.18228441472781
 20
48.37300875695001
 30
0.0
  0
SPLINE
  5
19E
330
1F
100
AcDbEntity
  8
SK3
  6
SLD-Dashed
370
    18
100
AcDbSpline
210
0.0
220
0.0
230
1.0
 70
     8
 71
     3
 72
     8
 73
     4
 74
     0
 42
0.000000001
 43
0.00000001
 40
0.0625127256570733
 40
0.0625127256570733
 40
0.0625127256570733
 40
0.0625127256570733
 40
0.0936688899330808
 40
0.0936688899330808
 40
0.0936688899330808
 40
0.0936688899330808
 10
31.18228441472781
 20
48.37300875695001
 30
0.0
 10
31.33177921112623
 20
48.40616187416519
 30
0.0
 10
31.47694541013269
 20
48.43910344052865
 30
0.0
 10
31.61764785752472
 20
48.47166323547357
 30
0.0
  0
SPLINE
  5
19F
330
1F
100
AcDbEntity
  8
SK3
  6
SLD-Dashed
370
    18
100
AcDbSpline
210
0.0
220
0.0
230
1.0
 70
     8
 71
     3
 72
     8
 73
     4
 74
     0
 42
0.000000001
 43
0.00000001
 40
0.0936688899330808
 40
0.0936688899330808
 40
0.0936688899330808
 40
0.0936688899330808
 40
0.1248686720376712
 40
0.1248686720376712
 40
0.1248686720376712
 40
0.1248686720376712
 10
31.61764785752472
 20
48.47166323547357
 30
0.0
 10
31.75854728472388
 20
48.50426861329392
 30
0.0
 10
31.89497045328515
 20
48.53649115000714
 30
0.0
 10
32.02675276504222
 20
48.56816714200941
 30
0.0
  0
SPLINE
  5
1A0
330
1F
100
AcDbEntity
  8
SK3
  6
SLD-Dashed
370
    18
100
AcDbSpline
210
0.0
220
0.0
230
1.0
 70
     8
 71
     3
 72
     8
 73
     4
 74
     0
 42
0.000000001
 43
0.00000001
 40
0.1248686720376712
 40
0.1248686720376712
 40
0.1248686720376712
 40
0.1248686720376712
 40
0.1876770117082315
 40
0.1876770117082315
 40
0.1876770117082315
 40
0.1876770117082315
 10
32.02675276504222
 20
48.56816714200941
 30
0.0
 10
32.29204398315596
 20
48.63193414071511
 30
0.0
 10
32.53852776181468
 20
48.69348622372867
 30
0.0
 10
32.76469157435674
 20
48.75147779844503
 30
0.0
  0
SPLINE
  5
1A1
330
1F
100
AcDbEntity
  8
SK3
  6
SLD-Dashed
370
    18
100
AcDbSpline
210
0.0
220
0.0
230
1.0
 70
     8
 71
     3
 72
     8
 73
     4
 74
     0
 42
0.000000001
 43
0.00000001
 40
0.1876770117082315
 40
0.1876770117082315
 40
0.1876770117082315
 40
0.1876770117082315
 40
0.2502254852175977
 40
0.2502254852175977
 40
0.2502254852175977
 40
0.2502254852175977
 10
32.76469157435674
 20
48.75147779844503
 30
0.0
 10
32.98991964616641
 20
48.8092294361087
 30
0.0
 10
33.1949955495685
 20
48.86344996735173
 30
0.0
 10
33.37872065019024
 20
48.91298649031022
 30
0.0
  0
SPLINE
  5
1A2
330
1F
100
AcDbEntity
  8
SK3
  6
SLD-Dashed
370
    18
100
AcDbSpline
210
0.0
220
0.0
230
1.0
 70
     8
 71
     3
 72
     8
 73
     4
 74
     0
 42
0.000000001
 43
0.00000001
 40
0.2502254852175977
 40
0.2502254852175977
 40
0.2502254852175977
 40
0.2502254852175977
 40
0.3125016583141662
 40
0.3125016583141662
 40
0.3125016583141662
 40
0.3125016583141662
 10
33.37872065019024
 20
48.91298649031022
 30
0.0
 10
33.56164591641259
 20
48.96230735947425
 30
0.0
 10
33.72340587366532
 20
49.00698491458691
 30
0.0
 10
33.86295163632496
 20
49.04604996813725
 30
0.0
  0
SPLINE
  5
1A3
330
1F
100
AcDbEntity
  8
SK3
  6
SLD-Dashed
370
    18
100
AcDbSpline
210
0.0
220
0.0
230
1.0
 70
     8
 71
     3
 72
     8
 73
     4
 74
     0
 42
0.000000001
 43
0.00000001
 40
0.3125016583141662
 40
0.3125016583141662
 40
0.3125016583141662
 40
0.3125016583141662
 40
0.3752092577079756
 40
0.3752092577079756
 40
0.3752092577079756
 40
0.3752092577079756
 10
33.86295163632496
 20
49.04604996813725
 30
0.0
 10
34.00346412042374
 20
49.08538564993216
 30
0.0
 10
34.12145356037399
 20
49.11903079813862
 30
0.0
 10
34.21609796971012
 20
49.14623346137671
 30
0.0
  0
SPLINE
  5
1A4
330
1F
100
AcDbEntity
  8
SK3
  6
SLD-Dashed
370
    18
100
AcDbSpline
210
0.0
220
0.0
230
1.0
 70
     8
 71
     3
 72
     8
 73
     4
 74
     0
 42
0.000000001
 43
0.00000001
 40
0.3752092577079756
 40
0.3752092577079756
 40
0.3752092577079756
 40
0.3752092577079756
 40
0.4377772188894804
 40
0.4377772188894804
 40
0.4377772188894804
 40
0.4377772188894804
 10
34.21609796971012
 20
49.14623346137671
 30
0.0
 10
34.31053162347197
 20
49.1733755493209
 30
0.0
 10
34.38172410097937
 20
49.19410381279248
 30
0.0
 10
34.42915671356986
 20
49.20794979216253
 30
0.0
  0
SPLINE
  5
1A5
330
1F
100
AcDbEntity
  8
SK3
  6
SLD-Dashed
370
    18
100
AcDbSpline
210
0.0
220
0.0
230
1.0
 70
     8
 71
     3
 72
     8
 73
     4
 74
     0
 42
0.000000001
 43
0.00000001
 40
0.4377772188894804
 40
0.4377772188894804
 40
0.4377772188894804
 40
0.4377772188894804
 40
0.4999846765355631
 40
0.4999846765355631
 40
0.4999846765355631
 40
0.4999846765355631
 10
34.42915671356986
 20
49.20794979216253
 30
0.0
 10
34.47631602934501
 20
49.22171599388887
 30
0.0
 10
34.49998849018429
 20
49.22867899160351
 30
0.0
 10
34.4999999958066
 20
49.2286823655933
 30
0.0
  0
SPLINE
  5
1A6
330
1F
100
AcDbEntity
  8
SK3
  6
SLD-Dashed
370
    18
100
AcDbSpline
210
0.0
220
0.0
230
1.0
 70
     8
 71
     3
 72
     8
 73
     4
 74
     0
 42
0.000000001
 43
0.00000001
 40
0.5625938520324092
 40
0.5625938520324092
 40
0.5625938520324092
 40
0.5625938520324092
 40
0.6252041603644046
 40
0.6252041603644046
 40
0.6252041603644046
 40
0.6252041603644046
 10
34.42830854679055
 20
49.20770220018746
 30
0.0
 10
34.38056134587672
 20
49.19376529586376
 30
0.0
 10
34.30902363917773
 20
49.1729383992064
 30
0.0
 10
34.21421937232299
 20
49.14569365252032
 30
0.0
  0
SPLINE
  5
1A7
330
1F
100
AcDbEntity
  8
SK3
  6
SLD-Dashed
370
    18
100
AcDbSpline
210
0.0
220
0.0
230
1.0
 70
     8
 71
     3
 72
     8
 73
     4
 74
     0
 42
0.000000001
 43
0.00000001
 40
0.6252041603644046
 40
0.6252041603644046
 40
0.6252041603644046
 40
0.6252041603644046
 40
0.6872935440917526
 40
0.6872935440917526
 40
0.6872935440917526
 40
0.6872935440917526
 10
34.21421937232299
 20
49.14569365252032
 30
0.0
 10
34.12020388732454
 20
49.11867558510277
 30
0.0
 10
34.00330739220497
 20
49.08534601781245
 30
0.0
 10
33.86432627590719
 20
49.04643485916499
 30
0.0
  0
SPLINE
  5
1A8
330
1F
100
AcDbEntity
  8
SK3
  6
SLD-Dashed
370
    18
100
AcDbSpline
210
0.0
220
0.0
230
1.0
 70
     8
 71
     3
 72
     8
 73
     4
 74
     0
 42
0.000000001
 43
0.00000001
 40
0.6872935440917526
 40
0.6872935440917526
 40
0.6872935440917526
 40
0.6872935440917526
 40
0.7495853764249514
 40
0.7495853764249514
 40
0.7495853764249514
 40
0.7495853764249514
 10
33.86432627590719
 20
49.04643485916499
 30
0.0
 10
33.72489199786838
 20
49.00739682681793
 30
0.0
 10
33.56322884565435
 20
48.96274074510642
 30
0.0
 10
33.38038490342527
 20
48.91343524597013
 30
0.0
  0
SPLINE
  5
1A9
330
1F
100
AcDbEntity
  8
SK3
  6
SLD-Dashed
370
    18
100
AcDbSpline
210
0.0
220
0.0
230
1.0
 70
     8
 71
     3
 72
     8
 73
     4
 74
     0
 42
0.000000001
 43
0.00000001
 40
0.7495853764249514
 40
0.7495853764249514
 40
0.7495853764249514
 40
0.7495853764249514
 40
0.8124273759707649
 40
0.8124273759707649
 40
0.8124273759707649
 40
0.8124273759707649
 10
33.38038490342527
 20
48.91343524597013
 30
0.0
 10
33.19592606662222
 20
48.86369427611464
 30
0.0
 10
32.98991064619372
 20
48.80922139798495
 30
0.0
 10
32.763558551681
 20
48.75118715319226
 30
0.0
  0
SPLINE
  5
1AA
330
1F
100
AcDbEntity
  8
SK3
  6
SLD-Dashed
370
    18
100
AcDbSpline
210
0.0
220
0.0
230
1.0
 70
     8
 71
     3
 72
     8
 73
     4
 74
     0
 42
0.000000001
 43
0.00000001
 40
0.8124273759707649
 40
0.8124273759707649
 40
0.8124273759707649
 40
0.8124273759707649
 40
0.874782271014211
 40
0.874782271014211
 40
0.874782271014211
 40
0.874782271014211
 10
32.763558551681
 20
48.75118715319226
 30
0.0
 10
32.53896097047399
 20
48.69360274675827
 30
0.0
 10
32.29434076289836
 20
48.63251196982537
 30
0.0
 10
32.03117406650927
 20
48.56923008402855
 30
0.0
  0
SPLINE
  5
1AB
330
1F
100
AcDbEntity
  8
SK3
  6
SLD-Dashed
370
    18
100
AcDbSpline
210
0.0
220
0.0
230
1.0
 70
     8
 71
     3
 72
     8
 73
     4
 74
     0
 42
0.000000001
 43
0.00000001
 40
0.874782271014211
 40
0.874782271014211
 40
0.874782271014211
 40
0.874782271014211
 40
0.9059170529111344
 40
0.9059170529111344
 40
0.9059170529111344
 40
0.9059170529111344
 10
32.03117406650927
 20
48.56923008402855
 30
0.0
 10
31.89977078712122
 20
48.53763244103777
 30
0.0
 10
31.76374356706982
 20
48.50548851904639
 30
0.0
 10
31.62325637044031
 20
48.47296122366377
 30
0.0
  0
SPLINE
  5
1AC
330
1F
100
AcDbEntity
  8
SK3
  6
SLD-Dashed
370
    18
100
AcDbSpline
210
0.0
220
0.0
230
1.0
 70
     8
 71
     3
 72
     8
 73
     4
 74
     0
 42
0.000000001
 43
0.00000001
 40
0.9059170529111344
 40
0.9059170529111344
 40
0.9059170529111344
 40
0.9059170529111344
 40
0.937126478821459
 40
0.937126478821459
 40
0.937126478821459
 40
0.937126478821459
 10
31.62325637044031
 20
48.47296122366377
 30
0.0
 10
31.48243236309461
 20
48.44035594578942
 30
0.0
 10
31.33712696841415
 20
48.40736545408496
 30
0.0
 10
31.18747591690801
 20
48.37416050656294
 30
0.0
  0
SPLINE
  5
1AD
330
1F
100
AcDbEntity
  8
SK3
  6
SLD-Dashed
370
    18
100
AcDbSpline
210
0.0
220
0.0
230
1.0
 70
     8
 71
     3
 72
     8
 73
     4
 74
     0
 42
0.000000001
 43
0.00000001
 40
0.937126478821459
 40
0.937126478821459
 40
0.937126478821459
 40
0.937126478821459
 40
0.9684944127008734
 40
0.9684944127008734
 40
0.9684944127008734
 40
0.9684944127008734
 10
31.18747591690801
 20
48.37416050656294
 30
0.0
 10
31.03706481027255
 20
48.34078691611844
 30
0.0
 10
30.88226379284467
 20
48.30719668594702
 30
0.0
 10
30.72348340635167
 20
48.27358294907937
 30
0.0
  0
SPLINE
  5
1AE
330
1F
100
AcDbEntity
  8
SK3
  6
SLD-Dashed
370
    18
100
AcDbSpline
210
0.0
220
0.0
230
1.0
 70
     8
 71
     3
 72
     8
 73
     4
 74
     0
 42
0.000000001
 43
0.00000001
 40
0.9684944127008734
 40
0.9684944127008734
 40
0.9684944127008734
 40
0.9684944127008734
 40
0.9885412919776712
 40
0.9885412919776712
 40
0.9885412919776712
 40
0.9885412919776712
 10
30.72348340635167
 20
48.27358294907937
 30
0.0
 10
30.62200872039417
 20
48.25210080340734
 30
0.0
 10
30.51890872543042
 20
48.23060905680502
 30
0.0
 10
30.4138557548172
 20
48.2091466821508
 30
0.0
  0
SPLINE
  5
1AF
330
1F
100
AcDbEntity
  8
1
  6
SLD-Dashed
370
    18
100
AcDbSpline
210
0.0
220
0.0
230
1.0
 70
     8
 71
     3
 72
    10
 73
     6
 74
     0
 42
0.000000001
 43
0.00000001
 40
0.0
 40
0.0
 40
0.0
 40
0.0
 40
0.5
 40
0.5
 40
1.0
 40
1.0
 40
1.0
 40
1.0
 10
26.33000000000148
 20
-40.77024527765215
 30
0.0
 10
26.43105474608966
 20
-40.78196924315094
 30
0.0
 10
26.52423861723057
 20
-40.83494772625527
 30
0.0
 10
26.66160793191102
 20
-40.9923797801704
 30
0.0
 10
26.70500000000034
 20
-41.0976698233226
 30
0.0
 10
26.70500000000001
 20
-41.20578418135007
 30
0.0
  0
SPLINE
  5
1B0
330
1F
100
AcDbEntity
  8
1
  6
SLD-Dashed
370
    18
100
AcDbSpline
210
0.0
220
0.0
230
1.0
 70
     8
 71
     3
 72
    10
 73
     6
 74
     0
 42
0.000000001
 43
0.00000001
 40
0.0
 40
0.0
 40
0.0
 40
0.0
 40
0.5
 40
0.5
 40
1.0
 40
1.0
 40
1.0
 40
1.0
 10
21.60000000000031
 20
-40.4949379552556
 30
0.0
 10
22.41944729352588
 20
-40.49493795525521
 30
0.0
 10
23.22275585238517
 20
-40.51980029582747
 30
0.0
 10
24.79922683720373
 20
-40.6134944545912
 30
0.0
 10
25.5723848592827
 20
-40.6823498139083
 30
0.0
 10
26.33000000000041
 20
-40.77024527765091
 30
0.0
  0
SPLINE
  5
1B1
330
1F
100
AcDbEntity
  8
SK3
  6
SLD-Dashed
370
    18
100
AcDbSpline
210
0.0
220
0.0
230
1.0
 70
     8
 71
     3
 72
    18
 73
    14
 74
     0
 42
0.000000001
 43
0.00000001
 40
0.0
 40
0.0
 40
0.0
 40
0.0
 40
0.0114598305049693
 40
0.0315065486482327
 40
0.0628754310595108
 40
0.0940858011312856
 40
0.1252215301892822
 40
0.1875783571328968
 40
0.2504222706961658
 40
0.3127159286929022
 40
0.3748072341448484
 40
0.4374196159192042
 40
0.500015314650266
 40
0.500015314650266
 40
0.500015314650266
 40
0.500015314650266
 10
30.23243616778132
 20
-48.17236251682414
 30
0.0
 10
30.29312797801042
 20
-48.18462191778112
 30
0.0
 10
30.45998816592532
 20
-48.2183267280296
 30
0.0
 10
30.78335246623104
 20
-48.28573388943956
 30
0.0
 10
31.19111131913971
 20
-48.37421355750804
 30
0.0
 10
31.627429163883
 20
-48.47327655680018
 30
0.0
 10
32.17224977947409
 20
-48.60202096014876
 30
0.0
 10
32.78555530164054
 20
-48.75518697911301
 30
0.0
 10
33.40020640421934
 20
-48.91770880352142
 30
0.0
 10
33.8860950721871
 20
-49.05192616256866
 30
0.0
 10
34.23813463178046
 20
-49.15230025030355
 30
0.0
 10
34.45211254762167
 20
-49.21459626298426
 30
0.0
 10
34.50001136227737
 20
-49.22868565854761
 30
0.0
 10
34.49999999580394
 20
-49.22868240522442
 30
0.0
  0
SPLINE
  5
1B2
330
1F
100
AcDbEntity
  8
1
  6
SLD-Dashed
370
    18
100
AcDbSpline
210
0.0
220
0.0
230
1.0
 70
     8
 71
     3
 72
    10
 73
     6
 74
     0
 42
0.000000001
 43
0.00000001
 40
0.0
 40
0.0
 40
0.0
 40
0.0
 40
0.5
 40
0.5
 40
1.0
 40
1.0
 40
1.0
 40
1.0
 10
26.70500000000003
 20
-41.34329896850787
 30
0.0
 10
27.31223561630306
 20
-42.51237097810913
 30
0.0
 10
27.91047593411375
 20
-43.66801755962681
 30
0.0
 10
29.08730089669695
 20
-45.94697723660809
 30
0.0
 10
29.66595733378857
 20
-47.07044221835022
 30
0.0
 10
30.23243616778134
 20
-48.17236251682414
 30
0.0
  0
SPLINE
  5
1B3
330
1F
100
AcDbEntity
  8
SK3
  6
SLD-Dashed
370
    18
100
AcDbSpline
210
0.0
220
0.0
230
1.0
 70
     8
 71
     3
 72
    28
 73
    24
 74
     0
 42
0.000000001
 43
0.00000001
 40
0.499999999999998
 40
0.499999999999998
 40
0.499999999999998
 40
0.499999999999998
 40
0.562499999999998
 40
0.562499999999998
 40
0.6249999999999981
 40
0.6249999999999981
 40
0.6562499999999983
 40
0.6562499999999983
 40
0.6874999999999984
 40
0.6874999999999984
 40
0.7499999999999989
 40
0.7499999999999989
 40
0.7812499999999991
 40
0.7812499999999991
 40
0.8124999999999992
 40
0.8124999999999992
 40
0.8437499999999994
 40
0.8437499999999994
 40
0.8749999999999997
 40
0.8749999999999997
 40
0.9374999999999998
 40
0.9374999999999998
 40
1.0
 40
1.0
 40
1.0
 40
1.0
 10
11.09936005373842
 20
5.097086583382704
 30
0.0
 10
11.31488562047078
 20
5.097160583832729
 30
0.0
 10
11.53232167442222
 20
5.058927670124211
 30
0.0
 10
11.9296056606291
 20
4.912677242283774
 30
0.0
 10
12.113389161865
 20
4.803297967249348
 30
0.0
 10
12.34174817482667
 20
4.597838458596348
 30
0.0
 10
12.41142359557636
 20
4.521151198634985
 30
0.0
 10
12.53113473401264
 20
4.3584195136952
 30
0.0
 10
12.58191930730981
 20
4.271935060808592
 30
0.0
 10
12.70662372652387
 20
3.996380017332005
 30
0.0
 10
12.74981888810719
 20
3.797425146083687
 30
0.0
 10
12.75008970785609
 20
3.490029987613497
 30
0.0
 10
12.7394746351789
 20
3.388630582932657
 30
0.0
 10
12.69763839499745
 20
3.187941017992239
 30
0.0
 10
12.66587299470583
 20
3.087576006019443
 30
0.0
 10
12.58323811087248
 20
2.895868188771661
 30
0.0
 10
12.53264216253895
 20
2.804381628702959
 30
0.0
 10
12.41295046640882
 20
2.630333473030509
 30
0.0
 10
12.34349706837066
 20
2.547796395584598
 30
0.0
 10
12.11584013457036
 20
2.324831507384169
 30
0.0
 10
11.9321018785099
 20
2.203317580297841
 30
0.0
 10
11.53529580374731
 20
2.039937583109504
 30
0.0
 10
11.31837670434037
 20
1.996101044651616
 30
0.0
 10
11.10000000000001
 20
1.996101044651623
 30
0.0
  0
SPLINE
  5
1B4
330
1F
100
AcDbEntity
  8
SK3
  6
SLD-Dashed
370
    18
100
AcDbSpline
210
0.0
220
0.0
230
1.0
 70
     8
 71
     3
 72
    32
 73
    28
 74
     0
 42
0.000000001
 43
0.00000001
 40
0.0
 40
0.0
 40
0.0
 40
0.0
 40
0.0312499999999998
 40
0.0312499999999998
 40
0.0624999999999995
 40
0.0624999999999995
 40
0.0937499999999993
 40
0.0937499999999993
 40
0.124999999999999
 40
0.124999999999999
 40
0.1874999999999987
 40
0.1874999999999987
 40
0.2499999999999983
 40
0.2499999999999983
 40
0.2812499999999982
 40
0.2812499999999982
 40
0.3124999999999981
 40
0.3124999999999981
 40
0.3749999999999979
 40
0.3749999999999979
 40
0.4062499999999979
 40
0.4062499999999979
 40
0.437499999999998
 40
0.437499999999998
 40
0.468749999999998
 40
0.468749999999998
 40
0.499999999999998
 40
0.499999999999998
 40
0.499999999999998
 40
0.499999999999998
 10
11.10000000000001
 20
1.996101044651623
 30
0.0
 10
10.99081164782983
 20
1.996101044651623
 30
0.0
 10
10.88348229007882
 20
2.006774489306189
 30
0.0
 10
10.67237880135692
 20
2.048496370893507
 30
0.0
 10
10.56749811499483
 20
2.080062202259189
 30
0.0
 10
10.36776793872453
 20
2.162097541961998
 30
0.0
 10
10.27306530291033
 20
2.21219089734534
 30
0.0
 10
10.09383723733682
 20
2.330096968954774
 30
0.0
 10
10.0091103277567
 20
2.39842909289742
 30
0.0
 10
9.781209980126784
 20
2.62134929301628
 30
0.0
 10
9.658328143792334
 20
2.799888215129318
 30
0.0
 10
9.493633555653316
 20
3.181070070677333
 30
0.0
 10
9.45012298194614
 20
3.387740235847321
 30
0.0
 10
9.449938909992781
 20
3.6916232578173
 30
0.0
 10
9.46068950077232
 20
3.793949374151777
 30
0.0
 10
9.502853799000968
 20
3.990698923252392
 30
0.0
 10
9.534048982658208
 20
4.085797326516608
 30
0.0
 10
9.658206297152777
 20
4.361493222071057
 30
0.0
 10
9.779247454552678
 20
4.526400962507338
 30
0.0
 10
10.00974287902698
 20
4.734313476061486
 30
0.0
 10
10.09288081798106
 20
4.795456382091751
 30
0.0
 10
10.27137949850369
 20
4.902358398560354
 30
0.0
 10
10.36791317519606
 20
4.948485047428362
 30
0.0
 10
10.56752114107805
 20
5.022147421466505
 30
0.0
 10
10.67036195960278
 20
5.049894805337109
 30
0.0
 10
10.88212812463578
 20
5.087454485186369
 30
0.0
 10
10.99159727037223
 20
5.097049583157681
 30
0.0
 10
11.09936005373842
 20
5.097086583382704
 30
0.0
  0
SPLINE
  5
1B5
330
1F
100
AcDbEntity
  8
SK3
  6
SLD-Dashed
370
    18
100
AcDbSpline
210
0.0
220
0.0
230
1.0
 70
     8
 71
     3
 72
    16
 73
    12
 74
     0
 42
0.000000001
 43
0.00000001
 40
0.0
 40
0.0
 40
0.0
 40
0.0
 40
0.2499999999999972
 40
0.2499999999999972
 40
0.3749999999999979
 40
0.3749999999999979
 40
0.4999999999999986
 40
0.4999999999999986
 40
0.7499999999999993
 40
0.7499999999999993
 40
1.0
 40
1.0
 40
1.0
 40
1.0
 10
79.00000000000001
 20
-8.49065813498761
 30
0.0
 10
78.86348362778841
 20
-8.336662377033711
 30
0.0
 10
78.72985245226124
 20
-8.174361615486376
 30
0.0
 10
78.55642953356046
 20
-7.910521545570099
 30
0.0
 10
78.50325839743036
 20
-7.81883657824492
 30
0.0
 10
78.42393726155647
 20
-7.627177321003279
 30
0.0
 10
78.39857451281493
 20
-7.524590891837081
 30
0.0
 10
78.40030016910568
 20
-7.213488686970567
 30
0.0
 10
78.50123297996656
 20
-7.004241134153926
 30
0.0
 10
78.73130276541573
 20
-6.593575028797864
 30
0.0
 10
78.86415939263222
 20
-6.387894089943398
 30
0.0
 10
79.00000000000001
 20
-6.177274838856321
 30
0.0
  0
SPLINE
  5
1B6
330
1F
100
AcDbEntity
  8
SK3
  6
SLD-Dashed
370
    18
100
AcDbSpline
210
0.0
220
0.0
230
1.0
 70
     8
 71
     3
 72
    16
 73
    12
 74
     0
 42
0.000000001
 43
0.00000001
 40
0.0
 40
0.0
 40
0.0
 40
0.0
 40
0.2499999999999974
 40
0.2499999999999974
 40
0.3749999999999981
 40
0.3749999999999981
 40
0.4999999999999987
 40
0.4999999999999987
 40
0.7499999999999993
 40
0.7499999999999993
 40
1.0
 40
1.0
 40
1.0
 40
1.0
 10
79.00000000000001
 20
-6.177274838856439
 30
0.0
 10
78.86348362778841
 20
-6.388941855321406
 30
0.0
 10
78.72985245226124
 20
-6.595720110209487
 30
0.0
 10
78.55642953356043
 20
-6.905945031298113
 30
0.0
 10
78.50325839743036
 20
-7.009693404658179
 30
0.0
 10
78.42393726155647
 20
-7.217767880625018
 30
0.0
 10
78.39857451281493
 20
-7.324753784683759
 30
0.0
 10
78.40030016910568
 20
-7.635543552752082
 30
0.0
 10
78.50123297996653
 20
-7.827081703763311
 30
0.0
 10
78.73130276541576
 20
-8.176024107252468
 30
0.0
 10
78.86415939263222
 20
-8.337424665963933
 30
0.0
 10
79.00000000000001
 20
-8.490658134987692
 30
0.0
  0
SPLINE
  5
1B7
330
1F
100
AcDbEntity
  8
SK3
  6
SLD-Dashed
370
    18
100
AcDbSpline
210
0.0
220
0.0
230
1.0
 70
     8
 71
     3
 72
    16
 73
    12
 74
     0
 42
0.000000001
 43
0.00000001
 40
0.0
 40
0.0
 40
0.0
 40
0.0
 40
0.2499999999999972
 40
0.2499999999999972
 40
0.3749999999999979
 40
0.3749999999999979
 40
0.4999999999999986
 40
0.4999999999999986
 40
0.7499999999999993
 40
0.7499999999999993
 40
1.0
 40
1.0
 40
1.0
 40
1.0
 10
79.00000000000001
 20
8.490658134987596
 30
0.0
 10
78.86348362778841
 20
8.336662377033697
 30
0.0
 10
78.72985245226124
 20
8.174361615486376
 30
0.0
 10
78.55642953356046
 20
7.910521545570093
 30
0.0
 10
78.50325839743036
 20
7.818836578244913
 30
0.0
 10
78.42393726155647
 20
7.627177321003265
 30
0.0
 10
78.39857451281493
 20
7.524590891837067
 30
0.0
 10
78.40030016910568
 20
7.213488686970554
 30
0.0
 10
78.50123297996656
 20
7.004241134153911
 30
0.0
 10
78.73130276541573
 20
6.593575028797851
 30
0.0
 10
78.86415939263222
 20
6.387894089943384
 30
0.0
 10
79.00000000000001
 20
6.177274838856314
 30
0.0
  0
SPLINE
  5
1B8
330
1F
100
AcDbEntity
  8
SK3
  6
SLD-Dashed
370
    18
100
AcDbSpline
210
0.0
220
0.0
230
1.0
 70
     8
 71
     3
 72
    16
 73
    12
 74
     0
 42
0.000000001
 43
0.00000001
 40
0.0
 40
0.0
 40
0.0
 40
0.0
 40
0.2499999999999956
 40
0.2499999999999956
 40
0.3749999999999959
 40
0.3749999999999959
 40
0.4999999999999963
 40
0.4999999999999963
 40
0.7499999999999981
 40
0.7499999999999981
 40
1.0
 40
1.0
 40
1.0
 40
1.0
 10
79.00000000000001
 20
6.177274838856481
 30
0.0
 10
78.86348362778841
 20
6.388941855321455
 30
0.0
 10
78.72985245226124
 20
6.595720110209536
 30
0.0
 10
78.55642953356046
 20
6.905945031298155
 30
0.0
 10
78.50325839743036
 20
7.009693404658221
 30
0.0
 10
78.4239372615565
 20
7.217767880625066
 30
0.0
 10
78.39857451281493
 20
7.3247537846838
 30
0.0
 10
78.40030016910568
 20
7.635543552752123
 30
0.0
 10
78.50123297996656
 20
7.827081703763353
 30
0.0
 10
78.7313027654157
 20
8.176024107252502
 30
0.0
 10
78.86415939263222
 20
8.33742466596396
 30
0.0
 10
79.00000000000001
 20
8.49065813498772
 30
0.0
  0
SPLINE
  5
1B9
330
1F
100
AcDbEntity
  8
SK3
  6
SLD-Dashed
370
    18
100
AcDbSpline
210
0.0
220
0.0
230
1.0
 70
     8
 71
     3
 72
    34
 73
    30
 74
     0
 42
0.000000001
 43
0.00000001
 40
0.0
 40
0.0
 40
0.0
 40
0.0
 40
0.1250000000000024
 40
0.1250000000000024
 40
0.1875000000000023
 40
0.1875000000000023
 40
0.2500000000000022
 40
0.2500000000000022
 40
0.3125000000000021
 40
0.3125000000000021
 40
0.375000000000002
 40
0.375000000000002
 40
0.4375000000000019
 40
0.4375000000000019
 40
0.5000000000000018
 40
0.5000000000000018
 40
0.5625000000000017
 40
0.5625000000000017
 40
0.6250000000000016
 40
0.6250000000000016
 40
0.750000000000001
 40
0.750000000000001
 40
0.8125000000000008
 40
0.8125000000000008
 40
0.8750000000000006
 40
0.8750000000000006
 40
0.9375000000000003
 40
0.9375000000000003
 40
1.0
 40
1.0
 40
1.0
 40
1.0
 10
83.19999999999997
 20
6.177274838856279
 30
0.0
 10
83.34553073809839
 20
5.922729104602696
 30
0.0
 10
83.4995445001449
 20
5.710529113552639
 30
0.0
 10
83.74127497440301
 20
5.45488181858151
 30
0.0
 10
83.82123074666123
 20
5.382963633920233
 30
0.0
 10
83.97987000040943
 20
5.265095820143458
 30
0.0
 10
84.05939984935365
 20
5.218945208299859
 30
0.0
 10
84.21012685630372
 20
5.158225601302919
 30
0.0
 10
84.28184697406041
 20
5.1429467901472
 30
0.0
 10
84.41611306521688
 20
5.145817833802004
 30
0.0
 10
84.47826044675058
 20
5.164542505915269
 30
0.0
 10
84.58272182361762
 20
5.239065109466826
 30
0.0
 10
84.62631062338325
 20
5.296283927297779
 30
0.0
 10
84.68530932258942
 20
5.446272134447469
 30
0.0
 10
84.70161320407968
 20
5.541105416770345
 30
0.0
 10
84.7026629786591
 20
5.761287706947726
 30
0.0
 10
84.68763083025638
 20
5.885878749290758
 30
0.0
 10
84.62963278190036
 20
6.153159466465372
 30
0.0
 10
84.58732604932376
 20
6.293618618863101
 30
0.0
 10
84.43077615021474
 20
6.722708274247216
 30
0.0
 10
84.29058535402848
 20
7.011051419094618
 30
0.0
 10
84.06328381292668
 20
7.411457112021451
 30
0.0
 10
83.98393515968014
 20
7.540573206075464
 30
0.0
 10
83.82501291879016
 20
7.781172758022523
 30
0.0
 10
83.74408410332066
 20
7.89479277439395
 30
0.0
 10
83.58293682875345
 20
8.103413647226498
 30
0.0
 10
83.50402469274373
 20
8.19684441687029
 30
0.0
 10
83.34924732973606
 20
8.361670757069422
 30
0.0
 10
83.27285709472979
 20
8.43342082573125
 30
0.0
 10
83.19999999999997
 20
8.490658134987582
 30
0.0
  0
SPLINE
  5
1BA
330
1F
100
AcDbEntity
  8
SK3
  6
SLD-Dashed
370
    18
100
AcDbSpline
210
0.0
220
0.0
230
1.0
 70
     8
 71
     3
 72
    34
 73
    30
 74
     0
 42
0.000000001
 43
0.00000001
 40
0.0
 40
0.0
 40
0.0
 40
0.0
 40
0.1250000000000019
 40
0.1250000000000019
 40
0.1875000000000016
 40
0.1875000000000016
 40
0.2500000000000014
 40
0.2500000000000014
 40
0.3125000000000012
 40
0.3125000000000012
 40
0.3750000000000009
 40
0.3750000000000009
 40
0.4375000000000007
 40
0.4375000000000007
 40
0.5000000000000004
 40
0.5000000000000004
 40
0.5625000000000002
 40
0.5625000000000002
 40
0.625
 40
0.625
 40
0.7499999999999998
 40
0.7499999999999998
 40
0.8124999999999998
 40
0.8124999999999998
 40
0.8749999999999999
 40
0.8749999999999999
 40
0.9374999999999999
 40
0.9374999999999999
 40
1.0
 40
1.0
 40
1.0
 40
1.0
 10
83.19999999999997
 20
-8.490658134987687
 30
0.0
 10
83.34553073809845
 20
-8.376327637817377
 30
0.0
 10
83.49954450014494
 20
-8.210956783050714
 30
0.0
 10
83.74127497440307
 20
-7.89863224991804
 30
0.0
 10
83.82123074666123
 20
-7.786598651440463
 30
0.0
 10
83.9798700004094
 20
-7.547013249411795
 30
0.0
 10
84.05939984935368
 20
-7.417891443795691
 30
0.0
 10
84.21012685630372
 20
-7.153168967552928
 30
0.0
 10
84.28184697406041
 20
-7.01703374076619
 30
0.0
 10
84.41611306521688
 20
-6.735817519605051
 30
0.0
 10
84.47826044675058
 20
-6.591065329341339
 30
0.0
 10
84.58272182361762
 20
-6.3076029545008
 30
0.0
 10
84.62631062338325
 20
-6.164868967963325
 30
0.0
 10
84.68530932258939
 20
-5.899844197294398
 30
0.0
 10
84.70161320407965
 20
-5.773642732539837
 30
0.0
 10
84.70266297865908
 20
-5.551433114934688
 30
0.0
 10
84.68763083025641
 20
-5.455745546834353
 30
0.0
 10
84.62963278190036
 20
-5.301484557096857
 30
0.0
 10
84.58732604932376
 20
-5.243942111135623
 30
0.0
 10
84.43077615021474
 20
-5.127685194140898
 30
0.0
 10
84.29058535402848
 20
-5.126885979925687
 30
0.0
 10
84.06328381292663
 20
-5.216866660902673
 30
0.0
 10
83.98393515968014
 20
-5.262504412584051
 30
0.0
 10
83.82501291879016
 20
-5.379745197631084
 30
0.0
 10
83.74408410332063
 20
-5.452213568866826
 30
0.0
 10
83.58293682875336
 20
-5.622043527947408
 30
0.0
 10
83.50402469274376
 20
-5.717842594777811
 30
0.0
 10
83.34924732973606
 20
-5.931237008434259
 30
0.0
 10
83.27285709472982
 20
-6.049841535652564
 30
0.0
 10
83.19999999999997
 20
-6.177274838856404
 30
0.0
  0
SPLINE
  5
1BB
330
1F
100
AcDbEntity
  8
SK3
  6
SLD-Dashed
370
    18
100
AcDbSpline
210
0.0
220
0.0
230
1.0
 70
     8
 71
     3
 72
    34
 73
    30
 74
     0
 42
0.000000001
 43
0.00000001
 40
0.0
 40
0.0
 40
0.0
 40
0.0
 40
0.124999999999996
 40
0.124999999999996
 40
0.1874999999999952
 40
0.1874999999999952
 40
0.2499999999999944
 40
0.2499999999999944
 40
0.3124999999999939
 40
0.3124999999999939
 40
0.3749999999999934
 40
0.3749999999999934
 40
0.4374999999999929
 40
0.4374999999999929
 40
0.4999999999999923
 40
0.4999999999999923
 40
0.5624999999999918
 40
0.5624999999999918
 40
0.6249999999999912
 40
0.6249999999999912
 40
0.7499999999999923
 40
0.7499999999999923
 40
0.8124999999999942
 40
0.8124999999999942
 40
0.8749999999999961
 40
0.8749999999999961
 40
0.937499999999998
 40
0.937499999999998
 40
1.0
 40
1.0
 40
1.0
 40
1.0
 10
83.19999999999997
 20
-6.177274838856301
 30
0.0
 10
83.34553073809833
 20
-5.922729104602759
 30
0.0
 10
83.49954450014494
 20
-5.710529113552631
 30
0.0
 10
83.74127497440307
 20
-5.454881818581544
 30
0.0
 10
83.82123074666117
 20
-5.382963633920254
 30
0.0
 10
83.97987000040943
 20
-5.265095820143478
 30
0.0
 10
84.05939984935368
 20
-5.218945208299873
 30
0.0
 10
84.21012685630366
 20
-5.158225601302941
 30
0.0
 10
84.28184697406041
 20
-5.142946790147221
 30
0.0
 10
84.41611306521688
 20
-5.145817833802018
 30
0.0
 10
84.47826044675058
 20
-5.164542505915283
 30
0.0
 10
84.58272182361762
 20
-5.239065109466832
 30
0.0
 10
84.62631062338325
 20
-5.296283927297779
 30
0.0
 10
84.68530932258942
 20
-5.446272134447455
 30
0.0
 10
84.70161320407968
 20
-5.541105416770352
 30
0.0
 10
84.70266297865905
 20
-5.761287706947712
 30
0.0
 10
84.68763083025638
 20
-5.885878749290765
 30
0.0
 10
84.62963278190036
 20
-6.153159466465357
 30
0.0
 10
84.58732604932374
 20
-6.293618618863108
 30
0.0
 10
84.43077615021474
 20
-6.722708274247181
 30
0.0
 10
84.29058535402851
 20
-7.011051419094597
 30
0.0
 10
84.06328381292663
 20
-7.411457112021444
 30
0.0
 10
83.98393515968014
 20
-7.54057320607545
 30
0.0
 10
83.82501291879014
 20
-7.781172758022501
 30
0.0
 10
83.74408410332063
 20
-7.894792774393963
 30
0.0
 10
83.58293682875347
 20
-8.10341364722649
 30
0.0
 10
83.50402469274373
 20
-8.196844416870269
 30
0.0
 10
83.34924732973606
 20
-8.36167075706943
 30
0.0
 10
83.27285709472979
 20
-8.433420825731265
 30
0.0
 10
83.19999999999997
 20
-8.490658134987596
 30
0.0
  0
SPLINE
  5
1BC
330
1F
100
AcDbEntity
  8
SK3
  6
SLD-Dashed
370
    18
100
AcDbSpline
210
0.0
220
0.0
230
1.0
 70
     8
 71
     3
 72
    34
 73
    30
 74
     0
 42
0.000000001
 43
0.00000001
 40
0.0
 40
0.0
 40
0.0
 40
0.0
 40
0.1249999999999958
 40
0.1249999999999958
 40
0.1874999999999952
 40
0.1874999999999952
 40
0.2499999999999946
 40
0.2499999999999946
 40
0.3124999999999939
 40
0.3124999999999939
 40
0.3749999999999933
 40
0.3749999999999933
 40
0.4374999999999927
 40
0.4374999999999927
 40
0.4999999999999921
 40
0.4999999999999921
 40
0.5624999999999916
 40
0.5624999999999916
 40
0.624999999999991
 40
0.624999999999991
 40
0.7499999999999917
 40
0.7499999999999917
 40
0.8124999999999936
 40
0.8124999999999936
 40
0.8749999999999954
 40
0.8749999999999954
 40
0.9374999999999978
 40
0.9374999999999978
 40
1.0
 40
1.0
 40
1.0
 40
1.0
 10
83.19999999999997
 20
8.490658134987713
 30
0.0
 10
83.34553073809836
 20
8.376327637817427
 30
0.0
 10
83.49954450014494
 20
8.21095678305072
 30
0.0
 10
83.74127497440307
 20
7.898632249918096
 30
0.0
 10
83.82123074666117
 20
7.786598651440518
 30
0.0
 10
83.97987000040943
 20
7.547013249411837
 30
0.0
 10
84.05939984935365
 20
7.417891443795726
 30
0.0
 10
84.21012685630369
 20
7.153168967552991
 30
0.0
 10
84.28184697406039
 20
7.017033740766267
 30
0.0
 10
84.41611306521688
 20
6.735817519605086
 30
0.0
 10
84.47826044675055
 20
6.591065329341395
 30
0.0
 10
84.58272182361762
 20
6.307602954500842
 30
0.0
 10
84.62631062338325
 20
6.16486896796338
 30
0.0
 10
84.68530932258936
 20
5.89984419729446
 30
0.0
 10
84.70161320407962
 20
5.773642732539871
 30
0.0
 10
84.70266297865908
 20
5.551433114934751
 30
0.0
 10
84.68763083025635
 20
5.455745546834388
 30
0.0
 10
84.62963278190036
 20
5.301484557096906
 30
0.0
 10
84.58732604932374
 20
5.243942111135665
 30
0.0
 10
84.43077615021474
 20
5.127685194140946
 30
0.0
 10
84.29058535402851
 20
5.126885979925714
 30
0.0
 10
84.06328381292663
 20
5.216866660902715
 30
0.0
 10
83.98393515968014
 20
5.262504412584079
 30
0.0
 10
83.82501291879014
 20
5.379745197631104
 30
0.0
 10
83.7440841033206
 20
5.452213568866875
 30
0.0
 10
83.58293682875347
 20
5.622043527947436
 30
0.0
 10
83.50402469274376
 20
5.717842594777832
 30
0.0
 10
83.34924732973606
 20
5.931237008434287
 30
0.0
 10
83.27285709472979
 20
6.049841535652599
 30
0.0
 10
83.19999999999997
 20
6.17727483885646
 30
0.0
  0
SPLINE
  5
1BD
330
1F
100
AcDbEntity
  8
SK3
  6
SLD-Dashed
370
    18
100
AcDbSpline
210
0.0
220
0.0
230
1.0
 70
    24
 71
     2
 72
     6
 73
     3
 74
     0
 42
0.000000001
 43
0.00000001
 40
0.0
 40
0.0
 40
0.0
 40
0.1249999999999989
 40
0.1249999999999989
 40
0.1249999999999989
 10
3.750000000000017
 20
35.3
 30
0.0
 10
3.736967821211398
 20
35.3
 30
0.0
 10
3.716604969327006
 20
35.3
 30
0.0
  0
SPLINE
  5
1BE
330
1F
100
AcDbEntity
  8
SK3
  6
SLD-Dashed
370
    18
100
AcDbSpline
210
0.0
220
0.0
230
1.0
 70
    24
 71
     3
 72
     8
 73
     4
 74
     0
 42
0.000000001
 43
0.00000001
 40
0.1249999999999989
 40
0.1249999999999989
 40
0.1249999999999989
 40
0.1249999999999989
 40
0.2499999999999979
 40
0.2499999999999979
 40
0.2499999999999979
 40
0.2499999999999979
 10
3.716604969327006
 20
35.3
 30
0.0
 10
3.696242117442655
 20
35.29999999999998
 30
0.0
 10
3.669519274943231
 20
35.29999999999998
 30
0.0
 10
3.64013767643416
 20
35.29999999999998
 30
0.0
  0
SPLINE
  5
1BF
330
1F
100
AcDbEntity
  8
SK3
  6
SLD-Dashed
370
    18
100
AcDbSpline
210
0.0
220
0.0
230
1.0
 70
    24
 71
     3
 72
     8
 73
     4
 74
     0
 42
0.000000001
 43
0.00000001
 40
0.2499999999999979
 40
0.2499999999999979
 40
0.2499999999999979
 40
0.2499999999999979
 40
0.4999999999999986
 40
0.4999999999999986
 40
0.4999999999999986
 40
0.4999999999999986
 10
3.64013767643416
 20
35.29999999999998
 30
0.0
 10
3.58137447941595
 20
35.3
 30
0.0
 10
3.512332936533733
 20
35.3
 30
0.0
 10
3.441834254914983
 20
35.3
 30
0.0
  0
SPLINE
  5
1C0
330
1F
100
AcDbEntity
  8
SK3
  6
SLD-Dashed
370
    18
100
AcDbSpline
210
0.0
220
0.0
230
1.0
 70
    24
 71
     3
 72
     8
 73
     4
 74
     0
 42
0.000000001
 43
0.00000001
 40
0.4999999999999986
 40
0.4999999999999986
 40
0.4999999999999986
 40
0.4999999999999986
 40
1.0
 40
1.0
 40
1.0
 40
1.0
 10
3.441834254914983
 20
35.3
 30
0.0
 10
3.300836891677525
 20
35.3
 30
0.0
 10
3.150896944932577
 20
35.29999999999998
 30
0.0
 10
3.000000000000016
 20
35.3
 30
0.0
  0
SPLINE
  5
1C1
330
1F
100
AcDbEntity
  8
SK3
  6
SLD-Dashed
370
    18
100
AcDbSpline
210
0.0
220
0.0
230
1.0
 70
    24
 71
     3
 72
     8
 73
     4
 74
     0
 42
0.000000001
 43
0.00000001
 40
0.0
 40
0.0
 40
0.0
 40
0.0
 40
0.5000000000000016
 40
0.5000000000000016
 40
0.5000000000000016
 40
0.5000000000000016
 10
3.000000000000016
 20
-35.3
 30
0.0
 10
3.151041253001821
 20
-35.3
 30
0.0
 10
3.301228701601405
 20
-35.3
 30
0.0
 10
3.44240935850848
 20
-35.3
 30
0.0
  0
SPLINE
  5
1C2
330
1F
100
AcDbEntity
  8
SK3
  6
SLD-Dashed
370
    18
100
AcDbSpline
210
0.0
220
0.0
230
1.0
 70
    24
 71
     3
 72
     8
 73
     4
 74
     0
 42
0.000000001
 43
0.00000001
 40
0.5000000000000016
 40
0.5000000000000016
 40
0.5000000000000016
 40
0.5000000000000016
 40
0.7500000000000008
 40
0.7500000000000008
 40
0.7500000000000008
 40
0.7500000000000008
 10
3.44240935850848
 20
-35.3
 30
0.0
 10
3.512999686961976
 20
-35.3
 30
0.0
 10
3.581751481358128
 20
-35.3
 30
0.0
 10
3.640649966598478
 20
-35.3
 30
0.0
  0
SPLINE
  5
1C3
330
1F
100
AcDbEntity
  8
SK3
  6
SLD-Dashed
370
    18
100
AcDbSpline
210
0.0
220
0.0
230
1.0
 70
    24
 71
     2
 72
     6
 73
     3
 74
     0
 42
0.000000001
 43
0.00000001
 40
0.7500000000000008
 40
0.7500000000000008
 40
0.7500000000000008
 40
1.0
 40
1.0
 40
1.0
 10
3.640649966598478
 20
-35.3
 30
0.0
 10
3.699548451838827
 20
-35.3
 30
0.0
 10
3.749999999999989
 20
-35.3
 30
0.0
  0
SPLINE
  5
1C4
330
1F
100
AcDbEntity
  8
1
  6
SLD-Dashed
370
    18
100
AcDbSpline
210
0.0
220
0.0
230
1.0
 70
     8
 71
     3
 72
    10
 73
     6
 74
     0
 42
0.000000001
 43
0.00000001
 40
0.0
 40
0.0
 40
0.0
 40
0.0
 40
0.5
 40
0.5
 40
1.0
 40
1.0
 40
1.0
 40
1.0
 10
19.70499999999998
 20
-40.88833115939069
 30
0.0
 10
19.70499999999998
 20
-40.78817010856142
 30
0.0
 10
19.7433567062261
 20
-40.68702226230894
 30
0.0
 10
19.87981820626392
 20
-40.54026941991151
 30
0.0
 10
19.97834545492383
 20
-40.49493795525559
 30
0.0
 10
20.08000000000002
 20
-40.49493795525559
 30
0.0
  0
SPLINE
  5
1C5
330
1F
100
AcDbEntity
  8
1
  6
SLD-Dashed
370
    18
100
AcDbSpline
210
0.0
220
0.0
230
1.0
 70
     8
 71
     3
 72
     8
 73
     4
 74
     0
 42
0.000000001
 43
0.00000001
 40
0.0
 40
0.0
 40
0.0
 40
0.0
 40
1.0
 40
1.0
 40
1.0
 40
1.0
 10
16.23001969424179
 20
-47.29842136528813
 30
0.0
 10
17.39303935599185
 20
-45.21043490199494
 30
0.0
 10
18.55203671462702
 20
-43.1202908278191
 30
0.0
 10
19.705
 20
-41.02691000550033
 30
0.0
  0
SPLINE
  5
1C6
330
1F
100
AcDbEntity
  8
1
  6
SLD-Dashed
370
    18
100
AcDbSpline
210
0.0
220
0.0
230
1.0
 70
     8
 71
     3
 72
    10
 73
     6
 74
     0
 42
0.000000001
 43
0.00000001
 40
0.0
 40
0.0
 40
0.0
 40
0.0
 40
0.5
 40
0.5
 40
1.0
 40
1.0
 40
1.0
 40
1.0
 10
19.70499999999998
 20
40.88833115939066
 30
0.0
 10
19.70499999999998
 20
40.78785700331395
 30
0.0
 10
19.74338373915058
 20
40.68707612346072
 30
0.0
 10
19.87949500418879
 20
40.54053424392844
 30
0.0
 10
19.97908463495332
 20
40.49493795525557
 30
0.0
 10
20.08000000000002
 20
40.49493795525558
 30
0.0
  0
SPLINE
  5
1C7
330
1F
100
AcDbEntity
  8
1
  6
SLD-Dashed
370
    18
100
AcDbSpline
210
0.0
220
0.0
230
1.0
 70
     8
 71
     3
 72
     8
 73
     4
 74
     0
 42
0.000000001
 43
0.00000001
 40
0.0
 40
0.0
 40
0.0
 40
0.0
 40
1.0
 40
1.0
 40
1.0
 40
1.0
 10
16.23001969424186
 20
47.29842136528796
 30
0.0
 10
17.39299174097686
 20
45.21052038593816
 30
0.0
 10
18.55200333802343
 20
43.12035142813718
 30
0.0
 10
19.705
 20
41.02691000550032
 30
0.0
  0
INSERT
  5
1C8
330
1F
100
AcDbEntity
  8
81
100
AcDbBlockReference
  2
Block11
 10
8.3735173495
 20
-130.2676275275
 30
0.0
  0
INSERT
  5
1C9
330
1F
100
AcDbEntity
  8
80
100
AcDbBlockReference
  2
Block12
 10
-61.7273641656
 20
-130.3356800267
 30
0.0
  0
DIMENSION
  5
1CA
330
1F
100
AcDbEntity
  8
SK2
100
AcDbDimension
  2
_D
 10
38.0
 20
58.8413100063
 30
0.0
 11
18.8155750999
 21
58.8413100063
 31
0.0
 70
   160
  1
<>
 71
     2
 42
-1.0
  3
SLDDIMSTYLE0
100
AcDbAlignedDimension
 13
0.0
 23
34.925
 33
0.0
 14
38.0
 24
49.228682327
 34
0.0
100
AcDbRotatedDimension
  0
DIMENSION
  5
1D6
330
1F
100
AcDbEntity
  8
SK2
100
AcDbDimension
  2
_D_1
 10
100.0
 20
58.8413100063
 30
0.0
 11
66.9166153224
 21
58.8413100063
 31
0.0
 70
   160
  1
<>
 71
     2
 42
-1.0
  3
SLDDIMSTYLE0
100
AcDbAlignedDimension
 13
38.0
 23
49.228682327
 33
0.0
 14
100.0
 24
29.2
 34
0.0
100
AcDbRotatedDimension
  0
DIMENSION
  5
1E0
330
1F
100
AcDbEntity
  8
2
100
AcDbDimension
  2
_D_2
 10
0.0
 20
70.2666162401
 30
0.0
 11
49.7312498116
 21
70.2666162401
 31
0.0
 70
   160
  1
<>
 71
     2
 42
-1.0
  3
SLDDIMSTYLE0
100
AcDbAlignedDimension
 13
100.0
 23
15.687031056
 33
0.0
 14
0.0
 24
34.925
 34
0.0
100
AcDbRotatedDimension
  0
DIMENSION
  5
1EA
330
1F
100
AcDbEntity
  8
SK2
100
AcDbDimension
  2
_D_3
 10
121.0
 20
58.8413100063
 30
0.0
 11
110.859807168
 21
58.8413100063
 31
0.0
 70
   160
  1
<>
 71
     2
 42
-1.0
  3
SLDDIMSTYLE0
100
AcDbAlignedDimension
 13
100.0
 23
29.2
 33
0.0
 14
121.0
 24
12.9710190579
 34
0.0
 50
0.0
100
AcDbRotatedDimension
  0
DIMENSION
  5
1F4
330
1F
100
AcDbEntity
  8
SK2
100
AcDbDimension
  2
_D_4
 10
161.3400590157
 20
-30.0
 30
0.0
 11
161.3400590157
 21
-0.8336280244
 31
0.0
 70
   160
  1
%%c<>
 71
     2
 42
-1.0
  3
SLDDIMSTYLE0
100
AcDbAlignedDimension
 13
99.2
 23
30.0
 33
0.0
 14
99.2
 24
-30.0
 34
0.0
 50
90.0
100
AcDbRotatedDimension
  0
DIMENSION
  5
1FF
330
1F
100
AcDbEntity
  8
SK2
100
AcDbDimension
  2
_D_5
 10
150.1482870044
 20
-13.5
 30
0.0
 11
150.1482870044
 21
-0.8336280244
 31
0.0
 70
   160
  1
%%c<>
 71
     2
 42
-1.0
  3
SLDDIMSTYLE0
100
AcDbAlignedDimension
 13
118.0
 23
13.5
 33
0.0
 14
118.0
 24
-13.5
 34
0.0
 50
90.0
100
AcDbRotatedDimension
  0
DIMENSION
  5
20A
330
1F
100
AcDbEntity
  8
SK2
100
AcDbDimension
  2
_D_6
 10
-138.5039073677
 20
49.978682327
 30
0.0
 11
-138.5039073677
 21
-0.8336280244
 31
0.0
 70
   160
  1
%%c<>
 71
     2
 42
-1.0
  3
SLDDIMSTYLE0
100
AcDbAlignedDimension
 13
37.25
 23
-49.978682327
 33
0.0
 14
35.2499629447
 24
49.978682327
 34
0.0
 50
90.0
100
AcDbRotatedDimension
  0
DIMENSION
  5
215
330
1F
100
AcDbEntity
  8
SK2
100
AcDbDimension
  2
_D_7
 10
-124.4927380429
 20
-34.925
 30
0.0
 11
-124.4927380429
 21
-0.8336280244
 31
0.0
 70
   160
  1
%%c<>
 71
     2
 42
-1.0
  3
SLDDIMSTYLE0
100
AcDbAlignedDimension
 13
0.0
 23
34.925
 33
0.0
 14
0.0
 24
-34.925
 34
0.0
 50
90.0
100
AcDbRotatedDimension
  0
DIMENSION
  5
220
330
1F
100
AcDbEntity
  8
SK2
100
AcDbDimension
  2
_D_8
 10
-111.9681164114
 20
12.0000001043
 30
0.0
 11
-111.9681164114
 21
0.6753625336
 31
0.0
 70
   160
  1
M<>
 71
     2
 42
-1.0
  3
SLDDIMSTYLE0
100
AcDbAlignedDimension
 13
-88.1169885397
 23
-12.0000001043
 33
0.0
 14
-88.1169885397
 24
12.0000001043
 34
0.0
 50
90.0
100
AcDbRotatedDimension
  0
MTEXT
  5
22B
330
1F
100
AcDbEntity
  8
SK6
 62
     5
100
AcDbMText
 10
-101.1471678086
 20
-56.6719535889
 30
0.0
 40
3.5
 41
0.0
 71
     1
 72
     1
  1
A2B05-50 27 100
  7
SLDTEXTSTYLE0
 73
     1
 44
1.0
  0
MTEXT
  5
22C
330
1F
100
AcDbEntity
  8
SK6
 62
     5
100
AcDbMText
 10
-34.3040973185
 20
42.1718164363
 30
0.0
 40
3.5
 41
0.0
 71
     1
 72
     1
  1
MAS-403 BT50
  7
SLDTEXTSTYLE0
 73
     1
 44
1.0
  0
ENDSEC
  0
SECTION
  2
OBJECTS
  0
DICTIONARY
  5
C
330
0
100
AcDbDictionary
281
     1
  3
ACAD_GROUP
350
D
  3
ACAD_LAYOUT
350
1A
  3
ACAD_MLINESTYLE
350
17
  3
ACAD_PLOTSETTINGS
350
19
  3
ACAD_PLOTSTYLENAME
350
E
  3
ACAD_SCALELIST
350
47
  0
DICTIONARY
  5
D
102
{ACAD_REACTORS
330
C
102
}
330
C
100
AcDbDictionary
281
     1
  0
DICTIONARY
  5
1A
102
{ACAD_REACTORS
330
C
102
}
330
C
100
AcDbDictionary
281
     1
  3
Layout1
350
1E
  3
Layout2
350
26
  3
Model
350
22
  0
DICTIONARY
  5
17
102
{ACAD_REACTORS
330
C
102
}
330
C
100
AcDbDictionary
281
     1
  3
Standard
350
18
  0
DICTIONARY
  5
19
102
{ACAD_REACTORS
330
C
102
}
330
C
100
AcDbDictionary
281
     1
  0
ACDBDICTIONARYWDFLT
  5
E
102
{ACAD_REACTORS
330
C
102
}
330
C
100
AcDbDictionary
281
     1
  3
Normal
350
F
100
AcDbDictionaryWithDefault
340
F
  0
DICTIONARY
  5
47
102
{ACAD_REACTORS
330
C
102
}
330
C
100
AcDbDictionary
281
     1
  3
A0
350
48
  3
A1
350
49
  3
A2
350
4A
  3
A3
350
4B
  3
A4
350
4C
  3
A5
350
4D
  3
A6
350
4E
  3
A7
350
4F
  3
A8
350
50
  3
A9
350
51
  3
B0
350
52
  3
B1
350
53
  3
B2
350
54
  3
B3
350
55
  3
B4
350
56
  3
B5
350
57
  3
B6
350
58
  3
B7
350
59
  3
B8
350
5A
  3
B9
350
5B
  3
C0
350
5C
  3
C1
350
5D
  3
C2
350
5E
  3
C3
350
5F
  3
C4
350
60
  3
C5
350
61
  3
C6
350
62
  3
C7
350
63
  3
C8
350
64
  3
C9
350
65
  3
D0
350
66
  3
D1
350
67
  3
D2
350
68
  0
LAYOUT
  5
1E
102
{ACAD_REACTORS
330
1A
102
}
330
1A
100
AcDbPlotSettings
  1

  2
none_device
  4

  6

 40
0.0
 41
0.0
 42
0.0
 43
0.0
 44
0.0
 45
0.0
 46
0.0
 47
0.0
 48
0.0
 49
0.0
140
0.0
141
0.0
142
1.0
143
1.0
 70
   688
 72
     1
 73
     0
 74
     5
  7

 75
    16
147
1.0
148
0.0
149
0.0
100
AcDbLayout
  1
Layout1
 70
     1
 71
     1
 10
0.0
 20
0.0
 11
420.0
 21
297.0
 12
0.0
 22
0.0
 32
0.0
 14
1.0000000000E+20
 24
1.0000000000E+20
 34
1.0000000000E+20
 15
-1.0000000000E+20
 25
-1.0000000000E+20
 35
-1.0000000000E+20
146
0.0
 13
0.0
 23
0.0
 33
0.0
 16
1.0
 26
0.0
 36
0.0
 17
0.0
 27
1.0
 37
0.0
 76
     0
330
1B
  0
LAYOUT
  5
26
102
{ACAD_REACTORS
330
1A
102
}
330
1A
100
AcDbPlotSettings
  1

  2
none_device
  4

  6

 40
0.0
 41
0.0
 42
0.0
 43
0.0
 44
0.0
 45
0.0
 46
0.0
 47
0.0
 48
0.0
 49
0.0
140
0.0
141
0.0
142
1.0
143
1.0
 70
   688
 72
     1
 73
     0
 74
     5
  7

 75
    16
147
1.0
148
0.0
149
0.0
100
AcDbLayout
  1
Layout2
 70
     1
 71
     2
 10
0.0
 20
0.0
 11
0.0
 21
0.0
 12
0.0
 22
0.0
 32
0.0
 14
0.0
 24
0.0
 34
0.0
 15
0.0
 25
0.0
 35
0.0
146
0.0
 13
0.0
 23
0.0
 33
0.0
 16
1.0
 26
0.0
 36
0.0
 17
0.0
 27
1.0
 37
0.0
 76
     0
330
23
  0
LAYOUT
  5
22
102
{ACAD_REACTORS
330
1A
102
}
330
1A
100
AcDbPlotSettings
  1

  2
none_device
  4
Letter_(8.50_x_11.00_Inches)
  6

 40
6.35
 41
6.35
 42
6.35000508
 43
6.35000508
 44
215.9
 45
279.4
 46
0.0
 47
0.0
 48
0.0
 49
0.0
140
0.0
141
0.0
142
1.0
143
1.0
 70
  1712
 72
     1
 73
     0
 74
     0
  7

 75
     0
147
1.0
148
0.0
149
0.0
100
AcDbLayout
  1
Model
 70
     1
 71
     0
 10
0.0
 20
0.0
 11
297.0
 21
210.0
 12
0.0
 22
0.0
 32
0.0
 14
0.0
 24
0.0
 34
0.0
 15
297.0
 25
210.0
 35
0.0
146
0.0
 13
0.0
 23
0.0
 33
0.0
 16
1.0
 26
0.0
 36
0.0
 17
0.0
 27
1.0
 37
0.0
 76
     0
330
1F
331
29
  0
MLINESTYLE
  5
18
102
{ACAD_REACTORS
330
17
102
}
330
17
100
AcDbMlineStyle
  2
Standard
 70
     0
  3

 62
   256
 51
90.0
 52
90.0
 71
     2
 49
0.5
 62
   256
  6
BYLAYER
 49
-0.5
 62
   256
  6
BYLAYER
  0
ACDBPLACEHOLDER
  5
F
102
{ACAD_REACTORS
330
E
102
}
330
E
  0
SCALE
  5
48
102
{ACAD_REACTORS
330
47
102
}
330
47
100
AcDbScale
 70
     0
300
1:1
140
1.0
141
1.0
290
     1
  0
SCALE
  5
49
102
{ACAD_REACTORS
330
47
102
}
330
47
100
AcDbScale
 70
     0
300
1:2
140
1.0
141
2.0
290
     0
  0
SCALE
  5
4A
102
{ACAD_REACTORS
330
47
102
}
330
47
100
AcDbScale
 70
     0
300
1:4
140
1.0
141
4.0
290
     0
  0
SCALE
  5
4B
102
{ACAD_REACTORS
330
47
102
}
330
47
100
AcDbScale
 70
     0
300
1:5
140
1.0
141
5.0
290
     0
  0
SCALE
  5
4C
102
{ACAD_REACTORS
330
47
102
}
330
47
100
AcDbScale
 70
     0
300
1:8
140
1.0
141
8.0
290
     0
  0
SCALE
  5
4D
102
{ACAD_REACTORS
330
47
102
}
330
47
100
AcDbScale
 70
     0
300
1:10
140
1.0
141
10.0
290
     0
  0
SCALE
  5
4E
102
{ACAD_REACTORS
330
47
102
}
330
47
100
AcDbScale
 70
     0
300
1:16
140
1.0
141
16.0
290
     0
  0
SCALE
  5
4F
102
{ACAD_REACTORS
330
47
102
}
330
47
100
AcDbScale
 70
     0
300
1:20
140
1.0
141
20.0
290
     0
  0
SCALE
  5
50
102
{ACAD_REACTORS
330
47
102
}
330
47
100
AcDbScale
 70
     0
300
1:30
140
1.0
141
30.0
290
     0
  0
SCALE
  5
51
102
{ACAD_REACTORS
330
47
102
}
330
47
100
AcDbScale
 70
     0
300
1:40
140
1.0
141
40.0
290
     0
  0
SCALE
  5
52
102
{ACAD_REACTORS
330
47
102
}
330
47
100
AcDbScale
 70
     0
300
1:50
140
1.0
141
50.0
290
     0
  0
SCALE
  5
53
102
{ACAD_REACTORS
330
47
102
}
330
47
100
AcDbScale
 70
     0
300
1:100
140
1.0
141
100.0
290
     0
  0
SCALE
  5
54
102
{ACAD_REACTORS
330
47
102
}
330
47
100
AcDbScale
 70
     0
300
2:1
140
2.0
141
1.0
290
     0
  0
SCALE
  5
55
102
{ACAD_REACTORS
330
47
102
}
330
47
100
AcDbScale
 70
     0
300
4:1
140
4.0
141
1.0
290
     0
  0
SCALE
  5
56
102
{ACAD_REACTORS
330
47
102
}
330
47
100
AcDbScale
 70
     0
300
8:1
140
8.0
141
1.0
290
     0
  0
SCALE
  5
57
102
{ACAD_REACTORS
330
47
102
}
330
47
100
AcDbScale
 70
     0
300
10:1
140
10.0
141
1.0
290
     0
  0
SCALE
  5
58
102
{ACAD_REACTORS
330
47
102
}
330
47
100
AcDbScale
 70
     0
300
100:1
140
100.0
141
1.0
290
     0
  0
SCALE
  5
59
102
{ACAD_REACTORS
330
47
102
}
330
47
100
AcDbScale
 70
     0
300
1/128" = 1'-0"
140
0.0078125
141
12.0
290
     0
  0
SCALE
  5
5A
102
{ACAD_REACTORS
330
47
102
}
330
47
100
AcDbScale
 70
     0
300
1/64" = 1'-0"
140
0.015625
141
12.0
290
     0
  0
SCALE
  5
5B
102
{ACAD_REACTORS
330
47
102
}
330
47
100
AcDbScale
 70
     0
300
1/32" = 1'-0"
140
0.03125
141
12.0
290
     0
  0
SCALE
  5
5C
102
{ACAD_REACTORS
330
47
102
}
330
47
100
AcDbScale
 70
     0
300
1/16" = 1'-0"
140
0.0625
141
12.0
290
     0
  0
SCALE
  5
5D
102
{ACAD_REACTORS
330
47
102
}
330
47
100
AcDbScale
 70
     0
300
3/32" = 1'-0"
140
0.09375
141
12.0
290
     0
  0
SCALE
  5
5E
102
{ACAD_REACTORS
330
47
102
}
330
47
100
AcDbScale
 70
     0
300
1/8" = 1'-0"
140
0.125
141
12.0
290
     0
  0
SCALE
  5
5F
102
{ACAD_REACTORS
330
47
102
}
330
47
100
AcDbScale
 70
     0
300
3/16" = 1'-0"
140
0.1875
141
12.0
290
     0
  0
SCALE
  5
60
102
{ACAD_REACTORS
330
47
102
}
330
47
100
AcDbScale
 70
     0
300
1/4" = 1'-0"
140
0.25
141
12.0
290
     0
  0
SCALE
  5
61
102
{ACAD_REACTORS
330
47
102
}
330
47
100
AcDbScale
 70
     0
300
3/8" = 1'-0"
140
0.375
141
12.0
290
     0
  0
SCALE
  5
62
102
{ACAD_REACTORS
330
47
102
}
330
47
100
AcDbScale
 70
     0
300
1/2" = 1'-0"
140
0.5
141
12.0
290
     0
  0
SCALE
  5
63
102
{ACAD_REACTORS
330
47
102
}
330
47
100
AcDbScale
 70
     0
300
3/4" = 1'-0"
140
0.75
141
12.0
290
     0
  0
SCALE
  5
64
102
{ACAD_REACTORS
330
47
102
}
330
47
100
AcDbScale
 70
     0
300
1" = 1'-0"
140
1.0
141
12.0
290
     0
  0
SCALE
  5
65
102
{ACAD_REACTORS
330
47
102
}
330
47
100
AcDbScale
 70
     0
300
1-1/2" = 1'-0"
140
1.5
141
12.0
290
     0
  0
SCALE
  5
66
102
{ACAD_REACTORS
330
47
102
}
330
47
100
AcDbScale
 70
     0
300
3" = 1'-0"
140
3.0
141
12.0
290
     0
  0
SCALE
  5
67
102
{ACAD_REACTORS
330
47
102
}
330
47
100
AcDbScale
 70
     0
300
6" = 1'-0"
140
6.0
141
12.0
290
     0
  0
SCALE
  5
68
102
{ACAD_REACTORS
330
47
102
}
330
47
100
AcDbScale
 70
     0
300
1'-0" = 1'-0"
140
12.0
141
12.0
290
     0
  0
ENDSEC
  0
EOF
