  0
SECTION
  2
HEADER
  9
$ACADVER
  1
AC1015
  9
$ACADMAINTVER
 70
     6
  9
$DWGCODEPAGE
  3
ANSI_1250
  9
$INSBASE
 10
0.0
 20
0.0
 30
0.0
  9
$EXTMIN
 10
0.0
 20
0.0
 30
0.0
  9
$EXTMAX
 10
297.0
 20
210.0
 30
0.0
  9
$LIMMIN
 10
0.0
 20
0.0
  9
$LIMMAX
 10
297.0
 20
210.0
  9
$ORTHOMODE
 70
     0
  9
$REGENMODE
 70
     1
  9
$FILLMODE
 70
     1
  9
$QTEXTMODE
 70
     0
  9
$MIRRTEXT
 70
     1
  9
$LTSCALE
 40
1.0
  9
$ATTMODE
 70
     1
  9
$TEXTSIZE
 40
3.5
  9
$TRACEWID
 40
1.0
  9
$TEXTSTYLE
  7
Standard
  9
$CLAYER
  8
0
  9
$CELTYPE
  6
ByLayer
  9
$CECOLOR
 62
   256
  9
$CELTSCALE
 40
1.0
  9
$DISPSILH
 70
     0
  9
$DIMSCALE
 40
1.0
  9
$DIMASZ
 40
3.302
  9
$DIMEXO
 40
1.0
  9
$DIMDLI
 40
3.75
  9
$DIMRND
 40
0.0
  9
$DIMDLE
 40
0.0
  9
$DIMEXE
 40
1.0
  9
$DIMTP
 40
0.0
  9
$DIMTM
 40
0.0
  9
$DIMTXT
 40
3.5
  9
$DIMCEN
 40
2.5
  9
$DIMTSZ
 40
0.0
  9
$DIMTOL
 70
     0
  9
$DIMLIM
 70
     0
  9
$DIMTIH
 70
     1
  9
$DIMTOH
 70
     1
  9
$DIMSE1
 70
     0
  9
$DIMSE2
 70
     0
  9
$DIMTAD
 70
     1
  9
$DIMZIN
 70
     0
  9
$DIMBLK
  1

  9
$DIMASO
 70
     1
  9
$DIMSHO
 70
     1
  9
$DIMPOST
  1

  9
$DIMAPOST
  1

  9
$DIMALT
 70
     0
  9
$DIMALTD
 70
     3
  9
$DIMALTF
 40
0.0393700787
  9
$DIMLFAC
 40
1.0
  9
$DIMTOFL
 70
     1
  9
$DIMTVP
 40
0.0
  9
$DIMTIX
 70
     0
  9
$DIMSOXD
 70
     0
  9
$DIMSAH
 70
     0
  9
$DIMBLK1
  1

  9
$DIMBLK2
  1

  9
$DIMSTYLE
  2
ISO-25
  9
$DIMCLRD
 70
     0
  9
$DIMCLRE
 70
     0
  9
$DIMCLRT
 70
     0
  9
$DIMTFAC
 40
1.0
  9
$DIMGAP
 40
1.524
  9
$DIMJUST
 70
     0
  9
$DIMSD1
 70
     0
  9
$DIMSD2
 70
     0
  9
$DIMTOLJ
 70
     0
  9
$DIMTZIN
 70
     0
  9
$DIMALTZ
 70
     0
  9
$DIMALTTZ
 70
     0
  9
$DIMUPT
 70
     0
  9
$DIMDEC
 70
     2
  9
$DIMTDEC
 70
     2
  9
$DIMALTU
 70
     2
  9
$DIMALTTD
 70
     3
  9
$DIMTXSTY
  7
Standard
  9
$DIMAUNIT
 70
     0
  9
$DIMADEC
 70
     2
  9
$DIMALTRND
 40
0.0
  9
$DIMAZIN
 70
     0
  9
$DIMDSEP
 70
    44
  9
$DIMATFIT
 70
     3
  9
$DIMFRAC
 70
     0
  9
$DIMLDRBLK
  1

  9
$DIMLUNIT
 70
     2
  9
$DIMLWD
 70
    -2
  9
$DIMLWE
 70
    -2
  9
$DIMTMOVE
 70
     0
  9
$LUNITS
 70
     2
  9
$LUPREC
 70
     2
  9
$SKETCHINC
 40
1.0
  9
$FILLETRAD
 40
10.0
  9
$AUNITS
 70
     0
  9
$AUPREC
 70
     2
  9
$MENU
  1
.
  9
$ELEVATION
 40
0.0
  9
$PELEVATION
 40
0.0
  9
$THICKNESS
 40
0.0
  9
$LIMCHECK
 70
     0
  9
$CHAMFERA
 40
0.0
  9
$CHAMFERB
 40
0.0
  9
$CHAMFERC
 40
0.0
  9
$CHAMFERD
 40
0.0
  9
$SKPOLY
 70
     0
  9
$TDCREATE
 40
2459290.475671505
  9
$TDUCREATE
 40
2459290.434004838
  9
$TDUPDATE
 40
2459290.475672442
  9
$TDUUPDATE
 40
2459290.434005775
  9
$TDINDWG
 40
0.0000000116
  9
$TDUSRTIMER
 40
0.0000000116
  9
$USRTIMER
 70
     1
  9
$ANGBASE
 50
0.0
  9
$ANGDIR
 70
     0
  9
$PDMODE
 70
     0
  9
$PDSIZE
 40
-1.0
  9
$PLINEWID
 40
0.0
  9
$SPLFRAME
 70
     0
  9
$SPLINETYPE
 70
     6
  9
$SPLINESEGS
 70
     8
  9
$HANDSEED
  5
223
  9
$SURFTAB1
 70
     6
  9
$SURFTAB2
 70
     6
  9
$SURFTYPE
 70
     6
  9
$SURFU
 70
     6
  9
$SURFV
 70
     6
  9
$UCSBASE
  2

  9
$UCSNAME
  2

  9
$UCSORG
 10
0.0
 20
0.0
 30
0.0
  9
$UCSXDIR
 10
1.0
 20
0.0
 30
0.0
  9
$UCSYDIR
 10
0.0
 20
1.0
 30
0.0
  9
$UCSORTHOREF
  2

  9
$UCSORTHOVIEW
 70
     0
  9
$UCSORGTOP
 10
0.0
 20
0.0
 30
0.0
  9
$UCSORGBOTTOM
 10
0.0
 20
0.0
 30
0.0
  9
$UCSORGLEFT
 10
0.0
 20
0.0
 30
0.0
  9
$UCSORGRIGHT
 10
0.0
 20
0.0
 30
0.0
  9
$UCSORGFRONT
 10
0.0
 20
0.0
 30
0.0
  9
$UCSORGBACK
 10
0.0
 20
0.0
 30
0.0
  9
$PUCSBASE
  2

  9
$PUCSNAME
  2

  9
$PUCSORG
 10
0.0
 20
0.0
 30
0.0
  9
$PUCSXDIR
 10
1.0
 20
0.0
 30
0.0
  9
$PUCSYDIR
 10
0.0
 20
1.0
 30
0.0
  9
$PUCSORTHOREF
  2

  9
$PUCSORTHOVIEW
 70
     0
  9
$PUCSORGTOP
 10
0.0
 20
0.0
 30
0.0
  9
$PUCSORGBOTTOM
 10
0.0
 20
0.0
 30
0.0
  9
$PUCSORGLEFT
 10
0.0
 20
0.0
 30
0.0
  9
$PUCSORGRIGHT
 10
0.0
 20
0.0
 30
0.0
  9
$PUCSORGFRONT
 10
0.0
 20
0.0
 30
0.0
  9
$PUCSORGBACK
 10
0.0
 20
0.0
 30
0.0
  9
$USERI1
 70
     0
  9
$USERI2
 70
     0
  9
$USERI3
 70
     0
  9
$USERI4
 70
     0
  9
$USERI5
 70
     0
  9
$USERR1
 40
0.0
  9
$USERR2
 40
0.0
  9
$USERR3
 40
0.0
  9
$USERR4
 40
0.0
  9
$USERR5
 40
0.0
  9
$WORLDVIEW
 70
     1
  9
$SHADEDGE
 70
     3
  9
$SHADEDIF
 70
    70
  9
$TILEMODE
 70
     1
  9
$MAXACTVP
 70
    64
  9
$PINSBASE
 10
0.0
 20
0.0
 30
0.0
  9
$PLIMCHECK
 70
     0
  9
$PEXTMIN
 10
1.0000000000E+20
 20
1.0000000000E+20
 30
1.0000000000E+20
  9
$PEXTMAX
 10
-1.0000000000E+20
 20
-1.0000000000E+20
 30
-1.0000000000E+20
  9
$PLIMMIN
 10
0.0
 20
0.0
  9
$PLIMMAX
 10
420.0
 20
297.0
  9
$UNITMODE
 70
     0
  9
$VISRETAIN
 70
     1
  9
$PLINEGEN
 70
     0
  9
$PSLTSCALE
 70
     1
  9
$TREEDEPTH
 70
  3020
  9
$CMLSTYLE
  2
Standard
  9
$CMLJUST
 70
     0
  9
$CMLSCALE
 40
20.0
  9
$PROXYGRAPHICS
 70
     1
  9
$MEASUREMENT
 70
     1
  9
$CELWEIGHT
370
    -1
  9
$ENDCAPS
280
     0
  9
$JOINSTYLE
280
     0
  9
$LWDISPLAY
290
     1
  9
$INSUNITS
 70
     4
  9
$HYPERLINKBASE
  1

  9
$STYLESHEET
  1

  9
$XEDIT
290
     1
  9
$CEPSNTYPE
380
     0
  9
$PSTYLEMODE
290
     1
  9
$FINGERPRINTGUID
  2
{808B4433-8707-4D95-8867-D44165E02737}
  9
$VERSIONGUID
  2
{FAEB1C32-E019-11D5-929B-00C0DF256EC4}
  9
$EXTNAMES
290
     1
  9
$PSVPSCALE
 40
0.0
  9
$OLESTARTUP
290
     0
  0
ENDSEC
  0
SECTION
  2
CLASSES
  0
CLASS
  1
ACDBDICTIONARYWDFLT
  2
AcDbDictionaryWithDefault
  3
ObjectDBX Classes
 90
        0
280
     0
281
     0
  0
CLASS
  1
VISUALSTYLE
  2
AcDbVisualStyle
  3
ObjectDBX Classes
 90
     4095
280
     0
281
     0
  0
CLASS
  1
MATERIAL
  2
AcDbMaterial
  3
ObjectDBX Classes
 90
     1153
280
     0
281
     0
  0
CLASS
  1
SCALE
  2
AcDbScale
  3
ObjectDBX Classes
 90
     1153
280
     0
281
     0
  0
CLASS
  1
TABLESTYLE
  2
AcDbTableStyle
  3
ObjectDBX Classes
 90
     4095
280
     0
281
     0
  0
CLASS
  1
MLEADERSTYLE
  2
AcDbMLeaderStyle
  3
ACDB_MLEADERSTYLE_CLASS
 90
     4095
280
     0
281
     0
  0
CLASS
  1
SUN
  2
AcDbSun
  3
SCENEOE
 90
     1153
280
     0
281
     0
  0
CLASS
  1
ACDBPLACEHOLDER
  2
AcDbPlaceHolder
  3
ObjectDBX Classes
 90
        0
280
     0
281
     0
  0
CLASS
  1
LAYOUT
  2
AcDbLayout
  3
ObjectDBX Classes
 90
        0
280
     0
281
     0
  0
ENDSEC
  0
SECTION
  2
TABLES
  0
TABLE
  2
VPORT
  5
8
330
0
100
AcDbSymbolTable
 70
     1
  0
VPORT
  5
29
330
8
100
AcDbSymbolTableRecord
100
AcDbViewportTableRecord
  2
*Active
 70
     0
 10
0.0
 20
0.0
 11
1.0
 21
1.0
 12
148.5
 22
105.0
 13
0.0
 23
0.0
 14
10.0
 24
10.0
 15
10.0
 25
10.0
 16
0.0
 26
0.0
 36
1.0
 17
0.0
 27
0.0
 37
0.0
 40
210.0
 41
1.4142857143
 42
50.0
 43
0.0
 44
0.0
 50
0.0
 51
0.0
 71
     0
 72
  2000
 73
     1
 74
     3
 75
     0
 76
     0
 77
     0
 78
     0
281
     0
 65
     1
110
0.0
120
0.0
130
0.0
111
1.0
121
0.0
131
0.0
112
0.0
122
1.0
132
0.0
 79
     0
146
0.0
  0
ENDTAB
  0
TABLE
  2
LTYPE
  5
5
330
0
100
AcDbSymbolTable
 70
     8
  0
LTYPE
  5
14
330
5
100
AcDbSymbolTableRecord
100
AcDbLinetypeTableRecord
  2
ByBlock
 70
     0
  3

 72
    65
 73
     0
 40
0.0
  0
LTYPE
  5
15
330
5
100
AcDbSymbolTableRecord
100
AcDbLinetypeTableRecord
  2
ByLayer
 70
     0
  3

 72
    65
 73
     0
 40
0.0
  0
LTYPE
  5
16
330
5
100
AcDbSymbolTableRecord
100
AcDbLinetypeTableRecord
  2
Continuous
 70
     0
  3
Solid line
 72
    65
 73
     0
 40
0.0
  0
LTYPE
  5
6E
330
5
100
AcDbSymbolTableRecord
100
AcDbLinetypeTableRecord
  2
SLD-Solid
 70
     0
  3
SolidWorks Line Style
 72
    65
 73
     0
 40
0.0
  0
LTYPE
  5
6F
330
5
100
AcDbSymbolTableRecord
100
AcDbLinetypeTableRecord
  2
SLD-Dashed
 70
     0
  3
SolidWorks Line Style
 72
    65
 73
     2
 40
1.905
 49
1.27
 74
     0
 49
-0.635
 74
     0
  0
LTYPE
  5
70
330
5
100
AcDbSymbolTableRecord
100
AcDbLinetypeTableRecord
  2
SLD-Phantom
 70
     0
  3
SolidWorks Line Style
 72
    65
 73
     6
 40
12.7
 49
6.35
 74
     0
 49
-1.27
 74
     0
 49
1.27
 74
     0
 49
-1.27
 74
     0
 49
1.27
 74
     0
 49
-1.27
 74
     0
  0
LTYPE
  5
71
330
5
100
AcDbSymbolTableRecord
100
AcDbLinetypeTableRecord
  2
SLD-Chain
 70
     0
  3
SolidWorks Line Style
 72
    65
 73
     4
 40
10.16
 49
6.35
 74
     0
 49
-1.27
 74
     0
 49
1.27
 74
     0
 49
-1.27
 74
     0
  0
LTYPE
  5
72
330
5
100
AcDbSymbolTableRecord
100
AcDbLinetypeTableRecord
  2
SLD-Center
 70
     0
  3
SolidWorks Line Style
 72
    65
 73
     4
 40
19.05
 49
15.24
 74
     0
 49
-1.27
 74
     0
 49
1.27
 74
     0
 49
-1.27
 74
     0
  0
LTYPE
  5
73
330
5
100
AcDbSymbolTableRecord
100
AcDbLinetypeTableRecord
  2
SLD-Stitch
 70
     0
  3
SolidWorks Line Style
 72
    65
 73
     2
 40
0.635
 49
0.0
 74
     0
 49
-0.635
 74
     0
  0
LTYPE
  5
74
330
5
100
AcDbSymbolTableRecord
100
AcDbLinetypeTableRecord
  2
SLD-Thin-Thick-Chain
 70
     0
  3
SolidWorks Line Style
 72
    65
 73
     4
 40
10.16
 49
6.35
 74
     0
 49
-1.27
 74
     0
 49
1.27
 74
     0
 49
-1.27
 74
     0
  0
ENDTAB
  0
TABLE
  2
LAYER
  5
2
330
0
100
AcDbSymbolTable
 70
    12
  0
LAYER
  5
10
330
2
100
AcDbSymbolTableRecord
100
AcDbLayerTableRecord
  2
0
 70
     0
 62
     7
  6
Continuous
370
    -3
390
F
  0
LAYER
  5
75
330
2
100
AcDbSymbolTableRecord
100
AcDbLayerTableRecord
  2
SLD-0
 70
     0
 62
   179
  6
SLD-Solid
370
    -3
390
F
  0
LAYER
  5
76
330
2
100
AcDbSymbolTableRecord
100
AcDbLayerTableRecord
  2
80
 70
     0
 62
    -6
  6
SLD-Solid
290
     0
370
    -3
390
F
  0
LAYER
  5
77
330
2
100
AcDbSymbolTableRecord
100
AcDbLayerTableRecord
  2
81
 70
     0
 62
    -3
  6
SLD-Solid
290
     0
370
    -3
390
F
  0
LAYER
  5
78
330
2
100
AcDbSymbolTableRecord
100
AcDbLayerTableRecord
  2
1
 70
     0
 62
     4
  6
SLD-Solid
290
     0
370
    -3
390
F
  0
LAYER
  5
79
330
2
100
AcDbSymbolTableRecord
100
AcDbLayerTableRecord
  2
4
 70
     0
 62
    -2
  6
SLD-Chain
290
     0
370
    -3
390
F
  0
LAYER
  5
7A
330
2
100
AcDbSymbolTableRecord
100
AcDbLayerTableRecord
  2
2
 70
     0
 62
     7
  6
SLD-Solid
290
     0
370
    -3
390
F
  0
LAYER
  5
7B
330
2
100
AcDbSymbolTableRecord
100
AcDbLayerTableRecord
  2
SK3
 70
     0
 62
     1
  6
SLD-Dashed
290
     0
370
    -3
390
F
  0
LAYER
  5
7C
330
2
100
AcDbSymbolTableRecord
100
AcDbLayerTableRecord
  2
SK4
 70
     0
 62
     2
  6
SLD-Chain
290
     0
370
    -3
390
F
  0
LAYER
  5
7D
330
2
100
AcDbSymbolTableRecord
100
AcDbLayerTableRecord
  2
SK2
 70
     0
 62
     7
  6
SLD-Solid
290
     0
370
    -3
390
F
  0
LAYER
  5
7E
330
2
100
AcDbSymbolTableRecord
100
AcDbLayerTableRecord
  2
SK6
 70
     0
 62
     5
  6
SLD-Solid
290
     0
370
    -3
390
F
  0
LAYER
  5
7F
330
2
100
AcDbSymbolTableRecord
100
AcDbLayerTableRecord
  2
SK1
 70
     0
 62
     4
  6
SLD-Solid
370
    -3
390
F
  0
ENDTAB
  0
TABLE
  2
STYLE
  5
3
330
0
100
AcDbSymbolTable
 70
     2
  0
STYLE
  5
11
330
3
100
AcDbSymbolTableRecord
100
AcDbTextStyleTableRecord
  2
Standard
 70
     0
 40
0.0
 41
1.0
 50
0.0
 71
     0
 42
3.5
  3
txt
  4

  0
STYLE
  5
1C1
330
3
100
AcDbSymbolTableRecord
100
AcDbTextStyleTableRecord
  2
SLDTEXTSTYLE0
 70
     0
 40
0.0
 41
0.75
 50
0.0
 71
     0
 42
3.5
  3
TXT
  4

  0
ENDTAB
  0
TABLE
  2
VIEW
  5
6
330
0
100
AcDbSymbolTable
 70
     0
  0
ENDTAB
  0
TABLE
  2
UCS
  5
7
330
0
100
AcDbSymbolTable
 70
     0
  0
ENDTAB
  0
TABLE
  2
APPID
  5
9
330
0
100
AcDbSymbolTable
 70
     1
  0
APPID
  5
12
330
9
100
AcDbSymbolTableRecord
100
AcDbRegAppTableRecord
  2
ACAD
 70
     0
  0
ENDTAB
  0
TABLE
  2
DIMSTYLE
  5
A
330
0
100
AcDbSymbolTable
 70
     2
100
AcDbDimStyleTable
  0
DIMSTYLE
105
27
330
A
100
AcDbSymbolTableRecord
100
AcDbDimStyleTableRecord
  2
ISO-25
 70
     0
 41
2.5
 42
0.625
 43
3.75
 44
1.25
 73
     0
 74
     0
 77
     1
 78
     8
140
2.5
141
2.5
143
0.0393700787
147
0.625
171
     3
172
     1
178
     0
271
     2
272
     2
274
     3
278
    44
283
     0
284
     8
340
11
  0
DIMSTYLE
105
1C2
102
{ACAD_REACTORS
330
1C0
330
1CC
330
1D6
330
1E0
330
1EA
330
1F5
330
200
330
20B
330
216
102
}
330
A
100
AcDbSymbolTableRecord
100
AcDbDimStyleTableRecord
  2
SLDDIMSTYLE0
 70
     0
 41
3.302
 44
0.0
 45
0.000000001
 73
     0
 74
     0
 77
     1
 78
    12
 79
     3
140
3.5
147
0.875
173
     1
178
     0
271
     2
272
     2
276
     2
284
    12
340
1C1
  0
ENDTAB
  0
TABLE
  2
BLOCK_RECORD
  5
1
330
0
100
AcDbSymbolTable
 70
    12
  0
BLOCK_RECORD
  5
1F
330
1
100
AcDbSymbolTableRecord
100
AcDbBlockTableRecord
  2
*Model_Space
340
22
  0
BLOCK_RECORD
  5
1B
330
1
100
AcDbSymbolTableRecord
100
AcDbBlockTableRecord
  2
*Paper_Space
340
1E
  0
BLOCK_RECORD
  5
23
330
1
100
AcDbSymbolTableRecord
100
AcDbBlockTableRecord
  2
*Paper_Space0
340
26
  0
BLOCK_RECORD
  5
80
330
1
100
AcDbSymbolTableRecord
100
AcDbBlockTableRecord
  2
Block11
340
0
102
{BLKREFS
331
1BE
102
}
  0
BLOCK_RECORD
  5
89
330
1
100
AcDbSymbolTableRecord
100
AcDbBlockTableRecord
  2
Block12
340
0
102
{BLKREFS
331
1BF
102
}
  0
BLOCK_RECORD
  5
1C3
330
1
100
AcDbSymbolTableRecord
100
AcDbBlockTableRecord
  2
_D
340
0
  0
BLOCK_RECORD
  5
1CD
330
1
100
AcDbSymbolTableRecord
100
AcDbBlockTableRecord
  2
_D_1
340
0
  0
BLOCK_RECORD
  5
1D7
330
1
100
AcDbSymbolTableRecord
100
AcDbBlockTableRecord
  2
_D_2
340
0
  0
BLOCK_RECORD
  5
1E1
330
1
100
AcDbSymbolTableRecord
100
AcDbBlockTableRecord
  2
_D_3
340
0
  0
BLOCK_RECORD
  5
1EB
330
1
100
AcDbSymbolTableRecord
100
AcDbBlockTableRecord
  2
_D_4
340
0
  0
BLOCK_RECORD
  5
1F6
330
1
100
AcDbSymbolTableRecord
100
AcDbBlockTableRecord
  2
_D_5
340
0
  0
BLOCK_RECORD
  5
201
330
1
100
AcDbSymbolTableRecord
100
AcDbBlockTableRecord
  2
_D_6
340
0
  0
BLOCK_RECORD
  5
20C
330
1
100
AcDbSymbolTableRecord
100
AcDbBlockTableRecord
  2
_D_7
340
0
  0
BLOCK_RECORD
  5
217
330
1
100
AcDbSymbolTableRecord
100
AcDbBlockTableRecord
  2
_D_8
340
0
  0
ENDTAB
  0
ENDSEC
  0
SECTION
  2
BLOCKS
  0
BLOCK
  5
20
330
1F
100
AcDbEntity
  8
0
100
AcDbBlockBegin
  2
*Model_Space
 70
     0
 10
0.0
 20
0.0
 30
0.0
  3
*Model_Space
  1

  0
ENDBLK
  5
21
330
1F
100
AcDbEntity
  8
0
100
AcDbBlockEnd
  0
BLOCK
  5
1C
330
1B
100
AcDbEntity
 67
     1
  8
0
100
AcDbBlockBegin
  2
*Paper_Space
 70
     0
 10
0.0
 20
0.0
 30
0.0
  3
*Paper_Space
  1

  0
ENDBLK
  5
1D
330
1B
100
AcDbEntity
 67
     1
  8
0
100
AcDbBlockEnd
  0
BLOCK
  5
24
330
23
100
AcDbEntity
  8
0
100
AcDbBlockBegin
  2
*Paper_Space0
 70
     0
 10
0.0
 20
0.0
 30
0.0
  3
*Paper_Space0
  1

  0
ENDBLK
  5
25
330
23
100
AcDbEntity
  8
0
100
AcDbBlockEnd
  0
BLOCK
  5
81
330
80
100
AcDbEntity
  8
0
100
AcDbBlockBegin
  2
Block11
 70
     0
 10
0.0
 20
0.0
 30
0.0
  3
Block11
  1

  0
CIRCLE
  5
83
330
80
100
AcDbEntity
  8
81
370
    18
100
AcDbCircle
 10
91.6264826505
 20
130.2676275275
 30
0.0
 40
2.499999999999981
  0
LINE
  5
84
330
80
100
AcDbEntity
  8
81
370
    18
100
AcDbLine
 10
91.6264826505
 20
130.2676275275
 30
0.0
 11
95.1620165565
 21
133.8031614334
 31
0.0
  0
LINE
  5
85
330
80
100
AcDbEntity
  8
81
370
    18
100
AcDbLine
 10
91.6264826505
 20
130.2676275275
 30
0.0
 11
88.0909487446
 21
126.7320936216
 31
0.0
  0
LINE
  5
86
330
80
100
AcDbEntity
  8
81
370
    18
100
AcDbLine
 10
91.6264826505
 20
130.2676275275
 30
0.0
 11
88.0909487446
 21
133.8031614334
 31
0.0
  0
LINE
  5
87
330
80
100
AcDbEntity
  8
81
100
AcDbLine
 10
91.6264826505
 20
130.2676275275
 30
0.0
 11
101.6264826505
 21
130.2676275275
 31
0.0
  0
LINE
  5
88
330
80
100
AcDbEntity
  8
81
370
    18
100
AcDbLine
 10
91.6264826505
 20
130.2676275275
 30
0.0
 11
95.1620165565
 21
126.7320936216
 31
0.0
  0
ENDBLK
  5
82
330
80
100
AcDbEntity
  8
0
100
AcDbBlockEnd
  0
BLOCK
  5
8A
330
89
100
AcDbEntity
  8
0
100
AcDbBlockBegin
  2
Block12
 70
     0
 10
0.0
 20
0.0
 30
0.0
  3
Block12
  1

  0
CIRCLE
  5
8C
330
89
100
AcDbEntity
  8
80
370
    18
100
AcDbCircle
 10
61.7273641656
 20
130.3356800267
 30
0.0
 40
2.500000000000004
  0
LINE
  5
8D
330
89
100
AcDbEntity
  8
80
370
    18
100
AcDbLine
 10
61.7273641656
 20
130.3356800267
 30
0.0
 11
65.2628980715
 21
133.8712139326
 31
0.0
  0
LINE
  5
8E
330
89
100
AcDbEntity
  8
80
370
    18
100
AcDbLine
 10
61.7273641656
 20
130.3356800267
 30
0.0
 11
58.1918302597
 21
126.8001461208
 31
0.0
  0
LINE
  5
8F
330
89
100
AcDbEntity
  8
80
370
    18
100
AcDbLine
 10
61.7273641656
 20
130.3356800267
 30
0.0
 11
58.1918302597
 21
133.8712139326
 31
0.0
  0
LINE
  5
90
330
89
100
AcDbEntity
  8
80
370
    18
100
AcDbLine
 10
61.7273641656
 20
130.3356800267
 30
0.0
 11
51.7273641656
 21
130.3356800267
 31
0.0
  0
LINE
  5
91
330
89
100
AcDbEntity
  8
80
370
    18
100
AcDbLine
 10
61.7273641656
 20
130.3356800267
 30
0.0
 11
65.2628980715
 21
126.8001461208
 31
0.0
  0
ENDBLK
  5
8B
330
89
100
AcDbEntity
  8
0
100
AcDbBlockEnd
  0
BLOCK
  5
1C4
330
1C3
100
AcDbEntity
  8
0
100
AcDbBlockBegin
  2
_D
 70
     0
 10
0.0
 20
0.0
 30
0.0
  3
_D
  1

  0
SOLID
  5
1C6
330
1C3
100
AcDbEntity
  8
SK2
100
AcDbTrace
 10
0.0
 20
32.0174595398
 30
0.0
 11
3.302
 21
31.5094595398
 31
0.0
 12
3.302
 22
32.5254595398
 32
0.0
 13
3.302
 23
32.5254595398
 33
0.0
  0
SOLID
  5
1C7
330
1C3
100
AcDbEntity
  8
SK2
100
AcDbTrace
 10
22.1
 20
32.0174595398
 30
0.0
 11
18.798
 21
32.5254595398
 31
0.0
 12
18.798
 22
31.5094595398
 32
0.0
 13
18.798
 23
31.5094595398
 33
0.0
  0
LINE
  5
1C8
330
1C3
100
AcDbEntity
  8
SK2
100
AcDbLine
 10
0.0
 20
16.875
 30
0.0
 11
0.0
 21
33.0174595398
 31
0.0
  0
LINE
  5
1C9
330
1C3
100
AcDbEntity
  8
SK2
100
AcDbLine
 10
22.1
 20
23.24
 30
0.0
 11
22.1
 21
33.0174595398
 31
0.0
  0
LINE
  5
1CA
330
1C3
100
AcDbEntity
  8
SK2
100
AcDbLine
 10
0.0
 20
32.0174595398
 30
0.0
 11
22.1
 21
32.0174595398
 31
0.0
  0
MTEXT
  5
1CB
330
1C3
100
AcDbEntity
  8
SK2
100
AcDbMText
 10
6.4334553273
 20
36.5291964544
 30
0.0
 40
3.5
 41
0.0
 71
     1
 72
     1
  1
22,1
  7
SLDTEXTSTYLE0
 73
     1
 44
1.0
  0
ENDBLK
  5
1C5
330
1C3
100
AcDbEntity
  8
0
100
AcDbBlockEnd
  0
BLOCK
  5
1CE
330
1CD
100
AcDbEntity
  8
0
100
AcDbBlockBegin
  2
_D_1
 70
     0
 10
0.0
 20
0.0
 30
0.0
  3
_D_1
  1

  0
SOLID
  5
1D0
330
1CD
100
AcDbEntity
  8
SK2
100
AcDbTrace
 10
22.1
 20
32.0174595398
 30
0.0
 11
25.402
 21
31.5094595398
 31
0.0
 12
25.402
 22
32.5254595398
 32
0.0
 13
25.402
 23
32.5254595398
 33
0.0
  0
SOLID
  5
1D1
330
1CD
100
AcDbEntity
  8
SK2
100
AcDbTrace
 10
38.0
 20
32.0174595398
 30
0.0
 11
34.698
 21
32.5254595398
 31
0.0
 12
34.698
 22
31.5094595398
 32
0.0
 13
34.698
 23
31.5094595398
 33
0.0
  0
LINE
  5
1D2
330
1CD
100
AcDbEntity
  8
SK2
100
AcDbLine
 10
22.1
 20
23.24
 30
0.0
 11
22.1
 21
33.0174595398
 31
0.0
  0
LINE
  5
1D3
330
1CD
100
AcDbEntity
  8
SK2
100
AcDbLine
 10
38.0
 20
24.0
 30
0.0
 11
38.0
 21
33.0174595398
 31
0.0
  0
LINE
  5
1D4
330
1CD
100
AcDbEntity
  8
SK2
100
AcDbLine
 10
22.1
 20
32.0174595398
 30
0.0
 11
38.0
 21
32.0174595398
 31
0.0
  0
MTEXT
  5
1D5
330
1CD
100
AcDbEntity
  8
SK2
100
AcDbMText
 10
25.282698627
 20
36.5291964544
 30
0.0
 40
3.5
 41
0.0
 71
     1
 72
     1
  1
15,9
  7
SLDTEXTSTYLE0
 73
     1
 44
1.0
  0
ENDBLK
  5
1CF
330
1CD
100
AcDbEntity
  8
0
100
AcDbBlockEnd
  0
BLOCK
  5
1D8
330
1D7
100
AcDbEntity
  8
0
100
AcDbBlockBegin
  2
_D_2
 70
     0
 10
0.0
 20
0.0
 30
0.0
  3
_D_2
  1

  0
SOLID
  5
1DA
330
1D7
100
AcDbEntity
  8
SK2
100
AcDbTrace
 10
38.0
 20
32.0174595398
 30
0.0
 11
41.302
 21
31.5094595398
 31
0.0
 12
41.302
 22
32.5254595398
 32
0.0
 13
41.302
 23
32.5254595398
 33
0.0
  0
SOLID
  5
1DB
330
1D7
100
AcDbEntity
  8
SK2
100
AcDbTrace
 10
71.0
 20
32.0174595398
 30
0.0
 11
67.698
 21
32.5254595398
 31
0.0
 12
67.698
 22
31.5094595398
 32
0.0
 13
67.698
 23
31.5094595398
 33
0.0
  0
LINE
  5
1DC
330
1D7
100
AcDbEntity
  8
SK2
100
AcDbLine
 10
38.0
 20
24.0
 30
0.0
 11
38.0
 21
33.0174595398
 31
0.0
  0
LINE
  5
1DD
330
1D7
100
AcDbEntity
  8
SK2
100
AcDbLine
 10
71.0
 20
13.9710190579
 30
0.0
 11
71.0
 21
33.0174595398
 31
0.0
  0
LINE
  5
1DE
330
1D7
100
AcDbEntity
  8
SK2
100
AcDbLine
 10
38.0
 20
32.0174595398
 30
0.0
 11
71.0
 21
32.0174595398
 31
0.0
  0
MTEXT
  5
1DF
330
1D7
100
AcDbEntity
  8
SK2
100
AcDbMText
 10
52.8546439596
 20
36.5291964544
 30
0.0
 40
3.5
 41
0.0
 71
     1
 72
     1
  1
33
  7
SLDTEXTSTYLE0
 73
     1
 44
1.0
  0
ENDBLK
  5
1D9
330
1D7
100
AcDbEntity
  8
0
100
AcDbBlockEnd
  0
BLOCK
  5
1E2
330
1E1
100
AcDbEntity
  8
0
100
AcDbBlockBegin
  2
_D_3
 70
     0
 10
0.0
 20
0.0
 30
0.0
  3
_D_3
  1

  0
SOLID
  5
1E4
330
1E1
100
AcDbEntity
  8
2
100
AcDbTrace
 10
38.0
 20
41.4094700421
 30
0.0
 11
34.698
 21
41.9174700421
 31
0.0
 12
34.698
 22
40.9014700421
 32
0.0
 13
34.698
 23
40.9014700421
 33
0.0
  0
SOLID
  5
1E5
330
1E1
100
AcDbEntity
  8
2
100
AcDbTrace
 10
0.0
 20
41.4094700421
 30
0.0
 11
3.302
 21
40.9014700421
 31
0.0
 12
3.302
 22
41.9174700421
 32
0.0
 13
3.302
 23
41.9174700421
 33
0.0
  0
LINE
  5
1E6
330
1E1
100
AcDbEntity
  8
2
100
AcDbLine
 10
38.0
 20
24.0
 30
0.0
 11
38.0
 21
42.4094700421
 31
0.0
  0
LINE
  5
1E7
330
1E1
100
AcDbEntity
  8
2
100
AcDbLine
 10
0.0
 20
16.875
 30
0.0
 11
0.0
 21
42.4094700421
 31
0.0
  0
LINE
  5
1E8
330
1E1
100
AcDbEntity
  8
2
100
AcDbLine
 10
38.0
 20
41.4094700421
 30
0.0
 11
0.0
 21
41.4094700421
 31
0.0
  0
MTEXT
  5
1E9
330
1E1
100
AcDbEntity
  8
2
100
AcDbMText
 10
15.4170465409
 20
45.9212069566
 30
0.0
 40
3.5
 41
0.0
 71
     1
 72
     1
  1
38
  7
SLDTEXTSTYLE0
 73
     1
 44
1.0
  0
ENDBLK
  5
1E3
330
1E1
100
AcDbEntity
  8
0
100
AcDbBlockEnd
  0
BLOCK
  5
1EC
330
1EB
100
AcDbEntity
  8
0
100
AcDbBlockBegin
  2
_D_4
 70
     0
 10
0.0
 20
0.0
 30
0.0
  3
_D_4
  1

  0
SOLID
  5
1EE
330
1EB
100
AcDbEntity
  8
SK2
100
AcDbTrace
 10
107.3916542866
 20
-24.0
 30
0.0
 11
107.8996542866
 21
-20.698
 31
0.0
 12
106.8836542866
 22
-20.698
 32
0.0
 13
106.8836542866
 23
-20.698
 33
0.0
  0
SOLID
  5
1EF
330
1EB
100
AcDbEntity
  8
SK2
100
AcDbTrace
 10
107.3916542866
 20
24.0
 30
0.0
 11
106.8836542866
 21
20.698
 31
0.0
 12
107.8996542866
 22
20.698
 32
0.0
 13
107.8996542866
 23
20.698
 33
0.0
  0
LINE
  5
1F0
330
1EB
100
AcDbEntity
  8
SK2
100
AcDbLine
 10
37.3
 20
-24.0
 30
0.0
 11
108.3916542866
 21
-24.0
 31
0.0
  0
LINE
  5
1F1
330
1EB
100
AcDbEntity
  8
SK2
100
AcDbLine
 10
38.0
 20
24.0
 30
0.0
 11
108.3916542866
 21
24.0
 31
0.0
  0
LINE
  5
1F2
330
1EB
100
AcDbEntity
  8
SK2
100
AcDbLine
 10
107.3916542866
 20
-24.0
 30
0.0
 11
107.3916542866
 21
24.0
 31
0.0
  0
MTEXT
  5
1F3
330
1EB
100
AcDbEntity
  8
SK2
100
AcDbMText
 10
102.8799171974
 20
-5.6764504666
 30
0.0
 40
3.5
 41
0.0
 71
     1
 72
     1
  1
%%c
  7
SLDTEXTSTYLE0
 11
6.123233995736766E-17
 21
1.0
 31
0.0
 73
     1
 44
1.0
  0
MTEXT
  5
1F4
330
1EB
100
AcDbEntity
  8
SK2
100
AcDbMText
 10
102.8264450208
 20
-0.3980130682
 30
0.0
 40
3.5
 41
0.0
 71
     1
 72
     1
  1
48
  7
SLDTEXTSTYLE0
 11
6.123233995736766E-17
 21
1.0
 31
0.0
 73
     1
 44
1.0
  0
ENDBLK
  5
1ED
330
1EB
100
AcDbEntity
  8
0
100
AcDbBlockEnd
  0
BLOCK
  5
1F7
330
1F6
100
AcDbEntity
  8
0
100
AcDbBlockBegin
  2
_D_5
 70
     0
 10
0.0
 20
0.0
 30
0.0
  3
_D_5
  1

  0
SOLID
  5
1F9
330
1F6
100
AcDbEntity
  8
SK2
100
AcDbTrace
 10
96.1391405143
 20
-13.5
 30
0.0
 11
96.6471405143
 21
-10.198
 31
0.0
 12
95.6311405143
 22
-10.198
 32
0.0
 13
95.6311405143
 23
-10.198
 33
0.0
  0
SOLID
  5
1FA
330
1F6
100
AcDbEntity
  8
SK2
100
AcDbTrace
 10
96.1391405143
 20
13.5
 30
0.0
 11
95.6311405143
 21
10.198
 31
0.0
 12
96.6471405143
 22
10.198
 32
0.0
 13
96.6471405143
 23
10.198
 33
0.0
  0
LINE
  5
1FB
330
1F6
100
AcDbEntity
  8
SK2
100
AcDbLine
 10
69.0
 20
-13.5
 30
0.0
 11
97.1391405143
 21
-13.5
 31
0.0
  0
LINE
  5
1FC
330
1F6
100
AcDbEntity
  8
SK2
100
AcDbLine
 10
69.0
 20
13.5
 30
0.0
 11
97.1391405143
 21
13.5
 31
0.0
  0
LINE
  5
1FD
330
1F6
100
AcDbEntity
  8
SK2
100
AcDbLine
 10
96.1391405143
 20
-13.5
 30
0.0
 11
96.1391405143
 21
13.5
 31
0.0
  0
MTEXT
  5
1FE
330
1F6
100
AcDbEntity
  8
SK2
100
AcDbMText
 10
91.6274034251
 20
-5.6764504666
 30
0.0
 40
3.5
 41
0.0
 71
     1
 72
     1
  1
%%c
  7
SLDTEXTSTYLE0
 11
1.615544574432587E-15
 21
1.0
 31
0.0
 73
     1
 44
1.0
  0
MTEXT
  5
1FF
330
1F6
100
AcDbEntity
  8
SK2
100
AcDbMText
 10
91.5739312484
 20
-0.3980130682
 30
0.0
 40
3.5
 41
0.0
 71
     1
 72
     1
  1
27
  7
SLDTEXTSTYLE0
 11
1.615544574432587E-15
 21
1.0
 31
0.0
 73
     1
 44
1.0
  0
ENDBLK
  5
1F8
330
1F6
100
AcDbEntity
  8
0
100
AcDbBlockEnd
  0
BLOCK
  5
202
330
201
100
AcDbEntity
  8
0
100
AcDbBlockBegin
  2
_D_6
 70
     0
 10
0.0
 20
0.0
 30
0.0
  3
_D_6
  1

  0
SOLID
  5
204
330
201
100
AcDbEntity
  8
SK2
100
AcDbTrace
 10
-73.7970834944
 20
22.99
 30
0.0
 11
-74.3050834944
 21
19.688
 31
0.0
 12
-73.2890834944
 22
19.688
 32
0.0
 13
-73.2890834944
 23
19.688
 33
0.0
  0
SOLID
  5
205
330
201
100
AcDbEntity
  8
SK2
100
AcDbTrace
 10
-73.7970834944
 20
-22.99
 30
0.0
 11
-73.2890834944
 21
-19.688
 31
0.0
 12
-74.3050834944
 22
-19.688
 32
0.0
 13
-74.3050834944
 23
-19.688
 33
0.0
  0
LINE
  5
206
330
201
100
AcDbEntity
  8
SK2
100
AcDbLine
 10
18.874649423
 20
22.99
 30
0.0
 11
-74.7970834944
 21
22.99
 31
0.0
  0
LINE
  5
207
330
201
100
AcDbEntity
  8
SK2
100
AcDbLine
 10
18.8746494411
 20
-22.99
 30
0.0
 11
-74.7970834944
 21
-22.99
 31
0.0
  0
LINE
  5
208
330
201
100
AcDbEntity
  8
SK2
100
AcDbLine
 10
-73.7970834944
 20
22.99
 30
0.0
 11
-73.7970834944
 21
-22.99
 31
0.0
  0
MTEXT
  5
209
330
201
100
AcDbEntity
  8
SK2
100
AcDbMText
 10
-78.3088205836
 20
-5.6764504666
 30
0.0
 40
3.5
 41
0.0
 71
     1
 72
     1
  1
%%c
  7
SLDTEXTSTYLE0
 11
-7.044195017643634E-15
 21
1.0
 31
0.0
 73
     1
 44
1.0
  0
MTEXT
  5
20A
330
201
100
AcDbEntity
  8
SK2
100
AcDbMText
 10
-78.3622927603
 20
-0.3980130682
 30
0.0
 40
3.5
 41
0.0
 71
     1
 72
     1
  1
46
  7
SLDTEXTSTYLE0
 11
-7.044195017643634E-15
 21
1.0
 31
0.0
 73
     1
 44
1.0
  0
ENDBLK
  5
203
330
201
100
AcDbEntity
  8
0
100
AcDbBlockEnd
  0
BLOCK
  5
20D
330
20C
100
AcDbEntity
  8
0
100
AcDbBlockBegin
  2
_D_7
 70
     0
 10
0.0
 20
0.0
 30
0.0
  3
_D_7
  1

  0
SOLID
  5
20F
330
20C
100
AcDbEntity
  8
SK2
100
AcDbTrace
 10
-63.4738935471
 20
-15.875
 30
0.0
 11
-62.9658935471
 21
-12.573
 31
0.0
 12
-63.9818935471
 22
-12.573
 32
0.0
 13
-63.9818935471
 23
-12.573
 33
0.0
  0
SOLID
  5
210
330
20C
100
AcDbEntity
  8
SK2
100
AcDbTrace
 10
-63.4738935471
 20
15.875
 30
0.0
 11
-63.9818935471
 21
12.573
 31
0.0
 12
-62.9658935471
 22
12.573
 32
0.0
 13
-62.9658935471
 23
12.573
 33
0.0
  0
LINE
  5
211
330
20C
100
AcDbEntity
  8
SK2
100
AcDbLine
 10
-1.0
 20
-15.875
 30
0.0
 11
-64.4738935471
 21
-15.875
 31
0.0
  0
LINE
  5
212
330
20C
100
AcDbEntity
  8
SK2
100
AcDbLine
 10
-1.0
 20
15.875
 30
0.0
 11
-64.4738935471
 21
15.875
 31
0.0
  0
LINE
  5
213
330
20C
100
AcDbEntity
  8
SK2
100
AcDbLine
 10
-63.4738935471
 20
-15.875
 30
0.0
 11
-63.4738935471
 21
15.875
 31
0.0
  0
MTEXT
  5
214
330
20C
100
AcDbEntity
  8
SK2
100
AcDbMText
 10
-67.9856306363
 20
-8.9090892839
 30
0.0
 40
3.5
 41
0.0
 71
     1
 72
     1
  1
%%c
  7
SLDTEXTSTYLE0
 11
6.123233995736766E-17
 21
1.0
 31
0.0
 73
     1
 44
1.0
  0
MTEXT
  5
215
330
20C
100
AcDbEntity
  8
SK2
100
AcDbMText
 10
-68.039102813
 20
-3.6306518855
 30
0.0
 40
3.5
 41
0.0
 71
     1
 72
     1
  1
31,75
  7
SLDTEXTSTYLE0
 11
6.123233995736766E-17
 21
1.0
 31
0.0
 73
     1
 44
1.0
  0
ENDBLK
  5
20E
330
20C
100
AcDbEntity
  8
0
100
AcDbBlockEnd
  0
BLOCK
  5
218
330
217
100
AcDbEntity
  8
0
100
AcDbBlockBegin
  2
_D_8
 70
     0
 10
0.0
 20
0.0
 30
0.0
  3
_D_8
  1

  0
SOLID
  5
21A
330
217
100
AcDbEntity
  8
SK2
100
AcDbTrace
 10
-54.5674486333
 20
-6.0
 30
0.0
 11
-54.0594486333
 21
-2.698
 31
0.0
 12
-55.0754486333
 22
-2.698
 32
0.0
 13
-55.0754486333
 23
-2.698
 33
0.0
  0
SOLID
  5
21B
330
217
100
AcDbEntity
  8
SK2
100
AcDbTrace
 10
-54.5674486333
 20
6.0
 30
0.0
 11
-55.0754486333
 21
2.698
 31
0.0
 12
-54.0594486333
 22
2.698
 32
0.0
 13
-54.0594486333
 23
2.698
 33
0.0
  0
LINE
  5
21C
330
217
100
AcDbEntity
  8
SK2
100
AcDbLine
 10
-41.7891560818
 20
-6.0
 30
0.0
 11
-55.5674486333
 21
-6.0
 31
0.0
  0
LINE
  5
21D
330
217
100
AcDbEntity
  8
SK2
100
AcDbLine
 10
-41.7891560818
 20
6.0
 30
0.0
 11
-55.5674486333
 21
6.0
 31
0.0
  0
LINE
  5
21E
330
217
100
AcDbEntity
  8
SK2
100
AcDbLine
 10
-54.5674486333
 20
-6.0
 30
0.0
 11
-54.5674486333
 21
6.0
 31
0.0
  0
MTEXT
  5
21F
330
217
100
AcDbEntity
  8
SK2
100
AcDbMText
 10
-59.0791855479
 20
-4.4956724207
 30
0.0
 40
3.5
 41
0.0
 71
     1
 72
     1
  1
M
  7
SLDTEXTSTYLE0
 11
-6.822150412718603E-15
 21
1.0
 31
0.0
 73
     1
 44
1.0
  0
MTEXT
  5
220
330
217
100
AcDbEntity
  8
SK2
100
AcDbMText
 10
-59.0791855479
 20
-0.2081724863
 30
0.0
 40
3.5
 41
0.0
 71
     1
 72
     1
  1
12
  7
SLDTEXTSTYLE0
 11
-6.822150412718603E-15
 21
1.0
 31
0.0
 73
     1
 44
1.0
  0
ENDBLK
  5
219
330
217
100
AcDbEntity
  8
0
100
AcDbBlockEnd
  0
ENDSEC
  0
SECTION
  2
ENTITIES
  0
LINE
  5
92
330
1F
100
AcDbEntity
  8
SK1
  6
SLD-Solid
370
    25
100
AcDbLine
 10
84.452084906
 20
-8.0
 30
0.0
 11
85.452084906
 21
-7.0
 31
0.0
  0
LINE
  5
93
330
1F
100
AcDbEntity
  8
SK1
  6
SLD-Solid
370
    25
100
AcDbLine
 10
85.452084906
 20
7.0
 30
0.0
 11
84.452084906
 21
8.0
 31
0.0
  0
LINE
  5
94
330
1F
100
AcDbEntity
  8
SK1
  6
SLD-Solid
370
    25
100
AcDbLine
 10
77.752084906
 20
-8.0
 30
0.0
 11
84.452084906
 21
-8.0
 31
0.0
  0
LINE
  5
95
330
1F
100
AcDbEntity
  8
SK1
  6
SLD-Solid
370
    25
100
AcDbLine
 10
84.452084906
 20
8.0
 30
0.0
 11
77.752084906
 21
8.0
 31
0.0
  0
LINE
  5
96
330
1F
100
AcDbEntity
  8
SK1
  6
SLD-Solid
370
    25
100
AcDbLine
 10
71.0
 20
-5.22
 30
0.0
 11
72.452084906
 21
-5.22
 31
0.0
  0
LINE
  5
97
330
1F
100
AcDbEntity
  8
SK1
  6
SLD-Solid
370
    25
100
AcDbLine
 10
72.452084906
 20
5.22
 30
0.0
 11
71.0
 21
5.22
 31
0.0
  0
LINE
  5
98
330
1F
100
AcDbEntity
  8
SK1
  6
SLD-Solid
370
    25
100
AcDbLine
 10
72.752084906
 20
17.0
 30
0.0
 11
72.452084906
 21
16.7
 31
0.0
  0
LINE
  5
99
330
1F
100
AcDbEntity
  8
SK1
  6
SLD-Solid
370
    25
100
AcDbLine
 10
72.452084906
 20
-16.7
 30
0.0
 11
72.752084906
 21
-17.0
 31
0.0
  0
LINE
  5
9A
330
1F
100
AcDbEntity
  8
SK1
  6
SLD-Solid
370
    25
100
AcDbLine
 10
76.452084906
 20
-17.0
 30
0.0
 11
77.452084906
 21
-16.0
 31
0.0
  0
LINE
  5
9B
330
1F
100
AcDbEntity
  8
SK1
  6
SLD-Solid
370
    25
100
AcDbLine
 10
77.452084906
 20
16.0
 30
0.0
 11
76.452084906
 21
17.0
 31
0.0
  0
LINE
  5
9C
330
1F
100
AcDbEntity
  8
SK1
  6
SLD-Solid
370
    25
100
AcDbLine
 10
72.752084906
 20
-17.0
 30
0.0
 11
76.452084906
 21
-17.0
 31
0.0
  0
LINE
  5
9D
330
1F
100
AcDbEntity
  8
SK1
  6
SLD-Solid
370
    25
100
AcDbLine
 10
76.452084906
 20
17.0
 30
0.0
 11
72.752084906
 21
17.0
 31
0.0
  0
LINE
  5
9E
330
1F
100
AcDbEntity
  8
1
  6
SLD-Solid
370
    25
100
AcDbLine
 10
35.6
 20
-24.0
 30
0.0
 11
37.0
 21
-24.0
 31
0.0
  0
LINE
  5
9F
330
1F
100
AcDbEntity
  8
1
  6
SLD-Solid
370
    25
100
AcDbLine
 10
37.0
 20
24.0
 30
0.0
 11
35.6
 21
24.0
 31
0.0
  0
LINE
  5
A0
330
1F
100
AcDbEntity
  8
1
  6
SLD-Solid
370
    25
100
AcDbLine
 10
19.8746494411
 20
-22.99
 30
0.0
 11
21.35
 21
-22.99
 31
0.0
  0
LINE
  5
A1
330
1F
100
AcDbEntity
  8
1
  6
SLD-Solid
370
    25
100
AcDbLine
 10
21.35
 20
22.99
 30
0.0
 11
19.874649423
 21
22.99
 31
0.0
  0
LINE
  5
A2
330
1F
100
AcDbEntity
  8
1
  6
SLD-Solid
370
    25
100
AcDbLine
 10
23.1
 20
-21.0
 30
0.0
 11
33.6
 21
-21.0
 31
0.0
  0
LINE
  5
A3
330
1F
100
AcDbEntity
  8
1
  6
SLD-Solid
370
    25
100
AcDbLine
 10
33.6
 20
21.0
 30
0.0
 11
23.1
 21
21.0
 31
0.0
  0
LINE
  5
A4
330
1F
100
AcDbEntity
  8
1
  6
SLD-Solid
370
    25
100
AcDbLine
 10
0.2
 20
-15.875
 30
0.0
 11
0.8619053906
 21
-15.5663484474
 31
0.0
  0
LINE
  5
A5
330
1F
100
AcDbEntity
  8
1
  6
SLD-Solid
370
    25
100
AcDbLine
 10
0.8619053906
 20
15.5663484474
 30
0.0
 11
0.2
 21
15.875
 31
0.0
  0
LINE
  5
A6
330
1F
100
AcDbEntity
  8
SK1
  6
SLD-Solid
370
    25
100
AcDbLine
 10
0.0
 20
15.875
 30
0.0
 11
-48.0791191833
 21
8.8629194779
 31
0.0
  0
LINE
  5
A7
330
1F
100
AcDbEntity
  8
SK1
  6
SLD-Solid
370
    25
100
AcDbLine
 10
-48.0791191833
 20
-8.8629194779
 30
0.0
 11
0.0
 21
-15.875
 31
0.0
  0
LINE
  5
A8
330
1F
100
AcDbEntity
  8
1
  6
SLD-Solid
370
    25
100
AcDbLine
 10
0.0
 20
-15.875
 30
0.0
 11
0.2
 21
-15.875
 31
0.0
  0
LINE
  5
A9
330
1F
100
AcDbEntity
  8
1
  6
SLD-Solid
370
    25
100
AcDbLine
 10
0.2
 20
15.875
 30
0.0
 11
0.0
 21
15.875
 31
0.0
  0
LINE
  5
AA
330
1F
100
AcDbEntity
  8
SK1
  6
SLD-Solid
370
    25
100
AcDbLine
 10
39.3455452618
 20
-13.5
 30
0.0
 11
68.0
 21
-13.5
 31
0.0
  0
LINE
  5
AB
330
1F
100
AcDbEntity
  8
SK1
  6
SLD-Solid
370
    25
100
AcDbLine
 10
42.9122984083
 20
13.5
 30
0.0
 11
39.3455452618
 21
13.5
 31
0.0
  0
LINE
  5
AC
330
1F
100
AcDbEntity
  8
SK1
  6
SLD-Solid
370
    25
100
AcDbLine
 10
68.0
 20
-13.5
 30
0.0
 11
71.0
 21
-12.9710190579
 31
0.0
  0
LINE
  5
AD
330
1F
100
AcDbEntity
  8
SK1
  6
SLD-Solid
370
    25
100
AcDbLine
 10
71.0
 20
12.9710190579
 30
0.0
 11
68.0
 21
13.5
 31
0.0
  0
LINE
  5
AE
330
1F
100
AcDbEntity
  8
SK1
  6
SLD-Solid
370
    25
100
AcDbLine
 10
39.3455452618
 20
13.5
 30
0.0
 11
38.6605646396
 21
13.2840264394
 31
0.0
  0
LINE
  5
AF
330
1F
100
AcDbEntity
  8
SK1
  6
SLD-Solid
370
    25
100
AcDbLine
 10
38.6605646396
 20
-13.2840264394
 30
0.0
 11
39.3455452618
 21
-13.5
 31
0.0
  0
LINE
  5
B0
330
1F
100
AcDbEntity
  8
SK1
  6
SLD-Solid
370
    25
100
AcDbLine
 10
84.452084906
 20
-8.0
 30
0.0
 11
84.452084906
 21
8.0
 31
0.0
  0
LINE
  5
B1
330
1F
100
AcDbEntity
  8
SK1
  6
SLD-Solid
370
    25
100
AcDbLine
 10
85.452084906
 20
7.0
 30
0.0
 11
85.452084906
 21
-7.0
 31
0.0
  0
LINE
  5
B2
330
1F
100
AcDbEntity
  8
SK1
  6
SLD-Solid
370
    25
100
AcDbLine
 10
72.452084906
 20
1.3599478722
 30
0.0
 11
72.452084906
 21
16.7
 31
0.0
  0
LINE
  5
B3
330
1F
100
AcDbEntity
  8
SK1
  6
SLD-Solid
370
    25
100
AcDbLine
 10
72.452084906
 20
-16.7
 30
0.0
 11
72.452084906
 21
1.3599478722
 31
0.0
  0
LINE
  5
B4
330
1F
100
AcDbEntity
  8
SK1
  6
SLD-Solid
370
    25
100
AcDbLine
 10
72.752084906
 20
1.3843780735
 30
0.0
 11
72.752084906
 21
-17.0
 31
0.0
  0
LINE
  5
B5
330
1F
100
AcDbEntity
  8
SK1
  6
SLD-Solid
370
    25
100
AcDbLine
 10
72.752084906
 20
17.0
 30
0.0
 11
72.752084906
 21
1.3843780735
 31
0.0
  0
LINE
  5
B6
330
1F
100
AcDbEntity
  8
SK1
  6
SLD-Solid
370
    25
100
AcDbLine
 10
77.452084906
 20
-16.0
 30
0.0
 11
77.452084906
 21
16.0
 31
0.0
  0
LINE
  5
B7
330
1F
100
AcDbEntity
  8
SK1
  6
SLD-Solid
370
    25
100
AcDbLine
 10
76.452084906
 20
-17.0
 30
0.0
 11
76.452084906
 21
17.0
 31
0.0
  0
LINE
  5
B8
330
1F
100
AcDbEntity
  8
1
  6
SLD-Solid
370
    25
100
AcDbLine
 10
34.6
 20
-23.0
 30
0.0
 11
34.6
 21
-6.05
 31
0.0
  0
LINE
  5
B9
330
1F
100
AcDbEntity
  8
1
  6
SLD-Solid
370
    25
100
AcDbLine
 10
38.0
 20
23.0
 30
0.0
 11
38.0
 21
6.05
 31
0.0
  0
LINE
  5
BA
330
1F
100
AcDbEntity
  8
1
  6
SLD-Solid
370
    25
100
AcDbLine
 10
38.0
 20
-6.05
 30
0.0
 11
38.0
 21
-23.0
 31
0.0
  0
LINE
  5
BB
330
1F
100
AcDbEntity
  8
1
  6
SLD-Solid
370
    25
100
AcDbLine
 10
34.6
 20
6.05
 30
0.0
 11
34.6
 21
23.0
 31
0.0
  0
LINE
  5
BC
330
1F
100
AcDbEntity
  8
1
  6
SLD-Solid
370
    25
100
AcDbLine
 10
37.0
 20
-6.05
 30
0.0
 11
35.6
 21
-6.05
 31
0.0
  0
LINE
  5
BD
330
1F
100
AcDbEntity
  8
1
  6
SLD-Solid
370
    25
100
AcDbLine
 10
35.6
 20
6.05
 30
0.0
 11
37.0
 21
6.05
 31
0.0
  0
LINE
  5
BE
330
1F
100
AcDbEntity
  8
1
  6
SLD-Solid
370
    25
100
AcDbLine
 10
17.6270180319
 20
-22.2347719471
 30
0.0
 11
17.6270181276
 21
22.2347719748
 31
0.0
  0
LINE
  5
BF
330
1F
100
AcDbEntity
  8
1
  6
SLD-Solid
370
    25
100
AcDbLine
 10
17.3742823051
 20
-21.8788932612
 30
0.0
 11
17.6270180319
 21
-22.2347719471
 31
0.0
  0
LINE
  5
C0
330
1F
100
AcDbEntity
  8
1
  6
SLD-Solid
370
    25
100
AcDbLine
 10
15.6
 20
-18.2061912473
 30
0.0
 11
15.6
 21
18.2061912473
 31
0.0
  0
LINE
  5
C1
330
1F
100
AcDbEntity
  8
1
  6
SLD-Solid
370
    25
100
AcDbLine
 10
17.6270181276
 20
22.2347719748
 30
0.0
 11
17.3742822791
 21
21.8788932261
 31
0.0
  0
LINE
  5
C2
330
1F
100
AcDbEntity
  8
1
  6
SLD-Solid
370
    25
100
AcDbLine
 10
2.75
 20
-21.3146126652
 30
0.0
 11
9.5729818724
 21
-21.3146126652
 31
0.0
  0
LINE
  5
C3
330
1F
100
AcDbEntity
  8
1
  6
SLD-Solid
370
    25
100
AcDbLine
 10
9.5729818724
 20
21.3146126652
 30
0.0
 11
2.75
 21
21.3146126652
 31
0.0
  0
LINE
  5
C4
330
1F
100
AcDbEntity
  8
1
  6
SLD-Solid
370
    25
100
AcDbLine
 10
9.5729818724
 20
-21.3146126652
 30
0.0
 11
9.5729818724
 21
21.3146126652
 31
0.0
  0
LINE
  5
C5
330
1F
100
AcDbEntity
  8
1
  6
SLD-Solid
370
    25
100
AcDbLine
 10
2.0
 20
-20.5619059185
 30
0.0
 11
2.0
 21
20.5619059185
 31
0.0
  0
LINE
  5
C6
330
1F
100
AcDbEntity
  8
1
  6
SLD-Solid
370
    25
100
AcDbLine
 10
22.1
 20
22.24
 30
0.0
 11
22.1
 21
-22.24
 31
0.0
  0
LINE
  5
C7
330
1F
100
AcDbEntity
  8
1
  6
SLD-Solid
370
    25
100
AcDbLine
 10
11.6
 20
-17.7162467733
 30
0.0
 11
11.6
 21
17.7162467733
 31
0.0
  0
LINE
  5
C8
330
1F
100
AcDbEntity
  8
1
  6
SLD-Solid
370
    25
100
AcDbLine
 10
31.3
 20
6.05
 30
0.0
 11
33.6
 21
6.05
 31
0.0
  0
LINE
  5
C9
330
1F
100
AcDbEntity
  8
1
  6
SLD-Solid
370
    25
100
AcDbLine
 10
33.6
 20
-6.05
 30
0.0
 11
31.3
 21
-6.05
 31
0.0
  0
LINE
  5
CA
330
1F
100
AcDbEntity
  8
1
  6
SLD-Solid
370
    25
100
AcDbLine
 10
0.0
 20
-15.875
 30
0.0
 11
0.0
 21
15.875
 31
0.0
  0
LINE
  5
CB
330
1F
100
AcDbEntity
  8
1
  6
SLD-Solid
370
    25
100
AcDbLine
 10
38.0
 20
-5.9842918612
 30
0.0
 11
38.0
 21
-6.05
 31
0.0
  0
LINE
  5
CC
330
1F
100
AcDbEntity
  8
1
  6
SLD-Solid
370
    25
100
AcDbLine
 10
38.0
 20
6.05
 30
0.0
 11
38.0
 21
5.9842918612
 31
0.0
  0
LINE
  5
CD
330
1F
100
AcDbEntity
  8
SK1
  6
SLD-Solid
370
    25
100
AcDbLine
 10
39.3455452618
 20
-13.5
 30
0.0
 11
39.3455452618
 21
13.5
 31
0.0
  0
LINE
  5
CE
330
1F
100
AcDbEntity
  8
SK1
  6
SLD-Solid
370
    25
100
AcDbLine
 10
68.0
 20
-13.5
 30
0.0
 11
68.0
 21
13.5
 31
0.0
  0
LINE
  5
CF
330
1F
100
AcDbEntity
  8
SK1
  6
SLD-Solid
370
    25
100
AcDbLine
 10
64.49375
 20
13.0367254684
 30
0.0
 11
46.40625
 21
13.0367254684
 31
0.0
  0
LINE
  5
D0
330
1F
100
AcDbEntity
  8
SK1
  6
SLD-Solid
370
    25
100
AcDbLine
 10
71.0
 20
-12.9710190579
 30
0.0
 11
71.0
 21
12.9710190579
 31
0.0
  0
LINE
  5
D1
330
1F
100
AcDbEntity
  8
SK1
  6
SLD-Solid
370
    25
100
AcDbLine
 10
-48.4
 20
0.0
 30
0.0
 11
-48.4
 21
8.4918452077
 31
0.0
  0
LINE
  5
D2
330
1F
100
AcDbEntity
  8
SK1
  6
SLD-Solid
370
    25
100
AcDbLine
 10
-48.4
 20
-8.4918452077
 30
0.0
 11
-48.4
 21
0.0
 31
0.0
  0
LINE
  5
D3
330
1F
100
AcDbEntity
  8
1
  6
SLD-Solid
370
    25
100
AcDbLine
 10
17.6270180319
 20
-22.2347719471
 30
0.0
 11
17.3742823051
 21
-21.8788932612
 31
0.0
  0
LINE
  5
D4
330
1F
100
AcDbEntity
  8
1
  6
SLD-Solid
370
    25
100
AcDbLine
 10
17.3742822791
 20
21.8788932261
 30
0.0
 11
17.6270181276
 21
22.2347719748
 31
0.0
  0
LINE
  5
D5
330
1F
100
AcDbEntity
  8
SK1
  6
SLD-Solid
370
    25
100
AcDbLine
 10
77.752084906
 20
-0.346899089
 30
0.0
 11
77.752084906
 21
-8.0
 31
0.0
  0
LINE
  5
D6
330
1F
100
AcDbEntity
  8
SK1
  6
SLD-Solid
370
    25
100
AcDbLine
 10
77.752084906
 20
8.0
 30
0.0
 11
77.752084906
 21
-0.346899089
 31
0.0
  0
LINE
  5
D7
330
1F
100
AcDbEntity
  8
SK1
  6
SLD-Solid
370
    25
100
AcDbLine
 10
38.6605646396
 20
-13.2840264394
 30
0.0
 11
38.6605646396
 21
13.2840264394
 31
0.0
  0
LINE
  5
D8
330
1F
100
AcDbEntity
  8
SK1
  6
SLD-Dashed
370
    18
100
AcDbLine
 10
46.40625
 20
13.0367254684
 30
0.0
 11
64.49375
 21
13.0367254684
 31
0.0
  0
LINE
  5
D9
330
1F
100
AcDbEntity
  8
SK3
  6
SLD-Dashed
370
    18
100
AcDbLine
 10
11.4
 20
-16.15
 30
0.0
 11
19.125
 21
-16.15
 31
0.0
  0
LINE
  5
DA
330
1F
100
AcDbEntity
  8
1
  6
SLD-Dashed
370
    18
100
AcDbLine
 10
15.6
 20
-18.2061912473
 30
0.0
 11
15.6
 21
-17.9608602244
 31
0.0
  0
LINE
  5
DB
330
1F
100
AcDbEntity
  8
1
  6
SLD-Dashed
370
    18
100
AcDbLine
 10
11.6
 20
-17.4640344709
 30
0.0
 11
11.6
 21
-17.7162467733
 31
0.0
  0
LINE
  5
DC
330
1F
100
AcDbEntity
  8
1
  6
SLD-Dashed
370
    18
100
AcDbLine
 10
11.6
 20
17.4640344709
 30
0.0
 11
11.6
 21
17.7162467733
 31
0.0
  0
LINE
  5
DD
330
1F
100
AcDbEntity
  8
1
  6
SLD-Dashed
370
    18
100
AcDbLine
 10
15.6
 20
18.2061912473
 30
0.0
 11
15.6
 21
17.9608602244
 31
0.0
  0
LINE
  5
DE
330
1F
100
AcDbEntity
  8
SK3
  6
SLD-Dashed
370
    18
100
AcDbLine
 10
11.4
 20
16.15
 30
0.0
 11
19.125
 21
16.15
 31
0.0
  0
LINE
  5
DF
330
1F
100
AcDbEntity
  8
SK3
  6
SLD-Dashed
370
    18
100
AcDbLine
 10
2.375
 20
16.15
 30
0.0
 11
11.4
 21
16.15
 31
0.0
  0
LINE
  5
E0
330
1F
100
AcDbEntity
  8
SK3
  6
SLD-Dashed
370
    18
100
AcDbLine
 10
11.4
 20
-16.15
 30
0.0
 11
2.375
 21
-16.15
 31
0.0
  0
LINE
  5
E1
330
1F
100
AcDbEntity
  8
SK3
  6
SLD-Dashed
370
    18
100
AcDbLine
 10
69.0
 20
6.5
 30
0.0
 11
69.0
 21
-6.5
 31
0.0
  0
LINE
  5
E2
330
1F
100
AcDbEntity
  8
SK3
  6
SLD-Dashed
370
    18
100
AcDbLine
 10
71.0
 20
7.6513388734
 30
0.0
 11
71.0
 21
-7.6513388734
 31
0.0
  0
LINE
  5
E3
330
1F
100
AcDbEntity
  8
SK3
  6
SLD-Dashed
370
    18
100
AcDbLine
 10
-47.2
 20
6.2565
 30
0.0
 11
-47.2
 21
-6.2565
 31
0.0
  0
LINE
  5
E4
330
1F
100
AcDbEntity
  8
SK3
  6
SLD-Dashed
370
    18
100
AcDbLine
 10
-48.4
 20
6.9460243974
 30
0.0
 11
-48.4
 21
-6.9460243974
 31
0.0
  0
LINE
  5
E5
330
1F
100
AcDbEntity
  8
SK3
  6
SLD-Dashed
370
    18
100
AcDbLine
 10
-41.15
 20
6.625
 30
0.0
 11
-41.15
 21
-6.625
 31
0.0
  0
LINE
  5
E6
330
1F
100
AcDbEntity
  8
SK3
  6
SLD-Dashed
370
    18
100
AcDbLine
 10
-40.2695408395
 20
-5.1
 30
0.0
 11
-40.2695408395
 21
5.1
 31
0.0
  0
LINE
  5
E7
330
1F
100
AcDbEntity
  8
SK3
  6
SLD-Dashed
370
    18
100
AcDbLine
 10
-43.15
 20
6.625
 30
0.0
 11
-43.15
 21
-6.625
 31
0.0
  0
LINE
  5
E8
330
1F
100
AcDbEntity
  8
SK3
  6
SLD-Dashed
370
    18
100
AcDbLine
 10
-43.7882607226
 20
6.2565
 30
0.0
 11
-43.7882607226
 21
-6.2565
 31
0.0
  0
LINE
  5
E9
330
1F
100
AcDbEntity
  8
SK3
  6
SLD-Dashed
370
    18
100
AcDbLine
 10
65.5
 20
6.5
 30
0.0
 11
65.5
 21
-6.5
 31
0.0
  0
LINE
  5
EA
330
1F
100
AcDbEntity
  8
SK3
  6
SLD-Dashed
370
    18
100
AcDbLine
 10
64.6588251764
 20
-5.10005
 30
0.0
 11
64.6588251764
 21
5.10005
 31
0.0
  0
LINE
  5
EB
330
1F
100
AcDbEntity
  8
SK3
  6
SLD-Dashed
370
    18
100
AcDbLine
 10
6.3
 20
-11.45
 30
0.0
 11
15.7
 21
-11.45
 31
0.0
  0
LINE
  5
EC
330
1F
100
AcDbEntity
  8
SK3
  6
SLD-Dashed
370
    18
100
AcDbLine
 10
6.0
 20
-16.15
 30
0.0
 11
15.9866614183
 21
-16.15
 31
0.0
  0
LINE
  5
ED
330
1F
100
AcDbEntity
  8
SK3
  6
SLD-Dashed
370
    18
100
AcDbLine
 10
64.49375
 20
13.0367254684
 30
0.0
 11
64.49375
 21
8.6
 31
0.0
  0
LINE
  5
EE
330
1F
100
AcDbEntity
  8
SK3
  6
SLD-Dashed
370
    18
100
AcDbLine
 10
46.40625
 20
8.4
 30
0.0
 11
64.49375
 21
8.4
 31
0.0
  0
LINE
  5
EF
330
1F
100
AcDbEntity
  8
SK3
  6
SLD-Dashed
370
    18
100
AcDbLine
 10
46.40625
 20
8.4
 30
0.0
 11
46.40625
 21
8.6
 31
0.0
  0
LINE
  5
F0
330
1F
100
AcDbEntity
  8
SK3
  6
SLD-Dashed
370
    18
100
AcDbLine
 10
64.49375
 20
8.4
 30
0.0
 11
67.8
 21
8.4
 31
0.0
  0
LINE
  5
F1
330
1F
100
AcDbEntity
  8
SK3
  6
SLD-Dashed
370
    18
100
AcDbLine
 10
64.49375
 20
8.6
 30
0.0
 11
64.49375
 21
8.4
 31
0.0
  0
LINE
  5
F2
330
1F
100
AcDbEntity
  8
SK3
  6
SLD-Dashed
370
    18
100
AcDbLine
 10
46.40625
 20
13.0367254684
 30
0.0
 11
46.40625
 21
8.6
 31
0.0
  0
LINE
  5
F3
330
1F
100
AcDbEntity
  8
SK3
  6
SLD-Dashed
370
    18
100
AcDbLine
 10
46.40625
 20
8.6
 30
0.0
 11
46.40625
 21
8.4
 31
0.0
  0
LINE
  5
F4
330
1F
100
AcDbEntity
  8
SK3
  6
SLD-Dashed
370
    18
100
AcDbLine
 10
46.40625
 20
8.4
 30
0.0
 11
43.1
 21
8.4
 31
0.0
  0
LINE
  5
F5
330
1F
100
AcDbEntity
  8
SK3
  6
SLD-Dashed
370
    18
100
AcDbLine
 10
2.375
 20
16.525
 30
0.0
 11
2.375
 21
16.15
 31
0.0
  0
LINE
  5
F6
330
1F
100
AcDbEntity
  8
SK3
  6
SLD-Dashed
370
    18
100
AcDbLine
 10
2.375
 20
20.5619059185
 30
0.0
 11
2.375
 21
16.525
 31
0.0
  0
LINE
  5
F7
330
1F
100
AcDbEntity
  8
SK3
  6
SLD-Dashed
370
    18
100
AcDbLine
 10
9.869071747
 20
20.9669406447
 30
0.0
 11
2.75
 21
20.9669406447
 31
0.0
  0
LINE
  5
F8
330
1F
100
AcDbEntity
  8
1
  6
SLD-Dashed
370
    18
100
AcDbLine
 10
2.75
 20
21.3146126652
 30
0.0
 11
9.5729818724
 21
21.3146126652
 31
0.0
  0
LINE
  5
F9
330
1F
100
AcDbEntity
  8
SK3
  6
SLD-Dashed
370
    18
100
AcDbLine
 10
2.0
 20
15.775
 30
0.0
 11
2.375
 21
16.15
 31
0.0
  0
LINE
  5
FA
330
1F
100
AcDbEntity
  8
SK3
  6
SLD-Dashed
370
    18
100
AcDbLine
 10
19.5
 20
-22.6151875392
 30
0.0
 11
19.5
 21
-16.525
 31
0.0
  0
LINE
  5
FB
330
1F
100
AcDbEntity
  8
SK3
  6
SLD-Dashed
370
    18
100
AcDbLine
 10
19.5
 20
16.525
 30
0.0
 11
19.5
 21
22.6152218738
 31
0.0
  0
LINE
  5
FC
330
1F
100
AcDbEntity
  8
SK3
  6
SLD-Dashed
370
    18
100
AcDbLine
 10
71.0
 20
7.6547005384
 30
0.0
 11
69.0
 21
6.5
 31
0.0
  0
LINE
  5
FD
330
1F
100
AcDbEntity
  8
SK3
  6
SLD-Dashed
370
    18
100
AcDbLine
 10
69.0
 20
-6.5
 30
0.0
 11
71.0
 21
-7.6547005384
 31
0.0
  0
LINE
  5
FE
330
1F
100
AcDbEntity
  8
SK3
  6
SLD-Dashed
370
    18
100
AcDbLine
 10
-48.4
 20
-6.949320323
 30
0.0
 11
-47.2
 21
-6.2565
 31
0.0
  0
LINE
  5
FF
330
1F
100
AcDbEntity
  8
SK3
  6
SLD-Dashed
370
    18
100
AcDbLine
 10
-47.2
 20
6.2565
 30
0.0
 11
-48.4
 21
6.949320323
 31
0.0
  0
LINE
  5
100
330
1F
100
AcDbEntity
  8
SK3
  6
SLD-Dashed
370
    18
100
AcDbLine
 10
-41.15
 20
-6.625
 30
0.0
 11
-40.2695408395
 21
-5.1
 31
0.0
  0
LINE
  5
101
330
1F
100
AcDbEntity
  8
SK3
  6
SLD-Dashed
370
    18
100
AcDbLine
 10
-40.2695408395
 20
5.1
 30
0.0
 11
-41.15
 21
6.625
 31
0.0
  0
LINE
  5
102
330
1F
100
AcDbEntity
  8
SK3
  6
SLD-Dashed
370
    18
100
AcDbLine
 10
-41.15
 20
6.625
 30
0.0
 11
-43.15
 21
6.625
 31
0.0
  0
LINE
  5
103
330
1F
100
AcDbEntity
  8
SK3
  6
SLD-Dashed
370
    18
100
AcDbLine
 10
-43.15
 20
-6.625
 30
0.0
 11
-41.15
 21
-6.625
 31
0.0
  0
LINE
  5
104
330
1F
100
AcDbEntity
  8
SK3
  6
SLD-Dashed
370
    18
100
AcDbLine
 10
-43.15
 20
6.625
 30
0.0
 11
-43.7882607226
 21
6.2565
 31
0.0
  0
LINE
  5
105
330
1F
100
AcDbEntity
  8
SK3
  6
SLD-Dashed
370
    18
100
AcDbLine
 10
-43.7882607226
 20
-6.2565
 30
0.0
 11
-43.15
 21
-6.625
 31
0.0
  0
LINE
  5
106
330
1F
100
AcDbEntity
  8
SK3
  6
SLD-Dashed
370
    18
100
AcDbLine
 10
69.0
 20
6.5
 30
0.0
 11
65.5
 21
6.5
 31
0.0
  0
LINE
  5
107
330
1F
100
AcDbEntity
  8
SK3
  6
SLD-Dashed
370
    18
100
AcDbLine
 10
65.5
 20
-6.5
 30
0.0
 11
69.0
 21
-6.5
 31
0.0
  0
LINE
  5
108
330
1F
100
AcDbEntity
  8
SK3
  6
SLD-Dashed
370
    18
100
AcDbLine
 10
65.5
 20
6.5
 30
0.0
 11
64.6588251764
 21
5.10005
 31
0.0
  0
LINE
  5
109
330
1F
100
AcDbEntity
  8
SK3
  6
SLD-Dashed
370
    18
100
AcDbLine
 10
64.6588251764
 20
-5.10005
 30
0.0
 11
65.5
 21
-6.5
 31
0.0
  0
LINE
  5
10A
330
1F
100
AcDbEntity
  8
SK3
  6
SLD-Dashed
370
    18
100
AcDbLine
 10
-43.7882607226
 20
6.2565
 30
0.0
 11
-47.2
 21
6.2565
 31
0.0
  0
LINE
  5
10B
330
1F
100
AcDbEntity
  8
SK3
  6
SLD-Dashed
370
    18
100
AcDbLine
 10
-47.2
 20
-6.2565
 30
0.0
 11
-43.7882607226
 21
-6.2565
 31
0.0
  0
LINE
  5
10C
330
1F
100
AcDbEntity
  8
SK3
  6
SLD-Dashed
370
    18
100
AcDbLine
 10
19.5000000002
 20
22.6150000193
 30
0.0
 11
19.8749999617
 21
22.99
 31
0.0
  0
LINE
  5
10D
330
1F
100
AcDbEntity
  8
SK3
  6
SLD-Dashed
370
    18
100
AcDbLine
 10
64.6588251764
 20
5.10005
 30
0.0
 11
11.0
 21
5.10005
 31
0.0
  0
LINE
  5
10E
330
1F
100
AcDbEntity
  8
SK3
  6
SLD-Dashed
370
    18
100
AcDbLine
 10
11.0
 20
-5.10005
 30
0.0
 11
64.6588251764
 21
-5.10005
 31
0.0
  0
LINE
  5
10F
330
1F
100
AcDbEntity
  8
SK3
  6
SLD-Dashed
370
    18
100
AcDbLine
 10
-40.2695408395
 20
-5.1
 30
0.0
 11
10.999969957
 21
-5.1
 31
0.0
  0
LINE
  5
110
330
1F
100
AcDbEntity
  8
SK3
  6
SLD-Dashed
370
    18
100
AcDbLine
 10
10.999969957
 20
5.1
 30
0.0
 11
-40.2695408395
 21
5.1
 31
0.0
  0
LINE
  5
111
330
1F
100
AcDbEntity
  8
SK3
  6
SLD-Dashed
370
    18
100
AcDbLine
 10
16.0
 20
-16.15
 30
0.0
 11
16.0
 21
-11.75
 31
0.0
  0
LINE
  5
112
330
1F
100
AcDbEntity
  8
SK3
  6
SLD-Dashed
370
    18
100
AcDbLine
 10
6.0
 20
-11.75
 30
0.0
 11
6.0
 21
-16.15
 31
0.0
  0
LINE
  5
113
330
1F
100
AcDbEntity
  8
SK3
  6
SLD-Dashed
370
    18
100
AcDbLine
 10
68.0
 20
8.6
 30
0.0
 11
68.0
 21
13.5
 31
0.0
  0
LINE
  5
114
330
1F
100
AcDbEntity
  8
SK3
  6
SLD-Dashed
370
    18
100
AcDbLine
 10
42.9
 20
13.5
 30
0.0
 11
42.9
 21
8.6
 31
0.0
  0
LINE
  5
115
330
1F
100
AcDbEntity
  8
SK3
  6
SLD-Dashed
370
    18
100
AcDbLine
 10
2.0
 20
15.775
 30
0.0
 11
2.375
 21
16.15
 31
0.0
  0
LINE
  5
116
330
1F
100
AcDbEntity
  8
SK3
  6
SLD-Solid
370
    18
100
AcDbLine
 10
-23.4
 20
6.0
 30
0.0
 11
-40.7891560818
 21
6.0
 31
0.0
  0
LINE
  5
117
330
1F
100
AcDbEntity
  8
SK3
  6
SLD-Solid
370
    18
100
AcDbLine
 10
-40.7891560818
 20
-6.0
 30
0.0
 11
-23.4
 21
-6.0
 31
0.0
  0
LINE
  5
118
330
1F
100
AcDbEntity
  8
SK3
  6
SLD-Solid
370
    18
100
AcDbLine
 10
-23.4
 20
6.0
 30
0.0
 11
-23.4
 21
5.995133989
 31
0.0
  0
LINE
  5
119
330
1F
100
AcDbEntity
  8
SK3
  6
SLD-Solid
370
    18
100
AcDbLine
 10
-23.4
 20
5.995133989
 30
0.0
 11
-23.4
 21
5.8787439123
 31
0.0
  0
LINE
  5
11A
330
1F
100
AcDbEntity
  8
SK3
  6
SLD-Solid
370
    18
100
AcDbLine
 10
-23.4
 20
5.8787439123
 30
0.0
 11
-23.4
 21
5.6100974561
 31
0.0
  0
LINE
  5
11B
330
1F
100
AcDbEntity
  8
SK3
  6
SLD-Solid
370
    18
100
AcDbLine
 10
-23.4
 20
5.6100974561
 30
0.0
 11
-23.4
 21
5.1961524227
 31
0.0
  0
LINE
  5
11C
330
1F
100
AcDbEntity
  8
SK3
  6
SLD-Solid
370
    18
100
AcDbLine
 10
-23.4
 20
5.1961524227
 30
0.0
 11
-23.4
 21
4.647629771
 31
0.0
  0
LINE
  5
11D
330
1F
100
AcDbEntity
  8
SK3
  6
SLD-Solid
370
    18
100
AcDbLine
 10
-23.4
 20
4.647629771
 30
0.0
 11
-23.4
 21
3.9787359494
 31
0.0
  0
LINE
  5
11E
330
1F
100
AcDbEntity
  8
SK3
  6
SLD-Solid
370
    18
100
AcDbLine
 10
-23.4
 20
3.9787359494
 30
0.0
 11
-23.4
 21
3.2067949568
 31
0.0
  0
LINE
  5
11F
330
1F
100
AcDbEntity
  8
SK3
  6
SLD-Solid
370
    18
100
AcDbLine
 10
-23.4
 20
3.2067949568
 30
0.0
 11
-23.4
 21
2.3517996592
 31
0.0
  0
LINE
  5
120
330
1F
100
AcDbEntity
  8
SK3
  6
SLD-Solid
370
    18
100
AcDbLine
 10
-23.4
 20
2.3517996592
 30
0.0
 11
-23.4
 21
1.4358939857
 31
0.0
  0
LINE
  5
121
330
1F
100
AcDbEntity
  8
SK3
  6
SLD-Solid
370
    18
100
AcDbLine
 10
-23.4
 20
1.4358939857
 30
0.0
 11
-23.4
 21
0.4827994123
 31
0.0
  0
LINE
  5
122
330
1F
100
AcDbEntity
  8
SK3
  6
SLD-Solid
370
    18
100
AcDbLine
 10
-23.4
 20
0.4827994123
 30
0.0
 11
-23.4
 21
-0.4827994123
 31
0.0
  0
LINE
  5
123
330
1F
100
AcDbEntity
  8
SK3
  6
SLD-Solid
370
    18
100
AcDbLine
 10
-23.4
 20
-0.4827994123
 30
0.0
 11
-23.4
 21
-1.4358939857
 31
0.0
  0
LINE
  5
124
330
1F
100
AcDbEntity
  8
SK3
  6
SLD-Solid
370
    18
100
AcDbLine
 10
-23.4
 20
-1.4358939857
 30
0.0
 11
-23.4
 21
-2.3517996592
 31
0.0
  0
LINE
  5
125
330
1F
100
AcDbEntity
  8
SK3
  6
SLD-Solid
370
    18
100
AcDbLine
 10
-23.4
 20
-2.3517996592
 30
0.0
 11
-23.4
 21
-3.2067949568
 31
0.0
  0
LINE
  5
126
330
1F
100
AcDbEntity
  8
SK3
  6
SLD-Solid
370
    18
100
AcDbLine
 10
-23.4
 20
-3.2067949568
 30
0.0
 11
-23.4
 21
-3.9787359494
 31
0.0
  0
LINE
  5
127
330
1F
100
AcDbEntity
  8
SK3
  6
SLD-Solid
370
    18
100
AcDbLine
 10
-23.4
 20
-3.9787359494
 30
0.0
 11
-23.4
 21
-4.647629771
 31
0.0
  0
LINE
  5
128
330
1F
100
AcDbEntity
  8
SK3
  6
SLD-Solid
370
    18
100
AcDbLine
 10
-23.4
 20
-4.647629771
 30
0.0
 11
-23.4
 21
-5.1961524227
 31
0.0
  0
LINE
  5
129
330
1F
100
AcDbEntity
  8
SK3
  6
SLD-Solid
370
    18
100
AcDbLine
 10
-23.4
 20
-5.1961524227
 30
0.0
 11
-23.4
 21
-5.6100974561
 31
0.0
  0
LINE
  5
12A
330
1F
100
AcDbEntity
  8
SK3
  6
SLD-Solid
370
    18
100
AcDbLine
 10
-23.4
 20
-5.6100974561
 30
0.0
 11
-23.4
 21
-5.8787439123
 31
0.0
  0
LINE
  5
12B
330
1F
100
AcDbEntity
  8
SK3
  6
SLD-Solid
370
    18
100
AcDbLine
 10
-23.4
 20
-5.8787439123
 30
0.0
 11
-23.4
 21
-5.995133989
 31
0.0
  0
LINE
  5
12C
330
1F
100
AcDbEntity
  8
SK3
  6
SLD-Solid
370
    18
100
AcDbLine
 10
-23.4
 20
-5.995133989
 30
0.0
 11
-23.4
 21
-6.0
 31
0.0
  0
LINE
  5
12D
330
1F
100
AcDbEntity
  8
SK3
  6
SLD-Solid
370
    18
100
AcDbLine
 10
44.0
 20
-6.0
 30
0.0
 11
65.1995696905
 21
-6.0
 31
0.0
  0
LINE
  5
12E
330
1F
100
AcDbEntity
  8
SK3
  6
SLD-Solid
370
    18
100
AcDbLine
 10
65.1995696905
 20
6.0
 30
0.0
 11
44.0
 21
6.0
 31
0.0
  0
LINE
  5
12F
330
1F
100
AcDbEntity
  8
SK3
  6
SLD-Solid
370
    18
100
AcDbLine
 10
44.0
 20
-6.0
 30
0.0
 11
44.0
 21
-5.995133989
 31
0.0
  0
LINE
  5
130
330
1F
100
AcDbEntity
  8
SK3
  6
SLD-Solid
370
    18
100
AcDbLine
 10
43.9999521339
 20
-5.995133989
 30
0.0
 11
44.0
 21
-5.8787439123
 31
0.0
  0
LINE
  5
131
330
1F
100
AcDbEntity
  8
SK3
  6
SLD-Solid
370
    18
100
AcDbLine
 10
44.0
 20
-5.8787439123
 30
0.0
 11
44.0
 21
-5.6100974561
 31
0.0
  0
LINE
  5
132
330
1F
100
AcDbEntity
  8
SK3
  6
SLD-Solid
370
    18
100
AcDbLine
 10
44.0
 20
-5.6100974561
 30
0.0
 11
44.0
 21
-5.1961524227
 31
0.0
  0
LINE
  5
133
330
1F
100
AcDbEntity
  8
SK3
  6
SLD-Solid
370
    18
100
AcDbLine
 10
44.0
 20
-5.1961524227
 30
0.0
 11
44.0
 21
-4.647629771
 31
0.0
  0
LINE
  5
134
330
1F
100
AcDbEntity
  8
SK3
  6
SLD-Solid
370
    18
100
AcDbLine
 10
44.0
 20
-4.647629771
 30
0.0
 11
44.0
 21
-3.9787359494
 31
0.0
  0
LINE
  5
135
330
1F
100
AcDbEntity
  8
SK3
  6
SLD-Solid
370
    18
100
AcDbLine
 10
44.0
 20
-3.9787359494
 30
0.0
 11
44.0
 21
-3.2067949568
 31
0.0
  0
LINE
  5
136
330
1F
100
AcDbEntity
  8
SK3
  6
SLD-Solid
370
    18
100
AcDbLine
 10
44.0
 20
-3.2067949568
 30
0.0
 11
44.0
 21
-2.3517996592
 31
0.0
  0
LINE
  5
137
330
1F
100
AcDbEntity
  8
SK3
  6
SLD-Solid
370
    18
100
AcDbLine
 10
44.0
 20
-2.3517996592
 30
0.0
 11
44.0
 21
-1.4358939857
 31
0.0
  0
LINE
  5
138
330
1F
100
AcDbEntity
  8
SK3
  6
SLD-Solid
370
    18
100
AcDbLine
 10
44.0
 20
-1.4358939857
 30
0.0
 11
44.0
 21
-0.4827994123
 31
0.0
  0
LINE
  5
139
330
1F
100
AcDbEntity
  8
SK3
  6
SLD-Solid
370
    18
100
AcDbLine
 10
44.0
 20
-0.4827994123
 30
0.0
 11
44.0
 21
0.4827994123
 31
0.0
  0
LINE
  5
13A
330
1F
100
AcDbEntity
  8
SK3
  6
SLD-Solid
370
    18
100
AcDbLine
 10
44.0
 20
0.4827994123
 30
0.0
 11
44.0
 21
1.4358939857
 31
0.0
  0
LINE
  5
13B
330
1F
100
AcDbEntity
  8
SK3
  6
SLD-Solid
370
    18
100
AcDbLine
 10
44.0
 20
1.4358939857
 30
0.0
 11
44.0
 21
2.3517996592
 31
0.0
  0
LINE
  5
13C
330
1F
100
AcDbEntity
  8
SK3
  6
SLD-Solid
370
    18
100
AcDbLine
 10
44.0
 20
2.3517996592
 30
0.0
 11
44.0
 21
3.2067949568
 31
0.0
  0
LINE
  5
13D
330
1F
100
AcDbEntity
  8
SK3
  6
SLD-Solid
370
    18
100
AcDbLine
 10
44.0
 20
3.2067949568
 30
0.0
 11
44.0
 21
3.9787359494
 31
0.0
  0
LINE
  5
13E
330
1F
100
AcDbEntity
  8
SK3
  6
SLD-Solid
370
    18
100
AcDbLine
 10
44.0
 20
3.9787359494
 30
0.0
 11
44.0
 21
4.647629771
 31
0.0
  0
LINE
  5
13F
330
1F
100
AcDbEntity
  8
SK3
  6
SLD-Solid
370
    18
100
AcDbLine
 10
44.0
 20
4.647629771
 30
0.0
 11
44.0
 21
5.1961524227
 31
0.0
  0
LINE
  5
140
330
1F
100
AcDbEntity
  8
SK3
  6
SLD-Solid
370
    18
100
AcDbLine
 10
44.0
 20
5.1961524227
 30
0.0
 11
44.0
 21
5.6100974561
 31
0.0
  0
LINE
  5
141
330
1F
100
AcDbEntity
  8
SK3
  6
SLD-Solid
370
    18
100
AcDbLine
 10
44.0
 20
5.6100974561
 30
0.0
 11
44.0
 21
5.8787439123
 31
0.0
  0
LINE
  5
142
330
1F
100
AcDbEntity
  8
SK3
  6
SLD-Solid
370
    18
100
AcDbLine
 10
44.0
 20
5.8787439123
 30
0.0
 11
44.0
 21
5.995133989
 31
0.0
  0
LINE
  5
143
330
1F
100
AcDbEntity
  8
SK3
  6
SLD-Solid
370
    18
100
AcDbLine
 10
44.0
 20
5.995133989
 30
0.0
 11
44.0
 21
6.0
 31
0.0
  0
LINE
  5
144
330
1F
100
AcDbEntity
  8
SK1
  6
SLD-Solid
370
    18
100
AcDbLine
 10
72.452084906
 20
4.25
 30
0.0
 11
71.0
 21
4.25
 31
0.0
  0
LINE
  5
145
330
1F
100
AcDbEntity
  8
SK1
  6
SLD-Solid
370
    18
100
AcDbLine
 10
71.0
 20
-4.25
 30
0.0
 11
72.452084906
 21
-4.25
 31
0.0
  0
LINE
  5
146
330
1F
100
AcDbEntity
  8
4
  6
SLD-Center
370
    18
100
AcDbLine
 10
0.3298449396
 20
0.0
 30
0.0
 11
71.0
 21
0.0
 31
0.0
  0
LINE
  5
147
330
1F
100
AcDbEntity
  8
SK4
  6
SLD-Center
370
    18
100
AcDbLine
 10
71.9946289381
 20
0.0
 30
0.0
 11
-49.2
 21
0.0
 31
0.0
  0
ARC
  5
148
330
1F
100
AcDbEntity
  8
SK1
  6
SLD-Solid
370
    25
100
AcDbCircle
 10
77.752084906
 20
7.7
 30
0.0
 40
0.3000000000000016
100
AcDbArc
 50
90.0
 51
180.0
  0
ARC
  5
149
330
1F
100
AcDbEntity
  8
SK1
  6
SLD-Solid
370
    25
100
AcDbCircle
 10
77.752084906
 20
-7.7
 30
0.0
 40
0.299999999999998
100
AcDbArc
 50
180.0
 51
270.0
  0
ARC
  5
14A
330
1F
100
AcDbEntity
  8
1
  6
SLD-Solid
370
    25
100
AcDbCircle
 10
35.6
 20
-23.0
 30
0.0
 40
1.0
100
AcDbArc
 50
180.0
 51
270.0
  0
ARC
  5
14B
330
1F
100
AcDbEntity
  8
1
  6
SLD-Solid
370
    25
100
AcDbCircle
 10
37.0
 20
23.0
 30
0.0
 40
1.0
100
AcDbArc
 50
0.0
 51
90.0
  0
ARC
  5
14C
330
1F
100
AcDbEntity
  8
1
  6
SLD-Solid
370
    25
100
AcDbCircle
 10
37.0
 20
-23.0
 30
0.0
 40
1.0
100
AcDbArc
 50
270.0
 51
0.0
  0
ARC
  5
14D
330
1F
100
AcDbEntity
  8
1
  6
SLD-Solid
370
    25
100
AcDbCircle
 10
35.6
 20
23.0
 30
0.0
 40
1.0
100
AcDbArc
 50
90.0
 51
180.0
  0
ARC
  5
14E
330
1F
100
AcDbEntity
  8
1
  6
SLD-Solid
370
    25
100
AcDbCircle
 10
21.35
 20
-22.24
 30
0.0
 40
0.7500000000000142
100
AcDbArc
 50
270.0
 51
0.0
  0
ARC
  5
14F
330
1F
100
AcDbEntity
  8
1
  6
SLD-Solid
370
    25
100
AcDbCircle
 10
21.35
 20
22.24
 30
0.0
 40
0.7500000000000142
100
AcDbArc
 50
0.0
 51
90.0
  0
ARC
  5
150
330
1F
100
AcDbEntity
  8
1
  6
SLD-Solid
370
    25
100
AcDbCircle
 10
23.1
 20
-22.0
 30
0.0
 40
1.000000000000014
100
AcDbArc
 50
90.0
 51
180.0
  0
ARC
  5
151
330
1F
100
AcDbEntity
  8
1
  6
SLD-Solid
370
    25
100
AcDbCircle
 10
23.1
 20
22.0
 30
0.0
 40
1.000000000000004
100
AcDbArc
 50
180.0
 51
270.0
  0
ARC
  5
152
330
1F
100
AcDbEntity
  8
1
  6
SLD-Solid
370
    25
100
AcDbCircle
 10
33.6
 20
-22.0
 30
0.0
 40
1.000000000000021
100
AcDbArc
 50
0.0
 51
90.0
  0
ARC
  5
153
330
1F
100
AcDbEntity
  8
1
  6
SLD-Solid
370
    25
100
AcDbCircle
 10
33.6
 20
22.0
 30
0.0
 40
1.000000000000007
100
AcDbArc
 50
270.0
 51
0.0
  0
ARC
  5
154
330
1F
100
AcDbEntity
  8
1
  6
SLD-Solid
370
    25
100
AcDbCircle
 10
1.2
 20
-16.291394677
 30
0.0
 40
0.8000000000000079
100
AcDbArc
 50
10.1826318988
 51
115.0
  0
ARC
  5
155
330
1F
100
AcDbEntity
  8
1
  6
SLD-Solid
370
    25
100
AcDbCircle
 10
1.2
 20
16.291394677
 30
0.0
 40
0.8000000000000049
100
AcDbArc
 50
245.0
 51
349.8284775697
  0
ARC
  5
156
330
1F
100
AcDbEntity
  8
SK1
  6
SLD-Solid
370
    25
100
AcDbCircle
 10
38.42
 20
-14.047
 30
0.0
 40
0.8000000000000068
100
AcDbArc
 50
72.5
 51
121.6682432535
  0
ARC
  5
157
330
1F
100
AcDbEntity
  8
SK1
  6
SLD-Solid
370
    25
100
AcDbCircle
 10
38.42
 20
14.047
 30
0.0
 40
0.800000000000011
100
AcDbArc
 50
238.3317567465
 51
287.5
  0
ARC
  5
158
330
1F
100
AcDbEntity
  8
SK1
  6
SLD-Solid
370
    25
100
AcDbCircle
 10
-48.025
 20
8.4918452077
 30
0.0
 40
0.375
100
AcDbArc
 50
98.2977777778
 51
180.0
  0
ARC
  5
159
330
1F
100
AcDbEntity
  8
SK1
  6
SLD-Solid
370
    25
100
AcDbCircle
 10
-48.025
 20
-8.4918452077
 30
0.0
 40
0.3750000000000019
100
AcDbArc
 50
180.0
 51
261.7022222222
  0
ARC
  5
15A
330
1F
100
AcDbEntity
  8
SK3
  6
SLD-Dashed
370
    18
100
AcDbCircle
 10
19.125
 20
16.525
 30
0.0
 40
0.3750000000000036
100
AcDbArc
 50
270.0
 51
0.0
  0
ARC
  5
15B
330
1F
100
AcDbEntity
  8
SK3
  6
SLD-Dashed
370
    18
100
AcDbCircle
 10
6.3
 20
-11.75
 30
0.0
 40
0.3000000000000043
100
AcDbArc
 50
90.0
 51
180.0
  0
ARC
  5
15C
330
1F
100
AcDbEntity
  8
SK3
  6
SLD-Dashed
370
    18
100
AcDbCircle
 10
15.7
 20
-11.75
 30
0.0
 40
0.3000000000000043
100
AcDbArc
 50
0.0
 51
90.0
  0
ARC
  5
15D
330
1F
100
AcDbEntity
  8
SK3
  6
SLD-Dashed
370
    18
100
AcDbCircle
 10
67.8
 20
8.6
 30
0.0
 40
0.1999999999999975
100
AcDbArc
 50
270.0
 51
0.0
  0
ARC
  5
15E
330
1F
100
AcDbEntity
  8
SK3
  6
SLD-Dashed
370
    18
100
AcDbCircle
 10
43.1
 20
8.6
 30
0.0
 40
0.1999999999999975
100
AcDbArc
 50
180.0
 51
270.0
  0
SPLINE
  5
15F
330
1F
100
AcDbEntity
  8
1
  6
SLD-Solid
370
    25
100
AcDbSpline
210
0.0
220
0.0
230
1.0
 70
    24
 71
     2
 72
     6
 73
     3
 74
     0
 42
0.000000001
 43
0.00000001
 40
0.0
 40
0.0
 40
0.0
 40
0.25
 40
0.25
 40
0.25
 10
34.60000000000002
 20
-6.050000000000003
 30
0.0
 10
34.62473184946235
 20
-6.050000000000003
 30
0.0
 10
34.67371745120941
 20
-6.050000000000003
 30
0.0
  0
SPLINE
  5
160
330
1F
100
AcDbEntity
  8
1
  6
SLD-Solid
370
    25
100
AcDbSpline
210
0.0
220
0.0
230
1.0
 70
    24
 71
     3
 72
     8
 73
     4
 74
     0
 42
0.000000001
 43
0.00000001
 40
0.25
 40
0.25
 40
0.25
 40
0.25
 40
0.5
 40
0.5
 40
0.5
 40
0.5
 10
34.67371745120941
 20
-6.050000000000003
 30
0.0
 10
34.72270305295647
 20
-6.050000000000003
 30
0.0
 10
34.79470934190641
 20
-6.050000000000003
 30
0.0
 10
34.8864745770311
 20
-6.050000000000003
 30
0.0
  0
SPLINE
  5
161
330
1F
100
AcDbEntity
  8
1
  6
SLD-Solid
370
    25
100
AcDbSpline
210
0.0
220
0.0
230
1.0
 70
    24
 71
     3
 72
     8
 73
     4
 74
     0
 42
0.000000001
 43
0.00000001
 40
0.5
 40
0.5
 40
0.5
 40
0.5
 40
0.75
 40
0.75
 40
0.75
 40
0.75
 10
34.8864745770311
 20
-6.050000000000003
 30
0.0
 10
34.97823981215582
 20
-6.050000000000003
 30
0.0
 10
35.08875036291785
 20
-6.050000000000003
 30
0.0
 10
35.21126711595483
 20
-6.050000000000003
 30
0.0
  0
SPLINE
  5
162
330
1F
100
AcDbEntity
  8
1
  6
SLD-Solid
370
    25
100
AcDbSpline
210
0.0
220
0.0
230
1.0
 70
    24
 71
     3
 72
     8
 73
     4
 74
     0
 42
0.000000001
 43
0.00000001
 40
0.75
 40
0.75
 40
0.75
 40
0.75
 40
1.0
 40
1.0
 40
1.0
 40
1.0
 10
35.21126711595483
 20
-6.050000000000003
 30
0.0
 10
35.33378386899184
 20
-6.050000000000003
 30
0.0
 10
35.46628104628932
 20
-6.050000000000003
 30
0.0
 10
35.60000000000002
 20
-6.050000000000003
 30
0.0
  0
SPLINE
  5
163
330
1F
100
AcDbEntity
  8
1
  6
SLD-Solid
370
    25
100
AcDbSpline
210
0.0
220
0.0
230
1.0
 70
    24
 71
     2
 72
     6
 73
     3
 74
     0
 42
0.000000001
 43
0.00000001
 40
0.0
 40
0.0
 40
0.0
 40
0.25
 40
0.25
 40
0.25
 10
38.00000000000001
 20
6.049999999999996
 30
0.0
 10
37.97507888026805
 20
6.049999999999996
 30
0.0
 10
37.92632603781725
 20
6.049999999999996
 30
0.0
  0
SPLINE
  5
164
330
1F
100
AcDbEntity
  8
1
  6
SLD-Solid
370
    25
100
AcDbSpline
210
0.0
220
0.0
230
1.0
 70
    24
 71
     3
 72
     8
 73
     4
 74
     0
 42
0.000000001
 43
0.00000001
 40
0.25
 40
0.25
 40
0.25
 40
0.25
 40
0.5
 40
0.5
 40
0.5
 40
0.5
 10
37.92632603781725
 20
6.049999999999996
 30
0.0
 10
37.87757319536642
 20
6.049999999999996
 30
0.0
 10
37.80514110982092
 20
6.049999999999996
 30
0.0
 10
37.71370055510989
 20
6.049999999999996
 30
0.0
  0
SPLINE
  5
165
330
1F
100
AcDbEntity
  8
1
  6
SLD-Solid
370
    25
100
AcDbSpline
210
0.0
220
0.0
230
1.0
 70
    24
 71
     3
 72
     8
 73
     4
 74
     0
 42
0.000000001
 43
0.00000001
 40
0.5
 40
0.5
 40
0.5
 40
0.5
 40
0.75
 40
0.75
 40
0.75
 40
0.75
 10
37.71370055510989
 20
6.049999999999996
 30
0.0
 10
37.62226000039887
 20
6.049999999999996
 30
0.0
 10
37.51139156877455
 20
6.050000000000003
 30
0.0
 10
37.38882125229596
 20
6.050000000000003
 30
0.0
  0
SPLINE
  5
166
330
1F
100
AcDbEntity
  8
1
  6
SLD-Solid
370
    25
100
AcDbSpline
210
0.0
220
0.0
230
1.0
 70
    24
 71
     3
 72
     8
 73
     4
 74
     0
 42
0.000000001
 43
0.00000001
 40
0.75
 40
0.75
 40
0.75
 40
0.75
 40
1.0
 40
1.0
 40
1.0
 40
1.0
 10
37.38882125229596
 20
6.050000000000003
 30
0.0
 10
37.26625093581738
 20
6.050000000000003
 30
0.0
 10
37.13438064102879
 20
6.050000000000003
 30
0.0
 10
37.00000000000001
 20
6.050000000000003
 30
0.0
  0
SPLINE
  5
167
330
1F
100
AcDbEntity
  8
1
  6
SLD-Solid
370
    25
100
AcDbSpline
210
0.0
220
0.0
230
1.0
 70
    24
 71
     3
 72
     8
 73
     4
 74
     0
 42
0.000000001
 43
0.00000001
 40
0.0
 40
0.0
 40
0.0
 40
0.0
 40
0.25
 40
0.25
 40
0.25
 40
0.25
 10
37.00000000000001
 20
-6.050000000000003
 30
0.0
 10
37.13256823317572
 20
-6.050000000000003
 30
0.0
 10
37.26794152417315
 20
-6.050000000000003
 30
0.0
 10
37.38979510393106
 20
-6.050000000000003
 30
0.0
  0
SPLINE
  5
168
330
1F
100
AcDbEntity
  8
1
  6
SLD-Solid
370
    25
100
AcDbSpline
210
0.0
220
0.0
230
1.0
 70
    24
 71
     3
 72
     8
 73
     4
 74
     0
 42
0.000000001
 43
0.00000001
 40
0.25
 40
0.25
 40
0.25
 40
0.25
 40
0.5
 40
0.5
 40
0.5
 40
0.5
 10
37.38979510393106
 20
-6.050000000000003
 30
0.0
 10
37.51164868368899
 20
-6.050000000000003
 30
0.0
 10
37.62278044820054
 20
-6.050000000000003
 30
0.0
 10
37.71400192174188
 20
-6.050000000000003
 30
0.0
  0
SPLINE
  5
169
330
1F
100
AcDbEntity
  8
1
  6
SLD-Solid
370
    25
100
AcDbSpline
210
0.0
220
0.0
230
1.0
 70
    24
 71
     3
 72
     8
 73
     4
 74
     0
 42
0.000000001
 43
0.00000001
 40
0.5
 40
0.5
 40
0.5
 40
0.5
 40
0.75
 40
0.75
 40
0.75
 40
0.75
 10
37.71400192174188
 20
-6.050000000000003
 30
0.0
 10
37.80522339528321
 20
-6.050000000000003
 30
0.0
 10
37.87801447874524
 20
-6.050000000000003
 30
0.0
 10
37.9264540561915
 20
-6.050000000000003
 30
0.0
  0
SPLINE
  5
16A
330
1F
100
AcDbEntity
  8
1
  6
SLD-Solid
370
    25
100
AcDbSpline
210
0.0
220
0.0
230
1.0
 70
    24
 71
     2
 72
     6
 73
     3
 74
     0
 42
0.000000001
 43
0.00000001
 40
0.75
 40
0.75
 40
0.75
 40
1.0
 40
1.0
 40
1.0
 10
37.9264540561915
 20
-6.050000000000003
 30
0.0
 10
37.97489363363778
 20
-6.050000000000003
 30
0.0
 10
38.00000000000004
 20
-6.050000000000003
 30
0.0
  0
SPLINE
  5
16B
330
1F
100
AcDbEntity
  8
1
  6
SLD-Solid
370
    25
100
AcDbSpline
210
0.0
220
0.0
230
1.0
 70
    24
 71
     3
 72
     8
 73
     4
 74
     0
 42
0.000000001
 43
0.00000001
 40
0.0
 40
0.0
 40
0.0
 40
0.0
 40
0.25
 40
0.25
 40
0.25
 40
0.25
 10
35.60000000000004
 20
6.050000000000003
 30
0.0
 10
35.46721918828731
 20
6.050000000000003
 30
0.0
 10
35.33174556484644
 20
6.050000000000003
 30
0.0
 10
35.21019676915339
 20
6.050000000000003
 30
0.0
  0
SPLINE
  5
16C
330
1F
100
AcDbEntity
  8
1
  6
SLD-Solid
370
    25
100
AcDbSpline
210
0.0
220
0.0
230
1.0
 70
    24
 71
     3
 72
     8
 73
     4
 74
     0
 42
0.000000001
 43
0.00000001
 40
0.25
 40
0.25
 40
0.25
 40
0.25
 40
0.5
 40
0.5
 40
0.5
 40
0.5
 10
35.21019676915339
 20
6.050000000000003
 30
0.0
 10
35.08864797346037
 20
6.050000000000003
 30
0.0
 10
34.97725114191733
 20
6.050000000000003
 30
0.0
 10
34.88605730484089
 20
6.050000000000003
 30
0.0
  0
SPLINE
  5
16D
330
1F
100
AcDbEntity
  8
1
  6
SLD-Solid
370
    25
100
AcDbSpline
210
0.0
220
0.0
230
1.0
 70
    24
 71
     3
 72
     8
 73
     4
 74
     0
 42
0.000000001
 43
0.00000001
 40
0.5
 40
0.5
 40
0.5
 40
0.5
 40
0.75
 40
0.75
 40
0.75
 40
0.75
 10
34.88605730484089
 20
6.050000000000003
 30
0.0
 10
34.79486346776445
 20
6.050000000000003
 30
0.0
 10
34.72209477499221
 20
6.050000000000003
 30
0.0
 10
34.67357412777255
 20
6.050000000000003
 30
0.0
  0
SPLINE
  5
16E
330
1F
100
AcDbEntity
  8
1
  6
SLD-Solid
370
    25
100
AcDbSpline
210
0.0
220
0.0
230
1.0
 70
    24
 71
     2
 72
     6
 73
     3
 74
     0
 42
0.000000001
 43
0.00000001
 40
0.75
 40
0.75
 40
0.75
 40
1.0
 40
1.0
 40
1.0
 10
34.67357412777255
 20
6.050000000000003
 30
0.0
 10
34.62505348055289
 20
6.050000000000003
 30
0.0
 10
34.60000000000001
 20
6.050000000000003
 30
0.0
  0
SPLINE
  5
16F
330
1F
100
AcDbEntity
  8
1
  6
SLD-Solid
370
    25
100
AcDbSpline
210
0.0
220
0.0
230
1.0
 70
     8
 71
     3
 72
    10
 73
     6
 74
     0
 42
0.000000001
 43
0.00000001
 40
0.0
 40
0.0
 40
0.0
 40
0.0
 40
0.5
 40
0.5
 40
1.0
 40
1.0
 40
1.0
 40
1.0
 10
15.6
 20
-18.20619124728897
 30
0.0
 10
15.90371676884136
 20
-18.83908846428041
 30
0.0
 10
16.20431228748106
 20
-19.46290423235503
 30
0.0
 10
16.79677392958327
 20
-20.68882545936865
 30
0.0
 10
17.08869106513467
 20
-21.29102691730532
 30
0.0
 10
17.37428230507107
 20
-21.87889326115168
 30
0.0
  0
SPLINE
  5
170
330
1F
100
AcDbEntity
  8
1
  6
SLD-Solid
370
    25
100
AcDbSpline
210
0.0
220
0.0
230
1.0
 70
     8
 71
     3
 72
    10
 73
     6
 74
     0
 42
0.000000001
 43
0.00000001
 40
0.0
 40
0.0
 40
0.0
 40
0.0
 40
0.5
 40
0.5
 40
1.0
 40
1.0
 40
1.0
 40
1.0
 10
15.6
 20
18.20619124728897
 30
0.0
 10
15.90371708393187
 20
18.83908912410738
 30
0.0
 10
16.20431277300974
 20
19.46290524542579
 30
0.0
 10
16.79677442407697
 20
20.68882649307463
 30
0.0
 10
17.08869139852444
 20
21.29102761902299
 30
0.0
 10
17.37428227908525
 20
21.87889322612934
 30
0.0
  0
SPLINE
  5
171
330
1F
100
AcDbEntity
  8
1
  6
SLD-Solid
370
    25
100
AcDbSpline
210
0.0
220
0.0
230
1.0
 70
     8
 71
     3
 72
    16
 73
    12
 74
     0
 42
0.000000001
 43
0.00000001
 40
0.0
 40
0.0
 40
0.0
 40
0.0
 40
0.0680357699036085
 40
0.1216271915820827
 40
0.2437825385130227
 40
0.3664174069514821
 40
0.490731140877868
 40
0.6196738304046167
 40
0.7429210525082813
 40
0.872347967660542
 40
1.0
 40
1.0
 40
1.0
 40
1.0
 10
2.000000000000002
 20
-20.56190591846971
 30
0.0
 10
2.000796789497127
 20
-20.58840543175368
 30
0.0
 10
2.002221205932103
 20
-20.63577847366361
 30
0.0
 10
2.016562271733698
 20
-20.72978897901817
 30
0.0
 10
2.049010913405244
 20
-20.842228743591
 30
0.0
 10
2.115216794569705
 20
-20.97140279656769
 30
0.0
 10
2.206796006851599
 20
-21.08800070372173
 30
0.0
 10
2.320292410439878
 20
-21.18491683748362
 30
0.0
 10
2.452780038505742
 20
-21.25807956078389
 30
0.0
 10
2.597289938916586
 20
-21.30559252572298
 30
0.0
 10
2.699331479194801
 20
-21.31161982290912
 30
0.0
 10
2.750000000000003
 20
-21.31461266515787
 30
0.0
  0
SPLINE
  5
172
330
1F
100
AcDbEntity
  8
1
  6
SLD-Solid
370
    25
100
AcDbSpline
210
0.0
220
0.0
230
1.0
 70
     8
 71
     3
 72
    18
 73
    14
 74
     0
 42
0.000000001
 43
0.00000001
 40
0.0
 40
0.0
 40
0.0
 40
0.0
 40
0.0635512406275251
 40
0.1275226616204617
 40
0.1919409792934671
 40
0.2568321422748427
 40
0.3800418498834244
 40
0.5089684150962925
 40
0.633296540561113
 40
0.7558708517006395
 40
0.8782286158027627
 40
0.9318514945082957
 40
1.0
 40
1.0
 40
1.0
 40
1.0
 10
2.749999999999988
 20
21.31461266515786
 30
0.0
 10
2.724798834711037
 20
21.31387419569811
 30
0.0
 10
2.674229882132742
 20
21.31239237425601
 30
0.0
 10
2.598924813545976
 20
21.30040578467798
 30
0.0
 10
2.524717706951188
 20
21.28123664388976
 30
0.0
 10
2.430981090797424
 20
21.24625065059844
 30
0.0
 10
2.320753334512871
 20
21.18515247685109
 30
0.0
 10
2.207178689068702
 20
21.08842439208514
 30
0.0
 10
2.115494057380589
 20
20.97183348780231
 30
0.0
 10
2.049153466090602
 20
20.84261177433904
 30
0.0
 10
2.016619789508511
 20
20.73007755144705
 30
0.0
 10
2.002229319045632
 20
20.63590436881361
 30
0.0
 10
2.00079994128826
 20
20.58845860764776
 30
0.0
 10
2.000000000000002
 20
20.56190591846972
 30
0.0
  0
SPLINE
  5
173
330
1F
100
AcDbEntity
  8
1
  6
SLD-Solid
370
    25
100
AcDbSpline
210
0.0
220
0.0
230
1.0
 70
     8
 71
     3
 72
     8
 73
     4
 74
     0
 42
0.000000001
 43
0.00000001
 40
0.0000433325284341
 40
0.0000433325284341
 40
0.0000433325284341
 40
0.0000433325284341
 40
0.0004719455603877
 40
0.0004719455603877
 40
0.0004719455603877
 40
0.0004719455603877
 10
11.4
 20
18.0953286017731
 30
0.0
 10
11.46660587253707
 20
17.96893325601978
 30
0.0
 10
11.53327333917299
 20
17.84256764359956
 30
0.0
 10
11.6
 20
17.71624677331126
 30
0.0
  0
SPLINE
  5
174
330
1F
100
AcDbEntity
  8
1
  6
SLD-Solid
370
    25
100
AcDbSpline
210
0.0
220
0.0
230
1.0
 70
     8
 71
     3
 72
     8
 73
     4
 74
     0
 42
0.000000001
 43
0.00000001
 40
0.0000433325284341
 40
0.0000433325284341
 40
0.0000433325284341
 40
0.0000433325284341
 40
0.0004719455603877
 40
0.0004719455603877
 40
0.0004719455603877
 40
0.0004719455603877
 10
11.4
 20
-18.09532860177311
 30
0.0
 10
11.46660587253707
 20
-17.96893325601979
 30
0.0
 10
11.53327333917299
 20
-17.84256764359957
 30
0.0
 10
11.6
 20
-17.71624677331128
 30
0.0
  0
SPLINE
  5
175
330
1F
100
AcDbEntity
  8
1
  6
SLD-Solid
370
    25
100
AcDbSpline
210
0.0
220
0.0
230
1.0
 70
     8
 71
     3
 72
     8
 73
     4
 74
     0
 42
0.000000001
 43
0.00000001
 40
0.0
 40
0.0
 40
0.0
 40
0.0
 40
1.0
 40
1.0
 40
1.0
 40
1.0
 10
9.869071747011924
 20
-20.96694064473558
 30
0.0
 10
10.38341093814468
 20
-20.01191163479273
 30
0.0
 10
10.89434185816693
 20
-19.05489617795643
 30
0.0
 10
11.4
 20
-18.09532860177311
 30
0.0
  0
SPLINE
  5
176
330
1F
100
AcDbEntity
  8
1
  6
SLD-Solid
370
    25
100
AcDbSpline
210
0.0
220
0.0
230
1.0
 70
     8
 71
     3
 72
     8
 73
     4
 74
     0
 42
0.000000001
 43
0.00000001
 40
0.0
 40
0.0
 40
0.0
 40
0.0
 40
0.0006887074915347
 40
0.0006887074915347
 40
0.0006887074915347
 40
0.0006887074915347
 10
9.572981872402666
 20
-21.3146126651563
 30
0.0
 10
9.67209973510124
 20
-21.19883443678469
 30
0.0
 10
9.770807239793886
 20
-21.08294605744201
 30
0.0
 10
9.869071747011924
 20
-20.96694064473558
 30
0.0
  0
SPLINE
  5
177
330
1F
100
AcDbEntity
  8
1
  6
SLD-Solid
370
    25
100
AcDbSpline
210
0.0
220
0.0
230
1.0
 70
     8
 71
     3
 72
     8
 73
     4
 74
     0
 42
0.000000001
 43
0.00000001
 40
0.0
 40
0.0
 40
0.0
 40
0.0
 40
0.0006887074915324
 40
0.0006887074915324
 40
0.0006887074915324
 40
0.0006887074915324
 10
9.869071747010176
 20
20.96694064473882
 30
0.0
 10
9.770807239792608
 20
21.08294605744471
 30
0.0
 10
9.672099735100428
 20
21.19883443678684
 30
0.0
 10
9.57298187240234
 20
21.31461266515786
 30
0.0
  0
SPLINE
  5
178
330
1F
100
AcDbEntity
  8
1
  6
SLD-Solid
370
    25
100
AcDbSpline
210
0.0
220
0.0
230
1.0
 70
     8
 71
     3
 72
     8
 73
     4
 74
     0
 42
0.000000001
 43
0.00000001
 40
0.0
 40
0.0
 40
0.0
 40
0.0
 40
1.0
 40
1.0
 40
1.0
 40
1.0
 10
9.869071747010176
 20
20.96694064473882
 30
0.0
 10
10.38346933994867
 20
20.01180319386894
 30
0.0
 10
10.89434699821049
 20
19.05488642389783
 30
0.0
 10
11.4
 20
18.0953286017731
 30
0.0
  0
SPLINE
  5
179
330
1F
100
AcDbEntity
  8
1
  6
SLD-Solid
370
    25
100
AcDbSpline
210
0.0
220
0.0
230
1.0
 70
    24
 71
     2
 72
     6
 73
     3
 74
     0
 42
0.000000001
 43
0.00000001
 40
0.0
 40
0.0
 40
0.0
 40
0.25
 40
0.25
 40
0.25
 10
34.60000000000004
 20
-6.050000000000003
 30
0.0
 10
34.57487606710593
 20
-6.050000000000003
 30
0.0
 10
34.52639962659291
 20
-6.050000000000003
 30
0.0
  0
SPLINE
  5
17A
330
1F
100
AcDbEntity
  8
1
  6
SLD-Solid
370
    25
100
AcDbSpline
210
0.0
220
0.0
230
1.0
 70
    24
 71
     3
 72
     8
 73
     4
 74
     0
 42
0.000000001
 43
0.00000001
 40
0.25
 40
0.25
 40
0.25
 40
0.25
 40
0.5
 40
0.5
 40
0.5
 40
0.5
 10
34.52639962659291
 20
-6.050000000000003
 30
0.0
 10
34.47792318607991
 20
-6.050000000000003
 30
0.0
 10
34.40524063243782
 20
-6.050000000000003
 30
0.0
 10
34.31410925437871
 20
-6.050000000000003
 30
0.0
  0
SPLINE
  5
17B
330
1F
100
AcDbEntity
  8
1
  6
SLD-Solid
370
    25
100
AcDbSpline
210
0.0
220
0.0
230
1.0
 70
    24
 71
     3
 72
     8
 73
     4
 74
     0
 42
0.000000001
 43
0.00000001
 40
0.5
 40
0.5
 40
0.5
 40
0.5
 40
0.75
 40
0.75
 40
0.75
 40
0.75
 10
34.31410925437871
 20
-6.050000000000003
 30
0.0
 10
34.22297787631959
 20
-6.050000000000003
 30
0.0
 10
34.11123555261289
 20
-6.050000000000003
 30
0.0
 10
33.98953650575562
 20
-6.050000000000003
 30
0.0
  0
SPLINE
  5
17C
330
1F
100
AcDbEntity
  8
1
  6
SLD-Solid
370
    25
100
AcDbSpline
210
0.0
220
0.0
230
1.0
 70
    24
 71
     3
 72
     8
 73
     4
 74
     0
 42
0.000000001
 43
0.00000001
 40
0.75
 40
0.75
 40
0.75
 40
0.75
 40
1.0
 40
1.0
 40
1.0
 40
1.0
 10
33.98953650575562
 20
-6.050000000000003
 30
0.0
 10
33.86783745889836
 20
-6.05000000000001
 30
0.0
 10
33.73355250969842
 20
-6.050000000000003
 30
0.0
 10
33.59999999999984
 20
-6.050000000000003
 30
0.0
  0
SPLINE
  5
17D
330
1F
100
AcDbEntity
  8
1
  6
SLD-Solid
370
    25
100
AcDbSpline
210
0.0
220
0.0
230
1.0
 70
    24
 71
     3
 72
     8
 73
     4
 74
     0
 42
0.000000001
 43
0.00000001
 40
0.0
 40
0.0
 40
0.0
 40
0.0
 40
0.25
 40
0.25
 40
0.25
 40
0.25
 10
33.60000000000036
 20
6.050000000000003
 30
0.0
 10
33.73328349634664
 20
6.050000000000003
 30
0.0
 10
33.86648010054007
 20
6.050000000000003
 30
0.0
 10
33.98953802343235
 20
6.050000000000003
 30
0.0
  0
SPLINE
  5
17E
330
1F
100
AcDbEntity
  8
1
  6
SLD-Solid
370
    25
100
AcDbSpline
210
0.0
220
0.0
230
1.0
 70
    24
 71
     3
 72
     8
 73
     4
 74
     0
 42
0.000000001
 43
0.00000001
 40
0.25
 40
0.25
 40
0.25
 40
0.25
 40
0.5
 40
0.5
 40
0.5
 40
0.5
 10
33.98953802343235
 20
6.050000000000003
 30
0.0
 10
34.11259594632465
 20
6.050000000000003
 30
0.0
 10
34.22293952126036
 20
6.050000000000003
 30
0.0
 10
34.31452954891189
 20
6.050000000000003
 30
0.0
  0
SPLINE
  5
17F
330
1F
100
AcDbEntity
  8
1
  6
SLD-Solid
370
    25
100
AcDbSpline
210
0.0
220
0.0
230
1.0
 70
    24
 71
     3
 72
     8
 73
     4
 74
     0
 42
0.000000001
 43
0.00000001
 40
0.5
 40
0.5
 40
0.5
 40
0.5
 40
0.75
 40
0.75
 40
0.75
 40
0.75
 10
34.31452954891189
 20
6.050000000000003
 30
0.0
 10
34.40611957656339
 20
6.050000000000003
 30
0.0
 10
34.47826875699327
 20
6.050000000000003
 30
0.0
 10
34.52660757749707
 20
6.050000000000003
 30
0.0
  0
SPLINE
  5
180
330
1F
100
AcDbEntity
  8
1
  6
SLD-Solid
370
    25
100
AcDbSpline
210
0.0
220
0.0
230
1.0
 70
    24
 71
     2
 72
     6
 73
     3
 74
     0
 42
0.000000001
 43
0.00000001
 40
0.75
 40
0.75
 40
0.75
 40
1.0
 40
1.0
 40
1.0
 10
34.52660757749707
 20
6.050000000000003
 30
0.0
 10
34.57494639800089
 20
6.050000000000003
 30
0.0
 10
34.60000000000002
 20
6.050000000000003
 30
0.0
  0
SPLINE
  5
181
330
1F
100
AcDbEntity
  8
1
  6
SLD-Solid
370
    25
100
AcDbSpline
210
0.0
220
0.0
230
1.0
 70
     8
 71
     3
 72
    48
 73
    44
 74
     0
 42
0.000000001
 43
0.00000001
 40
0.0
 40
0.0
 40
0.0
 40
0.0
 40
0.0625000000000001
 40
0.0625000000000001
 40
0.0937500000000002
 40
0.0937500000000002
 40
0.1250000000000002
 40
0.1250000000000002
 40
0.1874999999999998
 40
0.1874999999999998
 40
0.2187499999999995
 40
0.2187499999999995
 40
0.2499999999999993
 40
0.2499999999999993
 40
0.3124999999999993
 40
0.3124999999999993
 40
0.3749999999999994
 40
0.3749999999999994
 40
0.4062499999999994
 40
0.4062499999999994
 40
0.4374999999999994
 40
0.4374999999999994
 40
0.4999999999999996
 40
0.4999999999999996
 40
0.5624999999999997
 40
0.5624999999999997
 40
0.6249999999999998
 40
0.6249999999999998
 40
0.6562499999999998
 40
0.6562499999999998
 40
0.6874999999999997
 40
0.6874999999999997
 40
0.7187499999999997
 40
0.7187499999999997
 40
0.7499999999999996
 40
0.7499999999999996
 40
0.8124999999999998
 40
0.8124999999999998
 40
0.8749999999999999
 40
0.8749999999999999
 40
0.9375
 40
0.9375
 40
1.0
 40
1.0
 40
1.0
 40
1.0
 10
31.30000000000001
 20
-6.050000000000003
 30
0.0
 10
30.89808608256291
 20
-6.050000000000003
 30
0.0
 10
30.50333861366355
 20
-6.010352258370977
 30
0.0
 10
29.92141698176522
 20
-5.894161074349837
 30
0.0
 10
29.72915503498394
 20
-5.845905199280785
 30
0.0
 10
29.34810491792227
 20
-5.729944772129594
 30
0.0
 10
29.15932698041367
 20
-5.662087631863058
 30
0.0
 10
28.61078696191191
 20
-5.433921470402666
 30
0.0
 10
28.26423612508643
 20
-5.248075742552261
 30
0.0
 10
27.77232854098796
 20
-4.919039479737982
 30
0.0
 10
27.61223806499746
 20
-4.800212558290575
 30
0.0
 10
27.30655558431265
 20
-4.549069178726519
 30
0.0
 10
27.16090575100484
 20
-4.416883696172432
 30
0.0
 10
26.74485270458567
 20
-4.000872938171582
 30
0.0
 10
26.49512898626229
 20
-3.697797200962774
 30
0.0
 10
26.05263478187653
 20
-3.037375160518194
 30
0.0
 10
25.86605209545648
 20
-2.688814492014458
 30
0.0
 10
25.63906207764725
 20
-2.14360330744948
 30
0.0
 10
25.5721119232481
 20
-1.957860470636213
 30
0.0
 10
25.45607180501376
 20
-1.578107313879997
 30
0.0
 10
25.40681362185629
 20
-1.382962661147017
 30
0.0
 10
25.28943982837291
 20
-0.7966128682817923
 30
0.0
 10
25.25038458221292
 20
-0.4027059210911822
 30
0.0
 10
25.24962101609131
 20
0.3910663793850084
 30
0.0
 10
25.28927866238039
 20
0.794305797140616
 30
0.0
 10
25.44434653206078
 20
1.571946297205598
 30
0.0
 10
25.55911833352916
 20
1.950173315801322
 30
0.0
 10
25.78782941178104
 20
2.501614473474092
 30
0.0
 10
25.87352535256814
 20
2.682335290042446
 30
0.0
 10
26.06013004350681
 20
3.030728055512085
 30
0.0
 10
26.16143282094609
 20
3.199408666454944
 30
0.0
 10
26.37980269640866
 20
3.526010062715315
 30
0.0
 10
26.49686979185
 20
3.683930631487441
 30
0.0
 10
26.74702215136034
 20
3.988959438732238
 30
0.0
 10
26.88087517319071
 20
4.136770864308303
 30
0.0
 10
27.2998594857444
 20
4.55604275013529
 30
0.0
 10
27.6027910918545
 20
4.804973883020657
 30
0.0
 10
28.25588050249117
 20
5.243134960294996
 30
0.0
 10
28.60987694708288
 20
5.433377173772229
 30
0.0
 10
29.33876522952822
 20
5.736890074543675
 30
0.0
 10
29.71580103645281
 20
5.852449252326395
 30
0.0
 10
30.49600631583239
 20
6.009529329571366
 30
0.0
 10
30.89806446842985
 20
6.050000000000003
 30
0.0
 10
31.30000000000001
 20
6.050000000000003
 30
0.0
  0
SPLINE
  5
182
330
1F
100
AcDbEntity
  8
1
  6
SLD-Solid
370
    25
100
AcDbSpline
210
0.0
220
0.0
230
1.0
 70
     8
 71
     3
 72
    10
 73
     6
 74
     0
 42
0.000000001
 43
0.00000001
 40
0.0
 40
0.0
 40
0.0
 40
0.0
 40
0.5
 40
0.5
 40
1.0
 40
1.0
 40
1.0
 40
1.0
 10
11.59999999999999
 20
-17.46403447087756
 30
0.0
 10
11.59999999999999
 20
-17.36131940756619
 30
0.0
 10
11.63550396785902
 20
-17.25803952516974
 30
0.0
 10
11.77037083671394
 20
-17.1032569843841
 30
0.0
 10
11.87123694733055
 20
-17.05482145092324
 30
0.0
 10
11.975
 20
-17.0583190848336
 30
0.0
  0
SPLINE
  5
183
330
1F
100
AcDbEntity
  8
1
  6
SLD-Solid
370
    25
100
AcDbSpline
210
0.0
220
0.0
230
1.0
 70
     8
 71
     3
 72
    10
 73
     6
 74
     0
 42
0.000000001
 43
0.00000001
 40
0.0
 40
0.0
 40
0.0
 40
0.0
 40
0.5
 40
0.5
 40
1.0
 40
1.0
 40
1.0
 40
1.0
 10
11.59999999999999
 20
17.46403447087755
 30
0.0
 10
11.59999999999999
 20
17.3613194075662
 30
0.0
 10
11.63550396785902
 20
17.25803952516974
 30
0.0
 10
11.77037083671394
 20
17.1032569843841
 30
0.0
 10
11.87123694733056
 20
17.05482145092322
 30
0.0
 10
11.975
 20
17.05831908483359
 30
0.0
  0
SPLINE
  5
184
330
1F
100
AcDbEntity
  8
1
  6
SLD-Solid
370
    25
100
AcDbSpline
210
0.0
220
0.0
230
1.0
 70
     8
 71
     3
 72
    12
 73
     8
 74
     0
 42
0.000000001
 43
0.00000001
 40
0.0
 40
0.0
 40
0.0
 40
0.0
 40
0.4999999999999946
 40
0.4999999999999946
 40
0.7499999999999972
 40
0.7499999999999972
 40
1.0
 40
1.0
 40
1.0
 40
1.0
 10
15.225
 20
-17.47244258825882
 30
0.0
 10
15.32729887405207
 20
-17.49483746472057
 30
0.0
 10
15.41719738376063
 20
-17.55779867282207
 30
0.0
 10
15.51968846278896
 20
-17.68801867128204
 30
0.0
 10
15.54763266947684
 20
-17.73672976760799
 30
0.0
 10
15.58792031705414
 20
-17.84364628541224
 30
0.0
 10
15.6
 20
-17.90173537609954
 30
0.0
 10
15.6
 20
-17.96086022438792
 30
0.0
  0
SPLINE
  5
185
330
1F
100
AcDbEntity
  8
1
  6
SLD-Solid
370
    25
100
AcDbSpline
210
0.0
220
0.0
230
1.0
 70
     8
 71
     3
 72
    12
 73
     8
 74
     0
 42
0.000000001
 43
0.00000001
 40
0.0
 40
0.0
 40
0.0
 40
0.0
 40
0.500000000000007
 40
0.500000000000007
 40
0.7500000000000034
 40
0.7500000000000034
 40
1.0
 40
1.0
 40
1.0
 40
1.0
 10
15.225
 20
17.4724425882588
 30
0.0
 10
15.32729887405208
 20
17.49483746472055
 30
0.0
 10
15.41719738376063
 20
17.55779867282206
 30
0.0
 10
15.51968846278896
 20
17.68801867128202
 30
0.0
 10
15.54763266947685
 20
17.73672976760799
 30
0.0
 10
15.58792031705412
 20
17.84364628541223
 30
0.0
 10
15.6
 20
17.90173537609952
 30
0.0
 10
15.6
 20
17.96086022438791
 30
0.0
  0
SPLINE
  5
186
330
1F
100
AcDbEntity
  8
1
  6
SLD-Solid
370
    25
100
AcDbSpline
210
0.0
220
0.0
230
1.0
 70
     8
 71
     3
 72
    10
 73
     6
 74
     0
 42
0.000000001
 43
0.00000001
 40
0.0
 40
0.0
 40
0.0
 40
0.0
 40
0.4999999999999999
 40
0.4999999999999999
 40
1.0
 40
1.0
 40
1.0
 40
1.0
 10
11.97500000000001
 20
-17.0583190848336
 30
0.0
 10
12.55072229411917
 20
-17.07772547050808
 30
0.0
 10
13.10936407164132
 20
-17.12564735278621
 30
0.0
 10
14.19529318991715
 20
-17.26787583173369
 30
0.0
 10
14.72557374316147
 20
-17.36311011097305
 30
0.0
 10
15.225
 20
-17.47244258825882
 30
0.0
  0
SPLINE
  5
187
330
1F
100
AcDbEntity
  8
1
  6
SLD-Solid
370
    25
100
AcDbSpline
210
0.0
220
0.0
230
1.0
 70
     8
 71
     3
 72
    10
 73
     6
 74
     0
 42
0.000000001
 43
0.00000001
 40
0.0
 40
0.0
 40
0.0
 40
0.0
 40
0.4999999999999999
 40
0.4999999999999999
 40
1.0
 40
1.0
 40
1.0
 40
1.0
 10
11.97500000000001
 20
17.0583190848336
 30
0.0
 10
12.55072229411917
 20
17.07772547050808
 30
0.0
 10
13.10936407164132
 20
17.1256473527862
 30
0.0
 10
14.19529318991715
 20
17.26787583173369
 30
0.0
 10
14.72557374316147
 20
17.36311011097303
 30
0.0
 10
15.225
 20
17.4724425882588
 30
0.0
  0
SPLINE
  5
188
330
1F
100
AcDbEntity
  8
1
  6
SLD-Solid
370
    25
100
AcDbSpline
210
0.0
220
0.0
230
1.0
 70
     8
 71
     3
 72
     8
 73
     4
 74
     0
 42
0.000000001
 43
0.00000001
 40
0.0
 40
0.0
 40
0.0
 40
0.0
 40
1.0
 40
1.0
 40
1.0
 40
1.0
 10
37.91522828157459
 20
-5.675000000000003
 30
0.0
 10
37.93002780404574
 20
-5.799946100499064
 30
0.0
 10
37.96290064397982
 20
-5.916388040099911
 30
0.0
 10
38.00000000000001
 20
-5.984291861233195
 30
0.0
  0
SPLINE
  5
189
330
1F
100
AcDbEntity
  8
1
  6
SLD-Solid
370
    25
100
AcDbSpline
210
0.0
220
0.0
230
1.0
 70
     8
 71
     3
 72
     8
 73
     4
 74
     0
 42
0.000000001
 43
0.00000001
 40
0.0
 40
0.0
 40
0.0
 40
0.0
 40
1.0
 40
1.0
 40
1.0
 40
1.0
 10
38.00000000000001
 20
5.984291861233189
 30
0.0
 10
37.96289516748285
 20
5.916378016339104
 30
0.0
 10
37.93003004601931
 20
5.799965028532477
 30
0.0
 10
37.91522828157459
 20
5.675000000000004
 30
0.0
  0
SPLINE
  5
18A
330
1F
100
AcDbEntity
  8
1
  6
SLD-Solid
370
    25
100
AcDbSpline
210
0.0
220
0.0
230
1.0
 70
     8
 71
     3
 72
     8
 73
     4
 74
     0
 42
0.000000001
 43
0.00000001
 40
0.0
 40
0.0
 40
0.0
 40
0.0
 40
1.0
 40
1.0
 40
1.0
 40
1.0
 10
37.91522828157459
 20
5.675000000000003
 30
0.0
 10
37.80395330759443
 20
4.735552520590203
 30
0.0
 10
37.71635248976075
 20
3.794679862528853
 30
0.0
 10
37.65702643940141
 20
2.852105070092259
 30
0.0
  0
SPLINE
  5
18B
330
1F
100
AcDbEntity
  8
1
  6
SLD-Solid
370
    25
100
AcDbSpline
210
0.0
220
0.0
230
1.0
 70
     8
 71
     3
 72
     8
 73
     4
 74
     0
 42
0.000000001
 43
0.00000001
 40
0.0
 40
0.0
 40
0.0
 40
0.0
 40
1.0
 40
1.0
 40
1.0
 40
1.0
 10
37.65702643940141
 20
-2.852105070092266
 30
0.0
 10
37.71614907406387
 20
-3.791447985350218
 30
0.0
 10
37.80359123910817
 20
-4.732495729699949
 30
0.0
 10
37.91522828157459
 20
-5.674999999999996
 30
0.0
  0
SPLINE
  5
18C
330
1F
100
AcDbEntity
  8
1
  6
SLD-Solid
370
    25
100
AcDbSpline
210
0.0
220
0.0
230
1.0
 70
     8
 71
     3
 72
    18
 73
    14
 74
     0
 42
0.000000001
 43
0.00000001
 40
0.0
 40
0.0
 40
0.0
 40
0.0
 40
0.2499999999999999
 40
0.2499999999999999
 40
0.4999999999999999
 40
0.4999999999999999
 40
0.5624999999999999
 40
0.5624999999999999
 40
0.6249999999999999
 40
0.6249999999999999
 40
0.7499999999999998
 40
0.7499999999999998
 40
1.0
 40
1.0
 40
1.0
 40
1.0
 10
37.65702643940141
 20
2.852105070092252
 30
0.0
 10
37.62740964886309
 20
2.381552251806404
 30
0.0
 10
37.62205903503905
 20
1.910245480413922
 30
0.0
 10
37.61883512456878
 20
0.9673996164610288
 30
0.0
 10
37.6213322832818
 20
0.4958490138068684
 30
0.0
 10
37.62139264159549
 20
-0.0934941310641764
 30
0.0
 10
37.62131048718889
 20
-0.2150355991162693
 30
0.0
 10
37.62100175375672
 20
-0.4548692710132154
 30
0.0
 10
37.62077561175896
 20
-0.5747860996216831
 30
0.0
 10
37.62011157335559
 20
-0.9345365869184059
 30
0.0
 10
37.61963663332489
 20
-1.174370241818445
 30
0.0
 10
37.62182926919954
 20
-1.893871576453245
 30
0.0
 10
37.62690325171909
 20
-2.373506592607717
 30
0.0
 10
37.65702643940141
 20
-2.852105070092273
 30
0.0
  0
SPLINE
  5
18D
330
1F
100
AcDbEntity
  8
SK1
  6
SLD-Solid
370
    25
100
AcDbSpline
210
0.0
220
0.0
230
1.0
 70
     8
 71
     2
 72
     6
 73
     3
 74
     0
 42
0.000000001
 43
0.00000001
 40
0.0
 40
0.0
 40
0.0
 40
0.124999999999999
 40
0.124999999999999
 40
0.124999999999999
 10
67.99999999999996
 20
13.5
 30
0.0
 10
67.97687817265961
 20
13.49394296782225
 30
0.0
 10
67.93184649223242
 20
13.48245965791855
 30
0.0
  0
SPLINE
  5
18E
330
1F
100
AcDbEntity
  8
SK1
  6
SLD-Solid
370
    25
100
AcDbSpline
210
0.0
220
0.0
230
1.0
 70
     8
 71
     3
 72
     8
 73
     4
 74
     0
 42
0.000000001
 43
0.00000001
 40
0.124999999999999
 40
0.124999999999999
 40
0.124999999999999
 40
0.124999999999999
 40
0.2499999999999979
 40
0.2499999999999979
 40
0.2499999999999979
 40
0.2499999999999979
 10
67.93184649223242
 20
13.48245965791855
 30
0.0
 10
67.88681481180524
 20
13.47097634801484
 30
0.0
 10
67.82025839282286
 20
13.45416367316673
 30
0.0
 10
67.73192784955664
 20
13.43287038286528
 30
0.0
  0
SPLINE
  5
18F
330
1F
100
AcDbEntity
  8
SK1
  6
SLD-Solid
370
    25
100
AcDbSpline
210
0.0
220
0.0
230
1.0
 70
     8
 71
     3
 72
     8
 73
     4
 74
     0
 42
0.000000001
 43
0.00000001
 40
0.2499999999999979
 40
0.2499999999999979
 40
0.2499999999999979
 40
0.2499999999999979
 40
0.4999999999999988
 40
0.4999999999999988
 40
0.4999999999999988
 40
0.4999999999999988
 10
67.73192784955664
 20
13.43287038286528
 30
0.0
 10
67.55526676302418
 20
13.3902838022624
 30
0.0
 10
67.29728852652613
 20
13.33096005221677
 30
0.0
 10
66.97291914593102
 20
13.27036135874363
 30
0.0
  0
SPLINE
  5
190
330
1F
100
AcDbEntity
  8
SK1
  6
SLD-Solid
370
    25
100
AcDbSpline
210
0.0
220
0.0
230
1.0
 70
     8
 71
     3
 72
     8
 73
     4
 74
     0
 42
0.000000001
 43
0.00000001
 40
0.4999999999999988
 40
0.4999999999999988
 40
0.4999999999999988
 40
0.4999999999999988
 40
0.6249999999999991
 40
0.6249999999999991
 40
0.6249999999999991
 40
0.6249999999999991
 10
66.97291914593102
 20
13.27036135874363
 30
0.0
 10
66.81073445563345
 20
13.24006201200707
 30
0.0
 10
66.63495846013961
 20
13.21007003981061
 30
0.0
 10
66.44569792339749
 20
13.18204504745587
 30
0.0
  0
SPLINE
  5
191
330
1F
100
AcDbEntity
  8
SK1
  6
SLD-Solid
370
    25
100
AcDbSpline
210
0.0
220
0.0
230
1.0
 70
     8
 71
     3
 72
     8
 73
     4
 74
     0
 42
0.000000001
 43
0.00000001
 40
0.6249999999999991
 40
0.6249999999999991
 40
0.6249999999999991
 40
0.6249999999999991
 40
0.7499999999999993
 40
0.7499999999999993
 40
0.7499999999999993
 40
0.7499999999999993
 10
66.44569792339749
 20
13.18204504745587
 30
0.0
 10
66.25643738665539
 20
13.15402005510113
 30
0.0
 10
66.05130396816374
 20
13.12775693212341
 30
0.0
 10
65.83998811979814
 20
13.10605081680585
 30
0.0
  0
SPLINE
  5
192
330
1F
100
AcDbEntity
  8
SK1
  6
SLD-Solid
370
    25
100
AcDbSpline
210
0.0
220
0.0
230
1.0
 70
     8
 71
     3
 72
     8
 73
     4
 74
     0
 42
0.000000001
 43
0.00000001
 40
0.7499999999999993
 40
0.7499999999999993
 40
0.7499999999999993
 40
0.7499999999999993
 40
0.8749999999999997
 40
0.8749999999999997
 40
0.8749999999999997
 40
0.8749999999999997
 10
65.83998811979814
 20
13.10605081680585
 30
0.0
 10
65.62867227143254
 20
13.0843447014883
 30
0.0
 10
65.41029636449288
 20
13.06696219404092
 30
0.0
 10
65.18466439182735
 20
13.05502101240493
 30
0.0
  0
SPLINE
  5
193
330
1F
100
AcDbEntity
  8
SK1
  6
SLD-Solid
370
    25
100
AcDbSpline
210
0.0
220
0.0
230
1.0
 70
     8
 71
     3
 72
     8
 73
     4
 74
     0
 42
0.000000001
 43
0.00000001
 40
0.8749999999999997
 40
0.8749999999999997
 40
0.8749999999999997
 40
0.8749999999999997
 40
1.0
 40
1.0
 40
1.0
 40
1.0
 10
65.18466439182735
 20
13.05502101240493
 30
0.0
 10
64.95903241916182
 20
13.04307983076892
 30
0.0
 10
64.72629737267316
 20
13.03672546836436
 30
0.0
 10
64.49374999999998
 20
13.03672546836436
 30
0.0
  0
SPLINE
  5
194
330
1F
100
AcDbEntity
  8
1
  6
SLD-Dashed
370
    18
100
AcDbSpline
210
0.0
220
0.0
230
1.0
 70
     8
 71
     3
 72
    11
 73
     7
 74
     0
 42
0.000000001
 43
0.00000001
 40
0.0
 40
0.0
 40
0.0
 40
0.0
 40
0.2499573108264352
 40
0.499343390224816
 40
0.7504973994015153
 40
0.9999999999999999
 40
0.9999999999999999
 40
0.9999999999999999
 40
0.9999999999999999
 10
17.62701812759761
 20
22.23477197484032
 30
0.0
 10
17.96178000035055
 20
22.3363273378871
 30
0.0
 10
18.63053870921079
 20
22.53920597789018
 30
0.0
 10
19.32771796101586
 20
22.78586034018291
 30
0.0
 10
19.78947050119827
 20
22.95696684589504
 30
0.0
 10
19.84631895369453
 20
22.97892472950697
 30
0.0
 10
19.87464942304394
 20
22.98986745743233
 30
0.0
  0
SPLINE
  5
195
330
1F
100
AcDbEntity
  8
SK3
  6
SLD-Dashed
370
    18
100
AcDbSpline
210
0.0
220
0.0
230
1.0
 70
    24
 71
     2
 72
     6
 73
     3
 74
     0
 42
0.000000001
 43
0.00000001
 40
0.0
 40
0.0
 40
0.0
 40
0.5
 40
0.5
 40
0.5
 10
2.000000000000002
 20
-16.15000000000001
 30
0.0
 10
1.987440911077665
 20
-16.15000000000001
 30
0.0
 10
1.987405688565674
 20
-16.15000000000001
 30
0.0
  0
SPLINE
  5
196
330
1F
100
AcDbEntity
  8
SK3
  6
SLD-Dashed
370
    18
100
AcDbSpline
210
0.0
220
0.0
230
1.0
 70
    24
 71
     3
 72
     8
 73
     4
 74
     0
 42
0.000000001
 43
0.00000001
 40
0.5
 40
0.5
 40
0.5
 40
0.5
 40
0.75
 40
0.75
 40
0.75
 40
0.75
 10
1.987405688565674
 20
-16.15000000000001
 30
0.0
 10
1.987388077309686
 20
-16.15000000000001
 30
0.0
 10
1.989776961366478
 20
-16.15000000000001
 30
0.0
 10
1.992936635836093
 20
-16.15000000000001
 30
0.0
  0
SPLINE
  5
197
330
1F
100
AcDbEntity
  8
SK3
  6
SLD-Dashed
370
    18
100
AcDbSpline
210
0.0
220
0.0
230
1.0
 70
    24
 71
     2
 72
     6
 73
     3
 74
     0
 42
0.000000001
 43
0.00000001
 40
0.75
 40
0.75
 40
0.75
 40
1.0
 40
1.0
 40
1.0
 10
1.992936635836093
 20
-16.15000000000001
 30
0.0
 10
1.996096310305701
 20
-16.15000000000001
 30
0.0
 10
2.000000000000002
 20
-16.15000000000001
 30
0.0
  0
SPLINE
  5
198
330
1F
100
AcDbEntity
  8
SK3
  6
SLD-Dashed
370
    18
100
AcDbSpline
210
0.0
220
0.0
230
1.0
 70
    24
 71
     2
 72
     6
 73
     3
 74
     0
 42
0.000000001
 43
0.00000001
 40
0.0
 40
0.0
 40
0.0
 40
0.5
 40
0.5
 40
0.5
 10
2.000000000000002
 20
16.15000000000001
 30
0.0
 10
1.987440911077665
 20
16.14999999999999
 30
0.0
 10
1.987405688565674
 20
16.14999999999999
 30
0.0
  0
SPLINE
  5
199
330
1F
100
AcDbEntity
  8
SK3
  6
SLD-Dashed
370
    18
100
AcDbSpline
210
0.0
220
0.0
230
1.0
 70
    24
 71
     3
 72
     8
 73
     4
 74
     0
 42
0.000000001
 43
0.00000001
 40
0.5
 40
0.5
 40
0.5
 40
0.5
 40
0.75
 40
0.75
 40
0.75
 40
0.75
 10
1.987405688565674
 20
16.14999999999999
 30
0.0
 10
1.987388077309686
 20
16.14999999999999
 30
0.0
 10
1.989776961366478
 20
16.14999999999999
 30
0.0
 10
1.992936635836093
 20
16.15
 30
0.0
  0
SPLINE
  5
19A
330
1F
100
AcDbEntity
  8
SK3
  6
SLD-Dashed
370
    18
100
AcDbSpline
210
0.0
220
0.0
230
1.0
 70
    24
 71
     2
 72
     6
 73
     3
 74
     0
 42
0.000000001
 43
0.00000001
 40
0.75
 40
0.75
 40
0.75
 40
1.0
 40
1.0
 40
1.0
 10
1.992936635836093
 20
16.15
 30
0.0
 10
1.996096310305701
 20
16.15000000000001
 30
0.0
 10
2.000000000000002
 20
16.15000000000001
 30
0.0
  0
SPLINE
  5
19B
330
1F
100
AcDbEntity
  8
SK1
  6
SLD-Dashed
370
    18
100
AcDbSpline
210
0.0
220
0.0
230
1.0
 70
     8
 71
     3
 72
     8
 73
     4
 74
     0
 42
0.000000001
 43
0.00000001
 40
0.0
 40
0.0
 40
0.0
 40
0.0
 40
0.125
 40
0.125
 40
0.125
 40
0.125
 10
64.49374999999999
 20
13.03672546836436
 30
0.0
 10
64.72655839422573
 20
13.03672546836416
 30
0.0
 10
64.95526563267636
 20
13.04296012743606
 30
0.0
 10
65.18007313391158
 20
13.05477883311805
 30
0.0
  0
SPLINE
  5
19C
330
1F
100
AcDbEntity
  8
SK1
  6
SLD-Dashed
370
    18
100
AcDbSpline
210
0.0
220
0.0
230
1.0
 70
     8
 71
     3
 72
     8
 73
     4
 74
     0
 42
0.000000001
 43
0.00000001
 40
0.125
 40
0.125
 40
0.125
 40
0.125
 40
0.25
 40
0.25
 40
0.25
 40
0.25
 10
65.18007313391156
 20
13.05477883311805
 30
0.0
 10
65.40488063514677
 20
13.06659753880042
 30
0.0
 10
65.6281746663729
 20
13.08428893510263
 30
0.0
 10
65.84027889647164
 20
13.10608068823526
 30
0.0
  0
SPLINE
  5
19D
330
1F
100
AcDbEntity
  8
SK1
  6
SLD-Dashed
370
    18
100
AcDbSpline
210
0.0
220
0.0
230
1.0
 70
     8
 71
     3
 72
     8
 73
     4
 74
     0
 42
0.000000001
 43
0.00000001
 40
0.25
 40
0.25
 40
0.25
 40
0.25
 40
0.375
 40
0.375
 40
0.375
 40
0.375
 10
65.84027889647164
 20
13.10608068823526
 30
0.0
 10
66.0523831265704
 20
13.1278724413677
 30
0.0
 10
66.25341602256792
 20
13.15360183926601
 30
0.0
 10
66.44364194495697
 20
13.18174076268033
 30
0.0
  0
SPLINE
  5
19E
330
1F
100
AcDbEntity
  8
SK1
  6
SLD-Dashed
370
    18
100
AcDbSpline
210
0.0
220
0.0
230
1.0
 70
     8
 71
     3
 72
     8
 73
     4
 74
     0
 42
0.000000001
 43
0.00000001
 40
0.375
 40
0.375
 40
0.375
 40
0.375
 40
0.5
 40
0.5
 40
0.5
 40
0.5
 10
66.44364194495697
 20
13.18174076268033
 30
0.0
 10
66.63386786734604
 20
13.20987968609464
 30
0.0
 10
66.81315639310515
 20
13.24050071795861
 30
0.0
 10
66.97409913580087
 20
13.27058185510221
 30
0.0
  0
SPLINE
  5
19F
330
1F
100
AcDbEntity
  8
SK1
  6
SLD-Dashed
370
    18
100
AcDbSpline
210
0.0
220
0.0
230
1.0
 70
     8
 71
     3
 72
     8
 73
     4
 74
     0
 42
0.000000001
 43
0.00000001
 40
0.5
 40
0.5
 40
0.5
 40
0.5
 40
0.625
 40
0.625
 40
0.625
 40
0.625
 10
66.97409913580087
 20
13.27058185510221
 30
0.0
 10
67.13504187849661
 20
13.30066299224582
 30
0.0
 10
67.27984030463301
 20
13.33052367365643
 30
0.0
 10
67.40802259779666
 20
13.35848777787996
 30
0.0
  0
SPLINE
  5
1A0
330
1F
100
AcDbEntity
  8
SK1
  6
SLD-Dashed
370
    18
100
AcDbSpline
210
0.0
220
0.0
230
1.0
 70
     8
 71
     3
 72
     8
 73
     4
 74
     0
 42
0.000000001
 43
0.00000001
 40
0.625
 40
0.625
 40
0.625
 40
0.625
 40
0.75
 40
0.75
 40
0.75
 40
0.75
 10
67.40802259779666
 20
13.35848777787996
 30
0.0
 10
67.5362048909603
 20
13.38645188210351
 30
0.0
 10
67.6444177373263
 20
13.4117745874101
 30
0.0
 10
67.7319736847188
 20
13.43288143213413
 30
0.0
  0
SPLINE
  5
1A1
330
1F
100
AcDbEntity
  8
SK1
  6
SLD-Dashed
370
    18
100
AcDbSpline
210
0.0
220
0.0
230
1.0
 70
     8
 71
     3
 72
     8
 73
     4
 74
     0
 42
0.000000001
 43
0.00000001
 40
0.75
 40
0.75
 40
0.75
 40
0.75
 40
0.875
 40
0.875
 40
0.875
 40
0.875
 10
67.7319736847188
 20
13.43288143213413
 30
0.0
 10
67.8195296321113
 20
13.45398827685817
 30
0.0
 10
67.88734640161577
 20
13.47110994313678
 30
0.0
 10
67.93247813093215
 20
13.48262074286613
 30
0.0
  0
SPLINE
  5
1A2
330
1F
100
AcDbEntity
  8
SK1
  6
SLD-Dashed
370
    18
100
AcDbSpline
210
0.0
220
0.0
230
1.0
 70
     8
 71
     2
 72
     6
 73
     3
 74
     0
 42
0.000000001
 43
0.00000001
 40
0.875
 40
0.875
 40
0.875
 40
1.0
 40
1.0
 40
1.0
 10
67.93247813093215
 20
13.48262074286613
 30
0.0
 10
67.97760986024856
 20
13.49413154259548
 30
0.0
 10
67.99999999999996
 20
13.5
 30
0.0
  0
SPLINE
  5
1A3
330
1F
100
AcDbEntity
  8
SK3
  6
SLD-Dashed
370
    18
100
AcDbSpline
210
0.0
220
0.0
230
1.0
 70
    24
 71
     2
 72
     6
 73
     3
 74
     0
 42
0.000000001
 43
0.00000001
 40
0.0
 40
0.0
 40
0.0
 40
0.2500000000000007
 40
0.2500000000000007
 40
0.2500000000000007
 10
2.375000000001265
 20
-16.15000000000011
 30
0.0
 10
2.357424479333675
 20
-16.15000000000007
 30
0.0
 10
2.331652105107232
 20
-16.15000000000001
 30
0.0
  0
SPLINE
  5
1A4
330
1F
100
AcDbEntity
  8
SK3
  6
SLD-Dashed
370
    18
100
AcDbSpline
210
0.0
220
0.0
230
1.0
 70
    24
 71
     3
 72
     8
 73
     4
 74
     0
 42
0.000000001
 43
0.00000001
 40
0.2500000000000007
 40
0.2500000000000007
 40
0.2500000000000007
 40
0.2500000000000007
 40
0.5000000000000014
 40
0.5000000000000014
 40
0.5000000000000014
 40
0.5000000000000014
 10
2.331652105107232
 20
-16.15000000000001
 30
0.0
 10
2.305879730881546
 20
-16.15000000000001
 30
0.0
 10
2.27279077231031
 20
-16.15000000000001
 30
0.0
 10
2.236965951746453
 20
-16.15000000000001
 30
0.0
  0
SPLINE
  5
1A5
330
1F
100
AcDbEntity
  8
SK3
  6
SLD-Dashed
370
    18
100
AcDbSpline
210
0.0
220
0.0
230
1.0
 70
    24
 71
     3
 72
     8
 73
     4
 74
     0
 42
0.000000001
 43
0.00000001
 40
0.5000000000000014
 40
0.5000000000000014
 40
0.5000000000000014
 40
0.5000000000000014
 40
1.0
 40
1.0
 40
1.0
 40
1.0
 10
2.236965951746453
 20
-16.15000000000001
 30
0.0
 10
2.165316310618726
 20
-16.15000000000001
 30
0.0
 10
2.083397657057319
 20
-16.15000000000001
 30
0.0
 10
2.000000000000002
 20
-16.15000000000001
 30
0.0
  0
SPLINE
  5
1A6
330
1F
100
AcDbEntity
  8
SK3
  6
SLD-Dashed
370
    18
100
AcDbSpline
210
0.0
220
0.0
230
1.0
 70
    24
 71
     3
 72
     8
 73
     4
 74
     0
 42
0.000000001
 43
0.00000001
 40
0.0
 40
0.0
 40
0.0
 40
0.0
 40
0.4999999999999991
 40
0.4999999999999991
 40
0.4999999999999991
 40
0.4999999999999991
 10
2.000000000000002
 20
16.15000000000001
 30
0.0
 10
2.083477230592448
 20
16.15000000000001
 30
0.0
 10
2.165250237669226
 20
16.15
 30
0.0
 10
2.237167806898755
 20
16.14999999999999
 30
0.0
  0
SPLINE
  5
1A7
330
1F
100
AcDbEntity
  8
SK3
  6
SLD-Dashed
370
    18
100
AcDbSpline
210
0.0
220
0.0
230
1.0
 70
    24
 71
     3
 72
     8
 73
     4
 74
     0
 42
0.000000001
 43
0.00000001
 40
0.4999999999999991
 40
0.4999999999999991
 40
0.4999999999999991
 40
0.4999999999999991
 40
0.7499999999999996
 40
0.7499999999999996
 40
0.7499999999999996
 40
0.7499999999999996
 10
2.237167806898754
 20
16.14999999999999
 30
0.0
 10
2.273126591513526
 20
16.14999999999999
 30
0.0
 10
2.306332390229773
 20
16.14999999999999
 30
0.0
 10
2.332123478181916
 20
16.14999999999999
 30
0.0
  0
SPLINE
  5
1A8
330
1F
100
AcDbEntity
  8
SK3
  6
SLD-Dashed
370
    18
100
AcDbSpline
210
0.0
220
0.0
230
1.0
 70
    24
 71
     2
 72
     6
 73
     3
 74
     0
 42
0.000000001
 43
0.00000001
 40
0.7499999999999996
 40
0.7499999999999996
 40
0.7499999999999996
 40
1.0
 40
1.0
 40
1.0
 10
2.332123478181916
 20
16.14999999999999
 30
0.0
 10
2.357914566134834
 20
16.14999999999992
 30
0.0
 10
2.375000000001265
 20
16.14999999999988
 30
0.0
  0
SPLINE
  5
1A9
330
1F
100
AcDbEntity
  8
1
  6
SLD-Dashed
370
    18
100
AcDbSpline
210
0.0
220
0.0
230
1.0
 70
     8
 71
     3
 72
    10
 73
     6
 74
     0
 42
0.000000001
 43
0.00000001
 40
0.0
 40
0.0
 40
0.0
 40
0.0
 40
0.5
 40
0.5
 40
1.0
 40
1.0
 40
1.0
 40
1.0
 10
15.60000000000137
 20
-17.96086022438971
 30
0.0
 10
15.60000000000079
 20
-17.84309061700635
 30
0.0
 10
15.55324029371399
 20
-17.73064651892003
 30
0.0
 10
15.41780382798793
 20
-17.5585706077429
 30
0.0
 10
15.32693692219696
 20
-17.49475822761089
 30
0.0
 10
15.225
 20
-17.47244258825882
 30
0.0
  0
SPLINE
  5
1AA
330
1F
100
AcDbEntity
  8
1
  6
SLD-Dashed
370
    18
100
AcDbSpline
210
0.0
220
0.0
230
1.0
 70
     8
 71
     3
 72
    10
 73
     6
 74
     0
 42
0.000000001
 43
0.00000001
 40
0.0
 40
0.0
 40
0.0
 40
0.0
 40
0.5
 40
0.5
 40
1.0
 40
1.0
 40
1.0
 40
1.0
 10
15.22499999999999
 20
-17.47244258825882
 30
0.0
 10
14.7258673820664
 20
-17.36317439327392
 30
0.0
 10
14.20531594595906
 20
-17.26950902984325
 30
0.0
 10
13.11981343473119
 20
-17.12670145782505
 30
0.0
 10
12.55043216059937
 20
-17.07771569071835
 30
0.0
 10
11.975
 20
-17.0583190848336
 30
0.0
  0
SPLINE
  5
1AB
330
1F
100
AcDbEntity
  8
1
  6
SLD-Dashed
370
    18
100
AcDbSpline
210
0.0
220
0.0
230
1.0
 70
     8
 71
     3
 72
    10
 73
     6
 74
     0
 42
0.000000001
 43
0.00000001
 40
0.0
 40
0.0
 40
0.0
 40
0.0
 40
0.5
 40
0.5
 40
1.0
 40
1.0
 40
1.0
 40
1.0
 10
11.97499999999997
 20
-17.05831908483362
 30
0.0
 10
11.87152057286504
 20
-17.05483101134251
 30
0.0
 10
11.77071697238918
 20
-17.10302441606798
 30
0.0
 10
11.63569438794237
 20
-17.25765695847896
 30
0.0
 10
11.59999999999999
 20
-17.36066582511049
 30
0.0
 10
11.59999999999999
 20
-17.46403447087756
 30
0.0
  0
SPLINE
  5
1AC
330
1F
100
AcDbEntity
  8
1
  6
SLD-Dashed
370
    18
100
AcDbSpline
210
0.0
220
0.0
230
1.0
 70
     8
 71
     3
 72
     8
 73
     4
 74
     0
 42
0.000000001
 43
0.00000001
 40
0.0000432461654743
 40
0.0000432461654743
 40
0.0000432461654743
 40
0.0000432461654743
 40
0.000471859197428
 40
0.000471859197428
 40
0.000471859197428
 40
0.000471859197428
 10
11.6
 20
-17.71624677331128
 30
0.0
 10
11.53327333917299
 20
-17.84256764359957
 30
0.0
 10
11.46660587253707
 20
-17.96893325601979
 30
0.0
 10
11.4
 20
-18.09532860177311
 30
0.0
  0
SPLINE
  5
1AD
330
1F
100
AcDbEntity
  8
1
  6
SLD-Dashed
370
    18
100
AcDbSpline
210
0.0
220
0.0
230
1.0
 70
     8
 71
     3
 72
    10
 73
     6
 74
     0
 42
0.000000001
 43
0.00000001
 40
0.0
 40
0.0
 40
0.0
 40
0.0
 40
0.5
 40
0.5
 40
1.0
 40
1.0
 40
1.0
 40
1.0
 10
17.37428230507107
 20
-21.87889326115168
 30
0.0
 10
17.0886910654441
 20
-21.29102691798383
 30
0.0
 10
16.79677392997644
 20
-20.6888254602527
 30
0.0
 10
16.20431228782268
 20
-19.46290423314762
 30
0.0
 10
15.90371676904258
 20
-18.83908846476609
 30
0.0
 10
15.6
 20
-18.20619124728898
 30
0.0
  0
SPLINE
  5
1AE
330
1F
100
AcDbEntity
  8
1
  6
SLD-Dashed
370
    18
100
AcDbSpline
210
0.0
220
0.0
230
1.0
 70
     8
 71
     3
 72
     8
 73
     4
 74
     0
 42
0.000000001
 43
0.00000001
 40
0.0000432461654743
 40
0.0000432461654743
 40
0.0000432461654743
 40
0.0000432461654743
 40
0.000471859197428
 40
0.000471859197428
 40
0.000471859197428
 40
0.000471859197428
 10
11.6
 20
17.71624677331127
 30
0.0
 10
11.53327333917299
 20
17.84256764359957
 30
0.0
 10
11.46660587253707
 20
17.96893325601978
 30
0.0
 10
11.4
 20
18.0953286017731
 30
0.0
  0
SPLINE
  5
1AF
330
1F
100
AcDbEntity
  8
1
  6
SLD-Dashed
370
    18
100
AcDbSpline
210
0.0
220
0.0
230
1.0
 70
     8
 71
     3
 72
    10
 73
     6
 74
     0
 42
0.000000001
 43
0.00000001
 40
0.0
 40
0.0
 40
0.0
 40
0.0
 40
0.5
 40
0.5
 40
1.0
 40
1.0
 40
1.0
 40
1.0
 10
11.97499999999997
 20
17.05831908483361
 30
0.0
 10
11.87152057286504
 20
17.0548310113425
 30
0.0
 10
11.77071697238919
 20
17.10302441606796
 30
0.0
 10
11.63569438794237
 20
17.25765695847893
 30
0.0
 10
11.59999999999999
 20
17.36066582511048
 30
0.0
 10
11.59999999999999
 20
17.46403447087755
 30
0.0
  0
SPLINE
  5
1B0
330
1F
100
AcDbEntity
  8
1
  6
SLD-Dashed
370
    18
100
AcDbSpline
210
0.0
220
0.0
230
1.0
 70
     8
 71
     3
 72
    10
 73
     6
 74
     0
 42
0.000000001
 43
0.00000001
 40
0.0
 40
0.0
 40
0.0
 40
0.0
 40
0.5
 40
0.5
 40
1.0
 40
1.0
 40
1.0
 40
1.0
 10
15.225
 20
17.4724425882588
 30
0.0
 10
14.72586738206641
 20
17.36317439327392
 30
0.0
 10
14.20531594595907
 20
17.26950902984325
 30
0.0
 10
13.11981343473119
 20
17.12670145782504
 30
0.0
 10
12.55043216059937
 20
17.07771569071834
 30
0.0
 10
11.975
 20
17.05831908483359
 30
0.0
  0
SPLINE
  5
1B1
330
1F
100
AcDbEntity
  8
1
  6
SLD-Dashed
370
    18
100
AcDbSpline
210
0.0
220
0.0
230
1.0
 70
     8
 71
     3
 72
    10
 73
     6
 74
     0
 42
0.000000001
 43
0.00000001
 40
0.0
 40
0.0
 40
0.0
 40
0.0
 40
0.5
 40
0.5
 40
1.0
 40
1.0
 40
1.0
 40
1.0
 10
15.60000000000137
 20
17.96086022438969
 30
0.0
 10
15.6000000000008
 20
17.84309061700634
 30
0.0
 10
15.553240293714
 20
17.73064651892003
 30
0.0
 10
15.41780382798792
 20
17.55857060774288
 30
0.0
 10
15.32693692219696
 20
17.49475822761089
 30
0.0
 10
15.225
 20
17.4724425882588
 30
0.0
  0
SPLINE
  5
1B2
330
1F
100
AcDbEntity
  8
1
  6
SLD-Dashed
370
    18
100
AcDbSpline
210
0.0
220
0.0
230
1.0
 70
     8
 71
     3
 72
    10
 73
     6
 74
     0
 42
0.000000001
 43
0.00000001
 40
0.0
 40
0.0
 40
0.0
 40
0.0
 40
0.5
 40
0.5
 40
1.0
 40
1.0
 40
1.0
 40
1.0
 10
17.37428227908525
 20
21.87889322612935
 30
0.0
 10
17.08869139181012
 20
21.2910276042995
 30
0.0
 10
16.79677441554593
 20
20.68882647389056
 30
0.0
 10
16.20431276559684
 20
19.46290522822644
 30
0.0
 10
15.90371707956514
 20
18.83908911356867
 30
0.0
 10
15.6
 20
18.20619124728898
 30
0.0
  0
SPLINE
  5
1B3
330
1F
100
AcDbEntity
  8
SK3
  6
SLD-Dashed
370
    18
100
AcDbSpline
210
0.0
220
0.0
230
1.0
 70
    24
 71
     2
 72
     6
 73
     3
 74
     0
 42
0.000000001
 43
0.00000001
 40
0.0
 40
0.0
 40
0.0
 40
0.2500000000000007
 40
0.2500000000000007
 40
0.2500000000000007
 10
2.375000000001265
 20
16.14999999999988
 30
0.0
 10
2.357424479333675
 20
16.14999999999993
 30
0.0
 10
2.331652105107232
 20
16.14999999999999
 30
0.0
  0
SPLINE
  5
1B4
330
1F
100
AcDbEntity
  8
SK3
  6
SLD-Dashed
370
    18
100
AcDbSpline
210
0.0
220
0.0
230
1.0
 70
    24
 71
     3
 72
     8
 73
     4
 74
     0
 42
0.000000001
 43
0.00000001
 40
0.2500000000000007
 40
0.2500000000000007
 40
0.2500000000000007
 40
0.2500000000000007
 40
0.5000000000000014
 40
0.5000000000000014
 40
0.5000000000000014
 40
0.5000000000000014
 10
2.331652105107232
 20
16.14999999999999
 30
0.0
 10
2.305879730881546
 20
16.14999999999999
 30
0.0
 10
2.27279077231031
 20
16.14999999999999
 30
0.0
 10
2.236965951746453
 20
16.14999999999999
 30
0.0
  0
SPLINE
  5
1B5
330
1F
100
AcDbEntity
  8
SK3
  6
SLD-Dashed
370
    18
100
AcDbSpline
210
0.0
220
0.0
230
1.0
 70
    24
 71
     3
 72
     8
 73
     4
 74
     0
 42
0.000000001
 43
0.00000001
 40
0.5000000000000014
 40
0.5000000000000014
 40
0.5000000000000014
 40
0.5000000000000014
 40
1.0
 40
1.0
 40
1.0
 40
1.0
 10
2.236965951746453
 20
16.14999999999999
 30
0.0
 10
2.165316310618726
 20
16.14999999999999
 30
0.0
 10
2.083397657057319
 20
16.15
 30
0.0
 10
2.000000000000002
 20
16.15000000000001
 30
0.0
  0
SPLINE
  5
1B6
330
1F
100
AcDbEntity
  8
SK3
  6
SLD-Dashed
370
    18
100
AcDbSpline
210
0.0
220
0.0
230
1.0
 70
    24
 71
     3
 72
     8
 73
     4
 74
     0
 42
0.000000001
 43
0.00000001
 40
0.0
 40
0.0
 40
0.0
 40
0.0
 40
0.5000000000000014
 40
0.5000000000000014
 40
0.5000000000000014
 40
0.5000000000000014
 10
2.000000000000002
 20
-16.15000000000001
 30
0.0
 10
2.083477230592448
 20
-16.15000000000001
 30
0.0
 10
2.165250237669225
 20
-16.15000000000001
 30
0.0
 10
2.237167806898754
 20
-16.15000000000001
 30
0.0
  0
SPLINE
  5
1B7
330
1F
100
AcDbEntity
  8
SK3
  6
SLD-Dashed
370
    18
100
AcDbSpline
210
0.0
220
0.0
230
1.0
 70
    24
 71
     3
 72
     8
 73
     4
 74
     0
 42
0.000000001
 43
0.00000001
 40
0.5000000000000014
 40
0.5000000000000014
 40
0.5000000000000014
 40
0.5000000000000014
 40
0.7500000000000007
 40
0.7500000000000007
 40
0.7500000000000007
 40
0.7500000000000007
 10
2.237167806898754
 20
-16.15000000000001
 30
0.0
 10
2.273126591513519
 20
-16.15000000000001
 30
0.0
 10
2.306332390229773
 20
-16.15000000000001
 30
0.0
 10
2.332123478181916
 20
-16.15000000000001
 30
0.0
  0
SPLINE
  5
1B8
330
1F
100
AcDbEntity
  8
SK3
  6
SLD-Dashed
370
    18
100
AcDbSpline
210
0.0
220
0.0
230
1.0
 70
    24
 71
     2
 72
     6
 73
     3
 74
     0
 42
0.000000001
 43
0.00000001
 40
0.7500000000000007
 40
0.7500000000000007
 40
0.7500000000000007
 40
1.0
 40
1.0
 40
1.0
 10
2.332123478181916
 20
-16.15000000000002
 30
0.0
 10
2.357914566134834
 20
-16.15000000000007
 30
0.0
 10
2.375000000001265
 20
-16.15000000000011
 30
0.0
  0
SPLINE
  5
1B9
330
1F
100
AcDbEntity
  8
SK3
  6
SLD-Dashed
370
    18
100
AcDbSpline
210
0.0
220
0.0
230
1.0
 70
     8
 71
     3
 72
   135
 73
   131
 74
     0
 42
0.000000001
 43
0.00000001
 40
0.0
 40
0.0
 40
0.0
 40
0.0
 40
0.0078951982393532
 40
0.0157833990815802
 40
0.023666158332557
 40
0.0315450276558405
 40
0.0394215536578474
 40
0.0472972769807279
 40
0.055173731405528
 40
0.0630524429683434
 40
0.0709361420252848
 40
0.0788238506165642
 40
0.0867114970578756
 40
0.0945949853785689
 40
0.1024702009748933
 40
0.1103330161809911
 40
0.1181792958006521
 40
0.1260049026432139
 40
0.1338144185139079
 40
0.1416157577181243
 40
0.1494097843206466
 40
0.1571973533785461
 40
0.1649793107925668
 40
0.1727564931678841
 40
0.1805297276844005
 40
0.1882998319767595
 40
0.1960689634516331
 40
0.2038394066750521
 40
0.2116121599443803
 40
0.2193882168908491
 40
0.2271685661675209
 40
0.2349541911443216
 40
0.2427460696105488
 40
0.2505451734854177
 40
0.2583560389769967
 40
0.2661816682492659
 40
0.2740207179477696
 40
0.2818718384853003
 40
0.2897398161259729
 40
0.2976220237011109
 40
0.3055059714812933
 40
0.3133791644923808
 40
0.3212337892771784
 40
0.3290715795460307
 40
0.3368943590106162
 40
0.3447039336858235
 40
0.3525020907647823
 40
0.3602905975277183
 40
0.3680712002883281
 40
0.3758456233809294
 40
0.3836149515197273
 40
0.3913799673450705
 40
0.3991419179764399
 40
0.40690204089377
 40
0.4146615633665824
 40
0.4224217018986512
 40
0.4301836616894325
 40
0.4379486361132903
 40
0.4457178041747021
 40
0.4534923548782994
 40
0.4612734845178422
 40
0.4690623859410041
 40
0.4768602480146552
 40
0.4846682550990548
 40
0.4924875865316284
 40
0.500319416121949
 40
0.5081666757724785
 40
0.5160277245387371
 40
0.5238968442461832
 40
0.5317682932859238
 40
0.5396363123876042
 40
0.5474951302547779
 40
0.5553389691239646
 40
0.5631620503089649
 40
0.5709692396794509
 40
0.578769519519594
 40
0.5865632874583471
 40
0.5943509306972982
 40
0.6021328261576734
 40
0.6099093406330303
 40
0.61768083094735
 40
0.6254476441182947
 40
0.6332112109189808
 40
0.6409734299116755
 40
0.6487353400818768
 40
0.6564979753301909
 40
0.6642623640685639
 40
0.6720295288240141
 40
0.679800485850549
 40
0.6875762447500817
 40
0.6953571763089955
 40
0.7031440250676254
 40
0.7109383589363527
 40
0.7187417487530882
 40
0.7265557674545718
 40
0.734381989248417
 40
0.742221988788129
 40
0.7500773403536259
 40
0.757946303854072
 40
0.7658199527656837
 40
0.7736890660567202
 40
0.7815444132482977
 40
0.7893857016324147
 40
0.7972179773013996
 40
0.8050400117016625
 40
0.812850569191431
 40
0.8206517083128052
 40
0.8284467116860081
 40
0.8362361730772699
 40
0.8440206808483213
 40
0.8518008178782823
 40
0.8595771614892231
 40
0.8673502833759236
 40
0.8751207495394379
 40
0.882890052742591
 40
0.8906599012669826
 40
0.8984311852507723
 40
0.906204799138957
 40
0.9139816413792551
 40
0.921762614114065
 40
0.9295486228685619
 40
0.9373405762358674
 40
0.9451393855595408
 40
0.9529459646142031
 40
0.960761229284548
 40
0.968586097243729
 40
0.9764214876311388
 40
0.9842683207307236
 40
0.9921275176499073
 40
1.0
 40
1.0
 40
1.0
 40
1.0
 10
2.750000000000953
 20
20.96694064473913
 30
0.0
 10
2.748386932989059
 20
20.96693412668402
 30
0.0
 10
2.745162228602653
 20
20.96692109635069
 30
0.0
 10
2.740327935036556
 20
20.96681635618217
 30
0.0
 10
2.73549884579307
 20
20.9666493622828
 30
0.0
 10
2.730674939780318
 20
20.96641411424462
 30
0.0
 10
2.725856196270755
 20
20.9661123499296
 30
0.0
 10
2.721042592466735
 20
20.96574375362852
 30
0.0
 10
2.716234113439527
 20
20.96530849229249
 30
0.0
 10
2.711430468307602
 20
20.96480682914931
 30
0.0
 10
2.706631982299534
 20
20.96423810083653
 30
0.0
 10
2.70184010038544
 20
20.96360216141554
 30
0.0
 10
2.697057522195477
 20
20.96289998125117
 30
0.0
 10
2.692287601095862
 20
20.96213233152747
 30
0.0
 10
2.687533680795946
 20
20.96130006151749
 30
0.0
 10
2.682799111629136
 20
20.96040398122374
 30
0.0
 10
2.678087227170306
 20
20.95944497957088
 30
0.0
 10
2.673399681298885
 20
20.95842329083725
 30
0.0
 10
2.668735533090133
 20
20.95733950422983
 30
0.0
 10
2.664092730875874
 20
20.95619429960307
 30
0.0
 10
2.659470212896642
 20
20.95498741326934
 30
0.0
 10
2.654868256743832
 20
20.95371917939116
 30
0.0
 10
2.650287156476139
 20
20.95238985960645
 30
0.0
 10
2.645727202122535
 20
20.95099973382922
 30
0.0
 10
2.641188683336272
 20
20.94954908132741
 30
0.0
 10
2.636671633778231
 20
20.94803807826978
 30
0.0
 10
2.632175784253045
 20
20.94646684807439
 30
0.0
 10
2.627700848840751
 20
20.94483542776608
 30
0.0
 10
2.623246791934708
 20
20.9431438504105
 30
0.0
 10
2.618813818920471
 20
20.94139225316369
 30
0.0
 10
2.614402137932126
 20
20.93958076611636
 30
0.0
 10
2.610011952314021
 20
20.93770952999367
 30
0.0
 10
2.605643481782938
 20
20.93577865006116
 30
0.0
 10
2.601296221960952
 20
20.9337880592841
 30
0.0
 10
2.596969536932142
 20
20.93173698153469
 30
0.0
 10
2.592663187820685
 20
20.9296249443477
 30
0.0
 10
2.588377838544424
 20
20.9274523717123
 30
0.0
 10
2.584113825119736
 20
20.92521950337026
 30
0.0
 10
2.579872026012578
 20
20.92292611560877
 30
0.0
 10
2.575655099083328
 20
20.92057351612118
 30
0.0
 10
2.571468539606707
 20
20.9181651542405
 30
0.0
 10
2.567318995599192
 20
20.91570459062542
 30
0.0
 10
2.563210186280175
 20
20.9131946427993
 30
0.0
 10
2.559142990686547
 20
20.91063710962106
 30
0.0
 10
2.555117054486196
 20
20.90803201171133
 30
0.0
 10
2.55113188012332
 20
20.90537956448627
 30
0.0
 10
2.547187003358917
 20
20.90267992822874
 30
0.0
 10
2.543281950769603
 20
20.89993327832073
 30
0.0
 10
2.539416252216195
 20
20.89713978485219
 30
0.0
 10
2.535589534541145
 20
20.89429969918749
 30
0.0
 10
2.531801578954489
 20
20.89141336986825
 30
0.0
 10
2.528052389720398
 20
20.88848099598054
 30
0.0
 10
2.524341925041876
 20
20.88550277801682
 30
0.0
 10
2.520670069598073
 20
20.88247885287864
 30
0.0
 10
2.517036707458335
 20
20.87940935843702
 30
0.0
 10
2.513441721593464
 20
20.87629443367904
 30
0.0
 10
2.509884999868289
 20
20.87313421219481
 30
0.0
 10
2.506366411858224
 20
20.86992884836617
 30
0.0
 10
2.502885893452447
 20
20.86667841702295
 30
0.0
 10
2.499443496674275
 20
20.86338286488024
 30
0.0
 10
2.496039200415253
 20
20.86004221150003
 30
0.0
 10
2.492672999634488
 20
20.85665645564446
 30
0.0
 10
2.489344888557496
 20
20.85322559770375
 30
0.0
 10
2.486054846615918
 20
20.84974965102382
 30
0.0
 10
2.482802913180038
 20
20.84622857542639
 30
0.0
 10
2.479588660776959
 20
20.84266226460072
 30
0.0
 10
2.476412898970555
 20
20.83905027431056
 30
0.0
 10
2.473277022222026
 20
20.83539356243417
 30
0.0
 10
2.470182784798873
 20
20.83169510683793
 30
0.0
 10
2.467132716328313
 20
20.82795830486445
 30
0.0
 10
2.46412928043347
 20
20.82418661137459
 30
0.0
 10
2.461174974752012
 20
20.82038345382951
 30
0.0
 10
2.458272226692704
 20
20.81655231213399
 30
0.0
 10
2.455422417578464
 20
20.81269473630946
 30
0.0
 10
2.452624353631035
 20
20.80881043318724
 30
0.0
 10
2.449875728142898
 20
20.80489830996252
 30
0.0
 10
2.447175765559279
 20
20.80095728414187
 30
0.0
 10
2.444524469662361
 20
20.79698787236554
 30
0.0
 10
2.441921908912036
 20
20.79299054416735
 30
0.0
 10
2.439368137328902
 20
20.78896577996613
 30
0.0
 10
2.436863202091868
 20
20.78491406365749
 30
0.0
 10
2.434407076876421
 20
20.78083566298074
 30
0.0
 10
2.431999423029595
 20
20.77673065846375
 30
0.0
 10
2.42963989660687
 20
20.77259895701659
 30
0.0
 10
2.427328362911644
 20
20.76844043316219
 30
0.0
 10
2.425064732500766
 20
20.76425513744853
 30
0.0
 10
2.422848927321856
 20
20.76004311369698
 30
0.0
 10
2.420680866794596
 20
20.75580440728718
 30
0.0
 10
2.418560468985795
 20
20.75153906409725
 30
0.0
 10
2.416487715973872
 20
20.74724724268674
 30
0.0
 10
2.414462575366309
 20
20.74292916455894
 30
0.0
 10
2.412485163304667
 20
20.73858485200406
 30
0.0
 10
2.410555513153064
 20
20.73421409866631
 30
0.0
 10
2.408673578280091
 20
20.72981655048768
 30
0.0
 10
2.406839316863405
 20
20.72539185146354
 30
0.0
 10
2.40505267658684
 20
20.72093964952397
 30
0.0
 10
2.403313642241916
 20
20.7164595788215
 30
0.0
 10
2.401622297988078
 20
20.71195195863181
 30
0.0
 10
2.399979944083579
 20
20.70741894461686
 30
0.0
 10
2.3983882850213
 20
20.70286490545133
 30
0.0
 10
2.396849013072126
 20
20.69829582969492
 30
0.0
 10
2.395363521019413
 20
20.6937159370495
 30
0.0
 10
2.393931991771979
 20
20.68912677662166
 30
0.0
 10
2.3925538117128
 20
20.68452841952475
 30
0.0
 10
2.391228853977176
 20
20.67992097807528
 30
0.0
 10
2.389957173181134
 20
20.675305146968
 30
0.0
 10
2.388738337755665
 20
20.67068079373767
 30
0.0
 10
2.387571774653138
 20
20.66604742329537
 30
0.0
 10
2.386457329740077
 20
20.66140473610276
 30
0.0
 10
2.385394905121379
 20
20.65675298513301
 30
0.0
 10
2.384384423750642
 20
20.65209241764475
 30
0.0
 10
2.383425808573481
 20
20.64742328142866
 30
0.0
 10
2.382518961734699
 20
20.64274582784096
 30
0.0
 10
2.381663834318267
 20
20.6380601060103
 30
0.0
 10
2.380860035176138
 20
20.63336598666118
 30
0.0
 10
2.380107351500113
 20
20.62866323111203
 30
0.0
 10
2.379405913238722
 20
20.62395166862768
 30
0.0
 10
2.378755795057287
 20
20.61923130854017
 30
0.0
 10
2.378157094020477
 20
20.61450215633207
 30
0.0
 10
2.377609901218075
 20
20.60976421852214
 30
0.0
 10
2.377114309184705
 20
20.60501750135495
 30
0.0
 10
2.376670410605276
 20
20.60026201115161
 30
0.0
 10
2.376278296065376
 20
20.59549775421565
 30
0.0
 10
2.375938064358207
 20
20.59072473685601
 30
0.0
 10
2.37564978344941
 20
20.58594296538611
 30
0.0
 10
2.375413636544192
 20
20.58115244610213
 30
0.0
 10
2.375229375891561
 20
20.57635318536807
 30
0.0
 10
2.375098365427257
 20
20.57154518929356
 30
0.0
 10
2.375015940484469
 20
20.56672846493773
 30
0.0
 10
2.375005316486337
 20
20.56351433873747
 30
0.0
 10
2.375000000001265
 20
20.56190591846972
 30
0.0
  0
SPLINE
  5
1BA
330
1F
100
AcDbEntity
  8
1
  6
SLD-Dashed
370
    18
100
AcDbSpline
210
0.0
220
0.0
230
1.0
 70
     8
 71
     3
 72
     8
 73
     4
 74
     0
 42
0.000000001
 43
0.00000001
 40
0.0
 40
0.0
 40
0.0
 40
0.0
 40
1.0
 40
1.0
 40
1.0
 40
1.0
 10
11.4
 20
18.0953286017731
 30
0.0
 10
10.89434699821049
 20
19.05488642389783
 30
0.0
 10
10.38346933994867
 20
20.01180319386894
 30
0.0
 10
9.86907174701017
 20
20.96694064473883
 30
0.0
  0
SPLINE
  5
1BB
330
1F
100
AcDbEntity
  8
1
  6
SLD-Dashed
370
    18
100
AcDbSpline
210
0.0
220
0.0
230
1.0
 70
     8
 71
     3
 72
     8
 73
     4
 74
     0
 42
0.000000001
 43
0.00000001
 40
0.0
 40
0.0
 40
0.0
 40
0.0
 40
0.0006887074915323
 40
0.0006887074915323
 40
0.0006887074915323
 40
0.0006887074915323
 10
9.572981872400925
 20
21.31461266515952
 30
0.0
 10
9.672099735099499
 20
21.19883443678794
 30
0.0
 10
9.770807239792138
 20
21.08294605744527
 30
0.0
 10
9.869071747010176
 20
20.96694064473882
 30
0.0
  0
SPLINE
  5
1BC
330
1F
100
AcDbEntity
  8
1
  6
SLD-Dashed
370
    18
100
AcDbSpline
210
0.0
220
0.0
230
1.0
 70
     8
 71
     3
 72
    16
 73
    12
 74
     0
 42
0.000000001
 43
0.00000001
 40
0.0
 40
0.0
 40
0.0
 40
0.0
 40
0.0680357694100601
 40
0.1216271915822669
 40
0.2437825385131474
 40
0.3664174069515543
 40
0.4907311408778799
 40
0.6196738302134165
 40
0.7429210525082591
 40
0.8723479675779261
 40
1.0
 40
1.0
 40
1.0
 40
1.0
 10
2.000000000000009
 20
20.56190591846972
 30
0.0
 10
2.000796789486455
 20
20.58840543156104
 30
0.0
 10
2.002221205912681
 20
20.63577847347037
 30
0.0
 10
2.016562271679956
 20
20.72978897883274
 30
0.0
 10
2.049010913405293
 20
20.84222874359077
 30
0.0
 10
2.115216794569608
 20
20.97140279656775
 30
0.0
 10
2.206796006805408
 20
21.08800070366245
 30
0.0
 10
2.320292410375534
 20
21.1849168374392
 30
0.0
 10
2.452780038404968
 20
21.25807956074387
 30
0.0
 10
2.597289938882905
 20
21.30559252571813
 30
0.0
 10
2.699331479161716
 20
21.31161982290621
 30
0.0
 10
2.750000000000003
 20
21.31461266515788
 30
0.0
  0
SPLINE
  5
1BD
330
1F
100
AcDbEntity
  8
1
  6
SLD-Dashed
370
    18
100
AcDbSpline
210
0.0
220
0.0
230
1.0
 70
     8
 71
     3
 72
     8
 73
     4
 74
     0
 42
0.000000001
 43
0.00000001
 40
0.0
 40
0.0
 40
0.0
 40
0.0
 40
1.0
 40
1.0
 40
1.0
 40
1.0
 10
11.40000000000174
 20
-18.09532860176987
 30
0.0
 10
10.89428872080338
 20
-19.05499701464221
 30
0.0
 10
10.38340163897134
 20
-20.01192890157012
 30
0.0
 10
9.869071747011924
 20
-20.96694064473558
 30
0.0
  0
INSERT
  5
1BE
330
1F
100
AcDbEntity
  8
81
100
AcDbBlockReference
  2
Block11
 10
-53.7970700623
 20
-130.2676275275
 30
0.0
  0
INSERT
  5
1BF
330
1F
100
AcDbEntity
  8
80
100
AcDbBlockReference
  2
Block12
 10
-61.7273641656
 20
-130.3356800267
 30
0.0
  0
DIMENSION
  5
1C0
330
1F
100
AcDbEntity
  8
SK2
100
AcDbDimension
  2
_D
 10
22.1
 20
32.0174595398
 30
0.0
 11
10.9591498578
 21
32.0174595398
 31
0.0
 70
   160
  1
<>
 71
     2
 42
-1.0
  3
SLDDIMSTYLE0
100
AcDbAlignedDimension
 13
0.0
 23
15.875
 33
0.0
 14
22.1
 24
22.24
 34
0.0
100
AcDbRotatedDimension
  0
DIMENSION
  5
1CC
330
1F
100
AcDbEntity
  8
SK2
100
AcDbDimension
  2
_D_1
 10
38.0
 20
32.0174595398
 30
0.0
 11
29.8083931574
 21
32.0174595398
 31
0.0
 70
   160
  1
<>
 71
     2
 42
-1.0
  3
SLDDIMSTYLE0
100
AcDbAlignedDimension
 13
22.1
 23
22.24
 33
0.0
 14
38.0
 24
23.0
 34
0.0
100
AcDbRotatedDimension
  0
DIMENSION
  5
1D6
330
1F
100
AcDbEntity
  8
SK2
100
AcDbDimension
  2
_D_2
 10
71.0
 20
32.0174595398
 30
0.0
 11
55.4407551531
 21
32.0174595398
 31
0.0
 70
   160
  1
<>
 71
     2
 42
-1.0
  3
SLDDIMSTYLE0
100
AcDbAlignedDimension
 13
38.0
 23
23.0
 33
0.0
 14
71.0
 24
12.9710190579
 34
0.0
100
AcDbRotatedDimension
  0
DIMENSION
  5
1E0
330
1F
100
AcDbEntity
  8
2
100
AcDbDimension
  2
_D_3
 10
0.0
 20
41.4094700421
 30
0.0
 11
18.0031577344
 21
41.4094700421
 31
0.0
 70
   160
  1
<>
 71
     2
 42
-1.0
  3
SLDDIMSTYLE0
100
AcDbAlignedDimension
 13
38.0
 23
23.0
 33
0.0
 14
0.0
 24
15.875
 34
0.0
100
AcDbRotatedDimension
  0
DIMENSION
  5
1EA
330
1F
100
AcDbEntity
  8
SK2
100
AcDbDimension
  2
_D_4
 10
107.3916542866
 20
24.0
 30
0.0
 11
107.3916542866
 21
-0.4511203411
 31
0.0
 70
   160
  1
%%c<>
 71
     2
 42
-1.0
  3
SLDDIMSTYLE0
100
AcDbAlignedDimension
 13
36.3
 23
-24.0
 33
0.0
 14
37.0
 24
24.0
 34
0.0
 50
90.0
100
AcDbRotatedDimension
  0
DIMENSION
  5
1F5
330
1F
100
AcDbEntity
  8
SK2
100
AcDbDimension
  2
_D_5
 10
96.1391405143
 20
13.5
 30
0.0
 11
96.1391405143
 21
-0.4511203411
 31
0.0
 70
   160
  1
%%c<>
 71
     2
 42
-1.0
  3
SLDDIMSTYLE0
100
AcDbAlignedDimension
 13
68.0
 23
-13.5
 33
0.0
 14
68.0
 24
13.5
 34
0.0
 50
90.0
100
AcDbRotatedDimension
  0
DIMENSION
  5
200
330
1F
100
AcDbEntity
  8
SK2
100
AcDbDimension
  2
_D_6
 10
-73.7970834944
 20
-22.99
 30
0.0
 11
-73.7970834944
 21
-0.4511203411
 31
0.0
 70
   160
  1
%%c<>
 71
     2
 42
-1.0
  3
SLDDIMSTYLE0
100
AcDbAlignedDimension
 13
19.874649423
 23
22.99
 33
0.0
 14
19.8746494411
 24
-22.99
 34
0.0
 50
90.0
100
AcDbRotatedDimension
  0
DIMENSION
  5
20B
330
1F
100
AcDbEntity
  8
SK2
100
AcDbDimension
  2
_D_7
 10
-63.4738935471
 20
15.875
 30
0.0
 11
-63.4738935471
 21
-0.4511203411
 31
0.0
 70
   160
  1
%%c<>
 71
     2
 42
-1.0
  3
SLDDIMSTYLE0
100
AcDbAlignedDimension
 13
0.0
 23
-15.875
 33
0.0
 14
0.0
 24
15.875
 34
0.0
 50
90.0
100
AcDbRotatedDimension
  0
DIMENSION
  5
216
330
1F
100
AcDbEntity
  8
SK2
100
AcDbDimension
  2
_D_8
 10
-54.5674486333
 20
6.0
 30
0.0
 11
-54.5674486333
 21
0.2341889728
 31
0.0
 70
   160
  1
M<>
 71
     2
 42
-1.0
  3
SLDDIMSTYLE0
100
AcDbAlignedDimension
 13
-40.7891560818
 23
-6.0
 33
0.0
 14
-40.7891560818
 24
6.0
 34
0.0
 50
90.0
100
AcDbRotatedDimension
  0
MTEXT
  5
221
330
1F
100
AcDbEntity
  8
SK6
 62
     5
100
AcDbMText
 10
-47.6369508134
 20
-27.4158730797
 30
0.0
 40
3.5
 41
0.0
 71
     1
 72
     1
  1
A208-30 27 050
  7
SLDTEXTSTYLE0
 73
     1
 44
1.0
  0
MTEXT
  5
222
330
1F
100
AcDbEntity
  8
SK6
 62
     5
100
AcDbMText
 10
-32.0224181101
 20
21.1345347431
 30
0.0
 40
3.5
 41
0.0
 71
     1
 72
     1
  1
MAS-403 BT30
  7
SLDTEXTSTYLE0
 73
     1
 44
1.0
  0
ENDSEC
  0
SECTION
  2
OBJECTS
  0
DICTIONARY
  5
C
330
0
100
AcDbDictionary
281
     1
  3
ACAD_GROUP
350
D
  3
ACAD_LAYOUT
350
1A
  3
ACAD_MLINESTYLE
350
17
  3
ACAD_PLOTSETTINGS
350
19
  3
ACAD_PLOTSTYLENAME
350
E
  3
ACAD_SCALELIST
350
47
  0
DICTIONARY
  5
D
102
{ACAD_REACTORS
330
C
102
}
330
C
100
AcDbDictionary
281
     1
  0
DICTIONARY
  5
1A
102
{ACAD_REACTORS
330
C
102
}
330
C
100
AcDbDictionary
281
     1
  3
Layout1
350
1E
  3
Layout2
350
26
  3
Model
350
22
  0
DICTIONARY
  5
17
102
{ACAD_REACTORS
330
C
102
}
330
C
100
AcDbDictionary
281
     1
  3
Standard
350
18
  0
DICTIONARY
  5
19
102
{ACAD_REACTORS
330
C
102
}
330
C
100
AcDbDictionary
281
     1
  0
ACDBDICTIONARYWDFLT
  5
E
102
{ACAD_REACTORS
330
C
102
}
330
C
100
AcDbDictionary
281
     1
  3
Normal
350
F
100
AcDbDictionaryWithDefault
340
F
  0
DICTIONARY
  5
47
102
{ACAD_REACTORS
330
C
102
}
330
C
100
AcDbDictionary
281
     1
  3
A0
350
48
  3
A1
350
49
  3
A2
350
4A
  3
A3
350
4B
  3
A4
350
4C
  3
A5
350
4D
  3
A6
350
4E
  3
A7
350
4F
  3
A8
350
50
  3
A9
350
51
  3
B0
350
52
  3
B1
350
53
  3
B2
350
54
  3
B3
350
55
  3
B4
350
56
  3
B5
350
57
  3
B6
350
58
  3
B7
350
59
  3
B8
350
5A
  3
B9
350
5B
  3
C0
350
5C
  3
C1
350
5D
  3
C2
350
5E
  3
C3
350
5F
  3
C4
350
60
  3
C5
350
61
  3
C6
350
62
  3
C7
350
63
  3
C8
350
64
  3
C9
350
65
  3
D0
350
66
  3
D1
350
67
  3
D2
350
68
  0
LAYOUT
  5
1E
102
{ACAD_REACTORS
330
1A
102
}
330
1A
100
AcDbPlotSettings
  1

  2
none_device
  4

  6

 40
0.0
 41
0.0
 42
0.0
 43
0.0
 44
0.0
 45
0.0
 46
0.0
 47
0.0
 48
0.0
 49
0.0
140
0.0
141
0.0
142
1.0
143
1.0
 70
   688
 72
     1
 73
     0
 74
     5
  7

 75
    16
147
1.0
148
0.0
149
0.0
100
AcDbLayout
  1
Layout1
 70
     1
 71
     1
 10
0.0
 20
0.0
 11
420.0
 21
297.0
 12
0.0
 22
0.0
 32
0.0
 14
1.0000000000E+20
 24
1.0000000000E+20
 34
1.0000000000E+20
 15
-1.0000000000E+20
 25
-1.0000000000E+20
 35
-1.0000000000E+20
146
0.0
 13
0.0
 23
0.0
 33
0.0
 16
1.0
 26
0.0
 36
0.0
 17
0.0
 27
1.0
 37
0.0
 76
     0
330
1B
  0
LAYOUT
  5
26
102
{ACAD_REACTORS
330
1A
102
}
330
1A
100
AcDbPlotSettings
  1

  2
none_device
  4

  6

 40
0.0
 41
0.0
 42
0.0
 43
0.0
 44
0.0
 45
0.0
 46
0.0
 47
0.0
 48
0.0
 49
0.0
140
0.0
141
0.0
142
1.0
143
1.0
 70
   688
 72
     1
 73
     0
 74
     5
  7

 75
    16
147
1.0
148
0.0
149
0.0
100
AcDbLayout
  1
Layout2
 70
     1
 71
     2
 10
0.0
 20
0.0
 11
0.0
 21
0.0
 12
0.0
 22
0.0
 32
0.0
 14
0.0
 24
0.0
 34
0.0
 15
0.0
 25
0.0
 35
0.0
146
0.0
 13
0.0
 23
0.0
 33
0.0
 16
1.0
 26
0.0
 36
0.0
 17
0.0
 27
1.0
 37
0.0
 76
     0
330
23
  0
LAYOUT
  5
22
102
{ACAD_REACTORS
330
1A
102
}
330
1A
100
AcDbPlotSettings
  1

  2
none_device
  4
Letter_(8.50_x_11.00_Inches)
  6

 40
6.35
 41
6.35
 42
6.35000508
 43
6.35000508
 44
215.9
 45
279.4
 46
0.0
 47
0.0
 48
0.0
 49
0.0
140
0.0
141
0.0
142
1.0
143
1.0
 70
  1712
 72
     1
 73
     0
 74
     0
  7

 75
     0
147
1.0
148
0.0
149
0.0
100
AcDbLayout
  1
Model
 70
     1
 71
     0
 10
0.0
 20
0.0
 11
297.0
 21
210.0
 12
0.0
 22
0.0
 32
0.0
 14
0.0
 24
0.0
 34
0.0
 15
297.0
 25
210.0
 35
0.0
146
0.0
 13
0.0
 23
0.0
 33
0.0
 16
1.0
 26
0.0
 36
0.0
 17
0.0
 27
1.0
 37
0.0
 76
     0
330
1F
331
29
  0
MLINESTYLE
  5
18
102
{ACAD_REACTORS
330
17
102
}
330
17
100
AcDbMlineStyle
  2
Standard
 70
     0
  3

 62
   256
 51
90.0
 52
90.0
 71
     2
 49
0.5
 62
   256
  6
BYLAYER
 49
-0.5
 62
   256
  6
BYLAYER
  0
ACDBPLACEHOLDER
  5
F
102
{ACAD_REACTORS
330
E
102
}
330
E
  0
SCALE
  5
48
102
{ACAD_REACTORS
330
47
102
}
330
47
100
AcDbScale
 70
     0
300
1:1
140
1.0
141
1.0
290
     1
  0
SCALE
  5
49
102
{ACAD_REACTORS
330
47
102
}
330
47
100
AcDbScale
 70
     0
300
1:2
140
1.0
141
2.0
290
     0
  0
SCALE
  5
4A
102
{ACAD_REACTORS
330
47
102
}
330
47
100
AcDbScale
 70
     0
300
1:4
140
1.0
141
4.0
290
     0
  0
SCALE
  5
4B
102
{ACAD_REACTORS
330
47
102
}
330
47
100
AcDbScale
 70
     0
300
1:5
140
1.0
141
5.0
290
     0
  0
SCALE
  5
4C
102
{ACAD_REACTORS
330
47
102
}
330
47
100
AcDbScale
 70
     0
300
1:8
140
1.0
141
8.0
290
     0
  0
SCALE
  5
4D
102
{ACAD_REACTORS
330
47
102
}
330
47
100
AcDbScale
 70
     0
300
1:10
140
1.0
141
10.0
290
     0
  0
SCALE
  5
4E
102
{ACAD_REACTORS
330
47
102
}
330
47
100
AcDbScale
 70
     0
300
1:16
140
1.0
141
16.0
290
     0
  0
SCALE
  5
4F
102
{ACAD_REACTORS
330
47
102
}
330
47
100
AcDbScale
 70
     0
300
1:20
140
1.0
141
20.0
290
     0
  0
SCALE
  5
50
102
{ACAD_REACTORS
330
47
102
}
330
47
100
AcDbScale
 70
     0
300
1:30
140
1.0
141
30.0
290
     0
  0
SCALE
  5
51
102
{ACAD_REACTORS
330
47
102
}
330
47
100
AcDbScale
 70
     0
300
1:40
140
1.0
141
40.0
290
     0
  0
SCALE
  5
52
102
{ACAD_REACTORS
330
47
102
}
330
47
100
AcDbScale
 70
     0
300
1:50
140
1.0
141
50.0
290
     0
  0
SCALE
  5
53
102
{ACAD_REACTORS
330
47
102
}
330
47
100
AcDbScale
 70
     0
300
1:100
140
1.0
141
100.0
290
     0
  0
SCALE
  5
54
102
{ACAD_REACTORS
330
47
102
}
330
47
100
AcDbScale
 70
     0
300
2:1
140
2.0
141
1.0
290
     0
  0
SCALE
  5
55
102
{ACAD_REACTORS
330
47
102
}
330
47
100
AcDbScale
 70
     0
300
4:1
140
4.0
141
1.0
290
     0
  0
SCALE
  5
56
102
{ACAD_REACTORS
330
47
102
}
330
47
100
AcDbScale
 70
     0
300
8:1
140
8.0
141
1.0
290
     0
  0
SCALE
  5
57
102
{ACAD_REACTORS
330
47
102
}
330
47
100
AcDbScale
 70
     0
300
10:1
140
10.0
141
1.0
290
     0
  0
SCALE
  5
58
102
{ACAD_REACTORS
330
47
102
}
330
47
100
AcDbScale
 70
     0
300
100:1
140
100.0
141
1.0
290
     0
  0
SCALE
  5
59
102
{ACAD_REACTORS
330
47
102
}
330
47
100
AcDbScale
 70
     0
300
1/128" = 1'-0"
140
0.0078125
141
12.0
290
     0
  0
SCALE
  5
5A
102
{ACAD_REACTORS
330
47
102
}
330
47
100
AcDbScale
 70
     0
300
1/64" = 1'-0"
140
0.015625
141
12.0
290
     0
  0
SCALE
  5
5B
102
{ACAD_REACTORS
330
47
102
}
330
47
100
AcDbScale
 70
     0
300
1/32" = 1'-0"
140
0.03125
141
12.0
290
     0
  0
SCALE
  5
5C
102
{ACAD_REACTORS
330
47
102
}
330
47
100
AcDbScale
 70
     0
300
1/16" = 1'-0"
140
0.0625
141
12.0
290
     0
  0
SCALE
  5
5D
102
{ACAD_REACTORS
330
47
102
}
330
47
100
AcDbScale
 70
     0
300
3/32" = 1'-0"
140
0.09375
141
12.0
290
     0
  0
SCALE
  5
5E
102
{ACAD_REACTORS
330
47
102
}
330
47
100
AcDbScale
 70
     0
300
1/8" = 1'-0"
140
0.125
141
12.0
290
     0
  0
SCALE
  5
5F
102
{ACAD_REACTORS
330
47
102
}
330
47
100
AcDbScale
 70
     0
300
3/16" = 1'-0"
140
0.1875
141
12.0
290
     0
  0
SCALE
  5
60
102
{ACAD_REACTORS
330
47
102
}
330
47
100
AcDbScale
 70
     0
300
1/4" = 1'-0"
140
0.25
141
12.0
290
     0
  0
SCALE
  5
61
102
{ACAD_REACTORS
330
47
102
}
330
47
100
AcDbScale
 70
     0
300
3/8" = 1'-0"
140
0.375
141
12.0
290
     0
  0
SCALE
  5
62
102
{ACAD_REACTORS
330
47
102
}
330
47
100
AcDbScale
 70
     0
300
1/2" = 1'-0"
140
0.5
141
12.0
290
     0
  0
SCALE
  5
63
102
{ACAD_REACTORS
330
47
102
}
330
47
100
AcDbScale
 70
     0
300
3/4" = 1'-0"
140
0.75
141
12.0
290
     0
  0
SCALE
  5
64
102
{ACAD_REACTORS
330
47
102
}
330
47
100
AcDbScale
 70
     0
300
1" = 1'-0"
140
1.0
141
12.0
290
     0
  0
SCALE
  5
65
102
{ACAD_REACTORS
330
47
102
}
330
47
100
AcDbScale
 70
     0
300
1-1/2" = 1'-0"
140
1.5
141
12.0
290
     0
  0
SCALE
  5
66
102
{ACAD_REACTORS
330
47
102
}
330
47
100
AcDbScale
 70
     0
300
3" = 1'-0"
140
3.0
141
12.0
290
     0
  0
SCALE
  5
67
102
{ACAD_REACTORS
330
47
102
}
330
47
100
AcDbScale
 70
     0
300
6" = 1'-0"
140
6.0
141
12.0
290
     0
  0
SCALE
  5
68
102
{ACAD_REACTORS
330
47
102
}
330
47
100
AcDbScale
 70
     0
300
1'-0" = 1'-0"
140
12.0
141
12.0
290
     0
  0
ENDSEC
  0
EOF
