  0
SECTION
  2
HEADER
  9
$ACADVER
  1
AC1015
  9
$ACADMAINTVER
 70
     6
  9
$DWGCODEPAGE
  3
ANSI_1250
  9
$INSBASE
 10
0.0
 20
0.0
 30
0.0
  9
$EXTMIN
 10
0.0
 20
0.0
 30
0.0
  9
$EXTMAX
 10
297.0
 20
210.0
 30
0.0
  9
$LIMMIN
 10
0.0
 20
0.0
  9
$LIMMAX
 10
297.0
 20
210.0
  9
$ORTHOMODE
 70
     0
  9
$REGENMODE
 70
     1
  9
$FILLMODE
 70
     1
  9
$QTEXTMODE
 70
     0
  9
$MIRRTEXT
 70
     1
  9
$LTSCALE
 40
1.0
  9
$ATTMODE
 70
     1
  9
$TEXTSIZE
 40
3.5
  9
$TRACEWID
 40
1.0
  9
$TEXTSTYLE
  7
Standard
  9
$CLAYER
  8
0
  9
$CELTYPE
  6
ByLayer
  9
$CECOLOR
 62
   256
  9
$CELTSCALE
 40
1.0
  9
$DISPSILH
 70
     0
  9
$DIMSCALE
 40
1.0
  9
$DIMASZ
 40
3.302
  9
$DIMEXO
 40
1.0
  9
$DIMDLI
 40
3.75
  9
$DIMRND
 40
0.0
  9
$DIMDLE
 40
0.0
  9
$DIMEXE
 40
1.0
  9
$DIMTP
 40
0.0
  9
$DIMTM
 40
0.0
  9
$DIMTXT
 40
3.5
  9
$DIMCEN
 40
2.5
  9
$DIMTSZ
 40
0.0
  9
$DIMTOL
 70
     0
  9
$DIMLIM
 70
     0
  9
$DIMTIH
 70
     1
  9
$DIMTOH
 70
     1
  9
$DIMSE1
 70
     0
  9
$DIMSE2
 70
     0
  9
$DIMTAD
 70
     1
  9
$DIMZIN
 70
     0
  9
$DIMBLK
  1

  9
$DIMASO
 70
     1
  9
$DIMSHO
 70
     1
  9
$DIMPOST
  1

  9
$DIMAPOST
  1

  9
$DIMALT
 70
     0
  9
$DIMALTD
 70
     3
  9
$DIMALTF
 40
0.0393700787
  9
$DIMLFAC
 40
1.0
  9
$DIMTOFL
 70
     1
  9
$DIMTVP
 40
0.0
  9
$DIMTIX
 70
     0
  9
$DIMSOXD
 70
     0
  9
$DIMSAH
 70
     0
  9
$DIMBLK1
  1

  9
$DIMBLK2
  1

  9
$DIMSTYLE
  2
ISO-25
  9
$DIMCLRD
 70
     0
  9
$DIMCLRE
 70
     0
  9
$DIMCLRT
 70
     0
  9
$DIMTFAC
 40
1.0
  9
$DIMGAP
 40
1.524
  9
$DIMJUST
 70
     0
  9
$DIMSD1
 70
     0
  9
$DIMSD2
 70
     0
  9
$DIMTOLJ
 70
     0
  9
$DIMTZIN
 70
     0
  9
$DIMALTZ
 70
     0
  9
$DIMALTTZ
 70
     0
  9
$DIMUPT
 70
     0
  9
$DIMDEC
 70
     2
  9
$DIMTDEC
 70
     2
  9
$DIMALTU
 70
     2
  9
$DIMALTTD
 70
     3
  9
$DIMTXSTY
  7
Standard
  9
$DIMAUNIT
 70
     0
  9
$DIMADEC
 70
     2
  9
$DIMALTRND
 40
0.0
  9
$DIMAZIN
 70
     0
  9
$DIMDSEP
 70
    44
  9
$DIMATFIT
 70
     3
  9
$DIMFRAC
 70
     0
  9
$DIMLDRBLK
  1

  9
$DIMLUNIT
 70
     2
  9
$DIMLWD
 70
    -2
  9
$DIMLWE
 70
    -2
  9
$DIMTMOVE
 70
     0
  9
$LUNITS
 70
     2
  9
$LUPREC
 70
     2
  9
$SKETCHINC
 40
1.0
  9
$FILLETRAD
 40
10.0
  9
$AUNITS
 70
     0
  9
$AUPREC
 70
     2
  9
$MENU
  1
.
  9
$ELEVATION
 40
0.0
  9
$PELEVATION
 40
0.0
  9
$THICKNESS
 40
0.0
  9
$LIMCHECK
 70
     0
  9
$CHAMFERA
 40
0.0
  9
$CHAMFERB
 40
0.0
  9
$CHAMFERC
 40
0.0
  9
$CHAMFERD
 40
0.0
  9
$SKPOLY
 70
     0
  9
$TDCREATE
 40
2459290.475498403
  9
$TDUCREATE
 40
2459290.433831736
  9
$TDUPDATE
 40
2459290.475499317
  9
$TDUUPDATE
 40
2459290.433832651
  9
$TDINDWG
 40
0.0000000116
  9
$TDUSRTIMER
 40
0.0000000116
  9
$USRTIMER
 70
     1
  9
$ANGBASE
 50
0.0
  9
$ANGDIR
 70
     0
  9
$PDMODE
 70
     0
  9
$PDSIZE
 40
-1.0
  9
$PLINEWID
 40
0.0
  9
$SPLFRAME
 70
     0
  9
$SPLINETYPE
 70
     6
  9
$SPLINESEGS
 70
     8
  9
$HANDSEED
  5
216
  9
$SURFTAB1
 70
     6
  9
$SURFTAB2
 70
     6
  9
$SURFTYPE
 70
     6
  9
$SURFU
 70
     6
  9
$SURFV
 70
     6
  9
$UCSBASE
  2

  9
$UCSNAME
  2

  9
$UCSORG
 10
0.0
 20
0.0
 30
0.0
  9
$UCSXDIR
 10
1.0
 20
0.0
 30
0.0
  9
$UCSYDIR
 10
0.0
 20
1.0
 30
0.0
  9
$UCSORTHOREF
  2

  9
$UCSORTHOVIEW
 70
     0
  9
$UCSORGTOP
 10
0.0
 20
0.0
 30
0.0
  9
$UCSORGBOTTOM
 10
0.0
 20
0.0
 30
0.0
  9
$UCSORGLEFT
 10
0.0
 20
0.0
 30
0.0
  9
$UCSORGRIGHT
 10
0.0
 20
0.0
 30
0.0
  9
$UCSORGFRONT
 10
0.0
 20
0.0
 30
0.0
  9
$UCSORGBACK
 10
0.0
 20
0.0
 30
0.0
  9
$PUCSBASE
  2

  9
$PUCSNAME
  2

  9
$PUCSORG
 10
0.0
 20
0.0
 30
0.0
  9
$PUCSXDIR
 10
1.0
 20
0.0
 30
0.0
  9
$PUCSYDIR
 10
0.0
 20
1.0
 30
0.0
  9
$PUCSORTHOREF
  2

  9
$PUCSORTHOVIEW
 70
     0
  9
$PUCSORGTOP
 10
0.0
 20
0.0
 30
0.0
  9
$PUCSORGBOTTOM
 10
0.0
 20
0.0
 30
0.0
  9
$PUCSORGLEFT
 10
0.0
 20
0.0
 30
0.0
  9
$PUCSORGRIGHT
 10
0.0
 20
0.0
 30
0.0
  9
$PUCSORGFRONT
 10
0.0
 20
0.0
 30
0.0
  9
$PUCSORGBACK
 10
0.0
 20
0.0
 30
0.0
  9
$USERI1
 70
     0
  9
$USERI2
 70
     0
  9
$USERI3
 70
     0
  9
$USERI4
 70
     0
  9
$USERI5
 70
     0
  9
$USERR1
 40
0.0
  9
$USERR2
 40
0.0
  9
$USERR3
 40
0.0
  9
$USERR4
 40
0.0
  9
$USERR5
 40
0.0
  9
$WORLDVIEW
 70
     1
  9
$SHADEDGE
 70
     3
  9
$SHADEDIF
 70
    70
  9
$TILEMODE
 70
     1
  9
$MAXACTVP
 70
    64
  9
$PINSBASE
 10
0.0
 20
0.0
 30
0.0
  9
$PLIMCHECK
 70
     0
  9
$PEXTMIN
 10
1.0000000000E+20
 20
1.0000000000E+20
 30
1.0000000000E+20
  9
$PEXTMAX
 10
-1.0000000000E+20
 20
-1.0000000000E+20
 30
-1.0000000000E+20
  9
$PLIMMIN
 10
0.0
 20
0.0
  9
$PLIMMAX
 10
420.0
 20
297.0
  9
$UNITMODE
 70
     0
  9
$VISRETAIN
 70
     1
  9
$PLINEGEN
 70
     0
  9
$PSLTSCALE
 70
     1
  9
$TREEDEPTH
 70
  3020
  9
$CMLSTYLE
  2
Standard
  9
$CMLJUST
 70
     0
  9
$CMLSCALE
 40
20.0
  9
$PROXYGRAPHICS
 70
     1
  9
$MEASUREMENT
 70
     1
  9
$CELWEIGHT
370
    -1
  9
$ENDCAPS
280
     0
  9
$JOINSTYLE
280
     0
  9
$LWDISPLAY
290
     1
  9
$INSUNITS
 70
     4
  9
$HYPERLINKBASE
  1

  9
$STYLESHEET
  1

  9
$XEDIT
290
     1
  9
$CEPSNTYPE
380
     0
  9
$PSTYLEMODE
290
     1
  9
$FINGERPRINTGUID
  2
{BEA94640-B036-4CAA-A519-12D155E13B81}
  9
$VERSIONGUID
  2
{FAEB1C32-E019-11D5-929B-00C0DF256EC4}
  9
$EXTNAMES
290
     1
  9
$PSVPSCALE
 40
0.0
  9
$OLESTARTUP
290
     0
  0
ENDSEC
  0
SECTION
  2
CLASSES
  0
CLASS
  1
ACDBDICTIONARYWDFLT
  2
AcDbDictionaryWithDefault
  3
ObjectDBX Classes
 90
        0
280
     0
281
     0
  0
CLASS
  1
VISUALSTYLE
  2
AcDbVisualStyle
  3
ObjectDBX Classes
 90
     4095
280
     0
281
     0
  0
CLASS
  1
MATERIAL
  2
AcDbMaterial
  3
ObjectDBX Classes
 90
     1153
280
     0
281
     0
  0
CLASS
  1
SCALE
  2
AcDbScale
  3
ObjectDBX Classes
 90
     1153
280
     0
281
     0
  0
CLASS
  1
TABLESTYLE
  2
AcDbTableStyle
  3
ObjectDBX Classes
 90
     4095
280
     0
281
     0
  0
CLASS
  1
MLEADERSTYLE
  2
AcDbMLeaderStyle
  3
ACDB_MLEADERSTYLE_CLASS
 90
     4095
280
     0
281
     0
  0
CLASS
  1
SUN
  2
AcDbSun
  3
SCENEOE
 90
     1153
280
     0
281
     0
  0
CLASS
  1
ACDBPLACEHOLDER
  2
AcDbPlaceHolder
  3
ObjectDBX Classes
 90
        0
280
     0
281
     0
  0
CLASS
  1
LAYOUT
  2
AcDbLayout
  3
ObjectDBX Classes
 90
        0
280
     0
281
     0
  0
ENDSEC
  0
SECTION
  2
TABLES
  0
TABLE
  2
VPORT
  5
8
330
0
100
AcDbSymbolTable
 70
     1
  0
VPORT
  5
29
330
8
100
AcDbSymbolTableRecord
100
AcDbViewportTableRecord
  2
*Active
 70
     0
 10
0.0
 20
0.0
 11
1.0
 21
1.0
 12
148.5
 22
105.0
 13
0.0
 23
0.0
 14
10.0
 24
10.0
 15
10.0
 25
10.0
 16
0.0
 26
0.0
 36
1.0
 17
0.0
 27
0.0
 37
0.0
 40
210.0
 41
1.4142857143
 42
50.0
 43
0.0
 44
0.0
 50
0.0
 51
0.0
 71
     0
 72
  2000
 73
     1
 74
     3
 75
     0
 76
     0
 77
     0
 78
     0
281
     0
 65
     1
110
0.0
120
0.0
130
0.0
111
1.0
121
0.0
131
0.0
112
0.0
122
1.0
132
0.0
 79
     0
146
0.0
  0
ENDTAB
  0
TABLE
  2
LTYPE
  5
5
330
0
100
AcDbSymbolTable
 70
     8
  0
LTYPE
  5
14
330
5
100
AcDbSymbolTableRecord
100
AcDbLinetypeTableRecord
  2
ByBlock
 70
     0
  3

 72
    65
 73
     0
 40
0.0
  0
LTYPE
  5
15
330
5
100
AcDbSymbolTableRecord
100
AcDbLinetypeTableRecord
  2
ByLayer
 70
     0
  3

 72
    65
 73
     0
 40
0.0
  0
LTYPE
  5
16
330
5
100
AcDbSymbolTableRecord
100
AcDbLinetypeTableRecord
  2
Continuous
 70
     0
  3
Solid line
 72
    65
 73
     0
 40
0.0
  0
LTYPE
  5
6E
330
5
100
AcDbSymbolTableRecord
100
AcDbLinetypeTableRecord
  2
SLD-Solid
 70
     0
  3
SolidWorks Line Style
 72
    65
 73
     0
 40
0.0
  0
LTYPE
  5
6F
330
5
100
AcDbSymbolTableRecord
100
AcDbLinetypeTableRecord
  2
SLD-Dashed
 70
     0
  3
SolidWorks Line Style
 72
    65
 73
     2
 40
1.905
 49
1.27
 74
     0
 49
-0.635
 74
     0
  0
LTYPE
  5
70
330
5
100
AcDbSymbolTableRecord
100
AcDbLinetypeTableRecord
  2
SLD-Phantom
 70
     0
  3
SolidWorks Line Style
 72
    65
 73
     6
 40
12.7
 49
6.35
 74
     0
 49
-1.27
 74
     0
 49
1.27
 74
     0
 49
-1.27
 74
     0
 49
1.27
 74
     0
 49
-1.27
 74
     0
  0
LTYPE
  5
71
330
5
100
AcDbSymbolTableRecord
100
AcDbLinetypeTableRecord
  2
SLD-Chain
 70
     0
  3
SolidWorks Line Style
 72
    65
 73
     4
 40
10.16
 49
6.35
 74
     0
 49
-1.27
 74
     0
 49
1.27
 74
     0
 49
-1.27
 74
     0
  0
LTYPE
  5
72
330
5
100
AcDbSymbolTableRecord
100
AcDbLinetypeTableRecord
  2
SLD-Center
 70
     0
  3
SolidWorks Line Style
 72
    65
 73
     4
 40
19.05
 49
15.24
 74
     0
 49
-1.27
 74
     0
 49
1.27
 74
     0
 49
-1.27
 74
     0
  0
LTYPE
  5
73
330
5
100
AcDbSymbolTableRecord
100
AcDbLinetypeTableRecord
  2
SLD-Stitch
 70
     0
  3
SolidWorks Line Style
 72
    65
 73
     2
 40
0.635
 49
0.0
 74
     0
 49
-0.635
 74
     0
  0
LTYPE
  5
74
330
5
100
AcDbSymbolTableRecord
100
AcDbLinetypeTableRecord
  2
SLD-Thin-Thick-Chain
 70
     0
  3
SolidWorks Line Style
 72
    65
 73
     4
 40
10.16
 49
6.35
 74
     0
 49
-1.27
 74
     0
 49
1.27
 74
     0
 49
-1.27
 74
     0
  0
ENDTAB
  0
TABLE
  2
LAYER
  5
2
330
0
100
AcDbSymbolTable
 70
    12
  0
LAYER
  5
10
330
2
100
AcDbSymbolTableRecord
100
AcDbLayerTableRecord
  2
0
 70
     0
 62
     7
  6
Continuous
370
    -3
390
F
  0
LAYER
  5
75
330
2
100
AcDbSymbolTableRecord
100
AcDbLayerTableRecord
  2
SLD-0
 70
     0
 62
   179
  6
SLD-Solid
370
    -3
390
F
  0
LAYER
  5
76
330
2
100
AcDbSymbolTableRecord
100
AcDbLayerTableRecord
  2
80
 70
     0
 62
    -6
  6
SLD-Solid
290
     0
370
    -3
390
F
  0
LAYER
  5
77
330
2
100
AcDbSymbolTableRecord
100
AcDbLayerTableRecord
  2
81
 70
     0
 62
    -3
  6
SLD-Solid
290
     0
370
    -3
390
F
  0
LAYER
  5
78
330
2
100
AcDbSymbolTableRecord
100
AcDbLayerTableRecord
  2
1
 70
     0
 62
     4
  6
SLD-Solid
290
     0
370
    -3
390
F
  0
LAYER
  5
79
330
2
100
AcDbSymbolTableRecord
100
AcDbLayerTableRecord
  2
4
 70
     0
 62
    -2
  6
SLD-Chain
290
     0
370
    -3
390
F
  0
LAYER
  5
7A
330
2
100
AcDbSymbolTableRecord
100
AcDbLayerTableRecord
  2
2
 70
     0
 62
     7
  6
SLD-Solid
290
     0
370
    -3
390
F
  0
LAYER
  5
7B
330
2
100
AcDbSymbolTableRecord
100
AcDbLayerTableRecord
  2
SK3
 70
     0
 62
     1
  6
SLD-Dashed
290
     0
370
    -3
390
F
  0
LAYER
  5
7C
330
2
100
AcDbSymbolTableRecord
100
AcDbLayerTableRecord
  2
SK4
 70
     0
 62
     2
  6
SLD-Chain
290
     0
370
    -3
390
F
  0
LAYER
  5
7D
330
2
100
AcDbSymbolTableRecord
100
AcDbLayerTableRecord
  2
SK2
 70
     0
 62
     7
  6
SLD-Solid
290
     0
370
    -3
390
F
  0
LAYER
  5
7E
330
2
100
AcDbSymbolTableRecord
100
AcDbLayerTableRecord
  2
SK6
 70
     0
 62
     5
  6
SLD-Solid
290
     0
370
    -3
390
F
  0
LAYER
  5
7F
330
2
100
AcDbSymbolTableRecord
100
AcDbLayerTableRecord
  2
SK1
 70
     0
 62
     4
  6
SLD-Solid
370
    -3
390
F
  0
ENDTAB
  0
TABLE
  2
STYLE
  5
3
330
0
100
AcDbSymbolTable
 70
     2
  0
STYLE
  5
11
330
3
100
AcDbSymbolTableRecord
100
AcDbTextStyleTableRecord
  2
Standard
 70
     0
 40
0.0
 41
1.0
 50
0.0
 71
     0
 42
3.5
  3
txt
  4

  0
STYLE
  5
1B1
330
3
100
AcDbSymbolTableRecord
100
AcDbTextStyleTableRecord
  2
SLDTEXTSTYLE0
 70
     0
 40
0.0
 41
0.75
 50
0.0
 71
     0
 42
3.5
  3
TXT
  4

  0
ENDTAB
  0
TABLE
  2
VIEW
  5
6
330
0
100
AcDbSymbolTable
 70
     0
  0
ENDTAB
  0
TABLE
  2
UCS
  5
7
330
0
100
AcDbSymbolTable
 70
     0
  0
ENDTAB
  0
TABLE
  2
APPID
  5
9
330
0
100
AcDbSymbolTable
 70
     1
  0
APPID
  5
12
330
9
100
AcDbSymbolTableRecord
100
AcDbRegAppTableRecord
  2
ACAD
 70
     0
  0
ENDTAB
  0
TABLE
  2
DIMSTYLE
  5
A
330
0
100
AcDbSymbolTable
 70
     3
100
AcDbDimStyleTable
  0
DIMSTYLE
105
27
330
A
100
AcDbSymbolTableRecord
100
AcDbDimStyleTableRecord
  2
ISO-25
 70
     0
 41
2.5
 42
0.625
 43
3.75
 44
1.25
 73
     0
 74
     0
 77
     1
 78
     8
140
2.5
141
2.5
143
0.0393700787
147
0.625
171
     3
172
     1
178
     0
271
     2
272
     2
274
     3
278
    44
283
     0
284
     8
340
11
  0
DIMSTYLE
105
1B2
102
{ACAD_REACTORS
330
1B0
330
1BC
330
1C6
330
1D0
330
1DA
330
1E5
330
1F0
330
1FB
102
}
330
A
100
AcDbSymbolTableRecord
100
AcDbDimStyleTableRecord
  2
SLDDIMSTYLE0
 70
     0
 41
3.302
 44
0.0
 45
0.000000001
 73
     0
 74
     0
 77
     1
 78
    12
 79
     3
140
3.5
147
0.875
173
     1
178
     0
271
     2
272
     2
276
     2
284
    12
340
1B1
  0
DIMSTYLE
105
207
102
{ACAD_REACTORS
330
206
102
}
330
A
100
AcDbSymbolTableRecord
100
AcDbDimStyleTableRecord
  2
SLDDIMSTYLE1
 70
     0
 41
3.302
 44
0.0
 45
0.000000001
 73
     0
 74
     0
 77
     1
 78
    12
 79
     3
140
3.5
147
0.875
172
     1
173
     1
178
     0
271
     2
272
     2
276
     2
284
    12
289
     0
340
1B1
  0
ENDTAB
  0
TABLE
  2
BLOCK_RECORD
  5
1
330
0
100
AcDbSymbolTable
 70
    12
  0
BLOCK_RECORD
  5
1F
330
1
100
AcDbSymbolTableRecord
100
AcDbBlockTableRecord
  2
*Model_Space
340
22
  0
BLOCK_RECORD
  5
1B
330
1
100
AcDbSymbolTableRecord
100
AcDbBlockTableRecord
  2
*Paper_Space
340
1E
  0
BLOCK_RECORD
  5
23
330
1
100
AcDbSymbolTableRecord
100
AcDbBlockTableRecord
  2
*Paper_Space0
340
26
  0
BLOCK_RECORD
  5
80
330
1
100
AcDbSymbolTableRecord
100
AcDbBlockTableRecord
  2
Block11
340
0
102
{BLKREFS
331
1AE
102
}
  0
BLOCK_RECORD
  5
89
330
1
100
AcDbSymbolTableRecord
100
AcDbBlockTableRecord
  2
Block12
340
0
102
{BLKREFS
331
1AF
102
}
  0
BLOCK_RECORD
  5
1B3
330
1
100
AcDbSymbolTableRecord
100
AcDbBlockTableRecord
  2
_D
340
0
  0
BLOCK_RECORD
  5
1BD
330
1
100
AcDbSymbolTableRecord
100
AcDbBlockTableRecord
  2
_D_1
340
0
  0
BLOCK_RECORD
  5
1C7
330
1
100
AcDbSymbolTableRecord
100
AcDbBlockTableRecord
  2
_D_2
340
0
  0
BLOCK_RECORD
  5
1D1
330
1
100
AcDbSymbolTableRecord
100
AcDbBlockTableRecord
  2
_D_3
340
0
  0
BLOCK_RECORD
  5
1DB
330
1
100
AcDbSymbolTableRecord
100
AcDbBlockTableRecord
  2
_D_4
340
0
  0
BLOCK_RECORD
  5
1E6
330
1
100
AcDbSymbolTableRecord
100
AcDbBlockTableRecord
  2
_D_5
340
0
  0
BLOCK_RECORD
  5
1F1
330
1
100
AcDbSymbolTableRecord
100
AcDbBlockTableRecord
  2
_D_6
340
0
  0
BLOCK_RECORD
  5
1FC
330
1
100
AcDbSymbolTableRecord
100
AcDbBlockTableRecord
  2
_D_7
340
0
  0
BLOCK_RECORD
  5
208
330
1
100
AcDbSymbolTableRecord
100
AcDbBlockTableRecord
  2
_D_8
340
0
  0
ENDTAB
  0
ENDSEC
  0
SECTION
  2
BLOCKS
  0
BLOCK
  5
20
330
1F
100
AcDbEntity
  8
0
100
AcDbBlockBegin
  2
*Model_Space
 70
     0
 10
0.0
 20
0.0
 30
0.0
  3
*Model_Space
  1

  0
ENDBLK
  5
21
330
1F
100
AcDbEntity
  8
0
100
AcDbBlockEnd
  0
BLOCK
  5
1C
330
1B
100
AcDbEntity
 67
     1
  8
0
100
AcDbBlockBegin
  2
*Paper_Space
 70
     0
 10
0.0
 20
0.0
 30
0.0
  3
*Paper_Space
  1

  0
ENDBLK
  5
1D
330
1B
100
AcDbEntity
 67
     1
  8
0
100
AcDbBlockEnd
  0
BLOCK
  5
24
330
23
100
AcDbEntity
  8
0
100
AcDbBlockBegin
  2
*Paper_Space0
 70
     0
 10
0.0
 20
0.0
 30
0.0
  3
*Paper_Space0
  1

  0
ENDBLK
  5
25
330
23
100
AcDbEntity
  8
0
100
AcDbBlockEnd
  0
BLOCK
  5
81
330
80
100
AcDbEntity
  8
0
100
AcDbBlockBegin
  2
Block11
 70
     0
 10
0.0
 20
0.0
 30
0.0
  3
Block11
  1

  0
CIRCLE
  5
83
330
80
100
AcDbEntity
  8
81
370
    18
100
AcDbCircle
 10
91.6264826505
 20
130.2676275275
 30
0.0
 40
2.499999999999981
  0
LINE
  5
84
330
80
100
AcDbEntity
  8
81
370
    18
100
AcDbLine
 10
91.6264826505
 20
130.2676275275
 30
0.0
 11
95.1620165565
 21
133.8031614334
 31
0.0
  0
LINE
  5
85
330
80
100
AcDbEntity
  8
81
370
    18
100
AcDbLine
 10
91.6264826505
 20
130.2676275275
 30
0.0
 11
88.0909487446
 21
126.7320936216
 31
0.0
  0
LINE
  5
86
330
80
100
AcDbEntity
  8
81
370
    18
100
AcDbLine
 10
91.6264826505
 20
130.2676275275
 30
0.0
 11
88.0909487446
 21
133.8031614334
 31
0.0
  0
LINE
  5
87
330
80
100
AcDbEntity
  8
81
100
AcDbLine
 10
91.6264826505
 20
130.2676275275
 30
0.0
 11
101.6264826505
 21
130.2676275275
 31
0.0
  0
LINE
  5
88
330
80
100
AcDbEntity
  8
81
370
    18
100
AcDbLine
 10
91.6264826505
 20
130.2676275275
 30
0.0
 11
95.1620165565
 21
126.7320936216
 31
0.0
  0
ENDBLK
  5
82
330
80
100
AcDbEntity
  8
0
100
AcDbBlockEnd
  0
BLOCK
  5
8A
330
89
100
AcDbEntity
  8
0
100
AcDbBlockBegin
  2
Block12
 70
     0
 10
0.0
 20
0.0
 30
0.0
  3
Block12
  1

  0
CIRCLE
  5
8C
330
89
100
AcDbEntity
  8
80
370
    18
100
AcDbCircle
 10
61.7273641656
 20
130.3356800267
 30
0.0
 40
2.500000000000004
  0
LINE
  5
8D
330
89
100
AcDbEntity
  8
80
370
    18
100
AcDbLine
 10
61.7273641656
 20
130.3356800267
 30
0.0
 11
65.2628980715
 21
133.8712139326
 31
0.0
  0
LINE
  5
8E
330
89
100
AcDbEntity
  8
80
370
    18
100
AcDbLine
 10
61.7273641656
 20
130.3356800267
 30
0.0
 11
58.1918302597
 21
126.8001461208
 31
0.0
  0
LINE
  5
8F
330
89
100
AcDbEntity
  8
80
370
    18
100
AcDbLine
 10
61.7273641656
 20
130.3356800267
 30
0.0
 11
58.1918302597
 21
133.8712139326
 31
0.0
  0
LINE
  5
90
330
89
100
AcDbEntity
  8
80
370
    18
100
AcDbLine
 10
61.7273641656
 20
130.3356800267
 30
0.0
 11
51.7273641656
 21
130.3356800267
 31
0.0
  0
LINE
  5
91
330
89
100
AcDbEntity
  8
80
370
    18
100
AcDbLine
 10
61.7273641656
 20
130.3356800267
 30
0.0
 11
65.2628980715
 21
126.8001461208
 31
0.0
  0
ENDBLK
  5
8B
330
89
100
AcDbEntity
  8
0
100
AcDbBlockEnd
  0
BLOCK
  5
1B4
330
1B3
100
AcDbEntity
  8
0
100
AcDbBlockBegin
  2
_D
 70
     0
 10
0.0
 20
0.0
 30
0.0
  3
_D
  1

  0
SOLID
  5
1B6
330
1B3
100
AcDbEntity
  8
SK2
100
AcDbTrace
 10
0.0
 20
31.3421615894
 30
0.0
 11
3.302
 21
30.8341615894
 31
0.0
 12
3.302
 22
31.8501615894
 32
0.0
 13
3.302
 23
31.8501615894
 33
0.0
  0
SOLID
  5
1B7
330
1B3
100
AcDbEntity
  8
SK2
100
AcDbTrace
 10
22.1
 20
31.3421615894
 30
0.0
 11
18.798
 21
31.8501615894
 31
0.0
 12
18.798
 22
30.8341615894
 32
0.0
 13
18.798
 23
30.8341615894
 33
0.0
  0
LINE
  5
1B8
330
1B3
100
AcDbEntity
  8
SK2
100
AcDbLine
 10
0.0
 20
16.875
 30
0.0
 11
0.0
 21
32.3421615894
 31
0.0
  0
LINE
  5
1B9
330
1B3
100
AcDbEntity
  8
SK2
100
AcDbLine
 10
22.1
 20
23.24
 30
0.0
 11
22.1
 21
32.3421615894
 31
0.0
  0
LINE
  5
1BA
330
1B3
100
AcDbEntity
  8
SK2
100
AcDbLine
 10
0.0
 20
31.3421615894
 30
0.0
 11
22.1
 21
31.3421615894
 31
0.0
  0
MTEXT
  5
1BB
330
1B3
100
AcDbEntity
  8
SK2
100
AcDbMText
 10
5.8823173407
 20
35.8538985039
 30
0.0
 40
3.5
 41
0.0
 71
     1
 72
     1
  1
22,1
  7
SLDTEXTSTYLE0
 73
     1
 44
1.0
  0
ENDBLK
  5
1B5
330
1B3
100
AcDbEntity
  8
0
100
AcDbBlockEnd
  0
BLOCK
  5
1BE
330
1BD
100
AcDbEntity
  8
0
100
AcDbBlockBegin
  2
_D_1
 70
     0
 10
0.0
 20
0.0
 30
0.0
  3
_D_1
  1

  0
SOLID
  5
1C0
330
1BD
100
AcDbEntity
  8
SK2
100
AcDbTrace
 10
22.1
 20
31.3421615894
 30
0.0
 11
25.402
 21
30.8341615894
 31
0.0
 12
25.402
 22
31.8501615894
 32
0.0
 13
25.402
 23
31.8501615894
 33
0.0
  0
SOLID
  5
1C1
330
1BD
100
AcDbEntity
  8
SK2
100
AcDbTrace
 10
35.0
 20
31.3421615894
 30
0.0
 11
31.698
 21
31.8501615894
 31
0.0
 12
31.698
 22
30.8341615894
 32
0.0
 13
31.698
 23
30.8341615894
 33
0.0
  0
LINE
  5
1C2
330
1BD
100
AcDbEntity
  8
SK2
100
AcDbLine
 10
22.1
 20
23.24
 30
0.0
 11
22.1
 21
32.3421615894
 31
0.0
  0
LINE
  5
1C3
330
1BD
100
AcDbEntity
  8
SK2
100
AcDbLine
 10
35.0
 20
20.2
 30
0.0
 11
35.0
 21
32.3421615894
 31
0.0
  0
LINE
  5
1C4
330
1BD
100
AcDbEntity
  8
SK2
100
AcDbLine
 10
22.1
 20
31.3421615894
 30
0.0
 11
35.0
 21
31.3421615894
 31
0.0
  0
MTEXT
  5
1C5
330
1BD
100
AcDbEntity
  8
SK2
100
AcDbMText
 10
24.2936881047
 20
35.8538985039
 30
0.0
 40
3.5
 41
0.0
 71
     1
 72
     1
  1
12,9
  7
SLDTEXTSTYLE0
 73
     1
 44
1.0
  0
ENDBLK
  5
1BF
330
1BD
100
AcDbEntity
  8
0
100
AcDbBlockEnd
  0
BLOCK
  5
1C8
330
1C7
100
AcDbEntity
  8
0
100
AcDbBlockBegin
  2
_D_2
 70
     0
 10
0.0
 20
0.0
 30
0.0
  3
_D_2
  1

  0
SOLID
  5
1CA
330
1C7
100
AcDbEntity
  8
SK2
100
AcDbTrace
 10
35.0
 20
31.3421615894
 30
0.0
 11
38.302
 21
30.8341615894
 31
0.0
 12
38.302
 22
31.8501615894
 32
0.0
 13
38.302
 23
31.8501615894
 33
0.0
  0
SOLID
  5
1CB
330
1C7
100
AcDbEntity
  8
SK2
100
AcDbTrace
 10
66.0
 20
31.3421615894
 30
0.0
 11
62.698
 21
31.8501615894
 31
0.0
 12
62.698
 22
30.8341615894
 32
0.0
 13
62.698
 23
30.8341615894
 33
0.0
  0
LINE
  5
1CC
330
1C7
100
AcDbEntity
  8
SK2
100
AcDbLine
 10
35.0
 20
20.2
 30
0.0
 11
35.0
 21
32.3421615894
 31
0.0
  0
LINE
  5
1CD
330
1C7
100
AcDbEntity
  8
SK2
100
AcDbLine
 10
66.0
 20
11.6473460386
 30
0.0
 11
66.0
 21
32.3421615894
 31
0.0
  0
LINE
  5
1CE
330
1C7
100
AcDbEntity
  8
SK2
100
AcDbLine
 10
35.0
 20
31.3421615894
 30
0.0
 11
66.0
 21
31.3421615894
 31
0.0
  0
MTEXT
  5
1CF
330
1C7
100
AcDbEntity
  8
SK2
100
AcDbMText
 10
47.4416164558
 20
35.8538985039
 30
0.0
 40
3.5
 41
0.0
 71
     1
 72
     1
  1
31
  7
SLDTEXTSTYLE0
 73
     1
 44
1.0
  0
ENDBLK
  5
1C9
330
1C7
100
AcDbEntity
  8
0
100
AcDbBlockEnd
  0
BLOCK
  5
1D2
330
1D1
100
AcDbEntity
  8
0
100
AcDbBlockBegin
  2
_D_3
 70
     0
 10
0.0
 20
0.0
 30
0.0
  3
_D_3
  1

  0
SOLID
  5
1D4
330
1D1
100
AcDbEntity
  8
2
100
AcDbTrace
 10
0.0
 20
39.3523318927
 30
0.0
 11
3.302
 21
38.8443318927
 31
0.0
 12
3.302
 22
39.8603318927
 32
0.0
 13
3.302
 23
39.8603318927
 33
0.0
  0
SOLID
  5
1D5
330
1D1
100
AcDbEntity
  8
2
100
AcDbTrace
 10
35.0
 20
39.3523318927
 30
0.0
 11
31.698
 21
39.8603318927
 31
0.0
 12
31.698
 22
38.8443318927
 32
0.0
 13
31.698
 23
38.8443318927
 33
0.0
  0
LINE
  5
1D6
330
1D1
100
AcDbEntity
  8
2
100
AcDbLine
 10
0.0
 20
16.875
 30
0.0
 11
0.0
 21
40.3523318927
 31
0.0
  0
LINE
  5
1D7
330
1D1
100
AcDbEntity
  8
2
100
AcDbLine
 10
35.0
 20
20.2
 30
0.0
 11
35.0
 21
40.3523318927
 31
0.0
  0
LINE
  5
1D8
330
1D1
100
AcDbEntity
  8
2
100
AcDbLine
 10
0.0
 20
39.3523318927
 30
0.0
 11
35.0
 21
39.3523318927
 31
0.0
  0
MTEXT
  5
1D9
330
1D1
100
AcDbEntity
  8
2
100
AcDbMText
 10
14.8542376634
 20
43.8640688072
 30
0.0
 40
3.5
 41
0.0
 71
     1
 72
     1
  1
35
  7
SLDTEXTSTYLE0
 73
     1
 44
1.0
  0
ENDBLK
  5
1D3
330
1D1
100
AcDbEntity
  8
0
100
AcDbBlockEnd
  0
BLOCK
  5
1DC
330
1DB
100
AcDbEntity
  8
0
100
AcDbBlockBegin
  2
_D_4
 70
     0
 10
0.0
 20
0.0
 30
0.0
  3
_D_4
  1

  0
SOLID
  5
1DE
330
1DB
100
AcDbEntity
  8
SK2
100
AcDbTrace
 10
99.5470662613
 20
20.0
 30
0.0
 11
99.0390662613
 21
16.698
 31
0.0
 12
100.0550662613
 22
16.698
 32
0.0
 13
100.0550662613
 23
16.698
 33
0.0
  0
SOLID
  5
1DF
330
1DB
100
AcDbEntity
  8
SK2
100
AcDbTrace
 10
99.5470662613
 20
-20.0
 30
0.0
 11
100.0550662613
 21
-16.698
 31
0.0
 12
99.0390662613
 22
-16.698
 32
0.0
 13
99.0390662613
 23
-16.698
 33
0.0
  0
LINE
  5
1E0
330
1DB
100
AcDbEntity
  8
SK2
100
AcDbLine
 10
35.2
 20
20.0
 30
0.0
 11
100.5470662613
 21
20.0
 31
0.0
  0
LINE
  5
1E1
330
1DB
100
AcDbEntity
  8
SK2
100
AcDbLine
 10
35.2
 20
-20.0
 30
0.0
 11
100.5470662613
 21
-20.0
 31
0.0
  0
LINE
  5
1E2
330
1DB
100
AcDbEntity
  8
SK2
100
AcDbLine
 10
99.5470662613
 20
20.0
 30
0.0
 11
99.5470662613
 21
-20.0
 31
0.0
  0
MTEXT
  5
1E3
330
1DB
100
AcDbEntity
  8
SK2
100
AcDbMText
 10
95.0353291721
 20
-5.1758583548
 30
0.0
 40
3.5
 41
0.0
 71
     1
 72
     1
  1
%%c
  7
SLDTEXTSTYLE0
 11
-7.044195017643634E-15
 21
1.0
 31
0.0
 73
     1
 44
1.0
  0
MTEXT
  5
1E4
330
1DB
100
AcDbEntity
  8
SK2
100
AcDbMText
 10
94.9818569955
 20
0.1025790435
 30
0.0
 40
3.5
 41
0.0
 71
     1
 72
     1
  1
40
  7
SLDTEXTSTYLE0
 11
-7.044195017643634E-15
 21
1.0
 31
0.0
 73
     1
 44
1.0
  0
ENDBLK
  5
1DD
330
1DB
100
AcDbEntity
  8
0
100
AcDbBlockEnd
  0
BLOCK
  5
1E7
330
1E6
100
AcDbEntity
  8
0
100
AcDbBlockBegin
  2
_D_5
 70
     0
 10
0.0
 20
0.0
 30
0.0
  3
_D_5
  1

  0
SOLID
  5
1E9
330
1E6
100
AcDbEntity
  8
SK2
100
AcDbTrace
 10
89.6664589681
 20
-11.0
 30
0.0
 11
90.1744589681
 21
-7.698
 31
0.0
 12
89.1584589681
 22
-7.698
 32
0.0
 13
89.1584589681
 23
-7.698
 33
0.0
  0
SOLID
  5
1EA
330
1E6
100
AcDbEntity
  8
SK2
100
AcDbTrace
 10
89.6664589681
 20
11.0
 30
0.0
 11
89.1584589681
 21
7.698
 31
0.0
 12
90.1744589681
 22
7.698
 32
0.0
 13
90.1744589681
 23
7.698
 33
0.0
  0
LINE
  5
1EB
330
1E6
100
AcDbEntity
  8
SK2
100
AcDbLine
 10
65.0
 20
-11.0
 30
0.0
 11
90.6664589681
 21
-11.0
 31
0.0
  0
LINE
  5
1EC
330
1E6
100
AcDbEntity
  8
SK2
100
AcDbLine
 10
65.0
 20
11.0
 30
0.0
 11
90.6664589681
 21
11.0
 31
0.0
  0
LINE
  5
1ED
330
1E6
100
AcDbEntity
  8
SK2
100
AcDbLine
 10
89.6664589681
 20
-11.0
 30
0.0
 11
89.6664589681
 21
11.0
 31
0.0
  0
MTEXT
  5
1EE
330
1E6
100
AcDbEntity
  8
SK2
100
AcDbMText
 10
85.1547218789
 20
-5.1758583548
 30
0.0
 40
3.5
 41
0.0
 71
     1
 72
     1
  1
%%c
  7
SLDTEXTSTYLE0
 11
6.123233995736766E-17
 21
1.0
 31
0.0
 73
     1
 44
1.0
  0
MTEXT
  5
1EF
330
1E6
100
AcDbEntity
  8
SK2
100
AcDbMText
 10
85.1012497022
 20
0.1025790435
 30
0.0
 40
3.5
 41
0.0
 71
     1
 72
     1
  1
22
  7
SLDTEXTSTYLE0
 11
6.123233995736766E-17
 21
1.0
 31
0.0
 73
     1
 44
1.0
  0
ENDBLK
  5
1E8
330
1E6
100
AcDbEntity
  8
0
100
AcDbBlockEnd
  0
BLOCK
  5
1F2
330
1F1
100
AcDbEntity
  8
0
100
AcDbBlockBegin
  2
_D_6
 70
     0
 10
0.0
 20
0.0
 30
0.0
  3
_D_6
  1

  0
SOLID
  5
1F4
330
1F1
100
AcDbEntity
  8
SK2
100
AcDbTrace
 10
-74.0279331238
 20
22.99
 30
0.0
 11
-74.5359331238
 21
19.688
 31
0.0
 12
-73.5199331238
 22
19.688
 32
0.0
 13
-73.5199331238
 23
19.688
 33
0.0
  0
SOLID
  5
1F5
330
1F1
100
AcDbEntity
  8
SK2
100
AcDbTrace
 10
-74.0279331238
 20
-22.99
 30
0.0
 11
-73.5199331238
 21
-19.688
 31
0.0
 12
-74.5359331238
 22
-19.688
 32
0.0
 13
-74.5359331238
 23
-19.688
 33
0.0
  0
LINE
  5
1F6
330
1F1
100
AcDbEntity
  8
SK2
100
AcDbLine
 10
18.874649423
 20
22.99
 30
0.0
 11
-75.0279331238
 21
22.99
 31
0.0
  0
LINE
  5
1F7
330
1F1
100
AcDbEntity
  8
SK2
100
AcDbLine
 10
18.8746494411
 20
-22.99
 30
0.0
 11
-75.0279331238
 21
-22.99
 31
0.0
  0
LINE
  5
1F8
330
1F1
100
AcDbEntity
  8
SK2
100
AcDbLine
 10
-74.0279331238
 20
22.99
 30
0.0
 11
-74.0279331238
 21
-22.99
 31
0.0
  0
MTEXT
  5
1F9
330
1F1
100
AcDbEntity
  8
SK2
100
AcDbMText
 10
-78.539670213
 20
-5.1758583548
 30
0.0
 40
3.5
 41
0.0
 71
     1
 72
     1
  1
%%c
  7
SLDTEXTSTYLE0
 11
-7.044195017643634E-15
 21
1.0
 31
0.0
 73
     1
 44
1.0
  0
MTEXT
  5
1FA
330
1F1
100
AcDbEntity
  8
SK2
100
AcDbMText
 10
-78.5931423897
 20
0.1025790435
 30
0.0
 40
3.5
 41
0.0
 71
     1
 72
     1
  1
46
  7
SLDTEXTSTYLE0
 11
-7.044195017643634E-15
 21
1.0
 31
0.0
 73
     1
 44
1.0
  0
ENDBLK
  5
1F3
330
1F1
100
AcDbEntity
  8
0
100
AcDbBlockEnd
  0
BLOCK
  5
1FD
330
1FC
100
AcDbEntity
  8
0
100
AcDbBlockBegin
  2
_D_7
 70
     0
 10
0.0
 20
0.0
 30
0.0
  3
_D_7
  1

  0
SOLID
  5
1FF
330
1FC
100
AcDbEntity
  8
SK2
100
AcDbTrace
 10
-64.0547260278
 20
-15.875
 30
0.0
 11
-63.5467260278
 21
-12.573
 31
0.0
 12
-64.5627260278
 22
-12.573
 32
0.0
 13
-64.5627260278
 23
-12.573
 33
0.0
  0
SOLID
  5
200
330
1FC
100
AcDbEntity
  8
SK2
100
AcDbTrace
 10
-64.0547260278
 20
15.875
 30
0.0
 11
-64.5627260278
 21
12.573
 31
0.0
 12
-63.5467260278
 22
12.573
 32
0.0
 13
-63.5467260278
 23
12.573
 33
0.0
  0
LINE
  5
201
330
1FC
100
AcDbEntity
  8
SK2
100
AcDbLine
 10
-1.0
 20
-15.875
 30
0.0
 11
-65.0547260278
 21
-15.875
 31
0.0
  0
LINE
  5
202
330
1FC
100
AcDbEntity
  8
SK2
100
AcDbLine
 10
-1.0
 20
15.875
 30
0.0
 11
-65.0547260278
 21
15.875
 31
0.0
  0
LINE
  5
203
330
1FC
100
AcDbEntity
  8
SK2
100
AcDbLine
 10
-64.0547260278
 20
-15.875
 30
0.0
 11
-64.0547260278
 21
15.875
 31
0.0
  0
MTEXT
  5
204
330
1FC
100
AcDbEntity
  8
SK2
100
AcDbMText
 10
-68.566463117
 20
-8.4084971721
 30
0.0
 40
3.5
 41
0.0
 71
     1
 72
     1
  1
%%c
  7
SLDTEXTSTYLE0
 11
6.123233995736766E-17
 21
1.0
 31
0.0
 73
     1
 44
1.0
  0
MTEXT
  5
205
330
1FC
100
AcDbEntity
  8
SK2
100
AcDbMText
 10
-68.6199352936
 20
-3.1300597738
 30
0.0
 40
3.5
 41
0.0
 71
     1
 72
     1
  1
31,75
  7
SLDTEXTSTYLE0
 11
6.123233995736766E-17
 21
1.0
 31
0.0
 73
     1
 44
1.0
  0
ENDBLK
  5
1FE
330
1FC
100
AcDbEntity
  8
0
100
AcDbBlockEnd
  0
BLOCK
  5
209
330
208
100
AcDbEntity
  8
0
100
AcDbBlockBegin
  2
_D_8
 70
     0
 10
0.0
 20
0.0
 30
0.0
  3
_D_8
  1

  0
SOLID
  5
20B
330
208
100
AcDbEntity
  8
SK2
100
AcDbTrace
 10
-54.9934073972
 20
-6.0
 30
0.0
 11
-55.5014073972
 21
-9.302
 31
0.0
 12
-54.4854073972
 22
-9.302
 32
0.0
 13
-54.4854073972
 23
-9.302
 33
0.0
  0
SOLID
  5
20C
330
208
100
AcDbEntity
  8
SK2
100
AcDbTrace
 10
-54.9934073972
 20
6.0
 30
0.0
 11
-54.4854073972
 21
9.302
 31
0.0
 12
-55.5014073972
 22
9.302
 32
0.0
 13
-55.5014073972
 23
9.302
 33
0.0
  0
LINE
  5
20D
330
208
100
AcDbEntity
  8
SK2
100
AcDbLine
 10
-41.7891560818
 20
-6.0
 30
0.0
 11
-55.9934073972
 21
-6.0
 31
0.0
  0
LINE
  5
20E
330
208
100
AcDbEntity
  8
SK2
100
AcDbLine
 10
-41.7891560818
 20
6.0
 30
0.0
 11
-55.9934073972
 21
6.0
 31
0.0
  0
LINE
  5
20F
330
208
100
AcDbEntity
  8
SK2
100
AcDbLine
 10
-54.9934073972
 20
-6.0
 30
0.0
 11
-54.9934073972
 21
-12.35
 31
0.0
  0
LINE
  5
210
330
208
100
AcDbEntity
  8
SK2
100
AcDbLine
 10
-54.9934073972
 20
-6.0
 30
0.0
 11
-54.9934073972
 21
6.0
 31
0.0
  0
LINE
  5
211
330
208
100
AcDbEntity
  8
SK2
100
AcDbLine
 10
-54.9934073972
 20
6.0
 30
0.0
 11
-54.9934073972
 21
12.35
 31
0.0
  0
MTEXT
  5
212
330
208
100
AcDbEntity
  8
SK2
100
AcDbMText
 10
-59.5051443118
 20
-4.6803896229
 30
0.0
 40
3.5
 41
0.0
 71
     1
 72
     1
  1
M
  7
SLDTEXTSTYLE0
 11
-6.378061202868540E-15
 21
1.0
 31
0.0
 73
     1
 44
1.0
  0
MTEXT
  5
213
330
208
100
AcDbEntity
  8
SK2
100
AcDbMText
 10
-59.5051443118
 20
-0.3928896884
 30
0.0
 40
3.5
 41
0.0
 71
     1
 72
     1
  1
12
  7
SLDTEXTSTYLE0
 11
-6.378061202868540E-15
 21
1.0
 31
0.0
 73
     1
 44
1.0
  0
ENDBLK
  5
20A
330
208
100
AcDbEntity
  8
0
100
AcDbBlockEnd
  0
ENDSEC
  0
SECTION
  2
ENTITIES
  0
LINE
  5
92
330
1F
100
AcDbEntity
  8
SK1
  6
SLD-Solid
370
    25
100
AcDbLine
 10
78.1312168902
 20
-6.5
 30
0.0
 11
79.1312168902
 21
-5.5
 31
0.0
  0
LINE
  5
93
330
1F
100
AcDbEntity
  8
SK1
  6
SLD-Solid
370
    25
100
AcDbLine
 10
79.1312168902
 20
5.5
 30
0.0
 11
78.1312168902
 21
6.5
 31
0.0
  0
LINE
  5
94
330
1F
100
AcDbEntity
  8
SK1
  6
SLD-Solid
370
    25
100
AcDbLine
 10
74.4312168902
 20
-6.5
 30
0.0
 11
78.1312168902
 21
-6.5
 31
0.0
  0
LINE
  5
95
330
1F
100
AcDbEntity
  8
SK1
  6
SLD-Solid
370
    25
100
AcDbLine
 10
78.1312168902
 20
6.5
 30
0.0
 11
74.4312168902
 21
6.5
 31
0.0
  0
LINE
  5
96
330
1F
100
AcDbEntity
  8
SK1
  6
SLD-Solid
370
    25
100
AcDbLine
 10
66.0
 20
-4.35
 30
0.0
 11
69.1312168902
 21
-4.35
 31
0.0
  0
LINE
  5
97
330
1F
100
AcDbEntity
  8
SK1
  6
SLD-Solid
370
    25
100
AcDbLine
 10
69.1312168902
 20
4.35
 30
0.0
 11
66.0
 21
4.35
 31
0.0
  0
LINE
  5
98
330
1F
100
AcDbEntity
  8
SK1
  6
SLD-Solid
370
    25
100
AcDbLine
 10
69.4312168902
 20
-14.0
 30
0.0
 11
73.1312168902
 21
-14.0
 31
0.0
  0
LINE
  5
99
330
1F
100
AcDbEntity
  8
SK1
  6
SLD-Solid
370
    25
100
AcDbLine
 10
73.1312168902
 20
14.0
 30
0.0
 11
69.4312168902
 21
14.0
 31
0.0
  0
LINE
  5
9A
330
1F
100
AcDbEntity
  8
SK1
  6
SLD-Solid
370
    25
100
AcDbLine
 10
69.4312168902
 20
14.0
 30
0.0
 11
69.1312168902
 21
13.7
 31
0.0
  0
LINE
  5
9B
330
1F
100
AcDbEntity
  8
SK1
  6
SLD-Solid
370
    25
100
AcDbLine
 10
69.1312168902
 20
-13.7
 30
0.0
 11
69.4312168902
 21
-14.0
 31
0.0
  0
LINE
  5
9C
330
1F
100
AcDbEntity
  8
SK1
  6
SLD-Solid
370
    25
100
AcDbLine
 10
73.1312168902
 20
-14.0
 30
0.0
 11
74.1312168902
 21
-13.0
 31
0.0
  0
LINE
  5
9D
330
1F
100
AcDbEntity
  8
SK1
  6
SLD-Solid
370
    25
100
AcDbLine
 10
74.1312168902
 20
13.0
 30
0.0
 11
73.1312168902
 21
14.0
 31
0.0
  0
LINE
  5
9E
330
1F
100
AcDbEntity
  8
1
  6
SLD-Solid
370
    25
100
AcDbLine
 10
19.8746494411
 20
-22.99
 30
0.0
 11
21.35
 21
-22.99
 31
0.0
  0
LINE
  5
9F
330
1F
100
AcDbEntity
  8
1
  6
SLD-Solid
370
    25
100
AcDbLine
 10
21.35
 20
22.99
 30
0.0
 11
19.874649423
 21
22.99
 31
0.0
  0
LINE
  5
A0
330
1F
100
AcDbEntity
  8
1
  6
SLD-Solid
370
    25
100
AcDbLine
 10
23.1
 20
-20.0
 30
0.0
 11
34.2
 21
-20.0
 31
0.0
  0
LINE
  5
A1
330
1F
100
AcDbEntity
  8
1
  6
SLD-Solid
370
    25
100
AcDbLine
 10
34.2
 20
20.0
 30
0.0
 11
23.1
 21
20.0
 31
0.0
  0
LINE
  5
A2
330
1F
100
AcDbEntity
  8
1
  6
SLD-Solid
370
    25
100
AcDbLine
 10
0.2
 20
-15.875
 30
0.0
 11
0.8619053906
 21
-15.5663484474
 31
0.0
  0
LINE
  5
A3
330
1F
100
AcDbEntity
  8
1
  6
SLD-Solid
370
    25
100
AcDbLine
 10
0.8619053906
 20
15.5663484474
 30
0.0
 11
0.2
 21
15.875
 31
0.0
  0
LINE
  5
A4
330
1F
100
AcDbEntity
  8
SK1
  6
SLD-Solid
370
    25
100
AcDbLine
 10
0.0
 20
15.875
 30
0.0
 11
-48.0791191833
 21
8.8629194779
 31
0.0
  0
LINE
  5
A5
330
1F
100
AcDbEntity
  8
SK1
  6
SLD-Solid
370
    25
100
AcDbLine
 10
-48.0791191833
 20
-8.8629194779
 30
0.0
 11
0.0
 21
-15.875
 31
0.0
  0
LINE
  5
A6
330
1F
100
AcDbEntity
  8
1
  6
SLD-Solid
370
    25
100
AcDbLine
 10
0.0
 20
-15.875
 30
0.0
 11
0.2
 21
-15.875
 31
0.0
  0
LINE
  5
A7
330
1F
100
AcDbEntity
  8
1
  6
SLD-Solid
370
    25
100
AcDbLine
 10
0.2
 20
15.875
 30
0.0
 11
0.0
 21
15.875
 31
0.0
  0
LINE
  5
A8
330
1F
100
AcDbEntity
  8
SK1
  6
SLD-Solid
370
    25
100
AcDbLine
 10
36.3455452618
 20
11.0
 30
0.0
 11
35.6605646396
 21
10.7840264394
 31
0.0
  0
LINE
  5
A9
330
1F
100
AcDbEntity
  8
SK1
  6
SLD-Solid
370
    25
100
AcDbLine
 10
35.6605646396
 20
-10.7840264394
 30
0.0
 11
36.3455452618
 21
-11.0
 31
0.0
  0
LINE
  5
AA
330
1F
100
AcDbEntity
  8
SK1
  6
SLD-Solid
370
    25
100
AcDbLine
 10
64.0
 20
-11.0
 30
0.0
 11
66.0
 21
-10.6473460386
 31
0.0
  0
LINE
  5
AB
330
1F
100
AcDbEntity
  8
SK1
  6
SLD-Solid
370
    25
100
AcDbLine
 10
66.0
 20
10.6473460386
 30
0.0
 11
64.0
 21
11.0
 31
0.0
  0
LINE
  5
AC
330
1F
100
AcDbEntity
  8
SK1
  6
SLD-Solid
370
    25
100
AcDbLine
 10
36.3455452618
 20
-11.0
 30
0.0
 11
64.0
 21
-11.0
 31
0.0
  0
LINE
  5
AD
330
1F
100
AcDbEntity
  8
SK1
  6
SLD-Solid
370
    25
100
AcDbLine
 10
38.9030059464
 20
11.0
 30
0.0
 11
36.3455452618
 21
11.0
 31
0.0
  0
LINE
  5
AE
330
1F
100
AcDbEntity
  8
SK1
  6
SLD-Solid
370
    25
100
AcDbLine
 10
78.1312168902
 20
-6.5
 30
0.0
 11
78.1312168902
 21
6.5
 31
0.0
  0
LINE
  5
AF
330
1F
100
AcDbEntity
  8
SK1
  6
SLD-Solid
370
    25
100
AcDbLine
 10
79.1312168902
 20
5.5
 30
0.0
 11
79.1312168902
 21
-5.5
 31
0.0
  0
LINE
  5
B0
330
1F
100
AcDbEntity
  8
SK1
  6
SLD-Solid
370
    25
100
AcDbLine
 10
73.1312168902
 20
-14.0
 30
0.0
 11
73.1312168902
 21
14.0
 31
0.0
  0
LINE
  5
B1
330
1F
100
AcDbEntity
  8
SK1
  6
SLD-Solid
370
    25
100
AcDbLine
 10
69.4312168902
 20
0.0770320978
 30
0.0
 11
69.4312168902
 21
-14.0
 31
0.0
  0
LINE
  5
B2
330
1F
100
AcDbEntity
  8
SK1
  6
SLD-Solid
370
    25
100
AcDbLine
 10
69.4312168902
 20
14.0
 30
0.0
 11
69.4312168902
 21
0.0770320978
 31
0.0
  0
LINE
  5
B3
330
1F
100
AcDbEntity
  8
SK1
  6
SLD-Solid
370
    25
100
AcDbLine
 10
69.1312168902
 20
0.07538141
 30
0.0
 11
69.1312168902
 21
13.7
 31
0.0
  0
LINE
  5
B4
330
1F
100
AcDbEntity
  8
SK1
  6
SLD-Solid
370
    25
100
AcDbLine
 10
69.1312168902
 20
-13.7
 30
0.0
 11
69.1312168902
 21
0.07538141
 31
0.0
  0
LINE
  5
B5
330
1F
100
AcDbEntity
  8
SK1
  6
SLD-Solid
370
    25
100
AcDbLine
 10
74.1312168902
 20
-13.0
 30
0.0
 11
74.1312168902
 21
13.0
 31
0.0
  0
LINE
  5
B6
330
1F
100
AcDbEntity
  8
1
  6
SLD-Solid
370
    25
100
AcDbLine
 10
17.6270180319
 20
-22.2347719471
 30
0.0
 11
17.6270181276
 21
22.2347719748
 31
0.0
  0
LINE
  5
B7
330
1F
100
AcDbEntity
  8
1
  6
SLD-Solid
370
    25
100
AcDbLine
 10
17.3742823051
 20
-21.8788932612
 30
0.0
 11
17.6270180319
 21
-22.2347719471
 31
0.0
  0
LINE
  5
B8
330
1F
100
AcDbEntity
  8
1
  6
SLD-Solid
370
    25
100
AcDbLine
 10
15.6
 20
-18.2061912473
 30
0.0
 11
15.6
 21
18.2061912473
 31
0.0
  0
LINE
  5
B9
330
1F
100
AcDbEntity
  8
1
  6
SLD-Solid
370
    25
100
AcDbLine
 10
17.6270181276
 20
22.2347719748
 30
0.0
 11
17.3742822791
 21
21.8788932261
 31
0.0
  0
LINE
  5
BA
330
1F
100
AcDbEntity
  8
1
  6
SLD-Solid
370
    25
100
AcDbLine
 10
2.75
 20
-21.3146126652
 30
0.0
 11
9.5729818724
 21
-21.3146126652
 31
0.0
  0
LINE
  5
BB
330
1F
100
AcDbEntity
  8
1
  6
SLD-Solid
370
    25
100
AcDbLine
 10
2.75
 20
21.3146126652
 30
0.0
 11
2.75
 21
-21.3146126652
 31
0.0
  0
LINE
  5
BC
330
1F
100
AcDbEntity
  8
1
  6
SLD-Solid
370
    25
100
AcDbLine
 10
9.5729818724
 20
21.3146126652
 30
0.0
 11
2.75
 21
21.3146126652
 31
0.0
  0
LINE
  5
BD
330
1F
100
AcDbEntity
  8
1
  6
SLD-Solid
370
    25
100
AcDbLine
 10
9.5729818724
 20
-21.3146126652
 30
0.0
 11
9.5729818724
 21
21.3146126652
 31
0.0
  0
LINE
  5
BE
330
1F
100
AcDbEntity
  8
1
  6
SLD-Solid
370
    25
100
AcDbLine
 10
2.0
 20
-20.5619059185
 30
0.0
 11
2.0
 21
20.5619059185
 31
0.0
  0
LINE
  5
BF
330
1F
100
AcDbEntity
  8
1
  6
SLD-Solid
370
    25
100
AcDbLine
 10
22.1
 20
22.24
 30
0.0
 11
22.1
 21
-22.24
 31
0.0
  0
LINE
  5
C0
330
1F
100
AcDbEntity
  8
1
  6
SLD-Solid
370
    25
100
AcDbLine
 10
11.6
 20
-17.7162467733
 30
0.0
 11
11.6
 21
17.7162467733
 31
0.0
  0
LINE
  5
C1
330
1F
100
AcDbEntity
  8
1
  6
SLD-Solid
370
    25
100
AcDbLine
 10
29.3
 20
5.05
 30
0.0
 11
34.2
 21
5.05
 31
0.0
  0
LINE
  5
C2
330
1F
100
AcDbEntity
  8
1
  6
SLD-Solid
370
    25
100
AcDbLine
 10
34.2
 20
-5.05
 30
0.0
 11
29.3
 21
-5.05
 31
0.0
  0
LINE
  5
C3
330
1F
100
AcDbEntity
  8
1
  6
SLD-Solid
370
    25
100
AcDbLine
 10
35.0
 20
19.2
 30
0.0
 11
35.0
 21
5.05
 31
0.0
  0
LINE
  5
C4
330
1F
100
AcDbEntity
  8
1
  6
SLD-Solid
370
    25
100
AcDbLine
 10
35.0
 20
-5.05
 30
0.0
 11
35.0
 21
-19.2
 31
0.0
  0
LINE
  5
C5
330
1F
100
AcDbEntity
  8
1
  6
SLD-Solid
370
    25
100
AcDbLine
 10
0.0
 20
-15.875
 30
0.0
 11
0.0
 21
15.875
 31
0.0
  0
LINE
  5
C6
330
1F
100
AcDbEntity
  8
SK1
  6
SLD-Solid
370
    25
100
AcDbLine
 10
36.3455452618
 20
-11.0
 30
0.0
 11
36.3455452618
 21
11.0
 31
0.0
  0
LINE
  5
C7
330
1F
100
AcDbEntity
  8
SK1
  6
SLD-Solid
370
    25
100
AcDbLine
 10
66.0
 20
-10.6473460386
 30
0.0
 11
66.0
 21
10.6473460386
 31
0.0
  0
LINE
  5
C8
330
1F
100
AcDbEntity
  8
SK1
  6
SLD-Solid
370
    25
100
AcDbLine
 10
64.0
 20
-11.0
 30
0.0
 11
64.0
 21
11.0
 31
0.0
  0
LINE
  5
C9
330
1F
100
AcDbEntity
  8
SK1
  6
SLD-Solid
370
    25
100
AcDbLine
 10
60.99375
 20
10.5812315416
 30
0.0
 11
41.90625
 21
10.5812315416
 31
0.0
  0
LINE
  5
CA
330
1F
100
AcDbEntity
  8
SK1
  6
SLD-Solid
370
    25
100
AcDbLine
 10
-48.4
 20
0.0
 30
0.0
 11
-48.4
 21
8.4918452077
 31
0.0
  0
LINE
  5
CB
330
1F
100
AcDbEntity
  8
SK1
  6
SLD-Solid
370
    25
100
AcDbLine
 10
-48.4
 20
-8.4918452077
 30
0.0
 11
-48.4
 21
0.0
 31
0.0
  0
LINE
  5
CC
330
1F
100
AcDbEntity
  8
1
  6
SLD-Solid
370
    25
100
AcDbLine
 10
17.6270180319
 20
-22.2347719471
 30
0.0
 11
17.3742823051
 21
-21.8788932612
 31
0.0
  0
LINE
  5
CD
330
1F
100
AcDbEntity
  8
1
  6
SLD-Solid
370
    25
100
AcDbLine
 10
17.3742822791
 20
21.8788932261
 30
0.0
 11
17.6270181276
 21
22.2347719748
 31
0.0
  0
LINE
  5
CE
330
1F
100
AcDbEntity
  8
SK1
  6
SLD-Solid
370
    25
100
AcDbLine
 10
74.4312168902
 20
-0.2818555098
 30
0.0
 11
74.4312168902
 21
-6.5
 31
0.0
  0
LINE
  5
CF
330
1F
100
AcDbEntity
  8
SK1
  6
SLD-Solid
370
    25
100
AcDbLine
 10
74.4312168902
 20
6.5
 30
0.0
 11
74.4312168902
 21
-0.2818555098
 31
0.0
  0
LINE
  5
D0
330
1F
100
AcDbEntity
  8
1
  6
SLD-Solid
370
    25
100
AcDbLine
 10
23.1
 20
20.0
 30
0.0
 11
23.1
 21
-20.0
 31
0.0
  0
LINE
  5
D1
330
1F
100
AcDbEntity
  8
1
  6
SLD-Solid
370
    25
100
AcDbLine
 10
34.2
 20
5.05
 30
0.0
 11
34.2
 21
20.0
 31
0.0
  0
LINE
  5
D2
330
1F
100
AcDbEntity
  8
1
  6
SLD-Solid
370
    25
100
AcDbLine
 10
34.2
 20
-20.0
 30
0.0
 11
34.2
 21
-5.05
 31
0.0
  0
LINE
  5
D3
330
1F
100
AcDbEntity
  8
SK1
  6
SLD-Solid
370
    25
100
AcDbLine
 10
35.6605646396
 20
-10.7840264394
 30
0.0
 11
35.6605646396
 21
10.7840264394
 31
0.0
  0
LINE
  5
D4
330
1F
100
AcDbEntity
  8
SK1
  6
SLD-Dashed
370
    18
100
AcDbLine
 10
41.90625
 20
10.5812315416
 30
0.0
 11
60.99375
 21
10.5812315416
 31
0.0
  0
LINE
  5
D5
330
1F
100
AcDbEntity
  8
SK3
  6
SLD-Dashed
370
    18
100
AcDbLine
 10
2.0
 20
20.5619059185
 30
0.0
 11
2.375
 21
20.5619059185
 31
0.0
  0
LINE
  5
D6
330
1F
100
AcDbEntity
  8
SK3
  6
SLD-Dashed
370
    18
100
AcDbLine
 10
2.375
 20
16.1499999998
 30
0.0
 11
2.375
 21
16.5249999998
 31
0.0
  0
LINE
  5
D7
330
1F
100
AcDbEntity
  8
SK3
  6
SLD-Dashed
370
    18
100
AcDbLine
 10
2.0
 20
16.5249999998
 30
0.0
 11
2.375
 21
16.5249999998
 31
0.0
  0
LINE
  5
D8
330
1F
100
AcDbEntity
  8
SK3
  6
SLD-Dashed
370
    18
100
AcDbLine
 10
2.375
 20
16.5249999998
 30
0.0
 11
2.375
 21
20.5619059185
 31
0.0
  0
LINE
  5
D9
330
1F
100
AcDbEntity
  8
SK3
  6
SLD-Dashed
370
    18
100
AcDbLine
 10
2.75
 20
20.9669406447
 30
0.0
 11
9.869071747
 21
20.9669406447
 31
0.0
  0
LINE
  5
DA
330
1F
100
AcDbEntity
  8
SK3
  6
SLD-Dashed
370
    18
100
AcDbLine
 10
11.4
 20
-16.1500000002
 30
0.0
 11
19.125
 21
-16.1500000002
 31
0.0
  0
LINE
  5
DB
330
1F
100
AcDbEntity
  8
SK3
  6
SLD-Dashed
370
    18
100
AcDbLine
 10
11.4
 20
16.5249999998
 30
0.0
 11
19.5
 21
16.5249999998
 31
0.0
  0
LINE
  5
DC
330
1F
100
AcDbEntity
  8
1
  6
SLD-Dashed
370
    18
100
AcDbLine
 10
11.6
 20
17.4640344709
 30
0.0
 11
11.6
 21
17.7162467733
 31
0.0
  0
LINE
  5
DD
330
1F
100
AcDbEntity
  8
1
  6
SLD-Dashed
370
    18
100
AcDbLine
 10
15.6
 20
18.2061912473
 30
0.0
 11
15.6
 21
17.9608602244
 31
0.0
  0
LINE
  5
DE
330
1F
100
AcDbEntity
  8
SK3
  6
SLD-Dashed
370
    18
100
AcDbLine
 10
11.4
 20
16.5249999998
 30
0.0
 11
11.4
 21
16.1499999998
 31
0.0
  0
LINE
  5
DF
330
1F
100
AcDbEntity
  8
SK3
  6
SLD-Dashed
370
    18
100
AcDbLine
 10
2.375
 20
16.1499999998
 30
0.0
 11
11.4
 21
16.1499999998
 31
0.0
  0
LINE
  5
E0
330
1F
100
AcDbEntity
  8
SK3
  6
SLD-Dashed
370
    18
100
AcDbLine
 10
11.4
 20
16.5249999998
 30
0.0
 11
2.375
 21
16.5249999998
 31
0.0
  0
LINE
  5
E1
330
1F
100
AcDbEntity
  8
SK3
  6
SLD-Dashed
370
    18
100
AcDbLine
 10
11.4
 20
-16.1500000002
 30
0.0
 11
2.375
 21
-16.1500000002
 31
0.0
  0
LINE
  5
E2
330
1F
100
AcDbEntity
  8
1
  6
SLD-Dashed
370
    18
100
AcDbLine
 10
15.6
 20
-18.2061912473
 30
0.0
 11
15.6
 21
-17.9608602244
 31
0.0
  0
LINE
  5
E3
330
1F
100
AcDbEntity
  8
1
  6
SLD-Dashed
370
    18
100
AcDbLine
 10
11.6
 20
-17.4640344709
 30
0.0
 11
11.6
 21
-17.7162467733
 31
0.0
  0
LINE
  5
E4
330
1F
100
AcDbEntity
  8
SK3
  6
SLD-Dashed
370
    18
100
AcDbLine
 10
11.4
 20
16.1499999998
 30
0.0
 11
19.125
 21
16.1499999998
 31
0.0
  0
LINE
  5
E5
330
1F
100
AcDbEntity
  8
SK3
  6
SLD-Dashed
370
    18
100
AcDbLine
 10
11.4
 20
16.5249999998
 30
0.0
 11
11.4
 21
16.1499999998
 31
0.0
  0
LINE
  5
E6
330
1F
100
AcDbEntity
  8
SK3
  6
SLD-Dashed
370
    18
100
AcDbLine
 10
-47.2
 20
6.2565
 30
0.0
 11
-47.2
 21
-6.2565
 31
0.0
  0
LINE
  5
E7
330
1F
100
AcDbEntity
  8
SK3
  6
SLD-Dashed
370
    18
100
AcDbLine
 10
-48.4
 20
6.949320323
 30
0.0
 11
-48.4
 21
-6.949320323
 31
0.0
  0
LINE
  5
E8
330
1F
100
AcDbEntity
  8
SK3
  6
SLD-Dashed
370
    18
100
AcDbLine
 10
-41.15
 20
6.625
 30
0.0
 11
-41.15
 21
-6.625
 31
0.0
  0
LINE
  5
E9
330
1F
100
AcDbEntity
  8
SK3
  6
SLD-Dashed
370
    18
100
AcDbLine
 10
-40.2695408395
 20
-5.1
 30
0.0
 11
-40.2695408395
 21
5.1
 31
0.0
  0
LINE
  5
EA
330
1F
100
AcDbEntity
  8
SK3
  6
SLD-Dashed
370
    18
100
AcDbLine
 10
-43.15
 20
6.625
 30
0.0
 11
-43.15
 21
-6.625
 31
0.0
  0
LINE
  5
EB
330
1F
100
AcDbEntity
  8
SK3
  6
SLD-Dashed
370
    18
100
AcDbLine
 10
-43.7882607226
 20
6.2565
 30
0.0
 11
-43.7882607226
 21
-6.2565
 31
0.0
  0
LINE
  5
EC
330
1F
100
AcDbEntity
  8
SK3
  6
SLD-Dashed
370
    18
100
AcDbLine
 10
65.0
 20
5.25
 30
0.0
 11
65.0
 21
-5.25
 31
0.0
  0
LINE
  5
ED
330
1F
100
AcDbEntity
  8
SK3
  6
SLD-Dashed
370
    18
100
AcDbLine
 10
66.0
 20
5.8240960654
 30
0.0
 11
66.0
 21
-5.8240960654
 31
0.0
  0
LINE
  5
EE
330
1F
100
AcDbEntity
  8
SK3
  6
SLD-Dashed
370
    18
100
AcDbLine
 10
61.5
 20
5.25
 30
0.0
 11
61.5
 21
-5.25
 31
0.0
  0
LINE
  5
EF
330
1F
100
AcDbEntity
  8
SK3
  6
SLD-Dashed
370
    18
100
AcDbLine
 10
60.899139381
 20
-4.25
 30
0.0
 11
60.899139381
 21
4.25
 31
0.0
  0
LINE
  5
F0
330
1F
100
AcDbEntity
  8
SK3
  6
SLD-Dashed
370
    18
100
AcDbLine
 10
16.6
 20
5.1
 30
0.0
 11
16.6
 21
-5.1
 31
0.0
  0
LINE
  5
F1
330
1F
100
AcDbEntity
  8
SK3
  6
SLD-Dashed
370
    18
100
AcDbLine
 10
17.1107315262
 20
-4.25
 30
0.0
 11
17.1107315262
 21
4.25
 31
0.0
  0
LINE
  5
F2
330
1F
100
AcDbEntity
  8
SK3
  6
SLD-Dashed
370
    18
100
AcDbLine
 10
6.0
 20
-16.15
 30
0.0
 11
16.0
 21
-16.15
 31
0.0
  0
LINE
  5
F3
330
1F
100
AcDbEntity
  8
SK3
  6
SLD-Dashed
370
    18
100
AcDbLine
 10
6.3
 20
-11.45
 30
0.0
 11
15.7
 21
-11.45
 31
0.0
  0
LINE
  5
F4
330
1F
100
AcDbEntity
  8
SK3
  6
SLD-Dashed
370
    18
100
AcDbLine
 10
60.99375
 20
6.5
 30
0.0
 11
63.8
 21
6.5
 31
0.0
  0
LINE
  5
F5
330
1F
100
AcDbEntity
  8
SK3
  6
SLD-Dashed
370
    18
100
AcDbLine
 10
60.99375
 20
6.7
 30
0.0
 11
60.99375
 21
6.5
 31
0.0
  0
LINE
  5
F6
330
1F
100
AcDbEntity
  8
SK3
  6
SLD-Dashed
370
    18
100
AcDbLine
 10
60.99375
 20
10.5812315416
 30
0.0
 11
60.99375
 21
6.7
 31
0.0
  0
LINE
  5
F7
330
1F
100
AcDbEntity
  8
SK3
  6
SLD-Dashed
370
    18
100
AcDbLine
 10
41.90625
 20
6.5
 30
0.0
 11
60.99375
 21
6.5
 31
0.0
  0
LINE
  5
F8
330
1F
100
AcDbEntity
  8
SK3
  6
SLD-Dashed
370
    18
100
AcDbLine
 10
41.90625
 20
6.5
 30
0.0
 11
41.90625
 21
6.7
 31
0.0
  0
LINE
  5
F9
330
1F
100
AcDbEntity
  8
SK3
  6
SLD-Dashed
370
    18
100
AcDbLine
 10
41.90625
 20
6.7
 30
0.0
 11
41.90625
 21
6.5
 31
0.0
  0
LINE
  5
FA
330
1F
100
AcDbEntity
  8
SK3
  6
SLD-Dashed
370
    18
100
AcDbLine
 10
41.90625
 20
6.5
 30
0.0
 11
39.1
 21
6.5
 31
0.0
  0
LINE
  5
FB
330
1F
100
AcDbEntity
  8
SK3
  6
SLD-Dashed
370
    18
100
AcDbLine
 10
41.90625
 20
10.5812315416
 30
0.0
 11
41.90625
 21
6.7
 31
0.0
  0
LINE
  5
FC
330
1F
100
AcDbEntity
  8
SK3
  6
SLD-Dashed
370
    18
100
AcDbLine
 10
2.375
 20
16.5249999998
 30
0.0
 11
2.375
 21
16.1499999998
 31
0.0
  0
LINE
  5
FD
330
1F
100
AcDbEntity
  8
SK3
  6
SLD-Dashed
370
    18
100
AcDbLine
 10
2.375
 20
20.5619059185
 30
0.0
 11
2.0
 21
20.5619059185
 31
0.0
  0
LINE
  5
FE
330
1F
100
AcDbEntity
  8
1
  6
SLD-Dashed
370
    18
100
AcDbLine
 10
2.75
 20
21.3146126652
 30
0.0
 11
9.5729818724
 21
21.3146126652
 31
0.0
  0
LINE
  5
FF
330
1F
100
AcDbEntity
  8
SK3
  6
SLD-Dashed
370
    18
100
AcDbLine
 10
2.0
 20
15.7749999998
 30
0.0
 11
2.375
 21
16.1499999998
 31
0.0
  0
LINE
  5
100
330
1F
100
AcDbEntity
  8
SK3
  6
SLD-Dashed
370
    18
100
AcDbLine
 10
19.5
 20
16.5249999998
 30
0.0
 11
19.5
 21
22.6152218736
 31
0.0
  0
LINE
  5
101
330
1F
100
AcDbEntity
  8
SK3
  6
SLD-Dashed
370
    18
100
AcDbLine
 10
19.5
 20
-22.6151875392
 30
0.0
 11
19.5
 21
-16.525
 31
0.0
  0
LINE
  5
102
330
1F
100
AcDbEntity
  8
SK3
  6
SLD-Dashed
370
    18
100
AcDbLine
 10
-48.4
 20
-6.949320323
 30
0.0
 11
-47.2
 21
-6.2565
 31
0.0
  0
LINE
  5
103
330
1F
100
AcDbEntity
  8
SK3
  6
SLD-Dashed
370
    18
100
AcDbLine
 10
-47.2
 20
6.2565
 30
0.0
 11
-48.4
 21
6.949320323
 31
0.0
  0
LINE
  5
104
330
1F
100
AcDbEntity
  8
SK3
  6
SLD-Dashed
370
    18
100
AcDbLine
 10
-41.15
 20
-6.625
 30
0.0
 11
-40.2695408395
 21
-5.1
 31
0.0
  0
LINE
  5
105
330
1F
100
AcDbEntity
  8
SK3
  6
SLD-Dashed
370
    18
100
AcDbLine
 10
-40.2695408395
 20
5.1
 30
0.0
 11
-41.15
 21
6.625
 31
0.0
  0
LINE
  5
106
330
1F
100
AcDbEntity
  8
SK3
  6
SLD-Dashed
370
    18
100
AcDbLine
 10
-41.15
 20
6.625
 30
0.0
 11
-43.15
 21
6.625
 31
0.0
  0
LINE
  5
107
330
1F
100
AcDbEntity
  8
SK3
  6
SLD-Dashed
370
    18
100
AcDbLine
 10
-43.15
 20
-6.625
 30
0.0
 11
-41.15
 21
-6.625
 31
0.0
  0
LINE
  5
108
330
1F
100
AcDbEntity
  8
SK3
  6
SLD-Dashed
370
    18
100
AcDbLine
 10
-43.15
 20
6.625
 30
0.0
 11
-43.7882607226
 21
6.2565
 31
0.0
  0
LINE
  5
109
330
1F
100
AcDbEntity
  8
SK3
  6
SLD-Dashed
370
    18
100
AcDbLine
 10
-43.7882607226
 20
-6.2565
 30
0.0
 11
-43.15
 21
-6.625
 31
0.0
  0
LINE
  5
10A
330
1F
100
AcDbEntity
  8
SK3
  6
SLD-Dashed
370
    18
100
AcDbLine
 10
-43.7882607226
 20
6.2565
 30
0.0
 11
-47.2
 21
6.2565
 31
0.0
  0
LINE
  5
10B
330
1F
100
AcDbEntity
  8
SK3
  6
SLD-Dashed
370
    18
100
AcDbLine
 10
-47.2
 20
-6.2565
 30
0.0
 11
-43.7882607226
 21
-6.2565
 31
0.0
  0
LINE
  5
10C
330
1F
100
AcDbEntity
  8
SK3
  6
SLD-Dashed
370
    18
100
AcDbLine
 10
19.4999991329
 20
22.6149996793
 30
0.0
 11
19.8749999617
 21
22.99
 31
0.0
  0
LINE
  5
10D
330
1F
100
AcDbEntity
  8
SK3
  6
SLD-Dashed
370
    18
100
AcDbLine
 10
66.0
 20
5.8273502692
 30
0.0
 11
65.0
 21
5.25
 31
0.0
  0
LINE
  5
10E
330
1F
100
AcDbEntity
  8
SK3
  6
SLD-Dashed
370
    18
100
AcDbLine
 10
65.0
 20
-5.25
 30
0.0
 11
66.0
 21
-5.8273502692
 31
0.0
  0
LINE
  5
10F
330
1F
100
AcDbEntity
  8
SK3
  6
SLD-Dashed
370
    18
100
AcDbLine
 10
61.5
 20
5.25
 30
0.0
 11
60.899139381
 21
4.25
 31
0.0
  0
LINE
  5
110
330
1F
100
AcDbEntity
  8
SK3
  6
SLD-Dashed
370
    18
100
AcDbLine
 10
60.899139381
 20
-4.25
 30
0.0
 11
61.5
 21
-5.25
 31
0.0
  0
LINE
  5
111
330
1F
100
AcDbEntity
  8
SK3
  6
SLD-Dashed
370
    18
100
AcDbLine
 10
65.0
 20
5.25
 30
0.0
 11
61.5
 21
5.25
 31
0.0
  0
LINE
  5
112
330
1F
100
AcDbEntity
  8
SK3
  6
SLD-Dashed
370
    18
100
AcDbLine
 10
61.5
 20
-5.25
 30
0.0
 11
65.0
 21
-5.25
 31
0.0
  0
LINE
  5
113
330
1F
100
AcDbEntity
  8
SK3
  6
SLD-Dashed
370
    18
100
AcDbLine
 10
-40.2695408395
 20
-5.1
 30
0.0
 11
16.6
 21
-5.1
 31
0.0
  0
LINE
  5
114
330
1F
100
AcDbEntity
  8
SK3
  6
SLD-Dashed
370
    18
100
AcDbLine
 10
16.6
 20
5.1
 30
0.0
 11
-40.2695408395
 21
5.1
 31
0.0
  0
LINE
  5
115
330
1F
100
AcDbEntity
  8
SK3
  6
SLD-Dashed
370
    18
100
AcDbLine
 10
16.6
 20
-5.1
 30
0.0
 11
17.1107315262
 21
-4.25
 31
0.0
  0
LINE
  5
116
330
1F
100
AcDbEntity
  8
SK3
  6
SLD-Dashed
370
    18
100
AcDbLine
 10
17.1107315262
 20
4.25
 30
0.0
 11
16.6
 21
5.1
 31
0.0
  0
LINE
  5
117
330
1F
100
AcDbEntity
  8
SK3
  6
SLD-Dashed
370
    18
100
AcDbLine
 10
16.0
 20
-16.15
 30
0.0
 11
16.0
 21
-11.75
 31
0.0
  0
LINE
  5
118
330
1F
100
AcDbEntity
  8
SK3
  6
SLD-Dashed
370
    18
100
AcDbLine
 10
6.0
 20
-11.75
 30
0.0
 11
6.0
 21
-16.15
 31
0.0
  0
LINE
  5
119
330
1F
100
AcDbEntity
  8
SK3
  6
SLD-Dashed
370
    18
100
AcDbLine
 10
60.899139381
 20
4.25
 30
0.0
 11
17.1107315262
 21
4.25
 31
0.0
  0
LINE
  5
11A
330
1F
100
AcDbEntity
  8
SK3
  6
SLD-Dashed
370
    18
100
AcDbLine
 10
17.1107315262
 20
-4.25
 30
0.0
 11
60.899139381
 21
-4.25
 31
0.0
  0
LINE
  5
11B
330
1F
100
AcDbEntity
  8
SK3
  6
SLD-Dashed
370
    18
100
AcDbLine
 10
64.0
 20
6.7
 30
0.0
 11
64.0
 21
11.0
 31
0.0
  0
LINE
  5
11C
330
1F
100
AcDbEntity
  8
SK3
  6
SLD-Dashed
370
    18
100
AcDbLine
 10
38.9
 20
11.0
 30
0.0
 11
38.9
 21
6.7
 31
0.0
  0
LINE
  5
11D
330
1F
100
AcDbEntity
  8
SK3
  6
SLD-Dashed
370
    18
100
AcDbLine
 10
2.0
 20
15.7749999998
 30
0.0
 11
2.375
 21
16.1499999998
 31
0.0
  0
LINE
  5
11E
330
1F
100
AcDbEntity
  8
SK3
  6
SLD-Solid
370
    18
100
AcDbLine
 10
-23.4
 20
6.0
 30
0.0
 11
-40.7891560818
 21
6.0
 31
0.0
  0
LINE
  5
11F
330
1F
100
AcDbEntity
  8
SK3
  6
SLD-Solid
370
    18
100
AcDbLine
 10
-40.7891560818
 20
-6.0
 30
0.0
 11
-23.4
 21
-6.0
 31
0.0
  0
LINE
  5
120
330
1F
100
AcDbEntity
  8
SK3
  6
SLD-Solid
370
    18
100
AcDbLine
 10
-23.4
 20
6.0
 30
0.0
 11
-23.4
 21
5.9261300436
 31
0.0
  0
LINE
  5
121
330
1F
100
AcDbEntity
  8
SK3
  6
SLD-Solid
370
    18
100
AcDbLine
 10
-23.4
 20
5.9261300436
 30
0.0
 11
-23.4
 21
5.7063390978
 31
0.0
  0
LINE
  5
122
330
1F
100
AcDbEntity
  8
SK3
  6
SLD-Solid
370
    18
100
AcDbLine
 10
-23.4
 20
5.7063390978
 30
0.0
 11
-23.4
 21
5.3460391451
 31
0.0
  0
LINE
  5
123
330
1F
100
AcDbEntity
  8
SK3
  6
SLD-Solid
370
    18
100
AcDbLine
 10
-23.4
 20
5.3460391451
 30
0.0
 11
-23.4
 21
4.8541019662
 31
0.0
  0
LINE
  5
124
330
1F
100
AcDbEntity
  8
SK3
  6
SLD-Solid
370
    18
100
AcDbLine
 10
-23.4
 20
4.8541019662
 30
0.0
 11
-23.4
 21
4.2426406871
 31
0.0
  0
LINE
  5
125
330
1F
100
AcDbEntity
  8
SK3
  6
SLD-Solid
370
    18
100
AcDbLine
 10
-23.4
 20
4.2426406871
 30
0.0
 11
-23.4
 21
3.5267115138
 31
0.0
  0
LINE
  5
126
330
1F
100
AcDbEntity
  8
SK3
  6
SLD-Solid
370
    18
100
AcDbLine
 10
-23.4
 20
3.5267115138
 30
0.0
 11
-23.4
 21
2.7239429984
 31
0.0
  0
LINE
  5
127
330
1F
100
AcDbEntity
  8
SK3
  6
SLD-Solid
370
    18
100
AcDbLine
 10
-23.4
 20
2.7239429984
 30
0.0
 11
-23.4
 21
1.8541019662
 31
0.0
  0
LINE
  5
128
330
1F
100
AcDbEntity
  8
SK3
  6
SLD-Solid
370
    18
100
AcDbLine
 10
-23.4
 20
1.8541019662
 30
0.0
 11
-23.4
 21
0.9386067902
 31
0.0
  0
LINE
  5
129
330
1F
100
AcDbEntity
  8
SK3
  6
SLD-Solid
370
    18
100
AcDbLine
 10
-23.4
 20
0.9386067902
 30
0.0
 11
-23.4
 21
0.0
 31
0.0
  0
LINE
  5
12A
330
1F
100
AcDbEntity
  8
SK3
  6
SLD-Solid
370
    18
100
AcDbLine
 10
-23.4
 20
0.0
 30
0.0
 11
-23.4
 21
-0.9386067902
 31
0.0
  0
LINE
  5
12B
330
1F
100
AcDbEntity
  8
SK3
  6
SLD-Solid
370
    18
100
AcDbLine
 10
-23.4
 20
-0.9386067902
 30
0.0
 11
-23.4
 21
-1.8541019663
 31
0.0
  0
LINE
  5
12C
330
1F
100
AcDbEntity
  8
SK3
  6
SLD-Solid
370
    18
100
AcDbLine
 10
-23.4
 20
-1.8541019663
 30
0.0
 11
-23.4
 21
-2.7239429984
 31
0.0
  0
LINE
  5
12D
330
1F
100
AcDbEntity
  8
SK3
  6
SLD-Solid
370
    18
100
AcDbLine
 10
-23.4
 20
-2.7239429984
 30
0.0
 11
-23.4
 21
-3.5267115138
 31
0.0
  0
LINE
  5
12E
330
1F
100
AcDbEntity
  8
SK3
  6
SLD-Solid
370
    18
100
AcDbLine
 10
-23.4
 20
-3.5267115138
 30
0.0
 11
-23.4
 21
-4.2426406871
 31
0.0
  0
LINE
  5
12F
330
1F
100
AcDbEntity
  8
SK3
  6
SLD-Solid
370
    18
100
AcDbLine
 10
-23.4
 20
-4.2426406871
 30
0.0
 11
-23.4
 21
-4.8541019663
 31
0.0
  0
LINE
  5
130
330
1F
100
AcDbEntity
  8
SK3
  6
SLD-Solid
370
    18
100
AcDbLine
 10
-23.4
 20
-4.8541019663
 30
0.0
 11
-23.4
 21
-5.3460391451
 31
0.0
  0
LINE
  5
131
330
1F
100
AcDbEntity
  8
SK3
  6
SLD-Solid
370
    18
100
AcDbLine
 10
-23.4
 20
-5.3460391451
 30
0.0
 11
-23.4
 21
-5.7063390978
 31
0.0
  0
LINE
  5
132
330
1F
100
AcDbEntity
  8
SK3
  6
SLD-Solid
370
    18
100
AcDbLine
 10
-23.4
 20
-5.7063390978
 30
0.0
 11
-23.4
 21
-5.9261300436
 31
0.0
  0
LINE
  5
133
330
1F
100
AcDbEntity
  8
SK3
  6
SLD-Solid
370
    18
100
AcDbLine
 10
-23.4
 20
-5.9261300436
 30
0.0
 11
-23.4
 21
-6.0
 31
0.0
  0
LINE
  5
134
330
1F
100
AcDbEntity
  8
SK3
  6
SLD-Solid
370
    18
100
AcDbLine
 10
41.0
 20
-5.0
 30
0.0
 11
61.3497848452
 21
-5.0
 31
0.0
  0
LINE
  5
135
330
1F
100
AcDbEntity
  8
SK3
  6
SLD-Solid
370
    18
100
AcDbLine
 10
61.3497848452
 20
5.0
 30
0.0
 11
41.0
 21
5.0
 31
0.0
  0
LINE
  5
136
330
1F
100
AcDbEntity
  8
SK3
  6
SLD-Solid
370
    18
100
AcDbLine
 10
41.0
 20
-5.0
 30
0.0
 11
41.0
 21
-4.9595021763
 31
0.0
  0
LINE
  5
137
330
1F
100
AcDbEntity
  8
SK3
  6
SLD-Solid
370
    18
100
AcDbLine
 10
41.0
 20
-4.9595021763
 30
0.0
 11
41.0
 21
-4.7808336737
 31
0.0
  0
LINE
  5
138
330
1F
100
AcDbEntity
  8
SK3
  6
SLD-Solid
370
    18
100
AcDbLine
 10
41.0
 20
-4.7808336737
 30
0.0
 11
41.0
 21
-4.4646292907
 31
0.0
  0
LINE
  5
139
330
1F
100
AcDbEntity
  8
SK3
  6
SLD-Solid
370
    18
100
AcDbLine
 10
41.0
 20
-4.4646292907
 30
0.0
 11
41.0
 21
-4.0199856518
 31
0.0
  0
LINE
  5
13A
330
1F
100
AcDbEntity
  8
SK3
  6
SLD-Solid
370
    18
100
AcDbLine
 10
41.0
 20
-4.0199856518
 30
0.0
 11
41.0
 21
-3.4596943449
 31
0.0
  0
LINE
  5
13B
330
1F
100
AcDbEntity
  8
SK3
  6
SLD-Solid
370
    18
100
AcDbLine
 10
41.0
 20
-3.4596943449
 30
0.0
 11
41.0
 21
-2.7998739307
 31
0.0
  0
LINE
  5
13C
330
1F
100
AcDbEntity
  8
SK3
  6
SLD-Solid
370
    18
100
AcDbLine
 10
41.0
 20
-2.7998739307
 30
0.0
 11
41.0
 21
-2.0595062412
 31
0.0
  0
LINE
  5
13D
330
1F
100
AcDbEntity
  8
SK3
  6
SLD-Solid
370
    18
100
AcDbLine
 10
41.0
 20
-2.0595062412
 30
0.0
 11
41.0
 21
-1.2598903069
 31
0.0
  0
LINE
  5
13E
330
1F
100
AcDbEntity
  8
SK3
  6
SLD-Solid
370
    18
100
AcDbLine
 10
41.0
 20
-1.2598903069
 30
0.0
 11
41.0
 21
-0.4240296224
 31
0.0
  0
LINE
  5
13F
330
1F
100
AcDbEntity
  8
SK3
  6
SLD-Solid
370
    18
100
AcDbLine
 10
41.0
 20
-0.4240296224
 30
0.0
 11
41.0
 21
0.4240296224
 31
0.0
  0
LINE
  5
140
330
1F
100
AcDbEntity
  8
SK3
  6
SLD-Solid
370
    18
100
AcDbLine
 10
41.0
 20
0.4240296224
 30
0.0
 11
41.0
 21
1.2598903069
 31
0.0
  0
LINE
  5
141
330
1F
100
AcDbEntity
  8
SK3
  6
SLD-Solid
370
    18
100
AcDbLine
 10
41.0
 20
1.2598903069
 30
0.0
 11
41.0
 21
2.0595062412
 31
0.0
  0
LINE
  5
142
330
1F
100
AcDbEntity
  8
SK3
  6
SLD-Solid
370
    18
100
AcDbLine
 10
41.0
 20
2.0595062412
 30
0.0
 11
41.0
 21
2.7998739307
 31
0.0
  0
LINE
  5
143
330
1F
100
AcDbEntity
  8
SK3
  6
SLD-Solid
370
    18
100
AcDbLine
 10
41.0
 20
2.7998739307
 30
0.0
 11
41.0
 21
3.4596943449
 31
0.0
  0
LINE
  5
144
330
1F
100
AcDbEntity
  8
SK3
  6
SLD-Solid
370
    18
100
AcDbLine
 10
41.0
 20
3.4596943449
 30
0.0
 11
41.0
 21
4.0199856518
 31
0.0
  0
LINE
  5
145
330
1F
100
AcDbEntity
  8
SK3
  6
SLD-Solid
370
    18
100
AcDbLine
 10
41.0
 20
4.0199856518
 30
0.0
 11
41.0
 21
4.4646292907
 31
0.0
  0
LINE
  5
146
330
1F
100
AcDbEntity
  8
SK3
  6
SLD-Solid
370
    18
100
AcDbLine
 10
41.0
 20
4.4646292907
 30
0.0
 11
41.0
 21
4.7808336737
 31
0.0
  0
LINE
  5
147
330
1F
100
AcDbEntity
  8
SK3
  6
SLD-Solid
370
    18
100
AcDbLine
 10
41.0
 20
4.7808336737
 30
0.0
 11
41.0
 21
4.9595021763
 31
0.0
  0
LINE
  5
148
330
1F
100
AcDbEntity
  8
SK3
  6
SLD-Solid
370
    18
100
AcDbLine
 10
41.0
 20
4.9595021763
 30
0.0
 11
41.0
 21
5.0
 31
0.0
  0
LINE
  5
149
330
1F
100
AcDbEntity
  8
SK1
  6
SLD-Solid
370
    18
100
AcDbLine
 10
69.1312168902
 20
4.25
 30
0.0
 11
66.0
 21
4.25
 31
0.0
  0
LINE
  5
14A
330
1F
100
AcDbEntity
  8
SK1
  6
SLD-Solid
370
    18
100
AcDbLine
 10
66.0
 20
-4.25
 30
0.0
 11
69.1312168902
 21
-4.25
 31
0.0
  0
LINE
  5
14B
330
1F
100
AcDbEntity
  8
4
  6
SLD-Center
370
    18
100
AcDbLine
 10
0.3771078879
 20
0.0
 30
0.0
 11
68.0
 21
0.0
 31
0.0
  0
LINE
  5
14C
330
1F
100
AcDbEntity
  8
SK4
  6
SLD-Center
370
    18
100
AcDbLine
 10
68.0128707248
 20
0.0
 30
0.0
 11
-49.2
 21
0.0
 31
0.0
  0
ARC
  5
14D
330
1F
100
AcDbEntity
  8
SK1
  6
SLD-Solid
370
    25
100
AcDbCircle
 10
74.4312168902
 20
6.2
 30
0.0
 40
0.2999999999999972
100
AcDbArc
 50
90.0
 51
180.0
  0
ARC
  5
14E
330
1F
100
AcDbEntity
  8
SK1
  6
SLD-Solid
370
    25
100
AcDbCircle
 10
74.4312168902
 20
-6.2
 30
0.0
 40
0.2999999999999972
100
AcDbArc
 50
180.0
 51
270.0
  0
ARC
  5
14F
330
1F
100
AcDbEntity
  8
1
  6
SLD-Solid
370
    25
100
AcDbCircle
 10
21.35
 20
-22.24
 30
0.0
 40
0.75
100
AcDbArc
 50
270.0
 51
0.0
  0
ARC
  5
150
330
1F
100
AcDbEntity
  8
1
  6
SLD-Solid
370
    25
100
AcDbCircle
 10
21.35
 20
22.24
 30
0.0
 40
0.75
100
AcDbArc
 50
0.0
 51
90.0
  0
ARC
  5
151
330
1F
100
AcDbEntity
  8
1
  6
SLD-Solid
370
    25
100
AcDbCircle
 10
23.1
 20
-21.0
 30
0.0
 40
1.0
100
AcDbArc
 50
90.0
 51
180.0
  0
ARC
  5
152
330
1F
100
AcDbEntity
  8
1
  6
SLD-Solid
370
    25
100
AcDbCircle
 10
23.1
 20
21.0
 30
0.0
 40
1.0
100
AcDbArc
 50
180.0
 51
270.0
  0
ARC
  5
153
330
1F
100
AcDbEntity
  8
1
  6
SLD-Solid
370
    25
100
AcDbCircle
 10
34.2
 20
19.2
 30
0.0
 40
0.8000000000000043
100
AcDbArc
 50
0.0
 51
90.0
  0
ARC
  5
154
330
1F
100
AcDbEntity
  8
1
  6
SLD-Solid
370
    25
100
AcDbCircle
 10
34.2
 20
-19.2
 30
0.0
 40
0.8000000000000043
100
AcDbArc
 50
270.0
 51
0.0
  0
ARC
  5
155
330
1F
100
AcDbEntity
  8
1
  6
SLD-Solid
370
    25
100
AcDbCircle
 10
1.2
 20
-16.291394677
 30
0.0
 40
0.8000000000000134
100
AcDbArc
 50
10.1826318988
 51
115.0
  0
ARC
  5
156
330
1F
100
AcDbEntity
  8
1
  6
SLD-Solid
370
    25
100
AcDbCircle
 10
1.2
 20
16.291394677
 30
0.0
 40
0.8000000000000145
100
AcDbArc
 50
245.0
 51
349.8284775697
  0
ARC
  5
157
330
1F
100
AcDbEntity
  8
SK1
  6
SLD-Solid
370
    25
100
AcDbCircle
 10
35.42
 20
-11.547
 30
0.0
 40
0.8000000000000071
100
AcDbArc
 50
72.5
 51
121.6682432535
  0
ARC
  5
158
330
1F
100
AcDbEntity
  8
SK1
  6
SLD-Solid
370
    25
100
AcDbCircle
 10
35.42
 20
11.547
 30
0.0
 40
0.8000000000000114
100
AcDbArc
 50
238.3317567465
 51
287.5
  0
ARC
  5
159
330
1F
100
AcDbEntity
  8
SK1
  6
SLD-Solid
370
    25
100
AcDbCircle
 10
-48.025
 20
8.4918452077
 30
0.0
 40
0.375
100
AcDbArc
 50
98.2977777778
 51
180.0
  0
ARC
  5
15A
330
1F
100
AcDbEntity
  8
SK1
  6
SLD-Solid
370
    25
100
AcDbCircle
 10
-48.025
 20
-8.4918452077
 30
0.0
 40
0.375
100
AcDbArc
 50
180.0
 51
261.7022222222
  0
ARC
  5
15B
330
1F
100
AcDbEntity
  8
SK3
  6
SLD-Dashed
370
    18
100
AcDbCircle
 10
19.125
 20
16.5249999998
 30
0.0
 40
0.3750000000000142
100
AcDbArc
 50
270.0
 51
360.0
  0
ARC
  5
15C
330
1F
100
AcDbEntity
  8
SK3
  6
SLD-Dashed
370
    18
100
AcDbCircle
 10
6.3
 20
-11.75
 30
0.0
 40
0.3000000000000078
100
AcDbArc
 50
90.0
 51
180.0
  0
ARC
  5
15D
330
1F
100
AcDbEntity
  8
SK3
  6
SLD-Dashed
370
    18
100
AcDbCircle
 10
15.7
 20
-11.75
 30
0.0
 40
0.3000000000000025
100
AcDbArc
 50
0.0
 51
90.0
  0
ARC
  5
15E
330
1F
100
AcDbEntity
  8
SK3
  6
SLD-Dashed
370
    18
100
AcDbCircle
 10
63.8
 20
6.7
 30
0.0
 40
0.2000000000000028
100
AcDbArc
 50
270.0
 51
0.0
  0
ARC
  5
15F
330
1F
100
AcDbEntity
  8
SK3
  6
SLD-Dashed
370
    18
100
AcDbCircle
 10
39.1
 20
6.7
 30
0.0
 40
0.2000000000000028
100
AcDbArc
 50
180.0
 51
270.0
  0
SPLINE
  5
160
330
1F
100
AcDbEntity
  8
1
  6
SLD-Solid
370
    25
100
AcDbSpline
210
0.0
220
0.0
230
1.0
 70
     8
 71
     3
 72
    10
 73
     6
 74
     0
 42
0.000000001
 43
0.00000001
 40
0.0
 40
0.0
 40
0.0
 40
0.0
 40
0.5
 40
0.5
 40
1.0
 40
1.0
 40
1.0
 40
1.0
 10
15.60000000000001
 20
-18.20619124728897
 30
0.0
 10
15.90371676884136
 20
-18.83908846428042
 30
0.0
 10
16.20431228748105
 20
-19.462904232355
 30
0.0
 10
16.79677392958327
 20
-20.68882545936861
 30
0.0
 10
17.08869106513463
 20
-21.29102691730526
 30
0.0
 10
17.37428230507105
 20
-21.87889326115163
 30
0.0
  0
SPLINE
  5
161
330
1F
100
AcDbEntity
  8
1
  6
SLD-Solid
370
    25
100
AcDbSpline
210
0.0
220
0.0
230
1.0
 70
     8
 71
     3
 72
    10
 73
     6
 74
     0
 42
0.000000001
 43
0.00000001
 40
0.0
 40
0.0
 40
0.0
 40
0.0
 40
0.5
 40
0.5
 40
1.0
 40
1.0
 40
1.0
 40
1.0
 10
15.60000000000001
 20
18.20619124728897
 30
0.0
 10
15.90371708393188
 20
18.83908912410738
 30
0.0
 10
16.20431277300975
 20
19.46290524542579
 30
0.0
 10
16.79677442407698
 20
20.68882649307463
 30
0.0
 10
17.08869139852445
 20
21.291027619023
 30
0.0
 10
17.37428227908525
 20
21.87889322612935
 30
0.0
  0
SPLINE
  5
162
330
1F
100
AcDbEntity
  8
1
  6
SLD-Solid
370
    25
100
AcDbSpline
210
0.0
220
0.0
230
1.0
 70
     8
 71
     3
 72
    16
 73
    12
 74
     0
 42
0.000000001
 43
0.00000001
 40
0.0
 40
0.0
 40
0.0
 40
0.0
 40
0.0680357699048778
 40
0.1216271915820821
 40
0.2437825385130263
 40
0.366417406951498
 40
0.4907311408778936
 40
0.619673830448627
 40
0.7429210525083473
 40
0.8723479677006163
 40
1.0
 40
1.0
 40
1.0
 40
1.0
 10
2.000000000000016
 20
-20.56190591846972
 30
0.0
 10
2.000796789497161
 20
-20.58840543175417
 30
0.0
 10
2.002221205932159
 20
-20.6357784736641
 30
0.0
 10
2.016562271733836
 20
-20.72978897901865
 30
0.0
 10
2.049010913405258
 20
-20.84222874359098
 30
0.0
 10
2.115216794569705
 20
-20.97140279656776
 30
0.0
 10
2.20679600686232
 20
-21.0880007037351
 30
0.0
 10
2.320292410454387
 20
-21.1849168374948
 30
0.0
 10
2.452780038536238
 20
-21.25807956079701
 30
0.0
 10
2.597289938932879
 20
-21.30559252572537
 30
0.0
 10
2.69933147921083
 20
-21.31161982291053
 30
0.0
 10
2.750000000000016
 20
-21.31461266515787
 30
0.0
  0
SPLINE
  5
163
330
1F
100
AcDbEntity
  8
1
  6
SLD-Solid
370
    25
100
AcDbSpline
210
0.0
220
0.0
230
1.0
 70
     8
 71
     3
 72
    18
 73
    14
 74
     0
 42
0.000000001
 43
0.00000001
 40
0.0
 40
0.0
 40
0.0
 40
0.0
 40
0.0635512407506229
 40
0.1275226617845625
 40
0.1919409794165681
 40
0.256832142275133
 40
0.380041850074854
 40
0.5089684150964031
 40
0.6332965405611967
 40
0.755870851700698
 40
0.8782286158027892
 40
0.9318514945236942
 40
1.0
 40
1.0
 40
1.0
 40
1.0
 10
2.750000000000013
 20
21.31461266515787
 30
0.0
 10
2.724798834662184
 20
21.31387419569564
 30
0.0
 10
2.674229882018691
 20
21.31239237424956
 30
0.0
 10
2.598924813386017
 20
21.30040578464826
 30
0.0
 10
2.52471770684282
 20
21.28123664385643
 30
0.0
 10
2.43098109068431
 20
21.24625065054662
 30
0.0
 10
2.320753334449579
 20
21.18515247680333
 30
0.0
 10
2.207178689022098
 20
21.08842439202675
 30
0.0
 10
2.115494057380587
 20
20.97183348780207
 30
0.0
 10
2.049153466090614
 20
20.84261177433913
 30
0.0
 10
2.016619789506838
 20
20.73007755144123
 30
0.0
 10
2.002229319045034
 20
20.63590436880763
 30
0.0
 10
2.000799941287941
 20
20.58845860764177
 30
0.0
 10
2.000000000000016
 20
20.56190591846972
 30
0.0
  0
SPLINE
  5
164
330
1F
100
AcDbEntity
  8
1
  6
SLD-Solid
370
    25
100
AcDbSpline
210
0.0
220
0.0
230
1.0
 70
     8
 71
     3
 72
     8
 73
     4
 74
     0
 42
0.000000001
 43
0.00000001
 40
0.0000433325284341
 40
0.0000433325284341
 40
0.0000433325284341
 40
0.0000433325284341
 40
0.0004719455603877
 40
0.0004719455603877
 40
0.0004719455603877
 40
0.0004719455603877
 10
11.40000000000001
 20
18.0953286017731
 30
0.0
 10
11.46660587253709
 20
17.96893325601978
 30
0.0
 10
11.533273339173
 20
17.84256764359957
 30
0.0
 10
11.60000000000001
 20
17.71624677331126
 30
0.0
  0
SPLINE
  5
165
330
1F
100
AcDbEntity
  8
1
  6
SLD-Solid
370
    25
100
AcDbSpline
210
0.0
220
0.0
230
1.0
 70
     8
 71
     3
 72
     8
 73
     4
 74
     0
 42
0.000000001
 43
0.00000001
 40
0.0000433325284341
 40
0.0000433325284341
 40
0.0000433325284341
 40
0.0000433325284341
 40
0.0004719455603877
 40
0.0004719455603877
 40
0.0004719455603877
 40
0.0004719455603877
 10
11.40000000000001
 20
-18.0953286017731
 30
0.0
 10
11.46660587253709
 20
-17.96893325601978
 30
0.0
 10
11.533273339173
 20
-17.84256764359957
 30
0.0
 10
11.60000000000001
 20
-17.71624677331127
 30
0.0
  0
SPLINE
  5
166
330
1F
100
AcDbEntity
  8
1
  6
SLD-Solid
370
    25
100
AcDbSpline
210
0.0
220
0.0
230
1.0
 70
     8
 71
     3
 72
     8
 73
     4
 74
     0
 42
0.000000001
 43
0.00000001
 40
0.0
 40
0.0
 40
0.0
 40
0.0
 40
1.0
 40
1.0
 40
1.0
 40
1.0
 10
9.869071747010183
 20
-20.96694064473881
 30
0.0
 10
10.38341093814354
 20
-20.01191163479491
 30
0.0
 10
10.89434185816636
 20
-19.05489617795751
 30
0.0
 10
11.40000000000001
 20
-18.0953286017731
 30
0.0
  0
SPLINE
  5
167
330
1F
100
AcDbEntity
  8
1
  6
SLD-Solid
370
    25
100
AcDbSpline
210
0.0
220
0.0
230
1.0
 70
     8
 71
     3
 72
     8
 73
     4
 74
     0
 42
0.000000001
 43
0.00000001
 40
0.0
 40
0.0
 40
0.0
 40
0.0
 40
0.0006887074915324
 40
0.0006887074915324
 40
0.0006887074915324
 40
0.0006887074915324
 10
9.572981872402353
 20
-21.31461266515788
 30
0.0
 10
9.67209973510045
 20
-21.19883443678684
 30
0.0
 10
9.770807239792623
 20
-21.08294605744472
 30
0.0
 10
9.869071747010183
 20
-20.96694064473881
 30
0.0
  0
SPLINE
  5
168
330
1F
100
AcDbEntity
  8
1
  6
SLD-Solid
370
    25
100
AcDbSpline
210
0.0
220
0.0
230
1.0
 70
     8
 71
     3
 72
     8
 73
     4
 74
     0
 42
0.000000001
 43
0.00000001
 40
0.0000000000000033
 40
0.0000000000000033
 40
0.0000000000000033
 40
0.0000000000000033
 40
0.0006887074915357
 40
0.0006887074915357
 40
0.0006887074915357
 40
0.0006887074915357
 10
9.869071747017898
 20
20.96694064473884
 30
0.0
 10
9.770807239799867
 20
21.08294605744528
 30
0.0
 10
9.672099735100922
 20
21.19883443678628
 30
0.0
 10
9.572981872402353
 20
21.31461266515788
 30
0.0
  0
SPLINE
  5
169
330
1F
100
AcDbEntity
  8
1
  6
SLD-Solid
370
    25
100
AcDbSpline
210
0.0
220
0.0
230
1.0
 70
     8
 71
     3
 72
     8
 73
     4
 74
     0
 42
0.000000001
 43
0.00000001
 40
0.0
 40
0.0
 40
0.0
 40
0.0
 40
1.0
 40
1.0
 40
1.0
 40
1.0
 10
9.869071747016186
 20
20.96694064474206
 30
0.0
 10
10.3834693399527
 20
20.01180319387109
 30
0.0
 10
10.89434699821251
 20
19.0548864238989
 30
0.0
 10
11.40000000000001
 20
18.0953286017731
 30
0.0
  0
SPLINE
  5
16A
330
1F
100
AcDbEntity
  8
1
  6
SLD-Solid
370
    25
100
AcDbSpline
210
0.0
220
0.0
230
1.0
 70
     8
 71
     3
 72
    40
 73
    36
 74
     0
 42
0.000000001
 43
0.00000001
 40
0.0
 40
0.0
 40
0.0
 40
0.0
 40
0.0625000000000003
 40
0.0625000000000003
 40
0.1250000000000005
 40
0.1250000000000005
 40
0.1875000000000008
 40
0.1875000000000008
 40
0.2500000000000011
 40
0.2500000000000011
 40
0.3125000000000013
 40
0.3125000000000013
 40
0.3750000000000016
 40
0.3750000000000016
 40
0.4062500000000016
 40
0.4062500000000016
 40
0.4375000000000015
 40
0.4375000000000015
 40
0.5000000000000013
 40
0.5000000000000013
 40
0.5625000000000012
 40
0.5625000000000012
 40
0.6250000000000011
 40
0.6250000000000011
 40
0.6875000000000009
 40
0.6875000000000009
 40
0.7500000000000007
 40
0.7500000000000007
 40
0.8125000000000006
 40
0.8125000000000006
 40
0.8750000000000003
 40
0.8750000000000003
 40
0.9375000000000002
 40
0.9375000000000002
 40
1.0
 40
1.0
 40
1.0
 40
1.0
 10
29.30000000000001
 20
-5.049999999999999
 30
0.0
 10
28.96496880017282
 20
-5.049999999999999
 30
0.0
 10
28.63581860803039
 20
-5.016992654987056
 30
0.0
 10
27.98870819621723
 20
-4.887930648747478
 30
0.0
 10
27.66731751991017
 20
-4.790220162792965
 30
0.0
 10
27.05656619277911
 20
-4.536393506017609
 30
0.0
 10
26.76710808360972
 20
-4.381269431581764
 30
0.0
 10
26.21928935140263
 20
-4.015007495864319
 30
0.0
 10
25.96101360947944
 20
-3.802783865180261
 30
0.0
 10
25.49733471448721
 20
-3.339121436502831
 30
0.0
 10
25.28875914665118
 20
-3.085862993492668
 30
0.0
 10
24.91946601263258
 20
-2.534467514824584
 30
0.0
 10
24.76342850329895
 20
-2.242776290361598
 30
0.0
 10
24.57410229523128
 20
-1.787567479113343
 30
0.0
 10
24.51829830120984
 20
-1.632558476766327
 30
0.0
 10
24.42162394282969
 20
-1.315813573840027
 30
0.0
 10
24.38059941877036
 20
-1.153109264014192
 30
0.0
 10
24.28278080428877
 20
-0.6638250941464683
 30
0.0
 10
24.25029781940682
 20
-0.3353151214078032
 30
0.0
 10
24.24970621852771
 20
0.3262837172686855
 30
0.0
 10
24.28272033720167
 20
0.6624114921032382
 30
0.0
 10
24.41197059298911
 20
1.311126506404685
 30
0.0
 10
24.50762989987478
 20
1.626593571957435
 30
0.0
 10
24.76168892464651
 20
2.239721055897661
 30
0.0
 10
24.91903162255916
 20
2.533238590772108
 30
0.0
 10
25.283707749848
 20
3.078892372799451
 30
0.0
 10
25.49386502125179
 20
3.335447377904907
 30
0.0
 10
25.96137169943623
 20
3.803345074785889
 30
0.0
 10
26.21470040848834
 20
4.011388484541776
 30
0.0
 10
26.76011386246325
 20
4.377132571860825
 30
0.0
 10
27.05569221727442
 20
4.535902053388108
 30
0.0
 10
27.66485312971479
 20
4.789323498588252
 30
0.0
 10
27.97953613199621
 20
4.88557039005302
 30
0.0
 10
28.62961906848121
 20
5.016274740235267
 30
0.0
 10
28.96495958595308
 20
5.050000000000006
 30
0.0
 10
29.30000000000003
 20
5.050000000000006
 30
0.0
  0
SPLINE
  5
16B
330
1F
100
AcDbEntity
  8
1
  6
SLD-Solid
370
    25
100
AcDbSpline
210
0.0
220
0.0
230
1.0
 70
    24
 71
     2
 72
     6
 73
     3
 74
     0
 42
0.000000001
 43
0.00000001
 40
0.0
 40
0.0
 40
0.0
 40
0.25
 40
0.25
 40
0.25
 10
35.00000000000002
 20
5.050000000000006
 30
0.0
 10
34.98007447939485
 20
5.050000000000006
 30
0.0
 10
34.94105455321759
 20
5.050000000000006
 30
0.0
  0
SPLINE
  5
16C
330
1F
100
AcDbEntity
  8
1
  6
SLD-Solid
370
    25
100
AcDbSpline
210
0.0
220
0.0
230
1.0
 70
    24
 71
     3
 72
     8
 73
     4
 74
     0
 42
0.000000001
 43
0.00000001
 40
0.25
 40
0.25
 40
0.25
 40
0.25
 40
0.5
 40
0.5
 40
0.5
 40
0.5
 10
34.94105455321759
 20
5.050000000000006
 30
0.0
 10
34.90203462704033
 20
5.050000000000006
 30
0.0
 10
34.84411912262895
 20
5.050000000000006
 30
0.0
 10
34.7709446145336
 20
5.050000000000006
 30
0.0
  0
SPLINE
  5
16D
330
1F
100
AcDbEntity
  8
1
  6
SLD-Solid
370
    25
100
AcDbSpline
210
0.0
220
0.0
230
1.0
 70
    24
 71
     3
 72
     8
 73
     4
 74
     0
 42
0.000000001
 43
0.00000001
 40
0.5
 40
0.5
 40
0.5
 40
0.5
 40
0.75
 40
0.75
 40
0.75
 40
0.75
 10
34.7709446145336
 20
5.050000000000006
 30
0.0
 10
34.69777010643824
 20
5.050000000000006
 30
0.0
 10
34.60910020532546
 20
5.050000000000006
 30
0.0
 10
34.5110525760098
 20
5.050000000000006
 30
0.0
  0
SPLINE
  5
16E
330
1F
100
AcDbEntity
  8
1
  6
SLD-Solid
370
    25
100
AcDbSpline
210
0.0
220
0.0
230
1.0
 70
    24
 71
     3
 72
     8
 73
     4
 74
     0
 42
0.000000001
 43
0.00000001
 40
0.75
 40
0.75
 40
0.75
 40
0.75
 40
1.0
 40
1.0
 40
1.0
 40
1.0
 10
34.5110525760098
 20
5.050000000000006
 30
0.0
 10
34.41300494669416
 20
5.050000000000006
 30
0.0
 10
34.30744724384208
 20
5.050000000000006
 30
0.0
 10
34.20000000000002
 20
5.050000000000006
 30
0.0
  0
SPLINE
  5
16F
330
1F
100
AcDbEntity
  8
1
  6
SLD-Solid
370
    25
100
AcDbSpline
210
0.0
220
0.0
230
1.0
 70
    24
 71
     3
 72
     8
 73
     4
 74
     0
 42
0.000000001
 43
0.00000001
 40
0.0
 40
0.0
 40
0.0
 40
0.0
 40
0.2499999999999985
 40
0.2499999999999985
 40
0.2499999999999985
 40
0.2499999999999985
 10
34.20000000000002
 20
-5.049999999999999
 30
0.0
 10
34.30606900349258
 20
-5.049999999999999
 30
0.0
 10
34.41439458696278
 20
-5.049999999999999
 30
0.0
 10
34.5118469881576
 20
-5.049999999999999
 30
0.0
  0
SPLINE
  5
170
330
1F
100
AcDbEntity
  8
1
  6
SLD-Solid
370
    25
100
AcDbSpline
210
0.0
220
0.0
230
1.0
 70
    24
 71
     3
 72
     8
 73
     4
 74
     0
 42
0.000000001
 43
0.00000001
 40
0.2499999999999985
 40
0.2499999999999985
 40
0.2499999999999985
 40
0.2499999999999985
 40
0.499999999999997
 40
0.499999999999997
 40
0.499999999999997
 40
0.499999999999997
 10
34.5118469881576
 20
-5.049999999999999
 30
0.0
 10
34.60929938935243
 20
-5.049999999999999
 30
0.0
 10
34.69823206930739
 20
-5.049999999999999
 30
0.0
 10
34.77120152341592
 20
-5.049999999999999
 30
0.0
  0
SPLINE
  5
171
330
1F
100
AcDbEntity
  8
1
  6
SLD-Solid
370
    25
100
AcDbSpline
210
0.0
220
0.0
230
1.0
 70
    24
 71
     2
 72
     6
 73
     3
 74
     0
 42
0.000000001
 43
0.00000001
 40
0.499999999999997
 40
0.499999999999997
 40
0.499999999999997
 40
1.0
 40
1.0
 40
1.0
 10
34.77120152341592
 20
-5.049999999999999
 30
0.0
 10
34.91714043163294
 20
-5.049999999999999
 30
0.0
 10
35.00000000000004
 20
-5.049999999999999
 30
0.0
  0
SPLINE
  5
172
330
1F
100
AcDbEntity
  8
1
  6
SLD-Solid
370
    25
100
AcDbSpline
210
0.0
220
0.0
230
1.0
 70
     8
 71
     3
 72
    12
 73
     8
 74
     0
 42
0.000000001
 43
0.00000001
 40
0.0
 40
0.0
 40
0.0
 40
0.0
 40
0.4999999999999946
 40
0.4999999999999946
 40
0.7499999999999972
 40
0.7499999999999972
 40
1.0
 40
1.0
 40
1.0
 40
1.0
 10
15.22500000000001
 20
-17.4724425882588
 30
0.0
 10
15.32729887405208
 20
-17.49483746472056
 30
0.0
 10
15.41719738376064
 20
-17.55779867282206
 30
0.0
 10
15.51968846278896
 20
-17.68801867128204
 30
0.0
 10
15.54763266947685
 20
-17.73672976760798
 30
0.0
 10
15.58792031705415
 20
-17.84364628541223
 30
0.0
 10
15.60000000000001
 20
-17.90173537609955
 30
0.0
 10
15.60000000000001
 20
-17.96086022438793
 30
0.0
  0
SPLINE
  5
173
330
1F
100
AcDbEntity
  8
1
  6
SLD-Solid
370
    25
100
AcDbSpline
210
0.0
220
0.0
230
1.0
 70
     8
 71
     3
 72
    12
 73
     8
 74
     0
 42
0.000000001
 43
0.00000001
 40
0.0
 40
0.0
 40
0.0
 40
0.0
 40
0.4999999999999918
 40
0.4999999999999918
 40
0.7499999999999959
 40
0.7499999999999959
 40
1.0
 40
1.0
 40
1.0
 40
1.0
 10
15.22500000000001
 20
17.4724425882588
 30
0.0
 10
15.32729887405209
 20
17.49483746472056
 30
0.0
 10
15.41719738376064
 20
17.55779867282207
 30
0.0
 10
15.51968846278896
 20
17.68801867128204
 30
0.0
 10
15.54763266947685
 20
17.73672976760799
 30
0.0
 10
15.58792031705415
 20
17.84364628541223
 30
0.0
 10
15.60000000000001
 20
17.90173537609952
 30
0.0
 10
15.60000000000001
 20
17.96086022438791
 30
0.0
  0
SPLINE
  5
174
330
1F
100
AcDbEntity
  8
1
  6
SLD-Solid
370
    25
100
AcDbSpline
210
0.0
220
0.0
230
1.0
 70
     8
 71
     3
 72
    10
 73
     6
 74
     0
 42
0.000000001
 43
0.00000001
 40
0.0
 40
0.0
 40
0.0
 40
0.0
 40
0.5
 40
0.5
 40
1.0
 40
1.0
 40
1.0
 40
1.0
 10
11.6
 20
-17.46403447087755
 30
0.0
 10
11.6
 20
-17.3613194075662
 30
0.0
 10
11.63550396785903
 20
-17.25803952516974
 30
0.0
 10
11.77037083671394
 20
-17.10325698438409
 30
0.0
 10
11.87123694733056
 20
-17.05482145092323
 30
0.0
 10
11.97500000000001
 20
-17.05831908483359
 30
0.0
  0
SPLINE
  5
175
330
1F
100
AcDbEntity
  8
1
  6
SLD-Solid
370
    25
100
AcDbSpline
210
0.0
220
0.0
230
1.0
 70
     8
 71
     3
 72
    10
 73
     6
 74
     0
 42
0.000000001
 43
0.00000001
 40
0.0
 40
0.0
 40
0.0
 40
0.0
 40
0.5
 40
0.5
 40
1.0
 40
1.0
 40
1.0
 40
1.0
 10
11.6
 20
17.46403447087755
 30
0.0
 10
11.6
 20
17.36131940756621
 30
0.0
 10
11.63550396785903
 20
17.25803952516974
 30
0.0
 10
11.77037083671394
 20
17.10325698438411
 30
0.0
 10
11.87123694733056
 20
17.05482145092323
 30
0.0
 10
11.97500000000001
 20
17.05831908483359
 30
0.0
  0
SPLINE
  5
176
330
1F
100
AcDbEntity
  8
1
  6
SLD-Solid
370
    25
100
AcDbSpline
210
0.0
220
0.0
230
1.0
 70
     8
 71
     3
 72
    10
 73
     6
 74
     0
 42
0.000000001
 43
0.00000001
 40
0.0
 40
0.0
 40
0.0
 40
0.0
 40
0.5
 40
0.5
 40
1.0
 40
1.0
 40
1.0
 40
1.0
 10
11.97500000000002
 20
-17.05831908483359
 30
0.0
 10
12.55072229411918
 20
-17.07772547050807
 30
0.0
 10
13.10936407164132
 20
-17.12564735278618
 30
0.0
 10
14.19529318991717
 20
-17.26787583173367
 30
0.0
 10
14.72557374316148
 20
-17.36311011097303
 30
0.0
 10
15.22500000000001
 20
-17.4724425882588
 30
0.0
  0
SPLINE
  5
177
330
1F
100
AcDbEntity
  8
1
  6
SLD-Solid
370
    25
100
AcDbSpline
210
0.0
220
0.0
230
1.0
 70
     8
 71
     3
 72
    10
 73
     6
 74
     0
 42
0.000000001
 43
0.00000001
 40
0.0
 40
0.0
 40
0.0
 40
0.0
 40
0.5000000000000001
 40
0.5000000000000001
 40
1.0
 40
1.0
 40
1.0
 40
1.0
 10
11.97500000000003
 20
17.05831908483359
 30
0.0
 10
12.55072229411919
 20
17.07772547050807
 30
0.0
 10
13.10936407164132
 20
17.12564735278619
 30
0.0
 10
14.19529318991716
 20
17.2678758317337
 30
0.0
 10
14.72557374316148
 20
17.36311011097304
 30
0.0
 10
15.22500000000001
 20
17.4724425882588
 30
0.0
  0
SPLINE
  5
178
330
1F
100
AcDbEntity
  8
1
  6
SLD-Solid
370
    25
100
AcDbSpline
210
0.0
220
0.0
230
1.0
 70
     8
 71
     3
 72
    10
 73
     6
 74
     0
 42
0.000000001
 43
0.00000001
 40
0.0
 40
0.0
 40
0.0
 40
0.0
 40
0.5
 40
0.5
 40
1.0
 40
1.0
 40
1.0
 40
1.0
 10
34.85451825927996
 20
-4.674999999999999
 30
0.0
 10
34.86597700150097
 20
-4.771503325052741
 30
0.0
 10
34.8883706392138
 20
-4.863801306728859
 30
0.0
 10
34.9416142059962
 20
-4.998640584743932
 30
0.0
 10
34.97217168731472
 20
-5.041088414447146
 30
0.0
 10
35.00000000000001
 20
-5.048731476295906
 30
0.0
  0
SPLINE
  5
179
330
1F
100
AcDbEntity
  8
1
  6
SLD-Solid
370
    25
100
AcDbSpline
210
0.0
220
0.0
230
1.0
 70
     8
 71
     3
 72
    10
 73
     6
 74
     0
 42
0.000000001
 43
0.00000001
 40
0.0
 40
0.0
 40
0.0
 40
0.0
 40
0.5
 40
0.5
 40
1.0
 40
1.0
 40
1.0
 40
1.0
 10
35.00000000000001
 20
5.048731476295906
 30
0.0
 10
34.9721407303448
 20
5.041079912097821
 30
0.0
 10
34.9418168279887
 20
4.999135378782475
 30
0.0
 10
34.88821024598013
 20
4.863413442531487
 30
0.0
 10
34.865989466139
 20
4.771608299839216
 30
0.0
 10
34.85451825927996
 20
4.675000000000005
 30
0.0
  0
SPLINE
  5
17A
330
1F
100
AcDbEntity
  8
1
  6
SLD-Solid
370
    25
100
AcDbSpline
210
0.0
220
0.0
230
1.0
 70
     8
 71
     3
 72
     8
 73
     4
 74
     0
 42
0.000000001
 43
0.00000001
 40
0.0
 40
0.0
 40
0.0
 40
0.0
 40
1.0
 40
1.0
 40
1.0
 40
1.0
 10
34.85451825927996
 20
4.675000000000009
 30
0.0
 10
34.77203081372954
 20
3.980306584509461
 30
0.0
 10
34.70526100575527
 20
3.284630142655131
 30
0.0
 10
34.65702643940143
 20
2.587794453357703
 30
0.0
  0
SPLINE
  5
17B
330
1F
100
AcDbEntity
  8
1
  6
SLD-Solid
370
    25
100
AcDbSpline
210
0.0
220
0.0
230
1.0
 70
     8
 71
     3
 72
     8
 73
     4
 74
     0
 42
0.000000001
 43
0.00000001
 40
0.0
 40
0.0
 40
0.0
 40
0.0
 40
1.0
 40
1.0
 40
1.0
 40
1.0
 10
34.65702643940143
 20
-2.58779445335771
 30
0.0
 10
34.70510799038681
 20
-3.282419558466223
 30
0.0
 10
34.77178156532574
 20
-3.978207462348657
 30
0.0
 10
34.85451825927996
 20
-4.674999999999999
 30
0.0
  0
SPLINE
  5
17C
330
1F
100
AcDbEntity
  8
1
  6
SLD-Solid
370
    25
100
AcDbSpline
210
0.0
220
0.0
230
1.0
 70
     8
 71
     3
 72
    18
 73
    14
 74
     0
 42
0.000000001
 43
0.00000001
 40
0.0
 40
0.0
 40
0.0
 40
0.0
 40
0.2500000000000001
 40
0.2500000000000001
 40
0.5000000000000001
 40
0.5000000000000001
 40
0.5625000000000001
 40
0.5625000000000001
 40
0.6250000000000001
 40
0.6250000000000001
 40
0.7500000000000002
 40
0.7500000000000002
 40
1.0
 40
1.0
 40
1.0
 40
1.0
 10
34.65702643940143
 20
2.587794453357703
 30
0.0
 10
34.62749169608026
 20
2.161111583038895
 30
0.0
 10
34.62207086771365
 20
1.733295367862146
 30
0.0
 10
34.61882997556165
 20
0.8773057044558565
 30
0.0
 10
34.621334631917
 20
0.4491370184579596
 30
0.0
 10
34.62139220071878
 20
-0.0859965131608659
 30
0.0
 10
34.62130922350676
 20
-0.1961788539325375
 30
0.0
 10
34.62099910676222
 20
-0.4137318783459416
 30
0.0
 10
34.62077237470046
 20
-0.5225084426922905
 30
0.0
 10
34.62010818459949
 20
-0.8488381240875851
 30
0.0
 10
34.61963561770367
 20
-1.06639126667676
 30
0.0
 10
34.62185012765369
 20
-1.719048052161148
 30
0.0
 10
34.62701672233626
 20
-2.154249726878263
 30
0.0
 10
34.65702643940143
 20
-2.58779445335771
 30
0.0
  0
SPLINE
  5
17D
330
1F
100
AcDbEntity
  8
SK1
  6
SLD-Solid
370
    25
100
AcDbSpline
210
0.0
220
0.0
230
1.0
 70
     8
 71
     3
 72
    22
 73
    18
 74
     0
 42
0.000000001
 43
0.00000001
 40
0.0
 40
0.0
 40
0.0
 40
0.0
 40
0.0513878261772791
 40
0.1559585566413479
 40
0.2092618249944505
 40
0.2606473829961352
 40
0.3651001766368366
 40
0.4182727405178692
 40
0.4708778086152457
 40
0.5778140888208142
 40
0.6322696946745171
 40
0.6856907634241769
 40
0.7394937117789048
 40
0.7945218812408047
 40
0.8499832664051817
 40
0.90210448748117
 40
1.0
 40
1.0
 40
1.0
 40
1.0
 10
41.90625000000004
 20
10.58123154162596
 30
0.0
 10
41.82502084237348
 20
10.58179601680009
 30
0.0
 10
41.57849587482707
 20
10.58350916055348
 30
0.0
 10
41.2506324543929
 20
10.59948722281388
 30
0.0
 10
40.93414396346389
 20
10.62492562632934
 30
0.0
 10
40.62708962036312
 20
10.65642693409426
 30
0.0
 10
40.33650396755751
 20
10.69552408214983
 30
0.0
 10
40.06741936639177
 20
10.7392393636433
 30
0.0
 10
39.81216270944895
 20
10.78524080669468
 30
0.0
 10
39.58322787138319
 20
10.83242711356815
 30
0.0
 10
39.38715003790362
 20
10.87668438524787
 30
0.0
 10
39.25725694232302
 20
10.90757169121736
 30
0.0
 10
39.14564205934146
 20
10.93527015884488
 30
0.0
 10
39.05252209695594
 20
10.95920307552545
 30
0.0
 10
38.98201419153253
 20
10.97781635165891
 30
0.0
 10
38.91645801931696
 20
10.99547315466926
 30
0.0
 10
38.90831789688141
 20
10.9977178630762
 30
0.0
 10
38.90300594641628
 20
10.99918267886497
 30
0.0
  0
SPLINE
  5
17E
330
1F
100
AcDbEntity
  8
SK1
  6
SLD-Solid
370
    25
100
AcDbSpline
210
0.0
220
0.0
230
1.0
 70
     8
 71
     2
 72
     6
 73
     3
 74
     0
 42
0.000000001
 43
0.00000001
 40
0.0
 40
0.0
 40
0.0
 40
0.1249999999999973
 40
0.1249999999999973
 40
0.1249999999999973
 10
63.99999999999994
 20
11.00000000000001
 30
0.0
 10
63.98015108523139
 20
10.99452896940095
 30
0.0
 10
63.94151666277892
 20
10.98416083438744
 30
0.0
  0
SPLINE
  5
17F
330
1F
100
AcDbEntity
  8
SK1
  6
SLD-Solid
370
    25
100
AcDbSpline
210
0.0
220
0.0
230
1.0
 70
     8
 71
     3
 72
     8
 73
     4
 74
     0
 42
0.000000001
 43
0.00000001
 40
0.1249999999999973
 40
0.1249999999999973
 40
0.1249999999999973
 40
0.1249999999999973
 40
0.2499999999999945
 40
0.2499999999999945
 40
0.2499999999999945
 40
0.2499999999999945
 10
63.94151666277892
 20
10.98416083438744
 30
0.0
 10
63.90288224032645
 20
10.97379269937393
 30
0.0
 10
63.84578242393013
 20
10.95861193797356
 30
0.0
 10
63.76999163381885
 20
10.93937742958206
 30
0.0
  0
SPLINE
  5
180
330
1F
100
AcDbEntity
  8
SK1
  6
SLD-Solid
370
    25
100
AcDbSpline
210
0.0
220
0.0
230
1.0
 70
     8
 71
     3
 72
     8
 73
     4
 74
     0
 42
0.000000001
 43
0.00000001
 40
0.2499999999999945
 40
0.2499999999999945
 40
0.2499999999999945
 40
0.2499999999999945
 40
0.4999999999999923
 40
0.4999999999999923
 40
0.4999999999999923
 40
0.4999999999999923
 10
63.76999163381885
 20
10.93937742958206
 30
0.0
 10
63.61841005359634
 20
10.90090841279909
 30
0.0
 10
63.3971399518988
 20
10.84732879492625
 30
0.0
 10
63.11929746196002
 20
10.7926091817755
 30
0.0
  0
SPLINE
  5
181
330
1F
100
AcDbEntity
  8
SK1
  6
SLD-Solid
370
    25
100
AcDbSpline
210
0.0
220
0.0
230
1.0
 70
     8
 71
     3
 72
     8
 73
     4
 74
     0
 42
0.000000001
 43
0.00000001
 40
0.4999999999999923
 40
0.4999999999999923
 40
0.4999999999999923
 40
0.4999999999999923
 40
0.6249999999999942
 40
0.6249999999999942
 40
0.6249999999999942
 40
0.6249999999999942
 10
63.11929746196002
 20
10.7926091817755
 30
0.0
 10
62.9803762169906
 20
10.76524937520012
 30
0.0
 10
62.8297727420567
 20
10.73814515899933
 30
0.0
 10
62.66753360687049
 20
10.71279667034376
 30
0.0
  0
SPLINE
  5
182
330
1F
100
AcDbEntity
  8
SK1
  6
SLD-Solid
370
    25
100
AcDbSpline
210
0.0
220
0.0
230
1.0
 70
     8
 71
     3
 72
     8
 73
     4
 74
     0
 42
0.000000001
 43
0.00000001
 40
0.6249999999999942
 40
0.6249999999999942
 40
0.6249999999999942
 40
0.6249999999999942
 40
0.7499999999999961
 40
0.7499999999999961
 40
0.7499999999999961
 40
0.7499999999999961
 10
62.66753360687049
 20
10.71279667034376
 30
0.0
 10
62.50529447168427
 20
10.6874481816882
 30
0.0
 10
62.32943345310194
 20
10.66368143201043
 30
0.0
 10
62.14833838622557
 20
10.64403754592716
 30
0.0
  0
SPLINE
  5
183
330
1F
100
AcDbEntity
  8
SK1
  6
SLD-Solid
370
    25
100
AcDbSpline
210
0.0
220
0.0
230
1.0
 70
     8
 71
     3
 72
     8
 73
     4
 74
     0
 42
0.000000001
 43
0.00000001
 40
0.7499999999999961
 40
0.7499999999999961
 40
0.7499999999999961
 40
0.7499999999999961
 40
0.8749999999999981
 40
0.8749999999999981
 40
0.8749999999999981
 40
0.8749999999999981
 10
62.14833838622557
 20
10.64403754592716
 30
0.0
 10
61.9672433193492
 20
10.6243936598439
 30
0.0
 10
61.78000413210727
 20
10.60864268188638
 30
0.0
 10
61.58642173170676
 20
10.59781679021978
 30
0.0
  0
SPLINE
  5
184
330
1F
100
AcDbEntity
  8
SK1
  6
SLD-Solid
370
    25
100
AcDbSpline
210
0.0
220
0.0
230
1.0
 70
     8
 71
     3
 72
     8
 73
     4
 74
     0
 42
0.000000001
 43
0.00000001
 40
0.8749999999999981
 40
0.8749999999999981
 40
0.8749999999999981
 40
0.8749999999999981
 40
1.0
 40
1.0
 40
1.0
 40
1.0
 10
61.58642173170676
 20
10.59781679021978
 30
0.0
 10
61.39283933130624
 20
10.58699089855319
 30
0.0
 10
61.19323484536516
 20
10.58123154162596
 30
0.0
 10
60.99374999999996
 20
10.58123154162596
 30
0.0
  0
SPLINE
  5
185
330
1F
100
AcDbEntity
  8
1
  6
SLD-Dashed
370
    18
100
AcDbSpline
210
0.0
220
0.0
230
1.0
 70
     8
 71
     3
 72
    11
 73
     7
 74
     0
 42
0.000000001
 43
0.00000001
 40
0.0
 40
0.0
 40
0.0
 40
0.0
 40
0.2499573108264351
 40
0.4993433902248159
 40
0.7504973994015153
 40
1.0
 40
1.0
 40
1.0
 40
1.0
 10
17.62701812759762
 20
22.23477197484033
 30
0.0
 10
17.96178000035054
 20
22.33632733788712
 30
0.0
 10
18.6305387092108
 20
22.53920597789019
 30
0.0
 10
19.32771796101584
 20
22.78586034018291
 30
0.0
 10
19.78947050119826
 20
22.95696684589508
 30
0.0
 10
19.84631895369452
 20
22.97892472950698
 30
0.0
 10
19.87464942304393
 20
22.98986745743235
 30
0.0
  0
SPLINE
  5
186
330
1F
100
AcDbEntity
  8
1
  6
SLD-Dashed
370
    18
100
AcDbSpline
210
0.0
220
0.0
230
1.0
 70
    24
 71
     2
 72
     6
 73
     3
 74
     0
 42
0.000000001
 43
0.00000001
 40
0.0
 40
0.0
 40
0.0
 40
0.5
 40
0.5
 40
0.5
 10
2.000000000000016
 20
-16.15000000000002
 30
0.0
 10
1.987440911077672
 20
-16.14999999999999
 30
0.0
 10
1.987405688565688
 20
-16.14999999999999
 30
0.0
  0
SPLINE
  5
187
330
1F
100
AcDbEntity
  8
1
  6
SLD-Dashed
370
    18
100
AcDbSpline
210
0.0
220
0.0
230
1.0
 70
    24
 71
     3
 72
     8
 73
     4
 74
     0
 42
0.000000001
 43
0.00000001
 40
0.5
 40
0.5
 40
0.5
 40
0.5
 40
0.75
 40
0.75
 40
0.75
 40
0.75
 10
1.987405688565688
 20
-16.14999999999999
 30
0.0
 10
1.987388077309693
 20
-16.14999999999999
 30
0.0
 10
1.989776961366478
 20
-16.14999999999999
 30
0.0
 10
1.992936635836093
 20
-16.15000000000001
 30
0.0
  0
SPLINE
  5
188
330
1F
100
AcDbEntity
  8
1
  6
SLD-Dashed
370
    18
100
AcDbSpline
210
0.0
220
0.0
230
1.0
 70
    24
 71
     2
 72
     6
 73
     3
 74
     0
 42
0.000000001
 43
0.00000001
 40
0.75
 40
0.75
 40
0.75
 40
1.0
 40
1.0
 40
1.0
 10
1.992936635836093
 20
-16.15000000000001
 30
0.0
 10
1.996096310305707
 20
-16.15000000000002
 30
0.0
 10
2.000000000000016
 20
-16.15000000000002
 30
0.0
  0
SPLINE
  5
189
330
1F
100
AcDbEntity
  8
SK1
  6
SLD-Dashed
370
    18
100
AcDbSpline
210
0.0
220
0.0
230
1.0
 70
     8
 71
     3
 72
     8
 73
     4
 74
     0
 42
0.000000001
 43
0.00000001
 40
0.0
 40
0.0
 40
0.0
 40
0.0
 40
0.125
 40
0.125
 40
0.125
 40
0.125
 10
60.99374999999996
 20
10.58123154162596
 30
0.0
 10
61.19346319074857
 20
10.58123154162579
 30
0.0
 10
61.38963745242189
 20
10.58688461599219
 30
0.0
 10
61.58244995553348
 20
10.59759541476906
 30
0.0
  0
SPLINE
  5
18A
330
1F
100
AcDbEntity
  8
SK1
  6
SLD-Dashed
370
    18
100
AcDbSpline
210
0.0
220
0.0
230
1.0
 70
     8
 71
     3
 72
     8
 73
     4
 74
     0
 42
0.000000001
 43
0.00000001
 40
0.125
 40
0.125
 40
0.125
 40
0.125
 40
0.2500000000000001
 40
0.2500000000000001
 40
0.2500000000000001
 40
0.2500000000000001
 10
61.58244995553348
 20
10.59759541476906
 30
0.0
 10
61.77526245864506
 20
10.60830621354628
 30
0.0
 10
61.96676148211037
 20
10.62433709900609
 30
0.0
 10
62.14859295628717
 20
10.64406516285889
 30
0.0
  0
SPLINE
  5
18B
330
1F
100
AcDbEntity
  8
SK1
  6
SLD-Dashed
370
    18
100
AcDbSpline
210
0.0
220
0.0
230
1.0
 70
     8
 71
     3
 72
     8
 73
     4
 74
     0
 42
0.000000001
 43
0.00000001
 40
0.2500000000000001
 40
0.2500000000000001
 40
0.2500000000000001
 40
0.2500000000000001
 40
0.3750000000000001
 40
0.3750000000000001
 40
0.3750000000000001
 40
0.3750000000000001
 10
62.14859295628717
 20
10.64406516285889
 30
0.0
 10
62.330424430464
 20
10.66379322671152
 30
0.0
 10
62.50274949574003
 20
10.68707626364671
 30
0.0
 10
62.66581122059286
 20
10.7125276971829
 30
0.0
  0
SPLINE
  5
18C
330
1F
100
AcDbEntity
  8
SK1
  6
SLD-Dashed
370
    18
100
AcDbSpline
210
0.0
220
0.0
230
1.0
 70
     8
 71
     3
 72
     8
 73
     4
 74
     0
 42
0.000000001
 43
0.00000001
 40
0.3750000000000001
 40
0.3750000000000001
 40
0.3750000000000001
 40
0.3750000000000001
 40
0.5000000000000001
 40
0.5000000000000001
 40
0.5000000000000001
 40
0.5000000000000001
 10
62.66581122059289
 20
10.7125276971829
 30
0.0
 10
62.82887294544576
 20
10.73797913071909
 30
0.0
 10
62.98247407274127
 20
10.76564910319405
 30
0.0
 10
63.12039549135032
 20
10.79282548656193
 30
0.0
  0
SPLINE
  5
18D
330
1F
100
AcDbEntity
  8
SK1
  6
SLD-Dashed
370
    18
100
AcDbSpline
210
0.0
220
0.0
230
1.0
 70
     8
 71
     3
 72
     8
 73
     4
 74
     0
 42
0.000000001
 43
0.00000001
 40
0.5000000000000001
 40
0.5000000000000001
 40
0.5000000000000001
 40
0.5000000000000001
 40
0.6250000000000001
 40
0.6250000000000001
 40
0.6250000000000001
 40
0.6250000000000001
 10
63.12039549135029
 20
10.79282548656192
 30
0.0
 10
63.25831690995934
 20
10.82000186992981
 30
0.0
 10
63.38243800060345
 20
10.84697419564055
 30
0.0
 10
63.49234754788968
 20
10.87223301092377
 30
0.0
  0
SPLINE
  5
18E
330
1F
100
AcDbEntity
  8
SK1
  6
SLD-Dashed
370
    18
100
AcDbSpline
210
0.0
220
0.0
230
1.0
 70
     8
 71
     3
 72
     8
 73
     4
 74
     0
 42
0.000000001
 43
0.00000001
 40
0.6250000000000001
 40
0.6250000000000001
 40
0.6250000000000001
 40
0.6250000000000001
 40
0.7500000000000002
 40
0.7500000000000002
 40
0.7500000000000002
 40
0.7500000000000002
 10
63.49234754788971
 20
10.87223301092378
 30
0.0
 10
63.60225709517594
 20
10.89749182620699
 30
0.0
 10
63.69497063246158
 20
10.92033784021106
 30
0.0
 10
63.77006037172292
 20
10.93939487438115
 30
0.0
  0
SPLINE
  5
18F
330
1F
100
AcDbEntity
  8
SK1
  6
SLD-Dashed
370
    18
100
AcDbSpline
210
0.0
220
0.0
230
1.0
 70
     8
 71
     3
 72
     8
 73
     4
 74
     0
 42
0.000000001
 43
0.00000001
 40
0.7500000000000002
 40
0.7500000000000002
 40
0.7500000000000002
 40
0.7500000000000002
 40
0.8750000000000001
 40
0.8750000000000001
 40
0.8750000000000001
 40
0.8750000000000001
 10
63.77006037172292
 20
10.93939487438115
 30
0.0
 10
63.84515011098426
 20
10.95845190855124
 30
0.0
 10
63.90335080132209
 20
10.97391666125812
 30
0.0
 10
63.94206587811102
 20
10.98430823741859
 30
0.0
  0
SPLINE
  5
190
330
1F
100
AcDbEntity
  8
SK1
  6
SLD-Dashed
370
    18
100
AcDbSpline
210
0.0
220
0.0
230
1.0
 70
     8
 71
     2
 72
     6
 73
     3
 74
     0
 42
0.000000001
 43
0.00000001
 40
0.8750000000000001
 40
0.8750000000000001
 40
0.8750000000000001
 40
1.0
 40
1.0
 40
1.0
 10
63.94206587811099
 20
10.98430823741858
 30
0.0
 10
63.98078095489993
 20
10.99469981357905
 30
0.0
 10
63.99999999999994
 20
11.00000000000001
 30
0.0
  0
SPLINE
  5
191
330
1F
100
AcDbEntity
  8
SK3
  6
SLD-Dashed
370
    18
100
AcDbSpline
210
0.0
220
0.0
230
1.0
 70
    24
 71
     2
 72
     6
 73
     3
 74
     0
 42
0.000000001
 43
0.00000001
 40
0.0
 40
0.0
 40
0.0
 40
0.2499999999999993
 40
0.2499999999999993
 40
0.2499999999999993
 10
2.375000000000016
 20
-16.15000000018241
 30
0.0
 10
2.357424479332924
 20
-16.15000000017368
 30
0.0
 10
2.331652105107239
 20
-16.1500000001609
 30
0.0
  0
SPLINE
  5
192
330
1F
100
AcDbEntity
  8
SK3
  6
SLD-Dashed
370
    18
100
AcDbSpline
210
0.0
220
0.0
230
1.0
 70
    24
 71
     3
 72
     8
 73
     4
 74
     0
 42
0.000000001
 43
0.00000001
 40
0.2499999999999993
 40
0.2499999999999993
 40
0.2499999999999993
 40
0.2499999999999993
 40
0.4999999999999986
 40
0.4999999999999986
 40
0.4999999999999986
 40
0.4999999999999986
 10
2.331652105107239
 20
-16.1500000001609
 30
0.0
 10
2.305879730881561
 20
-16.15000000014812
 30
0.0
 10
2.272790772310317
 20
-16.1500000001317
 30
0.0
 10
2.23696595174646
 20
-16.15000000011392
 30
0.0
  0
SPLINE
  5
193
330
1F
100
AcDbEntity
  8
SK3
  6
SLD-Dashed
370
    18
100
AcDbSpline
210
0.0
220
0.0
230
1.0
 70
    24
 71
     3
 72
     8
 73
     4
 74
     0
 42
0.000000001
 43
0.00000001
 40
0.4999999999999986
 40
0.4999999999999986
 40
0.4999999999999986
 40
0.4999999999999986
 40
1.0
 40
1.0
 40
1.0
 40
1.0
 10
2.23696595174646
 20
-16.15000000011392
 30
0.0
 10
2.165316310618726
 20
-16.15000000007949
 30
0.0
 10
2.083397657057333
 20
-16.15000000004011
 30
0.0
 10
2.000000000000016
 20
-16.15000000000002
 30
0.0
  0
SPLINE
  5
194
330
1F
100
AcDbEntity
  8
SK3
  6
SLD-Dashed
370
    18
100
AcDbSpline
210
0.0
220
0.0
230
1.0
 70
    24
 71
     3
 72
     8
 73
     4
 74
     0
 42
0.000000001
 43
0.00000001
 40
0.0
 40
0.0
 40
0.0
 40
0.0
 40
0.4999999999999996
 40
0.4999999999999996
 40
0.4999999999999996
 40
0.4999999999999996
 10
2.000000000000009
 20
16.15000000000001
 30
0.0
 10
2.083477230592462
 20
16.14999999997617
 30
0.0
 10
2.165250237669225
 20
16.14999999995281
 30
0.0
 10
2.237167806898761
 20
16.14999999993224
 30
0.0
  0
SPLINE
  5
195
330
1F
100
AcDbEntity
  8
SK3
  6
SLD-Dashed
370
    18
100
AcDbSpline
210
0.0
220
0.0
230
1.0
 70
    24
 71
     3
 72
     8
 73
     4
 74
     0
 42
0.000000001
 43
0.00000001
 40
0.4999999999999996
 40
0.4999999999999996
 40
0.4999999999999996
 40
0.4999999999999996
 40
0.7499999999999998
 40
0.7499999999999998
 40
0.7499999999999998
 40
0.7499999999999998
 10
2.237167806898761
 20
16.14999999993224
 30
0.0
 10
2.273126591513526
 20
16.14999999989776
 30
0.0
 10
2.30633239022978
 20
16.14999999986592
 30
0.0
 10
2.332123478181923
 20
16.14999999984117
 30
0.0
  0
SPLINE
  5
196
330
1F
100
AcDbEntity
  8
SK3
  6
SLD-Dashed
370
    18
100
AcDbSpline
210
0.0
220
0.0
230
1.0
 70
    24
 71
     2
 72
     6
 73
     3
 74
     0
 42
0.000000001
 43
0.00000001
 40
0.7499999999999998
 40
0.7499999999999998
 40
0.7499999999999998
 40
1.0
 40
1.0
 40
1.0
 10
2.332123478181923
 20
16.14999999984117
 30
0.0
 10
2.357914566135509
 20
16.14999999981644
 30
0.0
 10
2.375000000002382
 20
16.14999999980004
 30
0.0
  0
SPLINE
  5
197
330
1F
100
AcDbEntity
  8
SK3
  6
SLD-Dashed
370
    18
100
AcDbSpline
210
0.0
220
0.0
230
1.0
 70
     8
 71
     3
 72
   135
 73
   131
 74
     0
 42
0.000000001
 43
0.00000001
 40
0.0
 40
0.0
 40
0.0
 40
0.0
 40
0.007864681016407
 40
0.0157185253863017
 40
0.0235625032847849
 40
0.0313975813593563
 40
0.0392247223728663
 40
0.0470448848492511
 40
0.0548590227226328
 40
0.0626680849905557
 40
0.0704730141681818
 40
0.078274742217668
 40
0.0860742007077298
 40
0.0938723238939914
 40
0.1016700483869101
 40
0.109468312816668
 40
0.1172680574953962
 40
0.1250702240776262
 40
0.1328750006251248
 40
0.1406830189597069
 40
0.1484958965093382
 40
0.1563152619133362
 40
0.1641427542046053
 40
0.1719800219736404
 40
0.1798287225167571
 40
0.1876905209713355
 40
0.1955552962429092
 40
0.203411687407569
 40
0.2112595015136723
 40
0.2190985428695627
 40
0.2269286135649761
 40
0.2347495139948185
 40
0.2425610433854159
 40
0.2503630003236483
 40
0.2581571977873812
 40
0.265946177084552
 40
0.2737308340659774
 40
0.2815120696606524
 40
0.2892907895800599
 40
0.297067904016431
 40
0.3048443273351263
 40
0.3126209777618763
 40
0.3203995364026292
 40
0.3281813984286003
 40
0.3359670615431709
 40
0.3437570320434082
 40
0.351551824842178
 40
0.3593519634848726
 40
0.3671579801600441
 40
0.3749704157043364
 40
0.3827964137542063
 40
0.3906392833587531
 40
0.398493810860253
 40
0.4063547824089091
 40
0.414216988781686
 40
0.4220752302121122
 40
0.4299243212788965
 40
0.4377590959019934
 40
0.4455806831533846
 40
0.4533941844343131
 40
0.4612004216319299
 40
0.4690002240708878
 40
0.4767944283132346
 40
0.4845838779495063
 40
0.4923694233817218
 40
0.500151921598151
 40
0.5079330443890132
 40
0.5157144341292261
 40
0.5234969176804496
 40
0.5312813335800096
 40
0.539068531845269
 40
0.5468593737655225
 40
0.554654731682149
 40
0.5624554887568076
 40
0.5702655757559485
 40
0.5780876260059714
 40
0.5859205900304539
 40
0.5937634307321763
 40
0.6016203969331974
 40
0.6094894410424933
 40
0.6173600923016265
 40
0.6252218942399221
 40
0.6330682392945134
 40
0.6409005716380518
 40
0.6487205385839107
 40
0.6565297919670294
 40
0.6643299871719306
 40
0.6721227821466021
 40
0.6799098364051385
 40
0.6876928100223186
 40
0.6954729774884474
 40
0.7032512910687806
 40
0.7110289362796214
 40
0.7188071104218017
 40
0.7265870220678567
 40
0.7343698905318775
 40
0.7421569453232626
 40
0.7499494255854892
 40
0.7577501324638424
 40
0.7655608771654634
 40
0.7733814293855729
 40
0.7812115734590679
 40
0.7890567593827071
 40
0.7969184559402104
 40
0.80479049425729
 40
0.8126667242920963
 40
0.8205325446154604
 40
0.8283790449579451
 40
0.8362086336047478
 40
0.8440237160684678
 40
0.8518266932334025
 40
0.8596199594968671
 40
0.867405900916001
 40
0.8751868933686153
 40
0.8829639143776923
 40
0.8907373151395876
 40
0.8985085277695163
 40
0.9062789907771541
 40
0.9140501482788852
 40
0.9218234491992243
 40
0.9296003464636755
 40
0.9373822961852437
 40
0.9451707623798096
 40
0.952967236185846
 40
0.9607732291759309
 40
0.9685902695308933
 40
0.9764199011677697
 40
0.9842636828430672
 40
0.9921231872339497
 40
0.9999999999999999
 40
0.9999999999999999
 40
0.9999999999999999
 40
0.9999999999999999
 10
2.375000000000009
 20
20.56190591846973
 30
0.0
 10
2.375005114569943
 20
20.56351274583072
 30
0.0
 10
2.375015336662525
 20
20.56672418652519
 30
0.0
 10
2.375097569706351
 20
20.57153764498732
 30
0.0
 10
2.375228634838813
 20
20.57634389906143
 30
0.0
 10
2.375413193691327
 20
20.58114296648556
 30
0.0
 10
2.375649832448201
 20
20.58593486510504
 30
0.0
 10
2.375938762595606
 20
20.5907196127041
 30
0.0
 10
2.376279759651025
 20
20.59549722721758
 30
0.0
 10
2.376672720065351
 20
20.60026772581097
 30
0.0
 10
2.377117491695252
 20
20.60503112636642
 30
0.0
 10
2.377614097610517
 20
20.60978742978931
 30
0.0
 10
2.378162575693704
 20
20.61453663139261
 30
0.0
 10
2.378762959815143
 20
20.61927872632914
 30
0.0
 10
2.379415284522193
 20
20.62401370967528
 30
0.0
 10
2.380119585544897
 20
20.62874157627524
 30
0.0
 10
2.380875893149892
 20
20.63346232197629
 30
0.0
 10
2.381684232167606
 20
20.63817578689057
 30
0.0
 10
2.382544531363564
 20
20.64288176398369
 30
0.0
 10
2.383456971740631
 20
20.64758014013233
 30
0.0
 10
2.384421850252116
 20
20.65227107208641
 30
0.0
 10
2.385439478632762
 20
20.65695491627481
 30
0.0
 10
2.386510175278064
 20
20.66163202776436
 30
0.0
 10
2.387634252780886
 20
20.66630276304064
 30
0.0
 10
2.388812040149138
 20
20.67096747425565
 30
0.0
 10
2.390043190378298
 20
20.675624200048
 30
0.0
 10
2.391326754231899
 20
20.68026838333491
 30
0.0
 10
2.39266158324674
 20
20.68489511899381
 30
0.0
 10
2.394046712755941
 20
20.68950155547285
 30
0.0
 10
2.39548184628275
 20
20.69408702473861
 30
0.0
 10
2.396966670520944
 20
20.69865086342388
 30
0.0
 10
2.39850087944278
 20
20.70319240589767
 30
0.0
 10
2.40008415477206
 20
20.70771099091382
 30
0.0
 10
2.401716360397294
 20
20.71220632884445
 30
0.0
 10
2.40339742266768
 20
20.71667870386061
 30
0.0
 10
2.40512742429886
 20
20.72112858515823
 30
0.0
 10
2.406906553202276
 20
20.72555620014133
 30
0.0
 10
2.408734837265288
 20
20.72996147598968
 30
0.0
 10
2.410612315996291
 20
20.73434433547003
 30
0.0
 10
2.412539023683123
 20
20.73870470351646
 30
0.0
 10
2.414515003825827
 20
20.74304250080435
 30
0.0
 10
2.416540334155504
 20
20.74735780332181
 30
0.0
 10
2.418615258884746
 20
20.75165071490078
 30
0.0
 10
2.420740062121431
 20
20.75592121639866
 30
0.0
 10
2.422914815649407
 20
20.76016911832115
 30
0.0
 10
2.425139540876614
 20
20.76439405020225
 30
0.0
 10
2.427414255235169
 20
20.76859564296622
 30
0.0
 10
2.429738961828895
 20
20.77277353627854
 30
0.0
 10
2.432113725101118
 20
20.77692733338975
 30
0.0
 10
2.434539060357399
 20
20.78105793640339
 30
0.0
 10
2.437016699344076
 20
20.78516617983941
 30
0.0
 10
2.439547431213003
 20
20.78925205104931
 30
0.0
 10
2.442129986914995
 20
20.79331383386186
 30
0.0
 10
2.444762431024192
 20
20.79734818180685
 30
0.0
 10
2.447442761668896
 20
20.80135178894031
 30
0.0
 10
2.450169009394529
 20
20.80532132790817
 30
0.0
 10
2.452939141377217
 20
20.8092535167304
 30
0.0
 10
2.455752095566255
 20
20.81314595256298
 30
0.0
 10
2.4586072925585
 20
20.81699845859912
 30
0.0
 10
2.461504562885596
 20
20.82081210391155
 30
0.0
 10
2.464444548877585
 20
20.82458727922547
 30
0.0
 10
2.467427154087987
 20
20.82832383118767
 30
0.0
 10
2.470452339990062
 20
20.83202156390038
 30
0.0
 10
2.473520053256635
 20
20.8356802922155
 30
0.0
 10
2.476630241863675
 20
20.83929983047343
 30
0.0
 10
2.479782972459703
 20
20.84288010829379
 30
0.0
 10
2.482978384847116
 20
20.84642120176641
 30
0.0
 10
2.486216682130463
 20
20.84992311739131
 30
0.0
 10
2.489497996560577
 20
20.85338568641517
 30
0.0
 10
2.492822336145256
 20
20.85680862460814
 30
0.0
 10
2.496189713247901
 20
20.86019164351608
 30
0.0
 10
2.499600133739122
 20
20.86353446155224
 30
0.0
 10
2.503053625057122
 20
20.8668367738624
 30
0.0
 10
2.506550588469283
 20
20.87009878512567
 30
0.0
 10
2.510092008523347
 20
20.87332058997993
 30
0.0
 10
2.513678526129853
 20
20.87650204158083
 30
0.0
 10
2.517309793676307
 20
20.87964255857083
 30
0.0
 10
2.520985718681222
 20
20.88274176642478
 30
0.0
 10
2.524706395920631
 20
20.88579873199049
 30
0.0
 10
2.528470165185356
 20
20.88881158305007
 30
0.0
 10
2.532272765400183
 20
20.89177688239521
 30
0.0
 10
2.536109435497425
 20
20.89469030710536
 30
0.0
 10
2.53997691987222
 20
20.8975495480483
 30
0.0
 10
2.5438736668272
 20
20.90035417092712
 30
0.0
 10
2.54779990134836
 20
20.90310417650201
 30
0.0
 10
2.551755764131886
 20
20.90579974598759
 30
0.0
 10
2.555741427116891
 20
20.9084410187071
 30
0.0
 10
2.559757053610771
 20
20.91102814559449
 30
0.0
 10
2.563802810127088
 20
20.91356127308325
 30
0.0
 10
2.567878791614589
 20
20.91604051326566
 30
0.0
 10
2.571984980498217
 20
20.91846588727528
 30
0.0
 10
2.57612138888489
 20
20.92083716951714
 30
0.0
 10
2.580287993999335
 20
20.9231541458899
 30
0.0
 10
2.584484815421263
 20
20.92541661985659
 30
0.0
 10
2.588711872318371
 20
20.92762439518087
 30
0.0
 10
2.592969181919293
 20
20.92977727987717
 30
0.0
 10
2.597256769524408
 20
20.93187506470773
 30
0.0
 10
2.601574916777496
 20
20.93391774099559
 30
0.0
 10
2.605924130193289
 20
20.93590508753949
 30
0.0
 10
2.61030464684444
 20
20.93783671152087
 30
0.0
 10
2.614716048123813
 20
20.93971214775341
 30
0.0
 10
2.619158595440742
 20
20.94153121900919
 30
0.0
 10
2.623633017692945
 20
20.94329348822565
 30
0.0
 10
2.628138807939342
 20
20.94499827581638
 30
0.0
 10
2.632673148264729
 20
20.94664429147305
 30
0.0
 10
2.637230214389788
 20
20.9482288738019
 30
0.0
 10
2.641803412802943
 20
20.94974981959306
 30
0.0
 10
2.646387684357709
 20
20.95120587971603
 30
0.0
 10
2.650981380525268
 20
20.95259656446057
 30
0.0
 10
2.655585000927038
 20
20.95392225187032
 30
0.0
 10
2.660199057674693
 20
20.95518328270461
 30
0.0
 10
2.664824059036848
 20
20.9563800097871
 30
0.0
 10
2.669460516096053
 20
20.95751277527032
 30
0.0
 10
2.674108656410809
 20
20.95858188882511
 30
0.0
 10
2.678768331626023
 20
20.95958747790088
 30
0.0
 10
2.683439276074354
 20
20.960529297023
 30
0.0
 10
2.688121282650717
 20
20.96140724684507
 30
0.0
 10
2.692814365647979
 20
20.96222124409964
 30
0.0
 10
2.697518537494066
 20
20.9629712135891
 30
0.0
 10
2.702233811060807
 20
20.96365707816938
 30
0.0
 10
2.706960199251728
 20
20.9642787605678
 30
0.0
 10
2.711697715475213
 20
20.96483618626412
 30
0.0
 10
2.71644638187471
 20
20.9653292711223
 30
0.0
 10
2.721206252837296
 20
20.96575767224513
 30
0.0
 10
2.725977382810642
 20
20.96612109928859
 30
0.0
 10
2.730759827455263
 20
20.96641911206549
 30
0.0
 10
2.73555364223458
 20
20.96665181908612
 30
0.0
 10
2.740358882695422
 20
20.96681727926429
 30
0.0
 10
2.745175604163028
 20
20.9669212217826
 30
0.0
 10
2.74839068929697
 20
20.96693416567442
 30
0.0
 10
2.750000000000016
 20
20.96694064473883
 30
0.0
  0
SPLINE
  5
198
330
1F
100
AcDbEntity
  8
1
  6
SLD-Dashed
370
    18
100
AcDbSpline
210
0.0
220
0.0
230
1.0
 70
     8
 71
     3
 72
     8
 73
     4
 74
     0
 42
0.000000001
 43
0.00000001
 40
0.0000432461654743
 40
0.0000432461654743
 40
0.0000432461654743
 40
0.0000432461654743
 40
0.000471859197428
 40
0.000471859197428
 40
0.000471859197428
 40
0.000471859197428
 10
11.60000000000001
 20
17.71624677331126
 30
0.0
 10
11.533273339173
 20
17.84256764359957
 30
0.0
 10
11.46660587253709
 20
17.96893325601978
 30
0.0
 10
11.40000000000001
 20
18.0953286017731
 30
0.0
  0
SPLINE
  5
199
330
1F
100
AcDbEntity
  8
1
  6
SLD-Dashed
370
    18
100
AcDbSpline
210
0.0
220
0.0
230
1.0
 70
     8
 71
     3
 72
    10
 73
     6
 74
     0
 42
0.000000001
 43
0.00000001
 40
0.0
 40
0.0
 40
0.0
 40
0.0
 40
0.5
 40
0.5
 40
1.0
 40
1.0
 40
1.0
 40
1.0
 10
11.97499999999998
 20
17.05831908483362
 30
0.0
 10
11.87152057286505
 20
17.05483101134252
 30
0.0
 10
11.77071697238919
 20
17.10302441606797
 30
0.0
 10
11.63569438794239
 20
17.25765695847895
 30
0.0
 10
11.59999999999999
 20
17.3606658251105
 30
0.0
 10
11.6
 20
17.46403447087755
 30
0.0
  0
SPLINE
  5
19A
330
1F
100
AcDbEntity
  8
1
  6
SLD-Dashed
370
    18
100
AcDbSpline
210
0.0
220
0.0
230
1.0
 70
     8
 71
     3
 72
    10
 73
     6
 74
     0
 42
0.000000001
 43
0.00000001
 40
0.0
 40
0.0
 40
0.0
 40
0.0
 40
0.5
 40
0.5
 40
1.0
 40
1.0
 40
1.0
 40
1.0
 10
15.225
 20
17.4724425882588
 30
0.0
 10
14.72586738206642
 20
17.36317439327391
 30
0.0
 10
14.20531594595906
 20
17.26950902984323
 30
0.0
 10
13.1198134347312
 20
17.12670145782504
 30
0.0
 10
12.55043216059937
 20
17.07771569071834
 30
0.0
 10
11.97500000000001
 20
17.05831908483359
 30
0.0
  0
SPLINE
  5
19B
330
1F
100
AcDbEntity
  8
1
  6
SLD-Dashed
370
    18
100
AcDbSpline
210
0.0
220
0.0
230
1.0
 70
     8
 71
     3
 72
    10
 73
     6
 74
     0
 42
0.000000001
 43
0.00000001
 40
0.0
 40
0.0
 40
0.0
 40
0.0
 40
0.5
 40
0.5
 40
1.0
 40
1.0
 40
1.0
 40
1.0
 10
15.60000000000137
 20
17.96086022438968
 30
0.0
 10
15.60000000000079
 20
17.84309061700633
 30
0.0
 10
15.55324029371399
 20
17.73064651892002
 30
0.0
 10
15.41780382798792
 20
17.55857060774288
 30
0.0
 10
15.32693692219695
 20
17.49475822761088
 30
0.0
 10
15.22500000000001
 20
17.4724425882588
 30
0.0
  0
SPLINE
  5
19C
330
1F
100
AcDbEntity
  8
1
  6
SLD-Dashed
370
    18
100
AcDbSpline
210
0.0
220
0.0
230
1.0
 70
     8
 71
     3
 72
    10
 73
     6
 74
     0
 42
0.000000001
 43
0.00000001
 40
0.0
 40
0.0
 40
0.0
 40
0.0
 40
0.5
 40
0.5
 40
1.0
 40
1.0
 40
1.0
 40
1.0
 10
17.37428227908525
 20
21.87889322612935
 30
0.0
 10
17.08869139181012
 20
21.2910276042995
 30
0.0
 10
16.79677441554595
 20
20.68882647389056
 30
0.0
 10
16.20431276559683
 20
19.46290522822645
 30
0.0
 10
15.90371707956517
 20
18.83908911356867
 30
0.0
 10
15.60000000000001
 20
18.20619124728897
 30
0.0
  0
SPLINE
  5
19D
330
1F
100
AcDbEntity
  8
SK3
  6
SLD-Dashed
370
    18
100
AcDbSpline
210
0.0
220
0.0
230
1.0
 70
     8
 71
     3
 72
    17
 73
    13
 74
     0
 42
0.000000001
 43
0.00000001
 40
0.0
 40
0.0
 40
0.0
 40
0.0
 40
0.0164474135357289
 40
0.0315086356838322
 40
0.0628335605488166
 40
0.1251308418237274
 40
0.1874095446378158
 40
0.2501914891846194
 40
0.3127123157633863
 40
0.374750913718295
 40
0.4369017597299614
 40
0.4996911872993958
 40
0.4996911872993958
 40
0.4996911872993958
 40
0.4996911872993958
 10
17.37428227908525
 20
21.87889322612935
 30
0.0
 10
17.41792699160436
 20
21.89201588594662
 30
0.0
 10
17.50153803131601
 20
21.91715522511915
 30
0.0
 10
17.66284287115149
 20
21.9668308574424
 30
0.0
 10
17.93127082778232
 20
22.05155539106708
 30
0.0
 10
18.28291252993285
 20
22.16810796330802
 30
0.0
 10
18.64872205308959
 20
22.2956935517488
 30
0.0
 10
18.9543331561933
 20
22.40676499119547
 30
0.0
 10
19.19558460749268
 20
22.49727812827129
 30
0.0
 10
19.36979161457882
 20
22.56416722977884
 30
0.0
 10
19.47589776883905
 20
22.6055317504058
 30
0.0
 10
19.49988164051431
 20
22.6149535757775
 30
0.0
 10
19.4999991329279
 20
22.61499967926628
 30
0.0
  0
SPLINE
  5
19E
330
1F
100
AcDbEntity
  8
1
  6
SLD-Dashed
370
    18
100
AcDbSpline
210
0.0
220
0.0
230
1.0
 70
     8
 71
     3
 72
    10
 73
     6
 74
     0
 42
0.000000001
 43
0.00000001
 40
0.0
 40
0.0
 40
0.0
 40
0.0
 40
0.5
 40
0.5
 40
1.0
 40
1.0
 40
1.0
 40
1.0
 10
15.60000000000137
 20
-17.9608602243897
 30
0.0
 10
15.6000000000008
 20
-17.84309061700633
 30
0.0
 10
15.55324029371399
 20
-17.73064651892001
 30
0.0
 10
15.41780382798793
 20
-17.55857060774288
 30
0.0
 10
15.32693692219695
 20
-17.49475822761089
 30
0.0
 10
15.22500000000001
 20
-17.4724425882588
 30
0.0
  0
SPLINE
  5
19F
330
1F
100
AcDbEntity
  8
1
  6
SLD-Dashed
370
    18
100
AcDbSpline
210
0.0
220
0.0
230
1.0
 70
     8
 71
     3
 72
    10
 73
     6
 74
     0
 42
0.000000001
 43
0.00000001
 40
0.0
 40
0.0
 40
0.0
 40
0.0
 40
0.5
 40
0.5
 40
1.0
 40
1.0
 40
1.0
 40
1.0
 10
15.22500000000001
 20
-17.4724425882588
 30
0.0
 10
14.72586738206642
 20
-17.3631743932739
 30
0.0
 10
14.20531594595908
 20
-17.26950902984326
 30
0.0
 10
13.1198134347312
 20
-17.12670145782504
 30
0.0
 10
12.55043216059937
 20
-17.07771569071834
 30
0.0
 10
11.97500000000001
 20
-17.05831908483359
 30
0.0
  0
SPLINE
  5
1A0
330
1F
100
AcDbEntity
  8
1
  6
SLD-Dashed
370
    18
100
AcDbSpline
210
0.0
220
0.0
230
1.0
 70
     8
 71
     3
 72
    10
 73
     6
 74
     0
 42
0.000000001
 43
0.00000001
 40
0.0
 40
0.0
 40
0.0
 40
0.0
 40
0.5
 40
0.5
 40
1.0
 40
1.0
 40
1.0
 40
1.0
 10
11.97499999999999
 20
-17.05831908483361
 30
0.0
 10
11.87152057286506
 20
-17.05483101134251
 30
0.0
 10
11.7707169723892
 20
-17.10302441606798
 30
0.0
 10
11.63569438794239
 20
-17.25765695847896
 30
0.0
 10
11.59999999999999
 20
-17.3606658251105
 30
0.0
 10
11.6
 20
-17.46403447087755
 30
0.0
  0
SPLINE
  5
1A1
330
1F
100
AcDbEntity
  8
1
  6
SLD-Dashed
370
    18
100
AcDbSpline
210
0.0
220
0.0
230
1.0
 70
     8
 71
     3
 72
     8
 73
     4
 74
     0
 42
0.000000001
 43
0.00000001
 40
0.0000432461654743
 40
0.0000432461654743
 40
0.0000432461654743
 40
0.0000432461654743
 40
0.000471859197428
 40
0.000471859197428
 40
0.000471859197428
 40
0.000471859197428
 10
11.60000000000001
 20
-17.71624677331127
 30
0.0
 10
11.53327333917299
 20
-17.84256764359955
 30
0.0
 10
11.46660587253708
 20
-17.96893325601978
 30
0.0
 10
11.40000000000001
 20
-18.0953286017731
 30
0.0
  0
SPLINE
  5
1A2
330
1F
100
AcDbEntity
  8
1
  6
SLD-Dashed
370
    18
100
AcDbSpline
210
0.0
220
0.0
230
1.0
 70
     8
 71
     3
 72
    10
 73
     6
 74
     0
 42
0.000000001
 43
0.00000001
 40
0.0
 40
0.0
 40
0.0
 40
0.0
 40
0.5
 40
0.5
 40
1.0
 40
1.0
 40
1.0
 40
1.0
 10
17.37428230507105
 20
-21.87889326115164
 30
0.0
 10
17.08869106544408
 20
-21.29102691798379
 30
0.0
 10
16.79677392997643
 20
-20.68882546025269
 30
0.0
 10
16.20431228782265
 20
-19.46290423314761
 30
0.0
 10
15.90371676904258
 20
-18.83908846476608
 30
0.0
 10
15.60000000000001
 20
-18.20619124728897
 30
0.0
  0
SPLINE
  5
1A3
330
1F
100
AcDbEntity
  8
SK3
  6
SLD-Dashed
370
    18
100
AcDbSpline
210
0.0
220
0.0
230
1.0
 70
    24
 71
     2
 72
     6
 73
     3
 74
     0
 42
0.000000001
 43
0.00000001
 40
0.0
 40
0.0
 40
0.0
 40
0.25
 40
0.25
 40
0.25
 10
2.375000000002382
 20
16.14999999980004
 30
0.0
 10
2.357424479334347
 20
16.14999999981689
 30
0.0
 10
2.331652105107246
 20
16.1499999998416
 30
0.0
  0
SPLINE
  5
1A4
330
1F
100
AcDbEntity
  8
SK3
  6
SLD-Dashed
370
    18
100
AcDbSpline
210
0.0
220
0.0
230
1.0
 70
    24
 71
     3
 72
     8
 73
     4
 74
     0
 42
0.000000001
 43
0.00000001
 40
0.25
 40
0.25
 40
0.25
 40
0.25
 40
0.5
 40
0.5
 40
0.5
 40
0.5
 10
2.331652105107246
 20
16.1499999998416
 30
0.0
 10
2.305879730881567
 20
16.14999999986631
 30
0.0
 10
2.272790772310324
 20
16.14999999989803
 30
0.0
 10
2.236965951746453
 20
16.14999999993237
 30
0.0
  0
SPLINE
  5
1A5
330
1F
100
AcDbEntity
  8
SK3
  6
SLD-Dashed
370
    18
100
AcDbSpline
210
0.0
220
0.0
230
1.0
 70
    24
 71
     3
 72
     8
 73
     4
 74
     0
 42
0.000000001
 43
0.00000001
 40
0.5
 40
0.5
 40
0.5
 40
0.5
 40
1.0
 40
1.0
 40
1.0
 40
1.0
 10
2.236965951746453
 20
16.14999999993237
 30
0.0
 10
2.165316310618733
 20
16.14999999995281
 30
0.0
 10
2.083397657057326
 20
16.1499999999762
 30
0.0
 10
2.000000000000009
 20
16.15000000000001
 30
0.0
  0
SPLINE
  5
1A6
330
1F
100
AcDbEntity
  8
SK3
  6
SLD-Dashed
370
    18
100
AcDbSpline
210
0.0
220
0.0
230
1.0
 70
    24
 71
     3
 72
     8
 73
     4
 74
     0
 42
0.000000001
 43
0.00000001
 40
0.0
 40
0.0
 40
0.0
 40
0.0
 40
0.4999999999999981
 40
0.4999999999999981
 40
0.4999999999999981
 40
0.4999999999999981
 10
2.000000000000016
 20
-16.15000000000002
 30
0.0
 10
2.083477230592469
 20
-16.15000000004017
 30
0.0
 10
2.165250237669232
 20
-16.15000000007948
 30
0.0
 10
2.237167806898768
 20
-16.15000000011404
 30
0.0
  0
SPLINE
  5
1A7
330
1F
100
AcDbEntity
  8
SK3
  6
SLD-Dashed
370
    18
100
AcDbSpline
210
0.0
220
0.0
230
1.0
 70
    24
 71
     3
 72
     8
 73
     4
 74
     0
 42
0.000000001
 43
0.00000001
 40
0.4999999999999981
 40
0.4999999999999981
 40
0.4999999999999981
 40
0.4999999999999981
 40
0.749999999999999
 40
0.749999999999999
 40
0.749999999999999
 40
0.749999999999999
 10
2.237167806898768
 20
-16.15000000011404
 30
0.0
 10
2.273126591513547
 20
-16.15000000013189
 30
0.0
 10
2.306332390229787
 20
-16.15000000014835
 30
0.0
 10
2.33212347818193
 20
-16.15000000016114
 30
0.0
  0
SPLINE
  5
1A8
330
1F
100
AcDbEntity
  8
SK3
  6
SLD-Dashed
370
    18
100
AcDbSpline
210
0.0
220
0.0
230
1.0
 70
    24
 71
     2
 72
     6
 73
     3
 74
     0
 42
0.000000001
 43
0.00000001
 40
0.749999999999999
 40
0.749999999999999
 40
0.749999999999999
 40
1.0
 40
1.0
 40
1.0
 10
2.33212347818193
 20
-16.15000000016114
 30
0.0
 10
2.357914566134087
 20
-16.15000000017394
 30
0.0
 10
2.375000000000016
 20
-16.15000000018241
 30
0.0
  0
SPLINE
  5
1A9
330
1F
100
AcDbEntity
  8
SK3
  6
SLD-Dashed
370
    18
100
AcDbSpline
210
0.0
220
0.0
230
1.0
 70
     8
 71
     3
 72
   135
 73
   131
 74
     0
 42
0.000000001
 43
0.00000001
 40
0.0
 40
0.0
 40
0.0
 40
0.0
 40
0.0078951982393533
 40
0.0157833990815808
 40
0.0236661583325549
 40
0.0315450276558389
 40
0.0394215536578495
 40
0.0472972769807237
 40
0.0551737314055264
 40
0.0630524429683427
 40
0.0709361420252794
 40
0.0788238506165607
 40
0.0867114970578747
 40
0.0945949853785617
 40
0.1024702009748902
 40
0.1103330161809855
 40
0.1181792958006467
 40
0.1260049026432103
 40
0.1338144185139007
 40
0.1416157577181214
 40
0.1494097843206439
 40
0.1571973533785409
 40
0.164979310792563
 40
0.1727564931678822
 40
0.1805297276843971
 40
0.1882998319767581
 40
0.1960689634516301
 40
0.2038394066750521
 40
0.2116121599443871
 40
0.2193882168908473
 40
0.2271685661675236
 40
0.2349541911443197
 40
0.2427460696105472
 40
0.2505451734854186
 40
0.2583560389769978
 40
0.2661816682492673
 40
0.2740207179477687
 40
0.2818718384852997
 40
0.2897398161259755
 40
0.2976220237011135
 40
0.3055059714812965
 40
0.313379164492379
 40
0.3212337892771744
 40
0.3290715795460245
 40
0.3368943590106079
 40
0.3447039336858247
 40
0.3525020907647807
 40
0.3602905975277224
 40
0.3680712002883315
 40
0.3758456233809285
 40
0.3836149515197254
 40
0.3913799673450677
 40
0.3991419179764444
 40
0.4069020408937711
 40
0.4146615633665853
 40
0.4224217018986544
 40
0.4301836616894283
 40
0.4379486361132902
 40
0.4457178041747043
 40
0.4534923548782979
 40
0.4612734845178429
 40
0.469062385941007
 40
0.4768602480146624
 40
0.4846682550990583
 40
0.4924875865316362
 40
0.500319416121951
 40
0.5081666757724808
 40
0.5160277245387419
 40
0.5238968442461925
 40
0.5317682932859202
 40
0.5396363123876116
 40
0.5474951302547791
 40
0.5553389691239706
 40
0.5631620503089648
 40
0.5709692396794465
 40
0.5787695195195929
 40
0.5865632874583477
 40
0.5943509306973022
 40
0.6021328261576729
 40
0.6099093406330268
 40
0.6176808309473502
 40
0.6254476441182902
 40
0.6332112109189704
 40
0.6409734299116701
 40
0.648735340081878
 40
0.6564979753301875
 40
0.6642623640685656
 40
0.6720295288240111
 40
0.6798004858505513
 40
0.6875762447500791
 40
0.6953571763089816
 40
0.7031440250676065
 40
0.710938358936361
 40
0.718741748753079
 40
0.7265557674545681
 40
0.7343819892484198
 40
0.7422219887881214
 40
0.750077340353625
 40
0.7579463038540829
 40
0.7658199527656885
 40
0.7736890660567305
 40
0.7815444132482975
 40
0.7893857016324147
 40
0.7972179773014109
 40
0.8050400117016632
 40
0.8128505691914318
 40
0.8206517083127947
 40
0.8284467116859985
 40
0.8362361730772605
 40
0.8440206808483169
 40
0.8518008178782727
 40
0.8595771614892193
 40
0.8673502833759253
 40
0.87512074953944
 40
0.8828900527425877
 40
0.8906599012669851
 40
0.8984311852507919
 40
0.9062047991389598
 40
0.9139816413792585
 40
0.9217626141140682
 40
0.9295486228685654
 40
0.9373405762358769
 40
0.9451393855595451
 40
0.9529459646142019
 40
0.9607612292845639
 40
0.9685860972437282
 40
0.9764214876311382
 40
0.9842683207307175
 40
0.9921275176499014
 40
1.0
 40
1.0
 40
1.0
 40
1.0
 10
2.750000000000016
 20
20.96694064473881
 30
0.0
 10
2.748386932988116
 20
20.96693412668373
 30
0.0
 10
2.745162228601716
 20
20.96692109635039
 30
0.0
 10
2.740327935035612
 20
20.96681635618186
 30
0.0
 10
2.735498845792127
 20
20.96664936228251
 30
0.0
 10
2.730674939779382
 20
20.96641411424434
 30
0.0
 10
2.725856196269818
 20
20.96611234992929
 30
0.0
 10
2.721042592465798
 20
20.96574375362822
 30
0.0
 10
2.71623411343859
 20
20.96530849229222
 30
0.0
 10
2.711430468306665
 20
20.96480682914901
 30
0.0
 10
2.706631982298591
 20
20.96423810083627
 30
0.0
 10
2.701840100384503
 20
20.96360216141527
 30
0.0
 10
2.697057522194526
 20
20.96289998125089
 30
0.0
 10
2.692287601094919
 20
20.9621323315272
 30
0.0
 10
2.687533680795003
 20
20.96130006151722
 30
0.0
 10
2.682799111628186
 20
20.96040398122346
 30
0.0
 10
2.678087227169362
 20
20.95944497957063
 30
0.0
 10
2.673399681297941
 20
20.958423290837
 30
0.0
 10
2.668735533089182
 20
20.9573395042296
 30
0.0
 10
2.66409273087493
 20
20.95619429960284
 30
0.0
 10
2.659470212895684
 20
20.95498741326911
 30
0.0
 10
2.654868256742889
 20
20.95371917939092
 30
0.0
 10
2.650287156475188
 20
20.95238985960622
 30
0.0
 10
2.645727202121577
 20
20.950999733829
 30
0.0
 10
2.641188683335315
 20
20.94954908132719
 30
0.0
 10
2.636671633777288
 20
20.94803807826956
 30
0.0
 10
2.632175784252087
 20
20.94646684807418
 30
0.0
 10
2.627700848839794
 20
20.94483542776588
 30
0.0
 10
2.623246791933757
 20
20.94314385041028
 30
0.0
 10
2.618813818919506
 20
20.94139225316351
 30
0.0
 10
2.614402137931168
 20
20.93958076611617
 30
0.0
 10
2.610011952313064
 20
20.93770952999347
 30
0.0
 10
2.605643481781987
 20
20.93577865006098
 30
0.0
 10
2.601296221959988
 20
20.9337880592839
 30
0.0
 10
2.596969536931171
 20
20.93173698153451
 30
0.0
 10
2.592663187819727
 20
20.92962494434752
 30
0.0
 10
2.588377838543453
 20
20.92745237171212
 30
0.0
 10
2.58411382511875
 20
20.92521950337009
 30
0.0
 10
2.57987202601162
 20
20.92292611560859
 30
0.0
 10
2.575655099082356
 20
20.92057351612102
 30
0.0
 10
2.571468539605736
 20
20.91816515424032
 30
0.0
 10
2.567318995598214
 20
20.91570459062526
 30
0.0
 10
2.56321018627921
 20
20.91319464279914
 30
0.0
 10
2.559142990685576
 20
20.91063710962092
 30
0.0
 10
2.555117054485224
 20
20.90803201171119
 30
0.0
 10
2.551131880122341
 20
20.90537956448611
 30
0.0
 10
2.547187003357938
 20
20.90267992822858
 30
0.0
 10
2.543281950768618
 20
20.89993327832058
 30
0.0
 10
2.53941625221521
 20
20.89713978485203
 30
0.0
 10
2.535589534540167
 20
20.89429969918735
 30
0.0
 10
2.531801578953496
 20
20.89141336986813
 30
0.0
 10
2.528052389719392
 20
20.8884809959804
 30
0.0
 10
2.524341925040891
 20
20.8855027780167
 30
0.0
 10
2.52067006959706
 20
20.88247885287852
 30
0.0
 10
2.517036707457336
 20
20.87940935843688
 30
0.0
 10
2.513441721592458
 20
20.87629443367891
 30
0.0
 10
2.509884999867283
 20
20.87313421219469
 30
0.0
 10
2.506366411857218
 20
20.86992884836605
 30
0.0
 10
2.502885893451434
 20
20.86667841702284
 30
0.0
 10
2.499443496673255
 20
20.86338286488015
 30
0.0
 10
2.496039200414232
 20
20.86004221149992
 30
0.0
 10
2.492672999633461
 20
20.85665645564436
 30
0.0
 10
2.489344888556476
 20
20.85322559770364
 30
0.0
 10
2.486054846614877
 20
20.84974965102371
 30
0.0
 10
2.482802913179004
 20
20.84622857542631
 30
0.0
 10
2.479588660775918
 20
20.84266226460063
 30
0.0
 10
2.476412898969514
 20
20.83905027431047
 30
0.0
 10
2.473277022220985
 20
20.83539356243408
 30
0.0
 10
2.470182784797832
 20
20.83169510683785
 30
0.0
 10
2.467132716327272
 20
20.82795830486437
 30
0.0
 10
2.464129280432423
 20
20.82418661137453
 30
0.0
 10
2.46117497475095
 20
20.82038345382944
 30
0.0
 10
2.458272226691649
 20
20.81655231213391
 30
0.0
 10
2.455422417577416
 20
20.8126947363094
 30
0.0
 10
2.452624353629973
 20
20.80881043318718
 30
0.0
 10
2.449875728141836
 20
20.80489830996244
 30
0.0
 10
2.447175765558203
 20
20.8009572841418
 30
0.0
 10
2.444524469661292
 20
20.79698787236546
 30
0.0
 10
2.441921908910974
 20
20.7929905441673
 30
0.0
 10
2.43936813732782
 20
20.78896577996606
 30
0.0
 10
2.436863202090793
 20
20.78491406365744
 30
0.0
 10
2.434407076875346
 20
20.78083566298069
 30
0.0
 10
2.431999423028519
 20
20.77673065846371
 30
0.0
 10
2.429639896605794
 20
20.77259895701654
 30
0.0
 10
2.427328362910562
 20
20.76844043316216
 30
0.0
 10
2.42506473249967
 20
20.76425513744849
 30
0.0
 10
2.42284892732076
 20
20.76004311369695
 30
0.0
 10
2.420680866793506
 20
20.75580440728714
 30
0.0
 10
2.418560468984698
 20
20.75153906409721
 30
0.0
 10
2.416487715972769
 20
20.74724724268671
 30
0.0
 10
2.414462575365192
 20
20.74292916455891
 30
0.0
 10
2.412485163303543
 20
20.73858485200403
 30
0.0
 10
2.410555513151953
 20
20.73421409866627
 30
0.0
 10
2.408673578278981
 20
20.72981655048766
 30
0.0
 10
2.406839316862294
 20
20.72539185146351
 30
0.0
 10
2.40505267658573
 20
20.72093964952395
 30
0.0
 10
2.403313642240792
 20
20.71645957882147
 30
0.0
 10
2.401622297986933
 20
20.71195195863178
 30
0.0
 10
2.399979944082448
 20
20.70741894461683
 30
0.0
 10
2.398388285020148
 20
20.70286490545131
 30
0.0
 10
2.396849013070981
 20
20.6982958296949
 30
0.0
 10
2.395363521018254
 20
20.69371593704948
 30
0.0
 10
2.393931991770827
 20
20.68912677662164
 30
0.0
 10
2.392553811711641
 20
20.68452841952473
 30
0.0
 10
2.391228853976017
 20
20.67992097807526
 30
0.0
 10
2.389957173179968
 20
20.67530514696799
 30
0.0
 10
2.388738337754492
 20
20.67068079373766
 30
0.0
 10
2.387571774651966
 20
20.66604742329537
 30
0.0
 10
2.386457329738904
 20
20.66140473610276
 30
0.0
 10
2.385394905120214
 20
20.65675298513301
 30
0.0
 10
2.384384423749455
 20
20.65209241764473
 30
0.0
 10
2.383425808572301
 20
20.64742328142864
 30
0.0
 10
2.382518961733513
 20
20.64274582784095
 30
0.0
 10
2.381663834317073
 20
20.63806010601028
 30
0.0
 10
2.380860035174938
 20
20.63336598666116
 30
0.0
 10
2.380107351498913
 20
20.62866323111203
 30
0.0
 10
2.379405913237521
 20
20.62395166862768
 30
0.0
 10
2.37875579505608
 20
20.61923130854015
 30
0.0
 10
2.378157094019263
 20
20.61450215633208
 30
0.0
 10
2.377609901216861
 20
20.60976421852213
 30
0.0
 10
2.377114309183484
 20
20.60501750135494
 30
0.0
 10
2.376670410604041
 20
20.60026201115161
 30
0.0
 10
2.376278296064148
 20
20.59549775421565
 30
0.0
 10
2.375938064356972
 20
20.590724736856
 30
0.0
 10
2.375649783448168
 20
20.58594296538612
 30
0.0
 10
2.37541363654295
 20
20.58115244610213
 30
0.0
 10
2.375229375890318
 20
20.57635318536808
 30
0.0
 10
2.375098365426015
 20
20.57154518929357
 30
0.0
 10
2.375015940483227
 20
20.56672846493773
 30
0.0
 10
2.375005316485074
 20
20.56351433873746
 30
0.0
 10
2.375000000000016
 20
20.56190591846972
 30
0.0
  0
SPLINE
  5
1AA
330
1F
100
AcDbEntity
  8
1
  6
SLD-Dashed
370
    18
100
AcDbSpline
210
0.0
220
0.0
230
1.0
 70
     8
 71
     3
 72
     8
 73
     4
 74
     0
 42
0.000000001
 43
0.00000001
 40
0.0
 40
0.0
 40
0.0
 40
0.0
 40
1.0
 40
1.0
 40
1.0
 40
1.0
 10
11.4000000000017
 20
18.09532860176992
 30
0.0
 10
10.89434699821421
 20
19.0548864238957
 30
0.0
 10
10.38346933995439
 20
20.01180319386788
 30
0.0
 10
9.869071747017898
 20
20.96694064473884
 30
0.0
  0
SPLINE
  5
1AB
330
1F
100
AcDbEntity
  8
1
  6
SLD-Dashed
370
    18
100
AcDbSpline
210
0.0
220
0.0
230
1.0
 70
     8
 71
     3
 72
     8
 73
     4
 74
     0
 42
0.000000001
 43
0.00000001
 40
0.0
 40
0.0
 40
0.0
 40
0.0
 40
1.0
 40
1.0
 40
1.0
 40
1.0
 10
11.40000000000001
 20
-18.0953286017731
 30
0.0
 10
10.89428872080166
 20
-19.05499701464547
 30
0.0
 10
10.38340163896961
 20
-20.01192890157336
 30
0.0
 10
9.869071747010183
 20
-20.96694064473881
 30
0.0
  0
SPLINE
  5
1AC
330
1F
100
AcDbEntity
  8
1
  6
SLD-Dashed
370
    18
100
AcDbSpline
210
0.0
220
0.0
230
1.0
 70
     8
 71
     3
 72
    16
 73
    12
 74
     0
 42
0.000000001
 43
0.00000001
 40
0.0
 40
0.0
 40
0.0
 40
0.0
 40
0.0680357694062448
 40
0.121627191582264
 40
0.2437825385131548
 40
0.3664174069515577
 40
0.4907311408778776
 40
0.6196738302107561
 40
0.7429210525082587
 40
0.872347967578303
 40
1.0
 40
1.0
 40
1.0
 40
1.0
 10
2.000000000000026
 20
20.56190591846973
 30
0.0
 10
2.000796789486389
 20
20.58840543155956
 30
0.0
 10
2.002221205912546
 20
20.63577847346887
 30
0.0
 10
2.016562271679544
 20
20.72978897883132
 30
0.0
 10
2.049010913405311
 20
20.84222874359079
 30
0.0
 10
2.11521679456962
 20
20.97140279656774
 30
0.0
 10
2.206796006804781
 20
21.08800070366163
 30
0.0
 10
2.320292410374652
 20
21.18491683743862
 30
0.0
 10
2.452780038404101
 20
21.25807956074361
 30
0.0
 10
2.597289938883071
 20
21.30559252571822
 30
0.0
 10
2.69933147916189
 20
21.31161982290623
 30
0.0
 10
2.750000000000016
 20
21.31461266515788
 30
0.0
  0
SPLINE
  5
1AD
330
1F
100
AcDbEntity
  8
1
  6
SLD-Dashed
370
    18
100
AcDbSpline
210
0.0
220
0.0
230
1.0
 70
     8
 71
     3
 72
     8
 73
     4
 74
     0
 42
0.000000001
 43
0.00000001
 40
0.0
 40
0.0
 40
0.0
 40
0.0
 40
0.0006887074915324
 40
0.0006887074915324
 40
0.0006887074915324
 40
0.0006887074915324
 10
9.572981872402353
 20
21.31461266515788
 30
0.0
 10
9.672099735103023
 20
21.19883443678685
 30
0.0
 10
9.77080723979777
 20
21.08294605744473
 30
0.0
 10
9.869071747017898
 20
20.96694064473884
 30
0.0
  0
INSERT
  5
1AE
330
1F
100
AcDbEntity
  8
81
100
AcDbBlockReference
  2
Block11
 10
-56.7719643913
 20
-130.2676275275
 30
0.0
  0
INSERT
  5
1AF
330
1F
100
AcDbEntity
  8
80
100
AcDbBlockReference
  2
Block12
 10
-61.7273641656
 20
-130.3356800267
 30
0.0
  0
DIMENSION
  5
1B0
330
1F
100
AcDbEntity
  8
SK2
100
AcDbDimension
  2
_D
 10
22.1
 20
31.3421615894
 30
0.0
 11
10.4080118712
 21
31.3421615894
 31
0.0
 70
   160
  1
<>
 71
     2
 42
-1.0
  3
SLDDIMSTYLE0
100
AcDbAlignedDimension
 13
0.0
 23
15.875
 33
0.0
 14
22.1
 24
22.24
 34
0.0
100
AcDbRotatedDimension
  0
DIMENSION
  5
1BC
330
1F
100
AcDbEntity
  8
SK2
100
AcDbDimension
  2
_D_1
 10
35.0
 20
31.3421615894
 30
0.0
 11
28.8193826351
 21
31.3421615894
 31
0.0
 70
   160
  1
<>
 71
     2
 42
-1.0
  3
SLDDIMSTYLE0
100
AcDbAlignedDimension
 13
22.1
 23
22.24
 33
0.0
 14
35.0
 24
19.2
 34
0.0
100
AcDbRotatedDimension
  0
DIMENSION
  5
1C6
330
1F
100
AcDbEntity
  8
SK2
100
AcDbDimension
  2
_D_2
 10
66.0
 20
31.3421615894
 30
0.0
 11
50.0277276494
 21
31.3421615894
 31
0.0
 70
   160
  1
<>
 71
     2
 42
-1.0
  3
SLDDIMSTYLE0
100
AcDbAlignedDimension
 13
35.0
 23
19.2
 33
0.0
 14
66.0
 24
10.6473460386
 34
0.0
100
AcDbRotatedDimension
  0
DIMENSION
  5
1D0
330
1F
100
AcDbEntity
  8
2
100
AcDbDimension
  2
_D_3
 10
35.0
 20
39.3523318927
 30
0.0
 11
17.440348857
 21
39.3523318927
 31
0.0
 70
   160
  1
<>
 71
     2
 42
-1.0
  3
SLDDIMSTYLE0
100
AcDbAlignedDimension
 13
0.0
 23
15.875
 33
0.0
 14
35.0
 24
19.2
 34
0.0
100
AcDbRotatedDimension
  0
DIMENSION
  5
1DA
330
1F
100
AcDbEntity
  8
SK2
100
AcDbDimension
  2
_D_4
 10
99.5470662613
 20
-20.0
 30
0.0
 11
99.5470662613
 21
0.0494717707
 31
0.0
 70
   160
  1
%%c<>
 71
     2
 42
-1.0
  3
SLDDIMSTYLE0
100
AcDbAlignedDimension
 13
34.2
 23
20.0
 33
0.0
 14
34.2
 24
-20.0
 34
0.0
 50
90.0
100
AcDbRotatedDimension
  0
DIMENSION
  5
1E5
330
1F
100
AcDbEntity
  8
SK2
100
AcDbDimension
  2
_D_5
 10
89.6664589681
 20
11.0
 30
0.0
 11
89.6664589681
 21
0.0494717707
 31
0.0
 70
   160
  1
%%c<>
 71
     2
 42
-1.0
  3
SLDDIMSTYLE0
100
AcDbAlignedDimension
 13
64.0
 23
-11.0
 33
0.0
 14
64.0
 24
11.0
 34
0.0
 50
90.0
100
AcDbRotatedDimension
  0
DIMENSION
  5
1F0
330
1F
100
AcDbEntity
  8
SK2
100
AcDbDimension
  2
_D_6
 10
-74.0279331238
 20
-22.99
 30
0.0
 11
-74.0279331238
 21
0.0494717707
 31
0.0
 70
   160
  1
%%c<>
 71
     2
 42
-1.0
  3
SLDDIMSTYLE0
100
AcDbAlignedDimension
 13
19.874649423
 23
22.99
 33
0.0
 14
19.8746494411
 24
-22.99
 34
0.0
 50
90.0
100
AcDbRotatedDimension
  0
DIMENSION
  5
1FB
330
1F
100
AcDbEntity
  8
SK2
100
AcDbDimension
  2
_D_7
 10
-64.0547260278
 20
15.875
 30
0.0
 11
-64.0547260278
 21
0.0494717707
 31
0.0
 70
   160
  1
%%c<>
 71
     2
 42
-1.0
  3
SLDDIMSTYLE0
100
AcDbAlignedDimension
 13
0.0
 23
-15.875
 33
0.0
 14
0.0
 24
15.875
 34
0.0
 50
90.0
100
AcDbRotatedDimension
  0
DIMENSION
  5
206
330
1F
100
AcDbEntity
  8
SK2
100
AcDbDimension
  2
_D_8
 10
-54.9934073972
 20
6.0
 30
0.0
 11
-54.9934073972
 21
0.0494717707
 31
0.0
 70
   160
  1
M<>
 71
     2
 42
-1.0
  3
SLDDIMSTYLE1
100
AcDbAlignedDimension
 13
-40.7891560818
 23
-6.0
 33
0.0
 14
-40.7891560818
 24
6.0
 34
0.0
 50
90.0
100
AcDbRotatedDimension
  0
MTEXT
  5
214
330
1F
100
AcDbEntity
  8
SK6
 62
     5
100
AcDbMText
 10
-47.6939962862
 20
-27.599908994
 30
0.0
 40
3.5
 41
0.0
 71
     1
 72
     1
  1
A208-30 22 047
  7
SLDTEXTSTYLE0
 73
     1
 44
1.0
  0
MTEXT
  5
215
330
1F
100
AcDbEntity
  8
SK6
 62
     5
100
AcDbMText
 10
-31.1679056467
 20
20.9541534963
 30
0.0
 40
3.5
 41
0.0
 71
     1
 72
     1
  1
MAS-403 BT30
  7
SLDTEXTSTYLE0
 73
     1
 44
1.0
  0
ENDSEC
  0
SECTION
  2
OBJECTS
  0
DICTIONARY
  5
C
330
0
100
AcDbDictionary
281
     1
  3
ACAD_GROUP
350
D
  3
ACAD_LAYOUT
350
1A
  3
ACAD_MLINESTYLE
350
17
  3
ACAD_PLOTSETTINGS
350
19
  3
ACAD_PLOTSTYLENAME
350
E
  3
ACAD_SCALELIST
350
47
  0
DICTIONARY
  5
D
102
{ACAD_REACTORS
330
C
102
}
330
C
100
AcDbDictionary
281
     1
  0
DICTIONARY
  5
1A
102
{ACAD_REACTORS
330
C
102
}
330
C
100
AcDbDictionary
281
     1
  3
Layout1
350
1E
  3
Layout2
350
26
  3
Model
350
22
  0
DICTIONARY
  5
17
102
{ACAD_REACTORS
330
C
102
}
330
C
100
AcDbDictionary
281
     1
  3
Standard
350
18
  0
DICTIONARY
  5
19
102
{ACAD_REACTORS
330
C
102
}
330
C
100
AcDbDictionary
281
     1
  0
ACDBDICTIONARYWDFLT
  5
E
102
{ACAD_REACTORS
330
C
102
}
330
C
100
AcDbDictionary
281
     1
  3
Normal
350
F
100
AcDbDictionaryWithDefault
340
F
  0
DICTIONARY
  5
47
102
{ACAD_REACTORS
330
C
102
}
330
C
100
AcDbDictionary
281
     1
  3
A0
350
48
  3
A1
350
49
  3
A2
350
4A
  3
A3
350
4B
  3
A4
350
4C
  3
A5
350
4D
  3
A6
350
4E
  3
A7
350
4F
  3
A8
350
50
  3
A9
350
51
  3
B0
350
52
  3
B1
350
53
  3
B2
350
54
  3
B3
350
55
  3
B4
350
56
  3
B5
350
57
  3
B6
350
58
  3
B7
350
59
  3
B8
350
5A
  3
B9
350
5B
  3
C0
350
5C
  3
C1
350
5D
  3
C2
350
5E
  3
C3
350
5F
  3
C4
350
60
  3
C5
350
61
  3
C6
350
62
  3
C7
350
63
  3
C8
350
64
  3
C9
350
65
  3
D0
350
66
  3
D1
350
67
  3
D2
350
68
  0
LAYOUT
  5
1E
102
{ACAD_REACTORS
330
1A
102
}
330
1A
100
AcDbPlotSettings
  1

  2
none_device
  4

  6

 40
0.0
 41
0.0
 42
0.0
 43
0.0
 44
0.0
 45
0.0
 46
0.0
 47
0.0
 48
0.0
 49
0.0
140
0.0
141
0.0
142
1.0
143
1.0
 70
   688
 72
     1
 73
     0
 74
     5
  7

 75
    16
147
1.0
148
0.0
149
0.0
100
AcDbLayout
  1
Layout1
 70
     1
 71
     1
 10
0.0
 20
0.0
 11
420.0
 21
297.0
 12
0.0
 22
0.0
 32
0.0
 14
1.0000000000E+20
 24
1.0000000000E+20
 34
1.0000000000E+20
 15
-1.0000000000E+20
 25
-1.0000000000E+20
 35
-1.0000000000E+20
146
0.0
 13
0.0
 23
0.0
 33
0.0
 16
1.0
 26
0.0
 36
0.0
 17
0.0
 27
1.0
 37
0.0
 76
     0
330
1B
  0
LAYOUT
  5
26
102
{ACAD_REACTORS
330
1A
102
}
330
1A
100
AcDbPlotSettings
  1

  2
none_device
  4

  6

 40
0.0
 41
0.0
 42
0.0
 43
0.0
 44
0.0
 45
0.0
 46
0.0
 47
0.0
 48
0.0
 49
0.0
140
0.0
141
0.0
142
1.0
143
1.0
 70
   688
 72
     1
 73
     0
 74
     5
  7

 75
    16
147
1.0
148
0.0
149
0.0
100
AcDbLayout
  1
Layout2
 70
     1
 71
     2
 10
0.0
 20
0.0
 11
0.0
 21
0.0
 12
0.0
 22
0.0
 32
0.0
 14
0.0
 24
0.0
 34
0.0
 15
0.0
 25
0.0
 35
0.0
146
0.0
 13
0.0
 23
0.0
 33
0.0
 16
1.0
 26
0.0
 36
0.0
 17
0.0
 27
1.0
 37
0.0
 76
     0
330
23
  0
LAYOUT
  5
22
102
{ACAD_REACTORS
330
1A
102
}
330
1A
100
AcDbPlotSettings
  1

  2
none_device
  4
Letter_(8.50_x_11.00_Inches)
  6

 40
6.35
 41
6.35
 42
6.35000508
 43
6.35000508
 44
215.9
 45
279.4
 46
0.0
 47
0.0
 48
0.0
 49
0.0
140
0.0
141
0.0
142
1.0
143
1.0
 70
  1712
 72
     1
 73
     0
 74
     0
  7

 75
     0
147
1.0
148
0.0
149
0.0
100
AcDbLayout
  1
Model
 70
     1
 71
     0
 10
0.0
 20
0.0
 11
297.0
 21
210.0
 12
0.0
 22
0.0
 32
0.0
 14
0.0
 24
0.0
 34
0.0
 15
297.0
 25
210.0
 35
0.0
146
0.0
 13
0.0
 23
0.0
 33
0.0
 16
1.0
 26
0.0
 36
0.0
 17
0.0
 27
1.0
 37
0.0
 76
     0
330
1F
331
29
  0
MLINESTYLE
  5
18
102
{ACAD_REACTORS
330
17
102
}
330
17
100
AcDbMlineStyle
  2
Standard
 70
     0
  3

 62
   256
 51
90.0
 52
90.0
 71
     2
 49
0.5
 62
   256
  6
BYLAYER
 49
-0.5
 62
   256
  6
BYLAYER
  0
ACDBPLACEHOLDER
  5
F
102
{ACAD_REACTORS
330
E
102
}
330
E
  0
SCALE
  5
48
102
{ACAD_REACTORS
330
47
102
}
330
47
100
AcDbScale
 70
     0
300
1:1
140
1.0
141
1.0
290
     1
  0
SCALE
  5
49
102
{ACAD_REACTORS
330
47
102
}
330
47
100
AcDbScale
 70
     0
300
1:2
140
1.0
141
2.0
290
     0
  0
SCALE
  5
4A
102
{ACAD_REACTORS
330
47
102
}
330
47
100
AcDbScale
 70
     0
300
1:4
140
1.0
141
4.0
290
     0
  0
SCALE
  5
4B
102
{ACAD_REACTORS
330
47
102
}
330
47
100
AcDbScale
 70
     0
300
1:5
140
1.0
141
5.0
290
     0
  0
SCALE
  5
4C
102
{ACAD_REACTORS
330
47
102
}
330
47
100
AcDbScale
 70
     0
300
1:8
140
1.0
141
8.0
290
     0
  0
SCALE
  5
4D
102
{ACAD_REACTORS
330
47
102
}
330
47
100
AcDbScale
 70
     0
300
1:10
140
1.0
141
10.0
290
     0
  0
SCALE
  5
4E
102
{ACAD_REACTORS
330
47
102
}
330
47
100
AcDbScale
 70
     0
300
1:16
140
1.0
141
16.0
290
     0
  0
SCALE
  5
4F
102
{ACAD_REACTORS
330
47
102
}
330
47
100
AcDbScale
 70
     0
300
1:20
140
1.0
141
20.0
290
     0
  0
SCALE
  5
50
102
{ACAD_REACTORS
330
47
102
}
330
47
100
AcDbScale
 70
     0
300
1:30
140
1.0
141
30.0
290
     0
  0
SCALE
  5
51
102
{ACAD_REACTORS
330
47
102
}
330
47
100
AcDbScale
 70
     0
300
1:40
140
1.0
141
40.0
290
     0
  0
SCALE
  5
52
102
{ACAD_REACTORS
330
47
102
}
330
47
100
AcDbScale
 70
     0
300
1:50
140
1.0
141
50.0
290
     0
  0
SCALE
  5
53
102
{ACAD_REACTORS
330
47
102
}
330
47
100
AcDbScale
 70
     0
300
1:100
140
1.0
141
100.0
290
     0
  0
SCALE
  5
54
102
{ACAD_REACTORS
330
47
102
}
330
47
100
AcDbScale
 70
     0
300
2:1
140
2.0
141
1.0
290
     0
  0
SCALE
  5
55
102
{ACAD_REACTORS
330
47
102
}
330
47
100
AcDbScale
 70
     0
300
4:1
140
4.0
141
1.0
290
     0
  0
SCALE
  5
56
102
{ACAD_REACTORS
330
47
102
}
330
47
100
AcDbScale
 70
     0
300
8:1
140
8.0
141
1.0
290
     0
  0
SCALE
  5
57
102
{ACAD_REACTORS
330
47
102
}
330
47
100
AcDbScale
 70
     0
300
10:1
140
10.0
141
1.0
290
     0
  0
SCALE
  5
58
102
{ACAD_REACTORS
330
47
102
}
330
47
100
AcDbScale
 70
     0
300
100:1
140
100.0
141
1.0
290
     0
  0
SCALE
  5
59
102
{ACAD_REACTORS
330
47
102
}
330
47
100
AcDbScale
 70
     0
300
1/128" = 1'-0"
140
0.0078125
141
12.0
290
     0
  0
SCALE
  5
5A
102
{ACAD_REACTORS
330
47
102
}
330
47
100
AcDbScale
 70
     0
300
1/64" = 1'-0"
140
0.015625
141
12.0
290
     0
  0
SCALE
  5
5B
102
{ACAD_REACTORS
330
47
102
}
330
47
100
AcDbScale
 70
     0
300
1/32" = 1'-0"
140
0.03125
141
12.0
290
     0
  0
SCALE
  5
5C
102
{ACAD_REACTORS
330
47
102
}
330
47
100
AcDbScale
 70
     0
300
1/16" = 1'-0"
140
0.0625
141
12.0
290
     0
  0
SCALE
  5
5D
102
{ACAD_REACTORS
330
47
102
}
330
47
100
AcDbScale
 70
     0
300
3/32" = 1'-0"
140
0.09375
141
12.0
290
     0
  0
SCALE
  5
5E
102
{ACAD_REACTORS
330
47
102
}
330
47
100
AcDbScale
 70
     0
300
1/8" = 1'-0"
140
0.125
141
12.0
290
     0
  0
SCALE
  5
5F
102
{ACAD_REACTORS
330
47
102
}
330
47
100
AcDbScale
 70
     0
300
3/16" = 1'-0"
140
0.1875
141
12.0
290
     0
  0
SCALE
  5
60
102
{ACAD_REACTORS
330
47
102
}
330
47
100
AcDbScale
 70
     0
300
1/4" = 1'-0"
140
0.25
141
12.0
290
     0
  0
SCALE
  5
61
102
{ACAD_REACTORS
330
47
102
}
330
47
100
AcDbScale
 70
     0
300
3/8" = 1'-0"
140
0.375
141
12.0
290
     0
  0
SCALE
  5
62
102
{ACAD_REACTORS
330
47
102
}
330
47
100
AcDbScale
 70
     0
300
1/2" = 1'-0"
140
0.5
141
12.0
290
     0
  0
SCALE
  5
63
102
{ACAD_REACTORS
330
47
102
}
330
47
100
AcDbScale
 70
     0
300
3/4" = 1'-0"
140
0.75
141
12.0
290
     0
  0
SCALE
  5
64
102
{ACAD_REACTORS
330
47
102
}
330
47
100
AcDbScale
 70
     0
300
1" = 1'-0"
140
1.0
141
12.0
290
     0
  0
SCALE
  5
65
102
{ACAD_REACTORS
330
47
102
}
330
47
100
AcDbScale
 70
     0
300
1-1/2" = 1'-0"
140
1.5
141
12.0
290
     0
  0
SCALE
  5
66
102
{ACAD_REACTORS
330
47
102
}
330
47
100
AcDbScale
 70
     0
300
3" = 1'-0"
140
3.0
141
12.0
290
     0
  0
SCALE
  5
67
102
{ACAD_REACTORS
330
47
102
}
330
47
100
AcDbScale
 70
     0
300
6" = 1'-0"
140
6.0
141
12.0
290
     0
  0
SCALE
  5
68
102
{ACAD_REACTORS
330
47
102
}
330
47
100
AcDbScale
 70
     0
300
1'-0" = 1'-0"
140
12.0
141
12.0
290
     0
  0
ENDSEC
  0
EOF
