  0
SECTION
  2
HEADER
  9
$ACADVER
  1
AC1015
  9
$ACADMAINTVER
 70
     6
  9
$DWGCODEPAGE
  3
ANSI_1250
  9
$INSBASE
 10
0.0
 20
0.0
 30
0.0
  9
$EXTMIN
 10
0.0
 20
0.0
 30
0.0
  9
$EXTMAX
 10
297.0
 20
210.0
 30
0.0
  9
$LIMMIN
 10
0.0
 20
0.0
  9
$LIMMAX
 10
297.0
 20
210.0
  9
$ORTHOMODE
 70
     0
  9
$REGENMODE
 70
     1
  9
$FILLMODE
 70
     1
  9
$QTEXTMODE
 70
     0
  9
$MIRRTEXT
 70
     1
  9
$LTSCALE
 40
1.0
  9
$ATTMODE
 70
     1
  9
$TEXTSIZE
 40
3.5
  9
$TRACEWID
 40
1.0
  9
$TEXTSTYLE
  7
Standard
  9
$CLAYER
  8
0
  9
$CELTYPE
  6
ByLayer
  9
$CECOLOR
 62
   256
  9
$CELTSCALE
 40
1.0
  9
$DISPSILH
 70
     0
  9
$DIMSCALE
 40
1.0
  9
$DIMASZ
 40
3.302
  9
$DIMEXO
 40
1.0
  9
$DIMDLI
 40
3.75
  9
$DIMRND
 40
0.0
  9
$DIMDLE
 40
0.0
  9
$DIMEXE
 40
1.0
  9
$DIMTP
 40
0.0
  9
$DIMTM
 40
0.0
  9
$DIMTXT
 40
3.5
  9
$DIMCEN
 40
2.5
  9
$DIMTSZ
 40
0.0
  9
$DIMTOL
 70
     0
  9
$DIMLIM
 70
     0
  9
$DIMTIH
 70
     1
  9
$DIMTOH
 70
     1
  9
$DIMSE1
 70
     0
  9
$DIMSE2
 70
     0
  9
$DIMTAD
 70
     1
  9
$DIMZIN
 70
     0
  9
$DIMBLK
  1

  9
$DIMASO
 70
     1
  9
$DIMSHO
 70
     1
  9
$DIMPOST
  1

  9
$DIMAPOST
  1

  9
$DIMALT
 70
     0
  9
$DIMALTD
 70
     3
  9
$DIMALTF
 40
0.0393700787
  9
$DIMLFAC
 40
1.0
  9
$DIMTOFL
 70
     1
  9
$DIMTVP
 40
0.0
  9
$DIMTIX
 70
     0
  9
$DIMSOXD
 70
     0
  9
$DIMSAH
 70
     0
  9
$DIMBLK1
  1

  9
$DIMBLK2
  1

  9
$DIMSTYLE
  2
ISO-25
  9
$DIMCLRD
 70
     0
  9
$DIMCLRE
 70
     0
  9
$DIMCLRT
 70
     0
  9
$DIMTFAC
 40
1.0
  9
$DIMGAP
 40
1.524
  9
$DIMJUST
 70
     0
  9
$DIMSD1
 70
     0
  9
$DIMSD2
 70
     0
  9
$DIMTOLJ
 70
     0
  9
$DIMTZIN
 70
     0
  9
$DIMALTZ
 70
     0
  9
$DIMALTTZ
 70
     0
  9
$DIMUPT
 70
     0
  9
$DIMDEC
 70
     2
  9
$DIMTDEC
 70
     2
  9
$DIMALTU
 70
     2
  9
$DIMALTTD
 70
     3
  9
$DIMTXSTY
  7
Standard
  9
$DIMAUNIT
 70
     0
  9
$DIMADEC
 70
     2
  9
$DIMALTRND
 40
0.0
  9
$DIMAZIN
 70
     0
  9
$DIMDSEP
 70
    44
  9
$DIMATFIT
 70
     3
  9
$DIMFRAC
 70
     0
  9
$DIMLDRBLK
  1

  9
$DIMLUNIT
 70
     2
  9
$DIMLWD
 70
    -2
  9
$DIMLWE
 70
    -2
  9
$DIMTMOVE
 70
     0
  9
$LUNITS
 70
     2
  9
$LUPREC
 70
     2
  9
$SKETCHINC
 40
1.0
  9
$FILLETRAD
 40
10.0
  9
$AUNITS
 70
     0
  9
$AUPREC
 70
     2
  9
$MENU
  1
.
  9
$ELEVATION
 40
0.0
  9
$PELEVATION
 40
0.0
  9
$THICKNESS
 40
0.0
  9
$LIMCHECK
 70
     0
  9
$CHAMFERA
 40
0.0
  9
$CHAMFERB
 40
0.0
  9
$CHAMFERC
 40
0.0
  9
$CHAMFERD
 40
0.0
  9
$SKPOLY
 70
     0
  9
$TDCREATE
 40
2459290.484209248
  9
$TDUCREATE
 40
2459290.442542581
  9
$TDUPDATE
 40
2459290.48421022
  9
$TDUUPDATE
 40
2459290.442543553
  9
$TDINDWG
 40
0.0000000116
  9
$TDUSRTIMER
 40
0.0000000116
  9
$USRTIMER
 70
     1
  9
$ANGBASE
 50
0.0
  9
$ANGDIR
 70
     0
  9
$PDMODE
 70
     0
  9
$PDSIZE
 40
-1.0
  9
$PLINEWID
 40
0.0
  9
$SPLFRAME
 70
     0
  9
$SPLINETYPE
 70
     6
  9
$SPLINESEGS
 70
     8
  9
$HANDSEED
  5
21F
  9
$SURFTAB1
 70
     6
  9
$SURFTAB2
 70
     6
  9
$SURFTYPE
 70
     6
  9
$SURFU
 70
     6
  9
$SURFV
 70
     6
  9
$UCSBASE
  2

  9
$UCSNAME
  2

  9
$UCSORG
 10
0.0
 20
0.0
 30
0.0
  9
$UCSXDIR
 10
1.0
 20
0.0
 30
0.0
  9
$UCSYDIR
 10
0.0
 20
1.0
 30
0.0
  9
$UCSORTHOREF
  2

  9
$UCSORTHOVIEW
 70
     0
  9
$UCSORGTOP
 10
0.0
 20
0.0
 30
0.0
  9
$UCSORGBOTTOM
 10
0.0
 20
0.0
 30
0.0
  9
$UCSORGLEFT
 10
0.0
 20
0.0
 30
0.0
  9
$UCSORGRIGHT
 10
0.0
 20
0.0
 30
0.0
  9
$UCSORGFRONT
 10
0.0
 20
0.0
 30
0.0
  9
$UCSORGBACK
 10
0.0
 20
0.0
 30
0.0
  9
$PUCSBASE
  2

  9
$PUCSNAME
  2

  9
$PUCSORG
 10
0.0
 20
0.0
 30
0.0
  9
$PUCSXDIR
 10
1.0
 20
0.0
 30
0.0
  9
$PUCSYDIR
 10
0.0
 20
1.0
 30
0.0
  9
$PUCSORTHOREF
  2

  9
$PUCSORTHOVIEW
 70
     0
  9
$PUCSORGTOP
 10
0.0
 20
0.0
 30
0.0
  9
$PUCSORGBOTTOM
 10
0.0
 20
0.0
 30
0.0
  9
$PUCSORGLEFT
 10
0.0
 20
0.0
 30
0.0
  9
$PUCSORGRIGHT
 10
0.0
 20
0.0
 30
0.0
  9
$PUCSORGFRONT
 10
0.0
 20
0.0
 30
0.0
  9
$PUCSORGBACK
 10
0.0
 20
0.0
 30
0.0
  9
$USERI1
 70
     0
  9
$USERI2
 70
     0
  9
$USERI3
 70
     0
  9
$USERI4
 70
     0
  9
$USERI5
 70
     0
  9
$USERR1
 40
0.0
  9
$USERR2
 40
0.0
  9
$USERR3
 40
0.0
  9
$USERR4
 40
0.0
  9
$USERR5
 40
0.0
  9
$WORLDVIEW
 70
     1
  9
$SHADEDGE
 70
     3
  9
$SHADEDIF
 70
    70
  9
$TILEMODE
 70
     1
  9
$MAXACTVP
 70
    64
  9
$PINSBASE
 10
0.0
 20
0.0
 30
0.0
  9
$PLIMCHECK
 70
     0
  9
$PEXTMIN
 10
1.0000000000E+20
 20
1.0000000000E+20
 30
1.0000000000E+20
  9
$PEXTMAX
 10
-1.0000000000E+20
 20
-1.0000000000E+20
 30
-1.0000000000E+20
  9
$PLIMMIN
 10
0.0
 20
0.0
  9
$PLIMMAX
 10
420.0
 20
297.0
  9
$UNITMODE
 70
     0
  9
$VISRETAIN
 70
     1
  9
$PLINEGEN
 70
     0
  9
$PSLTSCALE
 70
     1
  9
$TREEDEPTH
 70
  3020
  9
$CMLSTYLE
  2
Standard
  9
$CMLJUST
 70
     0
  9
$CMLSCALE
 40
20.0
  9
$PROXYGRAPHICS
 70
     1
  9
$MEASUREMENT
 70
     1
  9
$CELWEIGHT
370
    -1
  9
$ENDCAPS
280
     0
  9
$JOINSTYLE
280
     0
  9
$LWDISPLAY
290
     1
  9
$INSUNITS
 70
     4
  9
$HYPERLINKBASE
  1

  9
$STYLESHEET
  1

  9
$XEDIT
290
     1
  9
$CEPSNTYPE
380
     0
  9
$PSTYLEMODE
290
     1
  9
$FINGERPRINTGUID
  2
{E2526C01-0EA9-4FF8-85AB-989181AA2125}
  9
$VERSIONGUID
  2
{FAEB1C32-E019-11D5-929B-00C0DF256EC4}
  9
$EXTNAMES
290
     1
  9
$PSVPSCALE
 40
0.0
  9
$OLESTARTUP
290
     0
  0
ENDSEC
  0
SECTION
  2
CLASSES
  0
CLASS
  1
ACDBDICTIONARYWDFLT
  2
AcDbDictionaryWithDefault
  3
ObjectDBX Classes
 90
        0
280
     0
281
     0
  0
CLASS
  1
VISUALSTYLE
  2
AcDbVisualStyle
  3
ObjectDBX Classes
 90
     4095
280
     0
281
     0
  0
CLASS
  1
MATERIAL
  2
AcDbMaterial
  3
ObjectDBX Classes
 90
     1153
280
     0
281
     0
  0
CLASS
  1
SCALE
  2
AcDbScale
  3
ObjectDBX Classes
 90
     1153
280
     0
281
     0
  0
CLASS
  1
TABLESTYLE
  2
AcDbTableStyle
  3
ObjectDBX Classes
 90
     4095
280
     0
281
     0
  0
CLASS
  1
MLEADERSTYLE
  2
AcDbMLeaderStyle
  3
ACDB_MLEADERSTYLE_CLASS
 90
     4095
280
     0
281
     0
  0
CLASS
  1
SUN
  2
AcDbSun
  3
SCENEOE
 90
     1153
280
     0
281
     0
  0
CLASS
  1
ACDBPLACEHOLDER
  2
AcDbPlaceHolder
  3
ObjectDBX Classes
 90
        0
280
     0
281
     0
  0
CLASS
  1
LAYOUT
  2
AcDbLayout
  3
ObjectDBX Classes
 90
        0
280
     0
281
     0
  0
ENDSEC
  0
SECTION
  2
TABLES
  0
TABLE
  2
VPORT
  5
8
330
0
100
AcDbSymbolTable
 70
     1
  0
VPORT
  5
29
330
8
100
AcDbSymbolTableRecord
100
AcDbViewportTableRecord
  2
*Active
 70
     0
 10
0.0
 20
0.0
 11
1.0
 21
1.0
 12
148.5
 22
105.0
 13
0.0
 23
0.0
 14
10.0
 24
10.0
 15
10.0
 25
10.0
 16
0.0
 26
0.0
 36
1.0
 17
0.0
 27
0.0
 37
0.0
 40
210.0
 41
1.4142857143
 42
50.0
 43
0.0
 44
0.0
 50
0.0
 51
0.0
 71
     0
 72
  2000
 73
     1
 74
     3
 75
     0
 76
     0
 77
     0
 78
     0
281
     0
 65
     1
110
0.0
120
0.0
130
0.0
111
1.0
121
0.0
131
0.0
112
0.0
122
1.0
132
0.0
 79
     0
146
0.0
  0
ENDTAB
  0
TABLE
  2
LTYPE
  5
5
330
0
100
AcDbSymbolTable
 70
     8
  0
LTYPE
  5
14
330
5
100
AcDbSymbolTableRecord
100
AcDbLinetypeTableRecord
  2
ByBlock
 70
     0
  3

 72
    65
 73
     0
 40
0.0
  0
LTYPE
  5
15
330
5
100
AcDbSymbolTableRecord
100
AcDbLinetypeTableRecord
  2
ByLayer
 70
     0
  3

 72
    65
 73
     0
 40
0.0
  0
LTYPE
  5
16
330
5
100
AcDbSymbolTableRecord
100
AcDbLinetypeTableRecord
  2
Continuous
 70
     0
  3
Solid line
 72
    65
 73
     0
 40
0.0
  0
LTYPE
  5
6E
330
5
100
AcDbSymbolTableRecord
100
AcDbLinetypeTableRecord
  2
SLD-Solid
 70
     0
  3
SolidWorks Line Style
 72
    65
 73
     0
 40
0.0
  0
LTYPE
  5
6F
330
5
100
AcDbSymbolTableRecord
100
AcDbLinetypeTableRecord
  2
SLD-Dashed
 70
     0
  3
SolidWorks Line Style
 72
    65
 73
     2
 40
1.905
 49
1.27
 74
     0
 49
-0.635
 74
     0
  0
LTYPE
  5
70
330
5
100
AcDbSymbolTableRecord
100
AcDbLinetypeTableRecord
  2
SLD-Phantom
 70
     0
  3
SolidWorks Line Style
 72
    65
 73
     6
 40
12.7
 49
6.35
 74
     0
 49
-1.27
 74
     0
 49
1.27
 74
     0
 49
-1.27
 74
     0
 49
1.27
 74
     0
 49
-1.27
 74
     0
  0
LTYPE
  5
71
330
5
100
AcDbSymbolTableRecord
100
AcDbLinetypeTableRecord
  2
SLD-Chain
 70
     0
  3
SolidWorks Line Style
 72
    65
 73
     4
 40
10.16
 49
6.35
 74
     0
 49
-1.27
 74
     0
 49
1.27
 74
     0
 49
-1.27
 74
     0
  0
LTYPE
  5
72
330
5
100
AcDbSymbolTableRecord
100
AcDbLinetypeTableRecord
  2
SLD-Center
 70
     0
  3
SolidWorks Line Style
 72
    65
 73
     4
 40
19.05
 49
15.24
 74
     0
 49
-1.27
 74
     0
 49
1.27
 74
     0
 49
-1.27
 74
     0
  0
LTYPE
  5
73
330
5
100
AcDbSymbolTableRecord
100
AcDbLinetypeTableRecord
  2
SLD-Stitch
 70
     0
  3
SolidWorks Line Style
 72
    65
 73
     2
 40
0.635
 49
0.0
 74
     0
 49
-0.635
 74
     0
  0
LTYPE
  5
74
330
5
100
AcDbSymbolTableRecord
100
AcDbLinetypeTableRecord
  2
SLD-Thin-Thick-Chain
 70
     0
  3
SolidWorks Line Style
 72
    65
 73
     4
 40
10.16
 49
6.35
 74
     0
 49
-1.27
 74
     0
 49
1.27
 74
     0
 49
-1.27
 74
     0
  0
ENDTAB
  0
TABLE
  2
LAYER
  5
2
330
0
100
AcDbSymbolTable
 70
    12
  0
LAYER
  5
10
330
2
100
AcDbSymbolTableRecord
100
AcDbLayerTableRecord
  2
0
 70
     0
 62
     7
  6
Continuous
370
    -3
390
F
  0
LAYER
  5
75
330
2
100
AcDbSymbolTableRecord
100
AcDbLayerTableRecord
  2
SLD-0
 70
     0
 62
   179
  6
SLD-Solid
370
    -3
390
F
  0
LAYER
  5
76
330
2
100
AcDbSymbolTableRecord
100
AcDbLayerTableRecord
  2
80
 70
     0
 62
    -6
  6
SLD-Solid
290
     0
370
    -3
390
F
  0
LAYER
  5
77
330
2
100
AcDbSymbolTableRecord
100
AcDbLayerTableRecord
  2
81
 70
     0
 62
    -3
  6
SLD-Solid
290
     0
370
    -3
390
F
  0
LAYER
  5
78
330
2
100
AcDbSymbolTableRecord
100
AcDbLayerTableRecord
  2
1
 70
     0
 62
     4
  6
SLD-Solid
290
     0
370
    -3
390
F
  0
LAYER
  5
79
330
2
100
AcDbSymbolTableRecord
100
AcDbLayerTableRecord
  2
4
 70
     0
 62
    -2
  6
SLD-Chain
290
     0
370
    -3
390
F
  0
LAYER
  5
7A
330
2
100
AcDbSymbolTableRecord
100
AcDbLayerTableRecord
  2
2
 70
     0
 62
     7
  6
SLD-Solid
290
     0
370
    -3
390
F
  0
LAYER
  5
7B
330
2
100
AcDbSymbolTableRecord
100
AcDbLayerTableRecord
  2
SK3
 70
     0
 62
     1
  6
SLD-Dashed
290
     0
370
    -3
390
F
  0
LAYER
  5
7C
330
2
100
AcDbSymbolTableRecord
100
AcDbLayerTableRecord
  2
SK4
 70
     0
 62
     2
  6
SLD-Chain
290
     0
370
    -3
390
F
  0
LAYER
  5
7D
330
2
100
AcDbSymbolTableRecord
100
AcDbLayerTableRecord
  2
SK2
 70
     0
 62
     7
  6
SLD-Solid
290
     0
370
    -3
390
F
  0
LAYER
  5
7E
330
2
100
AcDbSymbolTableRecord
100
AcDbLayerTableRecord
  2
SK6
 70
     0
 62
     5
  6
SLD-Solid
290
     0
370
    -3
390
F
  0
LAYER
  5
7F
330
2
100
AcDbSymbolTableRecord
100
AcDbLayerTableRecord
  2
SK1
 70
     0
 62
     4
  6
SLD-Solid
370
    -3
390
F
  0
ENDTAB
  0
TABLE
  2
STYLE
  5
3
330
0
100
AcDbSymbolTable
 70
     2
  0
STYLE
  5
11
330
3
100
AcDbSymbolTableRecord
100
AcDbTextStyleTableRecord
  2
Standard
 70
     0
 40
0.0
 41
1.0
 50
0.0
 71
     0
 42
3.5
  3
txt
  4

  0
STYLE
  5
1BA
330
3
100
AcDbSymbolTableRecord
100
AcDbTextStyleTableRecord
  2
SLDTEXTSTYLE0
 70
     0
 40
0.0
 41
0.75
 50
0.0
 71
     0
 42
3.5
  3
TXT
  4

  0
ENDTAB
  0
TABLE
  2
VIEW
  5
6
330
0
100
AcDbSymbolTable
 70
     0
  0
ENDTAB
  0
TABLE
  2
UCS
  5
7
330
0
100
AcDbSymbolTable
 70
     0
  0
ENDTAB
  0
TABLE
  2
APPID
  5
9
330
0
100
AcDbSymbolTable
 70
     1
  0
APPID
  5
12
330
9
100
AcDbSymbolTableRecord
100
AcDbRegAppTableRecord
  2
ACAD
 70
     0
  0
ENDTAB
  0
TABLE
  2
DIMSTYLE
  5
A
330
0
100
AcDbSymbolTable
 70
     3
100
AcDbDimStyleTable
  0
DIMSTYLE
105
27
330
A
100
AcDbSymbolTableRecord
100
AcDbDimStyleTableRecord
  2
ISO-25
 70
     0
 41
2.5
 42
0.625
 43
3.75
 44
1.25
 73
     0
 74
     0
 77
     1
 78
     8
140
2.5
141
2.5
143
0.0393700787
147
0.625
171
     3
172
     1
178
     0
271
     2
272
     2
274
     3
278
    44
283
     0
284
     8
340
11
  0
DIMSTYLE
105
1BB
102
{ACAD_REACTORS
330
1B9
330
1D2
330
1DC
330
1E6
330
1F1
330
1FC
330
207
330
212
102
}
330
A
100
AcDbSymbolTableRecord
100
AcDbDimStyleTableRecord
  2
SLDDIMSTYLE0
 70
     0
 41
3.302
 44
0.0
 45
0.000000001
 73
     0
 74
     0
 77
     1
 78
    12
 79
     3
140
3.5
147
0.875
173
     1
178
     0
271
     2
272
     2
276
     2
284
    12
340
1BA
  0
DIMSTYLE
105
1C6
102
{ACAD_REACTORS
330
1C5
102
}
330
A
100
AcDbSymbolTableRecord
100
AcDbDimStyleTableRecord
  2
SLDDIMSTYLE1
 70
     0
 41
3.302
 44
0.0
 45
0.000000001
 73
     0
 74
     0
 77
     1
 78
    12
 79
     3
140
3.5
147
0.875
172
     1
173
     1
178
     0
271
     2
272
     2
276
     2
284
    12
289
     0
340
1BA
  0
ENDTAB
  0
TABLE
  2
BLOCK_RECORD
  5
1
330
0
100
AcDbSymbolTable
 70
    12
  0
BLOCK_RECORD
  5
1F
330
1
100
AcDbSymbolTableRecord
100
AcDbBlockTableRecord
  2
*Model_Space
340
22
  0
BLOCK_RECORD
  5
1B
330
1
100
AcDbSymbolTableRecord
100
AcDbBlockTableRecord
  2
*Paper_Space
340
1E
  0
BLOCK_RECORD
  5
23
330
1
100
AcDbSymbolTableRecord
100
AcDbBlockTableRecord
  2
*Paper_Space0
340
26
  0
BLOCK_RECORD
  5
80
330
1
100
AcDbSymbolTableRecord
100
AcDbBlockTableRecord
  2
Block11
340
0
102
{BLKREFS
331
1B8
102
}
  0
BLOCK_RECORD
  5
89
330
1
100
AcDbSymbolTableRecord
100
AcDbBlockTableRecord
  2
Block12
340
0
102
{BLKREFS
331
1B7
102
}
  0
BLOCK_RECORD
  5
1BC
330
1
100
AcDbSymbolTableRecord
100
AcDbBlockTableRecord
  2
_D
340
0
  0
BLOCK_RECORD
  5
1C7
330
1
100
AcDbSymbolTableRecord
100
AcDbBlockTableRecord
  2
_D_1
340
0
  0
BLOCK_RECORD
  5
1D3
330
1
100
AcDbSymbolTableRecord
100
AcDbBlockTableRecord
  2
_D_2
340
0
  0
BLOCK_RECORD
  5
1DD
330
1
100
AcDbSymbolTableRecord
100
AcDbBlockTableRecord
  2
_D_3
340
0
  0
BLOCK_RECORD
  5
1E7
330
1
100
AcDbSymbolTableRecord
100
AcDbBlockTableRecord
  2
_D_4
340
0
  0
BLOCK_RECORD
  5
1F2
330
1
100
AcDbSymbolTableRecord
100
AcDbBlockTableRecord
  2
_D_5
340
0
  0
BLOCK_RECORD
  5
1FD
330
1
100
AcDbSymbolTableRecord
100
AcDbBlockTableRecord
  2
_D_6
340
0
  0
BLOCK_RECORD
  5
208
330
1
100
AcDbSymbolTableRecord
100
AcDbBlockTableRecord
  2
_D_7
340
0
  0
BLOCK_RECORD
  5
213
330
1
100
AcDbSymbolTableRecord
100
AcDbBlockTableRecord
  2
_D_8
340
0
  0
ENDTAB
  0
ENDSEC
  0
SECTION
  2
BLOCKS
  0
BLOCK
  5
20
330
1F
100
AcDbEntity
  8
0
100
AcDbBlockBegin
  2
*Model_Space
 70
     0
 10
0.0
 20
0.0
 30
0.0
  3
*Model_Space
  1

  0
ENDBLK
  5
21
330
1F
100
AcDbEntity
  8
0
100
AcDbBlockEnd
  0
BLOCK
  5
1C
330
1B
100
AcDbEntity
 67
     1
  8
0
100
AcDbBlockBegin
  2
*Paper_Space
 70
     0
 10
0.0
 20
0.0
 30
0.0
  3
*Paper_Space
  1

  0
ENDBLK
  5
1D
330
1B
100
AcDbEntity
 67
     1
  8
0
100
AcDbBlockEnd
  0
BLOCK
  5
24
330
23
100
AcDbEntity
  8
0
100
AcDbBlockBegin
  2
*Paper_Space0
 70
     0
 10
0.0
 20
0.0
 30
0.0
  3
*Paper_Space0
  1

  0
ENDBLK
  5
25
330
23
100
AcDbEntity
  8
0
100
AcDbBlockEnd
  0
BLOCK
  5
81
330
80
100
AcDbEntity
  8
0
100
AcDbBlockBegin
  2
Block11
 70
     0
 10
0.0
 20
0.0
 30
0.0
  3
Block11
  1

  0
CIRCLE
  5
83
330
80
100
AcDbEntity
  8
81
370
    18
100
AcDbCircle
 10
91.6264826505
 20
130.2676275275
 30
0.0
 40
2.499999999999981
  0
LINE
  5
84
330
80
100
AcDbEntity
  8
81
370
    18
100
AcDbLine
 10
91.6264826505
 20
130.2676275275
 30
0.0
 11
95.1620165565
 21
133.8031614334
 31
0.0
  0
LINE
  5
85
330
80
100
AcDbEntity
  8
81
370
    18
100
AcDbLine
 10
91.6264826505
 20
130.2676275275
 30
0.0
 11
88.0909487446
 21
126.7320936216
 31
0.0
  0
LINE
  5
86
330
80
100
AcDbEntity
  8
81
370
    18
100
AcDbLine
 10
91.6264826505
 20
130.2676275275
 30
0.0
 11
88.0909487446
 21
133.8031614334
 31
0.0
  0
LINE
  5
87
330
80
100
AcDbEntity
  8
81
100
AcDbLine
 10
91.6264826505
 20
130.2676275275
 30
0.0
 11
101.6264826505
 21
130.2676275275
 31
0.0
  0
LINE
  5
88
330
80
100
AcDbEntity
  8
81
370
    18
100
AcDbLine
 10
91.6264826505
 20
130.2676275275
 30
0.0
 11
95.1620165565
 21
126.7320936216
 31
0.0
  0
ENDBLK
  5
82
330
80
100
AcDbEntity
  8
0
100
AcDbBlockEnd
  0
BLOCK
  5
8A
330
89
100
AcDbEntity
  8
0
100
AcDbBlockBegin
  2
Block12
 70
     0
 10
0.0
 20
0.0
 30
0.0
  3
Block12
  1

  0
CIRCLE
  5
8C
330
89
100
AcDbEntity
  8
80
370
    18
100
AcDbCircle
 10
61.7273641656
 20
130.3356800267
 30
0.0
 40
2.500000000000004
  0
LINE
  5
8D
330
89
100
AcDbEntity
  8
80
370
    18
100
AcDbLine
 10
61.7273641656
 20
130.3356800267
 30
0.0
 11
65.2628980715
 21
133.8712139326
 31
0.0
  0
LINE
  5
8E
330
89
100
AcDbEntity
  8
80
370
    18
100
AcDbLine
 10
61.7273641656
 20
130.3356800267
 30
0.0
 11
58.1918302597
 21
126.8001461208
 31
0.0
  0
LINE
  5
8F
330
89
100
AcDbEntity
  8
80
370
    18
100
AcDbLine
 10
61.7273641656
 20
130.3356800267
 30
0.0
 11
58.1918302597
 21
133.8712139326
 31
0.0
  0
LINE
  5
90
330
89
100
AcDbEntity
  8
80
370
    18
100
AcDbLine
 10
61.7273641656
 20
130.3356800267
 30
0.0
 11
51.7273641656
 21
130.3356800267
 31
0.0
  0
LINE
  5
91
330
89
100
AcDbEntity
  8
80
370
    18
100
AcDbLine
 10
61.7273641656
 20
130.3356800267
 30
0.0
 11
65.2628980715
 21
126.8001461208
 31
0.0
  0
ENDBLK
  5
8B
330
89
100
AcDbEntity
  8
0
100
AcDbBlockEnd
  0
BLOCK
  5
1BD
330
1BC
100
AcDbEntity
  8
0
100
AcDbBlockBegin
  2
_D
 70
     0
 10
0.0
 20
0.0
 30
0.0
  3
_D
  1

  0
SOLID
  5
1BF
330
1BC
100
AcDbEntity
  8
SK2
100
AcDbTrace
 10
0.0
 20
39.4095232401
 30
0.0
 11
3.302
 21
38.9015232401
 31
0.0
 12
3.302
 22
39.9175232401
 32
0.0
 13
3.302
 23
39.9175232401
 33
0.0
  0
SOLID
  5
1C0
330
1BC
100
AcDbEntity
  8
SK2
100
AcDbTrace
 10
27.0
 20
39.4095232401
 30
0.0
 11
23.698
 21
39.9175232401
 31
0.0
 12
23.698
 22
38.9015232401
 32
0.0
 13
23.698
 23
38.9015232401
 33
0.0
  0
LINE
  5
1C1
330
1BC
100
AcDbEntity
  8
SK2
100
AcDbLine
 10
0.0
 20
23.225
 30
0.0
 11
0.0
 21
40.4095232401
 31
0.0
  0
LINE
  5
1C2
330
1BC
100
AcDbEntity
  8
SK2
100
AcDbLine
 10
27.0
 20
31.724895054
 30
0.0
 11
27.0
 21
40.4095232401
 31
0.0
  0
LINE
  5
1C3
330
1BC
100
AcDbEntity
  8
SK2
100
AcDbLine
 10
0.0
 20
39.4095232401
 30
0.0
 11
27.0
 21
39.4095232401
 31
0.0
  0
MTEXT
  5
1C4
330
1BC
100
AcDbEntity
  8
SK2
100
AcDbMText
 10
10.6215150656
 20
43.9212601547
 30
0.0
 40
3.5
 41
0.0
 71
     1
 72
     1
  1
27
  7
SLDTEXTSTYLE0
 73
     1
 44
1.0
  0
ENDBLK
  5
1BE
330
1BC
100
AcDbEntity
  8
0
100
AcDbBlockEnd
  0
BLOCK
  5
1C8
330
1C7
100
AcDbEntity
  8
0
100
AcDbBlockBegin
  2
_D_1
 70
     0
 10
0.0
 20
0.0
 30
0.0
  3
_D_1
  1

  0
SOLID
  5
1CA
330
1C7
100
AcDbEntity
  8
SK2
100
AcDbTrace
 10
27.0
 20
39.4095232401
 30
0.0
 11
23.698
 21
39.9175232401
 31
0.0
 12
23.698
 22
38.9015232401
 32
0.0
 13
23.698
 23
38.9015232401
 33
0.0
  0
SOLID
  5
1CB
330
1C7
100
AcDbEntity
  8
SK2
100
AcDbTrace
 10
35.0
 20
39.4095232401
 30
0.0
 11
38.302
 21
38.9015232401
 31
0.0
 12
38.302
 22
39.9175232401
 32
0.0
 13
38.302
 23
39.9175232401
 33
0.0
  0
LINE
  5
1CC
330
1C7
100
AcDbEntity
  8
SK2
100
AcDbLine
 10
27.0
 20
31.724895054
 30
0.0
 11
27.0
 21
40.4095232401
 31
0.0
  0
LINE
  5
1CD
330
1C7
100
AcDbEntity
  8
SK2
100
AcDbLine
 10
35.0
 20
24.5
 30
0.0
 11
35.0
 21
40.4095232401
 31
0.0
  0
LINE
  5
1CE
330
1C7
100
AcDbEntity
  8
SK2
100
AcDbLine
 10
27.0
 20
39.4095232401
 30
0.0
 11
20.65
 21
39.4095232401
 31
0.0
  0
LINE
  5
1CF
330
1C7
100
AcDbEntity
  8
SK2
100
AcDbLine
 10
27.0
 20
39.4095232401
 30
0.0
 11
35.0
 21
39.4095232401
 31
0.0
  0
LINE
  5
1D0
330
1C7
100
AcDbEntity
  8
SK2
100
AcDbLine
 10
35.0
 20
39.4095232401
 30
0.0
 11
41.35
 21
39.4095232401
 31
0.0
  0
MTEXT
  5
1D1
330
1C7
100
AcDbEntity
  8
SK2
100
AcDbMText
 10
29.9238222156
 20
43.9212601547
 30
0.0
 40
3.5
 41
0.0
 71
     1
 72
     1
  1
8
  7
SLDTEXTSTYLE0
 73
     1
 44
1.0
  0
ENDBLK
  5
1C9
330
1C7
100
AcDbEntity
  8
0
100
AcDbBlockEnd
  0
BLOCK
  5
1D4
330
1D3
100
AcDbEntity
  8
0
100
AcDbBlockBegin
  2
_D_2
 70
     0
 10
0.0
 20
0.0
 30
0.0
  3
_D_2
  1

  0
SOLID
  5
1D6
330
1D3
100
AcDbEntity
  8
SK2
100
AcDbTrace
 10
35.0
 20
39.4095232401
 30
0.0
 11
38.302
 21
38.9015232401
 31
0.0
 12
38.302
 22
39.9175232401
 32
0.0
 13
38.302
 23
39.9175232401
 33
0.0
  0
SOLID
  5
1D7
330
1D3
100
AcDbEntity
  8
SK2
100
AcDbTrace
 10
54.0
 20
39.4095232401
 30
0.0
 11
50.698
 21
39.9175232401
 31
0.0
 12
50.698
 22
38.9015232401
 32
0.0
 13
50.698
 23
38.9015232401
 33
0.0
  0
LINE
  5
1D8
330
1D3
100
AcDbEntity
  8
SK2
100
AcDbLine
 10
35.0
 20
24.5
 30
0.0
 11
35.0
 21
40.4095232401
 31
0.0
  0
LINE
  5
1D9
330
1D3
100
AcDbEntity
  8
SK2
100
AcDbLine
 10
54.0
 20
11.4710190579
 30
0.0
 11
54.0
 21
40.4095232401
 31
0.0
  0
LINE
  5
1DA
330
1D3
100
AcDbEntity
  8
SK2
100
AcDbLine
 10
35.0
 20
39.4095232401
 30
0.0
 11
54.0
 21
39.4095232401
 31
0.0
  0
MTEXT
  5
1DB
330
1D3
100
AcDbEntity
  8
SK2
100
AcDbMText
 10
40.9408879337
 20
43.9212601547
 30
0.0
 40
3.5
 41
0.0
 71
     1
 72
     1
  1
19
  7
SLDTEXTSTYLE0
 73
     1
 44
1.0
  0
ENDBLK
  5
1D5
330
1D3
100
AcDbEntity
  8
0
100
AcDbBlockEnd
  0
BLOCK
  5
1DE
330
1DD
100
AcDbEntity
  8
0
100
AcDbBlockBegin
  2
_D_3
 70
     0
 10
0.0
 20
0.0
 30
0.0
  3
_D_3
  1

  0
SOLID
  5
1E0
330
1DD
100
AcDbEntity
  8
2
100
AcDbTrace
 10
0.0
 20
47.9202243961
 30
0.0
 11
3.302
 21
47.4122243961
 31
0.0
 12
3.302
 22
48.4282243961
 32
0.0
 13
3.302
 23
48.4282243961
 33
0.0
  0
SOLID
  5
1E1
330
1DD
100
AcDbEntity
  8
2
100
AcDbTrace
 10
35.0
 20
47.9202243961
 30
0.0
 11
31.698
 21
48.4282243961
 31
0.0
 12
31.698
 22
47.4122243961
 32
0.0
 13
31.698
 23
47.4122243961
 33
0.0
  0
LINE
  5
1E2
330
1DD
100
AcDbEntity
  8
2
100
AcDbLine
 10
0.0
 20
23.225
 30
0.0
 11
0.0
 21
48.9202243961
 31
0.0
  0
LINE
  5
1E3
330
1DD
100
AcDbEntity
  8
2
100
AcDbLine
 10
35.0
 20
24.5
 30
0.0
 11
35.0
 21
48.9202243961
 31
0.0
  0
LINE
  5
1E4
330
1DD
100
AcDbEntity
  8
2
100
AcDbLine
 10
0.0
 20
47.9202243961
 30
0.0
 11
35.0
 21
47.9202243961
 31
0.0
  0
MTEXT
  5
1E5
330
1DD
100
AcDbEntity
  8
2
100
AcDbMText
 10
14.4876469259
 20
52.4319613107
 30
0.0
 40
3.5
 41
0.0
 71
     1
 72
     1
  1
35
  7
SLDTEXTSTYLE0
 73
     1
 44
1.0
  0
ENDBLK
  5
1DF
330
1DD
100
AcDbEntity
  8
0
100
AcDbBlockEnd
  0
BLOCK
  5
1E8
330
1E7
100
AcDbEntity
  8
0
100
AcDbBlockBegin
  2
_D_4
 70
     0
 10
0.0
 20
0.0
 30
0.0
  3
_D_4
  1

  0
SOLID
  5
1EA
330
1E7
100
AcDbEntity
  8
SK2
100
AcDbTrace
 10
85.1971612347
 20
24.0
 30
0.0
 11
84.6891612347
 21
20.698
 31
0.0
 12
85.7051612347
 22
20.698
 32
0.0
 13
85.7051612347
 23
20.698
 33
0.0
  0
SOLID
  5
1EB
330
1E7
100
AcDbEntity
  8
SK2
100
AcDbTrace
 10
85.1971612347
 20
-24.0
 30
0.0
 11
85.7051612347
 21
-20.698
 31
0.0
 12
84.6891612347
 22
-20.698
 32
0.0
 13
84.6891612347
 23
-20.698
 33
0.0
  0
LINE
  5
1EC
330
1E7
100
AcDbEntity
  8
SK2
100
AcDbLine
 10
35.5
 20
24.0
 30
0.0
 11
86.1971612347
 21
24.0
 31
0.0
  0
LINE
  5
1ED
330
1E7
100
AcDbEntity
  8
SK2
100
AcDbLine
 10
35.5
 20
-24.0
 30
0.0
 11
86.1971612347
 21
-24.0
 31
0.0
  0
LINE
  5
1EE
330
1E7
100
AcDbEntity
  8
SK2
100
AcDbLine
 10
85.1971612347
 20
24.0
 30
0.0
 11
85.1971612347
 21
-24.0
 31
0.0
  0
MTEXT
  5
1EF
330
1E7
100
AcDbEntity
  8
SK2
100
AcDbMText
 10
80.6854241455
 20
-5.3020379004
 30
0.0
 40
3.5
 41
0.0
 71
     1
 72
     1
  1
%%c
  7
SLDTEXTSTYLE0
 11
-7.932373437343760E-15
 21
1.0
 31
0.0
 73
     1
 44
1.0
  0
MTEXT
  5
1F0
330
1E7
100
AcDbEntity
  8
SK2
100
AcDbMText
 10
80.6319519688
 20
-0.0236005021
 30
0.0
 40
3.5
 41
0.0
 71
     1
 72
     1
  1
48
  7
SLDTEXTSTYLE0
 11
-7.932373437343760E-15
 21
1.0
 31
0.0
 73
     1
 44
1.0
  0
ENDBLK
  5
1E9
330
1E7
100
AcDbEntity
  8
0
100
AcDbBlockEnd
  0
BLOCK
  5
1F3
330
1F2
100
AcDbEntity
  8
0
100
AcDbBlockBegin
  2
_D_5
 70
     0
 10
0.0
 20
0.0
 30
0.0
  3
_D_5
  1

  0
SOLID
  5
1F5
330
1F2
100
AcDbEntity
  8
SK2
100
AcDbTrace
 10
75.6461151144
 20
11.0
 30
0.0
 11
75.1381151144
 21
7.698
 31
0.0
 12
76.1541151144
 22
7.698
 32
0.0
 13
76.1541151144
 23
7.698
 33
0.0
  0
SOLID
  5
1F6
330
1F2
100
AcDbEntity
  8
SK2
100
AcDbTrace
 10
75.6461151144
 20
-11.0
 30
0.0
 11
76.1541151144
 21
-7.698
 31
0.0
 12
75.1381151144
 22
-7.698
 32
0.0
 13
75.1381151144
 23
-7.698
 33
0.0
  0
LINE
  5
1F7
330
1F2
100
AcDbEntity
  8
SK2
100
AcDbLine
 10
52.0
 20
11.0
 30
0.0
 11
76.6461151144
 21
11.0
 31
0.0
  0
LINE
  5
1F8
330
1F2
100
AcDbEntity
  8
SK2
100
AcDbLine
 10
52.0
 20
-11.0
 30
0.0
 11
76.6461151144
 21
-11.0
 31
0.0
  0
LINE
  5
1F9
330
1F2
100
AcDbEntity
  8
SK2
100
AcDbLine
 10
75.6461151144
 20
11.0
 30
0.0
 11
75.6461151144
 21
-11.0
 31
0.0
  0
MTEXT
  5
1FA
330
1F2
100
AcDbEntity
  8
SK2
100
AcDbMText
 10
71.1343780252
 20
-5.3020379004
 30
0.0
 40
3.5
 41
0.0
 71
     1
 72
     1
  1
%%c
  7
SLDTEXTSTYLE0
 11
-7.044195017643634E-15
 21
1.0
 31
0.0
 73
     1
 44
1.0
  0
MTEXT
  5
1FB
330
1F2
100
AcDbEntity
  8
SK2
100
AcDbMText
 10
71.0809058485
 20
-0.0236005021
 30
0.0
 40
3.5
 41
0.0
 71
     1
 72
     1
  1
22
  7
SLDTEXTSTYLE0
 11
-7.044195017643634E-15
 21
1.0
 31
0.0
 73
     1
 44
1.0
  0
ENDBLK
  5
1F4
330
1F2
100
AcDbEntity
  8
0
100
AcDbBlockEnd
  0
BLOCK
  5
1FE
330
1FD
100
AcDbEntity
  8
0
100
AcDbBlockBegin
  2
_D_6
 70
     0
 10
0.0
 20
0.0
 30
0.0
  3
_D_6
  1

  0
SOLID
  5
200
330
1FD
100
AcDbEntity
  8
SK2
100
AcDbTrace
 10
-72.6144096767
 20
-8.00000038
 30
0.0
 11
-72.1064096767
 21
-4.69800038
 31
0.0
 12
-73.1224096767
 22
-4.69800038
 32
0.0
 13
-73.1224096767
 23
-4.69800038
 33
0.0
  0
SOLID
  5
201
330
1FD
100
AcDbEntity
  8
SK2
100
AcDbTrace
 10
-72.6144096767
 20
8.00000038
 30
0.0
 11
-73.1224096767
 21
4.69800038
 31
0.0
 12
-72.1064096767
 22
4.69800038
 32
0.0
 13
-72.1064096767
 23
4.69800038
 33
0.0
  0
LINE
  5
202
330
1FD
100
AcDbEntity
  8
SK2
100
AcDbLine
 10
-56.6881204247
 20
-8.00000038
 30
0.0
 11
-73.6144096767
 21
-8.00000038
 31
0.0
  0
LINE
  5
203
330
1FD
100
AcDbEntity
  8
SK2
100
AcDbLine
 10
-56.6881204247
 20
8.00000038
 30
0.0
 11
-73.6144096767
 21
8.00000038
 31
0.0
  0
LINE
  5
204
330
1FD
100
AcDbEntity
  8
SK2
100
AcDbLine
 10
-72.6144096767
 20
-8.00000038
 30
0.0
 11
-72.6144096767
 21
8.00000038
 31
0.0
  0
MTEXT
  5
205
330
1FD
100
AcDbEntity
  8
SK2
100
AcDbMText
 10
-77.1261465913
 20
-4.5136995824
 30
0.0
 40
3.5
 41
0.0
 71
     1
 72
     1
  1
M
  7
SLDTEXTSTYLE0
 11
6.123233995736766E-17
 21
1.0
 31
0.0
 73
     1
 44
1.0
  0
MTEXT
  5
206
330
1FD
100
AcDbEntity
  8
SK2
100
AcDbMText
 10
-77.1261465913
 20
-0.2261996479
 30
0.0
 40
3.5
 41
0.0
 71
     1
 72
     1
  1
16
  7
SLDTEXTSTYLE0
 11
6.123233995736766E-17
 21
1.0
 31
0.0
 73
     1
 44
1.0
  0
ENDBLK
  5
1FF
330
1FD
100
AcDbEntity
  8
0
100
AcDbBlockEnd
  0
BLOCK
  5
209
330
208
100
AcDbEntity
  8
0
100
AcDbBlockBegin
  2
_D_7
 70
     0
 10
0.0
 20
0.0
 30
0.0
  3
_D_7
  1

  0
SOLID
  5
20B
330
208
100
AcDbEntity
  8
SK2
100
AcDbTrace
 10
-82.8286155788
 20
22.225
 30
0.0
 11
-83.3366155788
 21
18.923
 31
0.0
 12
-82.3206155788
 22
18.923
 32
0.0
 13
-82.3206155788
 23
18.923
 33
0.0
  0
SOLID
  5
20C
330
208
100
AcDbEntity
  8
SK2
100
AcDbTrace
 10
-82.8286155788
 20
-22.225
 30
0.0
 11
-82.3206155788
 21
-18.923
 31
0.0
 12
-83.3366155788
 22
-18.923
 32
0.0
 13
-83.3366155788
 23
-18.923
 33
0.0
  0
LINE
  5
20D
330
208
100
AcDbEntity
  8
SK2
100
AcDbLine
 10
-1.0
 20
22.225
 30
0.0
 11
-83.8286155788
 21
22.225
 31
0.0
  0
LINE
  5
20E
330
208
100
AcDbEntity
  8
SK2
100
AcDbLine
 10
-1.0
 20
-22.225
 30
0.0
 11
-83.8286155788
 21
-22.225
 31
0.0
  0
LINE
  5
20F
330
208
100
AcDbEntity
  8
SK2
100
AcDbLine
 10
-82.8286155788
 20
22.225
 30
0.0
 11
-82.8286155788
 21
-22.225
 31
0.0
  0
MTEXT
  5
210
330
208
100
AcDbEntity
  8
SK2
100
AcDbMText
 10
-87.340352668
 20
-8.2418071316
 30
0.0
 40
3.5
 41
0.0
 71
     1
 72
     1
  1
%%c
  7
SLDTEXTSTYLE0
 11
-7.044195017643634E-15
 21
1.0
 31
0.0
 73
     1
 44
1.0
  0
MTEXT
  5
211
330
208
100
AcDbEntity
  8
SK2
100
AcDbMText
 10
-87.3938248447
 20
-2.9633697333
 30
0.0
 40
3.5
 41
0.0
 71
     1
 72
     1
  1
44,45
  7
SLDTEXTSTYLE0
 11
-7.044195017643634E-15
 21
1.0
 31
0.0
 73
     1
 44
1.0
  0
ENDBLK
  5
20A
330
208
100
AcDbEntity
  8
0
100
AcDbBlockEnd
  0
BLOCK
  5
214
330
213
100
AcDbEntity
  8
0
100
AcDbBlockBegin
  2
_D_8
 70
     0
 10
0.0
 20
0.0
 30
0.0
  3
_D_8
  1

  0
SOLID
  5
216
330
213
100
AcDbEntity
  8
SK2
100
AcDbTrace
 10
-93.0385007634
 20
31.474895054
 30
0.0
 11
-93.5465007634
 21
28.172895054
 31
0.0
 12
-92.5305007634
 22
28.172895054
 32
0.0
 13
-92.5305007634
 23
28.172895054
 33
0.0
  0
SOLID
  5
217
330
213
100
AcDbEntity
  8
SK2
100
AcDbTrace
 10
-93.0385007634
 20
-31.474895054
 30
0.0
 11
-92.5305007634
 21
-28.172895054
 31
0.0
 12
-93.5465007634
 22
-28.172895054
 32
0.0
 13
-93.5465007634
 23
-28.172895054
 33
0.0
  0
LINE
  5
218
330
213
100
AcDbEntity
  8
SK2
100
AcDbLine
 10
22.8749115524
 20
31.474895054
 30
0.0
 11
-94.0385007634
 21
31.474895054
 31
0.0
  0
LINE
  5
219
330
213
100
AcDbEntity
  8
SK2
100
AcDbLine
 10
22.8749115472
 20
-31.474895054
 30
0.0
 11
-94.0385007634
 21
-31.474895054
 31
0.0
  0
LINE
  5
21A
330
213
100
AcDbEntity
  8
SK2
100
AcDbLine
 10
-93.0385007634
 20
31.474895054
 30
0.0
 11
-93.0385007634
 21
-31.474895054
 31
0.0
  0
MTEXT
  5
21B
330
213
100
AcDbEntity
  8
SK2
100
AcDbMText
 10
-97.5502378526
 20
-6.6647157948
 30
0.0
 40
3.5
 41
0.0
 71
     1
 72
     1
  1
%%c
  7
SLDTEXTSTYLE0
 11
-7.044195017643634E-15
 21
1.0
 31
0.0
 73
     1
 44
1.0
  0
MTEXT
  5
21C
330
213
100
AcDbEntity
  8
SK2
100
AcDbMText
 10
-97.6037100293
 20
-1.3862783964
 30
0.0
 40
3.5
 41
0.0
 71
     1
 72
     1
  1
63
  7
SLDTEXTSTYLE0
 11
-7.044195017643634E-15
 21
1.0
 31
0.0
 73
     1
 44
1.0
  0
ENDBLK
  5
215
330
213
100
AcDbEntity
  8
0
100
AcDbBlockEnd
  0
ENDSEC
  0
SECTION
  2
ENTITIES
  0
LINE
  5
92
330
1F
100
AcDbEntity
  8
SK1
  6
SLD-Solid
370
    25
100
AcDbLine
 10
62.0432830727
 20
-6.5
 30
0.0
 11
65.7432830727
 21
-6.5
 31
0.0
  0
LINE
  5
93
330
1F
100
AcDbEntity
  8
SK1
  6
SLD-Solid
370
    25
100
AcDbLine
 10
65.7432830727
 20
6.5
 30
0.0
 11
62.0432830727
 21
6.5
 31
0.0
  0
LINE
  5
94
330
1F
100
AcDbEntity
  8
SK1
  6
SLD-Solid
370
    25
100
AcDbLine
 10
65.7432830727
 20
-6.5
 30
0.0
 11
66.7432830727
 21
-5.5
 31
0.0
  0
LINE
  5
95
330
1F
100
AcDbEntity
  8
SK1
  6
SLD-Solid
370
    25
100
AcDbLine
 10
66.7432830727
 20
5.5
 30
0.0
 11
65.7432830727
 21
6.5
 31
0.0
  0
LINE
  5
96
330
1F
100
AcDbEntity
  8
SK1
  6
SLD-Solid
370
    25
100
AcDbLine
 10
54.0
 20
-4.35
 30
0.0
 11
56.7432830727
 21
-4.35
 31
0.0
  0
LINE
  5
97
330
1F
100
AcDbEntity
  8
SK1
  6
SLD-Solid
370
    25
100
AcDbLine
 10
56.7432830727
 20
4.35
 30
0.0
 11
54.0
 21
4.35
 31
0.0
  0
LINE
  5
98
330
1F
100
AcDbEntity
  8
SK1
  6
SLD-Solid
370
    25
100
AcDbLine
 10
60.7432830727
 20
-14.0
 30
0.0
 11
61.7432830727
 21
-13.0
 31
0.0
  0
LINE
  5
99
330
1F
100
AcDbEntity
  8
SK1
  6
SLD-Solid
370
    25
100
AcDbLine
 10
61.7432830727
 20
13.0
 30
0.0
 11
60.7432830727
 21
14.0
 31
0.0
  0
LINE
  5
9A
330
1F
100
AcDbEntity
  8
SK1
  6
SLD-Solid
370
    25
100
AcDbLine
 10
57.0432830727
 20
14.0
 30
0.0
 11
56.7432830727
 21
13.7
 31
0.0
  0
LINE
  5
9B
330
1F
100
AcDbEntity
  8
SK1
  6
SLD-Solid
370
    25
100
AcDbLine
 10
56.7432830727
 20
-13.7
 30
0.0
 11
57.0432830727
 21
-14.0
 31
0.0
  0
LINE
  5
9C
330
1F
100
AcDbEntity
  8
SK1
  6
SLD-Solid
370
    25
100
AcDbLine
 10
57.0432830727
 20
-14.0
 30
0.0
 11
60.7432830727
 21
-14.0
 31
0.0
  0
LINE
  5
9D
330
1F
100
AcDbEntity
  8
SK1
  6
SLD-Solid
370
    25
100
AcDbLine
 10
60.7432830727
 20
14.0
 30
0.0
 11
57.0432830727
 21
14.0
 31
0.0
  0
LINE
  5
9E
330
1F
100
AcDbEntity
  8
1
  6
SLD-Solid
370
    25
100
AcDbLine
 10
26.25
 20
31.474895054
 30
0.0
 11
23.8749115524
 21
31.474895054
 31
0.0
  0
LINE
  5
9F
330
1F
100
AcDbEntity
  8
1
  6
SLD-Solid
370
    25
100
AcDbLine
 10
23.8749115472
 20
-31.474895054
 30
0.0
 11
26.25
 21
-31.474895054
 31
0.0
  0
LINE
  5
A0
330
1F
100
AcDbEntity
  8
1
  6
SLD-Solid
370
    25
100
AcDbLine
 10
34.5
 20
24.0
 30
0.0
 11
29.0
 21
24.0
 31
0.0
  0
LINE
  5
A1
330
1F
100
AcDbEntity
  8
1
  6
SLD-Solid
370
    25
100
AcDbLine
 10
29.0
 20
-24.0
 30
0.0
 11
34.5
 21
-24.0
 31
0.0
  0
LINE
  5
A2
330
1F
100
AcDbEntity
  8
1
  6
SLD-Solid
370
    25
100
AcDbLine
 10
0.2
 20
22.225
 30
0.0
 11
0.0
 21
22.225
 31
0.0
  0
LINE
  5
A3
330
1F
100
AcDbEntity
  8
1
  6
SLD-Solid
370
    25
100
AcDbLine
 10
0.0
 20
-22.225
 30
0.0
 11
0.2
 21
-22.225
 31
0.0
  0
LINE
  5
A4
330
1F
100
AcDbEntity
  8
1
  6
SLD-Solid
370
    25
100
AcDbLine
 10
0.2
 20
-22.225
 30
0.0
 11
0.9330363037
 21
-21.8831795579
 31
0.0
  0
LINE
  5
A5
330
1F
100
AcDbEntity
  8
1
  6
SLD-Solid
370
    25
100
AcDbLine
 10
0.9330363037
 20
21.8831795579
 30
0.0
 11
0.2
 21
22.225
 31
0.0
  0
LINE
  5
A6
330
1F
100
AcDbEntity
  8
SK1
  6
SLD-Solid
370
    25
100
AcDbLine
 10
0.0
 20
22.225
 30
0.0
 11
-64.544317822
 21
12.8115589574
 31
0.0
  0
LINE
  5
A7
330
1F
100
AcDbEntity
  8
SK1
  6
SLD-Solid
370
    25
100
AcDbLine
 10
-64.544317822
 20
-12.8115589574
 30
0.0
 11
0.0
 21
-22.225
 31
0.0
  0
LINE
  5
A8
330
1F
100
AcDbEntity
  8
SK1
  6
SLD-Solid
370
    25
100
AcDbLine
 10
36.3360304774
 20
11.0
 30
0.0
 11
35.6605646396
 21
10.7870264394
 31
0.0
  0
LINE
  5
A9
330
1F
100
AcDbEntity
  8
SK1
  6
SLD-Solid
370
    25
100
AcDbLine
 10
35.6605646396
 20
-10.7870264394
 30
0.0
 11
36.3360304774
 21
-11.0
 31
0.0
  0
LINE
  5
AA
330
1F
100
AcDbEntity
  8
SK1
  6
SLD-Solid
370
    25
100
AcDbLine
 10
51.0
 20
11.0
 30
0.0
 11
36.3360304774
 21
11.0
 31
0.0
  0
LINE
  5
AB
330
1F
100
AcDbEntity
  8
SK1
  6
SLD-Solid
370
    25
100
AcDbLine
 10
36.3360304774
 20
-11.0
 30
0.0
 11
51.0
 21
-11.0
 31
0.0
  0
LINE
  5
AC
330
1F
100
AcDbEntity
  8
SK1
  6
SLD-Solid
370
    25
100
AcDbLine
 10
51.0
 20
-11.0
 30
0.0
 11
54.0
 21
-10.4710190579
 31
0.0
  0
LINE
  5
AD
330
1F
100
AcDbEntity
  8
SK1
  6
SLD-Solid
370
    25
100
AcDbLine
 10
54.0
 20
10.4710190579
 30
0.0
 11
51.0
 21
11.0
 31
0.0
  0
LINE
  5
AE
330
1F
100
AcDbEntity
  8
SK1
  6
SLD-Solid
370
    25
100
AcDbLine
 10
65.7432830727
 20
1.2823058013
 30
0.0
 11
65.7432830727
 21
6.5
 31
0.0
  0
LINE
  5
AF
330
1F
100
AcDbEntity
  8
SK1
  6
SLD-Solid
370
    25
100
AcDbLine
 10
65.7432830727
 20
-6.5
 30
0.0
 11
65.7432830727
 21
1.2823058013
 31
0.0
  0
LINE
  5
B0
330
1F
100
AcDbEntity
  8
SK1
  6
SLD-Solid
370
    25
100
AcDbLine
 10
66.7432830727
 20
1.0850279857
 30
0.0
 11
66.7432830727
 21
-5.5
 31
0.0
  0
LINE
  5
B1
330
1F
100
AcDbEntity
  8
SK1
  6
SLD-Solid
370
    25
100
AcDbLine
 10
66.7432830727
 20
5.5
 30
0.0
 11
66.7432830727
 21
1.0850279857
 31
0.0
  0
LINE
  5
B2
330
1F
100
AcDbEntity
  8
SK1
  6
SLD-Solid
370
    25
100
AcDbLine
 10
61.7432830727
 20
0.0
 30
0.0
 11
61.7432830727
 21
13.0
 31
0.0
  0
LINE
  5
B3
330
1F
100
AcDbEntity
  8
SK1
  6
SLD-Solid
370
    25
100
AcDbLine
 10
61.7432830727
 20
-13.0
 30
0.0
 11
61.7432830727
 21
0.0
 31
0.0
  0
LINE
  5
B4
330
1F
100
AcDbEntity
  8
SK1
  6
SLD-Solid
370
    25
100
AcDbLine
 10
60.7432830727
 20
0.0
 30
0.0
 11
60.7432830727
 21
14.0
 31
0.0
  0
LINE
  5
B5
330
1F
100
AcDbEntity
  8
SK1
  6
SLD-Solid
370
    25
100
AcDbLine
 10
60.7432830727
 20
-14.0
 30
0.0
 11
60.7432830727
 21
0.0
 31
0.0
  0
LINE
  5
B6
330
1F
100
AcDbEntity
  8
SK1
  6
SLD-Solid
370
    25
100
AcDbLine
 10
56.7432830727
 20
-13.7
 30
0.0
 11
56.7432830727
 21
13.7
 31
0.0
  0
LINE
  5
B7
330
1F
100
AcDbEntity
  8
SK1
  6
SLD-Solid
370
    25
100
AcDbLine
 10
35.0296155741
 20
-16.9389338274
 30
0.0
 11
35.0
 21
-16.9389338274
 31
0.0
  0
LINE
  5
B8
330
1F
100
AcDbEntity
  8
SK1
  6
SLD-Solid
370
    25
100
AcDbLine
 10
35.0
 20
-18.0610661726
 30
0.0
 11
35.0296155741
 21
-18.0610661726
 31
0.0
  0
LINE
  5
B9
330
1F
100
AcDbEntity
  8
SK1
  6
SLD-Solid
370
    25
100
AcDbLine
 10
39.5896370289
 20
-22.0554515693
 30
0.0
 11
39.5896370289
 21
-22.48
 31
0.0
  0
LINE
  5
BA
330
1F
100
AcDbEntity
  8
SK1
  6
SLD-Solid
370
    25
100
AcDbLine
 10
40.6
 20
-17.9354756021
 30
0.0
 11
40.6
 21
-22.48
 31
0.0
  0
LINE
  5
BB
330
1F
100
AcDbEntity
  8
SK1
  6
SLD-Solid
370
    25
100
AcDbLine
 10
35.0
 20
-22.0554515693
 30
0.0
 11
39.5896370289
 21
-22.0554515693
 31
0.0
  0
LINE
  5
BC
330
1F
100
AcDbEntity
  8
SK1
  6
SLD-Solid
370
    25
100
AcDbLine
 10
39.5896370289
 20
-22.48
 30
0.0
 11
35.0
 21
-22.48
 31
0.0
  0
LINE
  5
BD
330
1F
100
AcDbEntity
  8
SK1
  6
SLD-Solid
370
    25
100
AcDbLine
 10
39.5896370289
 20
-12.52
 30
0.0
 11
39.5896370289
 21
-12.9445484307
 31
0.0
  0
LINE
  5
BE
330
1F
100
AcDbEntity
  8
SK1
  6
SLD-Solid
370
    25
100
AcDbLine
 10
40.6
 20
-12.52
 30
0.0
 11
40.6
 21
-17.0645243979
 31
0.0
  0
LINE
  5
BF
330
1F
100
AcDbEntity
  8
SK1
  6
SLD-Solid
370
    25
100
AcDbLine
 10
39.5896370289
 20
-12.9445484307
 30
0.0
 11
35.0
 21
-12.9445484307
 31
0.0
  0
LINE
  5
C0
330
1F
100
AcDbEntity
  8
SK1
  6
SLD-Solid
370
    25
100
AcDbLine
 10
35.0
 20
-12.52
 30
0.0
 11
39.5896370289
 21
-12.52
 31
0.0
  0
LINE
  5
C1
330
1F
100
AcDbEntity
  8
SK1
  6
SLD-Solid
370
    25
100
AcDbLine
 10
40.6
 20
-17.9354756021
 30
0.0
 11
40.6
 21
-17.0645243979
 31
0.0
  0
LINE
  5
C2
330
1F
100
AcDbEntity
  8
SK1
  6
SLD-Solid
370
    25
100
AcDbLine
 10
35.0296155741
 20
18.0610661726
 30
0.0
 11
35.0
 21
18.0610661726
 31
0.0
  0
LINE
  5
C3
330
1F
100
AcDbEntity
  8
SK1
  6
SLD-Solid
370
    25
100
AcDbLine
 10
35.0
 20
16.9389338274
 30
0.0
 11
35.0296155741
 21
16.9389338274
 31
0.0
  0
LINE
  5
C4
330
1F
100
AcDbEntity
  8
SK1
  6
SLD-Solid
370
    25
100
AcDbLine
 10
39.5896370289
 20
22.48
 30
0.0
 11
39.5896370289
 21
22.0554515693
 31
0.0
  0
LINE
  5
C5
330
1F
100
AcDbEntity
  8
SK1
  6
SLD-Solid
370
    25
100
AcDbLine
 10
39.5896370289
 20
22.0554515693
 30
0.0
 11
35.0
 21
22.0554515693
 31
0.0
  0
LINE
  5
C6
330
1F
100
AcDbEntity
  8
SK1
  6
SLD-Solid
370
    25
100
AcDbLine
 10
35.0
 20
22.48
 30
0.0
 11
39.5896370289
 21
22.48
 31
0.0
  0
LINE
  5
C7
330
1F
100
AcDbEntity
  8
SK1
  6
SLD-Solid
370
    25
100
AcDbLine
 10
40.6
 20
22.48
 30
0.0
 11
40.6
 21
17.9354756021
 31
0.0
  0
LINE
  5
C8
330
1F
100
AcDbEntity
  8
SK1
  6
SLD-Solid
370
    25
100
AcDbLine
 10
39.5896370289
 20
12.9445484307
 30
0.0
 11
39.5896370289
 21
12.52
 31
0.0
  0
LINE
  5
C9
330
1F
100
AcDbEntity
  8
SK1
  6
SLD-Solid
370
    25
100
AcDbLine
 10
40.6
 20
17.0645243979
 30
0.0
 11
40.6
 21
12.52
 31
0.0
  0
LINE
  5
CA
330
1F
100
AcDbEntity
  8
SK1
  6
SLD-Solid
370
    25
100
AcDbLine
 10
35.0
 20
12.9445484307
 30
0.0
 11
39.5896370289
 21
12.9445484307
 31
0.0
  0
LINE
  5
CB
330
1F
100
AcDbEntity
  8
SK1
  6
SLD-Solid
370
    25
100
AcDbLine
 10
40.6
 20
17.0645243979
 30
0.0
 11
40.6
 21
17.9354756021
 31
0.0
  0
LINE
  5
CC
330
1F
100
AcDbEntity
  8
SK1
  6
SLD-Solid
370
    25
100
AcDbLine
 10
39.5896370289
 20
12.52
 30
0.0
 11
35.0
 21
12.52
 31
0.0
  0
LINE
  5
CD
330
1F
100
AcDbEntity
  8
1
  6
SLD-Solid
370
    25
100
AcDbLine
 10
21.6200000025
 20
30.9313908674
 30
0.0
 11
21.6200000025
 21
-30.9313908687
 31
0.0
  0
LINE
  5
CE
330
1F
100
AcDbEntity
  8
1
  6
SLD-Solid
370
    25
100
AcDbLine
 10
19.1
 20
26.1358563468
 30
0.0
 11
19.1
 21
-26.1358563468
 31
0.0
  0
LINE
  5
CF
330
1F
100
AcDbEntity
  8
1
  6
SLD-Solid
370
    25
100
AcDbLine
 10
21.6200000025
 20
30.9313908674
 30
0.0
 11
21.3771985668
 21
30.5697697753
 31
0.0
  0
LINE
  5
D0
330
1F
100
AcDbEntity
  8
1
  6
SLD-Solid
370
    25
100
AcDbLine
 10
21.3771985697
 20
-30.5697697761
 30
0.0
 11
21.6200000025
 21
-30.9313908687
 31
0.0
  0
LINE
  5
D1
330
1F
100
AcDbEntity
  8
1
  6
SLD-Solid
370
    25
100
AcDbLine
 10
2.75
 20
-30.3091903905
 30
0.0
 11
11.58
 21
-30.3091903905
 31
0.0
  0
LINE
  5
D2
330
1F
100
AcDbEntity
  8
1
  6
SLD-Solid
370
    25
100
AcDbLine
 10
11.58
 20
30.2851051865
 30
0.0
 11
2.75
 21
30.2851051865
 31
0.0
  0
LINE
  5
D3
330
1F
100
AcDbEntity
  8
1
  6
SLD-Solid
370
    25
100
AcDbLine
 10
11.58
 20
30.2851051865
 30
0.0
 11
11.58
 21
-30.3091903905
 31
0.0
  0
LINE
  5
D4
330
1F
100
AcDbEntity
  8
1
  6
SLD-Solid
370
    25
100
AcDbLine
 10
2.0
 20
-29.5495194269
 30
0.0
 11
2.0
 21
29.5343575532
 31
0.0
  0
LINE
  5
D5
330
1F
100
AcDbEntity
  8
1
  6
SLD-Solid
370
    25
100
AcDbLine
 10
27.0
 20
0.0
 30
0.0
 11
27.0
 21
-30.724895054
 31
0.0
  0
LINE
  5
D6
330
1F
100
AcDbEntity
  8
1
  6
SLD-Solid
370
    25
100
AcDbLine
 10
27.0
 20
30.724895054
 30
0.0
 11
27.0
 21
0.0
 31
0.0
  0
LINE
  5
D7
330
1F
100
AcDbEntity
  8
1
  6
SLD-Solid
370
    25
100
AcDbLine
 10
14.1
 20
25.873344623
 30
0.0
 11
14.1
 21
-25.873344623
 31
0.0
  0
LINE
  5
D8
330
1F
100
AcDbEntity
  8
1
  6
SLD-Solid
370
    25
100
AcDbLine
 10
14.475
 20
25.2333306363
 30
0.0
 11
15.405
 21
25.2333306363
 31
0.0
  0
LINE
  5
D9
330
1F
100
AcDbEntity
  8
1
  6
SLD-Solid
370
    25
100
AcDbLine
 10
35.0
 20
0.0
 30
0.0
 11
35.0
 21
-23.5
 31
0.0
  0
LINE
  5
DA
330
1F
100
AcDbEntity
  8
1
  6
SLD-Solid
370
    25
100
AcDbLine
 10
35.0
 20
23.5
 30
0.0
 11
35.0
 21
0.0
 31
0.0
  0
LINE
  5
DB
330
1F
100
AcDbEntity
  8
1
  6
SLD-Solid
370
    25
100
AcDbLine
 10
0.0
 20
22.225
 30
0.0
 11
0.0
 21
-22.225
 31
0.0
  0
LINE
  5
DC
330
1F
100
AcDbEntity
  8
1
  6
SLD-Solid
370
    25
100
AcDbLine
 10
14.475
 20
-25.2333306363
 30
0.0
 11
15.405
 21
-25.2333306363
 31
0.0
  0
LINE
  5
DD
330
1F
100
AcDbEntity
  8
SK1
  6
SLD-Solid
370
    25
100
AcDbLine
 10
-65.4
 20
-11.8220275702
 30
0.0
 11
-65.4
 21
11.8220275702
 31
0.0
  0
LINE
  5
DE
330
1F
100
AcDbEntity
  8
SK1
  6
SLD-Solid
370
    25
100
AcDbLine
 10
36.3360304774
 20
11.0
 30
0.0
 11
36.3360304774
 21
-11.0
 31
0.0
  0
LINE
  5
DF
330
1F
100
AcDbEntity
  8
SK1
  6
SLD-Solid
370
    25
100
AcDbLine
 10
51.0
 20
11.0
 30
0.0
 11
51.0
 21
-11.0
 31
0.0
  0
LINE
  5
E0
330
1F
100
AcDbEntity
  8
SK1
  6
SLD-Solid
370
    25
100
AcDbLine
 10
54.0
 20
10.4710190579
 30
0.0
 11
54.0
 21
-10.4710190579
 31
0.0
  0
LINE
  5
E1
330
1F
100
AcDbEntity
  8
1
  6
SLD-Solid
370
    25
100
AcDbLine
 10
21.3771985668
 20
30.5697697753
 30
0.0
 11
21.6200000025
 21
30.9313908674
 31
0.0
  0
LINE
  5
E2
330
1F
100
AcDbEntity
  8
1
  6
SLD-Solid
370
    25
100
AcDbLine
 10
21.6200000025
 20
-30.9313908687
 30
0.0
 11
21.3771985697
 21
-30.5697697761
 31
0.0
  0
LINE
  5
E3
330
1F
100
AcDbEntity
  8
SK1
  6
SLD-Solid
370
    25
100
AcDbLine
 10
62.0432830727
 20
6.5
 30
0.0
 11
62.0432830727
 21
-6.5
 31
0.0
  0
LINE
  5
E4
330
1F
100
AcDbEntity
  8
SK1
  6
SLD-Solid
370
    25
100
AcDbLine
 10
35.0296155741
 20
-14.9658993915
 30
0.0
 11
35.0296155741
 21
-16.9389338274
 31
0.0
  0
LINE
  5
E5
330
1F
100
AcDbEntity
  8
SK1
  6
SLD-Solid
370
    25
100
AcDbLine
 10
35.0296155741
 20
-18.0610661726
 30
0.0
 11
35.0296155741
 21
-20.0518049564
 31
0.0
  0
LINE
  5
E6
330
1F
100
AcDbEntity
  8
SK1
  6
SLD-Solid
370
    25
100
AcDbLine
 10
35.0296155741
 20
20.0341006085
 30
0.0
 11
35.0296155741
 21
18.0610661726
 31
0.0
  0
LINE
  5
E7
330
1F
100
AcDbEntity
  8
SK1
  6
SLD-Solid
370
    25
100
AcDbLine
 10
35.0296155741
 20
16.9389338274
 30
0.0
 11
35.0296155741
 21
14.9481950436
 31
0.0
  0
LINE
  5
E8
330
1F
100
AcDbEntity
  8
SK3
  6
SLD-Dashed
370
    18
100
AcDbLine
 10
-63.65
 20
-8.505
 30
0.0
 11
-63.65
 21
8.505
 31
0.0
  0
LINE
  5
E9
330
1F
100
AcDbEntity
  8
SK3
  6
SLD-Dashed
370
    18
100
AcDbLine
 10
-65.4
 20
-9.5014078715
 30
0.0
 11
-65.4
 21
9.5014078715
 31
0.0
  0
LINE
  5
EA
330
1F
100
AcDbEntity
  8
SK3
  6
SLD-Dashed
370
    18
100
AcDbLine
 10
-59.15
 20
-8.8
 30
0.0
 11
-59.15
 21
8.8
 31
0.0
  0
LINE
  5
EB
330
1F
100
AcDbEntity
  8
SK3
  6
SLD-Dashed
370
    18
100
AcDbLine
 10
-59.6609549882
 20
-8.505
 30
0.0
 11
-59.6609549882
 21
8.505
 31
0.0
  0
LINE
  5
EC
330
1F
100
AcDbEntity
  8
SK3
  6
SLD-Dashed
370
    18
100
AcDbLine
 10
-56.15
 20
-8.8
 30
0.0
 11
-56.15
 21
8.8
 31
0.0
  0
LINE
  5
ED
330
1F
100
AcDbEntity
  8
SK3
  6
SLD-Dashed
370
    18
100
AcDbLine
 10
-55.1107695155
 20
-7.0
 30
0.0
 11
-55.1107695155
 21
7.0
 31
0.0
  0
LINE
  5
EE
330
1F
100
AcDbEntity
  8
SK3
  6
SLD-Dashed
370
    18
100
AcDbLine
 10
2.375
 20
22.875
 30
0.0
 11
2.375
 21
29.5343575532
 31
0.0
  0
LINE
  5
EF
330
1F
100
AcDbEntity
  8
SK3
  6
SLD-Dashed
370
    18
100
AcDbLine
 10
2.75
 20
29.9242806492
 30
0.0
 11
11.8542590336
 21
29.9242806492
 31
0.0
  0
LINE
  5
F0
330
1F
100
AcDbEntity
  8
1
  6
SLD-Dashed
370
    18
100
AcDbLine
 10
14.1
 20
25.873344623
 30
0.0
 11
14.1
 21
25.6268726145
 31
0.0
  0
LINE
  5
F1
330
1F
100
AcDbEntity
  8
SK3
  6
SLD-Dashed
370
    18
100
AcDbLine
 10
2.2582265122
 20
-29.5495194269
 30
0.0
 11
2.2582265122
 21
-22.875
 31
0.0
  0
LINE
  5
F2
330
1F
100
AcDbEntity
  8
SK3
  6
SLD-Dashed
370
    18
100
AcDbLine
 10
11.778314401
 20
-30.0605275591
 30
0.0
 11
2.75
 21
-30.0605275591
 31
0.0
  0
LINE
  5
F3
330
1F
100
AcDbEntity
  8
1
  6
SLD-Dashed
370
    18
100
AcDbLine
 10
14.1
 20
-25.873344623
 30
0.0
 11
14.1
 21
-25.6268726145
 31
0.0
  0
LINE
  5
F4
330
1F
100
AcDbEntity
  8
SK3
  6
SLD-Dashed
370
    18
100
AcDbLine
 10
15.405
 20
22.5000000001
 30
0.0
 11
23.125
 21
22.5000000001
 31
0.0
  0
LINE
  5
F5
330
1F
100
AcDbEntity
  8
SK3
  6
SLD-Dashed
370
    18
100
AcDbLine
 10
15.405
 20
22.875
 30
0.0
 11
23.4863045412
 21
22.875
 31
0.0
  0
LINE
  5
F6
330
1F
100
AcDbEntity
  8
1
  6
SLD-Dashed
370
    18
100
AcDbLine
 10
19.1
 20
-26.1358563468
 30
0.0
 11
19.1
 21
-25.8918833807
 31
0.0
  0
LINE
  5
F7
330
1F
100
AcDbEntity
  8
SK3
  6
SLD-Dashed
370
    18
100
AcDbLine
 10
15.405
 20
-25.2333306363
 30
0.0
 11
15.405
 21
-22.875
 31
0.0
  0
LINE
  5
F8
330
1F
100
AcDbEntity
  8
SK3
  6
SLD-Dashed
370
    18
100
AcDbLine
 10
15.405
 20
-22.875
 30
0.0
 11
23.4863045412
 21
-22.875
 31
0.0
  0
LINE
  5
F9
330
1F
100
AcDbEntity
  8
SK3
  6
SLD-Dashed
370
    18
100
AcDbLine
 10
15.405
 20
-22.5
 30
0.0
 11
23.125
 21
-22.5
 31
0.0
  0
LINE
  5
FA
330
1F
100
AcDbEntity
  8
SK3
  6
SLD-Dashed
370
    18
100
AcDbLine
 10
2.375
 20
22.5000000001
 30
0.0
 11
15.405
 21
22.5000000001
 31
0.0
  0
LINE
  5
FB
330
1F
100
AcDbEntity
  8
SK3
  6
SLD-Dashed
370
    18
100
AcDbLine
 10
15.405
 20
22.875
 30
0.0
 11
2.375
 21
22.875
 31
0.0
  0
LINE
  5
FC
330
1F
100
AcDbEntity
  8
SK3
  6
SLD-Dashed
370
    18
100
AcDbLine
 10
15.405
 20
-22.5
 30
0.0
 11
2.2582265122
 21
-22.5
 31
0.0
  0
LINE
  5
FD
330
1F
100
AcDbEntity
  8
SK3
  6
SLD-Dashed
370
    18
100
AcDbLine
 10
2.2582265122
 20
-22.875
 30
0.0
 11
15.405
 21
-22.875
 31
0.0
  0
LINE
  5
FE
330
1F
100
AcDbEntity
  8
SK3
  6
SLD-Dashed
370
    18
100
AcDbLine
 10
15.405
 20
25.2333306363
 30
0.0
 11
15.405
 21
22.875
 31
0.0
  0
LINE
  5
FF
330
1F
100
AcDbEntity
  8
1
  6
SLD-Dashed
370
    18
100
AcDbLine
 10
19.1
 20
26.1358563468
 30
0.0
 11
19.1
 21
25.8918833807
 31
0.0
  0
LINE
  5
100
330
1F
100
AcDbEntity
  8
SK3
  6
SLD-Dashed
370
    18
100
AcDbLine
 10
16.0
 20
-4.2336563956
 30
0.0
 11
22.6
 21
-4.2336563956
 31
0.0
  0
LINE
  5
101
330
1F
100
AcDbEntity
  8
SK3
  6
SLD-Dashed
370
    18
100
AcDbLine
 10
22.6
 20
-5.5745989563
 30
0.0
 11
16.0
 21
-5.5745989563
 31
0.0
  0
LINE
  5
102
330
1F
100
AcDbEntity
  8
SK3
  6
SLD-Dashed
370
    18
100
AcDbLine
 10
22.6
 20
-5.5745989563
 30
0.0
 11
22.6
 21
-7.0
 31
0.0
  0
LINE
  5
103
330
1F
100
AcDbEntity
  8
SK3
  6
SLD-Dashed
370
    18
100
AcDbLine
 10
22.6
 20
-4.2336563956
 30
0.0
 11
22.6
 21
4.2336563956
 31
0.0
  0
LINE
  5
104
330
1F
100
AcDbEntity
  8
SK3
  6
SLD-Dashed
370
    18
100
AcDbLine
 10
16.0
 20
4.2336563956
 30
0.0
 11
22.6
 21
4.2336563956
 31
0.0
  0
LINE
  5
105
330
1F
100
AcDbEntity
  8
SK3
  6
SLD-Dashed
370
    18
100
AcDbLine
 10
22.6
 20
5.5745989563
 30
0.0
 11
16.0
 21
5.5745989563
 31
0.0
  0
LINE
  5
106
330
1F
100
AcDbEntity
  8
SK3
  6
SLD-Dashed
370
    18
100
AcDbLine
 10
22.6
 20
5.5745989563
 30
0.0
 11
22.6
 21
7.0
 31
0.0
  0
LINE
  5
107
330
1F
100
AcDbEntity
  8
SK3
  6
SLD-Dashed
370
    18
100
AcDbLine
 10
22.6
 20
4.2336563956
 30
0.0
 11
22.6
 21
-4.2336563956
 31
0.0
  0
LINE
  5
108
330
1F
100
AcDbEntity
  8
SK3
  6
SLD-Dashed
370
    18
100
AcDbLine
 10
24.2523667023
 20
4.25
 30
0.0
 11
24.2523667023
 21
-4.25
 31
0.0
  0
LINE
  5
109
330
1F
100
AcDbEntity
  8
SK3
  6
SLD-Dashed
370
    18
100
AcDbLine
 10
52.5
 20
4.25
 30
0.0
 11
52.5
 21
-4.25
 31
0.0
  0
LINE
  5
10A
330
1F
100
AcDbEntity
  8
SK1
  6
SLD-Dashed
370
    18
100
AcDbLine
 10
54.0
 20
-5.1126122391
 30
0.0
 11
54.0
 21
5.1126122391
 31
0.0
  0
LINE
  5
10B
330
1F
100
AcDbEntity
  8
SK3
  6
SLD-Dashed
370
    18
100
AcDbLine
 10
19.5
 20
18.1
 30
0.0
 11
9.5
 21
18.1
 31
0.0
  0
LINE
  5
10C
330
1F
100
AcDbEntity
  8
SK3
  6
SLD-Dashed
370
    18
100
AcDbLine
 10
9.5
 20
22.5
 30
0.0
 11
19.5
 21
22.5
 31
0.0
  0
LINE
  5
10D
330
1F
100
AcDbEntity
  8
SK3
  6
SLD-Dashed
370
    18
100
AcDbLine
 10
9.8000000823
 20
17.8
 30
0.0
 11
19.2
 21
17.8
 31
0.0
  0
LINE
  5
10E
330
1F
100
AcDbEntity
  8
SK3
  6
SLD-Dashed
370
    18
100
AcDbLine
 10
15.405
 20
-22.875
 30
0.0
 11
2.375
 21
-22.875
 31
0.0
  0
LINE
  5
10F
330
1F
100
AcDbEntity
  8
SK3
  6
SLD-Dashed
370
    18
100
AcDbLine
 10
2.375
 20
-22.5
 30
0.0
 11
15.405
 21
-22.5
 31
0.0
  0
LINE
  5
110
330
1F
100
AcDbEntity
  8
1
  6
SLD-Dashed
370
    18
100
AcDbLine
 10
15.405
 20
25.2333306363
 30
0.0
 11
14.475
 21
25.2333306363
 31
0.0
  0
LINE
  5
111
330
1F
100
AcDbEntity
  8
1
  6
SLD-Dashed
370
    18
100
AcDbLine
 10
15.405
 20
-25.2333306363
 30
0.0
 11
14.475
 21
-25.2333306363
 31
0.0
  0
LINE
  5
112
330
1F
100
AcDbEntity
  8
SK3
  6
SLD-Dashed
370
    18
100
AcDbLine
 10
-65.4
 20
-9.5153629711
 30
0.0
 11
-63.65
 21
-8.505
 31
0.0
  0
LINE
  5
113
330
1F
100
AcDbEntity
  8
SK3
  6
SLD-Dashed
370
    18
100
AcDbLine
 10
-63.65
 20
8.505
 30
0.0
 11
-65.4
 21
9.5153629711
 31
0.0
  0
LINE
  5
114
330
1F
100
AcDbEntity
  8
SK3
  6
SLD-Dashed
370
    18
100
AcDbLine
 10
-59.15
 20
8.8
 30
0.0
 11
-59.6609549882
 21
8.505
 31
0.0
  0
LINE
  5
115
330
1F
100
AcDbEntity
  8
SK3
  6
SLD-Dashed
370
    18
100
AcDbLine
 10
-59.6609549882
 20
-8.505
 30
0.0
 11
-59.15
 21
-8.8
 31
0.0
  0
LINE
  5
116
330
1F
100
AcDbEntity
  8
SK3
  6
SLD-Dashed
370
    18
100
AcDbLine
 10
-56.15
 20
-8.8
 30
0.0
 11
-55.1107695155
 21
-7.0
 31
0.0
  0
LINE
  5
117
330
1F
100
AcDbEntity
  8
SK3
  6
SLD-Dashed
370
    18
100
AcDbLine
 10
-55.1107695155
 20
7.0
 30
0.0
 11
-56.15
 21
8.8
 31
0.0
  0
LINE
  5
118
330
1F
100
AcDbEntity
  8
SK3
  6
SLD-Dashed
370
    18
100
AcDbLine
 10
-59.15
 20
-8.8
 30
0.0
 11
-56.15
 21
-8.8
 31
0.0
  0
LINE
  5
119
330
1F
100
AcDbEntity
  8
SK3
  6
SLD-Dashed
370
    18
100
AcDbLine
 10
-56.15
 20
8.8
 30
0.0
 11
-59.15
 21
8.8
 31
0.0
  0
LINE
  5
11A
330
1F
100
AcDbEntity
  8
SK3
  6
SLD-Dashed
370
    18
100
AcDbLine
 10
-63.65
 20
-8.505
 30
0.0
 11
-59.6609549882
 21
-8.505
 31
0.0
  0
LINE
  5
11B
330
1F
100
AcDbEntity
  8
SK3
  6
SLD-Dashed
370
    18
100
AcDbLine
 10
-59.6609549882
 20
8.505
 30
0.0
 11
-63.65
 21
8.505
 31
0.0
  0
LINE
  5
11C
330
1F
100
AcDbEntity
  8
SK3
  6
SLD-Dashed
370
    18
100
AcDbLine
 10
23.5
 20
-31.100089382
 30
0.0
 11
23.5
 21
-22.875
 31
0.0
  0
LINE
  5
11D
330
1F
100
AcDbEntity
  8
SK3
  6
SLD-Dashed
370
    18
100
AcDbLine
 10
23.5
 20
22.875
 30
0.0
 11
23.5
 21
31.1000827301
 31
0.0
  0
LINE
  5
11E
330
1F
100
AcDbEntity
  8
SK3
  6
SLD-Dashed
370
    18
100
AcDbLine
 10
-55.1107695155
 20
-7.0
 30
0.0
 11
22.6
 21
-7.0
 31
0.0
  0
LINE
  5
11F
330
1F
100
AcDbEntity
  8
SK3
  6
SLD-Dashed
370
    18
100
AcDbLine
 10
22.6
 20
7.0
 30
0.0
 11
-55.1107695155
 21
7.0
 31
0.0
  0
LINE
  5
120
330
1F
100
AcDbEntity
  8
SK3
  6
SLD-Dashed
370
    18
100
AcDbLine
 10
22.6
 20
-7.0
 30
0.0
 11
24.2523667023
 21
-4.25
 31
0.0
  0
LINE
  5
121
330
1F
100
AcDbEntity
  8
SK3
  6
SLD-Dashed
370
    18
100
AcDbLine
 10
24.2523667023
 20
4.25
 30
0.0
 11
22.6
 21
7.0
 31
0.0
  0
LINE
  5
122
330
1F
100
AcDbEntity
  8
SK3
  6
SLD-Dashed
370
    18
100
AcDbLine
 10
54.0
 20
5.1160254038
 30
0.0
 11
52.5
 21
4.25
 31
0.0
  0
LINE
  5
123
330
1F
100
AcDbEntity
  8
SK3
  6
SLD-Dashed
370
    18
100
AcDbLine
 10
52.5
 20
-4.25
 30
0.0
 11
54.0
 21
-5.1160254038
 31
0.0
  0
LINE
  5
124
330
1F
100
AcDbEntity
  8
SK3
  6
SLD-Dashed
370
    18
100
AcDbLine
 10
9.5
 20
22.5
 30
0.0
 11
9.5
 21
18.1
 31
0.0
  0
LINE
  5
125
330
1F
100
AcDbEntity
  8
SK3
  6
SLD-Dashed
370
    18
100
AcDbLine
 10
19.5
 20
18.1
 30
0.0
 11
19.5
 21
22.5
 31
0.0
  0
LINE
  5
126
330
1F
100
AcDbEntity
  8
SK3
  6
SLD-Dashed
370
    18
100
AcDbLine
 10
52.5
 20
4.25
 30
0.0
 11
24.2523667023
 21
4.25
 31
0.0
  0
LINE
  5
127
330
1F
100
AcDbEntity
  8
SK3
  6
SLD-Dashed
370
    18
100
AcDbLine
 10
24.2523667023
 20
-4.25
 30
0.0
 11
52.5
 21
-4.25
 31
0.0
  0
LINE
  5
128
330
1F
100
AcDbEntity
  8
SK3
  6
SLD-Solid
370
    18
100
AcDbLine
 10
-34.4000011683
 20
8.00000038
 30
0.0
 11
-55.6881204247
 21
8.00000038
 31
0.0
  0
LINE
  5
129
330
1F
100
AcDbEntity
  8
SK3
  6
SLD-Solid
370
    18
100
AcDbLine
 10
-55.6881204247
 20
-8.00000038
 30
0.0
 11
-34.4000011683
 21
-8.00000038
 31
0.0
  0
LINE
  5
12A
330
1F
100
AcDbEntity
  8
SK3
  6
SLD-Solid
370
    18
100
AcDbLine
 10
-34.4000011683
 20
0.0
 30
0.0
 11
-34.4000011683
 21
-1.1385186808
 31
0.0
  0
LINE
  5
12B
330
1F
100
AcDbEntity
  8
SK3
  6
SLD-Solid
370
    18
100
AcDbLine
 10
-34.4000011683
 20
-1.1385186808
 30
0.0
 11
-34.4000011683
 21
-2.253860468
 31
0.0
  0
LINE
  5
12C
330
1F
100
AcDbEntity
  8
SK3
  6
SLD-Solid
370
    18
100
AcDbLine
 10
-34.4000011683
 20
-2.253860468
 30
0.0
 11
-34.4000011683
 21
-3.3233200666
 31
0.0
  0
LINE
  5
12D
330
1F
100
AcDbEntity
  8
SK3
  6
SLD-Solid
370
    18
100
AcDbLine
 10
-34.4000011683
 20
-3.3233200666
 30
0.0
 11
-34.4000011683
 21
-4.3251267634
 31
0.0
  0
LINE
  5
12E
330
1F
100
AcDbEntity
  8
SK3
  6
SLD-Solid
370
    18
100
AcDbLine
 10
-34.4000011683
 20
-4.3251267634
 30
0.0
 11
-34.4000011683
 21
-5.2388859913
 31
0.0
  0
LINE
  5
12F
330
1F
100
AcDbEntity
  8
SK3
  6
SLD-Solid
370
    18
100
AcDbLine
 10
-34.4000011683
 20
-5.2388859913
 30
0.0
 11
-34.4000011683
 21
-6.0459966771
 31
0.0
  0
LINE
  5
130
330
1F
100
AcDbEntity
  8
SK3
  6
SLD-Solid
370
    18
100
AcDbLine
 10
-34.4000011683
 20
-6.0459966771
 30
0.0
 11
-34.4000011683
 21
-6.7300284281
 31
0.0
  0
LINE
  5
131
330
1F
100
AcDbEntity
  8
SK3
  6
SLD-Solid
370
    18
100
AcDbLine
 10
-34.4000011683
 20
-6.7300284281
 30
0.0
 11
-34.4000011683
 21
-7.2770561092
 31
0.0
  0
LINE
  5
132
330
1F
100
AcDbEntity
  8
SK3
  6
SLD-Solid
370
    18
100
AcDbLine
 10
-34.4000011683
 20
-7.2770561092
 30
0.0
 11
-34.4000011683
 21
-7.6759438962
 31
0.0
  0
LINE
  5
133
330
1F
100
AcDbEntity
  8
SK3
  6
SLD-Solid
370
    18
100
AcDbLine
 10
-34.4000011683
 20
-7.6759438962
 30
0.0
 11
-34.4000011683
 21
-7.918571122
 31
0.0
  0
LINE
  5
134
330
1F
100
AcDbEntity
  8
SK3
  6
SLD-Solid
370
    18
100
AcDbLine
 10
-34.4000011683
 20
-7.918571122
 30
0.0
 11
-34.4000011683
 21
-8.00000038
 31
0.0
  0
LINE
  5
135
330
1F
100
AcDbEntity
  8
SK3
  6
SLD-Solid
370
    18
100
AcDbLine
 10
-34.4000011683
 20
8.00000038
 30
0.0
 11
-34.4000011683
 21
7.918571122
 31
0.0
  0
LINE
  5
136
330
1F
100
AcDbEntity
  8
SK3
  6
SLD-Solid
370
    18
100
AcDbLine
 10
-34.4000011683
 20
7.918571122
 30
0.0
 11
-34.4000011683
 21
7.6759438962
 31
0.0
  0
LINE
  5
137
330
1F
100
AcDbEntity
  8
SK3
  6
SLD-Solid
370
    18
100
AcDbLine
 10
-34.4000011683
 20
7.6759438962
 30
0.0
 11
-34.4000011683
 21
7.2770561092
 31
0.0
  0
LINE
  5
138
330
1F
100
AcDbEntity
  8
SK3
  6
SLD-Solid
370
    18
100
AcDbLine
 10
-34.4000011683
 20
7.2770561092
 30
0.0
 11
-34.4000011683
 21
6.7300284281
 31
0.0
  0
LINE
  5
139
330
1F
100
AcDbEntity
  8
SK3
  6
SLD-Solid
370
    18
100
AcDbLine
 10
-34.4000011683
 20
6.7300284281
 30
0.0
 11
-34.4000011683
 21
6.0459966771
 31
0.0
  0
LINE
  5
13A
330
1F
100
AcDbEntity
  8
SK3
  6
SLD-Solid
370
    18
100
AcDbLine
 10
-34.4000011683
 20
6.0459966771
 30
0.0
 11
-34.4000011683
 21
5.2388859913
 31
0.0
  0
LINE
  5
13B
330
1F
100
AcDbEntity
  8
SK3
  6
SLD-Solid
370
    18
100
AcDbLine
 10
-34.4000011683
 20
5.2388859913
 30
0.0
 11
-34.4000011683
 21
4.3251267634
 31
0.0
  0
LINE
  5
13C
330
1F
100
AcDbEntity
  8
SK3
  6
SLD-Solid
370
    18
100
AcDbLine
 10
-34.4000011683
 20
4.3251267634
 30
0.0
 11
-34.4000011683
 21
3.3233200666
 31
0.0
  0
LINE
  5
13D
330
1F
100
AcDbEntity
  8
SK3
  6
SLD-Solid
370
    18
100
AcDbLine
 10
-34.4000011683
 20
3.3233200666
 30
0.0
 11
-34.4000011683
 21
2.253860468
 31
0.0
  0
LINE
  5
13E
330
1F
100
AcDbEntity
  8
SK3
  6
SLD-Solid
370
    18
100
AcDbLine
 10
-34.4000011683
 20
2.253860468
 30
0.0
 11
-34.4000011683
 21
1.1385186808
 31
0.0
  0
LINE
  5
13F
330
1F
100
AcDbEntity
  8
SK3
  6
SLD-Solid
370
    18
100
AcDbLine
 10
-34.4000011683
 20
1.1385186808
 30
0.0
 11
-34.4000011683
 21
0.0
 31
0.0
  0
LINE
  5
140
330
1F
100
AcDbEntity
  8
SK3
  6
SLD-Solid
370
    18
100
AcDbLine
 10
27.0000007004
 20
-4.9999998882
 30
0.0
 11
53.7990368903
 21
-4.9999998882
 31
0.0
  0
LINE
  5
141
330
1F
100
AcDbEntity
  8
SK3
  6
SLD-Solid
370
    18
100
AcDbLine
 10
53.7990368903
 20
4.9999998882
 30
0.0
 11
27.0000007004
 21
4.9999998882
 31
0.0
  0
LINE
  5
142
330
1F
100
AcDbEntity
  8
SK1
  6
SLD-Solid
370
    18
100
AcDbLine
 10
56.7432828248
 20
4.250000231
 30
0.0
 11
54.0000014007
 21
4.250000231
 31
0.0
  0
LINE
  5
143
330
1F
100
AcDbEntity
  8
SK1
  6
SLD-Solid
370
    18
100
AcDbLine
 10
54.0000014007
 20
-4.250000231
 30
0.0
 11
56.7432828248
 21
-4.250000231
 31
0.0
  0
LINE
  5
144
330
1F
100
AcDbEntity
  8
4
  6
SLD-Center
370
    18
100
AcDbLine
 10
56.0
 20
0.0
 30
0.0
 11
0.2760877814
 21
0.0
 31
0.0
  0
LINE
  5
145
330
1F
100
AcDbEntity
  8
SK4
  6
SLD-Center
370
    18
100
AcDbLine
 10
55.4398927285
 20
0.0
 30
0.0
 11
-68.0091202794
 21
0.0
 31
0.0
  0
ARC
  5
146
330
1F
100
AcDbEntity
  8
SK1
  6
SLD-Solid
370
    25
100
AcDbCircle
 10
62.0432830727
 20
6.2
 30
0.0
 40
0.2999999999999972
100
AcDbArc
 50
90.0
 51
180.0
  0
ARC
  5
147
330
1F
100
AcDbEntity
  8
SK1
  6
SLD-Solid
370
    25
100
AcDbCircle
 10
62.0432830727
 20
-6.2
 30
0.0
 40
0.2999999999999972
100
AcDbArc
 50
180.0
 51
270.0
  0
ARC
  5
148
330
1F
100
AcDbEntity
  8
1
  6
SLD-Solid
370
    25
100
AcDbCircle
 10
26.25
 20
-30.724895054
 30
0.0
 40
0.75
100
AcDbArc
 50
270.0
 51
0.0
  0
ARC
  5
149
330
1F
100
AcDbEntity
  8
1
  6
SLD-Solid
370
    25
100
AcDbCircle
 10
26.25
 20
30.724895054
 30
0.0
 40
0.75
100
AcDbArc
 50
0.0
 51
90.0
  0
ARC
  5
14A
330
1F
100
AcDbEntity
  8
1
  6
SLD-Solid
370
    25
100
AcDbCircle
 10
29.0
 20
-26.0
 30
0.0
 40
2.000000000000004
100
AcDbArc
 50
90.0
 51
180.0
  0
ARC
  5
14B
330
1F
100
AcDbEntity
  8
1
  6
SLD-Solid
370
    25
100
AcDbCircle
 10
29.0
 20
26.0
 30
0.0
 40
2.000000000000004
100
AcDbArc
 50
180.0
 51
270.0
  0
ARC
  5
14C
330
1F
100
AcDbEntity
  8
1
  6
SLD-Solid
370
    25
100
AcDbCircle
 10
34.5
 20
-23.5
 30
0.0
 40
0.5000000000000142
100
AcDbArc
 50
270.0
 51
0.0
  0
ARC
  5
14D
330
1F
100
AcDbEntity
  8
1
  6
SLD-Solid
370
    25
100
AcDbCircle
 10
34.5
 20
23.5
 30
0.0
 40
0.5
100
AcDbArc
 50
0.0
 51
90.0
  0
ARC
  5
14E
330
1F
100
AcDbEntity
  8
1
  6
SLD-Solid
370
    25
100
AcDbCircle
 10
1.25
 20
22.5629103982
 30
0.0
 40
0.7500000000000007
100
AcDbArc
 50
245.0
 51
0.0
  0
ARC
  5
14F
330
1F
100
AcDbEntity
  8
1
  6
SLD-Solid
370
    25
100
AcDbCircle
 10
1.25
 20
-22.5629103982
 30
0.0
 40
0.7500000000000044
100
AcDbArc
 50
0.0
 51
115.0
  0
ARC
  5
150
330
1F
100
AcDbEntity
  8
SK1
  6
SLD-Solid
370
    25
100
AcDbCircle
 10
-64.4
 20
11.8220275702
 30
0.0
 40
1.000000000000002
100
AcDbArc
 50
98.2977777777
 51
180.0
  0
ARC
  5
151
330
1F
100
AcDbEntity
  8
SK1
  6
SLD-Solid
370
    25
100
AcDbCircle
 10
-64.4
 20
-11.8220275702
 30
0.0
 40
1.000000000000014
100
AcDbArc
 50
180.0
 51
261.7022222223
  0
ARC
  5
152
330
1F
100
AcDbEntity
  8
SK1
  6
SLD-Solid
370
    25
100
AcDbCircle
 10
35.42
 20
11.55
 30
0.0
 40
0.7999999999999996
100
AcDbArc
 50
238.3317567465
 51
287.5
  0
ARC
  5
153
330
1F
100
AcDbEntity
  8
SK1
  6
SLD-Solid
370
    25
100
AcDbCircle
 10
35.42
 20
-11.55
 30
0.0
 40
0.8000000000000123
100
AcDbArc
 50
72.5
 51
121.6682432535
  0
ARC
  5
154
330
1F
100
AcDbEntity
  8
SK3
  6
SLD-Dashed
370
    18
100
AcDbCircle
 10
19.2
 20
18.1
 30
0.0
 40
0.3000000000000078
100
AcDbArc
 50
270.0
 51
0.0
  0
ARC
  5
155
330
1F
100
AcDbEntity
  8
SK3
  6
SLD-Dashed
370
    18
100
AcDbCircle
 10
9.8
 20
18.1
 30
0.0
 40
0.300000000000012
100
AcDbArc
 50
180.0
 51
270.0000157114
  0
SPLINE
  5
156
330
1F
100
AcDbEntity
  8
SK1
  6
SLD-Solid
370
    25
100
AcDbSpline
210
0.0
220
0.0
230
1.0
 70
     8
 71
     3
 72
    20
 73
    16
 74
     0
 42
0.000000001
 43
0.00000001
 40
0.0
 40
0.0
 40
0.0
 40
0.0
 40
0.0035578209436584
 40
0.0098478565722503
 40
0.0205255659347109
 40
0.0549045177515122
 40
0.2160623218955902
 40
0.5912478141841706
 40
0.7047699999641506
 40
0.8383002263636424
 40
0.9051645636732499
 40
0.9354898920268365
 40
0.9660967374665593
 40
0.985886142629689
 40
1.0
 40
1.0
 40
1.0
 40
1.0
 10
35.02961557408114
 20
-18.0610661725679
 30
0.0
 10
35.03218233188068
 20
-18.06125545221017
 30
0.0
 10
35.03928697909755
 20
-18.06177936805603
 30
0.0
 10
35.05297573992225
 20
-18.06832695373815
 30
0.0
 10
35.07995685462573
 20
-18.09416858352145
 30
0.0
 10
35.14844663246491
 20
-18.22840662670766
 30
0.0
 10
35.25098958149303
 20
-18.62675388342748
 30
0.0
 10
35.32615795144017
 20
-19.09318550215512
 30
0.0
 10
35.30922027395115
 20
-19.54134724027302
 30
0.0
 10
35.26705242560443
 20
-19.76570163180435
 30
0.0
 10
35.19349722025478
 20
-19.91723235380248
 30
0.0
 10
35.13168360558805
 20
-19.98636990496101
 30
0.0
 10
35.08102434911181
 20
-20.01740469237797
 30
0.0
 10
35.0342822548978
 20
-20.02624619600011
 30
0.0
 10
35.01007671549086
 20
-20.0223325620918
 30
0.0
 10
35.0
 20
-20.02070332447117
 30
0.0
  0
SPLINE
  5
157
330
1F
100
AcDbEntity
  8
SK1
  6
SLD-Solid
370
    25
100
AcDbSpline
210
0.0
220
0.0
230
1.0
 70
     8
 71
     3
 72
    10
 73
     6
 74
     0
 42
0.000000001
 43
0.00000001
 40
0.0
 40
0.0
 40
0.0
 40
0.0
 40
0.4469301939747626
 40
0.9007442175022089
 40
1.0
 40
1.0
 40
1.0
 40
1.0
 10
39.58963702891817
 20
-22.0554515692739
 30
0.0
 10
39.80792406518071
 20
-21.45978642152091
 30
0.0
 10
40.24786029754968
 20
-20.25928141058316
 30
0.0
 10
40.53922279403022
 20
-18.85928755734027
 30
0.0
 10
40.59075233404499
 20
-18.07603988486917
 30
0.0
 10
40.60000000000001
 20
-17.93547560207201
 30
0.0
  0
SPLINE
  5
158
330
1F
100
AcDbEntity
  8
SK1
  6
SLD-Solid
370
    25
100
AcDbSpline
210
0.0
220
0.0
230
1.0
 70
    24
 71
     3
 72
    10
 73
     6
 74
     0
 42
0.000000001
 43
0.00000001
 40
0.0
 40
0.0
 40
0.0
 40
0.0
 40
0.3163970595221877
 40
0.6381225222235941
 40
1.0
 40
1.0
 40
1.0
 40
1.0
 10
40.60000000000001
 20
-22.48
 30
0.0
 10
40.55634919315573
 20
-22.48
 30
0.0
 10
40.46831246170626
 20
-22.48
 30
0.0
 10
40.10242544840158
 20
-22.48000000000001
 30
0.0
 10
39.76713110402047
 20
-22.48
 30
0.0
 10
39.58963702891817
 20
-22.48
 30
0.0
  0
SPLINE
  5
159
330
1F
100
AcDbEntity
  8
SK1
  6
SLD-Solid
370
    25
100
AcDbSpline
210
0.0
220
0.0
230
1.0
 70
     8
 71
     3
 72
    10
 73
     6
 74
     0
 42
0.000000001
 43
0.00000001
 40
0.0
 40
0.0
 40
0.0
 40
0.0
 40
0.3171071243465333
 40
0.6396162682836676
 40
1.0
 40
1.0
 40
1.0
 40
1.0
 10
40.60000000000001
 20
-17.06452439792796
 30
0.0
 10
40.5566169696591
 20
-16.61583019150323
 30
0.0
 10
40.46911186541183
 20
-15.71079813173701
 30
0.0
 10
40.10244827833162
 20
-14.33375852492197
 30
0.0
 10
39.76677972571041
 20
-13.42442952299606
 30
0.0
 10
39.58963702891817
 20
-12.94454843072609
 30
0.0
  0
SPLINE
  5
15A
330
1F
100
AcDbEntity
  8
SK1
  6
SLD-Solid
370
    25
100
AcDbSpline
210
0.0
220
0.0
230
1.0
 70
    24
 71
     3
 72
    10
 73
     6
 74
     0
 42
0.000000001
 43
0.00000001
 40
0.0
 40
0.0
 40
0.0
 40
0.0
 40
0.4479448328922593
 40
0.9027822398770493
 40
1.0
 40
1.0
 40
1.0
 40
1.0
 10
39.58963702891818
 20
-12.51999999999999
 30
0.0
 10
39.80796798990691
 20
-12.51999999999999
 30
0.0
 10
40.24798939326423
 20
-12.51999999999999
 30
0.0
 10
40.53877841911435
 20
-12.51999999999999
 30
0.0
 10
40.59083309234797
 20
-12.51999999999999
 30
0.0
 10
40.60000000000001
 20
-12.51999999999999
 30
0.0
  0
SPLINE
  5
15B
330
1F
100
AcDbEntity
  8
SK1
  6
SLD-Solid
370
    25
100
AcDbSpline
210
0.0
220
0.0
230
1.0
 70
     8
 71
     3
 72
    25
 73
    21
 74
     0
 42
0.000000001
 43
0.00000001
 40
0.0
 40
0.0
 40
0.0
 40
0.0
 40
0.0025943223763512
 40
0.0229960102257181
 40
0.0433584332678355
 40
0.0734171064172047
 40
0.1240439658432111
 40
0.2278048123040086
 40
0.532460802411492
 40
0.6823627321894984
 40
0.7851479092559159
 40
0.8549171434964231
 40
0.9021038979422212
 40
0.9340669771974677
 40
0.9558628133302773
 40
0.9758588614274204
 40
0.9861768590225812
 40
0.9936209263762389
 40
0.999023617476465
 40
1.0
 40
1.0
 40
1.0
 40
1.0
 10
35.0
 20
-14.97929667552882
 30
0.0
 10
35.00182483672211
 20
-14.97890033576572
 30
0.0
 10
35.01800014488901
 20
-14.97538718977874
 30
0.0
 10
35.049961472915
 20
-14.97496895350412
 30
0.0
 10
35.09905015875145
 20
-14.99135672619786
 30
0.0
 10
35.1577896657293
 20
-15.03649635732195
 30
0.0
 10
35.23308574607058
 20
-15.1482536375967
 30
0.0
 10
35.32970531603596
 20
-15.46864447102288
 30
0.0
 10
35.31983955407377
 20
-15.87802556211809
 30
0.0
 10
35.26323679784164
 20
-16.27462326604637
 30
0.0
 10
35.21557584067025
 20
-16.50205594131319
 30
0.0
 10
35.17586572281145
 20
-16.65522637934345
 30
0.0
 10
35.14399639229379
 20
-16.75763048868513
 30
0.0
 10
35.11851866342697
 20
-16.82575982991377
 30
0.0
 10
35.09631231917959
 20
-16.87401263679761
 30
0.0
 10
35.07707593919743
 20
-16.90644427237185
 30
0.0
 10
35.05880901798886
 20
-16.92682077655271
 30
0.0
 10
35.04475648356317
 20
-16.93622337571589
 30
0.0
 10
35.03491087726795
 20
-16.9388245199407
 30
0.0
 10
35.0303184865022
 20
-16.93891931766924
 30
0.0
 10
35.02961557408114
 20
-16.93893382743209
 30
0.0
  0
SPLINE
  5
15C
330
1F
100
AcDbEntity
  8
SK1
  6
SLD-Solid
370
    25
100
AcDbSpline
210
0.0
220
0.0
230
1.0
 70
     8
 71
     3
 72
    25
 73
    21
 74
     0
 42
0.000000001
 43
0.00000001
 40
0.0
 40
0.0
 40
0.0
 40
0.0
 40
0.0025943223763512
 40
0.0229960102257181
 40
0.0433584332678355
 40
0.0734171064172047
 40
0.1240439658432111
 40
0.2278048123040086
 40
0.5324608024114935
 40
0.6823627321894999
 40
0.785147909255916
 40
0.8549171434964232
 40
0.9021038979422213
 40
0.9340669771974677
 40
0.9558628133302788
 40
0.9758588614274204
 40
0.9861768590225812
 40
0.9936209263762389
 40
0.999023617476465
 40
1.0
 40
1.0
 40
1.0
 40
1.0
 10
35.0
 20
20.02070332447116
 30
0.0
 10
35.00182483672211
 20
20.02109966423427
 30
0.0
 10
35.01800014488901
 20
20.02461281022125
 30
0.0
 10
35.049961472915
 20
20.02503104649586
 30
0.0
 10
35.09905015875145
 20
20.00864327380213
 30
0.0
 10
35.1577896657293
 20
19.96350364267805
 30
0.0
 10
35.23308574607058
 20
19.85174636240327
 30
0.0
 10
35.32970531603596
 20
19.53135552897709
 30
0.0
 10
35.31983955407377
 20
19.1219744378819
 30
0.0
 10
35.26323679784166
 20
18.72537673395362
 30
0.0
 10
35.21557584067023
 20
18.49794405868679
 30
0.0
 10
35.17586572281147
 20
18.34477362065654
 30
0.0
 10
35.14399639229378
 20
18.24236951131484
 30
0.0
 10
35.11851866342697
 20
18.17424017008623
 30
0.0
 10
35.09631231917959
 20
18.12598736320236
 30
0.0
 10
35.0770759391974
 20
18.09355572762814
 30
0.0
 10
35.05880901798886
 20
18.07317922344728
 30
0.0
 10
35.04475648356316
 20
18.06377662428408
 30
0.0
 10
35.03491087726795
 20
18.0611754800593
 30
0.0
 10
35.0303184865022
 20
18.06108068233073
 30
0.0
 10
35.02961557408114
 20
18.0610661725679
 30
0.0
  0
SPLINE
  5
15D
330
1F
100
AcDbEntity
  8
SK1
  6
SLD-Solid
370
    25
100
AcDbSpline
210
0.0
220
0.0
230
1.0
 70
     8
 71
     3
 72
    20
 73
    16
 74
     0
 42
0.000000001
 43
0.00000001
 40
0.0
 40
0.0
 40
0.0
 40
0.0
 40
0.0035578209436584
 40
0.0098478565722509
 40
0.0205255659347105
 40
0.0549045177515131
 40
0.216062321895591
 40
0.5912478141841697
 40
0.7047699999641505
 40
0.838300226363643
 40
0.905164563673249
 40
0.9354898920268362
 40
0.966096737466559
 40
0.9858861426296889
 40
1.0
 40
1.0
 40
1.0
 40
1.0
 10
35.02961557408114
 20
16.93893382743208
 30
0.0
 10
35.03218233188068
 20
16.93874454778981
 30
0.0
 10
35.03928697909757
 20
16.93822063194394
 30
0.0
 10
35.05297573992223
 20
16.93167304626183
 30
0.0
 10
35.07995685462576
 20
16.90583141647854
 30
0.0
 10
35.14844663246483
 20
16.77159337329232
 30
0.0
 10
35.25098958149314
 20
16.3732461165725
 30
0.0
 10
35.32615795144017
 20
15.90681449784485
 30
0.0
 10
35.30922027395115
 20
15.45865275972697
 30
0.0
 10
35.26705242560445
 20
15.23429836819561
 30
0.0
 10
35.19349722025478
 20
15.0827676461975
 30
0.0
 10
35.13168360558805
 20
15.01363009503898
 30
0.0
 10
35.08102434911183
 20
14.98259530762201
 30
0.0
 10
35.0342822548978
 20
14.97375380399987
 30
0.0
 10
35.01007671549086
 20
14.97766743790819
 30
0.0
 10
35.0
 20
14.97929667552882
 30
0.0
  0
SPLINE
  5
15E
330
1F
100
AcDbEntity
  8
SK1
  6
SLD-Solid
370
    25
100
AcDbSpline
210
0.0
220
0.0
230
1.0
 70
     8
 71
     3
 72
    10
 73
     6
 74
     0
 42
0.000000001
 43
0.00000001
 40
0.0
 40
0.0
 40
0.0
 40
0.0
 40
0.3171071243465334
 40
0.6396162682836674
 40
1.0
 40
1.0
 40
1.0
 40
1.0
 10
40.60000000000001
 20
17.93547560207202
 30
0.0
 10
40.5566169696591
 20
18.38416980849675
 30
0.0
 10
40.4691118654118
 20
19.28920186826297
 30
0.0
 10
40.10244827833164
 20
20.66624147507801
 30
0.0
 10
39.76677972571041
 20
21.57557047700394
 30
0.0
 10
39.58963702891818
 20
22.05545156927389
 30
0.0
  0
SPLINE
  5
15F
330
1F
100
AcDbEntity
  8
SK1
  6
SLD-Solid
370
    25
100
AcDbSpline
210
0.0
220
0.0
230
1.0
 70
    24
 71
     3
 72
    10
 73
     6
 74
     0
 42
0.000000001
 43
0.00000001
 40
0.0
 40
0.0
 40
0.0
 40
0.0
 40
0.4479448328922593
 40
0.9027822398770493
 40
1.0
 40
1.0
 40
1.0
 40
1.0
 10
39.58963702891818
 20
22.47999999999999
 30
0.0
 10
39.80796798990691
 20
22.47999999999999
 30
0.0
 10
40.24798939326423
 20
22.47999999999998
 30
0.0
 10
40.53877841911435
 20
22.48000000000001
 30
0.0
 10
40.59083309234797
 20
22.47999999999999
 30
0.0
 10
40.60000000000001
 20
22.47999999999999
 30
0.0
  0
SPLINE
  5
160
330
1F
100
AcDbEntity
  8
SK1
  6
SLD-Solid
370
    25
100
AcDbSpline
210
0.0
220
0.0
230
1.0
 70
     8
 71
     3
 72
    10
 73
     6
 74
     0
 42
0.000000001
 43
0.00000001
 40
0.0
 40
0.0
 40
0.0
 40
0.0
 40
0.4469301939747623
 40
0.9007442175022089
 40
1.0
 40
1.0
 40
1.0
 40
1.0
 10
39.58963702891817
 20
12.9445484307261
 30
0.0
 10
39.80792406518071
 20
13.54021357847906
 30
0.0
 10
40.24786029754968
 20
14.74071858941681
 30
0.0
 10
40.5392227940302
 20
16.14071244265972
 30
0.0
 10
40.59075233404499
 20
16.92396011513082
 30
0.0
 10
40.60000000000001
 20
17.06452439792796
 30
0.0
  0
SPLINE
  5
161
330
1F
100
AcDbEntity
  8
SK1
  6
SLD-Solid
370
    25
100
AcDbSpline
210
0.0
220
0.0
230
1.0
 70
    24
 71
     3
 72
    10
 73
     6
 74
     0
 42
0.000000001
 43
0.00000001
 40
0.0
 40
0.0
 40
0.0
 40
0.0
 40
0.3163970595221877
 40
0.6381225222235941
 40
1.0
 40
1.0
 40
1.0
 40
1.0
 10
40.60000000000001
 20
12.51999999999999
 30
0.0
 10
40.55634919315573
 20
12.51999999999999
 30
0.0
 10
40.46831246170626
 20
12.51999999999999
 30
0.0
 10
40.10242544840158
 20
12.52
 30
0.0
 10
39.76713110402047
 20
12.52
 30
0.0
 10
39.58963702891817
 20
12.51999999999999
 30
0.0
  0
SPLINE
  5
162
330
1F
100
AcDbEntity
  8
1
  6
SLD-Solid
370
    25
100
AcDbSpline
210
0.0
220
0.0
230
1.0
 70
     8
 71
     3
 72
    10
 73
     6
 74
     0
 42
0.000000001
 43
0.00000001
 40
0.0
 40
0.0
 40
0.0
 40
0.0
 40
0.5
 40
0.5
 40
1.0
 40
1.0
 40
1.0
 40
1.0
 10
19.1
 20
26.13585634682924
 30
0.0
 10
19.49568963348792
 20
26.90270024941192
 30
0.0
 10
19.88420462171463
 20
27.6578141072575
 30
0.0
 10
20.64456767747194
 20
29.13870291691153
 30
0.0
 10
21.01652879891043
 20
29.86470743343792
 30
0.0
 10
21.37719856678899
 20
30.569769775306
 30
0.0
  0
SPLINE
  5
163
330
1F
100
AcDbEntity
  8
1
  6
SLD-Solid
370
    25
100
AcDbSpline
210
0.0
220
0.0
230
1.0
 70
     8
 71
     3
 72
    10
 73
     6
 74
     0
 42
0.000000001
 43
0.00000001
 40
0.0
 40
0.0
 40
0.0
 40
0.0
 40
0.5
 40
0.5
 40
1.0
 40
1.0
 40
1.0
 40
1.0
 10
19.1
 20
-26.13585634682925
 30
0.0
 10
19.4956896339706
 20
-26.9027002495086
 30
0.0
 10
19.88420462268074
 20
-27.65781410746385
 30
0.0
 10
20.6445676794104
 20
-29.13870291737951
 30
0.0
 10
21.01652880133717
 20
-29.86470743405633
 30
0.0
 10
21.37719856971543
 20
-30.56976977612056
 30
0.0
  0
SPLINE
  5
164
330
1F
100
AcDbEntity
  8
1
  6
SLD-Solid
370
    25
100
AcDbSpline
210
0.0
220
0.0
230
1.0
 70
     8
 71
     3
 72
    18
 73
    14
 74
     0
 42
0.000000001
 43
0.00000001
 40
0.0
 40
0.0
 40
0.0
 40
0.0
 40
0.0627579384740259
 40
0.125923618866305
 40
0.1895094567874234
 40
0.2535275525789492
 40
0.3762719952103722
 40
0.5044894117534732
 40
0.629008524052268
 40
0.7526965353922894
 40
0.8763987421632937
 40
0.930125081995013
 40
1.0
 40
1.0
 40
1.0
 40
1.0
 10
2.750000000000003
 20
30.28510518647364
 30
0.0
 10
2.725247004559908
 20
30.28439543393773
 30
0.0
 10
2.675580192051608
 20
30.28297131756306
 30
0.0
 10
2.601584343617958
 20
30.27144101343938
 30
0.0
 10
2.528604493601913
 20
30.25299009489737
 30
0.0
 10
2.435839309438983
 20
30.21912784393473
 30
0.0
 10
2.326166243984837
 20
30.15965080872991
 30
0.0
 10
2.2121023129274
 20
30.06458077929916
 30
0.0
 10
2.119026744014735
 20
29.94884899387606
 30
0.0
 10
2.050928106131708
 20
29.81915082193435
 30
0.0
 10
2.017348575343164
 20
29.70556869534365
 30
0.0
 10
2.002350099426314
 20
29.60996855014605
 30
0.0
 10
2.000848750519299
 20
29.56166485440319
 30
0.0
 10
2.000000000000002
 20
29.53435755317955
 30
0.0
  0
SPLINE
  5
165
330
1F
100
AcDbEntity
  8
1
  6
SLD-Solid
370
    25
100
AcDbSpline
210
0.0
220
0.0
230
1.0
 70
     8
 71
     3
 72
    16
 73
    12
 74
     0
 42
0.000000001
 43
0.00000001
 40
0.0
 40
0.0
 40
0.0
 40
0.0
 40
0.0694020339616631
 40
0.1236666568071977
 40
0.2476711944689437
 40
0.3714558525590501
 40
0.4964121686074741
 40
0.6210687757848897
 40
0.7470442951941945
 40
0.8743646403191013
 40
1.0
 40
1.0
 40
1.0
 40
1.0
 10
2.000000000000002
 20
-29.54951942694615
 30
0.0
 10
2.000831768950079
 20
-29.57686491991741
 30
0.0
 10
2.002313888124676
 20
-29.62559152779128
 30
0.0
 10
2.017194887963245
 20
-29.7221483234321
 30
0.0
 10
2.050682418880623
 20
-29.83709334001736
 30
0.0
 10
2.11864112343664
 20
-29.96840079700333
 30
0.0
 10
2.210766428476147
 20
-30.08449829056607
 30
0.0
 10
2.324530110737619
 20
-30.18122482137694
 30
0.0
 10
2.456056029226855
 20
-30.25358346677479
 30
0.0
 10
2.600018019458736
 20
-30.30041577615653
 30
0.0
 10
2.700228513458108
 20
-30.30627853671529
 30
0.0
 10
2.749999999999905
 20
-30.30919039052025
 30
0.0
  0
SPLINE
  5
166
330
1F
100
AcDbEntity
  8
1
  6
SLD-Solid
370
    25
100
AcDbSpline
210
0.0
220
0.0
230
1.0
 70
     8
 71
     3
 72
     8
 73
     4
 74
     0
 42
0.000000001
 43
0.00000001
 40
0.0
 40
0.0
 40
0.0
 40
0.0
 40
1.0
 40
1.0
 40
1.0
 40
1.0
 10
11.77831440101428
 20
-30.06052755908996
 30
0.0
 10
12.55544467728084
 20
-28.66654746625407
 30
0.0
 10
13.3298334865613
 20
-27.27107768563673
 30
0.0
 10
14.1
 20
-25.87334462303037
 30
0.0
  0
SPLINE
  5
167
330
1F
100
AcDbEntity
  8
1
  6
SLD-Solid
370
    25
100
AcDbSpline
210
0.0
220
0.0
230
1.0
 70
     8
 71
     3
 72
     8
 73
     4
 74
     0
 42
0.000000001
 43
0.00000001
 40
0.0
 40
0.0
 40
0.0
 40
0.0
 40
0.0005044746689848
 40
0.0005044746689848
 40
0.0005044746689848
 40
0.0005044746689848
 10
11.57999999999999
 20
-30.30919039052025
 30
0.0
 10
11.64635572552545
 20
-30.22636041819749
 30
0.0
 10
11.71246382653554
 20
-30.14347330258141
 30
0.0
 10
11.77831440101428
 20
-30.06052755908995
 30
0.0
  0
SPLINE
  5
168
330
1F
100
AcDbEntity
  8
1
  6
SLD-Solid
370
    25
100
AcDbSpline
210
0.0
220
0.0
230
1.0
 70
     8
 71
     3
 72
     8
 73
     4
 74
     0
 42
0.000000001
 43
0.00000001
 40
0.0
 40
0.0
 40
0.0
 40
0.0
 40
0.0006580774610835
 40
0.0006580774610835
 40
0.0006580774610835
 40
0.0006580774610835
 10
11.85425903357672
 20
29.92428064915762
 30
0.0
 10
11.76317881805253
 20
30.04464915920001
 30
0.0
 10
11.67175324177074
 20
30.16492278839549
 30
0.0
 10
11.57999999999999
 20
30.28510518647364
 30
0.0
  0
SPLINE
  5
169
330
1F
100
AcDbEntity
  8
1
  6
SLD-Solid
370
    25
100
AcDbSpline
210
0.0
220
0.0
230
1.0
 70
     8
 71
     3
 72
     8
 73
     4
 74
     0
 42
0.000000001
 43
0.00000001
 40
0.0
 40
0.0
 40
0.0
 40
0.0
 40
1.0
 40
1.0
 40
1.0
 40
1.0
 10
11.85425903357672
 20
29.92428064915763
 30
0.0
 10
12.60586728865158
 20
28.57566484509083
 30
0.0
 10
13.35490602558602
 20
27.22557490650152
 30
0.0
 10
14.1
 20
25.87334462303037
 30
0.0
  0
SPLINE
  5
16A
330
1F
100
AcDbEntity
  8
1
  6
SLD-Solid
370
    25
100
AcDbSpline
210
0.0
220
0.0
230
1.0
 70
     8
 71
     3
 72
    10
 73
     6
 74
     0
 42
0.000000001
 43
0.00000001
 40
0.0
 40
0.0
 40
0.0
 40
0.0
 40
0.5
 40
0.5
 40
1.0
 40
1.0
 40
1.0
 40
1.0
 10
14.1
 20
25.6268726145037
 30
0.0
 10
14.1
 20
25.52615414234215
 30
0.0
 10
14.13833775894856
 20
25.42560543058238
 30
0.0
 10
14.27459772642588
 20
25.27886420189904
 30
0.0
 10
14.37375021474617
 20
25.23333063628343
 30
0.0
 10
14.475
 20
25.23333063628343
 30
0.0
  0
SPLINE
  5
16B
330
1F
100
AcDbEntity
  8
1
  6
SLD-Solid
370
    25
100
AcDbSpline
210
0.0
220
0.0
230
1.0
 70
     8
 71
     3
 72
    12
 73
     8
 74
     0
 42
0.000000001
 43
0.00000001
 40
0.0
 40
0.0
 40
0.0
 40
0.0
 40
0.4999999999999982
 40
0.4999999999999982
 40
0.7499999999999991
 40
0.7499999999999991
 40
1.0
 40
1.0
 40
1.0
 40
1.0
 10
14.1
 20
-20.28281996848703
 30
0.0
 10
14.1
 20
-20.06968462960824
 30
0.0
 10
14.1298307559949
 20
-19.85476891465508
 30
0.0
 10
14.22250450681635
 20
-19.54934931950394
 30
0.0
 10
14.2613069078494
 20
-19.45110214871114
 30
0.0
 10
14.35507688503276
 20
-19.26865582352474
 30
0.0
 10
14.41071073365341
 20
-19.18304202481642
 30
0.0
 10
14.475
 20
-19.11109010277064
 30
0.0
  0
SPLINE
  5
16C
330
1F
100
AcDbEntity
  8
1
  6
SLD-Solid
370
    25
100
AcDbSpline
210
0.0
220
0.0
230
1.0
 70
     8
 71
     3
 72
    12
 73
     8
 74
     0
 42
0.000000001
 43
0.00000001
 40
0.0
 40
0.0
 40
0.0
 40
0.0
 40
0.4999999999999993
 40
0.4999999999999993
 40
0.7499999999999997
 40
0.7499999999999997
 40
1.0
 40
1.0
 40
1.0
 40
1.0
 10
18.72499999999999
 20
25.45080303251746
 30
0.0
 10
18.82551825775716
 20
25.46391541311021
 30
0.0
 10
18.91735913082589
 20
25.51717207066938
 30
0.0
 10
19.02076349175202
 20
25.63605233185314
 30
0.0
 10
19.0486910220987
 20
25.68119742214312
 30
0.0
 10
19.0887706659045
 20
25.7823484457152
 30
0.0
 10
19.09999999999942
 20
25.8370982383804
 30
0.0
 10
19.1
 20
25.89188338070005
 30
0.0
  0
SPLINE
  5
16D
330
1F
100
AcDbEntity
  8
1
  6
SLD-Solid
370
    25
100
AcDbSpline
210
0.0
220
0.0
230
1.0
 70
     8
 71
     3
 72
    14
 73
    10
 74
     0
 42
0.000000001
 43
0.00000001
 40
0.0
 40
0.0
 40
0.0
 40
0.0
 40
0.25
 40
0.25
 40
0.5
 40
0.5
 40
0.75
 40
0.75
 40
1.0
 40
1.0
 40
1.0
 40
1.0
 10
18.72500000000002
 20
-19.11109010278433
 30
0.0
 10
18.78913410191539
 20
-19.18286836630555
 30
0.0
 10
18.84413252549887
 20
-19.26728231143425
 30
0.0
 10
18.93848187992472
 20
-19.45052821639275
 30
0.0
 10
18.97747348753066
 20
-19.54941445107776
 30
0.0
 10
19.03886935785168
 20
-19.75147897328955
 30
0.0
 10
19.06167311461869
 20
-19.8555218244433
 30
0.0
 10
19.09228066642028
 20
-20.06744889830235
 30
0.0
 10
19.10000000000948
 20
-20.17616183904754
 30
0.0
 10
19.10000000001044
 20
-20.28281996849741
 30
0.0
  0
SPLINE
  5
16E
330
1F
100
AcDbEntity
  8
1
  6
SLD-Solid
370
    25
100
AcDbSpline
210
0.0
220
0.0
230
1.0
 70
     8
 71
     3
 72
    10
 73
     6
 74
     0
 42
0.000000001
 43
0.00000001
 40
0.0
 40
0.0
 40
0.0
 40
0.0
 40
0.5000000000000001
 40
0.5000000000000001
 40
1.0
 40
1.0
 40
1.0
 40
1.0
 10
15.405
 20
25.23333063628343
 30
0.0
 10
15.98112657985154
 20
25.23333063628342
 30
0.0
 10
16.54624836374907
 20
25.25306180193077
 30
0.0
 10
17.65561942498761
 20
25.32745487293397
 30
0.0
 10
18.20339005803119
 20
25.38276018903138
 30
0.0
 10
18.72499999999999
 20
25.45080303251746
 30
0.0
  0
SPLINE
  5
16F
330
1F
100
AcDbEntity
  8
1
  6
SLD-Solid
370
    25
100
AcDbSpline
210
0.0
220
0.0
230
1.0
 70
     8
 71
     3
 72
    22
 73
    18
 74
     0
 42
0.000000001
 43
0.00000001
 40
0.0
 40
0.0
 40
0.0
 40
0.0
 40
0.125
 40
0.125
 40
0.25
 40
0.25
 40
0.375
 40
0.375
 40
0.5
 40
0.5
 40
0.625
 40
0.625
 40
0.75
 40
0.75
 40
0.875
 40
0.875
 40
1.0
 40
1.0
 40
1.0
 40
1.0
 10
14.475
 20
-19.11109010277064
 30
0.0
 10
14.58755452000712
 20
-18.98512017793526
 30
0.0
 10
14.72057017762428
 20
-18.87033159566814
 30
0.0
 10
15.02625830847536
 20
-18.66374742988476
 30
0.0
 10
15.19958533737793
 20
-18.57247925345187
 30
0.0
 10
15.5676403583779
 20
-18.4252078683075
 30
0.0
 10
15.76762481138215
 20
-18.36713740846267
 30
0.0
 10
16.17700135147124
 20
-18.29012462897988
 30
0.0
 10
16.38648940172943
 20
-18.27044384126227
 30
0.0
 10
16.81398615444073
 20
-18.27047342435823
 30
0.0
 10
17.02320646851263
 20
-18.29014097660991
 30
0.0
 10
17.43286655624339
 20
-18.36725263234637
 30
0.0
 10
17.63262849602644
 20
-18.42529301011386
 30
0.0
 10
18.00072386469434
 20
-18.57262544705831
 30
0.0
 10
18.17423071680413
 20
-18.66404715163156
 30
0.0
 10
18.47949931288746
 20
-18.87040937547312
 30
0.0
 10
18.61244534054897
 20
-18.98512002188303
 30
0.0
 10
18.72500000000002
 20
-19.11109010278433
 30
0.0
  0
SPLINE
  5
170
330
1F
100
AcDbEntity
  8
1
  6
SLD-Solid
370
    25
100
AcDbSpline
210
0.0
220
0.0
230
1.0
 70
     8
 71
     3
 72
    12
 73
     8
 74
     0
 42
0.000000001
 43
0.00000001
 40
0.0
 40
0.0
 40
0.0
 40
0.0
 40
0.5000000000000009
 40
0.5000000000000009
 40
0.7500000000000004
 40
0.7500000000000004
 40
1.0
 40
1.0
 40
1.0
 40
1.0
 10
19.10000000001044
 20
-20.28281996849741
 30
0.0
 10
19.10000000001044
 20
-20.36453248622649
 30
0.0
 10
19.07016924401554
 20
-20.44349537408153
 30
0.0
 10
18.97749549319408
 20
-20.57480005488207
 30
0.0
 10
18.93869309216105
 20
-20.6204976716749
 30
0.0
 10
18.84492311497768
 20
-20.72036595667851
 30
0.0
 10
18.78928926635702
 20
-20.77493196575374
 30
0.0
 10
18.72500000001043
 20
-20.8390927955002
 30
0.0
  0
SPLINE
  5
171
330
1F
100
AcDbEntity
  8
1
  6
SLD-Solid
370
    25
100
AcDbSpline
210
0.0
220
0.0
230
1.0
 70
     8
 71
     3
 72
    22
 73
    18
 74
     0
 42
0.000000001
 43
0.00000001
 40
0.0
 40
0.0
 40
0.0
 40
0.0
 40
0.1250000000000002
 40
0.1250000000000002
 40
0.2500000000000004
 40
0.2500000000000004
 40
0.3750000000000003
 40
0.3750000000000003
 40
0.5000000000000001
 40
0.5000000000000001
 40
0.6249999999999999
 40
0.6249999999999999
 40
0.7499999999999997
 40
0.7499999999999997
 40
0.8749999999999999
 40
0.8749999999999999
 40
1.0
 40
1.0
 40
1.0
 40
1.0
 10
18.72500000001043
 20
-20.8390927955002
 30
0.0
 10
18.61244548000414
 20
-20.9514224549551
 30
0.0
 10
18.47942982238798
 20
-21.05113708314772
 30
0.0
 10
18.17374169153906
 20
-21.22758814475281
 30
0.0
 10
18.0004146626376
 20
-21.30383158011353
 30
0.0
 10
17.63235964163992
 20
-21.425515416958
 30
0.0
 10
17.43237518863693
 20
-21.4726931968648
 30
0.0
 10
17.02299864854987
 20
-21.53500831014357
 30
0.0
 10
16.81351059829295
 20
-21.5507656465733
 30
0.0
 10
16.38601384558301
 20
-21.55074187928529
 30
0.0
 10
16.17679353151169
 20
-21.53499533379077
 30
0.0
 10
15.76713344378193
 20
-21.47259971132974
 30
0.0
 10
15.56737150399888
 20
-21.42544593473219
 30
0.0
 10
15.19927613533075
 20
-21.30370991877403
 30
0.0
 10
15.02576928322062
 20
-21.22733420760397
 30
0.0
 10
14.72050068713564
 20
-21.05106857872165
 30
0.0
 10
14.58755465946143
 20
-20.95142259412122
 30
0.0
 10
14.47500000001041
 20
-20.83909279550016
 30
0.0
  0
SPLINE
  5
172
330
1F
100
AcDbEntity
  8
1
  6
SLD-Solid
370
    25
100
AcDbSpline
210
0.0
220
0.0
230
1.0
 70
     8
 71
     3
 72
    14
 73
    10
 74
     0
 42
0.000000001
 43
0.00000001
 40
0.0
 40
0.0
 40
0.0
 40
0.0
 40
0.25
 40
0.25
 40
0.5
 40
0.5
 40
0.75
 40
0.75
 40
1.0
 40
1.0
 40
1.0
 40
1.0
 10
14.47500000001041
 20
-20.83909279550016
 30
0.0
 10
14.41077522372121
 20
-20.7749963269732
 30
0.0
 10
14.35571159543775
 20
-20.72102365379315
 30
0.0
 10
14.26127391427409
 20
-20.62048070763048
 30
0.0
 10
14.22228084311759
 20
-20.57448000865946
 30
0.0
 10
14.16097772087274
 20
-20.48762905680369
 30
0.0
 10
14.1382470352356
 20
-20.44642866960151
 30
0.0
 10
14.1077384787041
 20
-20.36469593660778
 30
0.0
 10
14.1
 20
-20.32376872066668
 30
0.0
 10
14.1
 20
-20.28281996848703
 30
0.0
  0
SPLINE
  5
173
330
1F
100
AcDbEntity
  8
1
  6
SLD-Solid
370
    25
100
AcDbSpline
210
0.0
220
0.0
230
1.0
 70
     8
 71
     3
 72
    12
 73
     8
 74
     0
 42
0.000000001
 43
0.00000001
 40
0.0
 40
0.0
 40
0.0
 40
0.0
 40
0.4999999999999993
 40
0.4999999999999993
 40
0.7499999999999997
 40
0.7499999999999997
 40
1.0
 40
1.0
 40
1.0
 40
1.0
 10
18.72499999999999
 20
-25.45080303251747
 30
0.0
 10
18.82551825775716
 20
-25.46391541311022
 30
0.0
 10
18.91735913082589
 20
-25.51717207066937
 30
0.0
 10
19.02076349175202
 20
-25.63605233185314
 30
0.0
 10
19.0486910220987
 20
-25.68119742214312
 30
0.0
 10
19.0887706659045
 20
-25.78234844571521
 30
0.0
 10
19.09999999999942
 20
-25.8370982383804
 30
0.0
 10
19.1
 20
-25.89188338070006
 30
0.0
  0
SPLINE
  5
174
330
1F
100
AcDbEntity
  8
1
  6
SLD-Solid
370
    25
100
AcDbSpline
210
0.0
220
0.0
230
1.0
 70
     8
 71
     3
 72
    10
 73
     6
 74
     0
 42
0.000000001
 43
0.00000001
 40
0.0
 40
0.0
 40
0.0
 40
0.0
 40
0.5
 40
0.5
 40
1.0
 40
1.0
 40
1.0
 40
1.0
 10
14.1
 20
-25.62687261450371
 30
0.0
 10
14.1
 20
-25.52639292124676
 30
0.0
 10
14.13771329602109
 20
-25.42620816819716
 30
0.0
 10
14.27546880503476
 20
-25.27799600369186
 30
0.0
 10
14.3744751582265
 20
-25.23333063628343
 30
0.0
 10
14.47499999999993
 20
-25.23333063628342
 30
0.0
  0
SPLINE
  5
175
330
1F
100
AcDbEntity
  8
1
  6
SLD-Solid
370
    25
100
AcDbSpline
210
0.0
220
0.0
230
1.0
 70
     8
 71
     3
 72
    10
 73
     6
 74
     0
 42
0.000000001
 43
0.00000001
 40
0.0
 40
0.0
 40
0.0
 40
0.0
 40
0.5000000000000001
 40
0.5000000000000001
 40
1.0
 40
1.0
 40
1.0
 40
1.0
 10
15.40499999999999
 20
-25.23333063628342
 30
0.0
 10
15.98112657985154
 20
-25.23333063628342
 30
0.0
 10
16.54624836374907
 20
-25.25306180193078
 30
0.0
 10
17.65561942498764
 20
-25.32745487293396
 30
0.0
 10
18.20339005803119
 20
-25.38276018903138
 30
0.0
 10
18.72499999999999
 20
-25.45080303251747
 30
0.0
  0
SPLINE
  5
176
330
1F
100
AcDbEntity
  8
1
  6
SLD-Dashed
370
    18
100
AcDbSpline
210
0.0
220
0.0
230
1.0
 70
    24
 71
     2
 72
     6
 73
     3
 74
     0
 42
0.000000001
 43
0.00000001
 40
0.0
 40
0.0
 40
0.0
 40
0.4999999999999999
 40
0.4999999999999999
 40
0.4999999999999999
 10
2.000000000000002
 20
22.5
 30
0.0
 10
1.99738219282454
 20
22.5
 30
0.0
 10
1.997357134050332
 20
22.5
 30
0.0
  0
SPLINE
  5
177
330
1F
100
AcDbEntity
  8
1
  6
SLD-Dashed
370
    18
100
AcDbSpline
210
0.0
220
0.0
230
1.0
 70
    24
 71
     3
 72
     8
 73
     4
 74
     0
 42
0.000000001
 43
0.00000001
 40
0.4999999999999999
 40
0.4999999999999999
 40
0.4999999999999999
 40
0.4999999999999999
 40
0.6249999999999999
 40
0.6249999999999999
 40
0.6249999999999999
 40
0.6249999999999999
 10
1.997357134050332
 20
22.5
 30
0.0
 10
1.997350869356776
 20
22.5
 30
0.0
 10
1.997459903751275
 20
22.5
 30
0.0
 10
1.997664470276828
 20
22.5
 30
0.0
  0
SPLINE
  5
178
330
1F
100
AcDbEntity
  8
1
  6
SLD-Dashed
370
    18
100
AcDbSpline
210
0.0
220
0.0
230
1.0
 70
    24
 71
     3
 72
     8
 73
     4
 74
     0
 42
0.000000001
 43
0.00000001
 40
0.6249999999999999
 40
0.6249999999999999
 40
0.6249999999999999
 40
0.6249999999999999
 40
0.7499999999999998
 40
0.7499999999999998
 40
0.7499999999999998
 40
0.7499999999999998
 10
1.997664470276828
 20
22.5
 30
0.0
 10
1.99786903680238
 20
22.5
 30
0.0
 10
1.998168915110843
 20
22.5
 30
0.0
 10
1.998501079157097
 20
22.5
 30
0.0
  0
SPLINE
  5
179
330
1F
100
AcDbEntity
  8
1
  6
SLD-Dashed
370
    18
100
AcDbSpline
210
0.0
220
0.0
230
1.0
 70
    24
 71
     2
 72
     6
 73
     3
 74
     0
 42
0.000000001
 43
0.00000001
 40
0.7499999999999998
 40
0.7499999999999998
 40
0.7499999999999998
 40
1.0
 40
1.0
 40
1.0
 10
1.998501079157098
 20
22.5
 30
0.0
 10
1.999165407249551
 20
22.5
 30
0.0
 10
2.000000000000002
 20
22.5
 30
0.0
  0
SPLINE
  5
17A
330
1F
100
AcDbEntity
  8
SK3
  6
SLD-Dashed
370
    18
100
AcDbSpline
210
0.0
220
0.0
230
1.0
 70
    24
 71
     2
 72
     6
 73
     3
 74
     0
 42
0.000000001
 43
0.00000001
 40
0.0
 40
0.0
 40
0.0
 40
0.4999999999999999
 40
0.4999999999999999
 40
0.4999999999999999
 10
2.000000000000002
 20
-22.5
 30
0.0
 10
1.99738219282454
 20
-22.50000000000001
 30
0.0
 10
1.997357134050332
 20
-22.49999999999999
 30
0.0
  0
SPLINE
  5
17B
330
1F
100
AcDbEntity
  8
SK3
  6
SLD-Dashed
370
    18
100
AcDbSpline
210
0.0
220
0.0
230
1.0
 70
    24
 71
     3
 72
     8
 73
     4
 74
     0
 42
0.000000001
 43
0.00000001
 40
0.4999999999999999
 40
0.4999999999999999
 40
0.4999999999999999
 40
0.4999999999999999
 40
0.6249999999999999
 40
0.6249999999999999
 40
0.6249999999999999
 40
0.6249999999999999
 10
1.997357134050332
 20
-22.49999999999999
 30
0.0
 10
1.997350869356776
 20
-22.50000000000001
 30
0.0
 10
1.997459903751275
 20
-22.5
 30
0.0
 10
1.997664470276828
 20
-22.49999999999999
 30
0.0
  0
SPLINE
  5
17C
330
1F
100
AcDbEntity
  8
SK3
  6
SLD-Dashed
370
    18
100
AcDbSpline
210
0.0
220
0.0
230
1.0
 70
    24
 71
     3
 72
     8
 73
     4
 74
     0
 42
0.000000001
 43
0.00000001
 40
0.6249999999999999
 40
0.6249999999999999
 40
0.6249999999999999
 40
0.6249999999999999
 40
0.7499999999999998
 40
0.7499999999999998
 40
0.7499999999999998
 40
0.7499999999999998
 10
1.997664470276828
 20
-22.49999999999999
 30
0.0
 10
1.99786903680238
 20
-22.49999999999999
 30
0.0
 10
1.998168915110843
 20
-22.49999999999998
 30
0.0
 10
1.998501079157097
 20
-22.49999999999999
 30
0.0
  0
SPLINE
  5
17D
330
1F
100
AcDbEntity
  8
SK3
  6
SLD-Dashed
370
    18
100
AcDbSpline
210
0.0
220
0.0
230
1.0
 70
    24
 71
     2
 72
     6
 73
     3
 74
     0
 42
0.000000001
 43
0.00000001
 40
0.7499999999999998
 40
0.7499999999999998
 40
0.7499999999999998
 40
1.0
 40
1.0
 40
1.0
 10
1.998501079157098
 20
-22.49999999999999
 30
0.0
 10
1.999165407249551
 20
-22.49999999999999
 30
0.0
 10
2.000000000000002
 20
-22.5
 30
0.0
  0
SPLINE
  5
17E
330
1F
100
AcDbEntity
  8
SK3
  6
SLD-Dashed
370
    18
100
AcDbSpline
210
0.0
220
0.0
230
1.0
 70
     8
 71
     3
 72
    30
 73
    26
 74
     0
 42
0.000000001
 43
0.00000001
 40
0.499999999999999
 40
0.499999999999999
 40
0.499999999999999
 40
0.499999999999999
 40
0.562499999999999
 40
0.562499999999999
 40
0.593749999999999
 40
0.593749999999999
 40
0.624999999999999
 40
0.624999999999999
 40
0.656249999999999
 40
0.656249999999999
 40
0.687499999999999
 40
0.687499999999999
 40
0.7499999999999987
 40
0.7499999999999987
 40
0.7812499999999987
 40
0.7812499999999987
 40
0.8124999999999987
 40
0.8124999999999987
 40
0.8749999999999988
 40
0.8749999999999988
 40
0.9374999999999991
 40
0.9374999999999991
 40
0.9687499999999996
 40
0.9687499999999996
 40
1.0
 40
1.0
 40
1.0
 40
1.0
 10
9.000696315892897
 20
-0.7761871796929699
 30
0.0
 10
8.784908731128027
 20
-0.7760940527120758
 30
0.0
 10
8.567048710880293
 20
-0.820645347571352
 30
0.0
 10
8.2689468243414
 20
-0.9461590508833446
 30
0.0
 10
8.172466069380949
 20
-0.9984249815306254
 30
0.0
 10
7.99320324531784
 20
-1.119257329460915
 30
0.0
 10
7.910379016221089
 20
-1.187498351242107
 30
0.0
 10
7.758121294980838
 20
-1.339130272885989
 30
0.0
 10
7.688681930597935
 20
-1.422966399572737
 30
0.0
 10
7.569279931119318
 20
-1.598597124628492
 30
0.0
 10
7.518412098306893
 20
-1.691166254699148
 30
0.0
 10
7.393205595727023
 20
-1.983206633486726
 30
0.0
 10
7.350125330464211
 20
-2.188626025134008
 30
0.0
 10
7.349937742964816
 20
-2.495562715383918
 30
0.0
 10
7.360546982397645
 20
-2.595594457577854
 30
0.0
 10
7.402585032662986
 20
-2.791308244238459
 30
0.0
 10
7.43454878770311
 20
-2.887772084563887
 30
0.0
 10
7.558420645566388
 20
-3.1592249681624
 30
0.0
 10
7.68113205284339
 20
-3.322668800155689
 30
0.0
 10
7.983931171643907
 20
-3.590052108657413
 30
0.0
 10
8.167181990474656
 20
-3.696740205200649
 30
0.0
 10
8.464950091544452
 20
-3.803806145853124
 30
0.0
 10
8.569947790551327
 20
-3.831410842413684
 30
0.0
 10
8.782695295267276
 20
-3.867947222441295
 30
0.0
 10
8.890578691604741
 20
-3.877172678032687
 30
0.0
 10
9.000000000000007
 20
-3.877172678032687
 30
0.0
  0
SPLINE
  5
17F
330
1F
100
AcDbEntity
  8
SK3
  6
SLD-Dashed
370
    18
100
AcDbSpline
210
0.0
220
0.0
230
1.0
 70
     8
 71
     3
 72
    32
 73
    28
 74
     0
 42
0.000000001
 43
0.00000001
 40
0.0
 40
0.0
 40
0.0
 40
0.0
 40
0.0312499999999998
 40
0.0312499999999998
 40
0.0624999999999995
 40
0.0624999999999995
 40
0.0937499999999993
 40
0.0937499999999993
 40
0.1249999999999991
 40
0.1249999999999991
 40
0.1874999999999991
 40
0.1874999999999991
 40
0.2499999999999992
 40
0.2499999999999992
 40
0.2812499999999992
 40
0.2812499999999992
 40
0.3124999999999992
 40
0.3124999999999992
 40
0.3749999999999991
 40
0.3749999999999991
 40
0.406249999999999
 40
0.406249999999999
 40
0.437499999999999
 40
0.437499999999999
 40
0.468749999999999
 40
0.468749999999999
 40
0.499999999999999
 40
0.499999999999999
 40
0.499999999999999
 40
0.499999999999999
 10
9.000000000000007
 20
-3.877172678032687
 30
0.0
 10
9.109421308395275
 20
-3.877172678032687
 30
0.0
 10
9.216934130666932
 20
-3.867949144079209
 30
0.0
 10
9.428324424907222
 20
-3.831768674567488
 30
0.0
 10
9.533320961714539
 20
-3.804348043195137
 30
0.0
 10
9.732933046643092
 20
-3.732733819274803
 30
0.0
 10
9.827545174762573
 20
-3.688830288348547
 30
0.0
 10
10.00660220610712
 20
-3.58451742565535
 30
0.0
 10
10.09106744927404
 20
-3.52375345891703
 30
0.0
 10
10.31845669318056
 20
-3.323175041199309
 30
0.0
 10
10.44127008848901
 20
-3.159519466276281
 30
0.0
 10
10.60612946070209
 20
-2.79901082924363
 30
0.0
 10
10.6498670634103
 20
-2.598123691223364
 30
0.0
 10
10.65006600206293
 20
-2.293577165403463
 30
0.0
 10
10.63926006744516
 20
-2.189545011981056
 30
0.0
 10
10.59698912166744
 20
-1.987057576095737
 30
0.0
 10
10.56571768734325
 20
-1.887771593074433
 30
0.0
 10
10.44118181218156
 20
-1.596181771180271
 30
0.0
 10
10.31980939117336
 20
-1.417011034108469
 30
0.0
 10
10.09031420885773
 20
-1.188054939879807
 30
0.0
 10
10.0074373878862
 20
-1.119792609414746
 30
0.0
 10
9.829108434117078
 20
-0.9993840943401215
 30
0.0
 10
9.732492324804248
 20
-0.9468582944288685
 30
0.0
 10
9.533290568654914
 20
-0.8628003181327739
 30
0.0
 10
9.430444238263085
 20
-0.8307938811982218
 30
0.0
 10
9.218127820457514
 20
-0.7873446954405582
 30
0.0
 10
9.108590108275319
 20
-0.7762337431834188
 30
0.0
 10
9.000696315892897
 20
-0.7761871796929699
 30
0.0
  0
SPLINE
  5
180
330
1F
100
AcDbEntity
  8
SK3
  6
SLD-Dashed
370
    18
100
AcDbSpline
210
0.0
220
0.0
230
1.0
 70
    24
 71
     3
 72
     8
 73
     4
 74
     0
 42
0.000000001
 43
0.00000001
 40
0.0
 40
0.0
 40
0.0
 40
0.0
 40
0.4999999999999986
 40
0.4999999999999986
 40
0.4999999999999986
 40
0.4999999999999986
 10
2.000000000000002
 20
22.5
 30
0.0
 10
2.083477230592462
 20
22.500000000021
 30
0.0
 10
2.165250237669239
 20
22.50000000004156
 30
0.0
 10
2.237167806898782
 20
22.50000000005965
 30
0.0
  0
SPLINE
  5
181
330
1F
100
AcDbEntity
  8
SK3
  6
SLD-Dashed
370
    18
100
AcDbSpline
210
0.0
220
0.0
230
1.0
 70
    24
 71
     3
 72
     8
 73
     4
 74
     0
 42
0.000000001
 43
0.00000001
 40
0.4999999999999986
 40
0.4999999999999986
 40
0.4999999999999986
 40
0.4999999999999986
 40
0.7499999999999992
 40
0.7499999999999992
 40
0.7499999999999992
 40
0.7499999999999992
 10
2.237167806898782
 20
22.50000000005965
 30
0.0
 10
2.273126591513547
 20
22.50000000005938
 30
0.0
 10
2.306332390229802
 20
22.50000000005911
 30
0.0
 10
2.332123478181944
 20
22.50000000005892
 30
0.0
  0
SPLINE
  5
182
330
1F
100
AcDbEntity
  8
SK3
  6
SLD-Dashed
370
    18
100
AcDbSpline
210
0.0
220
0.0
230
1.0
 70
    24
 71
     2
 72
     6
 73
     3
 74
     0
 42
0.000000001
 43
0.00000001
 40
0.7499999999999992
 40
0.7499999999999992
 40
0.7499999999999992
 40
1.0
 40
1.0
 40
1.0
 10
2.332123478181944
 20
22.50000000005892
 30
0.0
 10
2.357914566134101
 20
22.50000000005872
 30
0.0
 10
2.375000000000016
 20
22.50000000005858
 30
0.0
  0
SPLINE
  5
183
330
1F
100
AcDbEntity
  8
SK3
  6
SLD-Dashed
370
    18
100
AcDbSpline
210
0.0
220
0.0
230
1.0
 70
    24
 71
     2
 72
     6
 73
     3
 74
     0
 42
0.000000001
 43
0.00000001
 40
0.0
 40
0.0
 40
0.0
 40
0.5
 40
0.5
 40
0.5
 10
2.258226512231301
 20
-22.49999999999999
 30
0.0
 10
2.217596011637651
 20
-22.49999999999999
 30
0.0
 10
2.168434546971715
 20
-22.49999999999999
 30
0.0
  0
SPLINE
  5
184
330
1F
100
AcDbEntity
  8
SK3
  6
SLD-Dashed
370
    18
100
AcDbSpline
210
0.0
220
0.0
230
1.0
 70
    24
 71
     3
 72
     8
 73
     4
 74
     0
 42
0.000000001
 43
0.00000001
 40
0.5
 40
0.5
 40
0.5
 40
0.5
 40
1.0
 40
1.0
 40
1.0
 40
1.0
 10
2.168434546971715
 20
-22.49999999999999
 30
0.0
 10
2.119273082305793
 20
-22.5
 30
0.0
 10
2.060704526852947
 20
-22.5
 30
0.0
 10
2.000000000000002
 20
-22.5
 30
0.0
  0
SPLINE
  5
185
330
1F
100
AcDbEntity
  8
SK3
  6
SLD-Dashed
370
    18
100
AcDbSpline
210
0.0
220
0.0
230
1.0
 70
     8
 71
     3
 72
    33
 73
    29
 74
     0
 42
0.000000001
 43
0.00000001
 40
0.0
 40
0.0
 40
0.0
 40
0.0
 40
0.0314237011767243
 40
0.0627338405838476
 40
0.0877464954133457
 40
0.125283238617863
 40
0.1539645866459635
 40
0.1970563067230784
 40
0.2505255177847359
 40
0.27895945492924
 40
0.3216329583856287
 40
0.3752682204637777
 40
0.4040082420405283
 40
0.4468773540298215
 40
0.500214808281461
 40
0.5286826550732888
 40
0.5715495672142542
 40
0.6253905027017016
 40
0.6539239774352674
 40
0.6965997818910233
 40
0.7499747437940917
 40
0.7785995635307187
 40
0.8217149157189417
 40
0.8751793187678311
 40
0.9000505647746738
 40
0.9373747247573464
 40
0.9685907020195166
 40
1.0
 40
1.0
 40
1.0
 40
1.0
 10
2.375000000000006
 20
29.53435755317954
 30
0.0
 10
2.375084653143251
 20
29.54065054665651
 30
0.0
 10
2.37525365350268
 20
29.55321379143023
 30
0.0
 10
2.376523288498734
 20
29.57074878351025
 30
0.0
 10
2.378604433210116
 20
29.58943061230194
 30
0.0
 10
2.381481695767826
 20
29.60748253443747
 30
0.0
 10
2.385982972786794
 20
29.62890925450896
 30
0.0
 10
2.392449659118462
 20
29.65315822272132
 30
0.0
 10
2.400638163765681
 20
29.67684232694529
 30
0.0
 10
2.410229138284983
 20
29.69987740641963
 30
0.0
 10
2.421063479730273
 20
29.72240392143897
 30
0.0
 10
2.433554974923218
 20
29.74414232458067
 30
0.0
 10
2.447402504695566
 20
29.76506024365917
 30
0.0
 10
2.462353574794589
 20
29.78514459677449
 30
0.0
 10
2.478736246500289
 20
29.80402570440028
 30
0.0
 10
2.496277991374988
 20
29.82179847992354
 30
0.0
 10
2.514873650347985
 20
29.83863468290665
 30
0.0
 10
2.534730261353508
 20
29.8540103782596
 30
0.0
 10
2.555504834926739
 20
29.86800335428548
 30
0.0
 10
2.576977045940621
 20
29.88074321862894
 30
0.0
 10
2.599407555219063
 20
29.89178500632615
 30
0.0
 10
2.622583009878055
 20
29.90132189816603
 30
0.0
 10
2.646309265266198
 20
29.90948954562269
 30
0.0
 10
2.669897011154582
 20
29.91555645697575
 30
0.0
 10
2.692658387484031
 20
29.91986541147197
 30
0.0
 10
2.711206195171914
 20
29.92237236762035
 30
0.0
 10
2.731167694149245
 20
29.92399644689238
 30
0.0
 10
2.743709659268373
 20
29.92418572031039
 30
0.0
 10
2.750000000000003
 20
29.92428064915762
 30
0.0
  0
SPLINE
  5
186
330
1F
100
AcDbEntity
  8
SK3
  6
SLD-Dashed
370
    18
100
AcDbSpline
210
0.0
220
0.0
230
1.0
 70
     8
 71
     3
 72
    72
 73
    68
 74
     0
 42
0.000000001
 43
0.00000001
 40
0.0
 40
0.0
 40
0.0
 40
0.0
 40
0.0157612185525208
 40
0.0314944407588271
 40
0.0440673091864105
 40
0.0629143037699352
 40
0.0772790376670817
 40
0.0859037612261758
 40
0.0988488079275004
 40
0.1096540900806784
 40
0.1258620425689153
 40
0.1422708624367861
 40
0.1520835571792733
 40
0.1667663019716717
 40
0.1789770964729742
 40
0.1972662154014631
 40
0.2185786216224277
 40
0.2313634955280866
 40
0.2505508222716325
 40
0.2668164379324776
 40
0.276590897984364
 40
0.2912803868537554
 40
0.3035526137576178
 40
0.3220237137227273
 40
0.3436158044249226
 40
0.3565194039252786
 40
0.3758141840073973
 40
0.3920976812821951
 40
0.4018537423720779
 40
0.4164733577995061
 40
0.4286480299791514
 40
0.446905097736751
 40
0.4682146751085022
 40
0.4810146809829249
 40
0.5002461321365271
 40
0.5165743628185527
 40
0.5263959719527899
 40
0.5411665783947772
 40
0.553507577496481
 40
0.5719868553676599
 40
0.5934451143937443
 40
0.6062801785983514
 40
0.6254949303689047
 40
0.6417388720507333
 40
0.6514789421481791
 40
0.6660854566292315
 40
0.6782591279109474
 40
0.6965317096011892
 40
0.7178857269524808
 40
0.7307253207445228
 40
0.7500334386405894
 40
0.7664445277476002
 40
0.7763129779222369
 40
0.7911069392023091
 40
0.8033958440407837
 40
0.8217688954785624
 40
0.8431510727298546
 40
0.8559607889270998
 40
0.8751541048842995
 40
0.8893625747022456
 40
0.9106786391464772
 40
0.9213445519244039
 40
0.9373601961855798
 40
0.9498361394260063
 40
0.968591599488756
 40
0.9842692788384599
 40
1.0
 40
1.0
 40
1.0
 40
1.0
 10
2.750000000000003
 20
-30.06052755908995
 30
0.0
 10
2.745861672223321
 20
-30.06049623438803
 30
0.0
 10
2.737592367501165
 20
-30.06043364062563
 30
0.0
 10
2.726029731145829
 20
-30.05996155340183
 30
0.0
 10
2.713673037514491
 20
-30.05918814521118
 30
0.0
 10
2.701697345698584
 20
-30.05811873703171
 30
0.0
 10
2.690786376669391
 20
-30.05684171029795
 30
0.0
 10
2.68143792897789
 20
-30.05556577756117
 30
0.0
 10
2.673036860898703
 20
-30.05426600621351
 30
0.0
 10
2.662702104855474
 20
-30.05245747037749
 30
0.0
 10
2.651517345425597
 20
-30.05024141225735
 30
0.0
 10
2.640650638305902
 20
-30.04778171862085
 30
0.0
 10
2.630229352913016
 20
-30.04518446314697
 30
0.0
 10
2.620926078075319
 20
-30.0426644477225
 30
0.0
 10
2.609546797764511
 20
-30.0393088865356
 30
0.0
 10
2.59659727323909
 20
-30.03513444379983
 30
0.0
 10
2.583647572423603
 20
-30.03048966858658
 30
0.0
 10
2.570615568390777
 20
-30.02539887104323
 30
0.0
 10
2.558941272485709
 20
-30.02048208543575
 30
0.0
 10
2.548134132423954
 20
-30.0155577120555
 30
0.0
 10
2.538498989768004
 20
-30.0109176934823
 30
0.0
 10
2.529893005891848
 20
-30.00656001980231
 30
0.0
 10
2.519370868759002
 20
-30.00093908221151
 30
0.0
 10
2.507414099247387
 20
-29.99416353177615
 30
0.0
 10
2.495540866609885
 20
-29.98691706949539
 30
0.0
 10
2.483693765651246
 20
-29.97922751798155
 30
0.0
 10
2.473197989019376
 20
-29.97202127793947
 30
0.0
 10
2.463581845793442
 20
-29.96500416195115
 30
0.0
 10
2.455089469467389
 20
-29.95853501995387
 30
0.0
 10
2.447569222119306
 20
-29.95257195013377
 30
0.0
 10
2.438459209849156
 20
-29.94502626010773
 30
0.0
 10
2.428208469765866
 20
-29.93610842912056
 30
0.0
 10
2.418121516368832
 20
-29.92676106582368
 30
0.0
 10
2.408108336447681
 20
-29.91696829992846
 30
0.0
 10
2.399254020198319
 20
-29.90786487670001
 30
0.0
 10
2.391187801522421
 20
-29.89909336276191
 30
0.0
 10
2.38407959394002
 20
-29.89103650215163
 30
0.0
 10
2.37780343097678
 20
-29.8836431704258
 30
0.0
 10
2.370250947610939
 20
-29.87435547870689
 30
0.0
 10
2.36184764959263
 20
-29.86349997694656
 30
0.0
 10
2.353706617708881
 20
-29.85228462241694
 30
0.0
 10
2.345757628003348
 20
-29.84069989938752
 30
0.0
 10
2.338843009575014
 20
-29.83006891679047
 30
0.0
 10
2.332644345721752
 20
-29.81994777166259
 30
0.0
 10
2.327260044052981
 20
-29.81075023968681
 30
0.0
 10
2.322570350441033
 20
-29.80238567586875
 30
0.0
 10
2.316997363543141
 20
-29.79195116322386
 30
0.0
 10
2.310868596394053
 20
-29.77980785256826
 30
0.0
 10
2.305033441188153
 20
-29.76732649201751
 30
0.0
 10
2.299415582272257
 20
-29.75445077440485
 30
0.0
 10
2.294600779993397
 20
-29.74264331307304
 30
0.0
 10
2.290381171159983
 20
-29.73144107762453
 30
0.0
 10
2.286780010895786
 20
-29.72127564742936
 30
0.0
 10
2.28370993406099
 20
-29.71207145368451
 30
0.0
 10
2.280163779893152
 20
-29.70067506908869
 30
0.0
 10
2.276405551154451
 20
-29.68753570631937
 30
0.0
 10
2.273004314469654
 20
-29.67415743909959
 30
0.0
 10
2.269898193315495
 20
-29.66048861644927
 30
0.0
 10
2.26749242093352
 20
-29.64859442308454
 30
0.0
 10
2.264994795294253
 20
-29.63444581670356
 30
0.0
 10
2.263202414824139
 20
-29.62244894433552
 30
0.0
 10
2.261637133568972
 20
-29.60994407024954
 30
0.0
 10
2.260562742126965
 20
-29.59971819548466
 30
0.0
 10
2.259525667984319
 20
-29.58735593043978
 30
0.0
 10
2.258786454142153
 20
-29.57506037143049
 30
0.0
 10
2.258309856624494
 20
-29.56189641680356
 30
0.0
 10
2.258254324955841
 20
-29.55364973250455
 30
0.0
 10
2.25822651223119
 20
-29.54951942694606
 30
0.0
  0
SPLINE
  5
187
330
1F
100
AcDbEntity
  8
1
  6
SLD-Dashed
370
    18
100
AcDbSpline
210
0.0
220
0.0
230
1.0
 70
     8
 71
     3
 72
    10
 73
     6
 74
     0
 42
0.000000001
 43
0.00000001
 40
0.0
 40
0.0
 40
0.0
 40
0.0
 40
0.5
 40
0.5
 40
1.0
 40
1.0
 40
1.0
 40
1.0
 10
19.10000000000301
 20
-25.8918833807036
 30
0.0
 10
19.10000000000215
 20
-25.78181125020744
 30
0.0
 10
19.0544820314278
 20
-25.67472639940335
 30
0.0
 10
18.91775493242109
 20
-25.51771826549045
 30
0.0
 10
18.82528755215371
 20
-25.46388531808258
 30
0.0
 10
18.72499999999999
 20
-25.45080303251747
 30
0.0
  0
SPLINE
  5
188
330
1F
100
AcDbEntity
  8
1
  6
SLD-Dashed
370
    18
100
AcDbSpline
210
0.0
220
0.0
230
1.0
 70
     8
 71
     3
 72
    10
 73
     6
 74
     0
 42
0.000000001
 43
0.00000001
 40
0.0
 40
0.0
 40
0.0
 40
0.0
 40
0.4999999999999999
 40
0.4999999999999999
 40
1.0
 40
1.0
 40
1.0
 40
1.0
 10
18.72499999999999
 20
-25.45080303251747
 30
0.0
 10
18.20352426803766
 20
-25.38277769642479
 30
0.0
 10
17.66546726494324
 20
-25.32833556430061
 30
0.0
 10
16.55640659544729
 20
-25.25352663193744
 30
0.0
 10
15.98103477800684
 20
-25.23333063628343
 30
0.0
 10
15.405
 20
-25.23333063628342
 30
0.0
  0
SPLINE
  5
189
330
1F
100
AcDbEntity
  8
SK3
  6
SLD-Dashed
370
    18
100
AcDbSpline
210
0.0
220
0.0
230
1.0
 70
     8
 71
     3
 72
    18
 73
    14
 74
     0
 42
0.000000001
 43
0.00000001
 40
0.0
 40
0.0
 40
0.0
 40
0.0
 40
0.0229754046268026
 40
0.0438482002036844
 40
0.0626183981417392
 40
0.0952267558308552
 40
0.1254479029945492
 40
0.1877704366526662
 40
0.2501074993620221
 40
0.3129352297811917
 40
0.3754195309366937
 40
0.4376131166539997
 40
0.5000916007165532
 40
0.5000916007165532
 40
0.5000916007165532
 40
0.5000916007165532
 10
21.37719856971541
 20
-30.56976977612056
 30
0.0
 10
21.43821931862337
 20
-30.58292858498223
 30
0.0
 10
21.55467646304174
 20
-30.60804196578142
 30
0.0
 10
21.71324531570089
 20
-30.64344921004399
 30
0.0
 10
21.89017705162266
 20
-30.68378816688254
 30
0.0
 10
22.08017320041202
 20
-30.72829411914116
 30
0.0
 10
22.35273297301876
 20
-30.79413401368455
 30
0.0
 10
22.65470782409117
 20
-30.87012859763768
 30
0.0
 10
22.95903919696354
 20
-30.95012582986926
 30
0.0
 10
23.19924690430439
 20
-31.01543784117954
 30
0.0
 10
23.37233503531799
 20
-31.06368049056142
 30
0.0
 10
23.47676543950503
 20
-31.09326063923669
 30
0.0
 10
23.50003366098446
 20
-31.0999046771617
 30
0.0
 10
23.49999992723219
 20
-31.09989503850073
 30
0.0
  0
SPLINE
  5
18A
330
1F
100
AcDbEntity
  8
1
  6
SLD-Dashed
370
    18
100
AcDbSpline
210
0.0
220
0.0
230
1.0
 70
     8
 71
     3
 72
    10
 73
     6
 74
     0
 42
0.000000001
 43
0.00000001
 40
0.0
 40
0.0
 40
0.0
 40
0.0
 40
0.5
 40
0.5
 40
1.0
 40
1.0
 40
1.0
 40
1.0
 10
21.37719856971543
 20
-30.56976977612056
 30
0.0
 10
21.01735230642608
 20
-29.86631727905854
 30
0.0
 10
20.64574494515686
 20
-29.14099892747474
 30
0.0
 10
19.88530540807161
 20
-27.65995485632394
 30
0.0
 10
19.49582638943333
 20
-26.90296528068284
 30
0.0
 10
19.1
 20
-26.13585634682925
 30
0.0
  0
SPLINE
  5
18B
330
1F
100
AcDbEntity
  8
1
  6
SLD-Dashed
370
    18
100
AcDbSpline
210
0.0
220
0.0
230
1.0
 70
     8
 71
     3
 72
    10
 73
     6
 74
     0
 42
0.000000001
 43
0.00000001
 40
0.0
 40
0.0
 40
0.0
 40
0.0
 40
0.4999999999999999
 40
0.4999999999999999
 40
1.0
 40
1.0
 40
1.0
 40
1.0
 10
18.72499999999999
 20
25.45080303251746
 30
0.0
 10
18.20352426803766
 20
25.3827776964248
 30
0.0
 10
17.66546726494324
 20
25.32833556430061
 30
0.0
 10
16.55640659544729
 20
25.25352663193744
 30
0.0
 10
15.98103477800684
 20
25.23333063628343
 30
0.0
 10
15.40499999999999
 20
25.23333063628343
 30
0.0
  0
SPLINE
  5
18C
330
1F
100
AcDbEntity
  8
1
  6
SLD-Dashed
370
    18
100
AcDbSpline
210
0.0
220
0.0
230
1.0
 70
     8
 71
     3
 72
    10
 73
     6
 74
     0
 42
0.000000001
 43
0.00000001
 40
0.0
 40
0.0
 40
0.0
 40
0.0
 40
0.5
 40
0.5
 40
1.0
 40
1.0
 40
1.0
 40
1.0
 10
19.10000000000302
 20
25.89188338070359
 30
0.0
 10
19.10000000000216
 20
25.78181125020743
 30
0.0
 10
19.0544820314278
 20
25.67472639940334
 30
0.0
 10
18.91775493242109
 20
25.51771826549044
 30
0.0
 10
18.82528755215372
 20
25.46388531808258
 30
0.0
 10
18.72499999999999
 20
25.45080303251746
 30
0.0
  0
SPLINE
  5
18D
330
1F
100
AcDbEntity
  8
1
  6
SLD-Dashed
370
    18
100
AcDbSpline
210
0.0
220
0.0
230
1.0
 70
     8
 71
     3
 72
    10
 73
     6
 74
     0
 42
0.000000001
 43
0.00000001
 40
0.0
 40
0.0
 40
0.0
 40
0.0
 40
0.5
 40
0.5
 40
1.0
 40
1.0
 40
1.0
 40
1.0
 10
21.37719856678899
 20
30.569769775306
 30
0.0
 10
21.01735230238042
 20
29.86631727537957
 30
0.0
 10
20.64574494115347
 20
29.14099892315878
 30
0.0
 10
19.88530540526506
 20
27.65995485274541
 30
0.0
 10
19.49582638782488
 20
26.90296527856377
 30
0.0
 10
19.1
 20
26.13585634682925
 30
0.0
  0
SPLINE
  5
18E
330
1F
100
AcDbEntity
  8
SK3
  6
SLD-Dashed
370
    18
100
AcDbSpline
210
0.0
220
0.0
230
1.0
 70
     8
 71
     3
 72
     8
 73
     4
 74
     0
 42
0.000000001
 43
0.00000001
 40
0.0
 40
0.0
 40
0.0
 40
0.0
 40
0.0230715776046964
 40
0.0230715776046964
 40
0.0230715776046964
 40
0.0230715776046964
 10
21.37719856678899
 20
30.569769775306
 30
0.0
 10
21.43847205397496
 20
30.58298351555641
 30
0.0
 10
21.49974554116095
 20
30.59619725580682
 30
0.0
 10
21.55951825630659
 20
30.60932238432992
 30
0.0
  0
SPLINE
  5
18F
330
1F
100
AcDbEntity
  8
SK3
  6
SLD-Dashed
370
    18
100
AcDbSpline
210
0.0
220
0.0
230
1.0
 70
     8
 71
     3
 72
     8
 73
     4
 74
     0
 42
0.000000001
 43
0.00000001
 40
0.0230715776046964
 40
0.0230715776046964
 40
0.0230715776046964
 40
0.0230715776046964
 40
0.0440279222274539
 40
0.0440279222274539
 40
0.0440279222274539
 40
0.0440279222274539
 10
21.55951825630659
 20
30.60932238432992
 30
0.0
 10
21.61381092926952
 20
30.62124418357837
 30
0.0
 10
21.66686540106401
 20
30.63309287435909
 30
0.0
 10
21.71899505140826
 20
30.64486241571292
 30
0.0
  0
SPLINE
  5
190
330
1F
100
AcDbEntity
  8
SK3
  6
SLD-Dashed
370
    18
100
AcDbSpline
210
0.0
220
0.0
230
1.0
 70
     8
 71
     3
 72
     8
 73
     4
 74
     0
 42
0.000000001
 43
0.00000001
 40
0.0440279222274539
 40
0.0440279222274539
 40
0.0440279222274539
 40
0.0440279222274539
 40
0.0628690454311687
 40
0.0628690454311687
 40
0.0628690454311687
 40
0.0628690454311687
 10
21.71899505140826
 20
30.64486241571292
 30
0.0
 10
21.76586301346854
 20
30.65544400246818
 30
0.0
 10
21.81198342524676
 20
30.6659616112779
 30
0.0
 10
21.85727129832139
 20
30.67638986945499
 30
0.0
  0
SPLINE
  5
191
330
1F
100
AcDbEntity
  8
SK3
  6
SLD-Dashed
370
    18
100
AcDbSpline
210
0.0
220
0.0
230
1.0
 70
     8
 71
     3
 72
     8
 73
     4
 74
     0
 42
0.000000001
 43
0.00000001
 40
0.0628690454311687
 40
0.0628690454311687
 40
0.0628690454311687
 40
0.0628690454311687
 40
0.0952120621158452
 40
0.0952120621158452
 40
0.0952120621158452
 40
0.0952120621158452
 10
21.85727129832139
 20
30.67638986945499
 30
0.0
 10
21.93501328953019
 20
30.69429120816854
 30
0.0
 10
22.01030197371042
 20
30.71192925037212
 30
0.0
 10
22.08308404490285
 20
30.72924534579306
 30
0.0
  0
SPLINE
  5
192
330
1F
100
AcDbEntity
  8
SK3
  6
SLD-Dashed
370
    18
100
AcDbSpline
210
0.0
220
0.0
230
1.0
 70
     8
 71
     3
 72
     8
 73
     4
 74
     0
 42
0.000000001
 43
0.00000001
 40
0.0952120621158452
 40
0.0952120621158452
 40
0.0952120621158452
 40
0.0952120621158452
 40
0.1252082824845205
 40
0.1252082824845205
 40
0.1252082824845205
 40
0.1252082824845205
 10
22.08308404490285
 20
30.72924534579306
 30
0.0
 10
22.15058507820662
 20
30.74530499227675
 30
0.0
 10
22.21593005913314
 20
30.76108771762046
 30
0.0
 10
22.27905775482787
 20
30.7765266238656
 30
0.0
  0
SPLINE
  5
193
330
1F
100
AcDbEntity
  8
SK3
  6
SLD-Dashed
370
    18
100
AcDbSpline
210
0.0
220
0.0
230
1.0
 70
     8
 71
     3
 72
     8
 73
     4
 74
     0
 42
0.000000001
 43
0.00000001
 40
0.1252082824845205
 40
0.1252082824845205
 40
0.1252082824845205
 40
0.1252082824845205
 40
0.1874443143945977
 40
0.1874443143945977
 40
0.1874443143945977
 40
0.1874443143945977
 10
22.27905775482787
 20
30.7765266238656
 30
0.0
 10
22.41003483245228
 20
30.80855920163442
 30
0.0
 10
22.53146699029092
 20
30.83911171465134
 30
0.0
 10
22.64275720187064
 20
30.86767874348239
 30
0.0
  0
SPLINE
  5
194
330
1F
100
AcDbEntity
  8
SK3
  6
SLD-Dashed
370
    18
100
AcDbSpline
210
0.0
220
0.0
230
1.0
 70
     8
 71
     3
 72
     8
 73
     4
 74
     0
 42
0.000000001
 43
0.00000001
 40
0.1874443143945977
 40
0.1874443143945977
 40
0.1874443143945977
 40
0.1874443143945977
 40
0.2501296237171777
 40
0.2501296237171777
 40
0.2501296237171777
 40
0.2501296237171777
 10
22.64275720187064
 20
30.86767874348239
 30
0.0
 10
22.75485080943758
 20
30.89645199562816
 30
0.0
 10
22.85665551426634
 20
30.92321099398525
 30
0.0
 10
22.94768740588886
 20
30.94750125886342
 30
0.0
  0
SPLINE
  5
195
330
1F
100
AcDbEntity
  8
SK3
  6
SLD-Dashed
370
    18
100
AcDbSpline
210
0.0
220
0.0
230
1.0
 70
     8
 71
     3
 72
     8
 73
     4
 74
     0
 42
0.000000001
 43
0.00000001
 40
0.2501296237171777
 40
0.2501296237171777
 40
0.2501296237171777
 40
0.2501296237171777
 40
0.3127676613642494
 40
0.3127676613642494
 40
0.3127676613642494
 40
0.3127676613642494
 10
22.94768740588886
 20
30.94750125886342
 30
0.0
 10
23.03865064936893
 20
30.9717732061879
 30
0.0
 10
23.11885732130833
 20
30.99358014202724
 30
0.0
 10
23.18788810994507
 20
31.01254612663383
 30
0.0
  0
SPLINE
  5
196
330
1F
100
AcDbEntity
  8
SK3
  6
SLD-Dashed
370
    18
100
AcDbSpline
210
0.0
220
0.0
230
1.0
 70
     8
 71
     3
 72
     8
 73
     4
 74
     0
 42
0.000000001
 43
0.00000001
 40
0.3127676613642494
 40
0.3127676613642494
 40
0.3127676613642494
 40
0.3127676613642494
 40
0.3749096799645028
 40
0.3749096799645028
 40
0.3749096799645028
 40
0.3749096799645028
 10
23.18788810994507
 20
31.01254612663383
 30
0.0
 10
23.25637225652106
 20
31.03136192311258
 30
0.0
 10
23.31385681849111
 20
31.04738158414509
 30
0.0
 10
23.36003478116547
 20
31.06032956784417
 30
0.0
  0
SPLINE
  5
197
330
1F
100
AcDbEntity
  8
SK3
  6
SLD-Dashed
370
    18
100
AcDbSpline
210
0.0
220
0.0
230
1.0
 70
     8
 71
     3
 72
     8
 73
     4
 74
     0
 42
0.000000001
 43
0.00000001
 40
0.3749096799645028
 40
0.3749096799645028
 40
0.3749096799645028
 40
0.3749096799645028
 40
0.4371223082215218
 40
0.4371223082215218
 40
0.4371223082215218
 40
0.4371223082215218
 10
23.36003478116547
 20
31.06032956784417
 30
0.0
 10
23.40626521413561
 20
31.07329226385393
 30
0.0
 10
23.44116333867848
 20
31.08317629809977
 30
0.0
 10
23.46453392598055
 20
31.08980898206573
 30
0.0
  0
SPLINE
  5
198
330
1F
100
AcDbEntity
  8
SK3
  6
SLD-Dashed
370
    18
100
AcDbSpline
210
0.0
220
0.0
230
1.0
 70
     8
 71
     3
 72
     8
 73
     4
 74
     0
 42
0.000000001
 43
0.00000001
 40
0.4371223082215218
 40
0.4371223082215218
 40
0.4371223082215218
 40
0.4371223082215218
 40
0.4999114563503132
 40
0.4999114563503132
 40
0.4999114563503132
 40
0.4999114563503132
 10
23.46453392598055
 20
31.08980898206573
 30
0.0
 10
23.48812108680427
 20
31.09650313062846
 30
0.0
 10
23.4999660707617
 20
31.09988538964852
 30
0.0
 10
23.49999992266036
 20
31.09989503384847
 30
0.0
  0
SPLINE
  5
199
330
1F
100
AcDbEntity
  8
SK3
  6
SLD-Dashed
370
    18
100
AcDbSpline
210
0.0
220
0.0
230
1.0
 70
     8
 71
     3
 72
     8
 73
     4
 74
     0
 42
0.000000001
 43
0.00000001
 40
0.5624697494052444
 40
0.5624697494052444
 40
0.5624697494052444
 40
0.5624697494052444
 40
0.6246519449431213
 40
0.6246519449431213
 40
0.6246519449431213
 40
0.6246519449431213
 10
23.46498710467013
 20
31.08993810490032
 30
0.0
 10
23.44178013907218
 20
31.08335149679032
 30
0.0
 10
23.40705608521379
 20
31.07351599049123
 30
0.0
 10
23.36100893565957
 20
31.06060315608145
 30
0.0
  0
SPLINE
  5
19A
330
1F
100
AcDbEntity
  8
SK3
  6
SLD-Dashed
370
    18
100
AcDbSpline
210
0.0
220
0.0
230
1.0
 70
     8
 71
     3
 72
     8
 73
     4
 74
     0
 42
0.000000001
 43
0.00000001
 40
0.6246519449431213
 40
0.6246519449431213
 40
0.6246519449431213
 40
0.6246519449431213
 40
0.6871253789786637
 40
0.6871253789786637
 40
0.6871253789786637
 40
0.6871253789786637
 10
23.36100893565957
 20
31.06060315608145
 30
0.0
 10
23.31474611821938
 20
31.04762984271202
 30
0.0
 10
23.25705389027707
 20
31.03155030758388
 30
0.0
 10
23.18824290792583
 20
31.01264402452958
 30
0.0
  0
SPLINE
  5
19B
330
1F
100
AcDbEntity
  8
SK3
  6
SLD-Dashed
370
    18
100
AcDbSpline
210
0.0
220
0.0
230
1.0
 70
     8
 71
     3
 72
     8
 73
     4
 74
     0
 42
0.000000001
 43
0.00000001
 40
0.6871253789786637
 40
0.6871253789786637
 40
0.6871253789786637
 40
0.6871253789786637
 40
0.7499413914604945
 40
0.7499413914604945
 40
0.7499413914604945
 40
0.7499413914604945
 10
23.18824290792583
 20
31.01264402452958
 30
0.0
 10
23.11905459463727
 20
30.99363406724679
 30
0.0
 10
23.03862525131066
 20
30.97176627560781
 30
0.0
 10
22.94738183465521
 20
30.94742018943801
 30
0.0
  0
SPLINE
  5
19C
330
1F
100
AcDbEntity
  8
SK3
  6
SLD-Dashed
370
    18
100
AcDbSpline
210
0.0
220
0.0
230
1.0
 70
     8
 71
     3
 72
     8
 73
     4
 74
     0
 42
0.000000001
 43
0.00000001
 40
0.7499413914604945
 40
0.7499413914604945
 40
0.7499413914604945
 40
0.7499413914604945
 40
0.8122668496053574
 40
0.8122668496053574
 40
0.8122668496053574
 40
0.8122668496053574
 10
22.94738183465521
 20
30.94742018943801
 30
0.0
 10
22.85685097284036
 20
30.92326423119398
 30
0.0
 10
22.75567428067807
 20
30.89666853518198
 30
0.0
 10
22.64431411724764
 20
30.868078856285
 30
0.0
  0
SPLINE
  5
19D
330
1F
100
AcDbEntity
  8
SK3
  6
SLD-Dashed
370
    18
100
AcDbSpline
210
0.0
220
0.0
230
1.0
 70
     8
 71
     3
 72
     8
 73
     4
 74
     0
 42
0.000000001
 43
0.00000001
 40
0.8122668496053574
 40
0.8122668496053574
 40
0.8122668496053574
 40
0.8122668496053574
 40
0.8745780800877176
 40
0.8745780800877176
 40
0.8745780800877176
 40
0.8745780800877176
 10
22.64431411724764
 20
30.868078856285
 30
0.0
 10
22.5329793751277
 20
30.83949570384308
 30
0.0
 10
22.41146581057689
 20
30.80891947878556
 30
0.0
 10
22.28041730288542
 20
30.7768593505767
 30
0.0
  0
SPLINE
  5
19E
330
1F
100
AcDbEntity
  8
SK3
  6
SLD-Dashed
370
    18
100
AcDbSpline
210
0.0
220
0.0
230
1.0
 70
     8
 71
     3
 72
     8
 73
     4
 74
     0
 42
0.000000001
 43
0.00000001
 40
0.8745780800877176
 40
0.8745780800877176
 40
0.8745780800877176
 40
0.8745780800877176
 40
0.9047897696366306
 40
0.9047897696366306
 40
0.9047897696366306
 40
0.9047897696366306
 10
22.28041730288542
 20
30.7768593505767
 30
0.0
 10
22.21687824580735
 20
30.76131495139139
 30
0.0
 10
22.15109770557576
 20
30.74542171489621
 30
0.0
 10
22.08308404490285
 20
30.72924534579306
 30
0.0
  0
SPLINE
  5
19F
330
1F
100
AcDbEntity
  8
SK3
  6
SLD-Dashed
370
    18
100
AcDbSpline
210
0.0
220
0.0
230
1.0
 70
     8
 71
     3
 72
     8
 73
     4
 74
     0
 42
0.000000001
 43
0.00000001
 40
0.9047897696366306
 40
0.9047897696366306
 40
0.9047897696366306
 40
0.9047897696366306
 40
0.9373962146516528
 40
0.9373962146516528
 40
0.9373962146516528
 40
0.9373962146516528
 10
22.08308404490285
 20
30.72924534579306
 30
0.0
 10
22.00967922312309
 20
30.71178674292843
 30
0.0
 10
21.93367322962486
 20
30.69399834301445
 30
0.0
 10
21.85537187359395
 20
30.67595259556859
 30
0.0
  0
SPLINE
  5
1A0
330
1F
100
AcDbEntity
  8
SK3
  6
SLD-Dashed
370
    18
100
AcDbSpline
210
0.0
220
0.0
230
1.0
 70
     8
 71
     3
 72
     8
 73
     4
 74
     0
 42
0.000000001
 43
0.00000001
 40
0.9373962146516528
 40
0.9373962146516528
 40
0.9373962146516528
 40
0.9373962146516528
 40
0.9663311417240675
 40
0.9663311417240675
 40
0.9663311417240675
 40
0.9663311417240675
 10
21.85537187359395
 20
30.67595259556859
 30
0.0
 10
21.78594592968897
 20
30.65968663304703
 30
0.0
 10
21.71471318830072
 20
30.64321145362853
 30
0.0
 10
21.64108540956017
 20
30.62657067523481
 30
0.0
  0
SPLINE
  5
1A1
330
1F
100
AcDbEntity
  8
SK3
  6
SLD-Dashed
370
    18
100
AcDbSpline
210
0.0
220
0.0
230
1.0
 70
     8
 71
     3
 72
     8
 73
     4
 74
     0
 42
0.000000001
 43
0.00000001
 40
0.9663311417240675
 40
0.9663311417240675
 40
0.9663311417240675
 40
0.9663311417240675
 40
1.0
 40
1.0
 40
1.0
 40
1.0
 10
21.64108540956017
 20
30.62657067523481
 30
0.0
 10
21.5552859537785
 20
30.60777227277376
 30
0.0
 10
21.46624226028374
 20
30.58877102403988
 30
0.0
 10
21.37719856678899
 20
30.569769775306
 30
0.0
  0
SPLINE
  5
1A2
330
1F
100
AcDbEntity
  8
SK3
  6
SLD-Dashed
370
    18
100
AcDbSpline
210
0.0
220
0.0
230
1.0
 70
     8
 71
     3
 72
    30
 73
    26
 74
     0
 42
0.000000001
 43
0.00000001
 40
0.5000000000000008
 40
0.5000000000000008
 40
0.5000000000000008
 40
0.5000000000000008
 40
0.5625000000000007
 40
0.5625000000000007
 40
0.5937500000000007
 40
0.5937500000000007
 40
0.6250000000000006
 40
0.6250000000000006
 40
0.6562500000000004
 40
0.6562500000000004
 40
0.6875000000000003
 40
0.6875000000000003
 40
0.7500000000000001
 40
0.7500000000000001
 40
0.7812500000000001
 40
0.7812500000000001
 40
0.8125
 40
0.8125
 40
0.8749999999999998
 40
0.8749999999999998
 40
0.9374999999999997
 40
0.9374999999999997
 40
0.9687499999999998
 40
0.9687499999999998
 40
1.0
 40
1.0
 40
1.0
 40
1.0
 10
8.999303684107119
 20
3.877172552155861
 30
0.0
 10
9.215091268871975
 20
3.877250570353361
 30
0.0
 10
9.432951289119709
 20
3.840163879053033
 30
0.0
 10
9.731053175658602
 20
3.733503950163433
 30
0.0
 10
9.827533930619053
 20
3.688844576862374
 30
0.0
 10
10.00679675468216
 20
3.584396341963829
 30
0.0
 10
10.08962098377894
 20
3.524896024259295
 30
0.0
 10
10.24187870501916
 20
3.390855347486413
 30
0.0
 10
10.31131806940208
 20
3.315889249412188
 30
0.0
 10
10.43072006888068
 20
3.156394907283588
 30
0.0
 10
10.48158790169311
 20
3.071195911952124
 30
0.0
 10
10.60679440427298
 20
2.7978706014977
 30
0.0
 10
10.64987466953579
 20
2.599635773386642
 30
0.0
 10
10.65006225703519
 20
2.292729329377928
 30
0.0
 10
10.63945301760236
 20
2.190971671629391
 30
0.0
 10
10.59741496733703
 20
1.988602412505154
 30
0.0
 10
10.56545121229691
 20
1.887128696729766
 30
0.0
 10
10.44157935443363
 20
1.597150549416205
 30
0.0
 10
10.3188679471566
 20
1.416237039392053
 30
0.0
 10
10.0160688283561
 20
1.113819439191394
 30
0.0
 10
9.83281800952536
 20
0.9894109901842572
 30
0.0
 10
9.535049908455552
 20
0.863434944832979
 30
0.0
 10
9.430052209448675
 20
0.8306714940699498
 30
0.0
 10
9.217304704732726
 20
0.7872186525825984
 30
0.0
 10
9.10942130839526
 20
0.7761870294392057
 30
0.0
 10
9.000000000000007
 20
0.7761870294392057
 30
0.0
  0
SPLINE
  5
1A3
330
1F
100
AcDbEntity
  8
SK3
  6
SLD-Dashed
370
    18
100
AcDbSpline
210
0.0
220
0.0
230
1.0
 70
     8
 71
     3
 72
    32
 73
    28
 74
     0
 42
0.000000001
 43
0.00000001
 40
0.0
 40
0.0
 40
0.0
 40
0.0
 40
0.0312499999999999
 40
0.0312499999999999
 40
0.0624999999999998
 40
0.0624999999999998
 40
0.0937499999999997
 40
0.0937499999999997
 40
0.1249999999999996
 40
0.1249999999999996
 40
0.1874999999999997
 40
0.1874999999999997
 40
0.2499999999999997
 40
0.2499999999999997
 40
0.2812499999999997
 40
0.2812499999999997
 40
0.3124999999999998
 40
0.3124999999999998
 40
0.375
 40
0.375
 40
0.4062500000000002
 40
0.4062500000000002
 40
0.4375000000000004
 40
0.4375000000000004
 40
0.4687500000000006
 40
0.4687500000000006
 40
0.5000000000000008
 40
0.5000000000000008
 40
0.5000000000000008
 40
0.5000000000000008
 10
9.000000000000007
 20
0.7761870294392195
 30
0.0
 10
8.89057869160477
 20
0.7761870294392057
 30
0.0
 10
8.783065869333099
 20
0.7872158517148662
 30
0.0
 10
8.571675575092808
 20
0.8302464334251567
 30
0.0
 10
8.466679038285491
 20
0.8627949969944384
 30
0.0
 10
8.267066953356938
 20
0.9470624567166491
 30
0.0
 10
8.172454825237471
 20
0.9984411012338781
 30
0.0
 10
7.993397793892909
 20
1.11911766189756
 30
0.0
 10
7.908932550725972
 20
1.188799965596045
 30
0.0
 10
7.681543306819457
 20
1.415674410817802
 30
0.0
 10
7.558729911511006
 20
1.596813358985809
 30
0.0
 10
7.393870539297937
 20
1.98196991963296
 30
0.0
 10
7.350132936589731
 20
2.19013688090098
 30
0.0
 10
7.349933997937097
 20
2.494715483199073
 30
0.0
 10
7.360739932554871
 20
2.596989968316706
 30
0.0
 10
7.403010878332561
 20
2.792786270541955
 30
0.0
 10
7.434282312656762
 20
2.887169215205688
 30
0.0
 10
7.558818187818436
 20
3.160133943201984
 30
0.0
 10
7.680190608826646
 20
3.321994093354222
 30
0.0
 10
7.909685791142262
 20
3.524411755127757
 30
0.0
 10
7.992562612113799
 20
3.583929339277786
 30
0.0
 10
8.170891565882924
 20
3.688019764047507
 30
0.0
 10
8.267507675195754
 20
3.732907718499746
 30
0.0
 10
8.466709431345087
 20
3.804343127065277
 30
0.0
 10
8.56955576173693
 20
3.831307682281064
 30
0.0
 10
8.781872179542487
 20
3.867841494158419
 30
0.0
 10
8.891409891724697
 20
3.877133543057118
 30
0.0
 10
8.999303684107119
 20
3.877172552155861
 30
0.0
  0
SPLINE
  5
1A4
330
1F
100
AcDbEntity
  8
SK3
  6
SLD-Dashed
370
    18
100
AcDbSpline
210
0.0
220
0.0
230
1.0
 70
     8
 71
     3
 72
    16
 73
    12
 74
     0
 42
0.000000001
 43
0.00000001
 40
0.0
 40
0.0
 40
0.0
 40
0.0
 40
0.2499999999999987
 40
0.2499999999999987
 40
0.4999999999999973
 40
0.4999999999999973
 40
0.6249999999999976
 40
0.6249999999999976
 40
0.7499999999999978
 40
0.7499999999999978
 40
1.0
 40
1.0
 40
1.0
 40
1.0
 10
16.00000000000001
 20
-5.574598956320422
 30
0.0
 10
15.92427380350542
 20
-5.483837565169361
 30
0.0
 10
15.85293906670075
 20
-5.388366920032435
 30
0.0
 10
15.73979606973497
 20
-5.181558905742158
 30
0.0
 10
15.69968462234296
 20
-5.068477628572079
 30
0.0
 10
15.69951262246432
 20
-4.891202653028836
 30
0.0
 10
15.70930506214301
 20
-4.829976301223688
 30
0.0
 10
15.74359107572909
 20
-4.709961283823412
 30
0.0
 10
15.76772077615525
 20
-4.650498103888133
 30
0.0
 10
15.85232232653347
 20
-4.472172299072392
 30
0.0
 10
15.92420067417406
 20
-4.353280407746362
 30
0.0
 10
16.00000000000001
 20
-4.233656395621971
 30
0.0
  0
SPLINE
  5
1A5
330
1F
100
AcDbEntity
  8
SK3
  6
SLD-Dashed
370
    18
100
AcDbSpline
210
0.0
220
0.0
230
1.0
 70
     8
 71
     3
 72
    16
 73
    12
 74
     0
 42
0.000000001
 43
0.00000001
 40
0.0
 40
0.0
 40
0.0
 40
0.0
 40
0.2499999999999984
 40
0.2499999999999984
 40
0.4999999999999969
 40
0.4999999999999969
 40
0.624999999999997
 40
0.624999999999997
 40
0.7499999999999971
 40
0.7499999999999971
 40
1.0
 40
1.0
 40
1.0
 40
1.0
 10
16.00000000000001
 20
-4.233656395622013
 30
0.0
 10
15.92427380350542
 20
-4.353164997432067
 30
0.0
 10
15.85293906670075
 20
-4.471059039916705
 30
0.0
 10
15.73979606973497
 20
-4.709173421062852
 30
0.0
 10
15.69968462234296
 20
-4.830991129736242
 30
0.0
 10
15.69951262246432
 20
-5.008305282102437
 30
0.0
 10
15.70930506214301
 20
-5.067351505282453
 30
0.0
 10
15.74359107572908
 20
-5.17909133471843
 30
0.0
 10
15.76772077615524
 20
-5.232501119456778
 30
0.0
 10
15.85232232653347
 20
-5.387436982920827
 30
0.0
 10
15.92420067417408
 20
-5.483749916242664
 30
0.0
 10
16.00000000000001
 20
-5.574598956320464
 30
0.0
  0
SPLINE
  5
1A6
330
1F
100
AcDbEntity
  8
SK3
  6
SLD-Dashed
370
    18
100
AcDbSpline
210
0.0
220
0.0
230
1.0
 70
     8
 71
     3
 72
    16
 73
    12
 74
     0
 42
0.000000001
 43
0.00000001
 40
0.0
 40
0.0
 40
0.0
 40
0.0
 40
0.2499999999999987
 40
0.2499999999999987
 40
0.4999999999999973
 40
0.4999999999999973
 40
0.6249999999999976
 40
0.6249999999999976
 40
0.7499999999999978
 40
0.7499999999999978
 40
1.0
 40
1.0
 40
1.0
 40
1.0
 10
16.00000000000001
 20
5.574598956320418
 30
0.0
 10
15.92427380350542
 20
5.483837565169354
 30
0.0
 10
15.85293906670075
 20
5.388366920032437
 30
0.0
 10
15.73979606973497
 20
5.181558905742172
 30
0.0
 10
15.69968462234296
 20
5.068477628572079
 30
0.0
 10
15.69951262246432
 20
4.89120265302883
 30
0.0
 10
15.70930506214301
 20
4.829976301223692
 30
0.0
 10
15.74359107572909
 20
4.709961283823414
 30
0.0
 10
15.76772077615525
 20
4.650498103888117
 30
0.0
 10
15.85232232653347
 20
4.472172299072389
 30
0.0
 10
15.92420067417406
 20
4.353280407746358
 30
0.0
 10
16.00000000000001
 20
4.233656395621968
 30
0.0
  0
SPLINE
  5
1A7
330
1F
100
AcDbEntity
  8
SK3
  6
SLD-Dashed
370
    18
100
AcDbSpline
210
0.0
220
0.0
230
1.0
 70
     8
 71
     3
 72
    16
 73
    12
 74
     0
 42
0.000000001
 43
0.00000001
 40
0.0
 40
0.0
 40
0.0
 40
0.0
 40
0.2499999999999993
 40
0.2499999999999993
 40
0.4999999999999987
 40
0.4999999999999987
 40
0.6249999999999983
 40
0.6249999999999983
 40
0.749999999999998
 40
0.749999999999998
 40
1.0
 40
1.0
 40
1.0
 40
1.0
 10
16.00000000000001
 20
4.233656395622059
 30
0.0
 10
15.9242738035054
 20
4.353164997432095
 30
0.0
 10
15.85293906670075
 20
4.471059039916743
 30
0.0
 10
15.73979606973497
 20
4.709173421062883
 30
0.0
 10
15.69968462234295
 20
4.830991129736264
 30
0.0
 10
15.69951262246432
 20
5.008305282102478
 30
0.0
 10
15.70930506214301
 20
5.067351505282501
 30
0.0
 10
15.74359107572909
 20
5.179091334718465
 30
0.0
 10
15.76772077615525
 20
5.232501119456799
 30
0.0
 10
15.85232232653347
 20
5.387436982920859
 30
0.0
 10
15.92420067417406
 20
5.483749916242695
 30
0.0
 10
16.00000000000001
 20
5.574598956320489
 30
0.0
  0
SPLINE
  5
1A8
330
1F
100
AcDbEntity
  8
SK3
  6
SLD-Dashed
370
    18
100
AcDbSpline
210
0.0
220
0.0
230
1.0
 70
     8
 71
     3
 72
    18
 73
    14
 74
     0
 42
0.000000001
 43
0.00000001
 40
0.0
 40
0.0
 40
0.0
 40
0.0
 40
0.1249999999999998
 40
0.1249999999999998
 40
0.2499999999999996
 40
0.2499999999999996
 40
0.3749999999999993
 40
0.3749999999999993
 40
0.4999999999999991
 40
0.4999999999999991
 40
0.7499999999999996
 40
0.7499999999999996
 40
1.0
 40
1.0
 40
1.0
 40
1.0
 10
22.59999999999999
 20
4.233656395621955
 30
0.0
 10
22.64263004886495
 20
4.22726827063135
 30
0.0
 10
22.68222521944496
 20
4.229320668801287
 30
0.0
 10
22.75439483083892
 20
4.251445563092711
 30
0.0
 10
22.78727741273012
 20
4.272010078525831
 30
0.0
 10
22.84123661377197
 20
4.331784393416221
 30
0.0
 10
22.86268969593462
 20
4.370810335880666
 30
0.0
 10
22.89250082820375
 20
4.469554570932267
 30
0.0
 10
22.90027863141493
 20
4.528297707885875
 30
0.0
 10
22.90072697097283
 20
4.726073704769441
 30
0.0
 10
22.86914987264588
 20
4.890414533438102
 30
0.0
 10
22.76070238457359
 20
5.230348691646881
 30
0.0
 10
22.68540493906676
 20
5.405836740432581
 30
0.0
 10
22.59999999999999
 20
5.574598956320418
 30
0.0
  0
SPLINE
  5
1A9
330
1F
100
AcDbEntity
  8
SK3
  6
SLD-Dashed
370
    18
100
AcDbSpline
210
0.0
220
0.0
230
1.0
 70
     8
 71
     3
 72
    18
 73
    14
 74
     0
 42
0.000000001
 43
0.00000001
 40
0.0
 40
0.0
 40
0.0
 40
0.0
 40
0.1249999999999998
 40
0.1249999999999998
 40
0.2499999999999996
 40
0.2499999999999996
 40
0.3749999999999993
 40
0.3749999999999993
 40
0.4999999999999991
 40
0.4999999999999991
 40
0.7499999999999996
 40
0.7499999999999996
 40
1.0
 40
1.0
 40
1.0
 40
1.0
 10
22.59999999999999
 20
-5.57459895632045
 30
0.0
 10
22.64263004886492
 20
-5.490360953361057
 30
0.0
 10
22.68222521944493
 20
-5.405513751638686
 30
0.0
 10
22.75439483083888
 20
-5.234280936131874
 30
0.0
 10
22.78727741273012
 20
-5.146796598020878
 30
0.0
 10
22.84123661377195
 20
-4.978155211171234
 30
0.0
 10
22.86268969593461
 20
-4.896382591086941
 30
0.0
 10
22.89250082820375
 20
-4.738446330551902
 30
0.0
 10
22.90027863141493
 20
-4.664389864249226
 30
0.0
 10
22.90072697097284
 20
-4.46572883282901
 30
0.0
 10
22.86914987264588
 20
-4.363226254917643
 30
0.0
 10
22.76070238457362
 20
-4.242057038227536
 30
0.0
 10
22.68540493906676
 20
-4.22085844112511
 30
0.0
 10
22.59999999999999
 20
-4.233656395621999
 30
0.0
  0
SPLINE
  5
1AA
330
1F
100
AcDbEntity
  8
SK3
  6
SLD-Dashed
370
    18
100
AcDbSpline
210
0.0
220
0.0
230
1.0
 70
     8
 71
     3
 72
    18
 73
    14
 74
     0
 42
0.000000001
 43
0.00000001
 40
0.0
 40
0.0
 40
0.0
 40
0.0
 40
0.1249999999999996
 40
0.1249999999999996
 40
0.2499999999999992
 40
0.2499999999999992
 40
0.3749999999999988
 40
0.3749999999999988
 40
0.4999999999999983
 40
0.4999999999999983
 40
0.7499999999999991
 40
0.7499999999999991
 40
1.0
 40
1.0
 40
1.0
 40
1.0
 10
22.59999999999999
 20
-4.233656395621957
 30
0.0
 10
22.64263004886494
 20
-4.227268270631364
 30
0.0
 10
22.68222521944493
 20
-4.229320668801273
 30
0.0
 10
22.75439483083889
 20
-4.251445563092711
 30
0.0
 10
22.78727741273012
 20
-4.272010078525831
 30
0.0
 10
22.84123661377195
 20
-4.331784393416194
 30
0.0
 10
22.86268969593461
 20
-4.370810335880628
 30
0.0
 10
22.89250082820377
 20
-4.469554570932295
 30
0.0
 10
22.90027863141493
 20
-4.528297707885848
 30
0.0
 10
22.90072697097284
 20
-4.726073704769441
 30
0.0
 10
22.86914987264586
 20
-4.890414533438154
 30
0.0
 10
22.76070238457359
 20
-5.230348691646874
 30
0.0
 10
22.68540493906672
 20
-5.405836740432643
 30
0.0
 10
22.59999999999999
 20
-5.574598956320422
 30
0.0
  0
SPLINE
  5
1AB
330
1F
100
AcDbEntity
  8
SK3
  6
SLD-Dashed
370
    18
100
AcDbSpline
210
0.0
220
0.0
230
1.0
 70
     8
 71
     3
 72
    18
 73
    14
 74
     0
 42
0.000000001
 43
0.00000001
 40
0.0
 40
0.0
 40
0.0
 40
0.0
 40
0.1250000000000002
 40
0.1250000000000002
 40
0.2500000000000004
 40
0.2500000000000004
 40
0.3750000000000007
 40
0.3750000000000007
 40
0.5000000000000009
 40
0.5000000000000009
 40
0.7500000000000004
 40
0.7500000000000004
 40
1.0
 40
1.0
 40
1.0
 40
1.0
 10
22.59999999999999
 20
5.574598956320474
 30
0.0
 10
22.64263004886495
 20
5.490360953361035
 30
0.0
 10
22.68222521944496
 20
5.405513751638634
 30
0.0
 10
22.75439483083892
 20
5.234280936131854
 30
0.0
 10
22.78727741273012
 20
5.146796598020857
 30
0.0
 10
22.84123661377198
 20
4.978155211171169
 30
0.0
 10
22.86268969593463
 20
4.896382591086885
 30
0.0
 10
22.89250082820375
 20
4.738446330551927
 30
0.0
 10
22.90027863141493
 20
4.664389864249184
 30
0.0
 10
22.90072697097283
 20
4.46572883282901
 30
0.0
 10
22.86914987264588
 20
4.363226254917668
 30
0.0
 10
22.76070238457358
 20
4.242057038227546
 30
0.0
 10
22.68540493906672
 20
4.220858441125166
 30
0.0
 10
22.59999999999999
 20
4.233656395622037
 30
0.0
  0
SPLINE
  5
1AC
330
1F
100
AcDbEntity
  8
SK3
  6
SLD-Dashed
370
    18
100
AcDbSpline
210
0.0
220
0.0
230
1.0
 70
    24
 71
     2
 72
     6
 73
     3
 74
     0
 42
0.000000001
 43
0.00000001
 40
0.0
 40
0.0
 40
0.0
 40
0.25
 40
0.25
 40
0.25
 10
2.375000000000016
 20
22.50000000005858
 30
0.0
 10
2.357424479332932
 20
22.50000000006881
 30
0.0
 10
2.331652105107232
 20
22.50000000008381
 30
0.0
  0
SPLINE
  5
1AD
330
1F
100
AcDbEntity
  8
SK3
  6
SLD-Dashed
370
    18
100
AcDbSpline
210
0.0
220
0.0
230
1.0
 70
    24
 71
     3
 72
     8
 73
     4
 74
     0
 42
0.000000001
 43
0.00000001
 40
0.25
 40
0.25
 40
0.25
 40
0.25
 40
0.5
 40
0.5
 40
0.5
 40
0.5
 10
2.331652105107232
 20
22.50000000008381
 30
0.0
 10
2.305879730881561
 20
22.50000000007716
 30
0.0
 10
2.272790772310324
 20
22.50000000006862
 30
0.0
 10
2.236965951746453
 20
22.50000000005936
 30
0.0
  0
SPLINE
  5
1AE
330
1F
100
AcDbEntity
  8
SK3
  6
SLD-Dashed
370
    18
100
AcDbSpline
210
0.0
220
0.0
230
1.0
 70
    24
 71
     3
 72
     8
 73
     4
 74
     0
 42
0.000000001
 43
0.00000001
 40
0.5
 40
0.5
 40
0.5
 40
0.5
 40
1.0
 40
1.0
 40
1.0
 40
1.0
 10
2.236965951746453
 20
22.50000000005936
 30
0.0
 10
2.165316310618726
 20
22.50000000004141
 30
0.0
 10
2.083397657057326
 20
22.50000000002089
 30
0.0
 10
2.000000000000002
 20
22.5
 30
0.0
  0
SPLINE
  5
1AF
330
1F
100
AcDbEntity
  8
SK3
  6
SLD-Dashed
370
    18
100
AcDbSpline
210
0.0
220
0.0
230
1.0
 70
    24
 71
     3
 72
     8
 73
     4
 74
     0
 42
0.000000001
 43
0.00000001
 40
0.0
 40
0.0
 40
0.0
 40
0.0
 40
0.5000000000000014
 40
0.5000000000000014
 40
0.5000000000000014
 40
0.5000000000000014
 10
2.000000000000002
 20
-22.5
 30
0.0
 10
2.083477230592448
 20
-22.5
 30
0.0
 10
2.165250237669226
 20
-22.5
 30
0.0
 10
2.237167806898741
 20
-22.49999999999999
 30
0.0
  0
SPLINE
  5
1B0
330
1F
100
AcDbEntity
  8
SK3
  6
SLD-Dashed
370
    18
100
AcDbSpline
210
0.0
220
0.0
230
1.0
 70
    24
 71
     3
 72
     8
 73
     4
 74
     0
 42
0.000000001
 43
0.00000001
 40
0.5000000000000014
 40
0.5000000000000014
 40
0.5000000000000014
 40
0.5000000000000014
 40
0.7500000000000007
 40
0.7500000000000007
 40
0.7500000000000007
 40
0.7500000000000007
 10
2.237167806898741
 20
-22.49999999999999
 30
0.0
 10
2.273126591513519
 20
-22.49999999999999
 30
0.0
 10
2.306332390229787
 20
-22.49999999999999
 30
0.0
 10
2.33212347818193
 20
-22.49999999999999
 30
0.0
  0
SPLINE
  5
1B1
330
1F
100
AcDbEntity
  8
SK3
  6
SLD-Dashed
370
    18
100
AcDbSpline
210
0.0
220
0.0
230
1.0
 70
    24
 71
     2
 72
     6
 73
     3
 74
     0
 42
0.000000001
 43
0.00000001
 40
0.7500000000000007
 40
0.7500000000000007
 40
0.7500000000000007
 40
1.0
 40
1.0
 40
1.0
 10
2.33212347818193
 20
-22.49999999999999
 30
0.0
 10
2.357914566134073
 20
-22.49999999999999
 30
0.0
 10
2.374999999999988
 20
-22.49999999999999
 30
0.0
  0
SPLINE
  5
1B2
330
1F
100
AcDbEntity
  8
SK3
  6
SLD-Dashed
370
    18
100
AcDbSpline
210
0.0
220
0.0
230
1.0
 70
     8
 71
     3
 72
    33
 73
    29
 74
     0
 42
0.000000001
 43
0.00000001
 40
0.0
 40
0.0
 40
0.0
 40
0.0
 40
0.0252074824815502
 40
0.0503579512879936
 40
0.1006534270886772
 40
0.1499358844483621
 40
0.1865967979878393
 40
0.2121849653061248
 40
0.2505508094801742
 40
0.2790356761955122
 40
0.3220357786263506
 40
0.3758118528652132
 40
0.4042895816645317
 40
0.4469018084879653
 40
0.5002394139146283
 40
0.5288518672268662
 40
0.5719843088306625
 40
0.6254852111034898
 40
0.6539060878876481
 40
0.6965245109396124
 40
0.7500237094317301
 40
0.7787622199762761
 40
0.8217598195003203
 40
0.8751426117198166
 40
0.9000107283364241
 40
0.937354161406308
 40
0.9685886636354971
 40
1.0
 40
1.0
 40
1.0
 40
1.0
 10
2.750000000000084
 20
29.9242806491577
 30
0.0
 10
2.744951890107606
 20
29.92421926073915
 30
0.0
 10
2.734867088015651
 20
29.92409662274886
 30
0.0
 10
2.714746689273793
 20
29.92278570930051
 30
0.0
 10
2.689935974604275
 20
29.91967259406379
 30
0.0
 10
2.663214788992519
 20
29.9140171968972
 30
0.0
 10
2.641734385249018
 20
29.90785358760452
 30
0.0
 10
2.622673664278636
 20
29.90130971621328
 30
0.0
 10
2.605493847259511
 20
29.89438141143325
 30
0.0
 10
2.58556633120517
 20
29.8850503542763
 30
0.0
 10
2.563490717180468
 20
29.87309890632955
 30
0.0
 10
2.542405605456487
 20
29.85945099869895
 30
0.0
 10
2.522353516277996
 20
29.84450295728992
 30
0.0
 10
2.503235577485537
 20
29.8284946301473
 30
0.0
 10
2.485360680176101
 20
29.81105096924295
 30
0.0
 10
2.46859075681964
 20
29.79243754200218
 30
0.0
 10
2.452859611815946
 20
29.77288037262742
 30
0.0
 10
2.438649216258054
 20
29.75222303359588
 30
0.0
 10
2.425829245839796
 20
29.73082465184538
 30
0.0
 10
2.414183803254976
 20
29.70875259066342
 30
0.0
 10
2.404145436199058
 20
29.68582123764257
 30
0.0
 10
2.395530154489566
 20
29.66226321181
 30
0.0
 10
2.38819488253833
 20
29.63828839333732
 30
0.0
 10
2.382776911486028
 20
29.61459176710769
 30
0.0
 10
2.378932614864701
 20
29.59176172577706
 30
0.0
 10
2.37669823528984
 20
29.5731743926206
 30
0.0
 10
2.375252733072847
 20
29.55319389468336
 30
0.0
 10
2.375084402742977
 20
29.54064813823184
 30
0.0
 10
2.375000000000016
 20
29.53435755317955
 30
0.0
  0
SPLINE
  5
1B3
330
1F
100
AcDbEntity
  8
1
  6
SLD-Dashed
370
    18
100
AcDbSpline
210
0.0
220
0.0
230
1.0
 70
     8
 71
     3
 72
    10
 73
     6
 74
     0
 42
0.000000001
 43
0.00000001
 40
0.0
 40
0.0
 40
0.0
 40
0.0
 40
0.5
 40
0.5
 40
1.0
 40
1.0
 40
1.0
 40
1.0
 10
14.47499999999999
 20
25.23333063628344
 30
0.0
 10
14.37490757871314
 20
25.23333063628345
 30
0.0
 10
14.27461163852708
 20
25.27882845511642
 30
0.0
 10
14.13824980540785
 20
25.42572092542743
 30
0.0
 10
14.10000000000001
 20
25.52667526569739
 30
0.0
 10
14.1
 20
25.6268726145037
 30
0.0
  0
SPLINE
  5
1B4
330
1F
100
AcDbEntity
  8
1
  6
SLD-Dashed
370
    18
100
AcDbSpline
210
0.0
220
0.0
230
1.0
 70
     8
 71
     3
 72
     8
 73
     4
 74
     0
 42
0.000000001
 43
0.00000001
 40
0.0
 40
0.0
 40
0.0
 40
0.0
 40
1.0
 40
1.0
 40
1.0
 40
1.0
 10
14.1
 20
25.87334462303037
 30
0.0
 10
13.35489499866906
 20
27.22559491864977
 30
0.0
 10
12.60586652431964
 20
28.57566621653684
 30
0.0
 10
11.85425903357672
 20
29.92428064915763
 30
0.0
  0
SPLINE
  5
1B5
330
1F
100
AcDbEntity
  8
1
  6
SLD-Dashed
370
    18
100
AcDbSpline
210
0.0
220
0.0
230
1.0
 70
     8
 71
     3
 72
    10
 73
     6
 74
     0
 42
0.000000001
 43
0.00000001
 40
0.0
 40
0.0
 40
0.0
 40
0.0
 40
0.5
 40
0.5
 40
1.0
 40
1.0
 40
1.0
 40
1.0
 10
14.47500000000007
 20
-25.23333063628327
 30
0.0
 10
14.37465202603049
 20
-25.23333063628324
 30
0.0
 10
14.27532760647722
 20
-25.27825156892352
 30
0.0
 10
14.13822249352417
 20
-25.42555694812187
 30
0.0
 10
14.09999999999997
 20
-25.52587758576918
 30
0.0
 10
14.1
 20
-25.62687261450371
 30
0.0
  0
SPLINE
  5
1B6
330
1F
100
AcDbEntity
  8
1
  6
SLD-Dashed
370
    18
100
AcDbSpline
210
0.0
220
0.0
230
1.0
 70
     8
 71
     3
 72
     8
 73
     4
 74
     0
 42
0.000000001
 43
0.00000001
 40
0.0
 40
0.0
 40
0.0
 40
0.0
 40
1.0
 40
1.0
 40
1.0
 40
1.0
 10
14.1
 20
-25.87334462303037
 30
0.0
 10
13.3549244583816
 20
-27.22554145382945
 30
0.0
 10
12.60589504630891
 20
-28.5756150393375
 30
0.0
 10
11.85425903357669
 20
-29.92428064915766
 30
0.0
  0
INSERT
  5
1B7
330
1F
100
AcDbEntity
  8
80
100
AcDbBlockReference
  2
Block12
 10
-61.7273641656
 20
-130.3356800267
 30
0.0
  0
INSERT
  5
1B8
330
1F
100
AcDbEntity
  8
81
100
AcDbBlockReference
  2
Block11
 10
-56.6264826505
 20
-130.2676275275
 30
0.0
  0
DIMENSION
  5
1B9
330
1F
100
AcDbEntity
  8
SK2
100
AcDbDimension
  2
_D
 10
27.0
 20
39.4095232401
 30
0.0
 11
13.2076262591
 21
39.4095232401
 31
0.0
 70
   160
  1
<>
 71
     2
 42
-1.0
  3
SLDDIMSTYLE0
100
AcDbAlignedDimension
 13
0.0
 23
22.225
 33
0.0
 14
27.0
 24
30.724895054
 34
0.0
100
AcDbRotatedDimension
  0
DIMENSION
  5
1C5
330
1F
100
AcDbEntity
  8
SK2
100
AcDbDimension
  2
_D_1
 10
35.0
 20
39.4095232401
 30
0.0
 11
31.2168778124
 21
39.4095232401
 31
0.0
 70
   160
  1
<>
 71
     2
 42
-1.0
  3
SLDDIMSTYLE1
100
AcDbAlignedDimension
 13
27.0
 23
30.724895054
 33
0.0
 14
35.0
 24
23.5
 34
0.0
100
AcDbRotatedDimension
  0
DIMENSION
  5
1D2
330
1F
100
AcDbEntity
  8
SK2
100
AcDbDimension
  2
_D_2
 10
54.0
 20
39.4095232401
 30
0.0
 11
43.5269991273
 21
39.4095232401
 31
0.0
 70
   160
  1
<>
 71
     2
 42
-1.0
  3
SLDDIMSTYLE0
100
AcDbAlignedDimension
 13
35.0
 23
23.5
 33
0.0
 14
54.0
 24
10.4710190579
 34
0.0
100
AcDbRotatedDimension
  0
DIMENSION
  5
1DC
330
1F
100
AcDbEntity
  8
2
100
AcDbDimension
  2
_D_3
 10
35.0
 20
47.9202243961
 30
0.0
 11
17.0737581194
 21
47.9202243961
 31
0.0
 70
   160
  1
<>
 71
     2
 42
-1.0
  3
SLDDIMSTYLE0
100
AcDbAlignedDimension
 13
0.0
 23
22.225
 33
0.0
 14
35.0
 24
23.5
 34
0.0
100
AcDbRotatedDimension
  0
DIMENSION
  5
1E6
330
1F
100
AcDbEntity
  8
SK2
100
AcDbDimension
  2
_D_4
 10
85.1971612347
 20
-24.0
 30
0.0
 11
85.1971612347
 21
-0.0767077749
 31
0.0
 70
   160
  1
%%c<>
 71
     2
 42
-1.0
  3
SLDDIMSTYLE0
100
AcDbAlignedDimension
 13
34.5
 23
24.0
 33
0.0
 14
34.5
 24
-24.0
 34
0.0
 50
90.0
100
AcDbRotatedDimension
  0
DIMENSION
  5
1F1
330
1F
100
AcDbEntity
  8
SK2
100
AcDbDimension
  2
_D_5
 10
75.6461151144
 20
-11.0
 30
0.0
 11
75.6461151144
 21
-0.0767077749
 31
0.0
 70
   160
  1
%%c<>
 71
     2
 42
-1.0
  3
SLDDIMSTYLE0
100
AcDbAlignedDimension
 13
51.0
 23
11.0
 33
0.0
 14
51.0
 24
-11.0
 34
0.0
 50
90.0
100
AcDbRotatedDimension
  0
DIMENSION
  5
1FC
330
1F
100
AcDbEntity
  8
SK2
100
AcDbDimension
  2
_D_6
 10
-72.6144096767
 20
8.00000038
 30
0.0
 11
-72.6144096767
 21
0.2161618112
 31
0.0
 70
   160
  1
M<>
 71
     2
 42
-1.0
  3
SLDDIMSTYLE0
100
AcDbAlignedDimension
 13
-55.6881204247
 23
-8.00000038
 33
0.0
 14
-55.6881204247
 24
8.00000038
 34
0.0
 50
90.0
100
AcDbRotatedDimension
  0
DIMENSION
  5
207
330
1F
100
AcDbEntity
  8
SK2
100
AcDbDimension
  2
_D_7
 10
-82.8286155788
 20
-22.225
 30
0.0
 11
-82.8286155788
 21
0.2161618112
 31
0.0
 70
   160
  1
%%c<>
 71
     2
 42
-1.0
  3
SLDDIMSTYLE0
100
AcDbAlignedDimension
 13
0.0
 23
22.225
 33
0.0
 14
0.0
 24
-22.225
 34
0.0
 50
90.0
100
AcDbRotatedDimension
  0
DIMENSION
  5
212
330
1F
100
AcDbEntity
  8
SK2
100
AcDbDimension
  2
_D_8
 10
-93.0385007634
 20
-31.474895054
 30
0.0
 11
-93.0385007634
 21
-1.4393856693
 31
0.0
 70
   160
  1
%%c<>
 71
     2
 42
-1.0
  3
SLDDIMSTYLE0
100
AcDbAlignedDimension
 13
23.8749115524
 23
31.474895054
 33
0.0
 14
23.8749115472
 24
-31.474895054
 34
0.0
 50
90.0
100
AcDbRotatedDimension
  0
MTEXT
  5
21D
330
1F
100
AcDbEntity
  8
SK6
 62
     5
100
AcDbMText
 10
-65.0718058713
 20
-35.770476382
 30
0.0
 40
3.5
 41
0.0
 71
     1
 72
     1
  1
A2B05-40 22 035
  7
SLDTEXTSTYLE0
 73
     1
 44
1.0
  0
MTEXT
  5
21E
330
1F
100
AcDbEntity
  8
SK6
 62
     5
100
AcDbMText
 10
-32.2581842317
 20
28.5472922351
 30
0.0
 40
3.5
 41
0.0
 71
     1
 72
     1
  1
MAS-403 BT40
  7
SLDTEXTSTYLE0
 73
     1
 44
1.0
  0
ENDSEC
  0
SECTION
  2
OBJECTS
  0
DICTIONARY
  5
C
330
0
100
AcDbDictionary
281
     1
  3
ACAD_GROUP
350
D
  3
ACAD_LAYOUT
350
1A
  3
ACAD_MLINESTYLE
350
17
  3
ACAD_PLOTSETTINGS
350
19
  3
ACAD_PLOTSTYLENAME
350
E
  3
ACAD_SCALELIST
350
47
  0
DICTIONARY
  5
D
102
{ACAD_REACTORS
330
C
102
}
330
C
100
AcDbDictionary
281
     1
  0
DICTIONARY
  5
1A
102
{ACAD_REACTORS
330
C
102
}
330
C
100
AcDbDictionary
281
     1
  3
Layout1
350
1E
  3
Layout2
350
26
  3
Model
350
22
  0
DICTIONARY
  5
17
102
{ACAD_REACTORS
330
C
102
}
330
C
100
AcDbDictionary
281
     1
  3
Standard
350
18
  0
DICTIONARY
  5
19
102
{ACAD_REACTORS
330
C
102
}
330
C
100
AcDbDictionary
281
     1
  0
ACDBDICTIONARYWDFLT
  5
E
102
{ACAD_REACTORS
330
C
102
}
330
C
100
AcDbDictionary
281
     1
  3
Normal
350
F
100
AcDbDictionaryWithDefault
340
F
  0
DICTIONARY
  5
47
102
{ACAD_REACTORS
330
C
102
}
330
C
100
AcDbDictionary
281
     1
  3
A0
350
48
  3
A1
350
49
  3
A2
350
4A
  3
A3
350
4B
  3
A4
350
4C
  3
A5
350
4D
  3
A6
350
4E
  3
A7
350
4F
  3
A8
350
50
  3
A9
350
51
  3
B0
350
52
  3
B1
350
53
  3
B2
350
54
  3
B3
350
55
  3
B4
350
56
  3
B5
350
57
  3
B6
350
58
  3
B7
350
59
  3
B8
350
5A
  3
B9
350
5B
  3
C0
350
5C
  3
C1
350
5D
  3
C2
350
5E
  3
C3
350
5F
  3
C4
350
60
  3
C5
350
61
  3
C6
350
62
  3
C7
350
63
  3
C8
350
64
  3
C9
350
65
  3
D0
350
66
  3
D1
350
67
  3
D2
350
68
  0
LAYOUT
  5
1E
102
{ACAD_REACTORS
330
1A
102
}
330
1A
100
AcDbPlotSettings
  1

  2
none_device
  4

  6

 40
0.0
 41
0.0
 42
0.0
 43
0.0
 44
0.0
 45
0.0
 46
0.0
 47
0.0
 48
0.0
 49
0.0
140
0.0
141
0.0
142
1.0
143
1.0
 70
   688
 72
     1
 73
     0
 74
     5
  7

 75
    16
147
1.0
148
0.0
149
0.0
100
AcDbLayout
  1
Layout1
 70
     1
 71
     1
 10
0.0
 20
0.0
 11
420.0
 21
297.0
 12
0.0
 22
0.0
 32
0.0
 14
1.0000000000E+20
 24
1.0000000000E+20
 34
1.0000000000E+20
 15
-1.0000000000E+20
 25
-1.0000000000E+20
 35
-1.0000000000E+20
146
0.0
 13
0.0
 23
0.0
 33
0.0
 16
1.0
 26
0.0
 36
0.0
 17
0.0
 27
1.0
 37
0.0
 76
     0
330
1B
  0
LAYOUT
  5
26
102
{ACAD_REACTORS
330
1A
102
}
330
1A
100
AcDbPlotSettings
  1

  2
none_device
  4

  6

 40
0.0
 41
0.0
 42
0.0
 43
0.0
 44
0.0
 45
0.0
 46
0.0
 47
0.0
 48
0.0
 49
0.0
140
0.0
141
0.0
142
1.0
143
1.0
 70
   688
 72
     1
 73
     0
 74
     5
  7

 75
    16
147
1.0
148
0.0
149
0.0
100
AcDbLayout
  1
Layout2
 70
     1
 71
     2
 10
0.0
 20
0.0
 11
0.0
 21
0.0
 12
0.0
 22
0.0
 32
0.0
 14
0.0
 24
0.0
 34
0.0
 15
0.0
 25
0.0
 35
0.0
146
0.0
 13
0.0
 23
0.0
 33
0.0
 16
1.0
 26
0.0
 36
0.0
 17
0.0
 27
1.0
 37
0.0
 76
     0
330
23
  0
LAYOUT
  5
22
102
{ACAD_REACTORS
330
1A
102
}
330
1A
100
AcDbPlotSettings
  1

  2
none_device
  4
Letter_(8.50_x_11.00_Inches)
  6

 40
6.35
 41
6.35
 42
6.35000508
 43
6.35000508
 44
215.9
 45
279.4
 46
0.0
 47
0.0
 48
0.0
 49
0.0
140
0.0
141
0.0
142
1.0
143
1.0
 70
  1712
 72
     1
 73
     0
 74
     0
  7

 75
     0
147
1.0
148
0.0
149
0.0
100
AcDbLayout
  1
Model
 70
     1
 71
     0
 10
0.0
 20
0.0
 11
297.0
 21
210.0
 12
0.0
 22
0.0
 32
0.0
 14
0.0
 24
0.0
 34
0.0
 15
297.0
 25
210.0
 35
0.0
146
0.0
 13
0.0
 23
0.0
 33
0.0
 16
1.0
 26
0.0
 36
0.0
 17
0.0
 27
1.0
 37
0.0
 76
     0
330
1F
331
29
  0
MLINESTYLE
  5
18
102
{ACAD_REACTORS
330
17
102
}
330
17
100
AcDbMlineStyle
  2
Standard
 70
     0
  3

 62
   256
 51
90.0
 52
90.0
 71
     2
 49
0.5
 62
   256
  6
BYLAYER
 49
-0.5
 62
   256
  6
BYLAYER
  0
ACDBPLACEHOLDER
  5
F
102
{ACAD_REACTORS
330
E
102
}
330
E
  0
SCALE
  5
48
102
{ACAD_REACTORS
330
47
102
}
330
47
100
AcDbScale
 70
     0
300
1:1
140
1.0
141
1.0
290
     1
  0
SCALE
  5
49
102
{ACAD_REACTORS
330
47
102
}
330
47
100
AcDbScale
 70
     0
300
1:2
140
1.0
141
2.0
290
     0
  0
SCALE
  5
4A
102
{ACAD_REACTORS
330
47
102
}
330
47
100
AcDbScale
 70
     0
300
1:4
140
1.0
141
4.0
290
     0
  0
SCALE
  5
4B
102
{ACAD_REACTORS
330
47
102
}
330
47
100
AcDbScale
 70
     0
300
1:5
140
1.0
141
5.0
290
     0
  0
SCALE
  5
4C
102
{ACAD_REACTORS
330
47
102
}
330
47
100
AcDbScale
 70
     0
300
1:8
140
1.0
141
8.0
290
     0
  0
SCALE
  5
4D
102
{ACAD_REACTORS
330
47
102
}
330
47
100
AcDbScale
 70
     0
300
1:10
140
1.0
141
10.0
290
     0
  0
SCALE
  5
4E
102
{ACAD_REACTORS
330
47
102
}
330
47
100
AcDbScale
 70
     0
300
1:16
140
1.0
141
16.0
290
     0
  0
SCALE
  5
4F
102
{ACAD_REACTORS
330
47
102
}
330
47
100
AcDbScale
 70
     0
300
1:20
140
1.0
141
20.0
290
     0
  0
SCALE
  5
50
102
{ACAD_REACTORS
330
47
102
}
330
47
100
AcDbScale
 70
     0
300
1:30
140
1.0
141
30.0
290
     0
  0
SCALE
  5
51
102
{ACAD_REACTORS
330
47
102
}
330
47
100
AcDbScale
 70
     0
300
1:40
140
1.0
141
40.0
290
     0
  0
SCALE
  5
52
102
{ACAD_REACTORS
330
47
102
}
330
47
100
AcDbScale
 70
     0
300
1:50
140
1.0
141
50.0
290
     0
  0
SCALE
  5
53
102
{ACAD_REACTORS
330
47
102
}
330
47
100
AcDbScale
 70
     0
300
1:100
140
1.0
141
100.0
290
     0
  0
SCALE
  5
54
102
{ACAD_REACTORS
330
47
102
}
330
47
100
AcDbScale
 70
     0
300
2:1
140
2.0
141
1.0
290
     0
  0
SCALE
  5
55
102
{ACAD_REACTORS
330
47
102
}
330
47
100
AcDbScale
 70
     0
300
4:1
140
4.0
141
1.0
290
     0
  0
SCALE
  5
56
102
{ACAD_REACTORS
330
47
102
}
330
47
100
AcDbScale
 70
     0
300
8:1
140
8.0
141
1.0
290
     0
  0
SCALE
  5
57
102
{ACAD_REACTORS
330
47
102
}
330
47
100
AcDbScale
 70
     0
300
10:1
140
10.0
141
1.0
290
     0
  0
SCALE
  5
58
102
{ACAD_REACTORS
330
47
102
}
330
47
100
AcDbScale
 70
     0
300
100:1
140
100.0
141
1.0
290
     0
  0
SCALE
  5
59
102
{ACAD_REACTORS
330
47
102
}
330
47
100
AcDbScale
 70
     0
300
1/128" = 1'-0"
140
0.0078125
141
12.0
290
     0
  0
SCALE
  5
5A
102
{ACAD_REACTORS
330
47
102
}
330
47
100
AcDbScale
 70
     0
300
1/64" = 1'-0"
140
0.015625
141
12.0
290
     0
  0
SCALE
  5
5B
102
{ACAD_REACTORS
330
47
102
}
330
47
100
AcDbScale
 70
     0
300
1/32" = 1'-0"
140
0.03125
141
12.0
290
     0
  0
SCALE
  5
5C
102
{ACAD_REACTORS
330
47
102
}
330
47
100
AcDbScale
 70
     0
300
1/16" = 1'-0"
140
0.0625
141
12.0
290
     0
  0
SCALE
  5
5D
102
{ACAD_REACTORS
330
47
102
}
330
47
100
AcDbScale
 70
     0
300
3/32" = 1'-0"
140
0.09375
141
12.0
290
     0
  0
SCALE
  5
5E
102
{ACAD_REACTORS
330
47
102
}
330
47
100
AcDbScale
 70
     0
300
1/8" = 1'-0"
140
0.125
141
12.0
290
     0
  0
SCALE
  5
5F
102
{ACAD_REACTORS
330
47
102
}
330
47
100
AcDbScale
 70
     0
300
3/16" = 1'-0"
140
0.1875
141
12.0
290
     0
  0
SCALE
  5
60
102
{ACAD_REACTORS
330
47
102
}
330
47
100
AcDbScale
 70
     0
300
1/4" = 1'-0"
140
0.25
141
12.0
290
     0
  0
SCALE
  5
61
102
{ACAD_REACTORS
330
47
102
}
330
47
100
AcDbScale
 70
     0
300
3/8" = 1'-0"
140
0.375
141
12.0
290
     0
  0
SCALE
  5
62
102
{ACAD_REACTORS
330
47
102
}
330
47
100
AcDbScale
 70
     0
300
1/2" = 1'-0"
140
0.5
141
12.0
290
     0
  0
SCALE
  5
63
102
{ACAD_REACTORS
330
47
102
}
330
47
100
AcDbScale
 70
     0
300
3/4" = 1'-0"
140
0.75
141
12.0
290
     0
  0
SCALE
  5
64
102
{ACAD_REACTORS
330
47
102
}
330
47
100
AcDbScale
 70
     0
300
1" = 1'-0"
140
1.0
141
12.0
290
     0
  0
SCALE
  5
65
102
{ACAD_REACTORS
330
47
102
}
330
47
100
AcDbScale
 70
     0
300
1-1/2" = 1'-0"
140
1.5
141
12.0
290
     0
  0
SCALE
  5
66
102
{ACAD_REACTORS
330
47
102
}
330
47
100
AcDbScale
 70
     0
300
3" = 1'-0"
140
3.0
141
12.0
290
     0
  0
SCALE
  5
67
102
{ACAD_REACTORS
330
47
102
}
330
47
100
AcDbScale
 70
     0
300
6" = 1'-0"
140
6.0
141
12.0
290
     0
  0
SCALE
  5
68
102
{ACAD_REACTORS
330
47
102
}
330
47
100
AcDbScale
 70
     0
300
1'-0" = 1'-0"
140
12.0
141
12.0
290
     0
  0
ENDSEC
  0
EOF
