  0
SECTION
  2
HEADER
  9
$ACADVER
  1
AC1015
  9
$ACADMAINTVER
 70
     6
  9
$DWGCODEPAGE
  3
ANSI_1250
  9
$INSBASE
 10
0.0
 20
0.0
 30
0.0
  9
$EXTMIN
 10
0.0
 20
0.0
 30
0.0
  9
$EXTMAX
 10
297.0
 20
210.0
 30
0.0
  9
$LIMMIN
 10
0.0
 20
0.0
  9
$LIMMAX
 10
297.0
 20
210.0
  9
$ORTHOMODE
 70
     0
  9
$REGENMODE
 70
     1
  9
$FILLMODE
 70
     1
  9
$QTEXTMODE
 70
     0
  9
$MIRRTEXT
 70
     1
  9
$LTSCALE
 40
1.0
  9
$ATTMODE
 70
     1
  9
$TEXTSIZE
 40
3.5
  9
$TRACEWID
 40
1.0
  9
$TEXTSTYLE
  7
Standard
  9
$CLAYER
  8
0
  9
$CELTYPE
  6
ByLayer
  9
$CECOLOR
 62
   256
  9
$CELTSCALE
 40
1.0
  9
$DISPSILH
 70
     0
  9
$DIMSCALE
 40
1.0
  9
$DIMASZ
 40
3.302
  9
$DIMEXO
 40
1.0
  9
$DIMDLI
 40
3.75
  9
$DIMRND
 40
0.0
  9
$DIMDLE
 40
0.0
  9
$DIMEXE
 40
1.0
  9
$DIMTP
 40
0.0
  9
$DIMTM
 40
0.0
  9
$DIMTXT
 40
3.5
  9
$DIMCEN
 40
2.5
  9
$DIMTSZ
 40
0.0
  9
$DIMTOL
 70
     0
  9
$DIMLIM
 70
     0
  9
$DIMTIH
 70
     1
  9
$DIMTOH
 70
     1
  9
$DIMSE1
 70
     0
  9
$DIMSE2
 70
     0
  9
$DIMTAD
 70
     1
  9
$DIMZIN
 70
     0
  9
$DIMBLK
  1

  9
$DIMASO
 70
     1
  9
$DIMSHO
 70
     1
  9
$DIMPOST
  1

  9
$DIMAPOST
  1

  9
$DIMALT
 70
     0
  9
$DIMALTD
 70
     3
  9
$DIMALTF
 40
0.0393700787
  9
$DIMLFAC
 40
1.0
  9
$DIMTOFL
 70
     1
  9
$DIMTVP
 40
0.0
  9
$DIMTIX
 70
     0
  9
$DIMSOXD
 70
     0
  9
$DIMSAH
 70
     0
  9
$DIMBLK1
  1

  9
$DIMBLK2
  1

  9
$DIMSTYLE
  2
ISO-25
  9
$DIMCLRD
 70
     0
  9
$DIMCLRE
 70
     0
  9
$DIMCLRT
 70
     0
  9
$DIMTFAC
 40
1.0
  9
$DIMGAP
 40
1.524
  9
$DIMJUST
 70
     0
  9
$DIMSD1
 70
     0
  9
$DIMSD2
 70
     0
  9
$DIMTOLJ
 70
     0
  9
$DIMTZIN
 70
     0
  9
$DIMALTZ
 70
     0
  9
$DIMALTTZ
 70
     0
  9
$DIMUPT
 70
     0
  9
$DIMDEC
 70
     2
  9
$DIMTDEC
 70
     2
  9
$DIMALTU
 70
     2
  9
$DIMALTTD
 70
     3
  9
$DIMTXSTY
  7
Standard
  9
$DIMAUNIT
 70
     0
  9
$DIMADEC
 70
     2
  9
$DIMALTRND
 40
0.0
  9
$DIMAZIN
 70
     0
  9
$DIMDSEP
 70
    44
  9
$DIMATFIT
 70
     3
  9
$DIMFRAC
 70
     0
  9
$DIMLDRBLK
  1

  9
$DIMLUNIT
 70
     2
  9
$DIMLWD
 70
    -2
  9
$DIMLWE
 70
    -2
  9
$DIMTMOVE
 70
     0
  9
$LUNITS
 70
     2
  9
$LUPREC
 70
     2
  9
$SKETCHINC
 40
1.0
  9
$FILLETRAD
 40
10.0
  9
$AUNITS
 70
     0
  9
$AUPREC
 70
     2
  9
$MENU
  1
.
  9
$ELEVATION
 40
0.0
  9
$PELEVATION
 40
0.0
  9
$THICKNESS
 40
0.0
  9
$LIMCHECK
 70
     0
  9
$CHAMFERA
 40
0.0
  9
$CHAMFERB
 40
0.0
  9
$CHAMFERC
 40
0.0
  9
$CHAMFERD
 40
0.0
  9
$SKPOLY
 70
     0
  9
$TDCREATE
 40
2459290.520139757
  9
$TDUCREATE
 40
2459290.47847309
  9
$TDUPDATE
 40
2459290.520140949
  9
$TDUUPDATE
 40
2459290.478474282
  9
$TDINDWG
 40
0.0000000116
  9
$TDUSRTIMER
 40
0.0000000116
  9
$USRTIMER
 70
     1
  9
$ANGBASE
 50
0.0
  9
$ANGDIR
 70
     0
  9
$PDMODE
 70
     0
  9
$PDSIZE
 40
-1.0
  9
$PLINEWID
 40
0.0
  9
$SPLFRAME
 70
     0
  9
$SPLINETYPE
 70
     6
  9
$SPLINESEGS
 70
     8
  9
$HANDSEED
  5
311
  9
$SURFTAB1
 70
     6
  9
$SURFTAB2
 70
     6
  9
$SURFTYPE
 70
     6
  9
$SURFU
 70
     6
  9
$SURFV
 70
     6
  9
$UCSBASE
  2

  9
$UCSNAME
  2

  9
$UCSORG
 10
0.0
 20
0.0
 30
0.0
  9
$UCSXDIR
 10
1.0
 20
0.0
 30
0.0
  9
$UCSYDIR
 10
0.0
 20
1.0
 30
0.0
  9
$UCSORTHOREF
  2

  9
$UCSORTHOVIEW
 70
     0
  9
$UCSORGTOP
 10
0.0
 20
0.0
 30
0.0
  9
$UCSORGBOTTOM
 10
0.0
 20
0.0
 30
0.0
  9
$UCSORGLEFT
 10
0.0
 20
0.0
 30
0.0
  9
$UCSORGRIGHT
 10
0.0
 20
0.0
 30
0.0
  9
$UCSORGFRONT
 10
0.0
 20
0.0
 30
0.0
  9
$UCSORGBACK
 10
0.0
 20
0.0
 30
0.0
  9
$PUCSBASE
  2

  9
$PUCSNAME
  2

  9
$PUCSORG
 10
0.0
 20
0.0
 30
0.0
  9
$PUCSXDIR
 10
1.0
 20
0.0
 30
0.0
  9
$PUCSYDIR
 10
0.0
 20
1.0
 30
0.0
  9
$PUCSORTHOREF
  2

  9
$PUCSORTHOVIEW
 70
     0
  9
$PUCSORGTOP
 10
0.0
 20
0.0
 30
0.0
  9
$PUCSORGBOTTOM
 10
0.0
 20
0.0
 30
0.0
  9
$PUCSORGLEFT
 10
0.0
 20
0.0
 30
0.0
  9
$PUCSORGRIGHT
 10
0.0
 20
0.0
 30
0.0
  9
$PUCSORGFRONT
 10
0.0
 20
0.0
 30
0.0
  9
$PUCSORGBACK
 10
0.0
 20
0.0
 30
0.0
  9
$USERI1
 70
     0
  9
$USERI2
 70
     0
  9
$USERI3
 70
     0
  9
$USERI4
 70
     0
  9
$USERI5
 70
     0
  9
$USERR1
 40
0.0
  9
$USERR2
 40
0.0
  9
$USERR3
 40
0.0
  9
$USERR4
 40
0.0
  9
$USERR5
 40
0.0
  9
$WORLDVIEW
 70
     1
  9
$SHADEDGE
 70
     3
  9
$SHADEDIF
 70
    70
  9
$TILEMODE
 70
     1
  9
$MAXACTVP
 70
    64
  9
$PINSBASE
 10
0.0
 20
0.0
 30
0.0
  9
$PLIMCHECK
 70
     0
  9
$PEXTMIN
 10
1.0000000000E+20
 20
1.0000000000E+20
 30
1.0000000000E+20
  9
$PEXTMAX
 10
-1.0000000000E+20
 20
-1.0000000000E+20
 30
-1.0000000000E+20
  9
$PLIMMIN
 10
0.0
 20
0.0
  9
$PLIMMAX
 10
420.0
 20
297.0
  9
$UNITMODE
 70
     0
  9
$VISRETAIN
 70
     1
  9
$PLINEGEN
 70
     0
  9
$PSLTSCALE
 70
     1
  9
$TREEDEPTH
 70
  3020
  9
$CMLSTYLE
  2
Standard
  9
$CMLJUST
 70
     0
  9
$CMLSCALE
 40
20.0
  9
$PROXYGRAPHICS
 70
     1
  9
$MEASUREMENT
 70
     1
  9
$CELWEIGHT
370
    -1
  9
$ENDCAPS
280
     0
  9
$JOINSTYLE
280
     0
  9
$LWDISPLAY
290
     1
  9
$INSUNITS
 70
     4
  9
$HYPERLINKBASE
  1

  9
$STYLESHEET
  1

  9
$XEDIT
290
     1
  9
$CEPSNTYPE
380
     0
  9
$PSTYLEMODE
290
     1
  9
$FINGERPRINTGUID
  2
{F3025564-70B2-46D7-AD1A-74E811C4198E}
  9
$VERSIONGUID
  2
{FAEB1C32-E019-11D5-929B-00C0DF256EC4}
  9
$EXTNAMES
290
     1
  9
$PSVPSCALE
 40
0.0
  9
$OLESTARTUP
290
     0
  0
ENDSEC
  0
SECTION
  2
CLASSES
  0
CLASS
  1
ACDBDICTIONARYWDFLT
  2
AcDbDictionaryWithDefault
  3
ObjectDBX Classes
 90
        0
280
     0
281
     0
  0
CLASS
  1
VISUALSTYLE
  2
AcDbVisualStyle
  3
ObjectDBX Classes
 90
     4095
280
     0
281
     0
  0
CLASS
  1
MATERIAL
  2
AcDbMaterial
  3
ObjectDBX Classes
 90
     1153
280
     0
281
     0
  0
CLASS
  1
SCALE
  2
AcDbScale
  3
ObjectDBX Classes
 90
     1153
280
     0
281
     0
  0
CLASS
  1
TABLESTYLE
  2
AcDbTableStyle
  3
ObjectDBX Classes
 90
     4095
280
     0
281
     0
  0
CLASS
  1
MLEADERSTYLE
  2
AcDbMLeaderStyle
  3
ACDB_MLEADERSTYLE_CLASS
 90
     4095
280
     0
281
     0
  0
CLASS
  1
SUN
  2
AcDbSun
  3
SCENEOE
 90
     1153
280
     0
281
     0
  0
CLASS
  1
ACDBPLACEHOLDER
  2
AcDbPlaceHolder
  3
ObjectDBX Classes
 90
        0
280
     0
281
     0
  0
CLASS
  1
LAYOUT
  2
AcDbLayout
  3
ObjectDBX Classes
 90
        0
280
     0
281
     0
  0
ENDSEC
  0
SECTION
  2
TABLES
  0
TABLE
  2
VPORT
  5
8
330
0
100
AcDbSymbolTable
 70
     1
  0
VPORT
  5
29
330
8
100
AcDbSymbolTableRecord
100
AcDbViewportTableRecord
  2
*Active
 70
     0
 10
0.0
 20
0.0
 11
1.0
 21
1.0
 12
148.5
 22
105.0
 13
0.0
 23
0.0
 14
10.0
 24
10.0
 15
10.0
 25
10.0
 16
0.0
 26
0.0
 36
1.0
 17
0.0
 27
0.0
 37
0.0
 40
210.0
 41
1.4142857143
 42
50.0
 43
0.0
 44
0.0
 50
0.0
 51
0.0
 71
     0
 72
  2000
 73
     1
 74
     3
 75
     0
 76
     0
 77
     0
 78
     0
281
     0
 65
     1
110
0.0
120
0.0
130
0.0
111
1.0
121
0.0
131
0.0
112
0.0
122
1.0
132
0.0
 79
     0
146
0.0
  0
ENDTAB
  0
TABLE
  2
LTYPE
  5
5
330
0
100
AcDbSymbolTable
 70
     8
  0
LTYPE
  5
14
330
5
100
AcDbSymbolTableRecord
100
AcDbLinetypeTableRecord
  2
ByBlock
 70
     0
  3

 72
    65
 73
     0
 40
0.0
  0
LTYPE
  5
15
330
5
100
AcDbSymbolTableRecord
100
AcDbLinetypeTableRecord
  2
ByLayer
 70
     0
  3

 72
    65
 73
     0
 40
0.0
  0
LTYPE
  5
16
330
5
100
AcDbSymbolTableRecord
100
AcDbLinetypeTableRecord
  2
Continuous
 70
     0
  3
Solid line
 72
    65
 73
     0
 40
0.0
  0
LTYPE
  5
6E
330
5
100
AcDbSymbolTableRecord
100
AcDbLinetypeTableRecord
  2
SLD-Solid
 70
     0
  3
SolidWorks Line Style
 72
    65
 73
     0
 40
0.0
  0
LTYPE
  5
6F
330
5
100
AcDbSymbolTableRecord
100
AcDbLinetypeTableRecord
  2
SLD-Dashed
 70
     0
  3
SolidWorks Line Style
 72
    65
 73
     2
 40
1.905
 49
1.27
 74
     0
 49
-0.635
 74
     0
  0
LTYPE
  5
70
330
5
100
AcDbSymbolTableRecord
100
AcDbLinetypeTableRecord
  2
SLD-Phantom
 70
     0
  3
SolidWorks Line Style
 72
    65
 73
     6
 40
12.7
 49
6.35
 74
     0
 49
-1.27
 74
     0
 49
1.27
 74
     0
 49
-1.27
 74
     0
 49
1.27
 74
     0
 49
-1.27
 74
     0
  0
LTYPE
  5
71
330
5
100
AcDbSymbolTableRecord
100
AcDbLinetypeTableRecord
  2
SLD-Chain
 70
     0
  3
SolidWorks Line Style
 72
    65
 73
     4
 40
10.16
 49
6.35
 74
     0
 49
-1.27
 74
     0
 49
1.27
 74
     0
 49
-1.27
 74
     0
  0
LTYPE
  5
72
330
5
100
AcDbSymbolTableRecord
100
AcDbLinetypeTableRecord
  2
SLD-Center
 70
     0
  3
SolidWorks Line Style
 72
    65
 73
     4
 40
19.05
 49
15.24
 74
     0
 49
-1.27
 74
     0
 49
1.27
 74
     0
 49
-1.27
 74
     0
  0
LTYPE
  5
73
330
5
100
AcDbSymbolTableRecord
100
AcDbLinetypeTableRecord
  2
SLD-Stitch
 70
     0
  3
SolidWorks Line Style
 72
    65
 73
     2
 40
0.635
 49
0.0
 74
     0
 49
-0.635
 74
     0
  0
LTYPE
  5
74
330
5
100
AcDbSymbolTableRecord
100
AcDbLinetypeTableRecord
  2
SLD-Thin-Thick-Chain
 70
     0
  3
SolidWorks Line Style
 72
    65
 73
     4
 40
10.16
 49
6.35
 74
     0
 49
-1.27
 74
     0
 49
1.27
 74
     0
 49
-1.27
 74
     0
  0
ENDTAB
  0
TABLE
  2
LAYER
  5
2
330
0
100
AcDbSymbolTable
 70
    12
  0
LAYER
  5
10
330
2
100
AcDbSymbolTableRecord
100
AcDbLayerTableRecord
  2
0
 70
     0
 62
     7
  6
Continuous
370
    -3
390
F
  0
LAYER
  5
75
330
2
100
AcDbSymbolTableRecord
100
AcDbLayerTableRecord
  2
SLD-0
 70
     0
 62
   179
  6
SLD-Solid
370
    -3
390
F
  0
LAYER
  5
76
330
2
100
AcDbSymbolTableRecord
100
AcDbLayerTableRecord
  2
80
 70
     0
 62
    -6
  6
SLD-Solid
290
     0
370
    -3
390
F
  0
LAYER
  5
77
330
2
100
AcDbSymbolTableRecord
100
AcDbLayerTableRecord
  2
81
 70
     0
 62
    -3
  6
SLD-Solid
290
     0
370
    -3
390
F
  0
LAYER
  5
78
330
2
100
AcDbSymbolTableRecord
100
AcDbLayerTableRecord
  2
1
 70
     0
 62
     4
  6
SLD-Solid
290
     0
370
    -3
390
F
  0
LAYER
  5
79
330
2
100
AcDbSymbolTableRecord
100
AcDbLayerTableRecord
  2
4
 70
     0
 62
    -2
  6
SLD-Chain
290
     0
370
    -3
390
F
  0
LAYER
  5
7A
330
2
100
AcDbSymbolTableRecord
100
AcDbLayerTableRecord
  2
2
 70
     0
 62
     7
  6
SLD-Solid
290
     0
370
    -3
390
F
  0
LAYER
  5
7B
330
2
100
AcDbSymbolTableRecord
100
AcDbLayerTableRecord
  2
SK3
 70
     0
 62
     1
  6
SLD-Dashed
290
     0
370
    -3
390
F
  0
LAYER
  5
7C
330
2
100
AcDbSymbolTableRecord
100
AcDbLayerTableRecord
  2
SK4
 70
     0
 62
     2
  6
SLD-Chain
290
     0
370
    -3
390
F
  0
LAYER
  5
7D
330
2
100
AcDbSymbolTableRecord
100
AcDbLayerTableRecord
  2
SK2
 70
     0
 62
     7
  6
SLD-Solid
290
     0
370
    -3
390
F
  0
LAYER
  5
7E
330
2
100
AcDbSymbolTableRecord
100
AcDbLayerTableRecord
  2
SK6
 70
     0
 62
     5
  6
SLD-Solid
290
     0
370
    -3
390
F
  0
LAYER
  5
7F
330
2
100
AcDbSymbolTableRecord
100
AcDbLayerTableRecord
  2
SK1
 70
     0
 62
     4
  6
SLD-Solid
370
    -3
390
F
  0
ENDTAB
  0
TABLE
  2
STYLE
  5
3
330
0
100
AcDbSymbolTable
 70
     2
  0
STYLE
  5
11
330
3
100
AcDbSymbolTableRecord
100
AcDbTextStyleTableRecord
  2
Standard
 70
     0
 40
0.0
 41
1.0
 50
0.0
 71
     0
 42
3.5
  3
txt
  4

  0
STYLE
  5
28B
330
3
100
AcDbSymbolTableRecord
100
AcDbTextStyleTableRecord
  2
SLDTEXTSTYLE0
 70
     0
 40
0.0
 41
0.75
 50
0.0
 71
     0
 42
3.5
  3
TXT
  4

  0
ENDTAB
  0
TABLE
  2
VIEW
  5
6
330
0
100
AcDbSymbolTable
 70
     0
  0
ENDTAB
  0
TABLE
  2
UCS
  5
7
330
0
100
AcDbSymbolTable
 70
     0
  0
ENDTAB
  0
TABLE
  2
APPID
  5
9
330
0
100
AcDbSymbolTable
 70
     1
  0
APPID
  5
12
330
9
100
AcDbSymbolTableRecord
100
AcDbRegAppTableRecord
  2
ACAD
 70
     0
  0
ENDTAB
  0
TABLE
  2
DIMSTYLE
  5
A
330
0
100
AcDbSymbolTable
 70
     2
100
AcDbDimStyleTable
  0
DIMSTYLE
105
27
330
A
100
AcDbSymbolTableRecord
100
AcDbDimStyleTableRecord
  2
ISO-25
 70
     0
 41
2.5
 42
0.625
 43
3.75
 44
1.25
 73
     0
 74
     0
 77
     1
 78
     8
140
2.5
141
2.5
143
0.0393700787
147
0.625
171
     3
172
     1
178
     0
271
     2
272
     2
274
     3
278
    44
283
     0
284
     8
340
11
  0
DIMSTYLE
105
28C
102
{ACAD_REACTORS
330
28A
330
296
330
2A0
330
2AA
330
2B4
330
2BF
330
2CA
330
2D5
330
2DF
330
2E9
330
2F4
330
2FF
102
}
330
A
100
AcDbSymbolTableRecord
100
AcDbDimStyleTableRecord
  2
SLDDIMSTYLE0
 70
     0
 41
3.302
 44
0.0
 45
0.000000001
 73
     0
 74
     0
 77
     1
 78
    12
 79
     3
140
3.5
147
0.875
173
     1
178
     0
271
     2
272
     2
276
     2
284
    12
340
28B
  0
ENDTAB
  0
TABLE
  2
BLOCK_RECORD
  5
1
330
0
100
AcDbSymbolTable
 70
    16
  0
BLOCK_RECORD
  5
1F
330
1
100
AcDbSymbolTableRecord
100
AcDbBlockTableRecord
  2
*Model_Space
340
22
  0
BLOCK_RECORD
  5
1B
330
1
100
AcDbSymbolTableRecord
100
AcDbBlockTableRecord
  2
*Paper_Space
340
1E
  0
BLOCK_RECORD
  5
23
330
1
100
AcDbSymbolTableRecord
100
AcDbBlockTableRecord
  2
*Paper_Space0
340
26
  0
BLOCK_RECORD
  5
80
330
1
100
AcDbSymbolTableRecord
100
AcDbBlockTableRecord
  2
Block11
340
0
102
{BLKREFS
331
289
102
}
  0
BLOCK_RECORD
  5
89
330
1
100
AcDbSymbolTableRecord
100
AcDbBlockTableRecord
  2
Block12
340
0
102
{BLKREFS
331
288
102
}
  0
BLOCK_RECORD
  5
28D
330
1
100
AcDbSymbolTableRecord
100
AcDbBlockTableRecord
  2
_D
340
0
  0
BLOCK_RECORD
  5
297
330
1
100
AcDbSymbolTableRecord
100
AcDbBlockTableRecord
  2
_D_1
340
0
  0
BLOCK_RECORD
  5
2A1
330
1
100
AcDbSymbolTableRecord
100
AcDbBlockTableRecord
  2
_D_2
340
0
  0
BLOCK_RECORD
  5
2AB
330
1
100
AcDbSymbolTableRecord
100
AcDbBlockTableRecord
  2
_D_3
340
0
  0
BLOCK_RECORD
  5
2B5
330
1
100
AcDbSymbolTableRecord
100
AcDbBlockTableRecord
  2
_D_4
340
0
  0
BLOCK_RECORD
  5
2C0
330
1
100
AcDbSymbolTableRecord
100
AcDbBlockTableRecord
  2
_D_5
340
0
  0
BLOCK_RECORD
  5
2CB
330
1
100
AcDbSymbolTableRecord
100
AcDbBlockTableRecord
  2
_D_6
340
0
  0
BLOCK_RECORD
  5
2D6
330
1
100
AcDbSymbolTableRecord
100
AcDbBlockTableRecord
  2
_D_7
340
0
  0
BLOCK_RECORD
  5
2E0
330
1
100
AcDbSymbolTableRecord
100
AcDbBlockTableRecord
  2
_D_8
340
0
  0
BLOCK_RECORD
  5
2EA
330
1
100
AcDbSymbolTableRecord
100
AcDbBlockTableRecord
  2
_D_9
340
0
  0
BLOCK_RECORD
  5
2F5
330
1
100
AcDbSymbolTableRecord
100
AcDbBlockTableRecord
  2
_D_10
340
0
  0
BLOCK_RECORD
  5
300
330
1
100
AcDbSymbolTableRecord
100
AcDbBlockTableRecord
  2
_D_11
340
0
  0
BLOCK_RECORD
  5
30B
330
1
100
AcDbSymbolTableRecord
100
AcDbBlockTableRecord
  2
SW_NOTE_0
340
0
102
{BLKREFS
331
310
102
}
  0
ENDTAB
  0
ENDSEC
  0
SECTION
  2
BLOCKS
  0
BLOCK
  5
20
330
1F
100
AcDbEntity
  8
0
100
AcDbBlockBegin
  2
*Model_Space
 70
     0
 10
0.0
 20
0.0
 30
0.0
  3
*Model_Space
  1

  0
ENDBLK
  5
21
330
1F
100
AcDbEntity
  8
0
100
AcDbBlockEnd
  0
BLOCK
  5
1C
330
1B
100
AcDbEntity
 67
     1
  8
0
100
AcDbBlockBegin
  2
*Paper_Space
 70
     0
 10
0.0
 20
0.0
 30
0.0
  3
*Paper_Space
  1

  0
ENDBLK
  5
1D
330
1B
100
AcDbEntity
 67
     1
  8
0
100
AcDbBlockEnd
  0
BLOCK
  5
24
330
23
100
AcDbEntity
  8
0
100
AcDbBlockBegin
  2
*Paper_Space0
 70
     0
 10
0.0
 20
0.0
 30
0.0
  3
*Paper_Space0
  1

  0
ENDBLK
  5
25
330
23
100
AcDbEntity
  8
0
100
AcDbBlockEnd
  0
BLOCK
  5
81
330
80
100
AcDbEntity
  8
0
100
AcDbBlockBegin
  2
Block11
 70
     0
 10
0.0
 20
0.0
 30
0.0
  3
Block11
  1

  0
CIRCLE
  5
83
330
80
100
AcDbEntity
  8
81
370
    18
100
AcDbCircle
 10
91.6264826505
 20
130.2676275275
 30
0.0
 40
2.499999999999981
  0
LINE
  5
84
330
80
100
AcDbEntity
  8
81
370
    18
100
AcDbLine
 10
91.6264826505
 20
130.2676275275
 30
0.0
 11
95.1620165565
 21
133.8031614334
 31
0.0
  0
LINE
  5
85
330
80
100
AcDbEntity
  8
81
370
    18
100
AcDbLine
 10
91.6264826505
 20
130.2676275275
 30
0.0
 11
88.0909487446
 21
126.7320936216
 31
0.0
  0
LINE
  5
86
330
80
100
AcDbEntity
  8
81
370
    18
100
AcDbLine
 10
91.6264826505
 20
130.2676275275
 30
0.0
 11
88.0909487446
 21
133.8031614334
 31
0.0
  0
LINE
  5
87
330
80
100
AcDbEntity
  8
81
100
AcDbLine
 10
91.6264826505
 20
130.2676275275
 30
0.0
 11
101.6264826505
 21
130.2676275275
 31
0.0
  0
LINE
  5
88
330
80
100
AcDbEntity
  8
81
370
    18
100
AcDbLine
 10
91.6264826505
 20
130.2676275275
 30
0.0
 11
95.1620165565
 21
126.7320936216
 31
0.0
  0
ENDBLK
  5
82
330
80
100
AcDbEntity
  8
0
100
AcDbBlockEnd
  0
BLOCK
  5
8A
330
89
100
AcDbEntity
  8
0
100
AcDbBlockBegin
  2
Block12
 70
     0
 10
0.0
 20
0.0
 30
0.0
  3
Block12
  1

  0
CIRCLE
  5
8C
330
89
100
AcDbEntity
  8
80
370
    18
100
AcDbCircle
 10
61.7273641656
 20
130.3356800267
 30
0.0
 40
2.500000000000004
  0
LINE
  5
8D
330
89
100
AcDbEntity
  8
80
370
    18
100
AcDbLine
 10
61.7273641656
 20
130.3356800267
 30
0.0
 11
65.2628980715
 21
133.8712139326
 31
0.0
  0
LINE
  5
8E
330
89
100
AcDbEntity
  8
80
370
    18
100
AcDbLine
 10
61.7273641656
 20
130.3356800267
 30
0.0
 11
58.1918302597
 21
126.8001461208
 31
0.0
  0
LINE
  5
8F
330
89
100
AcDbEntity
  8
80
370
    18
100
AcDbLine
 10
61.7273641656
 20
130.3356800267
 30
0.0
 11
58.1918302597
 21
133.8712139326
 31
0.0
  0
LINE
  5
90
330
89
100
AcDbEntity
  8
80
370
    18
100
AcDbLine
 10
61.7273641656
 20
130.3356800267
 30
0.0
 11
51.7273641656
 21
130.3356800267
 31
0.0
  0
LINE
  5
91
330
89
100
AcDbEntity
  8
80
370
    18
100
AcDbLine
 10
61.7273641656
 20
130.3356800267
 30
0.0
 11
65.2628980715
 21
126.8001461208
 31
0.0
  0
ENDBLK
  5
8B
330
89
100
AcDbEntity
  8
0
100
AcDbBlockEnd
  0
BLOCK
  5
28E
330
28D
100
AcDbEntity
  8
0
100
AcDbBlockBegin
  2
_D
 70
     0
 10
0.0
 20
0.0
 30
0.0
  3
_D
  1

  0
SOLID
  5
290
330
28D
100
AcDbEntity
  8
SK2
100
AcDbTrace
 10
0.0
 20
57.5487179571
 30
0.0
 11
3.302
 21
57.0407179571
 31
0.0
 12
3.302
 22
58.0567179571
 32
0.0
 13
3.302
 23
58.0567179571
 33
0.0
  0
SOLID
  5
291
330
28D
100
AcDbEntity
  8
SK2
100
AcDbTrace
 10
19.05
 20
57.5487179571
 30
0.0
 11
15.748
 21
58.0567179571
 31
0.0
 12
15.748
 22
57.0407179571
 32
0.0
 13
15.748
 23
57.0407179571
 33
0.0
  0
LINE
  5
292
330
28D
100
AcDbEntity
  8
SK2
100
AcDbLine
 10
0.0
 20
35.925
 30
0.0
 11
0.0
 21
58.5487179571
 31
0.0
  0
LINE
  5
293
330
28D
100
AcDbEntity
  8
SK2
100
AcDbLine
 10
19.05
 20
48.975
 30
0.0
 11
19.05
 21
58.5487179571
 31
0.0
  0
LINE
  5
294
330
28D
100
AcDbEntity
  8
SK2
100
AcDbLine
 10
0.0
 20
57.5487179571
 30
0.0
 11
19.05
 21
57.5487179571
 31
0.0
  0
MTEXT
  5
295
330
28D
100
AcDbEntity
  8
SK2
100
AcDbMText
 10
3.6005449442
 20
62.0604548717
 30
0.0
 40
3.5
 41
0.0
 71
     1
 72
     1
  1
19,05
  7
SLDTEXTSTYLE0
 73
     1
 44
1.0
  0
ENDBLK
  5
28F
330
28D
100
AcDbEntity
  8
0
100
AcDbBlockEnd
  0
BLOCK
  5
298
330
297
100
AcDbEntity
  8
0
100
AcDbBlockBegin
  2
_D_1
 70
     0
 10
0.0
 20
0.0
 30
0.0
  3
_D_1
  1

  0
SOLID
  5
29A
330
297
100
AcDbEntity
  8
SK2
100
AcDbTrace
 10
63.0
 20
46.977247979
 30
0.0
 11
59.698
 21
47.485247979
 31
0.0
 12
59.698
 22
46.469247979
 32
0.0
 13
59.698
 23
46.469247979
 33
0.0
  0
SOLID
  5
29B
330
297
100
AcDbEntity
  8
SK2
100
AcDbTrace
 10
50.0
 20
46.977247979
 30
0.0
 11
53.302
 21
46.469247979
 31
0.0
 12
53.302
 22
47.485247979
 32
0.0
 13
53.302
 23
47.485247979
 33
0.0
  0
LINE
  5
29C
330
297
100
AcDbEntity
  8
SK2
100
AcDbLine
 10
63.0
 20
17.4944465005
 30
0.0
 11
63.0
 21
47.977247979
 31
0.0
  0
LINE
  5
29D
330
297
100
AcDbEntity
  8
SK2
100
AcDbLine
 10
50.0
 20
25.0
 30
0.0
 11
50.0
 21
47.977247979
 31
0.0
  0
LINE
  5
29E
330
297
100
AcDbEntity
  8
SK2
100
AcDbLine
 10
63.0
 20
46.977247979
 30
0.0
 11
50.0
 21
46.977247979
 31
0.0
  0
MTEXT
  5
29F
330
297
100
AcDbEntity
  8
SK2
100
AcDbMText
 10
53.6496938972
 20
51.4889848936
 30
0.0
 40
3.5
 41
0.0
 71
     1
 72
     1
  1
13
  7
SLDTEXTSTYLE0
 73
     1
 44
1.0
  0
ENDBLK
  5
299
330
297
100
AcDbEntity
  8
0
100
AcDbBlockEnd
  0
BLOCK
  5
2A2
330
2A1
100
AcDbEntity
  8
0
100
AcDbBlockBegin
  2
_D_2
 70
     0
 10
0.0
 20
0.0
 30
0.0
  3
_D_2
  1

  0
SOLID
  5
2A4
330
2A1
100
AcDbEntity
  8
SK2
100
AcDbTrace
 10
63.0
 20
57.5487179571
 30
0.0
 11
59.698
 21
58.0567179571
 31
0.0
 12
59.698
 22
57.0407179571
 32
0.0
 13
59.698
 23
57.0407179571
 33
0.0
  0
SOLID
  5
2A5
330
2A1
100
AcDbEntity
  8
SK2
100
AcDbTrace
 10
19.05
 20
57.5487179571
 30
0.0
 11
22.352
 21
57.0407179571
 31
0.0
 12
22.352
 22
58.0567179571
 32
0.0
 13
22.352
 23
58.0567179571
 33
0.0
  0
LINE
  5
2A6
330
2A1
100
AcDbEntity
  8
SK2
100
AcDbLine
 10
63.0
 20
17.4944465005
 30
0.0
 11
63.0
 21
58.5487179571
 31
0.0
  0
LINE
  5
2A7
330
2A1
100
AcDbEntity
  8
SK2
100
AcDbLine
 10
19.05
 20
48.975
 30
0.0
 11
19.05
 21
58.5487179571
 31
0.0
  0
LINE
  5
2A8
330
2A1
100
AcDbEntity
  8
SK2
100
AcDbLine
 10
63.0
 20
57.5487179571
 30
0.0
 11
19.05
 21
57.5487179571
 31
0.0
  0
MTEXT
  5
2A9
330
2A1
100
AcDbEntity
  8
SK2
100
AcDbMText
 10
35.3149548784
 20
62.0604548717
 30
0.0
 40
3.5
 41
0.0
 71
     1
 72
     1
  1
43,95
  7
SLDTEXTSTYLE0
 73
     1
 44
1.0
  0
ENDBLK
  5
2A3
330
2A1
100
AcDbEntity
  8
0
100
AcDbBlockEnd
  0
BLOCK
  5
2AC
330
2AB
100
AcDbEntity
  8
0
100
AcDbBlockBegin
  2
_D_3
 70
     0
 10
0.0
 20
0.0
 30
0.0
  3
_D_3
  1

  0
SOLID
  5
2AE
330
2AB
100
AcDbEntity
  8
2
100
AcDbTrace
 10
0.0
 20
66.9120199377
 30
0.0
 11
3.302
 21
66.4040199377
 31
0.0
 12
3.302
 22
67.4200199377
 32
0.0
 13
3.302
 23
67.4200199377
 33
0.0
  0
SOLID
  5
2AF
330
2AB
100
AcDbEntity
  8
2
100
AcDbTrace
 10
63.0
 20
66.9120199377
 30
0.0
 11
59.698
 21
67.4200199377
 31
0.0
 12
59.698
 22
66.4040199377
 32
0.0
 13
59.698
 23
66.4040199377
 33
0.0
  0
LINE
  5
2B0
330
2AB
100
AcDbEntity
  8
2
100
AcDbLine
 10
0.0
 20
35.925
 30
0.0
 11
0.0
 21
67.9120199377
 31
0.0
  0
LINE
  5
2B1
330
2AB
100
AcDbEntity
  8
2
100
AcDbLine
 10
63.0
 20
17.4944465005
 30
0.0
 11
63.0
 21
67.9120199377
 31
0.0
  0
LINE
  5
2B2
330
2AB
100
AcDbEntity
  8
2
100
AcDbLine
 10
0.0
 20
66.9120199377
 30
0.0
 11
63.0
 21
66.9120199377
 31
0.0
  0
MTEXT
  5
2B3
330
2AB
100
AcDbEntity
  8
2
100
AcDbMText
 10
29.8589748977
 20
71.4237568522
 30
0.0
 40
3.5
 41
0.0
 71
     1
 72
     1
  1
63
  7
SLDTEXTSTYLE0
 73
     1
 44
1.0
  0
ENDBLK
  5
2AD
330
2AB
100
AcDbEntity
  8
0
100
AcDbBlockEnd
  0
BLOCK
  5
2B6
330
2B5
100
AcDbEntity
  8
0
100
AcDbBlockBegin
  2
_D_4
 70
     0
 10
0.0
 20
0.0
 30
0.0
  3
_D_4
  1

  0
SOLID
  5
2B8
330
2B5
100
AcDbEntity
  8
SK2
100
AcDbTrace
 10
99.1173409992
 20
24.0
 30
0.0
 11
98.6093409992
 21
20.698
 31
0.0
 12
99.6253409992
 22
20.698
 32
0.0
 13
99.6253409992
 23
20.698
 33
0.0
  0
SOLID
  5
2B9
330
2B5
100
AcDbEntity
  8
SK2
100
AcDbTrace
 10
99.1173409992
 20
-24.0
 30
0.0
 11
99.6253409992
 21
-20.698
 31
0.0
 12
98.6093409992
 22
-20.698
 32
0.0
 13
98.6093409992
 23
-20.698
 33
0.0
  0
LINE
  5
2BA
330
2B5
100
AcDbEntity
  8
SK2
100
AcDbLine
 10
51.0
 20
24.0
 30
0.0
 11
100.1173409992
 21
24.0
 31
0.0
  0
LINE
  5
2BB
330
2B5
100
AcDbEntity
  8
SK2
100
AcDbLine
 10
51.0
 20
-24.0
 30
0.0
 11
100.1173409992
 21
-24.0
 31
0.0
  0
LINE
  5
2BC
330
2B5
100
AcDbEntity
  8
SK2
100
AcDbLine
 10
99.1173409992
 20
24.0
 30
0.0
 11
99.1173409992
 21
-24.0
 31
0.0
  0
MTEXT
  5
2BD
330
2B5
100
AcDbEntity
  8
SK2
100
AcDbMText
 10
94.60560391
 20
-5.9424935018
 30
0.0
 40
3.5
 41
0.0
 71
     1
 72
     1
  1
%%c
  7
SLDTEXTSTYLE0
 11
-7.044195017643634E-15
 21
1.0
 31
0.0
 73
     1
 44
1.0
  0
MTEXT
  5
2BE
330
2B5
100
AcDbEntity
  8
SK2
100
AcDbMText
 10
94.5521317333
 20
-0.6640561035
 30
0.0
 40
3.5
 41
0.0
 71
     1
 72
     1
  1
48
  7
SLDTEXTSTYLE0
 11
-7.044195017643634E-15
 21
1.0
 31
0.0
 73
     1
 44
1.0
  0
ENDBLK
  5
2B7
330
2B5
100
AcDbEntity
  8
0
100
AcDbBlockEnd
  0
BLOCK
  5
2C1
330
2C0
100
AcDbEntity
  8
0
100
AcDbBlockBegin
  2
_D_5
 70
     0
 10
0.0
 20
0.0
 30
0.0
  3
_D_5
  1

  0
SOLID
  5
2C3
330
2C0
100
AcDbEntity
  8
SK2
100
AcDbTrace
 10
88.458421496
 20
16.4944465005
 30
0.0
 11
87.950421496
 21
13.1924465005
 31
0.0
 12
88.966421496
 22
13.1924465005
 32
0.0
 13
88.966421496
 23
13.1924465005
 33
0.0
  0
SOLID
  5
2C4
330
2C0
100
AcDbEntity
  8
SK2
100
AcDbTrace
 10
88.458421496
 20
-16.4944465005
 30
0.0
 11
88.966421496
 21
-13.1924465005
 31
0.0
 12
87.950421496
 22
-13.1924465005
 32
0.0
 13
87.950421496
 23
-13.1924465005
 33
0.0
  0
LINE
  5
2C5
330
2C0
100
AcDbEntity
  8
SK2
100
AcDbLine
 10
64.0
 20
16.4944465005
 30
0.0
 11
89.458421496
 21
16.4944465005
 31
0.0
  0
LINE
  5
2C6
330
2C0
100
AcDbEntity
  8
SK2
100
AcDbLine
 10
64.0
 20
-16.4944465005
 30
0.0
 11
89.458421496
 21
-16.4944465005
 31
0.0
  0
LINE
  5
2C7
330
2C0
100
AcDbEntity
  8
SK2
100
AcDbLine
 10
88.458421496
 20
16.4944465005
 30
0.0
 11
88.458421496
 21
-16.4944465005
 31
0.0
  0
MTEXT
  5
2C8
330
2C0
100
AcDbEntity
  8
SK2
100
AcDbMText
 10
83.9466844068
 20
-5.9424935018
 30
0.0
 40
3.5
 41
0.0
 71
     1
 72
     1
  1
%%c
  7
SLDTEXTSTYLE0
 11
-7.044195017643634E-15
 21
1.0
 31
0.0
 73
     1
 44
1.0
  0
MTEXT
  5
2C9
330
2C0
100
AcDbEntity
  8
SK2
100
AcDbMText
 10
83.8932122301
 20
-0.6640561035
 30
0.0
 40
3.5
 41
0.0
 71
     1
 72
     1
  1
33
  7
SLDTEXTSTYLE0
 11
-7.044195017643634E-15
 21
1.0
 31
0.0
 73
     1
 44
1.0
  0
ENDBLK
  5
2C2
330
2C0
100
AcDbEntity
  8
0
100
AcDbBlockEnd
  0
BLOCK
  5
2CC
330
2CB
100
AcDbEntity
  8
0
100
AcDbBlockBegin
  2
_D_6
 70
     0
 10
0.0
 20
0.0
 30
0.0
  3
_D_6
  1

  0
SOLID
  5
2CE
330
2CB
100
AcDbEntity
  8
SK2
100
AcDbTrace
 10
78.1889279154
 20
8.0
 30
0.0
 11
77.6809279154
 21
4.698
 31
0.0
 12
78.6969279154
 22
4.698
 32
0.0
 13
78.6969279154
 23
4.698
 33
0.0
  0
SOLID
  5
2CF
330
2CB
100
AcDbEntity
  8
SK2
100
AcDbTrace
 10
78.1889279154
 20
-8.0
 30
0.0
 11
78.6969279154
 21
-4.698
 31
0.0
 12
77.6809279154
 22
-4.698
 32
0.0
 13
77.6809279154
 23
-4.698
 33
0.0
  0
LINE
  5
2D0
330
2CB
100
AcDbEntity
  8
SK2
100
AcDbLine
 10
63.0
 20
8.0
 30
0.0
 11
79.1889279154
 21
8.0
 31
0.0
  0
LINE
  5
2D1
330
2CB
100
AcDbEntity
  8
SK2
100
AcDbLine
 10
63.0
 20
-8.0
 30
0.0
 11
79.1889279154
 21
-8.0
 31
0.0
  0
LINE
  5
2D2
330
2CB
100
AcDbEntity
  8
SK2
100
AcDbLine
 10
78.1889279154
 20
8.0
 30
0.0
 11
78.1889279154
 21
-8.0
 31
0.0
  0
MTEXT
  5
2D3
330
2CB
100
AcDbEntity
  8
SK2
100
AcDbMText
 10
73.6771908262
 20
-5.9424935018
 30
0.0
 40
3.5
 41
0.0
 71
     1
 72
     1
  1
%%c
  7
SLDTEXTSTYLE0
 11
-7.044195017643634E-15
 21
1.0
 31
0.0
 73
     1
 44
1.0
  0
MTEXT
  5
2D4
330
2CB
100
AcDbEntity
  8
SK2
100
AcDbMText
 10
73.6237186495
 20
-0.6640561035
 30
0.0
 40
3.5
 41
0.0
 71
     1
 72
     1
  1
16
  7
SLDTEXTSTYLE0
 11
-7.044195017643634E-15
 21
1.0
 31
0.0
 73
     1
 44
1.0
  0
ENDBLK
  5
2CD
330
2CB
100
AcDbEntity
  8
0
100
AcDbBlockEnd
  0
BLOCK
  5
2D7
330
2D6
100
AcDbEntity
  8
0
100
AcDbBlockBegin
  2
_D_7
 70
     0
 10
0.0
 20
0.0
 30
0.0
  3
_D_7
  1

  0
SOLID
  5
2D9
330
2D6
100
AcDbEntity
  8
SK2
100
AcDbTrace
 10
63.0
 20
-34.3082131149
 30
0.0
 11
59.698
 21
-33.8002131149
 31
0.0
 12
59.698
 22
-34.8162131149
 32
0.0
 13
59.698
 23
-34.8162131149
 33
0.0
  0
SOLID
  5
2DA
330
2D6
100
AcDbEntity
  8
SK2
100
AcDbTrace
 10
39.0
 20
-34.3082131149
 30
0.0
 11
42.302
 21
-34.8162131149
 31
0.0
 12
42.302
 22
-33.8002131149
 32
0.0
 13
42.302
 23
-33.8002131149
 33
0.0
  0
LINE
  5
2DB
330
2D6
100
AcDbEntity
  8
SK2
100
AcDbLine
 10
63.0
 20
-17.4944465005
 30
0.0
 11
63.0
 21
-35.3082131149
 31
0.0
  0
LINE
  5
2DC
330
2D6
100
AcDbEntity
  8
SK2
100
AcDbLine
 10
39.0
 20
-25.3
 30
0.0
 11
39.0
 21
-35.3082131149
 31
0.0
  0
LINE
  5
2DD
330
2D6
100
AcDbEntity
  8
SK2
100
AcDbLine
 10
63.0
 20
-34.3082131149
 30
0.0
 11
39.0
 21
-34.3082131149
 31
0.0
  0
MTEXT
  5
2DE
330
2D6
100
AcDbEntity
  8
SK2
100
AcDbMText
 10
48.3920063198
 20
-29.7964762003
 30
0.0
 40
3.5
 41
0.0
 71
     1
 72
     1
  1
24
  7
SLDTEXTSTYLE0
 73
     1
 44
1.0
  0
ENDBLK
  5
2D8
330
2D6
100
AcDbEntity
  8
0
100
AcDbBlockEnd
  0
BLOCK
  5
2E1
330
2E0
100
AcDbEntity
  8
0
100
AcDbBlockBegin
  2
_D_8
 70
     0
 10
0.0
 20
0.0
 30
0.0
  3
_D_8
  1

  0
SOLID
  5
2E3
330
2E0
100
AcDbEntity
  8
SK2
100
AcDbTrace
 10
63.0
 20
-55.7846238729
 30
0.0
 11
59.698
 21
-55.2766238729
 31
0.0
 12
59.698
 22
-56.2926238729
 32
0.0
 13
59.698
 23
-56.2926238729
 33
0.0
  0
SOLID
  5
2E4
330
2E0
100
AcDbEntity
  8
SK2
100
AcDbTrace
 10
15.9021215045
 20
-55.7846238729
 30
0.0
 11
19.2041215045
 21
-56.2926238729
 31
0.0
 12
19.2041215045
 22
-55.2766238729
 32
0.0
 13
19.2041215045
 23
-55.2766238729
 33
0.0
  0
LINE
  5
2E5
330
2E0
100
AcDbEntity
  8
SK2
100
AcDbLine
 10
63.0
 20
-17.4944465005
 30
0.0
 11
63.0
 21
-56.7846238729
 31
0.0
  0
LINE
  5
2E6
330
2E0
100
AcDbEntity
  8
SK2
100
AcDbLine
 10
15.9021215045
 20
-9.0
 30
0.0
 11
15.9021215045
 21
-56.7846238729
 31
0.0
  0
LINE
  5
2E7
330
2E0
100
AcDbEntity
  8
SK2
100
AcDbLine
 10
63.0
 20
-55.7846238729
 30
0.0
 11
15.9021215045
 21
-55.7846238729
 31
0.0
  0
MTEXT
  5
2E8
330
2E0
100
AcDbEntity
  8
SK2
100
AcDbMText
 10
34.1816286672
 20
-51.2728869583
 30
0.0
 40
3.5
 41
0.0
 71
     1
 72
     1
  1
47,1
  7
SLDTEXTSTYLE0
 73
     1
 44
1.0
  0
ENDBLK
  5
2E2
330
2E0
100
AcDbEntity
  8
0
100
AcDbBlockEnd
  0
BLOCK
  5
2EB
330
2EA
100
AcDbEntity
  8
0
100
AcDbBlockBegin
  2
_D_9
 70
     0
 10
0.0
 20
0.0
 30
0.0
  3
_D_9
  1

  0
SOLID
  5
2ED
330
2EA
100
AcDbEntity
  8
SK2
100
AcDbTrace
 10
-111.634342477
 20
-12.0
 30
0.0
 11
-111.126342477
 21
-8.698
 31
0.0
 12
-112.142342477
 22
-8.698
 32
0.0
 13
-112.142342477
 23
-8.698
 33
0.0
  0
SOLID
  5
2EE
330
2EA
100
AcDbEntity
  8
SK2
100
AcDbTrace
 10
-111.634342477
 20
12.0
 30
0.0
 11
-112.142342477
 21
8.698
 31
0.0
 12
-111.126342477
 22
8.698
 32
0.0
 13
-111.126342477
 23
8.698
 33
0.0
  0
LINE
  5
2EF
330
2EA
100
AcDbEntity
  8
SK2
100
AcDbLine
 10
-89.3448185145
 20
-12.0
 30
0.0
 11
-112.634342477
 21
-12.0
 31
0.0
  0
LINE
  5
2F0
330
2EA
100
AcDbEntity
  8
SK2
100
AcDbLine
 10
-89.3448185145
 20
12.0
 30
0.0
 11
-112.634342477
 21
12.0
 31
0.0
  0
LINE
  5
2F1
330
2EA
100
AcDbEntity
  8
SK2
100
AcDbLine
 10
-111.634342477
 20
-12.0
 30
0.0
 11
-111.634342477
 21
12.0
 31
0.0
  0
MTEXT
  5
2F2
330
2EA
100
AcDbEntity
  8
SK2
100
AcDbMText
 10
-116.1460793916
 20
-4.4771276768
 30
0.0
 40
3.5
 41
0.0
 71
     1
 72
     1
  1
M
  7
SLDTEXTSTYLE0
 11
3.391901413832837E-15
 21
1.0
 31
0.0
 73
     1
 44
1.0
  0
MTEXT
  5
2F3
330
2EA
100
AcDbEntity
  8
SK2
100
AcDbMText
 10
-116.1460793916
 20
-0.1896277423
 30
0.0
 40
3.5
 41
0.0
 71
     1
 72
     1
  1
24
  7
SLDTEXTSTYLE0
 11
3.391901413832837E-15
 21
1.0
 31
0.0
 73
     1
 44
1.0
  0
ENDBLK
  5
2EC
330
2EA
100
AcDbEntity
  8
0
100
AcDbBlockEnd
  0
BLOCK
  5
2F6
330
2F5
100
AcDbEntity
  8
0
100
AcDbBlockBegin
  2
_D_10
 70
     0
 10
0.0
 20
0.0
 30
0.0
  3
_D_10
  1

  0
SOLID
  5
2F8
330
2F5
100
AcDbEntity
  8
SK2
100
AcDbTrace
 10
-123.1112004022
 20
34.925
 30
0.0
 11
-123.6192004022
 21
31.623
 31
0.0
 12
-122.6032004022
 22
31.623
 32
0.0
 13
-122.6032004022
 23
31.623
 33
0.0
  0
SOLID
  5
2F9
330
2F5
100
AcDbEntity
  8
SK2
100
AcDbTrace
 10
-123.1112004022
 20
-34.925
 30
0.0
 11
-122.6032004022
 21
-31.623
 31
0.0
 12
-123.6192004022
 22
-31.623
 32
0.0
 13
-123.6192004022
 23
-31.623
 33
0.0
  0
LINE
  5
2FA
330
2F5
100
AcDbEntity
  8
SK2
100
AcDbLine
 10
-1.0
 20
34.925
 30
0.0
 11
-124.1112004022
 21
34.925
 31
0.0
  0
LINE
  5
2FB
330
2F5
100
AcDbEntity
  8
SK2
100
AcDbLine
 10
-1.0
 20
-34.925
 30
0.0
 11
-124.1112004022
 21
-34.925
 31
0.0
  0
LINE
  5
2FC
330
2F5
100
AcDbEntity
  8
SK2
100
AcDbLine
 10
-123.1112004022
 20
34.925
 30
0.0
 11
-123.1112004022
 21
-34.925
 31
0.0
  0
MTEXT
  5
2FD
330
2F5
100
AcDbEntity
  8
SK2
100
AcDbMText
 10
-127.6229374914
 20
-8.205235226
 30
0.0
 40
3.5
 41
0.0
 71
     1
 72
     1
  1
%%c
  7
SLDTEXTSTYLE0
 11
-7.044195017643634E-15
 21
1.0
 31
0.0
 73
     1
 44
1.0
  0
MTEXT
  5
2FE
330
2F5
100
AcDbEntity
  8
SK2
100
AcDbMText
 10
-127.6764096681
 20
-2.9267978277
 30
0.0
 40
3.5
 41
0.0
 71
     1
 72
     1
  1
69,85
  7
SLDTEXTSTYLE0
 11
-7.044195017643634E-15
 21
1.0
 31
0.0
 73
     1
 44
1.0
  0
ENDBLK
  5
2F7
330
2F5
100
AcDbEntity
  8
0
100
AcDbBlockEnd
  0
BLOCK
  5
301
330
300
100
AcDbEntity
  8
0
100
AcDbBlockBegin
  2
_D_11
 70
     0
 10
0.0
 20
0.0
 30
0.0
  3
_D_11
  1

  0
SOLID
  5
303
330
300
100
AcDbEntity
  8
SK2
100
AcDbTrace
 10
-134.5979982869
 20
48.725
 30
0.0
 11
-135.1059982869
 21
45.423
 31
0.0
 12
-134.0899982869
 22
45.423
 32
0.0
 13
-134.0899982869
 23
45.423
 33
0.0
  0
SOLID
  5
304
330
300
100
AcDbEntity
  8
SK2
100
AcDbTrace
 10
-134.5979982869
 20
-48.725
 30
0.0
 11
-134.0899982869
 21
-45.423
 31
0.0
 12
-135.1059982869
 22
-45.423
 32
0.0
 13
-135.1059982869
 23
-45.423
 33
0.0
  0
LINE
  5
305
330
300
100
AcDbEntity
  8
SK2
100
AcDbLine
 10
6.8668384925
 20
48.725
 30
0.0
 11
-135.5979982869
 21
48.725
 31
0.0
  0
LINE
  5
306
330
300
100
AcDbEntity
  8
SK2
100
AcDbLine
 10
2.95
 20
-48.725
 30
0.0
 11
-135.5979982869
 21
-48.725
 31
0.0
  0
LINE
  5
307
330
300
100
AcDbEntity
  8
SK2
100
AcDbLine
 10
-134.5979982869
 20
48.725
 30
0.0
 11
-134.5979982869
 21
-48.725
 31
0.0
  0
MTEXT
  5
308
330
300
100
AcDbEntity
  8
SK2
100
AcDbMText
 10
-139.1097353761
 20
-8.205235226
 30
0.0
 40
3.5
 41
0.0
 71
     1
 72
     1
  1
%%c
  7
SLDTEXTSTYLE0
 11
-7.044195017643634E-15
 21
1.0
 31
0.0
 73
     1
 44
1.0
  0
MTEXT
  5
309
330
300
100
AcDbEntity
  8
SK2
100
AcDbMText
 10
-139.1632075528
 20
-2.9267978277
 30
0.0
 40
3.5
 41
0.0
 71
     1
 72
     1
  1
97,45
  7
SLDTEXTSTYLE0
 11
-7.044195017643634E-15
 21
1.0
 31
0.0
 73
     1
 44
1.0
  0
ENDBLK
  5
302
330
300
100
AcDbEntity
  8
0
100
AcDbBlockEnd
  0
BLOCK
  5
30C
330
30B
100
AcDbEntity
  8
0
100
AcDbBlockBegin
  2
SW_NOTE_0
 70
     0
 10
0.0
 20
0.0
 30
0.0
  3
SW_NOTE_0
  1

  0
MTEXT
  5
30E
330
30B
100
AcDbEntity
  8
SK6
 62
     0
100
AcDbMText
 10
0.0
 20
4.5117370892
 30
0.0
 40
3.5
 41
0.0
 71
     1
 72
     1
  1
TAPER ISO 50
  7
SLDTEXTSTYLE0
 73
     1
 44
1.0
  0
MTEXT
  5
30F
330
30B
100
AcDbEntity
  8
SK6
 62
     0
100
AcDbMText
 10
0.0
 20
-0.0139574413
 30
0.0
 40
3.5
 41
0.0
 71
     1
 72
     1
  1
DIN 69871-AD/B
  7
SLDTEXTSTYLE0
 73
     1
 44
1.0
  0
ENDBLK
  5
30D
330
30B
100
AcDbEntity
  8
0
100
AcDbBlockEnd
  0
ENDSEC
  0
SECTION
  2
ENTITIES
  0
LINE
  5
92
330
1F
100
AcDbEntity
  8
1
  6
SLD-Solid
370
    25
100
AcDbLine
 10
18.3
 20
48.725
 30
0.0
 11
14.3331615075
 21
48.725
 31
0.0
  0
LINE
  5
93
330
1F
100
AcDbEntity
  8
1
  6
SLD-Solid
370
    25
100
AcDbLine
 10
14.3331615075
 20
48.725
 30
0.0
 11
13.015
 21
46.4418772965
 31
0.0
  0
LINE
  5
94
330
1F
100
AcDbEntity
  8
1
  6
SLD-Solid
370
    25
100
AcDbLine
 10
7.8668384925
 20
48.725
 30
0.0
 11
3.95
 21
48.725
 31
0.0
  0
LINE
  5
95
330
1F
100
AcDbEntity
  8
1
  6
SLD-Solid
370
    25
100
AcDbLine
 10
9.185
 20
46.4418772965
 30
0.0
 11
7.8668384925
 21
48.725
 31
0.0
  0
LINE
  5
96
330
1F
100
AcDbEntity
  8
1
  6
SLD-Solid
370
    25
100
AcDbLine
 10
1.7476022729
 20
-34.925
 30
0.0
 11
2.1330363037
 21
-34.7452691597
 31
0.0
  0
LINE
  5
97
330
1F
100
AcDbEntity
  8
1
  6
SLD-Solid
370
    25
100
AcDbLine
 10
2.1330363037
 20
34.7452691597
 30
0.0
 11
1.7476022729
 21
34.925
 31
0.0
  0
LINE
  5
98
330
1F
100
AcDbEntity
  8
SK1
  6
SLD-Solid
370
    25
100
AcDbLine
 10
0.0
 20
34.925
 30
0.0
 11
-99.6746935114
 21
20.3889699458
 31
0.0
  0
LINE
  5
99
330
1F
100
AcDbEntity
  8
SK1
  6
SLD-Solid
370
    25
100
AcDbLine
 10
-99.6746935114
 20
-20.3889699458
 30
0.0
 11
0.0
 21
-34.925
 31
0.0
  0
LINE
  5
9A
330
1F
100
AcDbEntity
  8
1
  6
SLD-Solid
370
    25
100
AcDbLine
 10
1.7476022729
 20
34.925
 30
0.0
 11
0.0
 21
34.925
 31
0.0
  0
LINE
  5
9B
330
1F
100
AcDbEntity
  8
1
  6
SLD-Solid
370
    25
100
AcDbLine
 10
0.0
 20
-34.925
 30
0.0
 11
1.7476022729
 21
-34.925
 31
0.0
  0
LINE
  5
9C
330
1F
100
AcDbEntity
  8
1
  6
SLD-Solid
370
    25
100
AcDbLine
 10
14.3331615075
 20
-48.725
 30
0.0
 11
18.3
 21
-48.725
 31
0.0
  0
LINE
  5
9D
330
1F
100
AcDbEntity
  8
1
  6
SLD-Solid
370
    25
100
AcDbLine
 10
3.95
 20
-48.725
 30
0.0
 11
7.8668384925
 21
-48.725
 31
0.0
  0
LINE
  5
9E
330
1F
100
AcDbEntity
  8
1
  6
SLD-Solid
370
    25
100
AcDbLine
 10
9.935
 20
-45.5
 30
0.0
 11
12.265
 21
-45.5
 31
0.0
  0
LINE
  5
9F
330
1F
100
AcDbEntity
  8
1
  6
SLD-Solid
370
    25
100
AcDbLine
 10
13.015
 20
-46.4418772965
 30
0.0
 11
14.3331615075
 21
-48.725
 31
0.0
  0
LINE
  5
A0
330
1F
100
AcDbEntity
  8
1
  6
SLD-Solid
370
    25
100
AcDbLine
 10
7.8668384925
 20
-48.725
 30
0.0
 11
9.185
 21
-46.4418772965
 31
0.0
  0
LINE
  5
A1
330
1F
100
AcDbEntity
  8
1
  6
SLD-Solid
370
    25
100
AcDbLine
 10
29.6091800145
 20
24.0
 30
0.0
 11
22.05
 21
24.0
 31
0.0
  0
LINE
  5
A2
330
1F
100
AcDbEntity
  8
1
  6
SLD-Solid
370
    25
100
AcDbLine
 10
50.0
 20
24.0
 30
0.0
 11
48.383585765
 21
24.0
 31
0.0
  0
LINE
  5
A3
330
1F
100
AcDbEntity
  8
1
  6
SLD-Solid
370
    25
100
AcDbLine
 10
47.1
 20
-24.0
 30
0.0
 11
50.0
 21
-24.0
 31
0.0
  0
LINE
  5
A4
330
1F
100
AcDbEntity
  8
1
  6
SLD-Solid
370
    25
100
AcDbLine
 10
22.05
 20
-24.0
 30
0.0
 11
30.9011674093
 21
-24.0
 31
0.0
  0
LINE
  5
A5
330
1F
100
AcDbEntity
  8
1
  6
SLD-Solid
370
    25
100
AcDbLine
 10
50.0
 20
-24.0
 30
0.0
 11
63.0
 21
-16.4944465005
 31
0.0
  0
LINE
  5
A6
330
1F
100
AcDbEntity
  8
1
  6
SLD-Solid
370
    25
100
AcDbLine
 10
63.0
 20
16.4944465005
 30
0.0
 11
50.0
 21
24.0
 31
0.0
  0
LINE
  5
A7
330
1F
100
AcDbEntity
  8
1
  6
SLD-Solid
370
    25
100
AcDbLine
 10
12.265
 20
45.5
 30
0.0
 11
9.935
 21
45.5
 31
0.0
  0
LINE
  5
A8
330
1F
100
AcDbEntity
  8
1
  6
SLD-Solid
370
    25
100
AcDbLine
 10
14.032922622
 20
-12.9
 30
0.0
 11
18.3
 21
-12.9
 31
0.0
  0
LINE
  5
A9
330
1F
100
AcDbEntity
  8
1
  6
SLD-Solid
370
    25
100
AcDbLine
 10
18.3
 20
-13.357839775
 30
0.0
 11
14.3331615075
 21
-13.357839775
 31
0.0
  0
LINE
  5
AA
330
1F
100
AcDbEntity
  8
1
  6
SLD-Solid
370
    25
100
AcDbLine
 10
18.6222236797
 20
-12.9
 30
0.0
 11
19.05
 21
-13.2405659413
 31
0.0
  0
LINE
  5
AB
330
1F
100
AcDbEntity
  8
1
  6
SLD-Solid
370
    25
100
AcDbLine
 10
19.05
 20
-13.2405659413
 30
0.0
 11
19.05
 21
-29.85
 31
0.0
  0
LINE
  5
AC
330
1F
100
AcDbEntity
  8
1
  6
SLD-Solid
370
    25
100
AcDbLine
 10
18.3
 20
-29.85
 30
0.0
 11
14.3331615075
 21
-29.85
 31
0.0
  0
LINE
  5
AD
330
1F
100
AcDbEntity
  8
1
  6
SLD-Solid
370
    25
100
AcDbLine
 10
19.05
 20
47.975
 30
0.0
 11
19.05
 21
13.2406523358
 31
0.0
  0
LINE
  5
AE
330
1F
100
AcDbEntity
  8
1
  6
SLD-Solid
370
    25
100
AcDbLine
 10
19.05
 20
13.2406523358
 30
0.0
 11
18.6221892861
 21
12.9
 31
0.0
  0
LINE
  5
AF
330
1F
100
AcDbEntity
  8
1
  6
SLD-Solid
370
    25
100
AcDbLine
 10
14.3331615075
 20
13.3579364472
 30
0.0
 11
18.3
 21
13.3579364472
 31
0.0
  0
LINE
  5
B0
330
1F
100
AcDbEntity
  8
1
  6
SLD-Solid
370
    25
100
AcDbLine
 10
14.3331615075
 20
48.725
 30
0.0
 11
14.3331615075
 21
13.3579364472
 31
0.0
  0
LINE
  5
B1
330
1F
100
AcDbEntity
  8
1
  6
SLD-Solid
370
    25
100
AcDbLine
 10
18.3
 20
12.9
 30
0.0
 11
14.0328890261
 21
12.9
 31
0.0
  0
LINE
  5
B2
330
1F
100
AcDbEntity
  8
1
  6
SLD-Solid
370
    25
100
AcDbLine
 10
13.015
 20
-12.9
 30
0.0
 11
13.015
 21
-29.85
 31
0.0
  0
LINE
  5
B3
330
1F
100
AcDbEntity
  8
1
  6
SLD-Solid
370
    25
100
AcDbLine
 10
13.015
 20
46.4418772965
 30
0.0
 11
13.015
 21
43.8604894502
 31
0.0
  0
LINE
  5
B4
330
1F
100
AcDbEntity
  8
1
  6
SLD-Solid
370
    25
100
AcDbLine
 10
13.015
 20
39.4676022338
 30
0.0
 11
13.015
 21
12.9
 31
0.0
  0
LINE
  5
B5
330
1F
100
AcDbEntity
  8
1
  6
SLD-Solid
370
    25
100
AcDbLine
 10
13.015
 20
43.4130308872
 30
0.0
 11
13.015
 21
40.1414169238
 31
0.0
  0
LINE
  5
B6
330
1F
100
AcDbEntity
  8
1
  6
SLD-Solid
370
    25
100
AcDbLine
 10
8.234341192
 20
12.9
 30
0.0
 11
3.95
 21
12.9
 31
0.0
  0
LINE
  5
B7
330
1F
100
AcDbEntity
  8
1
  6
SLD-Solid
370
    25
100
AcDbLine
 10
3.95
 20
13.5389320892
 30
0.0
 11
7.8668384925
 21
13.5389320892
 31
0.0
  0
LINE
  5
B8
330
1F
100
AcDbEntity
  8
1
  6
SLD-Solid
370
    25
100
AcDbLine
 10
3.7
 20
12.9
 30
0.0
 11
3.2
 21
13.4
 31
0.0
  0
LINE
  5
B9
330
1F
100
AcDbEntity
  8
1
  6
SLD-Solid
370
    25
100
AcDbLine
 10
3.2
 20
13.4
 30
0.0
 11
3.2
 21
47.975
 31
0.0
  0
LINE
  5
BA
330
1F
100
AcDbEntity
  8
1
  6
SLD-Solid
370
    25
100
AcDbLine
 10
7.8668384925
 20
48.725
 30
0.0
 11
7.8668384925
 21
13.5389320892
 31
0.0
  0
LINE
  5
BB
330
1F
100
AcDbEntity
  8
1
  6
SLD-Solid
370
    25
100
AcDbLine
 10
7.8668384925
 20
-13.5389320892
 30
0.0
 11
3.95
 21
-13.5389320892
 31
0.0
  0
LINE
  5
BC
330
1F
100
AcDbEntity
  8
1
  6
SLD-Solid
370
    25
100
AcDbLine
 10
3.95
 20
-12.9
 30
0.0
 11
8.234341192
 21
-12.9
 31
0.0
  0
LINE
  5
BD
330
1F
100
AcDbEntity
  8
1
  6
SLD-Solid
370
    25
100
AcDbLine
 10
3.2
 20
-29.85
 30
0.0
 11
3.2
 21
-13.4
 31
0.0
  0
LINE
  5
BE
330
1F
100
AcDbEntity
  8
1
  6
SLD-Solid
370
    25
100
AcDbLine
 10
7.8668384925
 20
-29.85
 30
0.0
 11
3.95
 21
-29.85
 31
0.0
  0
LINE
  5
BF
330
1F
100
AcDbEntity
  8
1
  6
SLD-Solid
370
    25
100
AcDbLine
 10
7.8668384925
 20
-13.5389320892
 30
0.0
 11
7.8668384925
 21
-29.85
 31
0.0
  0
LINE
  5
C0
330
1F
100
AcDbEntity
  8
1
  6
SLD-Solid
370
    25
100
AcDbLine
 10
3.2
 20
-13.4
 30
0.0
 11
3.7
 21
-12.9
 31
0.0
  0
LINE
  5
C1
330
1F
100
AcDbEntity
  8
1
  6
SLD-Solid
370
    25
100
AcDbLine
 10
9.185
 20
46.4418772965
 30
0.0
 11
9.185
 21
43.8049912542
 31
0.0
  0
LINE
  5
C2
330
1F
100
AcDbEntity
  8
1
  6
SLD-Solid
370
    25
100
AcDbLine
 10
9.185
 20
43.4724041418
 30
0.0
 11
9.185
 21
40.0566935266
 31
0.0
  0
LINE
  5
C3
330
1F
100
AcDbEntity
  8
1
  6
SLD-Solid
370
    25
100
AcDbLine
 10
9.185
 20
39.5558603756
 30
0.0
 11
9.185
 21
12.9
 31
0.0
  0
LINE
  5
C4
330
1F
100
AcDbEntity
  8
1
  6
SLD-Solid
370
    25
100
AcDbLine
 10
9.185
 20
-12.9
 30
0.0
 11
9.185
 21
-29.85
 31
0.0
  0
LINE
  5
C5
330
1F
100
AcDbEntity
  8
1
  6
SLD-Solid
370
    25
100
AcDbLine
 10
12.265
 20
12.9
 30
0.0
 11
9.935
 21
12.9
 31
0.0
  0
LINE
  5
C6
330
1F
100
AcDbEntity
  8
1
  6
SLD-Solid
370
    25
100
AcDbLine
 10
12.265
 20
-29.85
 30
0.0
 11
9.935
 21
-29.85
 31
0.0
  0
LINE
  5
C7
330
1F
100
AcDbEntity
  8
1
  6
SLD-Solid
370
    25
100
AcDbLine
 10
9.935
 20
-12.9
 30
0.0
 11
12.265
 21
-12.9
 31
0.0
  0
LINE
  5
C8
330
1F
100
AcDbEntity
  8
1
  6
SLD-Solid
370
    25
100
AcDbLine
 10
19.05
 20
-12.4
 30
0.0
 11
19.05
 21
-13.2405659413
 31
0.0
  0
LINE
  5
C9
330
1F
100
AcDbEntity
  8
1
  6
SLD-Solid
370
    25
100
AcDbLine
 10
19.05
 20
13.2406523358
 30
0.0
 11
19.05
 21
12.4
 31
0.0
  0
LINE
  5
CA
330
1F
100
AcDbEntity
  8
1
  6
SLD-Solid
370
    25
100
AcDbLine
 10
3.2
 20
-13.4
 30
0.0
 11
3.2
 21
-12.4
 31
0.0
  0
LINE
  5
CB
330
1F
100
AcDbEntity
  8
1
  6
SLD-Solid
370
    25
100
AcDbLine
 10
3.2
 20
12.4
 30
0.0
 11
3.2
 21
13.4
 31
0.0
  0
LINE
  5
CC
330
1F
100
AcDbEntity
  8
1
  6
SLD-Solid
370
    25
100
AcDbLine
 10
19.05
 20
12.4
 30
0.0
 11
19.05
 21
-12.4
 31
0.0
  0
LINE
  5
CD
330
1F
100
AcDbEntity
  8
1
  6
SLD-Solid
370
    25
100
AcDbLine
 10
3.2
 20
-12.4
 30
0.0
 11
3.2
 21
12.4
 31
0.0
  0
LINE
  5
CE
330
1F
100
AcDbEntity
  8
1
  6
SLD-Solid
370
    25
100
AcDbLine
 10
1.7476022729
 20
34.925
 30
0.0
 11
1.7476022729
 21
-34.925
 31
0.0
  0
LINE
  5
CF
330
1F
100
AcDbEntity
  8
1
  6
SLD-Solid
370
    25
100
AcDbLine
 10
0.0
 20
34.925
 30
0.0
 11
0.0
 21
-34.925
 31
0.0
  0
LINE
  5
D0
330
1F
100
AcDbEntity
  8
1
  6
SLD-Solid
370
    25
100
AcDbLine
 10
3.2
 20
-30.35
 30
0.0
 11
3.2
 21
-29.85
 31
0.0
  0
LINE
  5
D1
330
1F
100
AcDbEntity
  8
1
  6
SLD-Solid
370
    25
100
AcDbLine
 10
19.05
 20
-29.85
 30
0.0
 11
19.05
 21
-30.35
 31
0.0
  0
LINE
  5
D2
330
1F
100
AcDbEntity
  8
1
  6
SLD-Solid
370
    25
100
AcDbLine
 10
18.3
 20
-38.5110779517
 30
0.0
 11
14.3331615075
 21
-38.5110779517
 31
0.0
  0
LINE
  5
D3
330
1F
100
AcDbEntity
  8
1
  6
SLD-Solid
370
    25
100
AcDbLine
 10
7.8668384925
 20
-38.5110779517
 30
0.0
 11
3.95
 21
-38.5110779517
 31
0.0
  0
LINE
  5
D4
330
1F
100
AcDbEntity
  8
1
  6
SLD-Solid
370
    25
100
AcDbLine
 10
19.05
 20
-37.5576639982
 30
0.0
 11
19.05
 21
-47.975
 31
0.0
  0
LINE
  5
D5
330
1F
100
AcDbEntity
  8
1
  6
SLD-Solid
370
    25
100
AcDbLine
 10
3.2
 20
-47.975
 30
0.0
 11
3.2
 21
-37.5576639982
 31
0.0
  0
LINE
  5
D6
330
1F
100
AcDbEntity
  8
1
  6
SLD-Solid
370
    25
100
AcDbLine
 10
12.265
 20
-34.3398820615
 30
0.0
 11
9.935
 21
-34.3398820615
 31
0.0
  0
LINE
  5
D7
330
1F
100
AcDbEntity
  8
1
  6
SLD-Solid
370
    25
100
AcDbLine
 10
13.015
 20
-35.5784410398
 30
0.0
 11
13.015
 21
-46.4418772965
 31
0.0
  0
LINE
  5
D8
330
1F
100
AcDbEntity
  8
1
  6
SLD-Solid
370
    25
100
AcDbLine
 10
13.015
 20
-35.5784410398
 30
0.0
 11
13.015
 21
-35.3276095993
 31
0.0
  0
LINE
  5
D9
330
1F
100
AcDbEntity
  8
1
  6
SLD-Solid
370
    25
100
AcDbLine
 10
9.185
 20
-35.3276095993
 30
0.0
 11
9.185
 21
-35.5784410398
 31
0.0
  0
LINE
  5
DA
330
1F
100
AcDbEntity
  8
1
  6
SLD-Solid
370
    25
100
AcDbLine
 10
3.2
 20
-30.35
 30
0.0
 11
3.2
 21
-37.5576639982
 31
0.0
  0
LINE
  5
DB
330
1F
100
AcDbEntity
  8
1
  6
SLD-Solid
370
    25
100
AcDbLine
 10
19.05
 20
-30.35
 30
0.0
 11
19.05
 21
-37.5576639982
 31
0.0
  0
LINE
  5
DC
330
1F
100
AcDbEntity
  8
1
  6
SLD-Solid
370
    25
100
AcDbLine
 10
9.185
 20
-35.5784410398
 30
0.0
 11
9.185
 21
-46.4418772965
 31
0.0
  0
LINE
  5
DD
330
1F
100
AcDbEntity
  8
1
  6
SLD-Solid
370
    25
100
AcDbLine
 10
9.185
 20
40.0566935266
 30
0.0
 11
9.185
 21
39.8922135308
 31
0.0
  0
LINE
  5
DE
330
1F
100
AcDbEntity
  8
1
  6
SLD-Solid
370
    25
100
AcDbLine
 10
13.015
 20
39.9769295946
 30
0.0
 11
13.015
 21
40.1414169238
 31
0.0
  0
LINE
  5
DF
330
1F
100
AcDbEntity
  8
1
  6
SLD-Solid
370
    25
100
AcDbLine
 10
50.0
 20
24.0
 30
0.0
 11
50.0
 21
-24.0
 31
0.0
  0
LINE
  5
E0
330
1F
100
AcDbEntity
  8
1
  6
SLD-Solid
370
    25
100
AcDbLine
 10
63.0
 20
16.4944465005
 30
0.0
 11
63.0
 21
-16.4944465005
 31
0.0
  0
LINE
  5
E1
330
1F
100
AcDbEntity
  8
SK1
  6
SLD-Solid
370
    25
100
AcDbLine
 10
-101.6
 20
-18.1625211762
 30
0.0
 11
-101.6
 21
18.1625211762
 31
0.0
  0
LINE
  5
E2
330
1F
100
AcDbEntity
  8
1
  6
SLD-Solid
370
    25
100
AcDbLine
 10
9.185
 20
43.8049912542
 30
0.0
 11
9.185
 21
43.6246756516
 31
0.0
  0
LINE
  5
E3
330
1F
100
AcDbEntity
  8
1
  6
SLD-Solid
370
    25
100
AcDbLine
 10
13.015
 20
43.6801658081
 30
0.0
 11
13.015
 21
43.8604894502
 31
0.0
  0
LINE
  5
E4
330
1F
100
AcDbEntity
  8
1
  6
SLD-Dashed
370
    18
100
AcDbLine
 10
7.8668384925
 20
13.4217013707
 30
0.0
 11
7.8668384925
 21
13.5389320892
 31
0.0
  0
LINE
  5
E5
330
1F
100
AcDbEntity
  8
SK3
  6
SLD-Dashed
370
    18
100
AcDbLine
 10
11.125
 20
39.5450286193
 30
0.0
 11
10.5854064577
 21
39.5196625499
 31
0.0
  0
LINE
  5
E6
330
1F
100
AcDbEntity
  8
SK3
  6
SLD-Dashed
370
    18
100
AcDbLine
 10
10.5854064577
 20
39.5196625499
 30
0.0
 11
10.0858320999
 21
39.445445627
 31
0.0
  0
LINE
  5
E7
330
1F
100
AcDbEntity
  8
SK3
  6
SLD-Dashed
370
    18
100
AcDbLine
 10
10.0858320999
 20
39.445445627
 30
0.0
 11
9.6633280714
 21
39.3278821803
 31
0.0
  0
LINE
  5
E8
330
1F
100
AcDbEntity
  8
SK3
  6
SLD-Dashed
370
    18
100
AcDbLine
 10
9.6633280714
 20
39.3278821803
 30
0.0
 11
9.3492295632
 21
39.1756913529
 31
0.0
  0
LINE
  5
E9
330
1F
100
AcDbEntity
  8
SK3
  6
SLD-Dashed
370
    18
100
AcDbLine
 10
9.3492295632
 20
39.1756913529
 30
0.0
 11
9.1668318246
 21
39.0001604421
 31
0.0
  0
LINE
  5
EA
330
1F
100
AcDbEntity
  8
SK3
  6
SLD-Dashed
370
    18
100
AcDbLine
 10
9.1668318246
 20
39.0001604421
 30
0.0
 11
9.1296624616
 21
38.8143077726
 31
0.0
  0
LINE
  5
EB
330
1F
100
AcDbEntity
  8
SK3
  6
SLD-Dashed
370
    18
100
AcDbLine
 10
9.1296624616
 20
38.8143077726
 30
0.0
 11
9.2404781558
 21
38.6319171867
 31
0.0
  0
LINE
  5
EC
330
1F
100
AcDbEntity
  8
SK3
  6
SLD-Dashed
370
    18
100
AcDbLine
 10
9.2404781558
 20
38.6319171867
 30
0.0
 11
9.491060214
 21
38.4665157598
 31
0.0
  0
LINE
  5
ED
330
1F
100
AcDbEntity
  8
SK3
  6
SLD-Dashed
370
    18
100
AcDbLine
 10
9.491060214
 20
38.4665157598
 30
0.0
 11
9.8628241113
 21
38.3303705589
 31
0.0
  0
LINE
  5
EE
330
1F
100
AcDbEntity
  8
SK3
  6
SLD-Dashed
370
    18
100
AcDbLine
 10
9.8628241113
 20
38.3303705589
 30
0.0
 11
10.3281978203
 21
38.233578851
 31
0.0
  0
LINE
  5
EF
330
1F
100
AcDbEntity
  8
SK3
  6
SLD-Dashed
370
    18
100
AcDbLine
 10
10.3281978203
 20
38.233578851
 30
0.0
 11
10.8526667018
 21
38.1833192341
 31
0.0
  0
LINE
  5
F0
330
1F
100
AcDbEntity
  8
SK3
  6
SLD-Dashed
370
    18
100
AcDbLine
 10
10.8526667018
 20
38.1833192341
 30
0.0
 11
11.3973332982
 21
38.1833192341
 31
0.0
  0
LINE
  5
F1
330
1F
100
AcDbEntity
  8
SK3
  6
SLD-Dashed
370
    18
100
AcDbLine
 10
11.3973332982
 20
38.1833192341
 30
0.0
 11
11.9218021797
 21
38.233578851
 31
0.0
  0
LINE
  5
F2
330
1F
100
AcDbEntity
  8
SK3
  6
SLD-Dashed
370
    18
100
AcDbLine
 10
11.9218021797
 20
38.233578851
 30
0.0
 11
12.3871758887
 21
38.3303705589
 31
0.0
  0
LINE
  5
F3
330
1F
100
AcDbEntity
  8
SK3
  6
SLD-Dashed
370
    18
100
AcDbLine
 10
12.3871758887
 20
38.3303705589
 30
0.0
 11
12.758939786
 21
38.4665157598
 31
0.0
  0
LINE
  5
F4
330
1F
100
AcDbEntity
  8
SK3
  6
SLD-Dashed
370
    18
100
AcDbLine
 10
12.758939786
 20
38.4665157598
 30
0.0
 11
13.0095218442
 21
38.6319171867
 31
0.0
  0
LINE
  5
F5
330
1F
100
AcDbEntity
  8
SK3
  6
SLD-Dashed
370
    18
100
AcDbLine
 10
13.0095218442
 20
38.6319171867
 30
0.0
 11
13.1203375384
 21
38.8143077726
 31
0.0
  0
LINE
  5
F6
330
1F
100
AcDbEntity
  8
SK3
  6
SLD-Dashed
370
    18
100
AcDbLine
 10
13.1203375384
 20
38.8143077726
 30
0.0
 11
13.0831681754
 21
39.0001604421
 31
0.0
  0
LINE
  5
F7
330
1F
100
AcDbEntity
  8
SK3
  6
SLD-Dashed
370
    18
100
AcDbLine
 10
13.0831681754
 20
39.0001604421
 30
0.0
 11
12.9007704368
 21
39.1756913529
 31
0.0
  0
LINE
  5
F8
330
1F
100
AcDbEntity
  8
SK3
  6
SLD-Dashed
370
    18
100
AcDbLine
 10
12.9007704368
 20
39.1756913529
 30
0.0
 11
12.5866719286
 21
39.3278821803
 31
0.0
  0
LINE
  5
F9
330
1F
100
AcDbEntity
  8
SK3
  6
SLD-Dashed
370
    18
100
AcDbLine
 10
12.5866719286
 20
39.3278821803
 30
0.0
 11
12.1641679001
 21
39.445445627
 31
0.0
  0
LINE
  5
FA
330
1F
100
AcDbEntity
  8
SK3
  6
SLD-Dashed
370
    18
100
AcDbLine
 10
12.1641679001
 20
39.445445627
 30
0.0
 11
11.6645935423
 21
39.5196625499
 31
0.0
  0
LINE
  5
FB
330
1F
100
AcDbEntity
  8
SK3
  6
SLD-Dashed
370
    18
100
AcDbLine
 10
11.6645935423
 20
39.5196625499
 30
0.0
 11
11.125
 21
39.5450286193
 31
0.0
  0
LINE
  5
FC
330
1F
100
AcDbEntity
  8
SK3
  6
SLD-Dashed
370
    18
100
AcDbLine
 10
3.3949403416
 20
36.0985003391
 30
0.0
 11
3.5452649265
 21
36.0818631052
 31
0.0
  0
LINE
  5
FD
330
1F
100
AcDbEntity
  8
SK3
  6
SLD-Dashed
370
    18
100
AcDbLine
 10
3.5452649265
 20
36.0818631052
 30
0.0
 11
3.7762758744
 21
36.1879940988
 31
0.0
  0
LINE
  5
FE
330
1F
100
AcDbEntity
  8
SK3
  6
SLD-Dashed
370
    18
100
AcDbLine
 10
3.7762758744
 20
36.1879940988
 30
0.0
 11
4.0745476687
 21
36.4107253723
 31
0.0
  0
LINE
  5
FF
330
1F
100
AcDbEntity
  8
SK3
  6
SLD-Dashed
370
    18
100
AcDbLine
 10
4.0745476687
 20
36.4107253723
 30
0.0
 11
4.4227458368
 21
36.7371125938
 31
0.0
  0
LINE
  5
100
330
1F
100
AcDbEntity
  8
SK3
  6
SLD-Dashed
370
    18
100
AcDbLine
 10
4.4227458368
 20
36.7371125938
 30
0.0
 11
4.800634367
 21
37.1481873243
 31
0.0
  0
LINE
  5
101
330
1F
100
AcDbEntity
  8
SK3
  6
SLD-Dashed
370
    18
100
AcDbLine
 10
4.800634367
 20
37.1481873243
 30
0.0
 11
5.1862517514
 21
37.6200593946
 31
0.0
  0
LINE
  5
102
330
1F
100
AcDbEntity
  8
SK3
  6
SLD-Dashed
370
    18
100
AcDbLine
 10
5.1862517514
 20
37.6200593946
 30
0.0
 11
5.5571873092
 21
38.1253053153
 31
0.0
  0
LINE
  5
103
330
1F
100
AcDbEntity
  8
SK3
  6
SLD-Dashed
370
    18
100
AcDbLine
 10
5.5571873092
 20
38.1253053153
 30
0.0
 11
5.8918836142
 21
38.6345620299
 31
0.0
  0
LINE
  5
104
330
1F
100
AcDbEntity
  8
SK3
  6
SLD-Dashed
370
    18
100
AcDbLine
 10
5.8918836142
 20
38.6345620299
 30
0.0
 11
6.1708893336
 21
39.1182333891
 31
0.0
  0
LINE
  5
105
330
1F
100
AcDbEntity
  8
SK3
  6
SLD-Dashed
370
    18
100
AcDbLine
 10
6.1708893336
 20
39.1182333891
 30
0.0
 11
6.3779896693
 21
39.5482101718
 31
0.0
  0
LINE
  5
106
330
1F
100
AcDbEntity
  8
SK3
  6
SLD-Dashed
370
    18
100
AcDbLine
 10
6.3779896693
 20
39.5482101718
 30
0.0
 11
6.5011487024
 21
39.8995036901
 31
0.0
  0
LINE
  5
107
330
1F
100
AcDbEntity
  8
SK3
  6
SLD-Dashed
370
    18
100
AcDbLine
 10
6.5011487024
 20
39.8995036901
 30
0.0
 11
6.5332088777
 21
40.1516980418
 31
0.0
  0
LINE
  5
108
330
1F
100
AcDbEntity
  8
SK3
  6
SLD-Dashed
370
    18
100
AcDbLine
 10
6.5332088777
 20
40.1516980418
 30
0.0
 11
6.4723069743
 21
40.2901366077
 31
0.0
  0
LINE
  5
109
330
1F
100
AcDbEntity
  8
SK3
  6
SLD-Dashed
370
    18
100
AcDbLine
 10
6.4723069743
 20
40.2901366077
 30
0.0
 11
6.3219823894
 21
40.3067738417
 31
0.0
  0
LINE
  5
10A
330
1F
100
AcDbEntity
  8
SK3
  6
SLD-Dashed
370
    18
100
AcDbLine
 10
6.3219823894
 20
40.3067738417
 30
0.0
 11
6.0909714415
 21
40.2006428481
 31
0.0
  0
LINE
  5
10B
330
1F
100
AcDbEntity
  8
SK3
  6
SLD-Dashed
370
    18
100
AcDbLine
 10
6.0909714415
 20
40.2006428481
 30
0.0
 11
5.7926996472
 21
39.9779115745
 31
0.0
  0
LINE
  5
10C
330
1F
100
AcDbEntity
  8
SK3
  6
SLD-Dashed
370
    18
100
AcDbLine
 10
5.7926996472
 20
39.9779115745
 30
0.0
 11
5.444501479
 21
39.651524353
 31
0.0
  0
LINE
  5
10D
330
1F
100
AcDbEntity
  8
SK3
  6
SLD-Dashed
370
    18
100
AcDbLine
 10
5.444501479
 20
39.651524353
 30
0.0
 11
5.0666129489
 21
39.2404496226
 31
0.0
  0
LINE
  5
10E
330
1F
100
AcDbEntity
  8
SK3
  6
SLD-Dashed
370
    18
100
AcDbLine
 10
5.0666129489
 20
39.2404496226
 30
0.0
 11
4.6809955645
 21
38.7685775522
 31
0.0
  0
LINE
  5
10F
330
1F
100
AcDbEntity
  8
SK3
  6
SLD-Dashed
370
    18
100
AcDbLine
 10
4.6809955645
 20
38.7685775522
 30
0.0
 11
4.3100600067
 21
38.2633316316
 31
0.0
  0
LINE
  5
110
330
1F
100
AcDbEntity
  8
SK3
  6
SLD-Dashed
370
    18
100
AcDbLine
 10
4.3100600067
 20
38.2633316316
 30
0.0
 11
3.9753637017
 21
37.754074917
 31
0.0
  0
LINE
  5
111
330
1F
100
AcDbEntity
  8
SK3
  6
SLD-Dashed
370
    18
100
AcDbLine
 10
3.9753637017
 20
37.754074917
 30
0.0
 11
3.6963579823
 21
37.2704035577
 31
0.0
  0
LINE
  5
112
330
1F
100
AcDbEntity
  8
SK3
  6
SLD-Dashed
370
    18
100
AcDbLine
 10
3.6963579823
 20
37.2704035577
 30
0.0
 11
3.4892576466
 21
36.8404267751
 31
0.0
  0
LINE
  5
113
330
1F
100
AcDbEntity
  8
SK3
  6
SLD-Dashed
370
    18
100
AcDbLine
 10
3.4892576466
 20
36.8404267751
 30
0.0
 11
3.3660986135
 21
36.4891332567
 31
0.0
  0
LINE
  5
114
330
1F
100
AcDbEntity
  8
SK3
  6
SLD-Dashed
370
    18
100
AcDbLine
 10
3.3660986135
 20
36.4891332567
 30
0.0
 11
3.3340384382
 21
36.236938905
 31
0.0
  0
LINE
  5
115
330
1F
100
AcDbEntity
  8
SK3
  6
SLD-Dashed
370
    18
100
AcDbLine
 10
3.3340384382
 20
36.236938905
 30
0.0
 11
3.3949403416
 21
36.0985003391
 31
0.0
  0
LINE
  5
116
330
1F
100
AcDbEntity
  8
SK3
  6
SLD-Dashed
370
    18
100
AcDbLine
 10
3.4837105329
 20
36.2194129238
 30
0.0
 11
3.6326806925
 21
36.2055316452
 31
0.0
  0
LINE
  5
117
330
1F
100
AcDbEntity
  8
SK3
  6
SLD-Dashed
370
    18
100
AcDbLine
 10
3.6326806925
 20
36.2055316452
 30
0.0
 11
3.863393883
 21
36.3166131572
 31
0.0
  0
LINE
  5
118
330
1F
100
AcDbEntity
  8
SK3
  6
SLD-Dashed
370
    18
100
AcDbLine
 10
3.863393883
 20
36.3166131572
 30
0.0
 11
4.1613535464
 21
36.5456778
 31
0.0
  0
LINE
  5
119
330
1F
100
AcDbEntity
  8
SK3
  6
SLD-Dashed
370
    18
100
AcDbLine
 10
4.1613535464
 20
36.5456778
 30
0.0
 11
4.507837781
 21
36.8783325996
 31
0.0
  0
LINE
  5
11A
330
1F
100
AcDbEntity
  8
SK3
  6
SLD-Dashed
370
    18
100
AcDbLine
 10
4.507837781
 20
36.8783325996
 30
0.0
 11
4.8810757083
 21
37.2936756314
 31
0.0
  0
LINE
  5
11B
330
1F
100
AcDbEntity
  8
SK3
  6
SLD-Dashed
370
    18
100
AcDbLine
 10
4.8810757083
 20
37.2936756314
 30
0.0
 11
5.2576154165
 21
37.7656093654
 31
0.0
  0
LINE
  5
11C
330
1F
100
AcDbEntity
  8
SK3
  6
SLD-Dashed
370
    18
100
AcDbLine
 10
5.2576154165
 20
37.7656093654
 30
0.0
 11
5.6137975309
 21
38.2644804693
 31
0.0
  0
LINE
  5
11D
330
1F
100
AcDbEntity
  8
SK3
  6
SLD-Dashed
370
    18
100
AcDbLine
 10
5.6137975309
 20
38.2644804693
 30
0.0
 11
5.9272418194
 21
38.758943037
 31
0.0
  0
LINE
  5
11E
330
1F
100
AcDbEntity
  8
SK3
  6
SLD-Dashed
370
    18
100
AcDbLine
 10
5.9272418194
 20
38.758943037
 30
0.0
 11
6.1782534245
 21
39.2179281668
 31
0.0
  0
LINE
  5
11F
330
1F
100
AcDbEntity
  8
SK3
  6
SLD-Dashed
370
    18
100
AcDbLine
 10
6.1782534245
 20
39.2179281668
 30
0.0
 11
6.351060364
 21
39.612596135
 31
0.0
  0
LINE
  5
120
330
1F
100
AcDbEntity
  8
SK3
  6
SLD-Dashed
370
    18
100
AcDbLine
 10
6.351060364
 20
39.612596135
 30
0.0
 11
6.4348045423
 21
39.9181485016
 31
0.0
  0
LINE
  5
121
330
1F
100
AcDbEntity
  8
SK3
  6
SLD-Dashed
370
    18
100
AcDbLine
 10
6.4348045423
 20
39.9181485016
 30
0.0
 11
6.4242240046
 21
40.1153862878
 31
0.0
  0
LINE
  5
122
330
1F
100
AcDbEntity
  8
SK3
  6
SLD-Dashed
370
    18
100
AcDbLine
 10
6.4242240046
 20
40.1153862878
 30
0.0
 11
6.3199835651
 21
40.191916318
 31
0.0
  0
LINE
  5
123
330
1F
100
AcDbEntity
  8
SK3
  6
SLD-Dashed
370
    18
100
AcDbLine
 10
6.3199835651
 20
40.191916318
 30
0.0
 11
6.128633034
 21
40.142929929
 31
0.0
  0
LINE
  5
124
330
1F
100
AcDbEntity
  8
SK3
  6
SLD-Dashed
370
    18
100
AcDbLine
 10
6.128633034
 20
40.142929929
 30
0.0
 11
5.8621956688
 21
39.9715051157
 31
0.0
  0
LINE
  5
125
330
1F
100
AcDbEntity
  8
SK3
  6
SLD-Dashed
370
    18
100
AcDbLine
 10
5.8621956688
 20
39.9715051157
 30
0.0
 11
5.5374127092
 21
39.6884131297
 31
0.0
  0
LINE
  5
126
330
1F
100
AcDbEntity
  8
SK3
  6
SLD-Dashed
370
    18
100
AcDbLine
 10
5.5374127092
 20
39.6884131297
 30
0.0
 11
5.1746914628
 21
39.3114416815
 31
0.0
  0
LINE
  5
127
330
1F
100
AcDbEntity
  8
SK3
  6
SLD-Dashed
370
    18
100
AcDbLine
 10
5.1746914628
 20
39.3114416815
 30
0.0
 11
4.7968230397
 21
38.8642772737
 31
0.0
  0
LINE
  5
128
330
1F
100
AcDbEntity
  8
SK3
  6
SLD-Dashed
370
    18
100
AcDbLine
 10
4.7968230397
 20
38.8642772737
 30
0.0
 11
4.4275503026
 21
38.3750168905
 31
0.0
  0
LINE
  5
129
330
1F
100
AcDbEntity
  8
SK3
  6
SLD-Dashed
370
    18
100
AcDbLine
 10
4.4275503026
 20
38.3750168905
 30
0.0
 11
4.0900760156
 21
37.8744025612
 31
0.0
  0
LINE
  5
12A
330
1F
100
AcDbEntity
  8
SK3
  6
SLD-Dashed
370
    18
100
AcDbLine
 10
4.0900760156
 20
37.8744025612
 30
0.0
 11
3.8056049293
 21
37.3938897252
 31
0.0
  0
LINE
  5
12B
330
1F
100
AcDbEntity
  8
SK3
  6
SLD-Dashed
370
    18
100
AcDbLine
 10
3.8056049293
 20
37.3938897252
 30
0.0
 11
3.5920114083
 21
36.9636707712
 31
0.0
  0
LINE
  5
12C
330
1F
100
AcDbEntity
  8
SK3
  6
SLD-Dashed
370
    18
100
AcDbLine
 10
3.5920114083
 20
36.9636707712
 30
0.0
 11
3.462716319
 21
36.6107779384
 31
0.0
  0
LINE
  5
12D
330
1F
100
AcDbEntity
  8
SK3
  6
SLD-Dashed
370
    18
100
AcDbLine
 10
3.462716319
 20
36.6107779384
 30
0.0
 11
3.4258437475
 21
36.3573847813
 31
0.0
  0
LINE
  5
12E
330
1F
100
AcDbEntity
  8
SK3
  6
SLD-Dashed
370
    18
100
AcDbLine
 10
3.4258437475
 20
36.3573847813
 30
0.0
 11
3.4837105329
 21
36.2194129238
 31
0.0
  0
LINE
  5
12F
330
1F
100
AcDbEntity
  8
SK3
  6
SLD-Dashed
370
    18
100
AcDbLine
 10
14.2794578574
 20
28.2935170536
 30
0.0
 11
14.4284280169
 21
28.279635775
 31
0.0
  0
LINE
  5
130
330
1F
100
AcDbEntity
  8
SK3
  6
SLD-Dashed
370
    18
100
AcDbLine
 10
14.4284280169
 20
28.279635775
 30
0.0
 11
14.6591412074
 21
28.3907172871
 31
0.0
  0
LINE
  5
131
330
1F
100
AcDbEntity
  8
SK3
  6
SLD-Dashed
370
    18
100
AcDbLine
 10
14.6591412074
 20
28.3907172871
 30
0.0
 11
14.9571008708
 21
28.6197819299
 31
0.0
  0
LINE
  5
132
330
1F
100
AcDbEntity
  8
SK3
  6
SLD-Dashed
370
    18
100
AcDbLine
 10
14.9571008708
 20
28.6197819299
 30
0.0
 11
15.3035851055
 21
28.9524367294
 31
0.0
  0
LINE
  5
133
330
1F
100
AcDbEntity
  8
SK3
  6
SLD-Dashed
370
    18
100
AcDbLine
 10
15.3035851055
 20
28.9524367294
 30
0.0
 11
15.6768230327
 21
29.3677797613
 31
0.0
  0
LINE
  5
134
330
1F
100
AcDbEntity
  8
SK3
  6
SLD-Dashed
370
    18
100
AcDbLine
 10
15.6768230327
 20
29.3677797613
 30
0.0
 11
16.0533627409
 21
29.8397134953
 31
0.0
  0
LINE
  5
135
330
1F
100
AcDbEntity
  8
SK3
  6
SLD-Dashed
370
    18
100
AcDbLine
 10
16.0533627409
 20
29.8397134953
 30
0.0
 11
16.4095448553
 21
30.3385845992
 31
0.0
  0
LINE
  5
136
330
1F
100
AcDbEntity
  8
SK3
  6
SLD-Dashed
370
    18
100
AcDbLine
 10
16.4095448553
 20
30.3385845992
 30
0.0
 11
16.7229891438
 21
30.8330471669
 31
0.0
  0
LINE
  5
137
330
1F
100
AcDbEntity
  8
SK3
  6
SLD-Dashed
370
    18
100
AcDbLine
 10
16.7229891438
 20
30.8330471669
 30
0.0
 11
16.974000749
 21
31.2920322967
 31
0.0
  0
LINE
  5
138
330
1F
100
AcDbEntity
  8
SK3
  6
SLD-Dashed
370
    18
100
AcDbLine
 10
16.974000749
 20
31.2920322967
 30
0.0
 11
17.1468076884
 21
31.6867002649
 31
0.0
  0
LINE
  5
139
330
1F
100
AcDbEntity
  8
SK3
  6
SLD-Dashed
370
    18
100
AcDbLine
 10
17.1468076884
 20
31.6867002649
 30
0.0
 11
17.2305518667
 21
31.9922526315
 31
0.0
  0
LINE
  5
13A
330
1F
100
AcDbEntity
  8
SK3
  6
SLD-Dashed
370
    18
100
AcDbLine
 10
17.2305518667
 20
31.9922526315
 30
0.0
 11
17.219971329
 21
32.1894904177
 31
0.0
  0
LINE
  5
13B
330
1F
100
AcDbEntity
  8
SK3
  6
SLD-Dashed
370
    18
100
AcDbLine
 10
17.219971329
 20
32.1894904177
 30
0.0
 11
17.1157308895
 21
32.2660204479
 31
0.0
  0
LINE
  5
13C
330
1F
100
AcDbEntity
  8
SK3
  6
SLD-Dashed
370
    18
100
AcDbLine
 10
17.1157308895
 20
32.2660204479
 30
0.0
 11
16.9243803584
 21
32.2170340589
 31
0.0
  0
LINE
  5
13D
330
1F
100
AcDbEntity
  8
SK3
  6
SLD-Dashed
370
    18
100
AcDbLine
 10
16.9243803584
 20
32.2170340589
 30
0.0
 11
16.6579429932
 21
32.0456092456
 31
0.0
  0
LINE
  5
13E
330
1F
100
AcDbEntity
  8
SK3
  6
SLD-Dashed
370
    18
100
AcDbLine
 10
16.6579429932
 20
32.0456092456
 30
0.0
 11
16.3331600336
 21
31.7625172596
 31
0.0
  0
LINE
  5
13F
330
1F
100
AcDbEntity
  8
SK3
  6
SLD-Dashed
370
    18
100
AcDbLine
 10
16.3331600336
 20
31.7625172596
 30
0.0
 11
15.9704387873
 21
31.3855458114
 31
0.0
  0
LINE
  5
140
330
1F
100
AcDbEntity
  8
SK3
  6
SLD-Dashed
370
    18
100
AcDbLine
 10
15.9704387873
 20
31.3855458114
 30
0.0
 11
15.5925703642
 21
30.9383814035
 31
0.0
  0
LINE
  5
141
330
1F
100
AcDbEntity
  8
SK3
  6
SLD-Dashed
370
    18
100
AcDbLine
 10
15.5925703642
 20
30.9383814035
 30
0.0
 11
15.223297627
 21
30.4491210203
 31
0.0
  0
LINE
  5
142
330
1F
100
AcDbEntity
  8
SK3
  6
SLD-Dashed
370
    18
100
AcDbLine
 10
15.223297627
 20
30.4491210203
 30
0.0
 11
14.88582334
 21
29.948506691
 31
0.0
  0
LINE
  5
143
330
1F
100
AcDbEntity
  8
SK3
  6
SLD-Dashed
370
    18
100
AcDbLine
 10
14.88582334
 20
29.948506691
 30
0.0
 11
14.6013522537
 21
29.467993855
 31
0.0
  0
LINE
  5
144
330
1F
100
AcDbEntity
  8
SK3
  6
SLD-Dashed
370
    18
100
AcDbLine
 10
14.6013522537
 20
29.467993855
 30
0.0
 11
14.3877587327
 21
29.0377749011
 31
0.0
  0
LINE
  5
145
330
1F
100
AcDbEntity
  8
SK3
  6
SLD-Dashed
370
    18
100
AcDbLine
 10
14.3877587327
 20
29.0377749011
 30
0.0
 11
14.2584636434
 21
28.6848820683
 31
0.0
  0
LINE
  5
146
330
1F
100
AcDbEntity
  8
SK3
  6
SLD-Dashed
370
    18
100
AcDbLine
 10
14.2584636434
 20
28.6848820683
 30
0.0
 11
14.2215910719
 21
28.4314889111
 31
0.0
  0
LINE
  5
147
330
1F
100
AcDbEntity
  8
SK3
  6
SLD-Dashed
370
    18
100
AcDbLine
 10
14.2215910719
 20
28.4314889111
 30
0.0
 11
14.2794578574
 21
28.2935170536
 31
0.0
  0
LINE
  5
148
330
1F
100
AcDbEntity
  8
SK3
  6
SLD-Dashed
370
    18
100
AcDbLine
 10
9.6289384425
 20
37.7795039477
 30
0.0
 11
9.5133859037
 21
37.8439845754
 31
0.0
  0
LINE
  5
149
330
1F
100
AcDbEntity
  8
SK3
  6
SLD-Dashed
370
    18
100
AcDbLine
 10
9.5133859037
 20
37.8439845754
 30
0.0
 11
9.4760251871
 21
37.8000915438
 31
0.0
  0
LINE
  5
14A
330
1F
100
AcDbEntity
  8
SK3
  6
SLD-Dashed
370
    18
100
AcDbLine
 10
9.4760251871
 20
37.8000915438
 30
0.0
 11
9.4933049732
 21
37.6698548208
 31
0.0
  0
LINE
  5
14B
330
1F
100
AcDbEntity
  8
SK3
  6
SLD-Dashed
370
    18
100
AcDbLine
 10
9.4933049732
 20
37.6698548208
 30
0.0
 11
9.5571185428
 21
37.4806402742
 31
0.0
  0
LINE
  5
14C
330
1F
100
AcDbEntity
  8
SK3
  6
SLD-Dashed
370
    18
100
AcDbLine
 10
9.5571185428
 20
37.4806402742
 30
0.0
 11
9.7359914129
 21
37.0857026854
 31
0.0
  0
LINE
  5
14D
330
1F
100
AcDbEntity
  8
SK3
  6
SLD-Dashed
370
    18
100
AcDbLine
 10
9.7359914129
 20
37.0857026854
 30
0.0
 11
10.1612287949
 21
36.3447649577
 31
0.0
  0
LINE
  5
14E
330
1F
100
AcDbEntity
  8
SK3
  6
SLD-Dashed
370
    18
100
AcDbLine
 10
10.1612287949
 20
36.3447649577
 30
0.0
 11
10.907255187
 21
35.424508833
 31
0.0
  0
LINE
  5
14F
330
1F
100
AcDbEntity
  8
SK3
  6
SLD-Dashed
370
    18
100
AcDbLine
 10
10.907255187
 20
35.424508833
 30
0.0
 11
11.3416645362
 21
35.1053767805
 31
0.0
  0
LINE
  5
150
330
1F
100
AcDbEntity
  8
SK3
  6
SLD-Dashed
370
    18
100
AcDbLine
 10
11.3416645362
 20
35.1053767805
 30
0.0
 11
11.8284084809
 21
34.9387618221
 31
0.0
  0
LINE
  5
151
330
1F
100
AcDbEntity
  8
SK3
  6
SLD-Dashed
370
    18
100
AcDbLine
 10
11.8284084809
 20
34.9387618221
 30
0.0
 11
12.2221344444
 21
34.946883445
 31
0.0
  0
LINE
  5
152
330
1F
100
AcDbEntity
  8
SK3
  6
SLD-Dashed
370
    18
100
AcDbLine
 10
12.2221344444
 20
34.946883445
 30
0.0
 11
12.5268110505
 21
35.0530288446
 31
0.0
  0
LINE
  5
153
330
1F
100
AcDbEntity
  8
SK3
  6
SLD-Dashed
370
    18
100
AcDbLine
 10
12.5268110505
 20
35.0530288446
 30
0.0
 11
12.7301006403
 21
35.2254441019
 31
0.0
  0
LINE
  5
154
330
1F
100
AcDbEntity
  8
SK3
  6
SLD-Dashed
370
    18
100
AcDbLine
 10
12.7301006403
 20
35.2254441019
 30
0.0
 11
12.7662641999
 21
35.4164236629
 31
0.0
  0
LINE
  5
155
330
1F
100
AcDbEntity
  8
SK3
  6
SLD-Dashed
370
    18
100
AcDbLine
 10
12.7662641999
 20
35.4164236629
 30
0.0
 11
12.6181133743
 21
35.5917983954
 31
0.0
  0
LINE
  5
156
330
1F
100
AcDbEntity
  8
SK3
  6
SLD-Dashed
370
    18
100
AcDbLine
 10
12.6181133743
 20
35.5917983954
 30
0.0
 11
12.3014819223
 21
35.7561099056
 31
0.0
  0
LINE
  5
157
330
1F
100
AcDbEntity
  8
SK3
  6
SLD-Dashed
370
    18
100
AcDbLine
 10
12.3014819223
 20
35.7561099056
 30
0.0
 11
11.8682412473
 21
35.9414562188
 31
0.0
  0
LINE
  5
158
330
1F
100
AcDbEntity
  8
SK3
  6
SLD-Dashed
370
    18
100
AcDbLine
 10
11.8682412473
 20
35.9414562188
 30
0.0
 11
11.4424985696
 21
36.1621175144
 31
0.0
  0
LINE
  5
159
330
1F
100
AcDbEntity
  8
SK3
  6
SLD-Dashed
370
    18
100
AcDbLine
 10
11.4424985696
 20
36.1621175144
 30
0.0
 11
11.125
 21
36.3728251375
 31
0.0
  0
LINE
  5
15A
330
1F
100
AcDbEntity
  8
SK3
  6
SLD-Dashed
370
    18
100
AcDbLine
 10
11.125
 20
39.2354354434
 30
0.0
 11
10.6386539622
 21
39.2103637011
 31
0.0
  0
LINE
  5
15B
330
1F
100
AcDbEntity
  8
SK3
  6
SLD-Dashed
370
    18
100
AcDbLine
 10
10.6386539622
 20
39.2103637011
 30
0.0
 11
10.1955219042
 21
39.1373762086
 31
0.0
  0
LINE
  5
15C
330
1F
100
AcDbEntity
  8
SK3
  6
SLD-Dashed
370
    18
100
AcDbLine
 10
10.1955219042
 20
39.1373762086
 30
0.0
 11
9.8349780539
 21
39.0229582248
 31
0.0
  0
LINE
  5
15D
330
1F
100
AcDbEntity
  8
SK3
  6
SLD-Dashed
370
    18
100
AcDbLine
 10
9.8349780539
 20
39.0229582248
 30
0.0
 11
9.5890583147
 21
38.8772762897
 31
0.0
  0
LINE
  5
15E
330
1F
100
AcDbEntity
  8
SK3
  6
SLD-Dashed
370
    18
100
AcDbLine
 10
9.5890583147
 20
38.8772762897
 30
0.0
 11
9.4796137347
 21
38.7132748825
 31
0.0
  0
LINE
  5
15F
330
1F
100
AcDbEntity
  8
SK3
  6
SLD-Dashed
370
    18
100
AcDbLine
 10
9.4796137347
 20
38.7132748825
 30
0.0
 11
9.5163689449
 21
38.5455262481
 31
0.0
  0
LINE
  5
160
330
1F
100
AcDbEntity
  8
SK3
  6
SLD-Dashed
370
    18
100
AcDbLine
 10
9.5163689449
 20
38.5455262481
 30
0.0
 11
9.6960580838
 21
38.3889355887
 31
0.0
  0
LINE
  5
161
330
1F
100
AcDbEntity
  8
SK3
  6
SLD-Dashed
370
    18
100
AcDbLine
 10
9.6960580838
 20
38.3889355887
 30
0.0
 11
10.0027149827
 21
38.2574166716
 31
0.0
  0
LINE
  5
162
330
1F
100
AcDbEntity
  8
SK3
  6
SLD-Dashed
370
    18
100
AcDbLine
 10
10.0027149827
 20
38.2574166716
 30
0.0
 11
10.4090918305
 21
38.1626555298
 31
0.0
  0
LINE
  5
163
330
1F
100
AcDbEntity
  8
SK3
  6
SLD-Dashed
370
    18
100
AcDbLine
 10
10.4090918305
 20
38.1626555298
 30
0.0
 11
10.8790802608
 21
38.1130721065
 31
0.0
  0
LINE
  5
164
330
1F
100
AcDbEntity
  8
SK3
  6
SLD-Dashed
370
    18
100
AcDbLine
 10
10.8790802608
 20
38.1130721065
 30
0.0
 11
11.3709197392
 21
38.1130721065
 31
0.0
  0
LINE
  5
165
330
1F
100
AcDbEntity
  8
SK3
  6
SLD-Dashed
370
    18
100
AcDbLine
 10
11.3709197392
 20
38.1130721065
 30
0.0
 11
11.8409081695
 21
38.1626555298
 31
0.0
  0
LINE
  5
166
330
1F
100
AcDbEntity
  8
SK3
  6
SLD-Dashed
370
    18
100
AcDbLine
 10
11.8409081695
 20
38.1626555298
 30
0.0
 11
12.2472850173
 21
38.2574166716
 31
0.0
  0
LINE
  5
167
330
1F
100
AcDbEntity
  8
SK3
  6
SLD-Dashed
370
    18
100
AcDbLine
 10
12.2472850173
 20
38.2574166716
 30
0.0
 11
12.405826256
 21
38.3153381046
 31
0.0
  0
LINE
  5
168
330
1F
100
AcDbEntity
  8
SK3
  6
SLD-Dashed
370
    18
100
AcDbLine
 10
12.775
 20
38.671102207
 30
0.0
 11
12.7703862653
 21
38.7132748825
 31
0.0
  0
LINE
  5
169
330
1F
100
AcDbEntity
  8
SK3
  6
SLD-Dashed
370
    18
100
AcDbLine
 10
12.7703862653
 20
38.7132748825
 30
0.0
 11
12.6609416853
 21
38.8772762897
 31
0.0
  0
LINE
  5
16A
330
1F
100
AcDbEntity
  8
SK3
  6
SLD-Dashed
370
    18
100
AcDbLine
 10
12.6609416853
 20
38.8772762897
 30
0.0
 11
12.4150219461
 21
39.0229582248
 31
0.0
  0
LINE
  5
16B
330
1F
100
AcDbEntity
  8
SK3
  6
SLD-Dashed
370
    18
100
AcDbLine
 10
12.4150219461
 20
39.0229582248
 30
0.0
 11
12.0544780958
 21
39.1373762086
 31
0.0
  0
LINE
  5
16C
330
1F
100
AcDbEntity
  8
SK3
  6
SLD-Dashed
370
    18
100
AcDbLine
 10
12.0544780958
 20
39.1373762086
 30
0.0
 11
11.6113460378
 21
39.2103637011
 31
0.0
  0
LINE
  5
16D
330
1F
100
AcDbEntity
  8
SK3
  6
SLD-Dashed
370
    18
100
AcDbLine
 10
11.6113460378
 20
39.2103637011
 30
0.0
 11
11.125
 21
39.2354354434
 31
0.0
  0
LINE
  5
16E
330
1F
100
AcDbEntity
  8
SK3
  6
SLD-Dashed
370
    18
100
AcDbLine
 10
-99.85
 20
-12.505
 30
0.0
 11
-99.85
 21
12.505
 31
0.0
  0
LINE
  5
16F
330
1F
100
AcDbEntity
  8
SK3
  6
SLD-Dashed
370
    18
100
AcDbLine
 10
-91.85
 20
-12.875
 30
0.0
 11
-91.85
 21
12.875
 31
0.0
  0
LINE
  5
170
330
1F
100
AcDbEntity
  8
SK3
  6
SLD-Dashed
370
    18
100
AcDbLine
 10
-92.4908587988
 20
-12.505
 30
0.0
 11
-92.4908587988
 21
12.505
 31
0.0
  0
LINE
  5
171
330
1F
100
AcDbEntity
  8
SK3
  6
SLD-Dashed
370
    18
100
AcDbLine
 10
-88.85
 20
-12.875
 30
0.0
 11
-88.85
 21
12.875
 31
0.0
  0
LINE
  5
172
330
1F
100
AcDbEntity
  8
SK3
  6
SLD-Dashed
370
    18
100
AcDbLine
 10
-87.4787931107
 20
-10.5
 30
0.0
 11
-87.4787931107
 21
10.5
 31
0.0
  0
LINE
  5
173
330
1F
100
AcDbEntity
  8
SK3
  6
SLD-Dashed
370
    18
100
AcDbLine
 10
14.4
 20
-10.49995
 30
0.0
 11
14.4
 21
10.49995
 31
0.0
  0
LINE
  5
174
330
1F
100
AcDbEntity
  8
SK3
  6
SLD-Dashed
370
    18
100
AcDbLine
 10
15.9021215045
 20
8.0
 30
0.0
 11
15.9021215045
 21
-8.0
 31
0.0
  0
LINE
  5
175
330
1F
100
AcDbEntity
  8
SK3
  6
SLD-Dashed
370
    18
100
AcDbLine
 10
62.0
 20
-8.0
 30
0.0
 11
62.0
 21
8.0
 31
0.0
  0
LINE
  5
176
330
1F
100
AcDbEntity
  8
SK3
  6
SLD-Dashed
370
    18
100
AcDbLine
 10
47.1
 20
-22.3
 30
0.0
 11
30.9
 21
-22.3
 31
0.0
  0
LINE
  5
177
330
1F
100
AcDbEntity
  8
1
  6
SLD-Dashed
370
    18
100
AcDbLine
 10
9.185
 20
39.5558603756
 30
0.0
 11
9.185
 21
39.8922135308
 31
0.0
  0
LINE
  5
178
330
1F
100
AcDbEntity
  8
1
  6
SLD-Dashed
370
    18
100
AcDbLine
 10
9.185
 20
43.4724041418
 30
0.0
 11
9.185
 21
43.6246756516
 31
0.0
  0
LINE
  5
179
330
1F
100
AcDbEntity
  8
1
  6
SLD-Dashed
370
    18
100
AcDbLine
 10
13.015
 20
39.4676022338
 30
0.0
 11
13.015
 21
39.9769295946
 31
0.0
  0
LINE
  5
17A
330
1F
100
AcDbEntity
  8
1
  6
SLD-Dashed
370
    18
100
AcDbLine
 10
13.015
 20
43.4130308872
 30
0.0
 11
13.015
 21
43.6801658081
 31
0.0
  0
LINE
  5
17B
330
1F
100
AcDbEntity
  8
SK3
  6
SLD-Dashed
370
    18
100
AcDbLine
 10
6.3835367829
 20
-40.1692240231
 30
0.0
 11
6.2345666234
 21
-40.1831053017
 31
0.0
  0
LINE
  5
17C
330
1F
100
AcDbEntity
  8
SK3
  6
SLD-Dashed
370
    18
100
AcDbLine
 10
6.2345666234
 20
-40.1831053017
 30
0.0
 11
6.0038534329
 21
-40.0720237896
 31
0.0
  0
LINE
  5
17D
330
1F
100
AcDbEntity
  8
SK3
  6
SLD-Dashed
370
    18
100
AcDbLine
 10
6.0038534329
 20
-40.0720237896
 30
0.0
 11
5.7058937695
 21
-39.8429591468
 31
0.0
  0
LINE
  5
17E
330
1F
100
AcDbEntity
  8
SK3
  6
SLD-Dashed
370
    18
100
AcDbLine
 10
5.7058937695
 20
-39.8429591468
 30
0.0
 11
5.3594095348
 21
-39.5103043473
 31
0.0
  0
LINE
  5
17F
330
1F
100
AcDbEntity
  8
SK3
  6
SLD-Dashed
370
    18
100
AcDbLine
 10
5.3594095348
 20
-39.5103043473
 30
0.0
 11
4.9861716076
 21
-39.0949613154
 31
0.0
  0
LINE
  5
180
330
1F
100
AcDbEntity
  8
SK3
  6
SLD-Dashed
370
    18
100
AcDbLine
 10
4.9861716076
 20
-39.0949613154
 30
0.0
 11
4.6096318994
 21
-38.6230275814
 31
0.0
  0
LINE
  5
181
330
1F
100
AcDbEntity
  8
SK3
  6
SLD-Dashed
370
    18
100
AcDbLine
 10
4.6096318994
 20
-38.6230275814
 30
0.0
 11
4.253449785
 21
-38.1241564775
 31
0.0
  0
LINE
  5
182
330
1F
100
AcDbEntity
  8
SK3
  6
SLD-Dashed
370
    18
100
AcDbLine
 10
4.253449785
 20
-38.1241564775
 30
0.0
 11
3.9400054965
 21
-37.6296939098
 31
0.0
  0
LINE
  5
183
330
1F
100
AcDbEntity
  8
SK3
  6
SLD-Dashed
370
    18
100
AcDbLine
 10
3.9400054965
 20
-37.6296939098
 30
0.0
 11
3.6889938913
 21
-37.17070878
 31
0.0
  0
LINE
  5
184
330
1F
100
AcDbEntity
  8
SK3
  6
SLD-Dashed
370
    18
100
AcDbLine
 10
3.6889938913
 20
-37.17070878
 30
0.0
 11
3.5161869519
 21
-36.7760408119
 31
0.0
  0
LINE
  5
185
330
1F
100
AcDbEntity
  8
SK3
  6
SLD-Dashed
370
    18
100
AcDbLine
 10
3.5161869519
 20
-36.7760408119
 30
0.0
 11
3.4324427736
 21
-36.4704884452
 31
0.0
  0
LINE
  5
186
330
1F
100
AcDbEntity
  8
SK3
  6
SLD-Dashed
370
    18
100
AcDbLine
 10
3.4324427736
 20
-36.4704884452
 30
0.0
 11
3.4430233113
 21
-36.273250659
 31
0.0
  0
LINE
  5
187
330
1F
100
AcDbEntity
  8
SK3
  6
SLD-Dashed
370
    18
100
AcDbLine
 10
3.4430233113
 20
-36.273250659
 30
0.0
 11
3.5472637507
 21
-36.1967206288
 31
0.0
  0
LINE
  5
188
330
1F
100
AcDbEntity
  8
SK3
  6
SLD-Dashed
370
    18
100
AcDbLine
 10
3.5472637507
 20
-36.1967206288
 30
0.0
 11
3.7386142819
 21
-36.2457070178
 31
0.0
  0
LINE
  5
189
330
1F
100
AcDbEntity
  8
SK3
  6
SLD-Dashed
370
    18
100
AcDbLine
 10
3.7386142819
 20
-36.2457070178
 30
0.0
 11
4.005051647
 21
-36.4171318311
 31
0.0
  0
LINE
  5
18A
330
1F
100
AcDbEntity
  8
SK3
  6
SLD-Dashed
370
    18
100
AcDbLine
 10
4.005051647
 20
-36.4171318311
 30
0.0
 11
4.3298346067
 21
-36.7002238172
 31
0.0
  0
LINE
  5
18B
330
1F
100
AcDbEntity
  8
SK3
  6
SLD-Dashed
370
    18
100
AcDbLine
 10
4.3298346067
 20
-36.7002238172
 30
0.0
 11
4.692555853
 21
-37.0771952653
 31
0.0
  0
LINE
  5
18C
330
1F
100
AcDbEntity
  8
SK3
  6
SLD-Dashed
370
    18
100
AcDbLine
 10
4.692555853
 20
-37.0771952653
 30
0.0
 11
5.0704242761
 21
-37.5243596732
 31
0.0
  0
LINE
  5
18D
330
1F
100
AcDbEntity
  8
SK3
  6
SLD-Dashed
370
    18
100
AcDbLine
 10
5.0704242761
 20
-37.5243596732
 30
0.0
 11
5.4396970133
 21
-38.0136200564
 31
0.0
  0
LINE
  5
18E
330
1F
100
AcDbEntity
  8
SK3
  6
SLD-Dashed
370
    18
100
AcDbLine
 10
5.4396970133
 20
-38.0136200564
 30
0.0
 11
5.7771713003
 21
-38.5142343857
 31
0.0
  0
LINE
  5
18F
330
1F
100
AcDbEntity
  8
SK3
  6
SLD-Dashed
370
    18
100
AcDbLine
 10
5.7771713003
 20
-38.5142343857
 30
0.0
 11
6.0616423866
 21
-38.9947472217
 31
0.0
  0
LINE
  5
190
330
1F
100
AcDbEntity
  8
SK3
  6
SLD-Dashed
370
    18
100
AcDbLine
 10
6.0616423866
 20
-38.9947472217
 30
0.0
 11
6.2752359076
 21
-39.4249661756
 31
0.0
  0
LINE
  5
191
330
1F
100
AcDbEntity
  8
SK3
  6
SLD-Dashed
370
    18
100
AcDbLine
 10
6.2752359076
 20
-39.4249661756
 30
0.0
 11
6.4045309968
 21
-39.7778590084
 31
0.0
  0
LINE
  5
192
330
1F
100
AcDbEntity
  8
SK3
  6
SLD-Dashed
370
    18
100
AcDbLine
 10
6.4045309968
 20
-39.7778590084
 30
0.0
 11
6.4414035684
 21
-40.0312521656
 31
0.0
  0
LINE
  5
193
330
1F
100
AcDbEntity
  8
SK3
  6
SLD-Dashed
370
    18
100
AcDbLine
 10
6.4414035684
 20
-40.0312521656
 30
0.0
 11
6.3835367829
 21
-40.1692240231
 31
0.0
  0
LINE
  5
194
330
1F
100
AcDbEntity
  8
SK3
  6
SLD-Dashed
370
    18
100
AcDbLine
 10
17.1792841073
 20
-32.2433281529
 30
0.0
 11
17.0303139478
 21
-32.2572094315
 31
0.0
  0
LINE
  5
195
330
1F
100
AcDbEntity
  8
SK3
  6
SLD-Dashed
370
    18
100
AcDbLine
 10
17.0303139478
 20
-32.2572094315
 30
0.0
 11
16.7996007573
 21
-32.1461279195
 31
0.0
  0
LINE
  5
196
330
1F
100
AcDbEntity
  8
SK3
  6
SLD-Dashed
370
    18
100
AcDbLine
 10
16.7996007573
 20
-32.1461279195
 30
0.0
 11
16.5016410939
 21
-31.9170632767
 31
0.0
  0
LINE
  5
197
330
1F
100
AcDbEntity
  8
SK3
  6
SLD-Dashed
370
    18
100
AcDbLine
 10
16.5016410939
 20
-31.9170632767
 30
0.0
 11
16.1551568592
 21
-31.5844084771
 31
0.0
  0
LINE
  5
198
330
1F
100
AcDbEntity
  8
SK3
  6
SLD-Dashed
370
    18
100
AcDbLine
 10
16.1551568592
 20
-31.5844084771
 30
0.0
 11
15.781918932
 21
-31.1690654453
 31
0.0
  0
LINE
  5
199
330
1F
100
AcDbEntity
  8
SK3
  6
SLD-Dashed
370
    18
100
AcDbLine
 10
15.781918932
 20
-31.1690654453
 30
0.0
 11
15.4053792238
 21
-30.6971317113
 31
0.0
  0
LINE
  5
19A
330
1F
100
AcDbEntity
  8
SK3
  6
SLD-Dashed
370
    18
100
AcDbLine
 10
15.4053792238
 20
-30.6971317113
 30
0.0
 11
15.0491971094
 21
-30.1982606074
 31
0.0
  0
LINE
  5
19B
330
1F
100
AcDbEntity
  8
SK3
  6
SLD-Dashed
370
    18
100
AcDbLine
 10
15.0491971094
 20
-30.1982606074
 30
0.0
 11
14.7357528209
 21
-29.7037980397
 31
0.0
  0
LINE
  5
19C
330
1F
100
AcDbEntity
  8
SK3
  6
SLD-Dashed
370
    18
100
AcDbLine
 10
14.7357528209
 20
-29.7037980397
 30
0.0
 11
14.4847412157
 21
-29.2448129099
 31
0.0
  0
LINE
  5
19D
330
1F
100
AcDbEntity
  8
SK3
  6
SLD-Dashed
370
    18
100
AcDbLine
 10
14.4847412157
 20
-29.2448129099
 30
0.0
 11
14.3119342763
 21
-28.8501449417
 31
0.0
  0
LINE
  5
19E
330
1F
100
AcDbEntity
  8
SK3
  6
SLD-Dashed
370
    18
100
AcDbLine
 10
14.3119342763
 20
-28.8501449417
 30
0.0
 11
14.228190098
 21
-28.5445925751
 31
0.0
  0
LINE
  5
19F
330
1F
100
AcDbEntity
  8
SK3
  6
SLD-Dashed
370
    18
100
AcDbLine
 10
14.228190098
 20
-28.5445925751
 30
0.0
 11
14.2387706357
 21
-28.3473547889
 31
0.0
  0
LINE
  5
1A0
330
1F
100
AcDbEntity
  8
SK3
  6
SLD-Dashed
370
    18
100
AcDbLine
 10
14.2387706357
 20
-28.3473547889
 30
0.0
 11
14.3430110752
 21
-28.2708247587
 31
0.0
  0
LINE
  5
1A1
330
1F
100
AcDbEntity
  8
SK3
  6
SLD-Dashed
370
    18
100
AcDbLine
 10
14.3430110752
 20
-28.2708247587
 30
0.0
 11
14.5343616063
 21
-28.3198111477
 31
0.0
  0
LINE
  5
1A2
330
1F
100
AcDbEntity
  8
SK3
  6
SLD-Dashed
370
    18
100
AcDbLine
 10
14.5343616063
 20
-28.3198111477
 30
0.0
 11
14.8007989714
 21
-28.491235961
 31
0.0
  0
LINE
  5
1A3
330
1F
100
AcDbEntity
  8
SK3
  6
SLD-Dashed
370
    18
100
AcDbLine
 10
14.8007989714
 20
-28.491235961
 30
0.0
 11
15.1255819311
 21
-28.774327947
 31
0.0
  0
LINE
  5
1A4
330
1F
100
AcDbEntity
  8
SK3
  6
SLD-Dashed
370
    18
100
AcDbLine
 10
15.1255819311
 20
-28.774327947
 30
0.0
 11
15.4883031774
 21
-29.1512993952
 31
0.0
  0
LINE
  5
1A5
330
1F
100
AcDbEntity
  8
SK3
  6
SLD-Dashed
370
    18
100
AcDbLine
 10
15.4883031774
 20
-29.1512993952
 30
0.0
 11
15.8661716005
 21
-29.598463803
 31
0.0
  0
LINE
  5
1A6
330
1F
100
AcDbEntity
  8
SK3
  6
SLD-Dashed
370
    18
100
AcDbLine
 10
15.8661716005
 20
-29.598463803
 30
0.0
 11
16.2354443377
 21
-30.0877241862
 31
0.0
  0
LINE
  5
1A7
330
1F
100
AcDbEntity
  8
SK3
  6
SLD-Dashed
370
    18
100
AcDbLine
 10
16.2354443377
 20
-30.0877241862
 30
0.0
 11
16.5729186247
 21
-30.5883385156
 31
0.0
  0
LINE
  5
1A8
330
1F
100
AcDbEntity
  8
SK3
  6
SLD-Dashed
370
    18
100
AcDbLine
 10
16.5729186247
 20
-30.5883385156
 30
0.0
 11
16.857389711
 21
-31.0688513515
 31
0.0
  0
LINE
  5
1A9
330
1F
100
AcDbEntity
  8
SK3
  6
SLD-Dashed
370
    18
100
AcDbLine
 10
16.857389711
 20
-31.0688513515
 30
0.0
 11
17.070983232
 21
-31.4990703055
 31
0.0
  0
LINE
  5
1AA
330
1F
100
AcDbEntity
  8
SK3
  6
SLD-Dashed
370
    18
100
AcDbLine
 10
17.070983232
 20
-31.4990703055
 30
0.0
 11
17.2002783213
 21
-31.8519631383
 31
0.0
  0
LINE
  5
1AB
330
1F
100
AcDbEntity
  8
SK3
  6
SLD-Dashed
370
    18
100
AcDbLine
 10
17.2002783213
 20
-31.8519631383
 30
0.0
 11
17.2371508928
 21
-32.1053562954
 31
0.0
  0
LINE
  5
1AC
330
1F
100
AcDbEntity
  8
SK3
  6
SLD-Dashed
370
    18
100
AcDbLine
 10
17.2371508928
 20
-32.1053562954
 30
0.0
 11
17.1792841073
 21
-32.2433281529
 31
0.0
  0
LINE
  5
1AD
330
1F
100
AcDbEntity
  8
SK3
  6
SLD-Dashed
370
    18
100
AcDbLine
 10
9.5142049402
 20
-37.8440029964
 30
0.0
 11
9.476163823
 21
-37.8011802731
 31
0.0
  0
LINE
  5
1AE
330
1F
100
AcDbEntity
  8
SK3
  6
SLD-Dashed
370
    18
100
AcDbLine
 10
9.476163823
 20
-37.8011802731
 30
0.0
 11
9.4927936757
 21
-37.6718109428
 31
0.0
  0
LINE
  5
1AF
330
1F
100
AcDbEntity
  8
SK3
  6
SLD-Dashed
370
    18
100
AcDbLine
 10
9.4927936757
 20
-37.6718109428
 30
0.0
 11
9.5560538088
 21
-37.4833677819
 31
0.0
  0
LINE
  5
1B0
330
1F
100
AcDbEntity
  8
SK3
  6
SLD-Dashed
370
    18
100
AcDbLine
 10
9.5560538088
 20
-37.4833677819
 30
0.0
 11
9.7334210519
 21
-37.0908316848
 31
0.0
  0
LINE
  5
1B1
330
1F
100
AcDbEntity
  8
SK3
  6
SLD-Dashed
370
    18
100
AcDbLine
 10
9.7334210519
 20
-37.0908316848
 30
0.0
 11
10.1551466607
 21
-36.3541500304
 31
0.0
  0
LINE
  5
1B2
330
1F
100
AcDbEntity
  8
SK3
  6
SLD-Dashed
370
    18
100
AcDbLine
 10
10.1551466607
 20
-36.3541500304
 30
0.0
 11
10.9023966474
 21
-35.4289987596
 31
0.0
  0
LINE
  5
1B3
330
1F
100
AcDbEntity
  8
SK3
  6
SLD-Dashed
370
    18
100
AcDbLine
 10
10.9023966474
 20
-35.4289987596
 30
0.0
 11
11.337227106
 21
-35.1078134464
 31
0.0
  0
LINE
  5
1B4
330
1F
100
AcDbEntity
  8
SK3
  6
SLD-Dashed
370
    18
100
AcDbLine
 10
11.337227106
 20
-35.1078134464
 30
0.0
 11
11.8250958315
 21
-34.9392341922
 31
0.0
  0
LINE
  5
1B5
330
1F
100
AcDbEntity
  8
SK3
  6
SLD-Dashed
370
    18
100
AcDbLine
 10
11.8250958315
 20
-34.9392341922
 30
0.0
 11
12.2198617266
 21
-34.9464581103
 31
0.0
  0
LINE
  5
1B6
330
1F
100
AcDbEntity
  8
SK3
  6
SLD-Dashed
370
    18
100
AcDbLine
 10
12.2198617266
 20
-34.9464581103
 30
0.0
 11
12.5250186462
 21
-35.0520518363
 31
0.0
  0
LINE
  5
1B7
330
1F
100
AcDbEntity
  8
SK3
  6
SLD-Dashed
370
    18
100
AcDbLine
 10
12.5250186462
 20
-35.0520518363
 30
0.0
 11
12.7292394553
 21
-35.2241647832
 31
0.0
  0
LINE
  5
1B8
330
1F
100
AcDbEntity
  8
SK3
  6
SLD-Dashed
370
    18
100
AcDbLine
 10
12.7292394553
 20
-35.2241647832
 30
0.0
 11
12.7666446651
 21
-35.4151753489
 31
0.0
  0
LINE
  5
1B9
330
1F
100
AcDbEntity
  8
SK3
  6
SLD-Dashed
370
    18
100
AcDbLine
 10
12.7666446651
 20
-35.4151753489
 30
0.0
 11
12.6304093111
 21
-35.5829680017
 31
0.0
  0
LINE
  5
1BA
330
1F
100
AcDbEntity
  8
SK3
  6
SLD-Dashed
370
    18
100
AcDbLine
 10
11.125
 20
-38.2214796865
 30
0.0
 11
10.6386539622
 21
-38.2465514287
 31
0.0
  0
LINE
  5
1BB
330
1F
100
AcDbEntity
  8
SK3
  6
SLD-Dashed
370
    18
100
AcDbLine
 10
10.6386539622
 20
-38.2465514287
 30
0.0
 11
10.1955219042
 21
-38.3195389213
 31
0.0
  0
LINE
  5
1BC
330
1F
100
AcDbEntity
  8
SK3
  6
SLD-Dashed
370
    18
100
AcDbLine
 10
10.1955219042
 20
-38.3195389213
 30
0.0
 11
9.8349780539
 21
-38.4339569051
 31
0.0
  0
LINE
  5
1BD
330
1F
100
AcDbEntity
  8
SK3
  6
SLD-Dashed
370
    18
100
AcDbLine
 10
9.8349780539
 20
-38.4339569051
 30
0.0
 11
9.5890583147
 21
-38.5796388402
 31
0.0
  0
LINE
  5
1BE
330
1F
100
AcDbEntity
  8
SK3
  6
SLD-Dashed
370
    18
100
AcDbLine
 10
9.5890583147
 20
-38.5796388402
 30
0.0
 11
9.4796137347
 21
-38.7436402474
 31
0.0
  0
LINE
  5
1BF
330
1F
100
AcDbEntity
  8
SK3
  6
SLD-Dashed
370
    18
100
AcDbLine
 10
9.4796137347
 20
-38.7436402474
 30
0.0
 11
9.5163689449
 21
-38.9113888818
 31
0.0
  0
LINE
  5
1C0
330
1F
100
AcDbEntity
  8
SK3
  6
SLD-Dashed
370
    18
100
AcDbLine
 10
9.5163689449
 20
-38.9113888818
 30
0.0
 11
9.6960580838
 21
-39.0679795412
 31
0.0
  0
LINE
  5
1C1
330
1F
100
AcDbEntity
  8
SK3
  6
SLD-Dashed
370
    18
100
AcDbLine
 10
9.6960580838
 20
-39.0679795412
 30
0.0
 11
10.0027149827
 21
-39.1994984583
 31
0.0
  0
LINE
  5
1C2
330
1F
100
AcDbEntity
  8
SK3
  6
SLD-Dashed
370
    18
100
AcDbLine
 10
10.0027149827
 20
-39.1994984583
 30
0.0
 11
10.4090918305
 21
-39.2942596001
 31
0.0
  0
LINE
  5
1C3
330
1F
100
AcDbEntity
  8
SK3
  6
SLD-Dashed
370
    18
100
AcDbLine
 10
10.4090918305
 20
-39.2942596001
 30
0.0
 11
10.8790802608
 21
-39.3438430234
 31
0.0
  0
LINE
  5
1C4
330
1F
100
AcDbEntity
  8
SK3
  6
SLD-Dashed
370
    18
100
AcDbLine
 10
10.8790802608
 20
-39.3438430234
 30
0.0
 11
11.3709197392
 21
-39.3438430234
 31
0.0
  0
LINE
  5
1C5
330
1F
100
AcDbEntity
  8
SK3
  6
SLD-Dashed
370
    18
100
AcDbLine
 10
11.3709197392
 20
-39.3438430234
 30
0.0
 11
11.8409081695
 21
-39.2942596001
 31
0.0
  0
LINE
  5
1C6
330
1F
100
AcDbEntity
  8
SK3
  6
SLD-Dashed
370
    18
100
AcDbLine
 10
11.8409081695
 20
-39.2942596001
 30
0.0
 11
12.2472850173
 21
-39.1994984583
 31
0.0
  0
LINE
  5
1C7
330
1F
100
AcDbEntity
  8
SK3
  6
SLD-Dashed
370
    18
100
AcDbLine
 10
12.2472850173
 20
-39.1994984583
 30
0.0
 11
12.5539419162
 21
-39.0679795412
 31
0.0
  0
LINE
  5
1C8
330
1F
100
AcDbEntity
  8
SK3
  6
SLD-Dashed
370
    18
100
AcDbLine
 10
12.5539419162
 20
-39.0679795412
 30
0.0
 11
12.7336310551
 21
-38.9113888818
 31
0.0
  0
LINE
  5
1C9
330
1F
100
AcDbEntity
  8
SK3
  6
SLD-Dashed
370
    18
100
AcDbLine
 10
12.7336310551
 20
-38.9113888818
 30
0.0
 11
12.7703862653
 21
-38.7436402474
 31
0.0
  0
LINE
  5
1CA
330
1F
100
AcDbEntity
  8
SK3
  6
SLD-Dashed
370
    18
100
AcDbLine
 10
12.7703862653
 20
-38.7436402474
 30
0.0
 11
12.6609416853
 21
-38.5796388402
 31
0.0
  0
LINE
  5
1CB
330
1F
100
AcDbEntity
  8
SK3
  6
SLD-Dashed
370
    18
100
AcDbLine
 10
12.6609416853
 20
-38.5796388402
 30
0.0
 11
12.4150219461
 21
-38.4339569051
 31
0.0
  0
LINE
  5
1CC
330
1F
100
AcDbEntity
  8
SK3
  6
SLD-Dashed
370
    18
100
AcDbLine
 10
12.4150219461
 20
-38.4339569051
 30
0.0
 11
12.0544780958
 21
-38.3195389213
 31
0.0
  0
LINE
  5
1CD
330
1F
100
AcDbEntity
  8
SK3
  6
SLD-Dashed
370
    18
100
AcDbLine
 10
12.0544780958
 20
-38.3195389213
 30
0.0
 11
11.6113460378
 21
-38.2465514287
 31
0.0
  0
LINE
  5
1CE
330
1F
100
AcDbEntity
  8
SK3
  6
SLD-Dashed
370
    18
100
AcDbLine
 10
11.6113460378
 20
-38.2465514287
 30
0.0
 11
11.125
 21
-38.2214796865
 31
0.0
  0
LINE
  5
1CF
330
1F
100
AcDbEntity
  8
SK3
  6
SLD-Dashed
370
    18
100
AcDbLine
 10
6.4723069743
 20
-40.2901366077
 30
0.0
 11
6.3219823894
 21
-40.3067738417
 31
0.0
  0
LINE
  5
1D0
330
1F
100
AcDbEntity
  8
SK3
  6
SLD-Dashed
370
    18
100
AcDbLine
 10
6.3219823894
 20
-40.3067738417
 30
0.0
 11
6.0909714415
 21
-40.2006428481
 31
0.0
  0
LINE
  5
1D1
330
1F
100
AcDbEntity
  8
SK3
  6
SLD-Dashed
370
    18
100
AcDbLine
 10
6.0909714415
 20
-40.2006428481
 30
0.0
 11
5.7926996472
 21
-39.9779115745
 31
0.0
  0
LINE
  5
1D2
330
1F
100
AcDbEntity
  8
SK3
  6
SLD-Dashed
370
    18
100
AcDbLine
 10
5.7926996472
 20
-39.9779115745
 30
0.0
 11
5.444501479
 21
-39.651524353
 31
0.0
  0
LINE
  5
1D3
330
1F
100
AcDbEntity
  8
SK3
  6
SLD-Dashed
370
    18
100
AcDbLine
 10
5.444501479
 20
-39.651524353
 30
0.0
 11
5.0666129489
 21
-39.2404496226
 31
0.0
  0
LINE
  5
1D4
330
1F
100
AcDbEntity
  8
SK3
  6
SLD-Dashed
370
    18
100
AcDbLine
 10
5.0666129489
 20
-39.2404496226
 30
0.0
 11
4.6809955645
 21
-38.7685775522
 31
0.0
  0
LINE
  5
1D5
330
1F
100
AcDbEntity
  8
SK3
  6
SLD-Dashed
370
    18
100
AcDbLine
 10
4.6809955645
 20
-38.7685775522
 30
0.0
 11
4.3100600067
 21
-38.2633316316
 31
0.0
  0
LINE
  5
1D6
330
1F
100
AcDbEntity
  8
SK3
  6
SLD-Dashed
370
    18
100
AcDbLine
 10
4.3100600067
 20
-38.2633316316
 30
0.0
 11
3.9753637017
 21
-37.754074917
 31
0.0
  0
LINE
  5
1D7
330
1F
100
AcDbEntity
  8
SK3
  6
SLD-Dashed
370
    18
100
AcDbLine
 10
3.9753637017
 20
-37.754074917
 30
0.0
 11
3.6963579823
 21
-37.2704035577
 31
0.0
  0
LINE
  5
1D8
330
1F
100
AcDbEntity
  8
SK3
  6
SLD-Dashed
370
    18
100
AcDbLine
 10
3.6963579823
 20
-37.2704035577
 30
0.0
 11
3.4892576466
 21
-36.8404267751
 31
0.0
  0
LINE
  5
1D9
330
1F
100
AcDbEntity
  8
SK3
  6
SLD-Dashed
370
    18
100
AcDbLine
 10
3.4892576466
 20
-36.8404267751
 30
0.0
 11
3.3660986135
 21
-36.4891332567
 31
0.0
  0
LINE
  5
1DA
330
1F
100
AcDbEntity
  8
SK3
  6
SLD-Dashed
370
    18
100
AcDbLine
 10
3.3660986135
 20
-36.4891332567
 30
0.0
 11
3.3340384382
 21
-36.236938905
 31
0.0
  0
LINE
  5
1DB
330
1F
100
AcDbEntity
  8
SK3
  6
SLD-Dashed
370
    18
100
AcDbLine
 10
3.3340384382
 20
-36.236938905
 30
0.0
 11
3.3949403416
 21
-36.0985003391
 31
0.0
  0
LINE
  5
1DC
330
1F
100
AcDbEntity
  8
SK3
  6
SLD-Dashed
370
    18
100
AcDbLine
 10
3.3949403416
 20
-36.0985003391
 30
0.0
 11
3.5452649265
 21
-36.0818631052
 31
0.0
  0
LINE
  5
1DD
330
1F
100
AcDbEntity
  8
SK3
  6
SLD-Dashed
370
    18
100
AcDbLine
 10
3.5452649265
 20
-36.0818631052
 30
0.0
 11
3.7762758744
 21
-36.1879940988
 31
0.0
  0
LINE
  5
1DE
330
1F
100
AcDbEntity
  8
SK3
  6
SLD-Dashed
370
    18
100
AcDbLine
 10
3.7762758744
 20
-36.1879940988
 30
0.0
 11
4.0745476687
 21
-36.4107253723
 31
0.0
  0
LINE
  5
1DF
330
1F
100
AcDbEntity
  8
SK3
  6
SLD-Dashed
370
    18
100
AcDbLine
 10
4.0745476687
 20
-36.4107253723
 30
0.0
 11
4.4227458368
 21
-36.7371125938
 31
0.0
  0
LINE
  5
1E0
330
1F
100
AcDbEntity
  8
SK3
  6
SLD-Dashed
370
    18
100
AcDbLine
 10
4.4227458368
 20
-36.7371125938
 30
0.0
 11
4.800634367
 21
-37.1481873243
 31
0.0
  0
LINE
  5
1E1
330
1F
100
AcDbEntity
  8
SK3
  6
SLD-Dashed
370
    18
100
AcDbLine
 10
4.800634367
 20
-37.1481873243
 30
0.0
 11
5.1862517514
 21
-37.6200593946
 31
0.0
  0
LINE
  5
1E2
330
1F
100
AcDbEntity
  8
SK3
  6
SLD-Dashed
370
    18
100
AcDbLine
 10
5.1862517514
 20
-37.6200593946
 30
0.0
 11
5.5571873092
 21
-38.1253053153
 31
0.0
  0
LINE
  5
1E3
330
1F
100
AcDbEntity
  8
SK3
  6
SLD-Dashed
370
    18
100
AcDbLine
 10
5.5571873092
 20
-38.1253053153
 30
0.0
 11
5.8918836142
 21
-38.6345620299
 31
0.0
  0
LINE
  5
1E4
330
1F
100
AcDbEntity
  8
SK3
  6
SLD-Dashed
370
    18
100
AcDbLine
 10
5.8918836142
 20
-38.6345620299
 30
0.0
 11
6.1708893336
 21
-39.1182333891
 31
0.0
  0
LINE
  5
1E5
330
1F
100
AcDbEntity
  8
SK3
  6
SLD-Dashed
370
    18
100
AcDbLine
 10
6.1708893336
 20
-39.1182333891
 30
0.0
 11
6.3779896693
 21
-39.5482101718
 31
0.0
  0
LINE
  5
1E6
330
1F
100
AcDbEntity
  8
SK3
  6
SLD-Dashed
370
    18
100
AcDbLine
 10
6.3779896693
 20
-39.5482101718
 30
0.0
 11
6.5011487024
 21
-39.8995036901
 31
0.0
  0
LINE
  5
1E7
330
1F
100
AcDbEntity
  8
SK3
  6
SLD-Dashed
370
    18
100
AcDbLine
 10
6.5011487024
 20
-39.8995036901
 30
0.0
 11
6.5332088777
 21
-40.1516980418
 31
0.0
  0
LINE
  5
1E8
330
1F
100
AcDbEntity
  8
SK3
  6
SLD-Dashed
370
    18
100
AcDbLine
 10
6.5332088777
 20
-40.1516980418
 30
0.0
 11
6.4723069743
 21
-40.2901366077
 31
0.0
  0
LINE
  5
1E9
330
1F
100
AcDbEntity
  8
SK3
  6
SLD-Dashed
370
    18
100
AcDbLine
 10
3.2
 20
36.2416193657
 30
0.0
 11
3.3949403416
 21
36.0985003391
 31
0.0
  0
LINE
  5
1EA
330
1F
100
AcDbEntity
  8
SK3
  6
SLD-Dashed
370
    18
100
AcDbLine
 10
6.4723069743
 20
40.2901366077
 30
0.0
 11
3.2
 21
42.6925607803
 31
0.0
  0
LINE
  5
1EB
330
1F
100
AcDbEntity
  8
SK3
  6
SLD-Dashed
370
    18
100
AcDbLine
 10
12.6304093111
 20
29.5041962841
 30
0.0
 11
14.2794578574
 21
28.2935170536
 31
0.0
  0
LINE
  5
1EC
330
1F
100
AcDbEntity
  8
SK3
  6
SLD-Dashed
370
    18
100
AcDbLine
 10
3.4837105329
 20
36.2194129238
 30
0.0
 11
9.6241218742
 21
31.711317335
 31
0.0
  0
LINE
  5
1ED
330
1F
100
AcDbEntity
  8
SK3
  6
SLD-Dashed
370
    18
100
AcDbLine
 10
9.6323492409
 20
37.7840487804
 30
0.0
 11
6.3835367829
 21
40.1692240231
 31
0.0
  0
LINE
  5
1EE
330
1F
100
AcDbEntity
  8
SK3
  6
SLD-Dashed
370
    18
100
AcDbLine
 10
17.1792841073
 20
32.2433281529
 30
0.0
 11
12.6274732478
 21
35.5851235664
 31
0.0
  0
LINE
  5
1EF
330
1F
100
AcDbEntity
  8
SK3
  6
SLD-Dashed
370
    18
100
AcDbLine
 10
9.5724833261
 20
38.4297591176
 30
0.0
 11
9.844173744
 21
38.3153381046
 31
0.0
  0
LINE
  5
1F0
330
1F
100
AcDbEntity
  8
SK3
  6
SLD-Dashed
370
    18
100
AcDbLine
 10
12.405826256
 20
38.3153381046
 30
0.0
 11
12.6775166739
 21
38.4297591176
 31
0.0
  0
LINE
  5
1F1
330
1F
100
AcDbEntity
  8
SK3
  6
SLD-Dashed
370
    18
100
AcDbLine
 10
9.475
 20
38.671102207
 30
0.0
 11
9.475
 21
37.7751370551
 31
0.0
  0
LINE
  5
1F2
330
1F
100
AcDbEntity
  8
SK3
  6
SLD-Dashed
370
    18
100
AcDbLine
 10
12.775
 20
35.3577490187
 30
0.0
 11
12.775
 21
38.671102207
 31
0.0
  0
LINE
  5
1F3
330
1F
100
AcDbEntity
  8
SK3
  6
SLD-Dashed
370
    18
100
AcDbLine
 10
-101.6
 20
-13.5153629711
 30
0.0
 11
-99.85
 21
-12.505
 31
0.0
  0
LINE
  5
1F4
330
1F
100
AcDbEntity
  8
SK3
  6
SLD-Dashed
370
    18
100
AcDbLine
 10
-99.85
 20
12.505
 30
0.0
 11
-101.6
 21
13.5153629711
 31
0.0
  0
LINE
  5
1F5
330
1F
100
AcDbEntity
  8
SK3
  6
SLD-Dashed
370
    18
100
AcDbLine
 10
14.5249003637
 20
28.3153293831
 30
0.0
 11
16.8894083239
 21
29.4167599163
 31
0.0
  0
LINE
  5
1F6
330
1F
100
AcDbEntity
  8
SK3
  6
SLD-Dashed
370
    18
100
AcDbLine
 10
16.8894083239
 20
29.4167599163
 30
0.0
 11
17.2319937976
 21
32.0026219208
 31
0.0
  0
LINE
  5
1F7
330
1F
100
AcDbEntity
  8
SK3
  6
SLD-Dashed
370
    18
100
AcDbLine
 10
9.475
 20
31.9394484935
 30
0.0
 11
9.475
 21
9.8663980169
 31
0.0
  0
LINE
  5
1F8
330
1F
100
AcDbEntity
  8
SK3
  6
SLD-Dashed
370
    18
100
AcDbLine
 10
12.775
 20
9.8637305233
 30
0.0
 11
12.775
 21
29.5283662558
 31
0.0
  0
LINE
  5
1F9
330
1F
100
AcDbEntity
  8
SK3
  6
SLD-Dashed
370
    18
100
AcDbLine
 10
-91.85
 20
12.875
 30
0.0
 11
-92.4908587988
 21
12.505
 31
0.0
  0
LINE
  5
1FA
330
1F
100
AcDbEntity
  8
SK3
  6
SLD-Dashed
370
    18
100
AcDbLine
 10
-92.4908587988
 20
-12.505
 30
0.0
 11
-91.85
 21
-12.875
 31
0.0
  0
LINE
  5
1FB
330
1F
100
AcDbEntity
  8
SK3
  6
SLD-Dashed
370
    18
100
AcDbLine
 10
-88.85
 20
-12.875
 30
0.0
 11
-87.4787931107
 21
-10.5
 31
0.0
  0
LINE
  5
1FC
330
1F
100
AcDbEntity
  8
SK3
  6
SLD-Dashed
370
    18
100
AcDbLine
 10
-87.4787931107
 20
10.5
 30
0.0
 11
-88.85
 21
12.875
 31
0.0
  0
LINE
  5
1FD
330
1F
100
AcDbEntity
  8
SK3
  6
SLD-Dashed
370
    18
100
AcDbLine
 10
-91.85
 20
-12.875
 30
0.0
 11
-88.85
 21
-12.875
 31
0.0
  0
LINE
  5
1FE
330
1F
100
AcDbEntity
  8
SK3
  6
SLD-Dashed
370
    18
100
AcDbLine
 10
-88.85
 20
12.875
 30
0.0
 11
-91.85
 21
12.875
 31
0.0
  0
LINE
  5
1FF
330
1F
100
AcDbEntity
  8
SK3
  6
SLD-Dashed
370
    18
100
AcDbLine
 10
-99.85
 20
-12.505
 30
0.0
 11
-92.4908587988
 21
-12.505
 31
0.0
  0
LINE
  5
200
330
1F
100
AcDbEntity
  8
SK3
  6
SLD-Dashed
370
    18
100
AcDbLine
 10
-92.4908587988
 20
12.505
 30
0.0
 11
-99.85
 21
12.505
 31
0.0
  0
LINE
  5
201
330
1F
100
AcDbEntity
  8
SK3
  6
SLD-Dashed
370
    18
100
AcDbLine
 10
-87.4787931107
 20
-10.5
 30
0.0
 11
-36.6
 21
-10.5
 31
0.0
  0
LINE
  5
202
330
1F
100
AcDbEntity
  8
SK3
  6
SLD-Dashed
370
    18
100
AcDbLine
 10
-36.6
 20
10.5
 30
0.0
 11
-87.4787931107
 21
10.5
 31
0.0
  0
LINE
  5
203
330
1F
100
AcDbEntity
  8
SK3
  6
SLD-Dashed
370
    18
100
AcDbLine
 10
-36.599969957
 20
-10.49995
 30
0.0
 11
14.4
 21
-10.49995
 31
0.0
  0
LINE
  5
204
330
1F
100
AcDbEntity
  8
SK3
  6
SLD-Dashed
370
    18
100
AcDbLine
 10
14.4
 20
10.49995
 30
0.0
 11
-36.599969957
 21
10.49995
 31
0.0
  0
LINE
  5
205
330
1F
100
AcDbEntity
  8
SK3
  6
SLD-Dashed
370
    18
100
AcDbLine
 10
14.4
 20
-10.49995
 30
0.0
 11
15.9021215045
 21
-8.0
 31
0.0
  0
LINE
  5
206
330
1F
100
AcDbEntity
  8
SK3
  6
SLD-Dashed
370
    18
100
AcDbLine
 10
15.9021215045
 20
8.0
 30
0.0
 11
14.4
 21
10.49995
 31
0.0
  0
LINE
  5
207
330
1F
100
AcDbEntity
  8
SK3
  6
SLD-Dashed
370
    18
100
AcDbLine
 10
63.0
 20
8.5773502692
 30
0.0
 11
62.0
 21
8.0
 31
0.0
  0
LINE
  5
208
330
1F
100
AcDbEntity
  8
SK3
  6
SLD-Dashed
370
    18
100
AcDbLine
 10
62.0
 20
-8.0
 30
0.0
 11
63.0
 21
-8.5773502692
 31
0.0
  0
LINE
  5
209
330
1F
100
AcDbEntity
  8
SK3
  6
SLD-Dashed
370
    18
100
AcDbLine
 10
47.1
 20
-24.0
 30
0.0
 11
47.1
 21
-22.3
 31
0.0
  0
LINE
  5
20A
330
1F
100
AcDbEntity
  8
SK3
  6
SLD-Dashed
370
    18
100
AcDbLine
 10
30.9
 20
-22.3
 30
0.0
 11
30.9
 21
-24.0
 31
0.0
  0
LINE
  5
20B
330
1F
100
AcDbEntity
  8
SK3
  6
SLD-Dashed
370
    18
100
AcDbLine
 10
62.0
 20
8.0
 30
0.0
 11
15.9021215045
 21
8.0
 31
0.0
  0
LINE
  5
20C
330
1F
100
AcDbEntity
  8
SK3
  6
SLD-Dashed
370
    18
100
AcDbLine
 10
45.0
 20
-8.0
 30
0.0
 11
62.0
 21
-8.0
 31
0.0
  0
LINE
  5
20D
330
1F
100
AcDbEntity
  8
SK3
  6
SLD-Dashed
370
    18
100
AcDbLine
 10
15.9021215045
 20
-8.0
 30
0.0
 11
33.0179164371
 21
-8.0
 31
0.0
  0
LINE
  5
20E
330
1F
100
AcDbEntity
  8
SK3
  6
SLD-Dashed
370
    18
100
AcDbLine
 10
45.0
 20
-22.3
 30
0.0
 11
45.0
 21
-8.0
 31
0.0
  0
LINE
  5
20F
330
1F
100
AcDbEntity
  8
SK3
  6
SLD-Dashed
370
    18
100
AcDbLine
 10
33.0
 20
-7.986571509
 30
0.0
 11
33.0
 21
-22.3
 31
0.0
  0
LINE
  5
210
330
1F
100
AcDbEntity
  8
SK3
  6
SLD-Dashed
370
    18
100
AcDbLine
 10
9.475
 20
-9.8637305233
 30
0.0
 11
9.475
 21
-31.9398610988
 31
0.0
  0
LINE
  5
211
330
1F
100
AcDbEntity
  8
SK3
  6
SLD-Dashed
370
    18
100
AcDbLine
 10
12.775
 20
-29.5282945633
 30
0.0
 11
12.775
 21
-9.8663980169
 31
0.0
  0
LINE
  5
212
330
1F
100
AcDbEntity
  8
SK3
  6
SLD-Dashed
370
    18
100
AcDbLine
 10
12.6304093111
 20
-35.5829680017
 30
0.0
 11
17.1792841073
 21
-32.2433281529
 31
0.0
  0
LINE
  5
213
330
1F
100
AcDbEntity
  8
SK3
  6
SLD-Dashed
370
    18
100
AcDbLine
 10
6.3835367829
 20
-40.1692240231
 30
0.0
 11
9.6359272698
 21
-37.7814219049
 31
0.0
  0
LINE
  5
214
330
1F
100
AcDbEntity
  8
SK3
  6
SLD-Dashed
370
    18
100
AcDbLine
 10
9.6214423095
 20
-31.7132845866
 30
0.0
 11
3.4837105329
 21
-36.2194129238
 31
0.0
  0
LINE
  5
215
330
1F
100
AcDbEntity
  8
SK3
  6
SLD-Dashed
370
    18
100
AcDbLine
 10
14.2794578574
 20
-28.2935170536
 30
0.0
 11
12.6204378483
 21
-29.5115170163
 31
0.0
  0
LINE
  5
216
330
1F
100
AcDbEntity
  8
SK3
  6
SLD-Dashed
370
    18
100
AcDbLine
 10
17.2319937976
 20
-32.0026219208
 30
0.0
 11
16.8894083239
 21
-29.4167599163
 31
0.0
  0
LINE
  5
217
330
1F
100
AcDbEntity
  8
SK3
  6
SLD-Dashed
370
    18
100
AcDbLine
 10
16.8894083239
 20
-29.4167599163
 30
0.0
 11
14.5249003637
 21
-28.3153293831
 31
0.0
  0
LINE
  5
218
330
1F
100
AcDbEntity
  8
SK3
  6
SLD-Dashed
370
    18
100
AcDbLine
 10
9.475
 20
-37.7748006109
 30
0.0
 11
9.475
 21
-38.7858129229
 31
0.0
  0
LINE
  5
219
330
1F
100
AcDbEntity
  8
SK3
  6
SLD-Dashed
370
    18
100
AcDbLine
 10
12.775
 20
-38.7858129229
 30
0.0
 11
12.775
 21
-35.3577672882
 31
0.0
  0
LINE
  5
21A
330
1F
100
AcDbEntity
  8
SK3
  6
SLD-Dashed
370
    18
100
AcDbLine
 10
3.2
 20
-42.6925607803
 30
0.0
 11
6.4723069743
 21
-40.2901366077
 31
0.0
  0
LINE
  5
21B
330
1F
100
AcDbEntity
  8
SK3
  6
SLD-Dashed
370
    18
100
AcDbLine
 10
3.3949403416
 20
-36.0985003391
 30
0.0
 11
3.2
 21
-36.2416193657
 31
0.0
  0
LINE
  5
21C
330
1F
100
AcDbEntity
  8
SK3
  6
SLD-Dashed
370
    18
100
AcDbLine
 10
9.8121669195
 20
-39.1276567612
 30
0.0
 11
11.125
 21
-39.7174430011
 31
0.0
  0
LINE
  5
21D
330
1F
100
AcDbEntity
  8
SK3
  6
SLD-Dashed
370
    18
100
AcDbLine
 10
11.125
 20
-39.7174430011
 30
0.0
 11
12.4378330805
 21
-39.1276567612
 31
0.0
  0
LINE
  5
21E
330
1F
100
AcDbEntity
  8
SK3
  6
SLD-Solid
370
    18
100
AcDbLine
 10
-88.3448185145
 20
12.0
 30
0.0
 11
-52.6
 21
12.0
 31
0.0
  0
LINE
  5
21F
330
1F
100
AcDbEntity
  8
SK3
  6
SLD-Solid
370
    18
100
AcDbLine
 10
-88.3448185145
 20
-12.0
 30
0.0
 11
-52.6
 21
-12.0
 31
0.0
  0
LINE
  5
220
330
1F
100
AcDbEntity
  8
SK3
  6
SLD-Dashed
370
    18
100
AcDbLine
 10
-52.6
 20
-12.0
 30
0.0
 11
-52.6
 21
12.0
 31
0.0
  0
LINE
  5
221
330
1F
100
AcDbEntity
  8
SK3
  6
SLD-Solid
370
    18
100
AcDbLine
 10
32.0
 20
-22.3
 30
0.0
 11
32.0
 21
-8.0
 31
0.0
  0
LINE
  5
222
330
1F
100
AcDbEntity
  8
SK3
  6
SLD-Solid
370
    18
100
AcDbLine
 10
46.0
 20
-22.3
 30
0.0
 11
46.0
 21
-8.0
 31
0.0
  0
LINE
  5
223
330
1F
100
AcDbEntity
  8
4
  6
SLD-Center
370
    18
100
AcDbLine
 10
39.0
 20
-24.3
 30
0.0
 11
39.0
 21
-6.0
 31
0.0
  0
LINE
  5
224
330
1F
100
AcDbEntity
  8
4
  6
SLD-Center
370
    18
100
AcDbLine
 10
65.0
 20
0.0
 30
0.0
 11
0.2977791336
 21
0.0
 31
0.0
  0
LINE
  5
225
330
1F
100
AcDbEntity
  8
SK4
  6
SLD-Center
370
    18
100
AcDbLine
 10
65.1919208278
 20
0.0
 30
0.0
 11
-101.85
 21
0.0
 31
0.0
  0
ARC
  5
226
330
1F
100
AcDbEntity
  8
1
  6
SLD-Solid
370
    25
100
AcDbCircle
 10
18.3
 20
47.975
 30
0.0
 40
0.75
100
AcDbArc
 50
0.0
 51
90.0
  0
ARC
  5
227
330
1F
100
AcDbEntity
  8
1
  6
SLD-Solid
370
    25
100
AcDbCircle
 10
3.95
 20
47.975
 30
0.0
 40
0.7500000000000004
100
AcDbArc
 50
90.0
 51
180.0
  0
ARC
  5
228
330
1F
100
AcDbEntity
  8
1
  6
SLD-Solid
370
    25
100
AcDbCircle
 10
2.45
 20
35.425
 30
0.0
 40
0.7500000000000012
100
AcDbArc
 50
245.0
 51
0.0
  0
ARC
  5
229
330
1F
100
AcDbEntity
  8
1
  6
SLD-Solid
370
    25
100
AcDbCircle
 10
2.45
 20
-35.425
 30
0.0
 40
0.7500000000000009
100
AcDbArc
 50
0.0
 51
115.0
  0
ARC
  5
22A
330
1F
100
AcDbEntity
  8
1
  6
SLD-Solid
370
    25
100
AcDbCircle
 10
18.3
 20
-47.975
 30
0.0
 40
0.75
100
AcDbArc
 50
270.0
 51
0.0
  0
ARC
  5
22B
330
1F
100
AcDbEntity
  8
1
  6
SLD-Solid
370
    25
100
AcDbCircle
 10
3.95
 20
-47.975
 30
0.0
 40
0.7500000000000004
100
AcDbArc
 50
180.0
 51
270.0
  0
ARC
  5
22C
330
1F
100
AcDbEntity
  8
1
  6
SLD-Solid
370
    25
100
AcDbCircle
 10
9.935
 20
-46.25
 30
0.0
 40
0.75
100
AcDbArc
 50
90.0
 51
180.0
  0
ARC
  5
22D
330
1F
100
AcDbEntity
  8
1
  6
SLD-Solid
370
    25
100
AcDbCircle
 10
12.265
 20
-46.25
 30
0.0
 40
0.75
100
AcDbArc
 50
0.0
 51
90.0
  0
ARC
  5
22E
330
1F
100
AcDbEntity
  8
1
  6
SLD-Solid
370
    25
100
AcDbCircle
 10
22.05
 20
-27.0
 30
0.0
 40
3.000000000000018
100
AcDbArc
 50
90.0
 51
180.0
  0
ARC
  5
22F
330
1F
100
AcDbEntity
  8
1
  6
SLD-Solid
370
    25
100
AcDbCircle
 10
22.05
 20
27.0
 30
0.0
 40
3.000000000000004
100
AcDbArc
 50
180.0
 51
270.0
  0
ARC
  5
230
330
1F
100
AcDbEntity
  8
SK1
  6
SLD-Solid
370
    25
100
AcDbCircle
 10
-99.35
 20
18.1625211762
 30
0.0
 40
2.250000000000001
100
AcDbArc
 50
98.2972222222
 51
180.0
  0
ARC
  5
231
330
1F
100
AcDbEntity
  8
SK1
  6
SLD-Solid
370
    25
100
AcDbCircle
 10
-99.35
 20
-18.1625211762
 30
0.0
 40
2.25
100
AcDbArc
 50
180.0
 51
261.7027777778
  0
ARC
  5
232
330
1F
100
AcDbEntity
  8
1
  6
SLD-Solid
370
    25
100
AcDbCircle
 10
9.935
 20
46.25
 30
0.0
 40
0.75
100
AcDbArc
 50
180.0
 51
270.0
  0
ARC
  5
233
330
1F
100
AcDbEntity
  8
1
  6
SLD-Solid
370
    25
100
AcDbCircle
 10
12.265
 20
46.25
 30
0.0
 40
0.75
100
AcDbArc
 50
270.0
 51
0.0
  0
CIRCLE
  5
234
330
1F
100
AcDbEntity
  8
1
  6
SLD-Solid
370
    25
100
AcDbCircle
 10
11.1
 20
0.0
 30
0.0
 40
4.999999999999979
  0
ARC
  5
235
330
1F
100
AcDbEntity
  8
SK3
  6
SLD-Dashed
370
    18
100
AcDbCircle
 10
2.7356069787
 20
42.5197177213
 30
0.0
 40
0.4897703606243614
100
AcDbArc
 50
341.4750205354
 51
18.5249794646
  0
ARC
  5
236
330
1F
100
AcDbEntity
  8
SK3
  6
SLD-Dashed
370
    18
100
AcDbCircle
 10
2.7356069787
 20
-42.5197177213
 30
0.0
 40
0.4897703606243857
100
AcDbArc
 50
341.4750205354
 51
18.5249794646
  0
ARC
  5
237
330
1F
100
AcDbEntity
  8
SK3
  6
SLD-Dashed
370
    18
100
AcDbCircle
 10
39.0
 20
32.25
 30
0.0
 40
12.5
100
AcDbArc
 50
221.2978435035
 51
318.6669709378
  0
ARC
  5
238
330
1F
100
AcDbEntity
  8
1
370
    25
100
AcDbCircle
 10
39.0
 20
-46.3622715052
 30
0.0
 40
23.78405320528962
100
AcDbArc
 50
70.0887405466
 51
109.9112594534
  0
ARC
  5
239
330
1F
100
AcDbEntity
  8
1
370
    25
100
AcDbCircle
 10
39.0065881674
 20
55.019398864
 30
0.0
 40
32.41163966659412
100
AcDbArc
 50
253.1456778958
 51
286.8211658337
  0
SPLINE
  5
23A
330
1F
100
AcDbEntity
  8
1
  6
SLD-Solid
370
    25
100
AcDbSpline
210
0.0
220
0.0
230
1.0
 70
     8
 71
     3
 72
     8
 73
     4
 74
     0
 42
0.000000001
 43
0.00000001
 40
0.0
 40
0.0
 40
0.0
 40
0.0
 40
0.0006848358022666
 40
0.0006848358022666
 40
0.0006848358022666
 40
0.0006848358022666
 10
14.33316150746197
 20
-13.35783977501373
 30
0.0
 10
14.23290901445183
 20
-13.20528930452747
 30
0.0
 10
14.1328273042626
 20
-13.05267666576018
 30
0.0
 10
14.0329226219926
 20
-12.89999999999995
 30
0.0
  0
SPLINE
  5
23B
330
1F
100
AcDbEntity
  8
1
  6
SLD-Solid
370
    25
100
AcDbSpline
210
0.0
220
0.0
230
1.0
 70
    24
 71
     3
 72
    32
 73
    28
 74
     0
 42
0.000000001
 43
0.00000001
 40
0.0
 40
0.0
 40
0.0
 40
0.0
 40
0.0252082910543527
 40
0.0503596748384706
 40
0.10065753548817
 40
0.1352126321409537
 40
0.1865986884561373
 40
0.2121867652739196
 40
0.2505532496795906
 40
0.27903906311898
 40
0.3220421589077401
 40
0.3758172202617183
 40
0.4042944428242283
 40
0.446906849935723
 40
0.5002460581053237
 40
0.5288597283328373
 40
0.5719927667399867
 40
0.625493849002335
 40
0.6539151420849565
 40
0.6965347981009881
 40
0.750035425816829
 40
0.7787873480767089
 40
0.8217747058557168
 40
0.8751561925759194
 40
0.9373529249286032
 40
0.9685880351929856
 40
1.0
 40
1.0
 40
1.0
 40
1.0
 10
18.30000000000008
 20
-12.89999999999995
 30
0.0
 10
18.30433836925367
 20
-12.89999999999995
 30
0.0
 10
18.31300531396922
 20
-12.89999999999995
 30
0.0
 10
18.33029662669338
 20
-12.89999999999994
 30
0.0
 10
18.34910316585338
 20
-12.89999999999995
 30
0.0
 10
18.37210736557522
 20
-12.89999999999996
 30
0.0
 10
18.39064401177358
 20
-12.89999999999996
 30
0.0
 10
18.4094193179874
 20
-12.89999999999995
 30
0.0
 10
18.42418244717785
 20
-12.89999999999997
 30
0.0
 10
18.44130637518468
 20
-12.89999999999995
 30
0.0
 10
18.46027541809504
 20
-12.89999999999997
 30
0.0
 10
18.47839247044147
 20
-12.89999999999996
 30
0.0
 10
18.49562107331185
 20
-12.89999999999997
 30
0.0
 10
18.51204706142614
 20
-12.89999999999997
 30
0.0
 10
18.52740483869728
 20
-12.89999999999997
 30
0.0
 10
18.54181304706763
 20
-12.89999999999998
 30
0.0
 10
18.55532844520205
 20
-12.89999999999997
 30
0.0
 10
18.56753715431802
 20
-12.89999999999998
 30
0.0
 10
18.57855133917677
 20
-12.89999999999998
 30
0.0
 10
18.58855677956037
 20
-12.89999999999999
 30
0.0
 10
18.59718165888909
 20
-12.89999999999997
 30
0.0
 10
18.60458542020545
 20
-12.89999999999999
 30
0.0
 10
18.61088491605209
 20
-12.89999999999997
 30
0.0
 10
18.61698108141768
 20
-12.89999999999999
 30
0.0
 10
18.62045903264761
 20
-12.89999999999997
 30
0.0
 10
18.62200588207882
 20
-12.89999999999997
 30
0.0
 10
18.62215094399634
 20
-12.89999999999997
 30
0.0
 10
18.62222367971215
 20
-12.89999999999997
 30
0.0
  0
SPLINE
  5
23C
330
1F
100
AcDbEntity
  8
1
  6
SLD-Solid
370
    25
100
AcDbSpline
210
0.0
220
0.0
230
1.0
 70
     8
 71
     3
 72
    16
 73
    12
 74
     0
 42
0.000000001
 43
0.00000001
 40
0.0
 40
0.0
 40
0.0
 40
0.0
 40
0.0704235324917237
 40
0.1230642824258228
 40
0.2465410154952414
 40
0.3699620981847407
 40
0.4947701282137383
 40
0.6231117705492392
 40
0.7458528211405459
 40
0.8737751255143994
 40
1.0
 40
1.0
 40
1.0
 40
1.0
 10
19.05000000000004
 20
-13.240565941336
 30
0.0
 10
19.04913774168576
 20
-13.24490026728162
 30
0.0
 10
19.0476309555738
 20
-13.2524744501353
 30
0.0
 10
19.03265477540785
 20
-13.26743302322535
 30
0.0
 10
18.99930728622405
 20
-13.28515831450104
 30
0.0
 10
18.93134576905027
 20
-13.30543422246115
 30
0.0
 10
18.83834936054404
 20
-13.32348900741463
 30
0.0
 10
18.72426575179417
 20
-13.33834147993624
 30
0.0
 10
18.59258107831704
 20
-13.3493711413968
 30
0.0
 10
18.4499648922071
 20
-13.3565063731658
 30
0.0
 10
18.34976522204945
 20
-13.35739729118923
 30
0.0
 10
18.30000000000015
 20
-13.35783977501373
 30
0.0
  0
SPLINE
  5
23D
330
1F
100
AcDbEntity
  8
1
  6
SLD-Solid
370
    25
100
AcDbSpline
210
0.0
220
0.0
230
1.0
 70
    24
 71
     3
 72
     8
 73
     4
 74
     0
 42
0.000000001
 43
0.00000001
 40
0.0
 40
0.0
 40
0.0
 40
0.0
 40
0.2500000000000032
 40
0.2500000000000032
 40
0.2500000000000032
 40
0.2500000000000032
 10
18.30000000000004
 20
-29.84999999999999
 30
0.0
 10
18.41289482414819
 20
-29.84999999999998
 30
0.0
 10
18.52359129640868
 20
-29.84999999999998
 30
0.0
 10
18.61961738175322
 20
-29.84999999999998
 30
0.0
  0
SPLINE
  5
23E
330
1F
100
AcDbEntity
  8
1
  6
SLD-Solid
370
    25
100
AcDbSpline
210
0.0
220
0.0
230
1.0
 70
    24
 71
     3
 72
     8
 73
     4
 74
     0
 42
0.000000001
 43
0.00000001
 40
0.2500000000000032
 40
0.2500000000000032
 40
0.2500000000000032
 40
0.2500000000000032
 40
0.5000000000000063
 40
0.5000000000000063
 40
0.5000000000000063
 40
0.5000000000000063
 10
18.61961738175322
 20
-29.84999999999998
 30
0.0
 10
18.71564346709775
 20
-29.84999999999998
 30
0.0
 10
18.79756672136534
 20
-29.84999999999999
 30
0.0
 10
18.86175165437666
 20
-29.84999999999998
 30
0.0
  0
SPLINE
  5
23F
330
1F
100
AcDbEntity
  8
1
  6
SLD-Solid
370
    25
100
AcDbSpline
210
0.0
220
0.0
230
1.0
 70
    24
 71
     2
 72
     6
 73
     3
 74
     0
 42
0.000000001
 43
0.00000001
 40
0.5000000000000063
 40
0.5000000000000063
 40
0.5000000000000063
 40
1.0
 40
1.0
 40
1.0
 10
18.86175165437666
 20
-29.84999999999998
 30
0.0
 10
18.99012152039933
 20
-29.84999999999999
 30
0.0
 10
19.05000000000001
 20
-29.84999999999999
 30
0.0
  0
SPLINE
  5
240
330
1F
100
AcDbEntity
  8
1
  6
SLD-Solid
370
    25
100
AcDbSpline
210
0.0
220
0.0
230
1.0
 70
     8
 71
     3
 72
    18
 73
    14
 74
     0
 42
0.000000001
 43
0.00000001
 40
0.0
 40
0.0
 40
0.0
 40
0.0
 40
0.0628259627681324
 40
0.1260712803764565
 40
0.1897452036157597
 40
0.2538567635514968
 40
0.3765996289726266
 40
0.5049366256416271
 40
0.6294142297544811
 40
0.7529968844630504
 40
0.8765580487886564
 40
0.9293594482220575
 40
1.0
 40
1.0
 40
1.0
 40
1.0
 10
18.30000000000864
 20
13.35793644722179
 30
0.0
 10
18.32474726194449
 20
13.35782756442722
 30
0.0
 10
18.37440697045667
 20
13.35760907206008
 30
0.0
 10
18.4484016510731
 20
13.35582451202041
 30
0.0
 10
18.52139692721527
 20
13.35295669371193
 30
0.0
 10
18.61413442992946
 20
13.34769225778566
 30
0.0
 10
18.72380287336374
 20
13.33847226296763
 30
0.0
 10
18.83787040150281
 20
13.32365970420516
 30
0.0
 10
18.93096632277075
 20
13.30561495387769
 30
0.0
 10
18.99906611032762
 20
13.28534704939533
 30
0.0
 10
19.0325547876636
 20
13.26759391663847
 30
0.0
 10
19.04761478975328
 20
13.25260244971747
 30
0.0
 10
19.0491318508146
 20
13.2450018399046
 30
0.0
 10
19.05000000000862
 20
13.24065233581979
 30
0.0
  0
SPLINE
  5
241
330
1F
100
AcDbEntity
  8
1
  6
SLD-Solid
370
    25
100
AcDbSpline
210
0.0
220
0.0
230
1.0
 70
    24
 71
     3
 72
    32
 73
    28
 74
     0
 42
0.000000001
 43
0.00000001
 40
0.0
 40
0.0
 40
0.0
 40
0.0
 40
0.0314240600189745
 40
0.062734398378341
 40
0.1252671195991895
 40
0.1539479798762275
 40
0.1970410606558825
 40
0.2505123763887034
 40
0.2789469272819378
 40
0.3216205192492424
 40
0.3752542707031759
 40
0.4039950529482431
 40
0.4468668296625108
 40
0.5002061031474543
 40
0.5286743402053793
 40
0.5715404837496577
 40
0.6253829155263885
 40
0.6539178144984554
 40
0.696594872331744
 40
0.749970484446759
 40
0.7785952793370768
 40
0.8217116205659645
 40
0.8751774006865103
 40
0.9000490867714404
 40
0.9373737627497141
 40
0.9685901628600515
 40
1.0
 40
1.0
 40
1.0
 40
1.0
 10
18.62218928608279
 20
12.90000000000004
 30
0.0
 10
18.62211624028724
 20
12.90000000000004
 30
0.0
 10
18.62197041304417
 20
12.90000000000004
 30
0.0
 10
18.62041915520152
 20
12.90000000000004
 30
0.0
 10
18.61750794913336
 20
12.90000000000004
 30
0.0
 10
18.61275238860124
 20
12.90000000000004
 30
0.0
 10
18.60719803470592
 20
12.90000000000004
 30
0.0
 10
18.60016285588909
 20
12.90000000000004
 30
0.0
 10
18.59192353305289
 20
12.90000000000003
 30
0.0
 10
18.58261636914263
 20
12.90000000000004
 30
0.0
 10
18.57188583498381
 20
12.90000000000004
 30
0.0
 10
18.55999017850933
 20
12.90000000000003
 30
0.0
 10
18.54714614871482
 20
12.90000000000004
 30
0.0
 10
18.53307210810783
 20
12.90000000000004
 30
0.0
 10
18.5180024565738
 20
12.90000000000002
 30
0.0
 10
18.50202722631306
 20
12.90000000000002
 30
0.0
 10
18.48496808973035
 20
12.90000000000003
 30
0.0
 10
18.46711950730317
 20
12.90000000000002
 30
0.0
 10
18.44867118386298
 20
12.90000000000003
 30
0.0
 10
18.42939906431462
 20
12.90000000000002
 30
0.0
 10
18.40948636727554
 20
12.90000000000002
 30
0.0
 10
18.38909981339985
 20
12.90000000000002
 30
0.0
 10
18.36883159732883
 20
12.90000000000002
 30
0.0
 10
18.34927318428677
 20
12.90000000000001
 30
0.0
 10
18.33333531276417
 20
12.90000000000001
 30
0.0
 10
18.31618254254459
 20
12.90000000000002
 30
0.0
 10
18.30540527696069
 20
12.90000000000001
 30
0.0
 10
18.30000000000862
 20
12.90000000000001
 30
0.0
  0
SPLINE
  5
242
330
1F
100
AcDbEntity
  8
1
  6
SLD-Solid
370
    25
100
AcDbSpline
210
0.0
220
0.0
230
1.0
 70
     8
 71
     3
 72
     8
 73
     4
 74
     0
 42
0.000000001
 43
0.00000001
 40
0.0000000000000066
 40
0.0000000000000066
 40
0.0000000000000066
 40
0.0000000000000066
 40
0.0006849348851525
 40
0.0006849348851525
 40
0.0006849348851525
 40
0.0006849348851525
 10
14.03288902614339
 20
12.90000000000001
 30
0.0
 10
14.13280481527537
 20
13.05270892420564
 30
0.0
 10
14.23289772545835
 20
13.20535378665721
 30
0.0
 10
14.33316150747058
 20
13.35793644722179
 30
0.0
  0
SPLINE
  5
243
330
1F
100
AcDbEntity
  8
1
  6
SLD-Solid
370
    25
100
AcDbSpline
210
0.0
220
0.0
230
1.0
 70
    24
 71
     3
 72
     8
 73
     4
 74
     0
 42
0.000000001
 43
0.00000001
 40
0.0
 40
0.0
 40
0.0
 40
0.0
 40
1.0
 40
1.0
 40
1.0
 40
1.0
 10
14.33316150746197
 20
-29.84999999999999
 30
0.0
 10
13.8882803360334
 20
-29.84999999999999
 30
0.0
 10
13.44843124794122
 20
-29.84999999999999
 30
0.0
 10
13.01500000000001
 20
-29.84999999999999
 30
0.0
  0
SPLINE
  5
244
330
1F
100
AcDbEntity
  8
1
  6
SLD-Solid
370
    25
100
AcDbSpline
210
0.0
220
0.0
230
1.0
 70
    24
 71
     3
 72
     8
 73
     4
 74
     0
 42
0.000000001
 43
0.00000001
 40
0.0
 40
0.0
 40
0.0
 40
0.0
 40
1.0
 40
1.0
 40
1.0
 40
1.0
 10
13.01499999999997
 20
-12.89999999999999
 30
0.0
 10
13.35391235301206
 20
-12.89999999999997
 30
0.0
 10
13.69323527086247
 20
-12.89999999999996
 30
0.0
 10
14.0329226219926
 20
-12.89999999999995
 30
0.0
  0
SPLINE
  5
245
330
1F
100
AcDbEntity
  8
1
  6
SLD-Solid
370
    25
100
AcDbSpline
210
0.0
220
0.0
230
1.0
 70
     8
 71
     3
 72
    12
 73
     8
 74
     0
 42
0.000000001
 43
0.00000001
 40
0.0
 40
0.0
 40
0.0
 40
0.0
 40
0.4999999999999966
 40
0.4999999999999966
 40
0.7499999999999982
 40
0.7499999999999982
 40
1.0
 40
1.0
 40
1.0
 40
1.0
 10
13.0150000000003
 20
43.86048945019334
 30
0.0
 10
13.0814965297304
 20
43.90556133581175
 30
0.0
 10
13.12487441551852
 20
43.90073713264432
 30
0.0
 10
13.12506236667173
 20
43.78036457327531
 30
0.0
 10
13.11461866891572
 20
43.72325394366451
 30
0.0
 10
13.07592531430961
 20
43.58284071421161
 30
0.0
 10
13.04827931420433
 20
43.50136073289207
 30
0.0
 10
13.0150000000003
 20
43.41303088721929
 30
0.0
  0
SPLINE
  5
246
330
1F
100
AcDbEntity
  8
1
  6
SLD-Solid
370
    25
100
AcDbSpline
210
0.0
220
0.0
230
1.0
 70
    24
 71
     3
 72
     8
 73
     4
 74
     0
 42
0.000000001
 43
0.00000001
 40
0.0
 40
0.0
 40
0.0
 40
0.0
 40
1.0
 40
1.0
 40
1.0
 40
1.0
 10
14.03288902614304
 20
12.90000000000001
 30
0.0
 10
13.69321289773574
 20
12.90000000000001
 30
0.0
 10
13.35390117994487
 20
12.90000000000001
 30
0.0
 10
13.01500000000001
 20
12.90000000000001
 30
0.0
  0
SPLINE
  5
247
330
1F
100
AcDbEntity
  8
1
  6
SLD-Solid
370
    25
100
AcDbSpline
210
0.0
220
0.0
230
1.0
 70
     8
 71
     3
 72
    12
 73
     8
 74
     0
 42
0.000000001
 43
0.00000001
 40
0.0
 40
0.0
 40
0.0
 40
0.0
 40
0.5
 40
0.5
 40
0.75
 40
0.75
 40
1.0
 40
1.0
 40
1.0
 40
1.0
 10
13.01500000000036
 20
40.14141692383477
 30
0.0
 10
13.08149652973044
 20
40.14351812363148
 30
0.0
 10
13.12487441551854
 20
40.09328688158312
 30
0.0
 10
13.12506236667178
 20
39.91183527206103
 30
0.0
 10
13.11461866891577
 20
39.83617694862883
 30
0.0
 10
13.07592531430968
 20
39.66303593053942
 30
0.0
 10
13.0482793142044
 20
39.56769922628283
 30
0.0
 10
13.01500000000036
 20
39.46760223375456
 30
0.0
  0
SPLINE
  5
248
330
1F
100
AcDbEntity
  8
1
  6
SLD-Solid
370
    25
100
AcDbSpline
210
0.0
220
0.0
230
1.0
 70
     8
 71
     3
 72
     8
 73
     4
 74
     0
 42
0.000000001
 43
0.00000001
 40
0.0
 40
0.0
 40
0.0
 40
0.0
 40
0.00087976719834
 40
0.00087976719834
 40
0.00087976719834
 40
0.00087976719834
 10
7.866838492538109
 20
13.53893208916537
 30
0.0
 10
7.989720100472457
 20
13.32609490090735
 30
0.0
 10
8.112226806385017
 20
13.1131191367923
 30
0.0
 10
8.234341191997025
 20
12.89999999999998
 30
0.0
  0
SPLINE
  5
249
330
1F
100
AcDbEntity
  8
1
  6
SLD-Solid
370
    25
100
AcDbSpline
210
0.0
220
0.0
230
1.0
 70
    24
 71
     3
 72
    18
 73
    14
 74
     0
 42
0.000000001
 43
0.00000001
 40
0.0
 40
0.0
 40
0.0
 40
0.0
 40
0.0504004858225458
 40
0.1007665221174997
 40
0.1867126465292665
 40
0.2507066467676068
 40
0.3759062713831572
 40
0.5002764008996339
 40
0.6254714139541746
 40
0.749972488319216
 40
0.875052772410172
 40
0.937299738345279
 40
1.0
 40
1.0
 40
1.0
 40
1.0
 10
3.950000000000023
 20
12.89999999999997
 30
0.0
 10
3.943271386979655
 20
12.89999999999997
 30
0.0
 10
3.92981876005212
 20
12.89999999999999
 30
0.0
 10
3.905073415705202
 20
12.89999999999998
 30
0.0
 10
3.87900152701158
 20
12.89999999999998
 30
0.0
 10
3.844627595845709
 20
12.9
 30
0.0
 10
3.807993140098886
 20
12.89999999999998
 30
0.0
 10
3.770105343280483
 20
12.9
 30
0.0
 10
3.73944416138261
 20
12.90000000000001
 30
0.0
 10
3.716845852189094
 20
12.90000000000001
 30
0.0
 10
3.705447888690941
 20
12.90000000000001
 30
0.0
 10
3.70067176985589
 20
12.9
 30
0.0
 10
3.700224464211657
 20
12.90000000000001
 30
0.0
 10
3.70000000000005
 20
12.90000000000001
 30
0.0
  0
SPLINE
  5
24A
330
1F
100
AcDbEntity
  8
1
  6
SLD-Solid
370
    25
100
AcDbSpline
210
0.0
220
0.0
230
1.0
 70
     8
 71
     3
 72
    15
 73
    11
 74
     0
 42
0.000000001
 43
0.00000001
 40
0.0
 40
0.0
 40
0.0
 40
0.0
 40
0.070618984917945
 40
0.1229799933779211
 40
0.2464005420210186
 40
0.4935563641939581
 40
0.6221295228815974
 40
0.745104861417357
 40
0.8733981602550989
 40
1.0
 40
1.0
 40
1.0
 40
1.0
 10
3.20000000000005
 20
13.40000000000001
 30
0.0
 10
3.200865997772806
 20
13.40514197106645
 30
0.0
 10
3.202374096487146
 20
13.41409649750767
 30
0.0
 10
3.217371469884947
 20
13.43179986761111
 30
0.0
 10
3.26424542582128
 20
13.46139425643563
 30
0.0
 10
3.3746324185948
 20
13.49251187645327
 30
0.0
 10
3.525614465747534
 20
13.51577548707777
 30
0.0
 10
3.657347388423299
 20
13.5288847089165
 30
0.0
 10
3.799983035697813
 20
13.53734432714016
 30
0.0
 10
3.900216057393532
 20
13.53840518173258
 30
0.0
 10
3.950000000000023
 20
13.53893208916537
 30
0.0
  0
SPLINE
  5
24B
330
1F
100
AcDbEntity
  8
1
  6
SLD-Solid
370
    25
100
AcDbSpline
210
0.0
220
0.0
230
1.0
 70
     8
 71
     3
 72
     8
 73
     4
 74
     0
 42
0.000000001
 43
0.00000001
 40
0.000000000000008
 40
0.000000000000008
 40
0.000000000000008
 40
0.000000000000008
 40
0.000879767198343
 40
0.000879767198343
 40
0.000879767198343
 40
0.000879767198343
 10
8.234341192004196
 20
-12.89999999999999
 30
0.0
 10
8.112226806391758
 20
-13.11311913679306
 30
0.0
 10
7.989720100472885
 20
-13.32609490090665
 30
0.0
 10
7.866838492538109
 20
-13.53893208916539
 30
0.0
  0
SPLINE
  5
24C
330
1F
100
AcDbEntity
  8
1
  6
SLD-Solid
370
    25
100
AcDbSpline
210
0.0
220
0.0
230
1.0
 70
    24
 71
     2
 72
     6
 73
     3
 74
     0
 42
0.000000001
 43
0.00000001
 40
0.0
 40
0.0
 40
0.0
 40
0.25
 40
0.25
 40
0.25
 10
3.20000000000005
 20
-29.84999999999999
 30
0.0
 10
3.215021356358622
 20
-29.84999999999999
 30
0.0
 10
3.246095959167972
 20
-29.84999999999999
 30
0.0
  0
SPLINE
  5
24D
330
1F
100
AcDbEntity
  8
1
  6
SLD-Solid
370
    25
100
AcDbSpline
210
0.0
220
0.0
230
1.0
 70
    24
 71
     3
 72
     8
 73
     4
 74
     0
 42
0.000000001
 43
0.00000001
 40
0.25
 40
0.25
 40
0.25
 40
0.25
 40
0.5
 40
0.5
 40
0.5
 40
0.5
 10
3.246095959167972
 20
-29.84999999999999
 30
0.0
 10
3.277170561977363
 20
-29.84999999999999
 30
0.0
 10
3.324005286895471
 20
-29.84999999999999
 30
0.0
 10
3.38814716175613
 20
-29.84999999999999
 30
0.0
  0
SPLINE
  5
24E
330
1F
100
AcDbEntity
  8
1
  6
SLD-Solid
370
    25
100
AcDbSpline
210
0.0
220
0.0
230
1.0
 70
    24
 71
     3
 72
     8
 73
     4
 74
     0
 42
0.000000001
 43
0.00000001
 40
0.5
 40
0.5
 40
0.5
 40
0.5
 40
0.75
 40
0.75
 40
0.75
 40
0.75
 10
3.38814716175613
 20
-29.84999999999999
 30
0.0
 10
3.452289036616776
 20
-29.84999999999999
 30
0.0
 10
3.533762741077223
 20
-29.84999999999999
 30
0.0
 10
3.630369878199077
 20
-29.84999999999999
 30
0.0
  0
SPLINE
  5
24F
330
1F
100
AcDbEntity
  8
1
  6
SLD-Solid
370
    25
100
AcDbSpline
210
0.0
220
0.0
230
1.0
 70
    24
 71
     3
 72
     8
 73
     4
 74
     0
 42
0.000000001
 43
0.00000001
 40
0.75
 40
0.75
 40
0.75
 40
0.75
 40
1.0
 40
1.0
 40
1.0
 40
1.0
 10
3.630369878199077
 20
-29.84999999999999
 30
0.0
 10
3.726977015320931
 20
-29.84999999999997
 30
0.0
 10
3.83820615063675
 20
-29.84999999999995
 30
0.0
 10
3.950000000001605
 20
-29.84999999999993
 30
0.0
  0
SPLINE
  5
250
330
1F
100
AcDbEntity
  8
1
  6
SLD-Solid
370
    25
100
AcDbSpline
210
0.0
220
0.0
230
1.0
 70
     8
 71
     3
 72
    17
 73
    13
 74
     0
 42
0.000000001
 43
0.00000001
 40
0.0
 40
0.0
 40
0.0
 40
0.0
 40
0.0630163681694046
 40
0.1264519899970225
 40
0.1903126369388606
 40
0.2546039445535121
 40
0.3775853330238601
 40
0.5061488482118667
 40
0.7531392792713959
 40
0.8766496105726514
 40
0.9291561068275646
 40
1.0
 40
1.0
 40
1.0
 40
1.0
 10
3.950000000000023
 20
-13.53893208916539
 30
0.0
 10
3.92524240100979
 20
-13.53880235612655
 30
0.0
 10
3.87556248845991
 20
-13.53854202692314
 30
0.0
 10
3.801536451757306
 20
-13.53642162705454
 30
0.0
 10
3.728508102145214
 20
-13.5330176939906
 30
0.0
 10
3.635766611647939
 20
-13.52677434093855
 30
0.0
 10
3.526074773445992
 20
-13.51581822299432
 30
0.0
 10
3.375030708850438
 20
-13.49260371832289
 30
0.0
 10
3.264485389795971
 20
-13.46148618920889
 30
0.0
 10
3.217471749571099
 20
-13.43188535752431
 30
0.0
 10
3.202390461956417
 20
-13.41414447256856
 30
0.0
 10
3.200872062911489
 20
-13.40516003607425
 30
0.0
 10
3.20000000000005
 20
-13.4
 30
0.0
  0
SPLINE
  5
251
330
1F
100
AcDbEntity
  8
1
  6
SLD-Solid
370
    25
100
AcDbSpline
210
0.0
220
0.0
230
1.0
 70
    24
 71
     3
 72
    18
 73
    14
 74
     0
 42
0.000000001
 43
0.00000001
 40
0.0
 40
0.0
 40
0.0
 40
0.0
 40
0.050261089681494
 40
0.1003329321215929
 40
0.1864224498897437
 40
0.2507015730540805
 40
0.3753972972171234
 40
0.5003113203901964
 40
0.6254300726311536
 40
0.7499589499091073
 40
0.8750961506297784
 40
0.9373336758005051
 40
0.9999999999999999
 40
0.9999999999999999
 40
0.9999999999999999
 40
0.9999999999999999
 10
3.70000000000005
 20
-12.9
 30
0.0
 10
3.700144078456563
 20
-12.9
 30
0.0
 10
3.700431692873457
 20
-12.9
 30
0.0
 10
3.703293867223969
 20
-12.90000000000001
 30
0.0
 10
3.708902726806337
 20
-12.9
 30
0.0
 10
3.720620908021971
 20
-12.9
 30
0.0
 10
3.739565664994213
 20
-12.9
 30
0.0
 10
3.770318840089465
 20
-12.9
 30
0.0
 10
3.808242102291679
 20
-12.89999999999999
 30
0.0
 10
3.852016595508809
 20
-12.9
 30
0.0
 10
3.891943318244703
 20
-12.89999999999999
 30
0.0
 10
3.924954928601801
 20
-12.9
 30
0.0
 10
3.941632557917019
 20
-12.89999999999999
 30
0.0
 10
3.950000000000023
 20
-12.89999999999999
 30
0.0
  0
SPLINE
  5
252
330
1F
100
AcDbEntity
  8
1
  6
SLD-Solid
370
    25
100
AcDbSpline
210
0.0
220
0.0
230
1.0
 70
    24
 71
     3
 72
     8
 73
     4
 74
     0
 42
0.000000001
 43
0.00000001
 40
0.0
 40
0.0
 40
0.0
 40
0.0
 40
1.0
 40
1.0
 40
1.0
 40
1.0
 10
9.185000000000043
 20
12.90000000000001
 30
0.0
 10
8.868459357486692
 20
12.9
 30
0.0
 10
8.551560425574495
 20
12.89999999999999
 30
0.0
 10
8.234341191997025
 20
12.89999999999998
 30
0.0
  0
SPLINE
  5
253
330
1F
100
AcDbEntity
  8
1
  6
SLD-Solid
370
    25
100
AcDbSpline
210
0.0
220
0.0
230
1.0
 70
     8
 71
     3
 72
    14
 73
    10
 74
     0
 42
0.000000001
 43
0.00000001
 40
0.0
 40
0.0
 40
0.0
 40
0.0
 40
0.25
 40
0.25
 40
0.5
 40
0.5
 40
0.75
 40
0.75
 40
1.0
 40
1.0
 40
1.0
 40
1.0
 10
9.184999999999999
 20
43.47240414182171
 30
0.0
 10
9.166077014827302
 20
43.52977137692102
 30
0.0
 10
9.151094003787163
 20
43.58154688777674
 30
0.0
 10
9.130454264739116
 20
43.67184085065315
 30
0.0
 10
9.12500525828025
 20
43.71003810360971
 30
0.0
 10
9.124994749585905
 20
43.76736631083268
 30
0.0
 10
9.130387799404671
 20
43.78733690574256
 30
0.0
 10
9.151056343351172
 20
43.80891259746304
 30
0.0
 10
9.166067460973897
 20
43.81071387479624
 30
0.0
 10
9.184999999999999
 20
43.80499125415971
 30
0.0
  0
SPLINE
  5
254
330
1F
100
AcDbEntity
  8
1
  6
SLD-Solid
370
    25
100
AcDbSpline
210
0.0
220
0.0
230
1.0
 70
     8
 71
     3
 72
    14
 73
    10
 74
     0
 42
0.000000001
 43
0.00000001
 40
0.0
 40
0.0
 40
0.0
 40
0.0
 40
0.25
 40
0.25
 40
0.5
 40
0.5
 40
0.75
 40
0.75
 40
1.0
 40
1.0
 40
1.0
 40
1.0
 10
9.185000000000043
 20
39.55586037564826
 30
0.0
 10
9.166077014827348
 20
39.62352088736706
 30
0.0
 10
9.151094003787225
 20
39.6866548381506
 30
0.0
 10
9.130454264739154
 20
39.80219042399343
 30
0.0
 10
9.125005258280275
 20
39.85431420703512
 30
0.0
 10
9.124994749585932
 20
39.94063266188756
 30
0.0
 10
9.130387799404701
 20
39.97604672364569
 30
0.0
 10
9.151056343351188
 20
40.02900089128497
 30
0.0
 10
9.166067460973915
 20
40.04657447734172
 30
0.0
 10
9.185000000000043
 20
40.05669352662249
 30
0.0
  0
SPLINE
  5
255
330
1F
100
AcDbEntity
  8
1
  6
SLD-Solid
370
    25
100
AcDbSpline
210
0.0
220
0.0
230
1.0
 70
    24
 71
     3
 72
     8
 73
     4
 74
     0
 42
0.000000001
 43
0.00000001
 40
0.0
 40
0.0
 40
0.0
 40
0.0
 40
1.0
 40
1.0
 40
1.0
 40
1.0
 10
9.185000000000027
 20
-29.84999999999999
 30
0.0
 10
8.751438636104433
 20
-29.84999999999997
 30
0.0
 10
8.311697968222523
 20
-29.84999999999995
 30
0.0
 10
7.866838492538109
 20
-29.84999999999993
 30
0.0
  0
SPLINE
  5
256
330
1F
100
AcDbEntity
  8
1
  6
SLD-Solid
370
    25
100
AcDbSpline
210
0.0
220
0.0
230
1.0
 70
    24
 71
     3
 72
     8
 73
     4
 74
     0
 42
0.000000001
 43
0.00000001
 40
0.0
 40
0.0
 40
0.0
 40
0.0
 40
1.0
 40
1.0
 40
1.0
 40
1.0
 10
8.234341192004196
 20
-12.89999999999999
 30
0.0
 10
8.551560425582888
 20
-12.89999999999999
 30
0.0
 10
8.868459357496278
 20
-12.89999999999999
 30
0.0
 10
9.185000000010824
 20
-12.89999999999999
 30
0.0
  0
SPLINE
  5
257
330
1F
100
AcDbEntity
  8
1
  6
SLD-Solid
370
    25
100
AcDbSpline
210
0.0
220
0.0
230
1.0
 70
    24
 71
     3
 72
     8
 73
     4
 74
     0
 42
0.000000001
 43
0.00000001
 40
0.0
 40
0.0
 40
0.0
 40
0.0
 40
0.2500000000000032
 40
0.2500000000000032
 40
0.2500000000000032
 40
0.2500000000000032
 10
9.935000000000027
 20
-29.84999999999999
 30
0.0
 10
9.820340523350692
 20
-29.84999999999999
 30
0.0
 10
9.70553816658236
 20
-29.84999999999999
 30
0.0
 10
9.609616921970321
 20
-29.84999999999999
 30
0.0
  0
SPLINE
  5
258
330
1F
100
AcDbEntity
  8
1
  6
SLD-Solid
370
    25
100
AcDbSpline
210
0.0
220
0.0
230
1.0
 70
    24
 71
     3
 72
     8
 73
     4
 74
     0
 42
0.000000001
 43
0.00000001
 40
0.2500000000000032
 40
0.2500000000000032
 40
0.2500000000000032
 40
0.2500000000000032
 40
0.5000000000000064
 40
0.5000000000000064
 40
0.5000000000000064
 40
0.5000000000000064
 10
9.609616921970321
 20
-29.84999999999999
 30
0.0
 10
9.51369567735827
 20
-29.84999999999999
 30
0.0
 10
9.43302761208184
 20
-29.84999999999999
 30
0.0
 10
9.37006710514418
 20
-29.84999999999998
 30
0.0
  0
SPLINE
  5
259
330
1F
100
AcDbEntity
  8
1
  6
SLD-Solid
370
    25
100
AcDbSpline
210
0.0
220
0.0
230
1.0
 70
    24
 71
     2
 72
     6
 73
     3
 74
     0
 42
0.000000001
 43
0.00000001
 40
0.5000000000000064
 40
0.5000000000000064
 40
0.5000000000000064
 40
1.0
 40
1.0
 40
1.0
 10
9.37006710514418
 20
-29.84999999999998
 30
0.0
 10
9.24414609126882
 20
-29.84999999999999
 30
0.0
 10
9.185000000000027
 20
-29.84999999999999
 30
0.0
  0
SPLINE
  5
25A
330
1F
100
AcDbEntity
  8
1
  6
SLD-Solid
370
    25
100
AcDbSpline
210
0.0
220
0.0
230
1.0
 70
    24
 71
     2
 72
     6
 73
     3
 74
     0
 42
0.000000001
 43
0.00000001
 40
0.0
 40
0.0
 40
0.0
 40
0.25
 40
0.25
 40
0.25
 10
9.185000000010824
 20
-12.89999999999999
 30
0.0
 10
9.203601876593067
 20
-12.89999999999999
 30
0.0
 10
9.240068320590073
 20
-12.89999999999999
 30
0.0
  0
SPLINE
  5
25B
330
1F
100
AcDbEntity
  8
1
  6
SLD-Solid
370
    25
100
AcDbSpline
210
0.0
220
0.0
230
1.0
 70
    24
 71
     3
 72
     8
 73
     4
 74
     0
 42
0.000000001
 43
0.00000001
 40
0.25
 40
0.25
 40
0.25
 40
0.25
 40
0.5
 40
0.5
 40
0.5
 40
0.5
 10
9.240068320590073
 20
-12.89999999999999
 30
0.0
 10
9.276534764587035
 20
-12.89999999999999
 30
0.0
 10
9.330551489263373
 20
-12.89999999999999
 30
0.0
 10
9.399054836955258
 20
-12.89999999999999
 30
0.0
  0
SPLINE
  5
25C
330
1F
100
AcDbEntity
  8
1
  6
SLD-Solid
370
    25
100
AcDbSpline
210
0.0
220
0.0
230
1.0
 70
    24
 71
     3
 72
     8
 73
     4
 74
     0
 42
0.000000001
 43
0.00000001
 40
0.5
 40
0.5
 40
0.5
 40
0.5
 40
0.75
 40
0.75
 40
0.75
 40
0.75
 10
9.399054836955258
 20
-12.89999999999999
 30
0.0
 10
9.467558184647146
 20
-12.89999999999999
 30
0.0
 10
9.550563536459542
 20
-12.89999999999999
 30
0.0
 10
9.642583854622785
 20
-12.89999999999999
 30
0.0
  0
SPLINE
  5
25D
330
1F
100
AcDbEntity
  8
1
  6
SLD-Solid
370
    25
100
AcDbSpline
210
0.0
220
0.0
230
1.0
 70
    24
 71
     3
 72
     8
 73
     4
 74
     0
 42
0.000000001
 43
0.00000001
 40
0.75
 40
0.75
 40
0.75
 40
0.75
 40
1.0
 40
1.0
 40
1.0
 40
1.0
 10
9.642583854622785
 20
-12.89999999999999
 30
0.0
 10
9.734604172785987
 20
-12.89999999999999
 30
0.0
 10
9.834060436043012
 20
-12.89999999999999
 30
0.0
 10
9.935000000010824
 20
-12.89999999999999
 30
0.0
  0
SPLINE
  5
25E
330
1F
100
AcDbEntity
  8
1
  6
SLD-Solid
370
    25
100
AcDbSpline
210
0.0
220
0.0
230
1.0
 70
     8
 71
     3
 72
    16
 73
    12
 74
     0
 42
0.000000001
 43
0.00000001
 40
0.0
 40
0.0
 40
0.0
 40
0.0
 40
0.1250000000000042
 40
0.1250000000000042
 40
0.2500000000000084
 40
0.2500000000000084
 40
0.5000000000000057
 40
0.5000000000000057
 40
0.7500000000000029
 40
0.7500000000000029
 40
1.0
 40
1.0
 40
1.0
 40
1.0
 10
13.01500000000022
 20
39.30311490451227
 30
0.0
 10
13.01500000000028
 20
39.24655565915698
 30
0.0
 10
13.00586006921499
 20
39.17830944263359
 30
0.0
 10
12.97905676333255
 20
39.04977723604748
 30
0.0
 10
12.96129813559535
 20
38.98690806704197
 30
0.0
 10
12.89984145231612
 20
38.80678665539445
 30
0.0
 10
12.84660313151967
 20
38.69393461636047
 30
0.0
 10
12.71966017294306
 20
38.48904308233719
 30
0.0
 10
12.6443585424849
 20
38.39463613366073
 30
0.0
 10
12.47036668863941
 20
38.23482595545542
 30
0.0
 10
12.37382816094074
 20
38.17053387081319
 30
0.0
 10
12.26500000000075
 20
38.12931107680433
 30
0.0
  0
SPLINE
  5
25F
330
1F
100
AcDbEntity
  8
1
  6
SLD-Solid
370
    25
100
AcDbSpline
210
0.0
220
0.0
230
1.0
 70
    24
 71
     2
 72
     6
 73
     3
 74
     0
 42
0.000000001
 43
0.00000001
 40
0.0
 40
0.0
 40
0.0
 40
0.25
 40
0.25
 40
0.25
 10
13.01500000000001
 20
12.90000000000001
 30
0.0
 10
12.99639812341778
 20
12.90000000000002
 30
0.0
 10
12.95993167942078
 20
12.90000000000001
 30
0.0
  0
SPLINE
  5
260
330
1F
100
AcDbEntity
  8
1
  6
SLD-Solid
370
    25
100
AcDbSpline
210
0.0
220
0.0
230
1.0
 70
    24
 71
     3
 72
     8
 73
     4
 74
     0
 42
0.000000001
 43
0.00000001
 40
0.25
 40
0.25
 40
0.25
 40
0.25
 40
0.5
 40
0.5
 40
0.5
 40
0.5
 10
12.95993167942078
 20
12.90000000000001
 30
0.0
 10
12.9234652354238
 20
12.90000000000001
 30
0.0
 10
12.86944851074745
 20
12.90000000000001
 30
0.0
 10
12.80094516305559
 20
12.90000000000001
 30
0.0
  0
SPLINE
  5
261
330
1F
100
AcDbEntity
  8
1
  6
SLD-Solid
370
    25
100
AcDbSpline
210
0.0
220
0.0
230
1.0
 70
    24
 71
     3
 72
     8
 73
     4
 74
     0
 42
0.000000001
 43
0.00000001
 40
0.5
 40
0.5
 40
0.5
 40
0.5
 40
0.75
 40
0.75
 40
0.75
 40
0.75
 10
12.80094516305559
 20
12.90000000000001
 30
0.0
 10
12.7324418153637
 20
12.90000000000001
 30
0.0
 10
12.64943646355129
 20
12.90000000000001
 30
0.0
 10
12.55741614538806
 20
12.90000000000001
 30
0.0
  0
SPLINE
  5
262
330
1F
100
AcDbEntity
  8
1
  6
SLD-Solid
370
    25
100
AcDbSpline
210
0.0
220
0.0
230
1.0
 70
    24
 71
     3
 72
     8
 73
     4
 74
     0
 42
0.000000001
 43
0.00000001
 40
0.75
 40
0.75
 40
0.75
 40
0.75
 40
1.0
 40
1.0
 40
1.0
 40
1.0
 10
12.55741614538806
 20
12.90000000000001
 30
0.0
 10
12.46539582722485
 20
12.90000000000001
 30
0.0
 10
12.36593956396782
 20
12.90000000000001
 30
0.0
 10
12.26500000000004
 20
12.90000000000001
 30
0.0
  0
SPLINE
  5
263
330
1F
100
AcDbEntity
  8
1
  6
SLD-Solid
370
    25
100
AcDbSpline
210
0.0
220
0.0
230
1.0
 70
    24
 71
     2
 72
     6
 73
     3
 74
     0
 42
0.000000001
 43
0.00000001
 40
0.0
 40
0.0
 40
0.0
 40
0.25
 40
0.25
 40
0.25
 10
13.01499999999997
 20
-29.84999999999999
 30
0.0
 10
13.00020717297598
 20
-29.85
 30
0.0
 10
12.96962321916154
 20
-29.84999999999998
 30
0.0
  0
SPLINE
  5
264
330
1F
100
AcDbEntity
  8
1
  6
SLD-Solid
370
    25
100
AcDbSpline
210
0.0
220
0.0
230
1.0
 70
    24
 71
     3
 72
     8
 73
     4
 74
     0
 42
0.000000001
 43
0.00000001
 40
0.25
 40
0.25
 40
0.25
 40
0.25
 40
0.5
 40
0.5
 40
0.5
 40
0.5
 10
12.96962321916158
 20
-29.84999999999998
 30
0.0
 10
12.93903926534711
 20
-29.84999999999998
 30
0.0
 10
12.89333758405233
 20
-29.84999999999999
 30
0.0
 10
12.83021435664256
 20
-29.84999999999999
 30
0.0
  0
SPLINE
  5
265
330
1F
100
AcDbEntity
  8
1
  6
SLD-Solid
370
    25
100
AcDbSpline
210
0.0
220
0.0
230
1.0
 70
    24
 71
     3
 72
     8
 73
     4
 74
     0
 42
0.000000001
 43
0.00000001
 40
0.5
 40
0.5
 40
0.5
 40
0.5
 40
0.75
 40
0.75
 40
0.75
 40
0.75
 10
12.83021435664256
 20
-29.84999999999999
 30
0.0
 10
12.76709112923277
 20
-29.84999999999999
 30
0.0
 10
12.6868579609392
 20
-29.84999999999999
 30
0.0
 10
12.58976767249419
 20
-29.84999999999999
 30
0.0
  0
SPLINE
  5
266
330
1F
100
AcDbEntity
  8
1
  6
SLD-Solid
370
    25
100
AcDbSpline
210
0.0
220
0.0
230
1.0
 70
    24
 71
     3
 72
     8
 73
     4
 74
     0
 42
0.000000001
 43
0.00000001
 40
0.75
 40
0.75
 40
0.75
 40
0.75
 40
1.0
 40
1.0
 40
1.0
 40
1.0
 10
12.58976767249419
 20
-29.84999999999999
 30
0.0
 10
12.49267738404916
 20
-29.84999999999999
 30
0.0
 10
12.37895818171271
 20
-29.84999999999999
 30
0.0
 10
12.26500000000004
 20
-29.84999999999999
 30
0.0
  0
SPLINE
  5
267
330
1F
100
AcDbEntity
  8
1
  6
SLD-Solid
370
    25
100
AcDbSpline
210
0.0
220
0.0
230
1.0
 70
    24
 71
     3
 72
     8
 73
     4
 74
     0
 42
0.000000001
 43
0.00000001
 40
0.0
 40
0.0
 40
0.0
 40
0.0
 40
0.2500000000000008
 40
0.2500000000000008
 40
0.2500000000000008
 40
0.2500000000000008
 10
12.26500000000004
 20
-12.89999999999999
 30
0.0
 10
12.36479485240284
 20
-12.9
 30
0.0
 10
12.4667593077671
 20
-12.89999999999999
 30
0.0
 10
12.55815215903129
 20
-12.89999999999999
 30
0.0
  0
SPLINE
  5
268
330
1F
100
AcDbEntity
  8
1
  6
SLD-Solid
370
    25
100
AcDbSpline
210
0.0
220
0.0
230
1.0
 70
    24
 71
     3
 72
     8
 73
     4
 74
     0
 42
0.000000001
 43
0.00000001
 40
0.2500000000000008
 40
0.2500000000000008
 40
0.2500000000000008
 40
0.2500000000000008
 40
0.5000000000000016
 40
0.5000000000000016
 40
0.5000000000000016
 40
0.5000000000000016
 10
12.55815215903129
 20
-12.89999999999999
 30
0.0
 10
12.64954501029553
 20
-12.89999999999999
 30
0.0
 10
12.73294761845943
 20
-12.9
 30
0.0
 10
12.80120263167391
 20
-12.9
 30
0.0
  0
SPLINE
  5
269
330
1F
100
AcDbEntity
  8
1
  6
SLD-Solid
370
    25
100
AcDbSpline
210
0.0
220
0.0
230
1.0
 70
    24
 71
     2
 72
     6
 73
     3
 74
     0
 42
0.000000001
 43
0.00000001
 40
0.5000000000000016
 40
0.5000000000000016
 40
0.5000000000000016
 40
1.0
 40
1.0
 40
1.0
 10
12.80120263167391
 20
-12.9
 30
0.0
 10
12.93771265810284
 20
-12.89999999999999
 30
0.0
 10
13.01500000000004
 20
-12.89999999999999
 30
0.0
  0
SPLINE
  5
26A
330
1F
100
AcDbEntity
  8
1
  6
SLD-Solid
370
    25
100
AcDbSpline
210
0.0
220
0.0
230
1.0
 70
     8
 71
     3
 72
    16
 73
    12
 74
     0
 42
0.000000001
 43
0.00000001
 40
0.0
 40
0.0
 40
0.0
 40
0.0
 40
0.25
 40
0.25
 40
0.5
 40
0.5
 40
0.75
 40
0.75
 40
0.875
 40
0.875
 40
1.0
 40
1.0
 40
1.0
 40
1.0
 10
9.935000000000027
 20
38.14886706715591
 30
0.0
 10
9.822927112807605
 20
38.19411269685003
 30
0.0
 10
9.723088154733967
 20
38.26478017262418
 30
0.0
 10
9.546705220420643
 20
38.43724018859999
 30
0.0
 10
9.472825657148604
 20
38.53625869432044
 30
0.0
 10
9.347249864258709
 20
38.75360567221603
 30
0.0
 10
9.296242842885647
 20
38.87115429308093
 30
0.0
 10
9.237643725572633
 20
39.05810815536004
 30
0.0
 10
9.220824084193904
 20
39.12309772989767
 30
0.0
 10
9.194849656953066
 20
39.25720308566076
 30
0.0
 10
9.184999999999999
 20
39.33199522173194
 30
0.0
 10
9.185000000000027
 20
39.39138037983661
 30
0.0
  0
SPLINE
  5
26B
330
1F
100
AcDbEntity
  8
1
  6
SLD-Solid
370
    25
100
AcDbSpline
210
0.0
220
0.0
230
1.0
 70
    24
 71
     3
 72
     8
 73
     4
 74
     0
 42
0.000000001
 43
0.00000001
 40
0.0
 40
0.0
 40
0.0
 40
0.0
 40
0.2499999999999992
 40
0.2499999999999992
 40
0.2499999999999992
 40
0.2499999999999992
 10
9.935000000000027
 20
12.90000000000001
 30
0.0
 10
9.83520514759724
 20
12.90000000000002
 30
0.0
 10
9.733240692232984
 20
12.90000000000001
 30
0.0
 10
9.641847840968747
 20
12.90000000000001
 30
0.0
  0
SPLINE
  5
26C
330
1F
100
AcDbEntity
  8
1
  6
SLD-Solid
370
    25
100
AcDbSpline
210
0.0
220
0.0
230
1.0
 70
    24
 71
     3
 72
     8
 73
     4
 74
     0
 42
0.000000001
 43
0.00000001
 40
0.2499999999999992
 40
0.2499999999999992
 40
0.2499999999999992
 40
0.2499999999999992
 40
0.4999999999999984
 40
0.4999999999999984
 40
0.4999999999999984
 40
0.4999999999999984
 10
9.641847840968747
 20
12.90000000000001
 30
0.0
 10
9.550454989704555
 20
12.90000000000001
 30
0.0
 10
9.467052381540608
 20
12.90000000000001
 30
0.0
 10
9.398797368326148
 20
12.90000000000001
 30
0.0
  0
SPLINE
  5
26D
330
1F
100
AcDbEntity
  8
1
  6
SLD-Solid
370
    25
100
AcDbSpline
210
0.0
220
0.0
230
1.0
 70
    24
 71
     2
 72
     6
 73
     3
 74
     0
 42
0.000000001
 43
0.00000001
 40
0.4999999999999984
 40
0.4999999999999984
 40
0.4999999999999984
 40
1.0
 40
1.0
 40
1.0
 10
9.398797368326148
 20
12.90000000000001
 30
0.0
 10
9.26228734189724
 20
12.90000000000002
 30
0.0
 10
9.184999999999999
 20
12.90000000000001
 30
0.0
  0
SPLINE
  5
26E
330
1F
100
AcDbEntity
  8
1
  6
SLD-Solid
370
    25
100
AcDbSpline
210
0.0
220
0.0
230
1.0
 70
     8
 71
     3
 72
    12
 73
     8
 74
     0
 42
0.000000001
 43
0.00000001
 40
0.0
 40
0.0
 40
0.0
 40
0.0
 40
0.25
 40
0.25
 40
0.5
 40
0.5
 40
1.0
 40
1.0
 40
1.0
 40
1.0
 10
12.26500000000075
 20
38.12931107680433
 30
0.0
 10
12.09322616456726
 20
38.06424522093556
 30
0.0
 10
11.90768141147939
 20
38.01484774987976
 30
0.0
 10
11.5093670878906
 20
37.94788844045218
 30
0.0
 10
11.30348131316256
 20
37.9317926435078
 30
0.0
 10
10.68100581585889
 20
37.93678402570061
 30
0.0
 10
10.27105315097431
 20
38.01319699736973
 30
0.0
 10
9.935000000000027
 20
38.14886706715591
 30
0.0
  0
SPLINE
  5
26F
330
1F
100
AcDbEntity
  8
1
  6
SLD-Solid
370
    25
100
AcDbSpline
210
0.0
220
0.0
230
1.0
 70
     8
 71
     3
 72
    12
 73
     8
 74
     0
 42
0.000000001
 43
0.00000001
 40
0.0
 40
0.0
 40
0.0
 40
0.0
 40
0.25
 40
0.25
 40
0.5
 40
0.5
 40
1.0
 40
1.0
 40
1.0
 40
1.0
 10
18.30000000000004
 20
-38.51107795167515
 30
0.0
 10
18.41247317381038
 20
-38.51107795167515
 30
0.0
 10
18.52309590071283
 20
-38.4780831763164
 30
0.0
 10
18.71564767712658
 20
-38.36332644818672
 30
0.0
 10
18.79771216328977
 20
-38.28221989494386
 30
0.0
 10
18.98948630081793
 20
-38.0071921597775
 30
0.0
 10
19.05000000000004
 20
-37.78082512575548
 30
0.0
 10
19.05000000000004
 20
-37.55766399817755
 30
0.0
  0
SPLINE
  5
270
330
1F
100
AcDbEntity
  8
1
  6
SLD-Solid
370
    25
100
AcDbSpline
210
0.0
220
0.0
230
1.0
 70
     8
 71
     3
 72
    16
 73
    12
 74
     0
 42
0.000000001
 43
0.00000001
 40
0.0
 40
0.0
 40
0.0
 40
0.0
 40
0.25
 40
0.25
 40
0.5
 40
0.5
 40
0.75
 40
0.75
 40
0.875
 40
0.875
 40
1.0
 40
1.0
 40
1.0
 40
1.0
 10
3.20000000000005
 20
-37.55766399817751
 30
0.0
 10
3.20000000000005
 20
-37.66997155677416
 30
0.0
 10
3.215211600272674
 20
-37.78097714464788
 30
0.0
 10
3.277125450375618
 20
-37.99510751759301
 30
0.0
 10
3.324391360501555
 20
-38.0987854105954
 30
0.0
 10
3.452253505555294
 20
-38.28218583388046
 30
0.0
 10
3.533292784974232
 20
-38.36267587044805
 30
0.0
 10
3.679166837997822
 20
-38.44964233790469
 30
0.0
 10
3.730166761843831
 20
-38.47204830911213
 30
0.0
 10
3.837219590814844
 20
-38.50285617985191
 30
0.0
 10
3.894124468199714
 20
-38.51107795167518
 30
0.0
 10
3.950000000000023
 20
-38.51107795167516
 30
0.0
  0
SPLINE
  5
271
330
1F
100
AcDbEntity
  8
1
  6
SLD-Solid
370
    25
100
AcDbSpline
210
0.0
220
0.0
230
1.0
 70
     8
 71
     3
 72
     8
 73
     4
 74
     0
 42
0.000000001
 43
0.00000001
 40
0.0
 40
0.0
 40
0.0
 40
0.0
 40
1.0
 40
1.0
 40
1.0
 40
1.0
 10
14.33316150746197
 20
-38.51107795167515
 30
0.0
 10
13.88822424534007
 20
-37.53603088918893
 30
0.0
 10
13.44831765806799
 20
-36.55813372824588
 30
0.0
 10
13.01500000000001
 20
-35.57844103980166
 30
0.0
  0
SPLINE
  5
272
330
1F
100
AcDbEntity
  8
1
  6
SLD-Solid
370
    25
100
AcDbSpline
210
0.0
220
0.0
230
1.0
 70
     8
 71
     3
 72
    14
 73
    10
 74
     0
 42
0.000000001
 43
0.00000001
 40
0.0
 40
0.0
 40
0.0
 40
0.0
 40
0.25
 40
0.25
 40
0.5
 40
0.5
 40
0.75
 40
0.75
 40
1.0
 40
1.0
 40
1.0
 40
1.0
 10
9.934999999999972
 20
-34.33988206153306
 30
0.0
 10
9.820633557571345
 20
-34.33988206153306
 30
0.0
 10
9.70571369493678
 20
-34.3769786178414
 30
0.0
 10
9.513519868648137
 20
-34.49944964875473
 30
0.0
 10
9.432800300690838
 20
-34.5845054989831
 30
0.0
 10
9.307407896813737
 20
-34.77394511172938
 30
0.0
 10
9.26091718858904
 20
-34.88072663029565
 30
0.0
 10
9.200196272178884
 20
-35.09915264033282
 30
0.0
 10
9.184999999999999
 20
-35.21395256553986
 30
0.0
 10
9.184999999999999
 20
-35.32760959929215
 30
0.0
  0
SPLINE
  5
273
330
1F
100
AcDbEntity
  8
1
  6
SLD-Solid
370
    25
100
AcDbSpline
210
0.0
220
0.0
230
1.0
 70
     8
 71
     3
 72
    14
 73
    10
 74
     0
 42
0.000000001
 43
0.00000001
 40
0.0
 40
0.0
 40
0.0
 40
0.0
 40
0.25
 40
0.25
 40
0.5
 40
0.5
 40
0.75
 40
0.75
 40
1.0
 40
1.0
 40
1.0
 40
1.0
 10
13.01500000000001
 20
-35.3276095992921
 30
0.0
 10
13.01499999999998
 20
-35.21356012789295
 30
0.0
 10
12.9997671284246
 20
-35.0989764122283
 30
0.0
 10
12.93905135379897
 20
-34.88065809290894
 30
0.0
 10
12.89250680873123
 20
-34.7737168210818
 30
0.0
 10
12.76676938660919
 20
-34.58395523231535
 30
0.0
 10
12.68590636195693
 20
-34.49890788723856
 30
0.0
 10
12.49333303611175
 20
-34.37654871247438
 30
0.0
 10
12.37892259690215
 20
-34.33988206153306
 30
0.0
 10
12.26500000000004
 20
-34.33988206153306
 30
0.0
  0
SPLINE
  5
274
330
1F
100
AcDbEntity
  8
1
  6
SLD-Solid
370
    25
100
AcDbSpline
210
0.0
220
0.0
230
1.0
 70
     8
 71
     3
 72
     8
 73
     4
 74
     0
 42
0.000000001
 43
0.00000001
 40
0.0
 40
0.0
 40
0.0
 40
0.0
 40
1.0
 40
1.0
 40
1.0
 40
1.0
 10
9.184999999999999
 20
-35.57844103980166
 30
0.0
 10
8.75148837124294
 20
-36.55857227872353
 30
0.0
 10
8.31171608151468
 20
-37.53616165846803
 30
0.0
 10
7.866838492538109
 20
-38.51107795167516
 30
0.0
  0
SPLINE
  5
275
330
1F
100
AcDbEntity
  8
1
  6
SLD-Solid
370
    25
100
AcDbSpline
210
0.0
220
0.0
230
1.0
 70
     8
 71
     3
 72
    16
 73
    12
 74
     0
 42
0.000000001
 43
0.00000001
 40
0.0
 40
0.0
 40
0.0
 40
0.0
 40
0.1249999999999981
 40
0.1249999999999981
 40
0.2499999999999962
 40
0.2499999999999962
 40
0.4999999999999974
 40
0.4999999999999974
 40
0.7499999999999987
 40
0.7499999999999987
 40
1.0
 40
1.0
 40
1.0
 40
1.0
 10
9.185000000000027
 20
39.89221353081092
 30
0.0
 10
9.184999999999999
 20
39.83180551181383
 30
0.0
 10
9.19494924791897
 20
39.79864857184548
 30
0.0
 10
9.221027119802022
 20
39.75467803290958
 30
0.0
 10
9.23759402235265
 20
39.742077502638
 30
0.0
 10
9.296462927450358
 20
39.71269323422126
 30
0.0
 10
9.346990256272017
 20
39.70586091992004
 30
0.0
 10
9.471582827246097
 20
39.70398564376432
 30
0.0
 10
9.547123345571146
 20
39.7099941709574
 30
0.0
 10
9.721968455709037
 20
39.74017606288736
 30
0.0
 10
9.823083693381474
 20
39.76450306316691
 30
0.0
 10
9.934999999999638
 20
39.80466441521306
 30
0.0
  0
SPLINE
  5
276
330
1F
100
AcDbEntity
  8
1
  6
SLD-Solid
370
    25
100
AcDbSpline
210
0.0
220
0.0
230
1.0
 70
     8
 71
     3
 72
    12
 73
     8
 74
     0
 42
0.000000001
 43
0.00000001
 40
0.0
 40
0.0
 40
0.0
 40
0.0
 40
0.2500000000000001
 40
0.2500000000000001
 40
0.5000000000000001
 40
0.5000000000000001
 40
1.0
 40
1.0
 40
1.0
 40
1.0
 10
9.934999999999652
 20
39.80466441521306
 30
0.0
 10
10.10302617041522
 20
39.86496088484255
 30
0.0
 10
10.28571921790675
 20
39.91081053559454
 30
0.0
 10
10.68010092317964
 20
39.97489200130349
 30
0.0
 10
10.88499449382976
 20
39.99175561556959
 30
0.0
 10
11.50744958687243
 20
39.99658742829645
 30
0.0
 10
11.92145100806195
 20
39.93739054899687
 30
0.0
 10
12.26500000000037
 20
39.82202427865097
 30
0.0
  0
SPLINE
  5
277
330
1F
100
AcDbEntity
  8
1
  6
SLD-Solid
370
    25
100
AcDbSpline
210
0.0
220
0.0
230
1.0
 70
     8
 71
     3
 72
    16
 73
    12
 74
     0
 42
0.000000001
 43
0.00000001
 40
0.0
 40
0.0
 40
0.0
 40
0.0
 40
0.2500000000000006
 40
0.2500000000000006
 40
0.5000000000000011
 40
0.5000000000000011
 40
0.7500000000000017
 40
0.7500000000000017
 40
0.8750000000000008
 40
0.8750000000000008
 40
1.0
 40
1.0
 40
1.0
 40
1.0
 10
12.26500000000037
 20
39.82202427865097
 30
0.0
 10
12.37355509804382
 20
39.78557068081724
 30
0.0
 10
12.47074395705851
 20
39.76448877839153
 30
0.0
 10
12.64564545169297
 20
39.74036264429567
 30
0.0
 10
12.71967183958082
 20
39.7378952399825
 30
0.0
 10
12.84711571690328
 20
39.74900052624801
 30
0.0
 10
12.90008820251282
 20
39.76180120288142
 30
0.0
 10
12.96162241617932
 20
39.80505571395002
 30
0.0
 10
12.97929092721346
 20
39.8235337713984
 30
0.0
 10
13.00610765690215
 20
39.88056016874548
 30
0.0
 10
13.01499999999919
 20
39.92057162469646
 30
0.0
 10
13.01500000000036
 20
39.97692959458089
 30
0.0
  0
SPLINE
  5
278
330
1F
100
AcDbEntity
  8
1
  6
SLD-Solid
370
    25
100
AcDbSpline
210
0.0
220
0.0
230
1.0
 70
     8
 71
     3
 72
    16
 73
    12
 74
     0
 42
0.000000001
 43
0.00000001
 40
0.0
 40
0.0
 40
0.0
 40
0.0
 40
0.2499999999999992
 40
0.2499999999999992
 40
0.4999999999999984
 40
0.4999999999999984
 40
0.7499999999999977
 40
0.7499999999999977
 40
0.8749999999999988
 40
0.8749999999999988
 40
1.0
 40
1.0
 40
1.0
 40
1.0
 10
9.935000000000027
 20
42.17954304986361
 30
0.0
 10
9.822927112807605
 20
42.21067580334898
 30
0.0
 10
9.723088154733967
 20
42.26767635105039
 30
0.0
 10
9.546705220420643
 20
42.41288255406236
 30
0.0
 10
9.472825657148604
 20
42.49876622342042
 30
0.0
 10
9.347249864258709
 20
42.690451607768
 30
0.0
 10
9.296242842885647
 20
42.79542552707611
 30
0.0
 10
9.237643725572605
 20
42.96630265926307
 30
0.0
 10
9.220824084193904
 20
43.02627752820796
 30
0.0
 10
9.194849656953066
 20
43.15383421674009
 30
0.0
 10
9.184999999999999
 20
43.22698596848039
 30
0.0
 10
9.185000000000027
 20
43.29208853924975
 30
0.0
  0
SPLINE
  5
279
330
1F
100
AcDbEntity
  8
1
  6
SLD-Solid
370
    25
100
AcDbSpline
210
0.0
220
0.0
230
1.0
 70
     8
 71
     3
 72
    16
 73
    12
 74
     0
 42
0.000000001
 43
0.00000001
 40
0.0
 40
0.0
 40
0.0
 40
0.0
 40
0.1250000000000043
 40
0.1250000000000043
 40
0.2500000000000085
 40
0.2500000000000085
 40
0.5000000000000057
 40
0.5000000000000057
 40
0.7500000000000029
 40
0.7500000000000029
 40
1.0
 40
1.0
 40
1.0
 40
1.0
 10
13.01500000000025
 20
43.23270724517743
 30
0.0
 10
13.0150000000003
 20
43.17070265697855
 30
0.0
 10
13.00586006921502
 20
43.10186588182881
 30
0.0
 10
12.97905676333258
 20
42.9765216599006
 30
0.0
 10
12.96129813559538
 20
42.91718490883588
 30
0.0
 10
12.89984145231615
 20
42.74935322881017
 30
0.0
 10
12.84660313151968
 20
42.64725186847218
 30
0.0
 10
12.71966017294307
 20
42.46453285154443
 30
0.0
 10
12.64435854248491
 20
42.38199332449958
 30
0.0
 10
12.47036668863941
 20
42.24654218628364
 30
0.0
 10
12.37382816094074
 20
42.19446751000937
 30
0.0
 10
12.26500000000075
 20
42.16608195554974
 30
0.0
  0
SPLINE
  5
27A
330
1F
100
AcDbEntity
  8
1
  6
SLD-Solid
370
    25
100
AcDbSpline
210
0.0
220
0.0
230
1.0
 70
     8
 71
     3
 72
    12
 73
     8
 74
     0
 42
0.000000001
 43
0.00000001
 40
0.0
 40
0.0
 40
0.0
 40
0.0
 40
0.25
 40
0.25
 40
0.5
 40
0.5
 40
1.0
 40
1.0
 40
1.0
 40
1.0
 10
12.26500000000075
 20
42.16608195554974
 30
0.0
 10
12.09322616456725
 20
42.12127833561982
 30
0.0
 10
11.90768141147938
 20
42.08710999063823
 30
0.0
 10
11.50936708789059
 20
42.04075031484302
 30
0.0
 10
11.30348131316254
 20
42.02957555117272
 30
0.0
 10
10.68100581585887
 20
42.03303734576941
 30
0.0
 10
10.27105315097426
 20
42.08619076663656
 30
0.0
 10
9.935000000000027
 20
42.17954304986361
 30
0.0
  0
SPLINE
  5
27B
330
1F
100
AcDbEntity
  8
1
  6
SLD-Solid
370
    25
100
AcDbSpline
210
0.0
220
0.0
230
1.0
 70
     8
 71
     3
 72
    16
 73
    12
 74
     0
 42
0.000000001
 43
0.00000001
 40
0.0
 40
0.0
 40
0.0
 40
0.0
 40
0.1249999999999996
 40
0.1249999999999996
 40
0.2499999999999992
 40
0.2499999999999992
 40
0.4999999999999994
 40
0.4999999999999994
 40
0.7499999999999997
 40
0.7499999999999997
 40
1.0
 40
1.0
 40
1.0
 40
1.0
 10
9.185000000000043
 20
43.62467565158781
 30
0.0
 10
9.185000000000016
 20
43.55845174215803
 30
0.0
 10
9.19494924791899
 20
43.51317737736861
 30
0.0
 10
9.22102711980204
 20
43.44545507782679
 30
0.0
 10
9.237594022352667
 20
43.42053926449731
 30
0.0
 10
9.296462927450378
 20
43.35409880669607
 30
0.0
 10
9.346990256272036
 20
43.32297578185455
 30
0.0
 10
9.471582827246115
 20
43.27462103619405
 30
0.0
 10
9.547123345571164
 20
43.25802459395101
 30
0.0
 10
9.721968455709055
 20
43.24761395753959
 30
0.0
 10
9.823083693381491
 20
43.25351978410223
 30
0.0
 10
9.934999999999656
 20
43.27910456558163
 30
0.0
  0
SPLINE
  5
27C
330
1F
100
AcDbEntity
  8
1
  6
SLD-Solid
370
    25
100
AcDbSpline
210
0.0
220
0.0
230
1.0
 70
     8
 71
     3
 72
    12
 73
     8
 74
     0
 42
0.000000001
 43
0.00000001
 40
0.0
 40
0.0
 40
0.0
 40
0.0
 40
0.2500000000000001
 40
0.2500000000000001
 40
0.5000000000000001
 40
0.5000000000000001
 40
1.0
 40
1.0
 40
1.0
 40
1.0
 10
9.934999999999652
 20
43.27910456558163
 30
0.0
 10
10.10302617041521
 20
43.31751641978617
 30
0.0
 10
10.28571921790673
 20
43.34653483981713
 30
0.0
 10
10.68010092317964
 20
43.38702561423715
 30
0.0
 10
10.88499449382975
 20
43.39763533143927
 30
0.0
 10
11.50744958687241
 20
43.40067900154551
 30
0.0
 10
11.92145100806194
 20
43.36357812201405
 30
0.0
 10
12.26500000000036
 20
43.2901580969223
 30
0.0
  0
SPLINE
  5
27D
330
1F
100
AcDbEntity
  8
1
  6
SLD-Solid
370
    25
100
AcDbSpline
210
0.0
220
0.0
230
1.0
 70
     8
 71
     3
 72
    16
 73
    12
 74
     0
 42
0.000000001
 43
0.00000001
 40
0.0
 40
0.0
 40
0.0
 40
0.0
 40
0.2499999999999984
 40
0.2499999999999984
 40
0.4999999999999969
 40
0.4999999999999969
 40
0.7499999999999953
 40
0.7499999999999953
 40
0.8749999999999977
 40
0.8749999999999977
 40
1.0
 40
1.0
 40
1.0
 40
1.0
 10
12.26500000000036
 20
43.2901580969223
 30
0.0
 10
12.3735550980438
 20
43.26695873319483
 30
0.0
 10
12.47074395705849
 20
43.26235899163554
 30
0.0
 10
12.64564545169296
 20
43.27591060557427
 30
0.0
 10
12.71967183958084
 20
43.29383757058005
 30
0.0
 10
12.84711571690325
 20
43.34809746875681
 30
0.0
 10
12.90008820251277
 20
43.38366693376611
 30
0.0
 10
12.96162241617928
 20
43.46078225943249
 30
0.0
 10
12.97929092721341
 20
43.49058709032899
 30
0.0
 10
13.0061076569021
 20
43.56868994680554
 30
0.0
 10
13.01499999999914
 20
43.6183818735672
 30
0.0
 10
13.0150000000003
 20
43.68016580813884
 30
0.0
  0
SPLINE
  5
27E
330
1F
100
AcDbEntity
  8
SK3
  6
SLD-Dashed
370
    18
100
AcDbSpline
210
0.0
220
0.0
230
1.0
 70
     8
 71
     3
 72
    14
 73
    10
 74
     0
 42
0.000000001
 43
0.00000001
 40
0.0
 40
0.0
 40
0.0
 40
0.0
 40
0.25
 40
0.25
 40
0.5
 40
0.5
 40
0.75
 40
0.75
 40
1.0
 40
1.0
 40
1.0
 40
1.0
 10
11.12500000000002
 20
36.37282513745436
 30
0.0
 10
10.95510255201387
 20
36.49755846446504
 30
0.0
 10
10.80413223948144
 20
36.6274711611498
 30
0.0
 10
10.52214438169091
 20
36.88947232664116
 30
0.0
 10
10.39179773006399
 20
37.02128304305728
 30
0.0
 10
10.15177721550009
 20
37.26988592336603
 30
0.0
 10
10.04079455691605
 20
37.38822897146936
 30
0.0
 10
9.834048307797216
 20
37.60189839267142
 30
0.0
 10
9.73868023764049
 20
37.69716837636241
 30
0.0
 10
9.658636251301825
 20
37.76293197645657
 30
0.0
  0
SPLINE
  5
27F
330
1F
100
AcDbEntity
  8
SK3
  6
SLD-Dashed
370
    18
100
AcDbSpline
210
0.0
220
0.0
230
1.0
 70
     8
 71
     3
 72
    34
 73
    30
 74
     0
 42
0.000000001
 43
0.00000001
 40
0.4999999999999981
 40
0.4999999999999981
 40
0.4999999999999981
 40
0.4999999999999981
 40
0.5312499999999982
 40
0.5312499999999982
 40
0.5624999999999984
 40
0.5624999999999984
 40
0.5937499999999986
 40
0.5937499999999986
 40
0.6249999999999988
 40
0.6249999999999988
 40
0.6562499999999989
 40
0.6562499999999989
 40
0.6874999999999991
 40
0.6874999999999991
 40
0.7500000000000003
 40
0.7500000000000003
 40
0.8125000000000009
 40
0.8125000000000009
 40
0.8437500000000007
 40
0.8437500000000007
 40
0.8750000000000006
 40
0.8750000000000006
 40
0.9062500000000003
 40
0.9062500000000003
 40
0.9375000000000002
 40
0.9375000000000002
 40
0.96875
 40
0.96875
 40
1.0
 40
1.0
 40
1.0
 40
1.0
 10
9.63880574216186
 20
32.19129043573683
 30
0.0
 10
9.693881160736453
 20
32.23157751092005
 30
0.0
 10
9.7631792831568
 20
32.26921429432826
 30
0.0
 10
9.923515798150193
 20
32.32958290451104
 30
0.0
 10
10.01390276352475
 20
32.35241500026227
 30
0.0
 10
10.21445694949233
 20
32.37489741515787
 30
0.0
 10
10.32267837600236
 20
32.37378147714016
 30
0.0
 10
10.54307526498147
 20
32.34062718608097
 30
0.0
 10
10.65791658596851
 20
32.30771821033174
 30
0.0
 10
10.87819871141013
 20
32.2134825139368
 30
0.0
 10
10.98608094611163
 20
32.15157619417783
 30
0.0
 10
11.18968749579616
 20
32.00863636704973
 30
0.0
 10
11.28527842069105
 20
31.92823869877104
 30
0.0
 10
11.55898297450239
 20
31.66795878343481
 30
0.0
 10
11.72337034356713
 20
31.46997852532646
 30
0.0
 10
12.02194861504779
 20
31.06299895637957
 30
0.0
 10
12.15920875119778
 20
30.84956052523374
 30
0.0
 10
12.34760730605772
 20
30.52640705891708
 30
0.0
 10
12.40688352391467
 20
30.41908264469062
 30
0.0
 10
12.51780294837562
 20
30.20658168512218
 30
0.0
 10
12.56969006353055
 20
30.10080821476088
 30
0.0
 10
12.65991931900851
 20
29.90138366001593
 30
0.0
 10
12.69929072119655
 20
29.80535681492055
 30
0.0
 10
12.75586568636485
 20
29.64015608796765
 30
0.0
 10
12.77303399215497
 20
29.57020676658415
 30
0.0
 10
12.77663319740262
 20
29.478003939024
 30
0.0
 10
12.76306993948378
 20
29.45487039127589
 30
0.0
 10
12.71170841969947
 20
29.45244492171173
 30
0.0
 10
12.67469993892519
 20
29.47167950744221
 30
0.0
 10
12.63040931107554
 20
29.50419628407755
 30
0.0
  0
SPLINE
  5
280
330
1F
100
AcDbEntity
  8
SK3
  6
SLD-Dashed
370
    18
100
AcDbSpline
210
0.0
220
0.0
230
1.0
 70
     8
 71
     3
 72
    26
 73
    22
 74
     0
 42
0.000000001
 43
0.00000001
 40
0.0
 40
0.0
 40
0.0
 40
0.0
 40
0.0624999999999994
 40
0.0624999999999994
 40
0.1249999999999989
 40
0.1249999999999989
 40
0.1874999999999983
 40
0.1874999999999983
 40
0.2499999999999978
 40
0.2499999999999978
 40
0.2812499999999979
 40
0.2812499999999979
 40
0.312499999999998
 40
0.312499999999998
 40
0.3749999999999979
 40
0.3749999999999979
 40
0.4374999999999978
 40
0.4374999999999978
 40
0.4687499999999979
 40
0.4687499999999979
 40
0.4999999999999981
 40
0.4999999999999981
 40
0.4999999999999981
 40
0.4999999999999981
 10
12.63040931107554
 20
29.50419628407755
 30
0.0
 10
12.54182805537624
 20
29.56922983734821
 30
0.0
 10
12.43200682775367
 20
29.67899557877066
 30
0.0
 10
12.18419932759148
 20
29.93535638858198
 30
0.0
 10
12.04834522926908
 20
30.08096576732773
 30
0.0
 10
11.75314013646113
 20
30.3825175627251
 30
0.0
 10
11.59091385222408
 20
30.5419100901644
 30
0.0
 10
11.23004729019493
 20
30.8521708169034
 30
0.0
 10
11.02728334192531
 20
31.00451848955002
 30
0.0
 10
10.69987000905166
 20
31.19963662276307
 30
0.0
 10
10.58531472788922
 20
31.26003536502948
 30
0.0
 10
10.36396153134607
 20
31.3658039777025
 30
0.0
 10
10.2544996195266
 20
31.41274445972017
 30
0.0
 10
9.947578697971151
 20
31.5415097389696
 30
0.0
 10
9.77664657830704
 20
31.6116701385396
 30
0.0
 10
9.542451961566112
 20
31.76274178576534
 30
0.0
 10
9.478612055377909
 20
31.84383597383259
 30
0.0
 10
9.473421112414309
 20
31.97451528399275
 30
0.0
 10
9.48634589865273
 20
32.01862897111976
 30
0.0
 10
9.541390615621134
 20
32.10704074609451
 30
0.0
 10
9.583730323587252
 20
32.15100336055362
 30
0.0
 10
9.63880574216186
 20
32.19129043573683
 30
0.0
  0
SPLINE
  5
281
330
1F
100
AcDbEntity
  8
SK3
  6
SLD-Dashed
370
    18
100
AcDbSpline
210
0.0
220
0.0
230
1.0
 70
     8
 71
     3
 72
    28
 73
    24
 74
     0
 42
0.000000001
 43
0.00000001
 40
0.4999999999999972
 40
0.4999999999999972
 40
0.4999999999999972
 40
0.4999999999999972
 40
0.5624999999999972
 40
0.5624999999999972
 40
0.6249999999999972
 40
0.6249999999999972
 40
0.6562499999999972
 40
0.6562499999999972
 40
0.6874999999999972
 40
0.6874999999999972
 40
0.7499999999999976
 40
0.7499999999999976
 40
0.7812499999999979
 40
0.7812499999999979
 40
0.8124999999999982
 40
0.8124999999999982
 40
0.8437499999999986
 40
0.8437499999999986
 40
0.8749999999999989
 40
0.8749999999999989
 40
0.9374999999999994
 40
0.9374999999999994
 40
1.0
 40
1.0
 40
1.0
 40
1.0
 10
11.12563994677773
 20
9.179805819705164
 30
0.0
 10
10.91011437826828
 20
9.179764731078546
 30
0.0
 10
10.69267832081877
 20
9.20126512292449
 30
0.0
 10
10.29539433374757
 20
9.280173808064271
 30
0.0
 10
10.11161083741968
 20
9.338138102846456
 30
0.0
 10
9.88325182468605
 20
9.440065379806336
 30
0.0
 10
9.813576404990268
 20
9.477149305158472
 30
0.0
 10
9.693865269254962
 20
9.553080163044125
 30
0.0
 10
9.643080695444493
 20
9.592168311290692
 30
0.0
 10
9.518376272655505
 20
9.71175247728382
 30
0.0
 10
9.475181111458022
 20
9.791639621509404
 30
0.0
 10
9.474910292357322
 20
9.90356759643505
 30
0.0
 10
9.485525364944749
 20
9.938682643755143
 30
0.0
 10
9.527361606435274
 20
10.00486157884362
 30
0.0
 10
9.559127008594112
 20
10.0362308651093
 30
0.0
 10
9.641761891656554
 20
10.09321537097387
 30
0.0
 10
9.692357839890754
 20
10.11892320032907
 30
0.0
 10
9.812049538608994
 20
10.16555473396259
 30
0.0
 10
9.881502934081798
 20
10.18644292145535
 30
0.0
 10
10.10915986245246
 20
10.24048736872273
 30
0.0
 10
10.292898116154
 20
10.26651718042255
 30
0.0
 10
10.68970419067461
 20
10.30022487924512
 30
0.0
 10
10.90662329216496
 20
10.3084722316789
 30
0.0
 10
11.12500000000002
 20
10.3084722316789
 30
0.0
  0
SPLINE
  5
282
330
1F
100
AcDbEntity
  8
SK3
  6
SLD-Dashed
370
    18
100
AcDbSpline
210
0.0
220
0.0
230
1.0
 70
     8
 71
     3
 72
    32
 73
    28
 74
     0
 42
0.000000001
 43
0.00000001
 40
0.0
 40
0.0
 40
0.0
 40
0.0
 40
0.0312499999999997
 40
0.0312499999999997
 40
0.0624999999999993
 40
0.0624999999999993
 40
0.093749999999999
 40
0.093749999999999
 40
0.1249999999999986
 40
0.1249999999999986
 40
0.1874999999999982
 40
0.1874999999999982
 40
0.2499999999999978
 40
0.2499999999999978
 40
0.2812499999999976
 40
0.2812499999999976
 40
0.3124999999999975
 40
0.3124999999999975
 40
0.3749999999999973
 40
0.3749999999999973
 40
0.4062499999999973
 40
0.4062499999999973
 40
0.4374999999999973
 40
0.4374999999999973
 40
0.4687499999999973
 40
0.4687499999999973
 40
0.4999999999999972
 40
0.4999999999999972
 40
0.4999999999999972
 40
0.4999999999999972
 10
11.12500000000002
 20
10.3084722316789
 30
0.0
 10
11.23418835391757
 20
10.30847223167889
 30
0.0
 10
11.34151771305071
 20
10.30642167162258
 30
0.0
 10
11.55262120394283
 20
10.29821030754582
 30
0.0
 10
11.65750189121388
 20
10.29194428668544
 30
0.0
 10
11.85723206661291
 20
10.27502374362114
 30
0.0
 10
11.95193470175497
 20
10.26444756624655
 30
0.0
 10
12.13116276605224
 20
10.23832625336567
 30
0.0
 10
12.21588967371723
 20
10.22264232876808
 30
0.0
 10
12.44379001739924
 20
10.16862580338098
 30
0.0
 10
12.56667185323998
 20
10.12171939803712
 30
0.0
 10
12.73136644254866
 20
10.0084655983755
 30
0.0
 10
12.77487701797393
 20
9.940762454420785
 30
0.0
 10
12.77506109004672
 20
9.830188859982645
 30
0.0
 10
12.76431049884447
 20
9.791131049316636
 30
0.0
 10
12.72214619983565
 20
9.71260150459282
 30
0.0
 10
12.69095101562508
 20
9.672920129814647
 30
0.0
 10
12.56679369836863
 20
9.553356030122155
 30
0.0
 10
12.44575253795671
 20
9.475480834566119
 30
0.0
 10
12.21525712142207
 20
9.37237287459778
 30
0.0
 10
12.1321191845532
 20
9.341110472901606
 30
0.0
 10
11.95362050550958
 20
9.28545275449008
 30
0.0
 10
11.85708682777024
 20
9.260851367286064
 30
0.0
 10
11.65747886509291
 20
9.221112207445612
 30
0.0
 10
11.55463804660008
 20
9.205875681199489
 30
0.0
 10
11.34287187764579
 20
9.18517244604257
 30
0.0
 10
11.23340273103247
 20
9.179826364018464
 30
0.0
 10
11.12563994677773
 20
9.179805819705164
 30
0.0
  0
SPLINE
  5
283
330
1F
100
AcDbEntity
  8
SK3
  6
SLD-Dashed
370
    18
100
AcDbSpline
210
0.0
220
0.0
230
1.0
 70
     8
 71
     3
 72
    28
 73
    24
 74
     0
 42
0.000000001
 43
0.00000001
 40
0.4999999999999963
 40
0.4999999999999963
 40
0.4999999999999963
 40
0.4999999999999963
 40
0.5624999999999964
 40
0.5624999999999964
 40
0.6249999999999966
 40
0.6249999999999966
 40
0.6562499999999969
 40
0.6562499999999969
 40
0.6874999999999971
 40
0.6874999999999971
 40
0.7499999999999978
 40
0.7499999999999978
 40
0.7812499999999981
 40
0.7812499999999981
 40
0.8124999999999984
 40
0.8124999999999984
 40
0.8437499999999987
 40
0.8437499999999987
 40
0.874999999999999
 40
0.874999999999999
 40
0.9374999999999996
 40
0.9374999999999996
 40
1.0
 40
1.0
 40
1.0
 40
1.0
 10
11.12436005322233
 20
-10.30847220779006
 30
0.0
 10
11.33988562173178
 20
-10.30848829867283
 30
0.0
 10
11.55732167918129
 20
-10.30038291810949
 30
0.0
 10
11.95460566625246
 20
-10.26682253963408
 30
0.0
 10
12.13838916258038
 20
-10.24091814244865
 30
0.0
 10
12.36674817531397
 20
-10.1869321671529
 30
0.0
 10
12.43642359500978
 20
-10.16604649126496
 30
0.0
 10
12.55613473074507
 20
-10.11961101162701
 30
0.0
 10
12.60691930455556
 20
-10.09396314355892
 30
0.0
 10
12.73162372734456
 20
-10.00844657689388
 30
0.0
 10
12.77481888854203
 20
-9.94175795749265
 30
0.0
 10
12.77508970764271
 20
-9.82990996445872
 30
0.0
 10
12.76447463505528
 20
-9.791631368429531
 30
0.0
 10
12.72263839356475
 20
-9.713326598996652
 30
0.0
 10
12.69087299140596
 20
-9.672843473092156
 30
0.0
 10
12.60823810834349
 20
-9.593268717647867
 30
0.0
 10
12.55764216010931
 20
-9.554155622927107
 30
0.0
 10
12.43795046139107
 20
-9.478001434160637
 30
0.0
 10
12.36849706591824
 20
-9.440948896913396
 30
0.0
 10
12.1408401375476
 20
-9.339030254466135
 30
0.0
 10
11.95710188384609
 20
-9.280862582071121
 30
0.0
 10
11.56029580932545
 20
-9.201665512708312
 30
0.0
 10
11.34337670783508
 20
-9.17980575870419
 30
0.0
 10
11.12500000000005
 20
-9.179805758704203
 30
0.0
  0
SPLINE
  5
284
330
1F
100
AcDbEntity
  8
SK3
  6
SLD-Dashed
370
    18
100
AcDbSpline
210
0.0
220
0.0
230
1.0
 70
     8
 71
     3
 72
    32
 73
    28
 74
     0
 42
0.000000001
 43
0.00000001
 40
0.0
 40
0.0
 40
0.0
 40
0.0
 40
0.0312499999999997
 40
0.0312499999999997
 40
0.0624999999999995
 40
0.0624999999999995
 40
0.0937499999999992
 40
0.0937499999999992
 40
0.1249999999999989
 40
0.1249999999999989
 40
0.1874999999999984
 40
0.1874999999999984
 40
0.2499999999999978
 40
0.2499999999999978
 40
0.2812499999999977
 40
0.2812499999999977
 40
0.3124999999999976
 40
0.3124999999999976
 40
0.3749999999999971
 40
0.3749999999999971
 40
0.4062499999999969
 40
0.4062499999999969
 40
0.4374999999999967
 40
0.4374999999999967
 40
0.4687499999999965
 40
0.4687499999999965
 40
0.4999999999999963
 40
0.4999999999999963
 40
0.4999999999999963
 40
0.4999999999999963
 10
11.12500000000005
 20
-9.179805758704216
 30
0.0
 10
11.01581164608251
 20
-9.179805758704203
 30
0.0
 10
10.90848228694938
 20
-9.185095698610874
 30
0.0
 10
10.69737879605725
 20
-9.205623744994153
 30
0.0
 10
10.59249810878621
 20
-9.221113825588809
 30
0.0
 10
10.39276793338714
 20
-9.26088325084879
 30
0.0
 10
10.29806529824512
 20
-9.284980824838126
 30
0.0
 10
10.1188372339478
 20
-9.340759316938257
 30
0.0
 10
10.03411032628282
 20
-9.372667784685554
 30
0.0
 10
9.806209982600816
 20
-9.474579092729876
 30
0.0
 10
9.683328146760095
 20
-9.553409324848342
 30
0.0
 10
9.518633557451404
 20
-9.71167087908105
 30
0.0
 10
9.475122982026129
 20
-9.792652292130292
 30
0.0
 10
9.474938909953352
 20
-9.903280249185965
 30
0.0
 10
9.485689501155608
 20
-9.939134189522601
 30
0.0
 10
9.527853800164424
 20
-10.00544523446514
 30
0.0
 10
9.559048984374957
 20
-10.03617560862045
 30
0.0
 10
9.683206301631428
 20
-10.12179808298894
 30
0.0
 10
9.80424746204335
 20
-10.16814285650724
 30
0.0
 10
10.03474287857799
 20
-10.2228011319002
 30
0.0
 10
10.11788081544686
 20
-10.23815463549888
 30
0.0
 10
10.29637949449048
 20
-10.26423362425849
 30
0.0
 10
10.39291317222984
 20
-10.27503749928641
 30
0.0
 10
10.59252113490715
 20
-10.29194478470053
 30
0.0
 10
10.69536195339998
 20
-10.29810859820632
 30
0.0
 10
10.90712812235427
 20
-10.30639189048089
 30
0.0
 10
11.01659726896759
 20
-10.30846416234867
 30
0.0
 10
11.12436005322233
 20
-10.30847220779006
 30
0.0
  0
SPLINE
  5
285
330
1F
100
AcDbEntity
  8
SK3
  6
SLD-Dashed
370
    18
100
AcDbSpline
210
0.0
220
0.0
230
1.0
 70
     8
 71
     3
 72
    26
 73
    22
 74
     0
 42
0.000000001
 43
0.00000001
 40
0.4999999999999964
 40
0.4999999999999964
 40
0.4999999999999964
 40
0.4999999999999964
 40
0.5624999999999969
 40
0.5624999999999969
 40
0.6249999999999974
 40
0.6249999999999974
 40
0.6562499999999978
 40
0.6562499999999978
 40
0.6874999999999981
 40
0.6874999999999981
 40
0.7187499999999984
 40
0.7187499999999984
 40
0.7499999999999988
 40
0.7499999999999988
 40
0.8124999999999991
 40
0.8124999999999991
 40
0.8749999999999993
 40
0.8749999999999993
 40
0.9374999999999997
 40
0.9374999999999997
 40
1.0
 40
1.0
 40
1.0
 40
1.0
 10
11.63869831779576
 20
-31.56306932985757
 30
0.0
 10
11.80317915771358
 20
-31.37035990120093
 30
0.0
 10
11.95081782962328
 20
-31.16533134063162
 30
0.0
 10
12.22616299685263
 20
-30.74122777511377
 30
0.0
 10
12.35236515469933
 20
-30.52367301653575
 30
0.0
 10
12.51874661426351
 20
-30.20470121479793
 30
0.0
 10
12.57051953396265
 20
-30.0990801988315
 30
0.0
 10
12.66070184098399
 20
-29.89954695616191
 30
0.0
 10
12.70001796005857
 20
-29.80347596175896
 30
0.0
 10
12.75624339139557
 20
-29.63880566600627
 30
0.0
 10
12.77323165300576
 20
-29.56914271449561
 30
0.0
 10
12.77649462889749
 20
-29.47748469657316
 30
0.0
 10
12.76278670669286
 20
-29.45459867980841
 30
0.0
 10
12.68516730486985
 20
-29.45171544255328
 30
0.0
 10
12.58996305158953
 20
-29.52971643948114
 30
0.0
 10
12.37315603453723
 20
-29.73679020891025
 30
0.0
 10
12.24747178673939
 20
-29.87018783438887
 30
0.0
 10
11.9767673751945
 20
-30.15429521760488
 30
0.0
 10
11.83102686354769
 20
-30.30649386829487
 30
0.0
 10
11.50508373269932
 20
-30.61857245328281
 30
0.0
 10
11.32747339457481
 20
-30.77613729640866
 30
0.0
 10
11.125
 20
-30.92478685198364
 30
0.0
  0
SPLINE
  5
286
330
1F
100
AcDbEntity
  8
SK3
  6
SLD-Dashed
370
    18
100
AcDbSpline
210
0.0
220
0.0
230
1.0
 70
     8
 71
     3
 72
    34
 73
    30
 74
     0
 42
0.000000001
 43
0.00000001
 40
0.0
 40
0.0
 40
0.0
 40
0.0
 40
0.0312499999999997
 40
0.0312499999999997
 40
0.0624999999999994
 40
0.0624999999999994
 40
0.0937499999999991
 40
0.0937499999999991
 40
0.1249999999999988
 40
0.1249999999999988
 40
0.1562499999999984
 40
0.1562499999999984
 40
0.1874999999999981
 40
0.1874999999999981
 40
0.2187499999999978
 40
0.2187499999999978
 40
0.2499999999999975
 40
0.2499999999999975
 40
0.2812499999999972
 40
0.2812499999999972
 40
0.3124999999999969
 40
0.3124999999999969
 40
0.374999999999996
 40
0.374999999999996
 40
0.4062499999999959
 40
0.4062499999999959
 40
0.4374999999999959
 40
0.4374999999999959
 40
0.4999999999999964
 40
0.4999999999999964
 40
0.4999999999999964
 40
0.4999999999999964
 10
11.12500000000001
 20
-30.92478685198365
 30
0.0
 10
11.02376330271263
 20
-30.99911162977115
 30
0.0
 10
10.91875434041335
 20
-31.06918246706594
 30
0.0
 10
10.69982193729478
 20
-31.19967784555922
 30
0.0
 10
10.58565504429783
 20
-31.25986162856756
 30
0.0
 10
10.36433306908847
 20
-31.36563753506069
 30
0.0
 10
10.25386240054303
 20
-31.41301334227885
 30
0.0
 10
10.04998753866611
 20
-31.4985436936695
 30
0.0
 10
9.955887873020943
 20
-31.53721938604292
 30
0.0
 10
9.789076352163544
 20
-31.61306890802559
 30
0.0
 10
9.718022202672069
 20
-31.64945793931156
 30
0.0
 10
9.60053600143318
 20
-31.72530267218228
 30
0.0
 10
9.55515968390121
 20
-31.76427557223037
 30
0.0
 10
9.493538953914321
 20
-31.84507981076789
 30
0.0
 10
9.476799814585991
 20
-31.88784189836594
 30
0.0
 10
9.473480888754702
 20
-31.97463736459705
 30
0.0
 10
9.486354225371864
 20
-32.01879313228594
 30
0.0
 10
9.5419066097905
 20
-32.10771730686714
 30
0.0
 10
9.583939125903871
 20
-32.15120974488261
 30
0.0
 10
9.69436138573969
 20
-32.23187480669672
 30
0.0
 10
9.764046986917439
 20
-32.26960535827384
 30
0.0
 10
10.00399120049187
 20
-32.35975330146552
 30
0.0
 10
10.21277179464278
 20
-32.39049911403593
 30
0.0
 10
10.54446991129021
 20
-32.34032454754477
 30
0.0
 10
10.65925898590069
 20
-32.30725904576015
 30
0.0
 10
10.87934718809666
 20
-32.21287478263188
 30
0.0
 10
10.98764418607863
 20
-32.15058765642995
 30
0.0
 10
11.29210738731391
 20
-31.93651370655712
 30
0.0
 10
11.47421747787798
 20
-31.75577875851421
 30
0.0
 10
11.63869831779576
 20
-31.56306932985757
 30
0.0
  0
SPLINE
  5
287
330
1F
100
AcDbEntity
  8
SK3
  6
SLD-Dashed
370
    18
100
AcDbSpline
210
0.0
220
0.0
230
1.0
 70
     8
 71
     3
 72
    15
 73
    11
 74
     0
 42
0.000000001
 43
0.00000001
 40
0.0
 40
0.0
 40
0.0
 40
0.0
 40
0.1143598845380925
 40
0.2290293313738546
 40
0.33513136541664
 40
0.4565391682433584
 40
0.6509025242618686
 40
0.8619846106763934
 40
0.972044179642329
 40
1.0
 40
1.0
 40
1.0
 40
1.0
 10
12.63040931107551
 20
-35.58296800165351
 30
0.0
 10
12.54249734328072
 20
-35.63471383919958
 30
0.0
 10
12.3664354376123
 20
-35.73834558578994
 30
0.0
 10
11.94143927865687
 20
-35.90107050618703
 30
0.0
 10
11.46496843667384
 20
-36.13396701083254
 30
0.0
 10
10.92298979803016
 20
-36.5048114904245
 30
0.0
 10
10.37891603454011
 20
-37.02556658552049
 30
0.0
 10
9.960926880310804
 20
-37.47033023910254
 30
0.0
 10
9.706512357214105
 20
-37.73598274913451
 30
0.0
 10
9.644197805886447
 20
-37.76893407543027
 30
0.0
 10
9.631575630844061
 20
-37.77560855834831
 30
0.0
  0
INSERT
  5
288
330
1F
100
AcDbEntity
  8
80
100
AcDbBlockReference
  2
Block12
 10
-61.7273641656
 20
-130.3356800267
 30
0.0
  0
INSERT
  5
289
330
1F
100
AcDbEntity
  8
81
100
AcDbBlockReference
  2
Block11
 10
-28.6264826505
 20
-130.2676275275
 30
0.0
  0
DIMENSION
  5
28A
330
1F
100
AcDbEntity
  8
SK2
100
AcDbDimension
  2
_D
 10
19.05
 20
57.5487179571
 30
0.0
 11
9.4192951879
 21
57.5487179571
 31
0.0
 70
   160
  1
<>
 71
     2
 42
-1.0
  3
SLDDIMSTYLE0
100
AcDbAlignedDimension
 13
0.0
 23
34.925
 33
0.0
 14
19.05
 24
47.975
 34
0.0
100
AcDbRotatedDimension
  0
DIMENSION
  5
296
330
1F
100
AcDbEntity
  8
SK2
100
AcDbDimension
  2
_D_1
 10
50.0
 20
46.977247979
 30
0.0
 11
56.2358050907
 21
46.977247979
 31
0.0
 70
   160
  1
<>
 71
     2
 42
-1.0
  3
SLDDIMSTYLE0
100
AcDbAlignedDimension
 13
63.0
 23
16.4944465005
 33
0.0
 14
50.0
 24
24.0
 34
0.0
100
AcDbRotatedDimension
  0
DIMENSION
  5
2A0
330
1F
100
AcDbEntity
  8
SK2
100
AcDbDimension
  2
_D_2
 10
19.05
 20
57.5487179571
 30
0.0
 11
41.1337051221
 21
57.5487179571
 31
0.0
 70
   160
  1
<>
 71
     2
 42
-1.0
  3
SLDDIMSTYLE0
100
AcDbAlignedDimension
 13
63.0
 23
16.4944465005
 33
0.0
 14
19.05
 24
47.975
 34
0.0
 50
0.0
100
AcDbRotatedDimension
  0
DIMENSION
  5
2AA
330
1F
100
AcDbEntity
  8
2
100
AcDbDimension
  2
_D_3
 10
63.0
 20
66.9120199377
 30
0.0
 11
32.4450860913
 21
66.9120199377
 31
0.0
 70
   160
  1
<>
 71
     2
 42
-1.0
  3
SLDDIMSTYLE0
100
AcDbAlignedDimension
 13
0.0
 23
34.925
 33
0.0
 14
63.0
 24
16.4944465005
 34
0.0
100
AcDbRotatedDimension
  0
DIMENSION
  5
2B4
330
1F
100
AcDbEntity
  8
SK2
100
AcDbDimension
  2
_D_4
 10
99.1173409992
 20
-24.0
 30
0.0
 11
99.1173409992
 21
-0.7171633763
 31
0.0
 70
   160
  1
%%c<>
 71
     2
 42
-1.0
  3
SLDDIMSTYLE0
100
AcDbAlignedDimension
 13
50.0
 23
24.0
 33
0.0
 14
50.0
 24
-24.0
 34
0.0
 50
90.0
100
AcDbRotatedDimension
  0
DIMENSION
  5
2BF
330
1F
100
AcDbEntity
  8
SK2
100
AcDbDimension
  2
_D_5
 10
88.458421496
 20
-16.4944465005
 30
0.0
 11
88.458421496
 21
-0.7171633763
 31
0.0
 70
   160
  1
%%c<>
 71
     2
 42
-1.0
  3
SLDDIMSTYLE0
100
AcDbAlignedDimension
 13
63.0
 23
16.4944465005
 33
0.0
 14
63.0
 24
-16.4944465005
 34
0.0
 50
90.0
100
AcDbRotatedDimension
  0
DIMENSION
  5
2CA
330
1F
100
AcDbEntity
  8
SK2
100
AcDbDimension
  2
_D_6
 10
78.1889279154
 20
-8.0
 30
0.0
 11
78.1889279154
 21
-0.7171633763
 31
0.0
 70
   160
  1
%%c<>
 71
     2
 42
-1.0
  3
SLDDIMSTYLE0
100
AcDbAlignedDimension
 13
62.0
 23
8.0
 33
0.0
 14
62.0
 24
-8.0
 34
0.0
 50
90.0
100
AcDbRotatedDimension
  0
DIMENSION
  5
2D5
330
1F
100
AcDbEntity
  8
SK2
100
AcDbDimension
  2
_D_7
 10
39.0
 20
-34.3082131149
 30
0.0
 11
50.9781175133
 21
-34.3082131149
 31
0.0
 70
   160
  1
<>
 71
     2
 42
-1.0
  3
SLDDIMSTYLE0
100
AcDbAlignedDimension
 13
63.0
 23
-16.4944465005
 33
0.0
 14
39.0
 24
-24.3
 34
0.0
100
AcDbRotatedDimension
  0
DIMENSION
  5
2DF
330
1F
100
AcDbEntity
  8
SK2
100
AcDbDimension
  2
_D_8
 10
15.9021215045
 20
-55.7846238729
 30
0.0
 11
38.7073231976
 21
-55.7846238729
 31
0.0
 70
   160
  1
<>
 71
     2
 42
-1.0
  3
SLDDIMSTYLE0
100
AcDbAlignedDimension
 13
63.0
 23
-16.4944465005
 33
0.0
 14
15.9021215045
 24
-8.0
 34
0.0
 50
0.0
100
AcDbRotatedDimension
  0
DIMENSION
  5
2E9
330
1F
100
AcDbEntity
  8
SK2
100
AcDbDimension
  2
_D_9
 10
-111.634342477
 20
12.0
 30
0.0
 11
-111.634342477
 21
0.2527337168
 31
0.0
 70
   160
  1
M<>
 71
     2
 42
-1.0
  3
SLDDIMSTYLE0
100
AcDbAlignedDimension
 13
-88.3448185145
 23
-12.0
 33
0.0
 14
-88.3448185145
 24
12.0
 34
0.0
 50
90.0
100
AcDbRotatedDimension
  0
DIMENSION
  5
2F4
330
1F
100
AcDbEntity
  8
SK2
100
AcDbDimension
  2
_D_10
 10
-123.1112004022
 20
-34.925
 30
0.0
 11
-123.1112004022
 21
0.2527337168
 31
0.0
 70
   160
  1
%%c<>
 71
     2
 42
-1.0
  3
SLDDIMSTYLE0
100
AcDbAlignedDimension
 13
0.0
 23
34.925
 33
0.0
 14
0.0
 24
-34.925
 34
0.0
 50
90.0
100
AcDbRotatedDimension
  0
DIMENSION
  5
2FF
330
1F
100
AcDbEntity
  8
SK2
100
AcDbDimension
  2
_D_11
 10
-134.5979982869
 20
-48.725
 30
0.0
 11
-134.5979982869
 21
0.2527337168
 31
0.0
 70
   160
  1
%%c<>
 71
     2
 42
-1.0
  3
SLDDIMSTYLE0
100
AcDbAlignedDimension
 13
7.8668384925
 23
48.725
 33
0.0
 14
3.95
 24
-48.725
 34
0.0
 50
90.0
100
AcDbRotatedDimension
  0
MTEXT
  5
30A
330
1F
100
AcDbEntity
  8
SK6
 62
     5
100
AcDbMText
 10
-101.3578483891
 20
-52.2985812061
 30
0.0
 40
3.5
 41
0.0
 71
     1
 72
     1
  1
A1B20-50 16 063
  7
SLDTEXTSTYLE0
 73
     1
 44
1.0
  0
INSERT
  5
310
330
1F
100
AcDbEntity
  8
SK6
 62
     5
100
AcDbBlockReference
  2
SW_NOTE_0
 10
-38.0151275118
 20
41.3471792633
 30
0.0
  0
ENDSEC
  0
SECTION
  2
OBJECTS
  0
DICTIONARY
  5
C
330
0
100
AcDbDictionary
281
     1
  3
ACAD_GROUP
350
D
  3
ACAD_LAYOUT
350
1A
  3
ACAD_MLINESTYLE
350
17
  3
ACAD_PLOTSETTINGS
350
19
  3
ACAD_PLOTSTYLENAME
350
E
  3
ACAD_SCALELIST
350
47
  0
DICTIONARY
  5
D
102
{ACAD_REACTORS
330
C
102
}
330
C
100
AcDbDictionary
281
     1
  0
DICTIONARY
  5
1A
102
{ACAD_REACTORS
330
C
102
}
330
C
100
AcDbDictionary
281
     1
  3
Layout1
350
1E
  3
Layout2
350
26
  3
Model
350
22
  0
DICTIONARY
  5
17
102
{ACAD_REACTORS
330
C
102
}
330
C
100
AcDbDictionary
281
     1
  3
Standard
350
18
  0
DICTIONARY
  5
19
102
{ACAD_REACTORS
330
C
102
}
330
C
100
AcDbDictionary
281
     1
  0
ACDBDICTIONARYWDFLT
  5
E
102
{ACAD_REACTORS
330
C
102
}
330
C
100
AcDbDictionary
281
     1
  3
Normal
350
F
100
AcDbDictionaryWithDefault
340
F
  0
DICTIONARY
  5
47
102
{ACAD_REACTORS
330
C
102
}
330
C
100
AcDbDictionary
281
     1
  3
A0
350
48
  3
A1
350
49
  3
A2
350
4A
  3
A3
350
4B
  3
A4
350
4C
  3
A5
350
4D
  3
A6
350
4E
  3
A7
350
4F
  3
A8
350
50
  3
A9
350
51
  3
B0
350
52
  3
B1
350
53
  3
B2
350
54
  3
B3
350
55
  3
B4
350
56
  3
B5
350
57
  3
B6
350
58
  3
B7
350
59
  3
B8
350
5A
  3
B9
350
5B
  3
C0
350
5C
  3
C1
350
5D
  3
C2
350
5E
  3
C3
350
5F
  3
C4
350
60
  3
C5
350
61
  3
C6
350
62
  3
C7
350
63
  3
C8
350
64
  3
C9
350
65
  3
D0
350
66
  3
D1
350
67
  3
D2
350
68
  0
LAYOUT
  5
1E
102
{ACAD_REACTORS
330
1A
102
}
330
1A
100
AcDbPlotSettings
  1

  2
none_device
  4

  6

 40
0.0
 41
0.0
 42
0.0
 43
0.0
 44
0.0
 45
0.0
 46
0.0
 47
0.0
 48
0.0
 49
0.0
140
0.0
141
0.0
142
1.0
143
1.0
 70
   688
 72
     1
 73
     0
 74
     5
  7

 75
    16
147
1.0
148
0.0
149
0.0
100
AcDbLayout
  1
Layout1
 70
     1
 71
     1
 10
0.0
 20
0.0
 11
420.0
 21
297.0
 12
0.0
 22
0.0
 32
0.0
 14
1.0000000000E+20
 24
1.0000000000E+20
 34
1.0000000000E+20
 15
-1.0000000000E+20
 25
-1.0000000000E+20
 35
-1.0000000000E+20
146
0.0
 13
0.0
 23
0.0
 33
0.0
 16
1.0
 26
0.0
 36
0.0
 17
0.0
 27
1.0
 37
0.0
 76
     0
330
1B
  0
LAYOUT
  5
26
102
{ACAD_REACTORS
330
1A
102
}
330
1A
100
AcDbPlotSettings
  1

  2
none_device
  4

  6

 40
0.0
 41
0.0
 42
0.0
 43
0.0
 44
0.0
 45
0.0
 46
0.0
 47
0.0
 48
0.0
 49
0.0
140
0.0
141
0.0
142
1.0
143
1.0
 70
   688
 72
     1
 73
     0
 74
     5
  7

 75
    16
147
1.0
148
0.0
149
0.0
100
AcDbLayout
  1
Layout2
 70
     1
 71
     2
 10
0.0
 20
0.0
 11
0.0
 21
0.0
 12
0.0
 22
0.0
 32
0.0
 14
0.0
 24
0.0
 34
0.0
 15
0.0
 25
0.0
 35
0.0
146
0.0
 13
0.0
 23
0.0
 33
0.0
 16
1.0
 26
0.0
 36
0.0
 17
0.0
 27
1.0
 37
0.0
 76
     0
330
23
  0
LAYOUT
  5
22
102
{ACAD_REACTORS
330
1A
102
}
330
1A
100
AcDbPlotSettings
  1

  2
none_device
  4
Letter_(8.50_x_11.00_Inches)
  6

 40
6.35
 41
6.35
 42
6.35000508
 43
6.35000508
 44
215.9
 45
279.4
 46
0.0
 47
0.0
 48
0.0
 49
0.0
140
0.0
141
0.0
142
1.0
143
1.0
 70
  1712
 72
     1
 73
     0
 74
     0
  7

 75
     0
147
1.0
148
0.0
149
0.0
100
AcDbLayout
  1
Model
 70
     1
 71
     0
 10
0.0
 20
0.0
 11
297.0
 21
210.0
 12
0.0
 22
0.0
 32
0.0
 14
0.0
 24
0.0
 34
0.0
 15
297.0
 25
210.0
 35
0.0
146
0.0
 13
0.0
 23
0.0
 33
0.0
 16
1.0
 26
0.0
 36
0.0
 17
0.0
 27
1.0
 37
0.0
 76
     0
330
1F
331
29
  0
MLINESTYLE
  5
18
102
{ACAD_REACTORS
330
17
102
}
330
17
100
AcDbMlineStyle
  2
Standard
 70
     0
  3

 62
   256
 51
90.0
 52
90.0
 71
     2
 49
0.5
 62
   256
  6
BYLAYER
 49
-0.5
 62
   256
  6
BYLAYER
  0
ACDBPLACEHOLDER
  5
F
102
{ACAD_REACTORS
330
E
102
}
330
E
  0
SCALE
  5
48
102
{ACAD_REACTORS
330
47
102
}
330
47
100
AcDbScale
 70
     0
300
1:1
140
1.0
141
1.0
290
     1
  0
SCALE
  5
49
102
{ACAD_REACTORS
330
47
102
}
330
47
100
AcDbScale
 70
     0
300
1:2
140
1.0
141
2.0
290
     0
  0
SCALE
  5
4A
102
{ACAD_REACTORS
330
47
102
}
330
47
100
AcDbScale
 70
     0
300
1:4
140
1.0
141
4.0
290
     0
  0
SCALE
  5
4B
102
{ACAD_REACTORS
330
47
102
}
330
47
100
AcDbScale
 70
     0
300
1:5
140
1.0
141
5.0
290
     0
  0
SCALE
  5
4C
102
{ACAD_REACTORS
330
47
102
}
330
47
100
AcDbScale
 70
     0
300
1:8
140
1.0
141
8.0
290
     0
  0
SCALE
  5
4D
102
{ACAD_REACTORS
330
47
102
}
330
47
100
AcDbScale
 70
     0
300
1:10
140
1.0
141
10.0
290
     0
  0
SCALE
  5
4E
102
{ACAD_REACTORS
330
47
102
}
330
47
100
AcDbScale
 70
     0
300
1:16
140
1.0
141
16.0
290
     0
  0
SCALE
  5
4F
102
{ACAD_REACTORS
330
47
102
}
330
47
100
AcDbScale
 70
     0
300
1:20
140
1.0
141
20.0
290
     0
  0
SCALE
  5
50
102
{ACAD_REACTORS
330
47
102
}
330
47
100
AcDbScale
 70
     0
300
1:30
140
1.0
141
30.0
290
     0
  0
SCALE
  5
51
102
{ACAD_REACTORS
330
47
102
}
330
47
100
AcDbScale
 70
     0
300
1:40
140
1.0
141
40.0
290
     0
  0
SCALE
  5
52
102
{ACAD_REACTORS
330
47
102
}
330
47
100
AcDbScale
 70
     0
300
1:50
140
1.0
141
50.0
290
     0
  0
SCALE
  5
53
102
{ACAD_REACTORS
330
47
102
}
330
47
100
AcDbScale
 70
     0
300
1:100
140
1.0
141
100.0
290
     0
  0
SCALE
  5
54
102
{ACAD_REACTORS
330
47
102
}
330
47
100
AcDbScale
 70
     0
300
2:1
140
2.0
141
1.0
290
     0
  0
SCALE
  5
55
102
{ACAD_REACTORS
330
47
102
}
330
47
100
AcDbScale
 70
     0
300
4:1
140
4.0
141
1.0
290
     0
  0
SCALE
  5
56
102
{ACAD_REACTORS
330
47
102
}
330
47
100
AcDbScale
 70
     0
300
8:1
140
8.0
141
1.0
290
     0
  0
SCALE
  5
57
102
{ACAD_REACTORS
330
47
102
}
330
47
100
AcDbScale
 70
     0
300
10:1
140
10.0
141
1.0
290
     0
  0
SCALE
  5
58
102
{ACAD_REACTORS
330
47
102
}
330
47
100
AcDbScale
 70
     0
300
100:1
140
100.0
141
1.0
290
     0
  0
SCALE
  5
59
102
{ACAD_REACTORS
330
47
102
}
330
47
100
AcDbScale
 70
     0
300
1/128" = 1'-0"
140
0.0078125
141
12.0
290
     0
  0
SCALE
  5
5A
102
{ACAD_REACTORS
330
47
102
}
330
47
100
AcDbScale
 70
     0
300
1/64" = 1'-0"
140
0.015625
141
12.0
290
     0
  0
SCALE
  5
5B
102
{ACAD_REACTORS
330
47
102
}
330
47
100
AcDbScale
 70
     0
300
1/32" = 1'-0"
140
0.03125
141
12.0
290
     0
  0
SCALE
  5
5C
102
{ACAD_REACTORS
330
47
102
}
330
47
100
AcDbScale
 70
     0
300
1/16" = 1'-0"
140
0.0625
141
12.0
290
     0
  0
SCALE
  5
5D
102
{ACAD_REACTORS
330
47
102
}
330
47
100
AcDbScale
 70
     0
300
3/32" = 1'-0"
140
0.09375
141
12.0
290
     0
  0
SCALE
  5
5E
102
{ACAD_REACTORS
330
47
102
}
330
47
100
AcDbScale
 70
     0
300
1/8" = 1'-0"
140
0.125
141
12.0
290
     0
  0
SCALE
  5
5F
102
{ACAD_REACTORS
330
47
102
}
330
47
100
AcDbScale
 70
     0
300
3/16" = 1'-0"
140
0.1875
141
12.0
290
     0
  0
SCALE
  5
60
102
{ACAD_REACTORS
330
47
102
}
330
47
100
AcDbScale
 70
     0
300
1/4" = 1'-0"
140
0.25
141
12.0
290
     0
  0
SCALE
  5
61
102
{ACAD_REACTORS
330
47
102
}
330
47
100
AcDbScale
 70
     0
300
3/8" = 1'-0"
140
0.375
141
12.0
290
     0
  0
SCALE
  5
62
102
{ACAD_REACTORS
330
47
102
}
330
47
100
AcDbScale
 70
     0
300
1/2" = 1'-0"
140
0.5
141
12.0
290
     0
  0
SCALE
  5
63
102
{ACAD_REACTORS
330
47
102
}
330
47
100
AcDbScale
 70
     0
300
3/4" = 1'-0"
140
0.75
141
12.0
290
     0
  0
SCALE
  5
64
102
{ACAD_REACTORS
330
47
102
}
330
47
100
AcDbScale
 70
     0
300
1" = 1'-0"
140
1.0
141
12.0
290
     0
  0
SCALE
  5
65
102
{ACAD_REACTORS
330
47
102
}
330
47
100
AcDbScale
 70
     0
300
1-1/2" = 1'-0"
140
1.5
141
12.0
290
     0
  0
SCALE
  5
66
102
{ACAD_REACTORS
330
47
102
}
330
47
100
AcDbScale
 70
     0
300
3" = 1'-0"
140
3.0
141
12.0
290
     0
  0
SCALE
  5
67
102
{ACAD_REACTORS
330
47
102
}
330
47
100
AcDbScale
 70
     0
300
6" = 1'-0"
140
6.0
141
12.0
290
     0
  0
SCALE
  5
68
102
{ACAD_REACTORS
330
47
102
}
330
47
100
AcDbScale
 70
     0
300
1'-0" = 1'-0"
140
12.0
141
12.0
290
     0
  0
ENDSEC
  0
EOF
