  0
SECTION
  2
HEADER
  9
$ACADVER
  1
AC1015
  9
$ACADMAINTVER
 70
     6
  9
$DWGCODEPAGE
  3
ANSI_1250
  9
$INSBASE
 10
0.0
 20
0.0
 30
0.0
  9
$EXTMIN
 10
0.0
 20
0.0
 30
0.0
  9
$EXTMAX
 10
297.0
 20
210.0
 30
0.0
  9
$LIMMIN
 10
0.0
 20
0.0
  9
$LIMMAX
 10
297.0
 20
210.0
  9
$ORTHOMODE
 70
     0
  9
$REGENMODE
 70
     1
  9
$FILLMODE
 70
     1
  9
$QTEXTMODE
 70
     0
  9
$MIRRTEXT
 70
     1
  9
$LTSCALE
 40
1.0
  9
$ATTMODE
 70
     1
  9
$TEXTSIZE
 40
3.5
  9
$TRACEWID
 40
1.0
  9
$TEXTSTYLE
  7
Standard
  9
$CLAYER
  8
0
  9
$CELTYPE
  6
ByLayer
  9
$CECOLOR
 62
   256
  9
$CELTSCALE
 40
1.0
  9
$DISPSILH
 70
     0
  9
$DIMSCALE
 40
1.0
  9
$DIMASZ
 40
3.302
  9
$DIMEXO
 40
1.0
  9
$DIMDLI
 40
3.75
  9
$DIMRND
 40
0.0
  9
$DIMDLE
 40
0.0
  9
$DIMEXE
 40
1.0
  9
$DIMTP
 40
0.0
  9
$DIMTM
 40
0.0
  9
$DIMTXT
 40
3.5
  9
$DIMCEN
 40
2.5
  9
$DIMTSZ
 40
0.0
  9
$DIMTOL
 70
     0
  9
$DIMLIM
 70
     0
  9
$DIMTIH
 70
     1
  9
$DIMTOH
 70
     1
  9
$DIMSE1
 70
     0
  9
$DIMSE2
 70
     0
  9
$DIMTAD
 70
     1
  9
$DIMZIN
 70
     0
  9
$DIMBLK
  1

  9
$DIMASO
 70
     1
  9
$DIMSHO
 70
     1
  9
$DIMPOST
  1

  9
$DIMAPOST
  1

  9
$DIMALT
 70
     0
  9
$DIMALTD
 70
     3
  9
$DIMALTF
 40
0.0393700787
  9
$DIMLFAC
 40
1.0
  9
$DIMTOFL
 70
     1
  9
$DIMTVP
 40
0.0
  9
$DIMTIX
 70
     0
  9
$DIMSOXD
 70
     0
  9
$DIMSAH
 70
     0
  9
$DIMBLK1
  1

  9
$DIMBLK2
  1

  9
$DIMSTYLE
  2
ISO-25
  9
$DIMCLRD
 70
     0
  9
$DIMCLRE
 70
     0
  9
$DIMCLRT
 70
     0
  9
$DIMTFAC
 40
1.0
  9
$DIMGAP
 40
1.524
  9
$DIMJUST
 70
     0
  9
$DIMSD1
 70
     0
  9
$DIMSD2
 70
     0
  9
$DIMTOLJ
 70
     0
  9
$DIMTZIN
 70
     0
  9
$DIMALTZ
 70
     0
  9
$DIMALTTZ
 70
     0
  9
$DIMUPT
 70
     0
  9
$DIMDEC
 70
     2
  9
$DIMTDEC
 70
     2
  9
$DIMALTU
 70
     2
  9
$DIMALTTD
 70
     3
  9
$DIMTXSTY
  7
Standard
  9
$DIMAUNIT
 70
     0
  9
$DIMADEC
 70
     2
  9
$DIMALTRND
 40
0.0
  9
$DIMAZIN
 70
     0
  9
$DIMDSEP
 70
    44
  9
$DIMATFIT
 70
     3
  9
$DIMFRAC
 70
     0
  9
$DIMLDRBLK
  1

  9
$DIMLUNIT
 70
     2
  9
$DIMLWD
 70
    -2
  9
$DIMLWE
 70
    -2
  9
$DIMTMOVE
 70
     0
  9
$LUNITS
 70
     2
  9
$LUPREC
 70
     2
  9
$SKETCHINC
 40
1.0
  9
$FILLETRAD
 40
10.0
  9
$AUNITS
 70
     0
  9
$AUPREC
 70
     2
  9
$MENU
  1
.
  9
$ELEVATION
 40
0.0
  9
$PELEVATION
 40
0.0
  9
$THICKNESS
 40
0.0
  9
$LIMCHECK
 70
     0
  9
$CHAMFERA
 40
0.0
  9
$CHAMFERB
 40
0.0
  9
$CHAMFERC
 40
0.0
  9
$CHAMFERD
 40
0.0
  9
$SKPOLY
 70
     0
  9
$TDCREATE
 40
2459290.499088935
  9
$TDUCREATE
 40
2459290.457422269
  9
$TDUPDATE
 40
2459290.499090671
  9
$TDUUPDATE
 40
2459290.457424005
  9
$TDINDWG
 40
0.0000000116
  9
$TDUSRTIMER
 40
0.0000000116
  9
$USRTIMER
 70
     1
  9
$ANGBASE
 50
0.0
  9
$ANGDIR
 70
     0
  9
$PDMODE
 70
     0
  9
$PDSIZE
 40
-1.0
  9
$PLINEWID
 40
0.0
  9
$SPLFRAME
 70
     0
  9
$SPLINETYPE
 70
     6
  9
$SPLINESEGS
 70
     8
  9
$HANDSEED
  5
377
  9
$SURFTAB1
 70
     6
  9
$SURFTAB2
 70
     6
  9
$SURFTYPE
 70
     6
  9
$SURFU
 70
     6
  9
$SURFV
 70
     6
  9
$UCSBASE
  2

  9
$UCSNAME
  2

  9
$UCSORG
 10
0.0
 20
0.0
 30
0.0
  9
$UCSXDIR
 10
1.0
 20
0.0
 30
0.0
  9
$UCSYDIR
 10
0.0
 20
1.0
 30
0.0
  9
$UCSORTHOREF
  2

  9
$UCSORTHOVIEW
 70
     0
  9
$UCSORGTOP
 10
0.0
 20
0.0
 30
0.0
  9
$UCSORGBOTTOM
 10
0.0
 20
0.0
 30
0.0
  9
$UCSORGLEFT
 10
0.0
 20
0.0
 30
0.0
  9
$UCSORGRIGHT
 10
0.0
 20
0.0
 30
0.0
  9
$UCSORGFRONT
 10
0.0
 20
0.0
 30
0.0
  9
$UCSORGBACK
 10
0.0
 20
0.0
 30
0.0
  9
$PUCSBASE
  2

  9
$PUCSNAME
  2

  9
$PUCSORG
 10
0.0
 20
0.0
 30
0.0
  9
$PUCSXDIR
 10
1.0
 20
0.0
 30
0.0
  9
$PUCSYDIR
 10
0.0
 20
1.0
 30
0.0
  9
$PUCSORTHOREF
  2

  9
$PUCSORTHOVIEW
 70
     0
  9
$PUCSORGTOP
 10
0.0
 20
0.0
 30
0.0
  9
$PUCSORGBOTTOM
 10
0.0
 20
0.0
 30
0.0
  9
$PUCSORGLEFT
 10
0.0
 20
0.0
 30
0.0
  9
$PUCSORGRIGHT
 10
0.0
 20
0.0
 30
0.0
  9
$PUCSORGFRONT
 10
0.0
 20
0.0
 30
0.0
  9
$PUCSORGBACK
 10
0.0
 20
0.0
 30
0.0
  9
$USERI1
 70
     0
  9
$USERI2
 70
     0
  9
$USERI3
 70
     0
  9
$USERI4
 70
     0
  9
$USERI5
 70
     0
  9
$USERR1
 40
0.0
  9
$USERR2
 40
0.0
  9
$USERR3
 40
0.0
  9
$USERR4
 40
0.0
  9
$USERR5
 40
0.0
  9
$WORLDVIEW
 70
     1
  9
$SHADEDGE
 70
     3
  9
$SHADEDIF
 70
    70
  9
$TILEMODE
 70
     1
  9
$MAXACTVP
 70
    64
  9
$PINSBASE
 10
0.0
 20
0.0
 30
0.0
  9
$PLIMCHECK
 70
     0
  9
$PEXTMIN
 10
1.0000000000E+20
 20
1.0000000000E+20
 30
1.0000000000E+20
  9
$PEXTMAX
 10
-1.0000000000E+20
 20
-1.0000000000E+20
 30
-1.0000000000E+20
  9
$PLIMMIN
 10
0.0
 20
0.0
  9
$PLIMMAX
 10
420.0
 20
297.0
  9
$UNITMODE
 70
     0
  9
$VISRETAIN
 70
     1
  9
$PLINEGEN
 70
     0
  9
$PSLTSCALE
 70
     1
  9
$TREEDEPTH
 70
  3020
  9
$CMLSTYLE
  2
Standard
  9
$CMLJUST
 70
     0
  9
$CMLSCALE
 40
20.0
  9
$PROXYGRAPHICS
 70
     1
  9
$MEASUREMENT
 70
     1
  9
$CELWEIGHT
370
    -1
  9
$ENDCAPS
280
     0
  9
$JOINSTYLE
280
     0
  9
$LWDISPLAY
290
     1
  9
$INSUNITS
 70
     4
  9
$HYPERLINKBASE
  1

  9
$STYLESHEET
  1

  9
$XEDIT
290
     1
  9
$CEPSNTYPE
380
     0
  9
$PSTYLEMODE
290
     1
  9
$FINGERPRINTGUID
  2
{D2EB493E-E286-4772-A654-3ADB1DD44D32}
  9
$VERSIONGUID
  2
{FAEB1C32-E019-11D5-929B-00C0DF256EC4}
  9
$EXTNAMES
290
     1
  9
$PSVPSCALE
 40
0.0
  9
$OLESTARTUP
290
     0
  0
ENDSEC
  0
SECTION
  2
CLASSES
  0
CLASS
  1
ACDBDICTIONARYWDFLT
  2
AcDbDictionaryWithDefault
  3
ObjectDBX Classes
 90
        0
280
     0
281
     0
  0
CLASS
  1
VISUALSTYLE
  2
AcDbVisualStyle
  3
ObjectDBX Classes
 90
     4095
280
     0
281
     0
  0
CLASS
  1
MATERIAL
  2
AcDbMaterial
  3
ObjectDBX Classes
 90
     1153
280
     0
281
     0
  0
CLASS
  1
SCALE
  2
AcDbScale
  3
ObjectDBX Classes
 90
     1153
280
     0
281
     0
  0
CLASS
  1
TABLESTYLE
  2
AcDbTableStyle
  3
ObjectDBX Classes
 90
     4095
280
     0
281
     0
  0
CLASS
  1
MLEADERSTYLE
  2
AcDbMLeaderStyle
  3
ACDB_MLEADERSTYLE_CLASS
 90
     4095
280
     0
281
     0
  0
CLASS
  1
SUN
  2
AcDbSun
  3
SCENEOE
 90
     1153
280
     0
281
     0
  0
CLASS
  1
ACDBPLACEHOLDER
  2
AcDbPlaceHolder
  3
ObjectDBX Classes
 90
        0
280
     0
281
     0
  0
CLASS
  1
LAYOUT
  2
AcDbLayout
  3
ObjectDBX Classes
 90
        0
280
     0
281
     0
  0
ENDSEC
  0
SECTION
  2
TABLES
  0
TABLE
  2
VPORT
  5
8
330
0
100
AcDbSymbolTable
 70
     1
  0
VPORT
  5
29
330
8
100
AcDbSymbolTableRecord
100
AcDbViewportTableRecord
  2
*Active
 70
     0
 10
0.0
 20
0.0
 11
1.0
 21
1.0
 12
148.5
 22
105.0
 13
0.0
 23
0.0
 14
10.0
 24
10.0
 15
10.0
 25
10.0
 16
0.0
 26
0.0
 36
1.0
 17
0.0
 27
0.0
 37
0.0
 40
210.0
 41
1.4142857143
 42
50.0
 43
0.0
 44
0.0
 50
0.0
 51
0.0
 71
     0
 72
  2000
 73
     1
 74
     3
 75
     0
 76
     0
 77
     0
 78
     0
281
     0
 65
     1
110
0.0
120
0.0
130
0.0
111
1.0
121
0.0
131
0.0
112
0.0
122
1.0
132
0.0
 79
     0
146
0.0
  0
ENDTAB
  0
TABLE
  2
LTYPE
  5
5
330
0
100
AcDbSymbolTable
 70
     8
  0
LTYPE
  5
14
330
5
100
AcDbSymbolTableRecord
100
AcDbLinetypeTableRecord
  2
ByBlock
 70
     0
  3

 72
    65
 73
     0
 40
0.0
  0
LTYPE
  5
15
330
5
100
AcDbSymbolTableRecord
100
AcDbLinetypeTableRecord
  2
ByLayer
 70
     0
  3

 72
    65
 73
     0
 40
0.0
  0
LTYPE
  5
16
330
5
100
AcDbSymbolTableRecord
100
AcDbLinetypeTableRecord
  2
Continuous
 70
     0
  3
Solid line
 72
    65
 73
     0
 40
0.0
  0
LTYPE
  5
6E
330
5
100
AcDbSymbolTableRecord
100
AcDbLinetypeTableRecord
  2
SLD-Solid
 70
     0
  3
SolidWorks Line Style
 72
    65
 73
     0
 40
0.0
  0
LTYPE
  5
6F
330
5
100
AcDbSymbolTableRecord
100
AcDbLinetypeTableRecord
  2
SLD-Dashed
 70
     0
  3
SolidWorks Line Style
 72
    65
 73
     2
 40
1.905
 49
1.27
 74
     0
 49
-0.635
 74
     0
  0
LTYPE
  5
70
330
5
100
AcDbSymbolTableRecord
100
AcDbLinetypeTableRecord
  2
SLD-Phantom
 70
     0
  3
SolidWorks Line Style
 72
    65
 73
     6
 40
12.7
 49
6.35
 74
     0
 49
-1.27
 74
     0
 49
1.27
 74
     0
 49
-1.27
 74
     0
 49
1.27
 74
     0
 49
-1.27
 74
     0
  0
LTYPE
  5
71
330
5
100
AcDbSymbolTableRecord
100
AcDbLinetypeTableRecord
  2
SLD-Chain
 70
     0
  3
SolidWorks Line Style
 72
    65
 73
     4
 40
10.16
 49
6.35
 74
     0
 49
-1.27
 74
     0
 49
1.27
 74
     0
 49
-1.27
 74
     0
  0
LTYPE
  5
72
330
5
100
AcDbSymbolTableRecord
100
AcDbLinetypeTableRecord
  2
SLD-Center
 70
     0
  3
SolidWorks Line Style
 72
    65
 73
     4
 40
19.05
 49
15.24
 74
     0
 49
-1.27
 74
     0
 49
1.27
 74
     0
 49
-1.27
 74
     0
  0
LTYPE
  5
73
330
5
100
AcDbSymbolTableRecord
100
AcDbLinetypeTableRecord
  2
SLD-Stitch
 70
     0
  3
SolidWorks Line Style
 72
    65
 73
     2
 40
0.635
 49
0.0
 74
     0
 49
-0.635
 74
     0
  0
LTYPE
  5
74
330
5
100
AcDbSymbolTableRecord
100
AcDbLinetypeTableRecord
  2
SLD-Thin-Thick-Chain
 70
     0
  3
SolidWorks Line Style
 72
    65
 73
     4
 40
10.16
 49
6.35
 74
     0
 49
-1.27
 74
     0
 49
1.27
 74
     0
 49
-1.27
 74
     0
  0
ENDTAB
  0
TABLE
  2
LAYER
  5
2
330
0
100
AcDbSymbolTable
 70
    12
  0
LAYER
  5
10
330
2
100
AcDbSymbolTableRecord
100
AcDbLayerTableRecord
  2
0
 70
     0
 62
     7
  6
Continuous
370
    -3
390
F
  0
LAYER
  5
75
330
2
100
AcDbSymbolTableRecord
100
AcDbLayerTableRecord
  2
SLD-0
 70
     0
 62
   179
  6
SLD-Solid
370
    -3
390
F
  0
LAYER
  5
76
330
2
100
AcDbSymbolTableRecord
100
AcDbLayerTableRecord
  2
80
 70
     0
 62
    -6
  6
SLD-Solid
290
     0
370
    -3
390
F
  0
LAYER
  5
77
330
2
100
AcDbSymbolTableRecord
100
AcDbLayerTableRecord
  2
81
 70
     0
 62
    -3
  6
SLD-Solid
290
     0
370
    -3
390
F
  0
LAYER
  5
78
330
2
100
AcDbSymbolTableRecord
100
AcDbLayerTableRecord
  2
1
 70
     0
 62
     4
  6
SLD-Solid
290
     0
370
    -3
390
F
  0
LAYER
  5
79
330
2
100
AcDbSymbolTableRecord
100
AcDbLayerTableRecord
  2
4
 70
     0
 62
    -2
  6
SLD-Chain
290
     0
370
    -3
390
F
  0
LAYER
  5
7A
330
2
100
AcDbSymbolTableRecord
100
AcDbLayerTableRecord
  2
2
 70
     0
 62
     7
  6
SLD-Solid
290
     0
370
    -3
390
F
  0
LAYER
  5
7B
330
2
100
AcDbSymbolTableRecord
100
AcDbLayerTableRecord
  2
SK3
 70
     0
 62
     1
  6
SLD-Dashed
290
     0
370
    -3
390
F
  0
LAYER
  5
7C
330
2
100
AcDbSymbolTableRecord
100
AcDbLayerTableRecord
  2
SK4
 70
     0
 62
     2
  6
SLD-Chain
290
     0
370
    -3
390
F
  0
LAYER
  5
7D
330
2
100
AcDbSymbolTableRecord
100
AcDbLayerTableRecord
  2
SK2
 70
     0
 62
     7
  6
SLD-Solid
290
     0
370
    -3
390
F
  0
LAYER
  5
7E
330
2
100
AcDbSymbolTableRecord
100
AcDbLayerTableRecord
  2
SK6
 70
     0
 62
     5
  6
SLD-Solid
290
     0
370
    -3
390
F
  0
LAYER
  5
7F
330
2
100
AcDbSymbolTableRecord
100
AcDbLayerTableRecord
  2
SK1
 70
     0
 62
     4
  6
SLD-Solid
370
    -3
390
F
  0
ENDTAB
  0
TABLE
  2
STYLE
  5
3
330
0
100
AcDbSymbolTable
 70
     2
  0
STYLE
  5
11
330
3
100
AcDbSymbolTableRecord
100
AcDbTextStyleTableRecord
  2
Standard
 70
     0
 40
0.0
 41
1.0
 50
0.0
 71
     0
 42
3.5
  3
txt
  4

  0
STYLE
  5
2DD
330
3
100
AcDbSymbolTableRecord
100
AcDbTextStyleTableRecord
  2
SLDTEXTSTYLE0
 70
     0
 40
0.0
 41
0.75
 50
0.0
 71
     0
 42
3.5
  3
TXT
  4

  0
ENDTAB
  0
TABLE
  2
VIEW
  5
6
330
0
100
AcDbSymbolTable
 70
     0
  0
ENDTAB
  0
TABLE
  2
UCS
  5
7
330
0
100
AcDbSymbolTable
 70
     0
  0
ENDTAB
  0
TABLE
  2
APPID
  5
9
330
0
100
AcDbSymbolTable
 70
     1
  0
APPID
  5
12
330
9
100
AcDbSymbolTableRecord
100
AcDbRegAppTableRecord
  2
ACAD
 70
     0
  0
ENDTAB
  0
TABLE
  2
DIMSTYLE
  5
A
330
0
100
AcDbSymbolTable
 70
     2
100
AcDbDimStyleTable
  0
DIMSTYLE
105
27
330
A
100
AcDbSymbolTableRecord
100
AcDbDimStyleTableRecord
  2
ISO-25
 70
     0
 41
2.5
 42
0.625
 43
3.75
 44
1.25
 73
     0
 74
     0
 77
     1
 78
     8
140
2.5
141
2.5
143
0.0393700787
147
0.625
171
     3
172
     1
178
     0
271
     2
272
     2
274
     3
278
    44
283
     0
284
     8
340
11
  0
DIMSTYLE
105
2DE
102
{ACAD_REACTORS
330
2DC
330
2E8
330
2F2
330
2FC
330
306
330
310
330
31B
330
326
330
331
330
33B
330
345
330
34F
330
35A
330
365
102
}
330
A
100
AcDbSymbolTableRecord
100
AcDbDimStyleTableRecord
  2
SLDDIMSTYLE0
 70
     0
 41
3.302
 44
0.0
 45
0.000000001
 73
     0
 74
     0
 77
     1
 78
    12
 79
     3
140
3.5
147
0.875
173
     1
178
     0
271
     2
272
     2
276
     2
284
    12
340
2DD
  0
ENDTAB
  0
TABLE
  2
BLOCK_RECORD
  5
1
330
0
100
AcDbSymbolTable
 70
    18
  0
BLOCK_RECORD
  5
1F
330
1
100
AcDbSymbolTableRecord
100
AcDbBlockTableRecord
  2
*Model_Space
340
22
  0
BLOCK_RECORD
  5
1B
330
1
100
AcDbSymbolTableRecord
100
AcDbBlockTableRecord
  2
*Paper_Space
340
1E
  0
BLOCK_RECORD
  5
23
330
1
100
AcDbSymbolTableRecord
100
AcDbBlockTableRecord
  2
*Paper_Space0
340
26
  0
BLOCK_RECORD
  5
80
330
1
100
AcDbSymbolTableRecord
100
AcDbBlockTableRecord
  2
Block11
340
0
102
{BLKREFS
331
2DA
102
}
  0
BLOCK_RECORD
  5
89
330
1
100
AcDbSymbolTableRecord
100
AcDbBlockTableRecord
  2
Block12
340
0
102
{BLKREFS
331
2DB
102
}
  0
BLOCK_RECORD
  5
2DF
330
1
100
AcDbSymbolTableRecord
100
AcDbBlockTableRecord
  2
_D
340
0
  0
BLOCK_RECORD
  5
2E9
330
1
100
AcDbSymbolTableRecord
100
AcDbBlockTableRecord
  2
_D_1
340
0
  0
BLOCK_RECORD
  5
2F3
330
1
100
AcDbSymbolTableRecord
100
AcDbBlockTableRecord
  2
_D_2
340
0
  0
BLOCK_RECORD
  5
2FD
330
1
100
AcDbSymbolTableRecord
100
AcDbBlockTableRecord
  2
_D_3
340
0
  0
BLOCK_RECORD
  5
307
330
1
100
AcDbSymbolTableRecord
100
AcDbBlockTableRecord
  2
_D_4
340
0
  0
BLOCK_RECORD
  5
311
330
1
100
AcDbSymbolTableRecord
100
AcDbBlockTableRecord
  2
_D_5
340
0
  0
BLOCK_RECORD
  5
31C
330
1
100
AcDbSymbolTableRecord
100
AcDbBlockTableRecord
  2
_D_6
340
0
  0
BLOCK_RECORD
  5
327
330
1
100
AcDbSymbolTableRecord
100
AcDbBlockTableRecord
  2
_D_7
340
0
  0
BLOCK_RECORD
  5
332
330
1
100
AcDbSymbolTableRecord
100
AcDbBlockTableRecord
  2
_D_8
340
0
  0
BLOCK_RECORD
  5
33C
330
1
100
AcDbSymbolTableRecord
100
AcDbBlockTableRecord
  2
_D_9
340
0
  0
BLOCK_RECORD
  5
346
330
1
100
AcDbSymbolTableRecord
100
AcDbBlockTableRecord
  2
_D_10
340
0
  0
BLOCK_RECORD
  5
350
330
1
100
AcDbSymbolTableRecord
100
AcDbBlockTableRecord
  2
_D_11
340
0
  0
BLOCK_RECORD
  5
35B
330
1
100
AcDbSymbolTableRecord
100
AcDbBlockTableRecord
  2
_D_12
340
0
  0
BLOCK_RECORD
  5
366
330
1
100
AcDbSymbolTableRecord
100
AcDbBlockTableRecord
  2
_D_13
340
0
  0
BLOCK_RECORD
  5
371
330
1
100
AcDbSymbolTableRecord
100
AcDbBlockTableRecord
  2
SW_NOTE_0
340
0
102
{BLKREFS
331
376
102
}
  0
ENDTAB
  0
ENDSEC
  0
SECTION
  2
BLOCKS
  0
BLOCK
  5
20
330
1F
100
AcDbEntity
  8
0
100
AcDbBlockBegin
  2
*Model_Space
 70
     0
 10
0.0
 20
0.0
 30
0.0
  3
*Model_Space
  1

  0
ENDBLK
  5
21
330
1F
100
AcDbEntity
  8
0
100
AcDbBlockEnd
  0
BLOCK
  5
1C
330
1B
100
AcDbEntity
 67
     1
  8
0
100
AcDbBlockBegin
  2
*Paper_Space
 70
     0
 10
0.0
 20
0.0
 30
0.0
  3
*Paper_Space
  1

  0
ENDBLK
  5
1D
330
1B
100
AcDbEntity
 67
     1
  8
0
100
AcDbBlockEnd
  0
BLOCK
  5
24
330
23
100
AcDbEntity
  8
0
100
AcDbBlockBegin
  2
*Paper_Space0
 70
     0
 10
0.0
 20
0.0
 30
0.0
  3
*Paper_Space0
  1

  0
ENDBLK
  5
25
330
23
100
AcDbEntity
  8
0
100
AcDbBlockEnd
  0
BLOCK
  5
81
330
80
100
AcDbEntity
  8
0
100
AcDbBlockBegin
  2
Block11
 70
     0
 10
0.0
 20
0.0
 30
0.0
  3
Block11
  1

  0
CIRCLE
  5
83
330
80
100
AcDbEntity
  8
81
370
    18
100
AcDbCircle
 10
91.6264826505
 20
130.2676275275
 30
0.0
 40
2.499999999999981
  0
LINE
  5
84
330
80
100
AcDbEntity
  8
81
370
    18
100
AcDbLine
 10
91.6264826505
 20
130.2676275275
 30
0.0
 11
95.1620165565
 21
133.8031614334
 31
0.0
  0
LINE
  5
85
330
80
100
AcDbEntity
  8
81
370
    18
100
AcDbLine
 10
91.6264826505
 20
130.2676275275
 30
0.0
 11
88.0909487446
 21
126.7320936216
 31
0.0
  0
LINE
  5
86
330
80
100
AcDbEntity
  8
81
370
    18
100
AcDbLine
 10
91.6264826505
 20
130.2676275275
 30
0.0
 11
88.0909487446
 21
133.8031614334
 31
0.0
  0
LINE
  5
87
330
80
100
AcDbEntity
  8
81
100
AcDbLine
 10
91.6264826505
 20
130.2676275275
 30
0.0
 11
101.6264826505
 21
130.2676275275
 31
0.0
  0
LINE
  5
88
330
80
100
AcDbEntity
  8
81
370
    18
100
AcDbLine
 10
91.6264826505
 20
130.2676275275
 30
0.0
 11
95.1620165565
 21
126.7320936216
 31
0.0
  0
ENDBLK
  5
82
330
80
100
AcDbEntity
  8
0
100
AcDbBlockEnd
  0
BLOCK
  5
8A
330
89
100
AcDbEntity
  8
0
100
AcDbBlockBegin
  2
Block12
 70
     0
 10
0.0
 20
0.0
 30
0.0
  3
Block12
  1

  0
CIRCLE
  5
8C
330
89
100
AcDbEntity
  8
80
370
    18
100
AcDbCircle
 10
61.7273641656
 20
130.3356800267
 30
0.0
 40
2.500000000000004
  0
LINE
  5
8D
330
89
100
AcDbEntity
  8
80
370
    18
100
AcDbLine
 10
61.7273641656
 20
130.3356800267
 30
0.0
 11
65.2628980715
 21
133.8712139326
 31
0.0
  0
LINE
  5
8E
330
89
100
AcDbEntity
  8
80
370
    18
100
AcDbLine
 10
61.7273641656
 20
130.3356800267
 30
0.0
 11
58.1918302597
 21
126.8001461208
 31
0.0
  0
LINE
  5
8F
330
89
100
AcDbEntity
  8
80
370
    18
100
AcDbLine
 10
61.7273641656
 20
130.3356800267
 30
0.0
 11
58.1918302597
 21
133.8712139326
 31
0.0
  0
LINE
  5
90
330
89
100
AcDbEntity
  8
80
370
    18
100
AcDbLine
 10
61.7273641656
 20
130.3356800267
 30
0.0
 11
51.7273641656
 21
130.3356800267
 31
0.0
  0
LINE
  5
91
330
89
100
AcDbEntity
  8
80
370
    18
100
AcDbLine
 10
61.7273641656
 20
130.3356800267
 30
0.0
 11
65.2628980715
 21
126.8001461208
 31
0.0
  0
ENDBLK
  5
8B
330
89
100
AcDbEntity
  8
0
100
AcDbBlockEnd
  0
BLOCK
  5
2E0
330
2DF
100
AcDbEntity
  8
0
100
AcDbBlockBegin
  2
_D
 70
     0
 10
0.0
 20
0.0
 30
0.0
  3
_D
  1

  0
SOLID
  5
2E2
330
2DF
100
AcDbEntity
  8
SK2
100
AcDbTrace
 10
0.0
 20
59.0405626474
 30
0.0
 11
3.302
 21
58.5325626474
 31
0.0
 12
3.302
 22
59.5485626474
 32
0.0
 13
3.302
 23
59.5485626474
 33
0.0
  0
SOLID
  5
2E3
330
2DF
100
AcDbEntity
  8
SK2
100
AcDbTrace
 10
19.05
 20
59.0405626474
 30
0.0
 11
15.748
 21
59.5485626474
 31
0.0
 12
15.748
 22
58.5325626474
 32
0.0
 13
15.748
 23
58.5325626474
 33
0.0
  0
LINE
  5
2E4
330
2DF
100
AcDbEntity
  8
SK2
100
AcDbLine
 10
0.0
 20
23.225
 30
0.0
 11
0.0
 21
60.0405626474
 31
0.0
  0
LINE
  5
2E5
330
2DF
100
AcDbEntity
  8
SK2
100
AcDbLine
 10
19.05
 20
32.0
 30
0.0
 11
19.05
 21
60.0405626474
 31
0.0
  0
LINE
  5
2E6
330
2DF
100
AcDbEntity
  8
SK2
100
AcDbLine
 10
0.0
 20
59.0405626474
 30
0.0
 11
19.05
 21
59.0405626474
 31
0.0
  0
MTEXT
  5
2E7
330
2DF
100
AcDbEntity
  8
SK2
100
AcDbMText
 10
4.0992003543
 20
63.552299562
 30
0.0
 40
3.5
 41
0.0
 71
     1
 72
     1
  1
19,05
  7
SLDTEXTSTYLE0
 73
     1
 44
1.0
  0
ENDBLK
  5
2E1
330
2DF
100
AcDbEntity
  8
0
100
AcDbBlockEnd
  0
BLOCK
  5
2EA
330
2E9
100
AcDbEntity
  8
0
100
AcDbBlockBegin
  2
_D_1
 70
     0
 10
0.0
 20
0.0
 30
0.0
  3
_D_1
  1

  0
SOLID
  5
2EC
330
2E9
100
AcDbEntity
  8
SK2
100
AcDbTrace
 10
87.0
 20
40.4552589915
 30
0.0
 11
90.302
 21
39.9472589915
 31
0.0
 12
90.302
 22
40.9632589915
 32
0.0
 13
90.302
 23
40.9632589915
 33
0.0
  0
SOLID
  5
2ED
330
2E9
100
AcDbEntity
  8
SK2
100
AcDbTrace
 10
100.0
 20
40.4552589915
 30
0.0
 11
96.698
 21
40.9632589915
 31
0.0
 12
96.698
 22
39.9472589915
 32
0.0
 13
96.698
 23
39.9472589915
 33
0.0
  0
LINE
  5
2EE
330
2E9
100
AcDbEntity
  8
SK2
100
AcDbLine
 10
87.0
 20
33.5
 30
0.0
 11
87.0
 21
41.4552589915
 31
0.0
  0
LINE
  5
2EF
330
2E9
100
AcDbEntity
  8
SK2
100
AcDbLine
 10
100.0
 20
25.9944465005
 30
0.0
 11
100.0
 21
41.4552589915
 31
0.0
  0
LINE
  5
2F0
330
2E9
100
AcDbEntity
  8
SK2
100
AcDbLine
 10
87.0
 20
40.4552589915
 30
0.0
 11
100.0
 21
40.4552589915
 31
0.0
  0
MTEXT
  5
2F1
330
2E9
100
AcDbEntity
  8
SK2
100
AcDbMText
 10
90.9057532634
 20
44.9669959061
 30
0.0
 40
3.5
 41
0.0
 71
     1
 72
     1
  1
13
  7
SLDTEXTSTYLE0
 73
     1
 44
1.0
  0
ENDBLK
  5
2EB
330
2E9
100
AcDbEntity
  8
0
100
AcDbBlockEnd
  0
BLOCK
  5
2F4
330
2F3
100
AcDbEntity
  8
0
100
AcDbBlockBegin
  2
_D_2
 70
     0
 10
0.0
 20
0.0
 30
0.0
  3
_D_2
  1

  0
SOLID
  5
2F6
330
2F3
100
AcDbEntity
  8
SK2
100
AcDbTrace
 10
100.0
 20
49.687958227
 30
0.0
 11
96.698
 21
50.195958227
 31
0.0
 12
96.698
 22
49.179958227
 32
0.0
 13
96.698
 23
49.179958227
 33
0.0
  0
SOLID
  5
2F7
330
2F3
100
AcDbEntity
  8
SK2
100
AcDbTrace
 10
35.05
 20
49.687958227
 30
0.0
 11
38.352
 21
49.179958227
 31
0.0
 12
38.352
 22
50.195958227
 32
0.0
 13
38.352
 23
50.195958227
 33
0.0
  0
LINE
  5
2F8
330
2F3
100
AcDbEntity
  8
SK2
100
AcDbLine
 10
100.0
 20
25.9944465005
 30
0.0
 11
100.0
 21
50.687958227
 31
0.0
  0
LINE
  5
2F9
330
2F3
100
AcDbEntity
  8
SK2
100
AcDbLine
 10
35.05
 20
32.75
 30
0.0
 11
35.05
 21
50.687958227
 31
0.0
  0
LINE
  5
2FA
330
2F3
100
AcDbEntity
  8
SK2
100
AcDbLine
 10
100.0
 20
49.687958227
 30
0.0
 11
35.05
 21
49.687958227
 31
0.0
  0
MTEXT
  5
2FB
330
2F3
100
AcDbEntity
  8
SK2
100
AcDbMText
 10
63.0925513136
 20
54.1996951416
 30
0.0
 40
3.5
 41
0.0
 71
     1
 72
     1
  1
64,95
  7
SLDTEXTSTYLE0
 73
     1
 44
1.0
  0
ENDBLK
  5
2F5
330
2F3
100
AcDbEntity
  8
0
100
AcDbBlockEnd
  0
BLOCK
  5
2FE
330
2FD
100
AcDbEntity
  8
0
100
AcDbBlockBegin
  2
_D_3
 70
     0
 10
0.0
 20
0.0
 30
0.0
  3
_D_3
  1

  0
SOLID
  5
300
330
2FD
100
AcDbEntity
  8
SK2
100
AcDbTrace
 10
100.0
 20
59.0405626474
 30
0.0
 11
96.698
 21
59.5485626474
 31
0.0
 12
96.698
 22
58.5325626474
 32
0.0
 13
96.698
 23
58.5325626474
 33
0.0
  0
SOLID
  5
301
330
2FD
100
AcDbEntity
  8
SK2
100
AcDbTrace
 10
19.05
 20
59.0405626474
 30
0.0
 11
22.352
 21
58.5325626474
 31
0.0
 12
22.352
 22
59.5485626474
 32
0.0
 13
22.352
 23
59.5485626474
 33
0.0
  0
LINE
  5
302
330
2FD
100
AcDbEntity
  8
SK2
100
AcDbLine
 10
100.0
 20
25.9944465005
 30
0.0
 11
100.0
 21
60.0405626474
 31
0.0
  0
LINE
  5
303
330
2FD
100
AcDbEntity
  8
SK2
100
AcDbLine
 10
19.05
 20
32.0
 30
0.0
 11
19.05
 21
60.0405626474
 31
0.0
  0
LINE
  5
304
330
2FD
100
AcDbEntity
  8
SK2
100
AcDbLine
 10
100.0
 20
59.0405626474
 30
0.0
 11
19.05
 21
59.0405626474
 31
0.0
  0
MTEXT
  5
305
330
2FD
100
AcDbEntity
  8
SK2
100
AcDbMText
 10
54.6991883722
 20
63.552299562
 30
0.0
 40
3.5
 41
0.0
 71
     1
 72
     1
  1
80,95
  7
SLDTEXTSTYLE0
 73
     1
 44
1.0
  0
ENDBLK
  5
2FF
330
2FD
100
AcDbEntity
  8
0
100
AcDbBlockEnd
  0
BLOCK
  5
308
330
307
100
AcDbEntity
  8
0
100
AcDbBlockBegin
  2
_D_4
 70
     0
 10
0.0
 20
0.0
 30
0.0
  3
_D_4
  1

  0
SOLID
  5
30A
330
307
100
AcDbEntity
  8
2
100
AcDbTrace
 10
0.0
 20
68.7528826224
 30
0.0
 11
3.302
 21
68.2448826224
 31
0.0
 12
3.302
 22
69.2608826224
 32
0.0
 13
3.302
 23
69.2608826224
 33
0.0
  0
SOLID
  5
30B
330
307
100
AcDbEntity
  8
2
100
AcDbTrace
 10
100.0
 20
68.7528826224
 30
0.0
 11
96.698
 21
69.2608826224
 31
0.0
 12
96.698
 22
68.2448826224
 32
0.0
 13
96.698
 23
68.2448826224
 33
0.0
  0
LINE
  5
30C
330
307
100
AcDbEntity
  8
2
100
AcDbLine
 10
0.0
 20
23.225
 30
0.0
 11
0.0
 21
69.7528826224
 31
0.0
  0
LINE
  5
30D
330
307
100
AcDbEntity
  8
2
100
AcDbLine
 10
100.0
 20
25.9944465005
 30
0.0
 11
100.0
 21
69.7528826224
 31
0.0
  0
LINE
  5
30E
330
307
100
AcDbEntity
  8
2
100
AcDbLine
 10
0.0
 20
68.7528826224
 30
0.0
 11
100.0
 21
68.7528826224
 31
0.0
  0
MTEXT
  5
30F
330
307
100
AcDbEntity
  8
2
100
AcDbMText
 10
48.3653141855
 20
73.264619537
 30
0.0
 40
3.5
 41
0.0
 71
     1
 72
     1
  1
100
  7
SLDTEXTSTYLE0
 73
     1
 44
1.0
  0
ENDBLK
  5
309
330
307
100
AcDbEntity
  8
0
100
AcDbBlockEnd
  0
BLOCK
  5
312
330
311
100
AcDbEntity
  8
0
100
AcDbBlockBegin
  2
_D_5
 70
     0
 10
0.0
 20
0.0
 30
0.0
  3
_D_5
  1

  0
SOLID
  5
314
330
311
100
AcDbEntity
  8
SK2
100
AcDbTrace
 10
141.4822800077
 20
-32.5
 30
0.0
 11
141.9902800077
 21
-29.198
 31
0.0
 12
140.9742800077
 22
-29.198
 32
0.0
 13
140.9742800077
 23
-29.198
 33
0.0
  0
SOLID
  5
315
330
311
100
AcDbEntity
  8
SK2
100
AcDbTrace
 10
141.4822800077
 20
32.5
 30
0.0
 11
140.9742800077
 21
29.198
 31
0.0
 12
141.9902800077
 22
29.198
 32
0.0
 13
141.9902800077
 23
29.198
 33
0.0
  0
LINE
  5
316
330
311
100
AcDbEntity
  8
SK2
100
AcDbLine
 10
88.0
 20
-32.5
 30
0.0
 11
142.4822800077
 21
-32.5
 31
0.0
  0
LINE
  5
317
330
311
100
AcDbEntity
  8
SK2
100
AcDbLine
 10
88.0
 20
32.5
 30
0.0
 11
142.4822800077
 21
32.5
 31
0.0
  0
LINE
  5
318
330
311
100
AcDbEntity
  8
SK2
100
AcDbLine
 10
141.4822800077
 20
-32.5
 30
0.0
 11
141.4822800077
 21
32.5
 31
0.0
  0
MTEXT
  5
319
330
311
100
AcDbEntity
  8
SK2
100
AcDbMText
 10
136.9705429185
 20
-5.7604761897
 30
0.0
 40
3.5
 41
0.0
 71
     1
 72
     1
  1
%%c
  7
SLDTEXTSTYLE0
 11
6.123233995736766E-17
 21
1.0
 31
0.0
 73
     1
 44
1.0
  0
MTEXT
  5
31A
330
311
100
AcDbEntity
  8
SK2
100
AcDbMText
 10
136.9170707419
 20
-0.4820387913
 30
0.0
 40
3.5
 41
0.0
 71
     1
 72
     1
  1
65
  7
SLDTEXTSTYLE0
 11
6.123233995736766E-17
 21
1.0
 31
0.0
 73
     1
 44
1.0
  0
ENDBLK
  5
313
330
311
100
AcDbEntity
  8
0
100
AcDbBlockEnd
  0
BLOCK
  5
31D
330
31C
100
AcDbEntity
  8
0
100
AcDbBlockBegin
  2
_D_6
 70
     0
 10
0.0
 20
0.0
 30
0.0
  3
_D_6
  1

  0
SOLID
  5
31F
330
31C
100
AcDbEntity
  8
SK2
100
AcDbTrace
 10
129.3733890237
 20
-24.9944465005
 30
0.0
 11
129.8813890237
 21
-21.6924465005
 31
0.0
 12
128.8653890237
 22
-21.6924465005
 32
0.0
 13
128.8653890237
 23
-21.6924465005
 33
0.0
  0
SOLID
  5
320
330
31C
100
AcDbEntity
  8
SK2
100
AcDbTrace
 10
129.3733890237
 20
24.9944465005
 30
0.0
 11
128.8653890237
 21
21.6924465005
 31
0.0
 12
129.8813890237
 22
21.6924465005
 32
0.0
 13
129.8813890237
 23
21.6924465005
 33
0.0
  0
LINE
  5
321
330
31C
100
AcDbEntity
  8
SK2
100
AcDbLine
 10
101.0
 20
-24.9944465005
 30
0.0
 11
130.3733890237
 21
-24.9944465005
 31
0.0
  0
LINE
  5
322
330
31C
100
AcDbEntity
  8
SK2
100
AcDbLine
 10
101.0
 20
24.9944465005
 30
0.0
 11
130.3733890237
 21
24.9944465005
 31
0.0
  0
LINE
  5
323
330
31C
100
AcDbEntity
  8
SK2
100
AcDbLine
 10
129.3733890237
 20
-24.9944465005
 30
0.0
 11
129.3733890237
 21
24.9944465005
 31
0.0
  0
MTEXT
  5
324
330
31C
100
AcDbEntity
  8
SK2
100
AcDbMText
 10
124.8616519345
 20
-5.7604761897
 30
0.0
 40
3.5
 41
0.0
 71
     1
 72
     1
  1
%%c
  7
SLDTEXTSTYLE0
 11
6.123233995736766E-17
 21
1.0
 31
0.0
 73
     1
 44
1.0
  0
MTEXT
  5
325
330
31C
100
AcDbEntity
  8
SK2
100
AcDbMText
 10
124.8081797579
 20
-0.4820387913
 30
0.0
 40
3.5
 41
0.0
 71
     1
 72
     1
  1
50
  7
SLDTEXTSTYLE0
 11
6.123233995736766E-17
 21
1.0
 31
0.0
 73
     1
 44
1.0
  0
ENDBLK
  5
31E
330
31C
100
AcDbEntity
  8
0
100
AcDbBlockEnd
  0
BLOCK
  5
328
330
327
100
AcDbEntity
  8
0
100
AcDbBlockBegin
  2
_D_7
 70
     0
 10
0.0
 20
0.0
 30
0.0
  3
_D_7
  1

  0
SOLID
  5
32A
330
327
100
AcDbEntity
  8
SK2
100
AcDbTrace
 10
118.2679886225
 20
-12.5
 30
0.0
 11
118.7759886225
 21
-9.198
 31
0.0
 12
117.7599886225
 22
-9.198
 32
0.0
 13
117.7599886225
 23
-9.198
 33
0.0
  0
SOLID
  5
32B
330
327
100
AcDbEntity
  8
SK2
100
AcDbTrace
 10
118.2679886225
 20
12.5
 30
0.0
 11
117.7599886225
 21
9.198
 31
0.0
 12
118.7759886225
 22
9.198
 32
0.0
 13
118.7759886225
 23
9.198
 33
0.0
  0
LINE
  5
32C
330
327
100
AcDbEntity
  8
SK2
100
AcDbLine
 10
100.0
 20
-12.5
 30
0.0
 11
119.2679886225
 21
-12.5
 31
0.0
  0
LINE
  5
32D
330
327
100
AcDbEntity
  8
SK2
100
AcDbLine
 10
100.0
 20
12.5
 30
0.0
 11
119.2679886225
 21
12.5
 31
0.0
  0
LINE
  5
32E
330
327
100
AcDbEntity
  8
SK2
100
AcDbLine
 10
118.2679886225
 20
-12.5
 30
0.0
 11
118.2679886225
 21
12.5
 31
0.0
  0
MTEXT
  5
32F
330
327
100
AcDbEntity
  8
SK2
100
AcDbMText
 10
113.7562515333
 20
-5.7604761897
 30
0.0
 40
3.5
 41
0.0
 71
     1
 72
     1
  1
%%c
  7
SLDTEXTSTYLE0
 11
6.123233995736766E-17
 21
1.0
 31
0.0
 73
     1
 44
1.0
  0
MTEXT
  5
330
330
327
100
AcDbEntity
  8
SK2
100
AcDbMText
 10
113.7027793567
 20
-0.4820387913
 30
0.0
 40
3.5
 41
0.0
 71
     1
 72
     1
  1
25
  7
SLDTEXTSTYLE0
 11
6.123233995736766E-17
 21
1.0
 31
0.0
 73
     1
 44
1.0
  0
ENDBLK
  5
329
330
327
100
AcDbEntity
  8
0
100
AcDbBlockEnd
  0
BLOCK
  5
333
330
332
100
AcDbEntity
  8
0
100
AcDbBlockBegin
  2
_D_8
 70
     0
 10
0.0
 20
0.0
 30
0.0
  3
_D_8
  1

  0
SOLID
  5
335
330
332
100
AcDbEntity
  8
SK2
100
AcDbTrace
 10
100.0
 20
-43.4223773674
 30
0.0
 11
96.698
 21
-42.9143773674
 31
0.0
 12
96.698
 22
-43.9303773674
 32
0.0
 13
96.698
 23
-43.9303773674
 33
0.0
  0
SOLID
  5
336
330
332
100
AcDbEntity
  8
SK2
100
AcDbTrace
 10
76.0
 20
-43.4223773674
 30
0.0
 11
79.302
 21
-43.9303773674
 31
0.0
 12
79.302
 22
-42.9143773674
 32
0.0
 13
79.302
 23
-42.9143773674
 33
0.0
  0
LINE
  5
337
330
332
100
AcDbEntity
  8
SK2
100
AcDbLine
 10
100.0
 20
-25.9944465005
 30
0.0
 11
100.0
 21
-44.4223773674
 31
0.0
  0
LINE
  5
338
330
332
100
AcDbEntity
  8
SK2
100
AcDbLine
 10
76.0
 20
-33.4
 30
0.0
 11
76.0
 21
-44.4223773674
 31
0.0
  0
LINE
  5
339
330
332
100
AcDbEntity
  8
SK2
100
AcDbLine
 10
100.0
 20
-43.4223773674
 30
0.0
 11
76.0
 21
-43.4223773674
 31
0.0
  0
MTEXT
  5
33A
330
332
100
AcDbEntity
  8
SK2
100
AcDbMText
 10
85.5850418487
 20
-38.9106404529
 30
0.0
 40
3.5
 41
0.0
 71
     1
 72
     1
  1
24
  7
SLDTEXTSTYLE0
 73
     1
 44
1.0
  0
ENDBLK
  5
334
330
332
100
AcDbEntity
  8
0
100
AcDbBlockEnd
  0
BLOCK
  5
33D
330
33C
100
AcDbEntity
  8
0
100
AcDbBlockBegin
  2
_D_9
 70
     0
 10
0.0
 20
0.0
 30
0.0
  3
_D_9
  1

  0
SOLID
  5
33F
330
33C
100
AcDbEntity
  8
SK2
100
AcDbTrace
 10
76.0
 20
-43.4223773674
 30
0.0
 11
72.698
 21
-42.9143773674
 31
0.0
 12
72.698
 22
-43.9303773674
 32
0.0
 13
72.698
 23
-43.9303773674
 33
0.0
  0
SOLID
  5
340
330
33C
100
AcDbEntity
  8
SK2
100
AcDbTrace
 10
51.0
 20
-43.4223773674
 30
0.0
 11
54.302
 21
-43.9303773674
 31
0.0
 12
54.302
 22
-42.9143773674
 32
0.0
 13
54.302
 23
-42.9143773674
 33
0.0
  0
LINE
  5
341
330
33C
100
AcDbEntity
  8
SK2
100
AcDbLine
 10
76.0
 20
-33.4
 30
0.0
 11
76.0
 21
-44.4223773674
 31
0.0
  0
LINE
  5
342
330
33C
100
AcDbEntity
  8
SK2
100
AcDbLine
 10
51.0
 20
-31.4
 30
0.0
 11
51.0
 21
-44.4223773674
 31
0.0
  0
LINE
  5
343
330
33C
100
AcDbEntity
  8
SK2
100
AcDbLine
 10
76.0
 20
-43.4223773674
 30
0.0
 11
51.0
 21
-43.4223773674
 31
0.0
  0
MTEXT
  5
344
330
33C
100
AcDbEntity
  8
SK2
100
AcDbMText
 10
61.38392724
 20
-38.9106404529
 30
0.0
 40
3.5
 41
0.0
 71
     1
 72
     1
  1
25
  7
SLDTEXTSTYLE0
 73
     1
 44
1.0
  0
ENDBLK
  5
33E
330
33C
100
AcDbEntity
  8
0
100
AcDbBlockEnd
  0
BLOCK
  5
347
330
346
100
AcDbEntity
  8
0
100
AcDbBlockBegin
  2
_D_10
 70
     0
 10
0.0
 20
0.0
 30
0.0
  3
_D_10
  1

  0
SOLID
  5
349
330
346
100
AcDbEntity
  8
SK2
100
AcDbTrace
 10
100.0
 20
-52.6212624965
 30
0.0
 11
96.698
 21
-52.1132624965
 31
0.0
 12
96.698
 22
-53.1292624965
 32
0.0
 13
96.698
 23
-53.1292624965
 33
0.0
  0
SOLID
  5
34A
330
346
100
AcDbEntity
  8
SK2
100
AcDbTrace
 10
46.0
 20
-52.6212624965
 30
0.0
 11
49.302
 21
-53.1292624965
 31
0.0
 12
49.302
 22
-52.1132624965
 32
0.0
 13
49.302
 23
-52.1132624965
 33
0.0
  0
LINE
  5
34B
330
346
100
AcDbEntity
  8
SK2
100
AcDbLine
 10
100.0
 20
-25.9944465005
 30
0.0
 11
100.0
 21
-53.6212624965
 31
0.0
  0
LINE
  5
34C
330
346
100
AcDbEntity
  8
SK2
100
AcDbLine
 10
46.0
 20
-11.8282039139
 30
0.0
 11
46.0
 21
-53.6212624965
 31
0.0
  0
LINE
  5
34D
330
346
100
AcDbEntity
  8
SK2
100
AcDbLine
 10
100.0
 20
-52.6212624965
 30
0.0
 11
46.0
 21
-52.6212624965
 31
0.0
  0
MTEXT
  5
34E
330
346
100
AcDbEntity
  8
SK2
100
AcDbMText
 10
70.4536298888
 20
-48.1095255819
 30
0.0
 40
3.5
 41
0.0
 71
     1
 72
     1
  1
54
  7
SLDTEXTSTYLE0
 73
     1
 44
1.0
  0
ENDBLK
  5
348
330
346
100
AcDbEntity
  8
0
100
AcDbBlockEnd
  0
BLOCK
  5
351
330
350
100
AcDbEntity
  8
0
100
AcDbBlockBegin
  2
_D_11
 70
     0
 10
0.0
 20
0.0
 30
0.0
  3
_D_11
  1

  0
SOLID
  5
353
330
350
100
AcDbEntity
  8
SK2
100
AcDbTrace
 10
-85.0635360349
 20
22.225
 30
0.0
 11
-85.5715360349
 21
18.923
 31
0.0
 12
-84.5555360349
 22
18.923
 32
0.0
 13
-84.5555360349
 23
18.923
 33
0.0
  0
SOLID
  5
354
330
350
100
AcDbEntity
  8
SK2
100
AcDbTrace
 10
-85.0635360349
 20
-22.225
 30
0.0
 11
-84.5555360349
 21
-18.923
 31
0.0
 12
-85.5715360349
 22
-18.923
 32
0.0
 13
-85.5715360349
 23
-18.923
 33
0.0
  0
LINE
  5
355
330
350
100
AcDbEntity
  8
SK2
100
AcDbLine
 10
-1.0
 20
22.225
 30
0.0
 11
-86.0635360349
 21
22.225
 31
0.0
  0
LINE
  5
356
330
350
100
AcDbEntity
  8
SK2
100
AcDbLine
 10
-1.0
 20
-22.225
 30
0.0
 11
-86.0635360349
 21
-22.225
 31
0.0
  0
LINE
  5
357
330
350
100
AcDbEntity
  8
SK2
100
AcDbLine
 10
-85.0635360349
 20
22.225
 30
0.0
 11
-85.0635360349
 21
-22.225
 31
0.0
  0
MTEXT
  5
358
330
350
100
AcDbEntity
  8
SK2
100
AcDbMText
 10
-89.5752731241
 20
-9.4579768173
 30
0.0
 40
3.5
 41
0.0
 71
     1
 72
     1
  1
%%c
  7
SLDTEXTSTYLE0
 11
-7.044195017643634E-15
 21
1.0
 31
0.0
 73
     1
 44
1.0
  0
MTEXT
  5
359
330
350
100
AcDbEntity
  8
SK2
100
AcDbMText
 10
-89.6287453007
 20
-4.1795394189
 30
0.0
 40
3.5
 41
0.0
 71
     1
 72
     1
  1
44,45
  7
SLDTEXTSTYLE0
 11
-7.044195017643634E-15
 21
1.0
 31
0.0
 73
     1
 44
1.0
  0
ENDBLK
  5
352
330
350
100
AcDbEntity
  8
0
100
AcDbBlockEnd
  0
BLOCK
  5
35C
330
35B
100
AcDbEntity
  8
0
100
AcDbBlockBegin
  2
_D_12
 70
     0
 10
0.0
 20
0.0
 30
0.0
  3
_D_12
  1

  0
SOLID
  5
35E
330
35B
100
AcDbEntity
  8
SK2
100
AcDbTrace
 10
-75.6524432912
 20
-8.00000038
 30
0.0
 11
-75.1444432912
 21
-4.69800038
 31
0.0
 12
-76.1604432912
 22
-4.69800038
 32
0.0
 13
-76.1604432912
 23
-4.69800038
 33
0.0
  0
SOLID
  5
35F
330
35B
100
AcDbEntity
  8
SK2
100
AcDbTrace
 10
-75.6524432912
 20
8.00000038
 30
0.0
 11
-76.1604432912
 21
4.69800038
 31
0.0
 12
-75.1444432912
 22
4.69800038
 32
0.0
 13
-75.1444432912
 23
4.69800038
 33
0.0
  0
LINE
  5
360
330
35B
100
AcDbEntity
  8
SK2
100
AcDbLine
 10
-58.2881214321
 20
-8.00000038
 30
0.0
 11
-76.6524432912
 21
-8.00000038
 31
0.0
  0
LINE
  5
361
330
35B
100
AcDbEntity
  8
SK2
100
AcDbLine
 10
-58.2881214321
 20
8.00000038
 30
0.0
 11
-76.6524432912
 21
8.00000038
 31
0.0
  0
LINE
  5
362
330
35B
100
AcDbEntity
  8
SK2
100
AcDbLine
 10
-75.6524432912
 20
-8.00000038
 30
0.0
 11
-75.6524432912
 21
8.00000038
 31
0.0
  0
MTEXT
  5
363
330
35B
100
AcDbEntity
  8
SK2
100
AcDbMText
 10
-80.1641802057
 20
-4.5504123774
 30
0.0
 40
3.5
 41
0.0
 71
     1
 72
     1
  1
M
  7
SLDTEXTSTYLE0
 11
3.169856808907806E-15
 21
1.0
 31
0.0
 73
     1
 44
1.0
  0
MTEXT
  5
364
330
35B
100
AcDbEntity
  8
SK2
100
AcDbMText
 10
-80.1641802057
 20
-0.2629124429
 30
0.0
 40
3.5
 41
0.0
 71
     1
 72
     1
  1
16
  7
SLDTEXTSTYLE0
 11
3.169856808907806E-15
 21
1.0
 31
0.0
 73
     1
 44
1.0
  0
ENDBLK
  5
35D
330
35B
100
AcDbEntity
  8
0
100
AcDbBlockEnd
  0
BLOCK
  5
367
330
366
100
AcDbEntity
  8
0
100
AcDbBlockBegin
  2
_D_13
 70
     0
 10
0.0
 20
0.0
 30
0.0
  3
_D_13
  1

  0
SOLID
  5
369
330
366
100
AcDbEntity
  8
SK2
100
AcDbTrace
 10
-95.3356904424
 20
31.75
 30
0.0
 11
-95.8436904424
 21
28.448
 31
0.0
 12
-94.8276904424
 22
28.448
 32
0.0
 13
-94.8276904424
 23
28.448
 33
0.0
  0
SOLID
  5
36A
330
366
100
AcDbEntity
  8
SK2
100
AcDbTrace
 10
-95.3356904424
 20
-31.75
 30
0.0
 11
-94.8276904424
 21
-28.448
 31
0.0
 12
-95.8436904424
 22
-28.448
 32
0.0
 13
-95.8436904424
 23
-28.448
 33
0.0
  0
LINE
  5
36B
330
366
100
AcDbEntity
  8
SK2
100
AcDbLine
 10
2.95
 20
31.75
 30
0.0
 11
-96.3356904424
 21
31.75
 31
0.0
  0
LINE
  5
36C
330
366
100
AcDbEntity
  8
SK2
100
AcDbLine
 10
2.95
 20
-31.75
 30
0.0
 11
-96.3356904424
 21
-31.75
 31
0.0
  0
LINE
  5
36D
330
366
100
AcDbEntity
  8
SK2
100
AcDbLine
 10
-95.3356904424
 20
31.75
 30
0.0
 11
-95.3356904424
 21
-31.75
 31
0.0
  0
MTEXT
  5
36E
330
366
100
AcDbEntity
  8
SK2
100
AcDbMText
 10
-99.8474275316
 20
-8.1649215698
 30
0.0
 40
3.5
 41
0.0
 71
     1
 72
     1
  1
%%c
  7
SLDTEXTSTYLE0
 11
-7.044195017643634E-15
 21
1.0
 31
0.0
 73
     1
 44
1.0
  0
MTEXT
  5
36F
330
366
100
AcDbEntity
  8
SK2
100
AcDbMText
 10
-99.9008997083
 20
-2.8864841714
 30
0.0
 40
3.5
 41
0.0
 71
     1
 72
     1
  1
63,5
  7
SLDTEXTSTYLE0
 11
-7.044195017643634E-15
 21
1.0
 31
0.0
 73
     1
 44
1.0
  0
ENDBLK
  5
368
330
366
100
AcDbEntity
  8
0
100
AcDbBlockEnd
  0
BLOCK
  5
372
330
371
100
AcDbEntity
  8
0
100
AcDbBlockBegin
  2
SW_NOTE_0
 70
     0
 10
0.0
 20
0.0
 30
0.0
  3
SW_NOTE_0
  1

  0
MTEXT
  5
374
330
371
100
AcDbEntity
  8
SK6
 62
     0
100
AcDbMText
 10
0.0
 20
4.5117370892
 30
0.0
 40
3.5
 41
0.0
 71
     1
 72
     1
  1
TAPER ISO 40
  7
SLDTEXTSTYLE0
 73
     1
 44
1.0
  0
MTEXT
  5
375
330
371
100
AcDbEntity
  8
SK6
 62
     0
100
AcDbMText
 10
0.0
 20
-0.0139574413
 30
0.0
 40
3.5
 41
0.0
 71
     1
 72
     1
  1
DIN 69871-AD/B
  7
SLDTEXTSTYLE0
 73
     1
 44
1.0
  0
ENDBLK
  5
373
330
371
100
AcDbEntity
  8
0
100
AcDbBlockEnd
  0
ENDSEC
  0
SECTION
  2
ENTITIES
  0
LINE
  5
92
330
1F
100
AcDbEntity
  8
1
  6
SLD-Solid
370
    25
100
AcDbLine
 10
86.125
 20
-32.5
 30
0.0
 11
87.0
 21
-32.5
 31
0.0
  0
LINE
  5
93
330
1F
100
AcDbEntity
  8
1
  6
SLD-Solid
370
    25
100
AcDbLine
 10
61.125
 20
-32.5
 30
0.0
 11
65.8830221721
 21
-32.5
 31
0.0
  0
LINE
  5
94
330
1F
100
AcDbEntity
  8
1
  6
SLD-Solid
370
    25
100
AcDbLine
 10
35.8
 20
-32.5
 30
0.0
 11
40.8830221721
 21
-32.5
 31
0.0
  0
LINE
  5
95
330
1F
100
AcDbEntity
  8
1
  6
SLD-Solid
370
    25
100
AcDbLine
 10
39.91011234
 20
32.5
 30
0.0
 11
35.8
 21
32.5
 31
0.0
  0
LINE
  5
96
330
1F
100
AcDbEntity
  8
1
  6
SLD-Solid
370
    25
100
AcDbLine
 10
63.9344595657
 20
32.5
 30
0.0
 11
62.0695103005
 21
32.5
 31
0.0
  0
LINE
  5
97
330
1F
100
AcDbEntity
  8
1
  6
SLD-Solid
370
    25
100
AcDbLine
 10
87.0
 20
32.5
 30
0.0
 11
86.091533778
 21
32.5
 31
0.0
  0
LINE
  5
98
330
1F
100
AcDbEntity
  8
1
  6
SLD-Solid
370
    25
100
AcDbLine
 10
87.0
 20
-32.5
 30
0.0
 11
100.0
 21
-24.9944465005
 31
0.0
  0
LINE
  5
99
330
1F
100
AcDbEntity
  8
1
  6
SLD-Solid
370
    25
100
AcDbLine
 10
100.0
 20
24.9944465005
 30
0.0
 11
87.0
 21
32.5
 31
0.0
  0
LINE
  5
9A
330
1F
100
AcDbEntity
  8
1
  6
SLD-Solid
370
    25
100
AcDbLine
 10
7.5931633579
 20
31.75
 30
0.0
 11
3.95
 21
31.75
 31
0.0
  0
LINE
  5
9B
330
1F
100
AcDbEntity
  8
1
  6
SLD-Solid
370
    25
100
AcDbLine
 10
18.3
 20
31.75
 30
0.0
 11
14.6368366421
 21
31.75
 31
0.0
  0
LINE
  5
9C
330
1F
100
AcDbEntity
  8
1
  6
SLD-Solid
370
    25
100
AcDbLine
 10
14.6368366421
 20
31.75
 30
0.0
 11
13.03
 21
28.9668772965
 31
0.0
  0
LINE
  5
9D
330
1F
100
AcDbEntity
  8
1
  6
SLD-Solid
370
    25
100
AcDbLine
 10
9.2
 20
28.9668772965
 30
0.0
 11
7.5931633579
 21
31.75
 31
0.0
  0
LINE
  5
9E
330
1F
100
AcDbEntity
  8
1
  6
SLD-Solid
370
    25
100
AcDbLine
 10
21.05
 20
-24.0
 30
0.0
 11
34.3
 21
-24.0
 31
0.0
  0
LINE
  5
9F
330
1F
100
AcDbEntity
  8
1
  6
SLD-Solid
370
    25
100
AcDbLine
 10
34.3
 20
24.0
 30
0.0
 11
21.05
 21
24.0
 31
0.0
  0
LINE
  5
A0
330
1F
100
AcDbEntity
  8
1
  6
SLD-Solid
370
    25
100
AcDbLine
 10
1.8869952227
 20
-22.225
 30
0.0
 11
2.1330363037
 21
-22.1102691597
 31
0.0
  0
LINE
  5
A1
330
1F
100
AcDbEntity
  8
1
  6
SLD-Solid
370
    25
100
AcDbLine
 10
2.1330363037
 20
22.1102691597
 30
0.0
 11
1.8869952227
 21
22.225
 31
0.0
  0
LINE
  5
A2
330
1F
100
AcDbEntity
  8
SK1
  6
SLD-Solid
370
    25
100
AcDbLine
 10
0.0
 20
22.225
 30
0.0
 11
-67.3943082273
 21
12.3965705827
 31
0.0
  0
LINE
  5
A3
330
1F
100
AcDbEntity
  8
SK1
  6
SLD-Solid
370
    25
100
AcDbLine
 10
-67.3943082273
 20
-12.3965705827
 30
0.0
 11
0.0
 21
-22.225
 31
0.0
  0
LINE
  5
A4
330
1F
100
AcDbEntity
  8
1
  6
SLD-Solid
370
    25
100
AcDbLine
 10
0.0
 20
-22.225
 30
0.0
 11
1.8869952227
 21
-22.225
 31
0.0
  0
LINE
  5
A5
330
1F
100
AcDbEntity
  8
1
  6
SLD-Solid
370
    25
100
AcDbLine
 10
1.8869952227
 20
22.225
 30
0.0
 11
0.0
 21
22.225
 31
0.0
  0
LINE
  5
A6
330
1F
100
AcDbEntity
  8
1
  6
SLD-Solid
370
    25
100
AcDbLine
 10
3.95
 20
-31.75
 30
0.0
 11
7.5931633579
 21
-31.75
 31
0.0
  0
LINE
  5
A7
330
1F
100
AcDbEntity
  8
1
  6
SLD-Solid
370
    25
100
AcDbLine
 10
14.6368366421
 20
-31.75
 30
0.0
 11
18.3
 21
-31.75
 31
0.0
  0
LINE
  5
A8
330
1F
100
AcDbEntity
  8
1
  6
SLD-Solid
370
    25
100
AcDbLine
 10
9.95
 20
-28.0
 30
0.0
 11
12.28
 21
-28.0
 31
0.0
  0
LINE
  5
A9
330
1F
100
AcDbEntity
  8
1
  6
SLD-Solid
370
    25
100
AcDbLine
 10
13.03
 20
-28.9668772965
 30
0.0
 11
14.6368366421
 21
-31.75
 31
0.0
  0
LINE
  5
AA
330
1F
100
AcDbEntity
  8
1
  6
SLD-Solid
370
    25
100
AcDbLine
 10
7.5931633579
 20
-31.75
 30
0.0
 11
9.2
 21
-28.9668772965
 31
0.0
  0
LINE
  5
AB
330
1F
100
AcDbEntity
  8
1
  6
SLD-Solid
370
    25
100
AcDbLine
 10
12.28
 20
28.0
 30
0.0
 11
9.95
 21
28.0
 31
0.0
  0
LINE
  5
AC
330
1F
100
AcDbEntity
  8
1
  6
SLD-Solid
370
    25
100
AcDbLine
 10
87.0
 20
-32.5
 30
0.0
 11
87.0
 21
32.5
 31
0.0
  0
LINE
  5
AD
330
1F
100
AcDbEntity
  8
1
  6
SLD-Solid
370
    25
100
AcDbLine
 10
35.05
 20
-31.75
 30
0.0
 11
35.05
 21
31.75
 31
0.0
  0
LINE
  5
AE
330
1F
100
AcDbEntity
  8
1
  6
SLD-Solid
370
    25
100
AcDbLine
 10
100.0
 20
-24.9944465005
 30
0.0
 11
100.0
 21
24.9944465005
 31
0.0
  0
LINE
  5
AF
330
1F
100
AcDbEntity
  8
1
  6
SLD-Solid
370
    25
100
AcDbLine
 10
14.2709083079
 20
-8.095
 30
0.0
 11
18.3
 21
-8.095
 31
0.0
  0
LINE
  5
B0
330
1F
100
AcDbEntity
  8
1
  6
SLD-Solid
370
    25
100
AcDbLine
 10
18.3
 20
-8.73252
 30
0.0
 11
14.6368366421
 21
-8.73252
 31
0.0
  0
LINE
  5
B1
330
1F
100
AcDbEntity
  8
1
  6
SLD-Solid
370
    25
100
AcDbLine
 10
18.55
 20
-8.095
 30
0.0
 11
19.05
 21
-8.595
 31
0.0
  0
LINE
  5
B2
330
1F
100
AcDbEntity
  8
1
  6
SLD-Solid
370
    25
100
AcDbLine
 10
3.2
 20
8.595
 30
0.0
 11
3.7
 21
8.095
 31
0.0
  0
LINE
  5
B3
330
1F
100
AcDbEntity
  8
1
  6
SLD-Solid
370
    25
100
AcDbLine
 10
19.05
 20
-18.35
 30
0.0
 11
19.05
 21
-8.595
 31
0.0
  0
LINE
  5
B4
330
1F
100
AcDbEntity
  8
1
  6
SLD-Solid
370
    25
100
AcDbLine
 10
3.95
 20
8.73252
 30
0.0
 11
7.5931633579
 21
8.73252
 31
0.0
  0
LINE
  5
B5
330
1F
100
AcDbEntity
  8
1
  6
SLD-Solid
370
    25
100
AcDbLine
 10
7.5931633579
 20
8.73252
 30
0.0
 11
7.5931633579
 21
31.75
 31
0.0
  0
LINE
  5
B6
330
1F
100
AcDbEntity
  8
1
  6
SLD-Solid
370
    25
100
AcDbLine
 10
7.9590916921
 20
8.095
 30
0.0
 11
3.95
 21
8.095
 31
0.0
  0
LINE
  5
B7
330
1F
100
AcDbEntity
  8
1
  6
SLD-Solid
370
    25
100
AcDbLine
 10
3.2
 20
8.595
 30
0.0
 11
3.2
 21
31.0
 31
0.0
  0
LINE
  5
B8
330
1F
100
AcDbEntity
  8
1
  6
SLD-Solid
370
    25
100
AcDbLine
 10
14.6368366421
 20
-18.35
 30
0.0
 11
18.3
 21
-18.35
 31
0.0
  0
LINE
  5
B9
330
1F
100
AcDbEntity
  8
1
  6
SLD-Solid
370
    25
100
AcDbLine
 10
14.6368366421
 20
-18.35
 30
0.0
 11
14.6368366421
 21
-8.73252
 31
0.0
  0
LINE
  5
BA
330
1F
100
AcDbEntity
  8
1
  6
SLD-Solid
370
    25
100
AcDbLine
 10
18.55
 20
8.095
 30
0.0
 11
19.05
 21
8.595
 31
0.0
  0
LINE
  5
BB
330
1F
100
AcDbEntity
  8
1
  6
SLD-Solid
370
    25
100
AcDbLine
 10
14.6368366421
 20
8.73252
 30
0.0
 11
18.3
 21
8.73252
 31
0.0
  0
LINE
  5
BC
330
1F
100
AcDbEntity
  8
1
  6
SLD-Solid
370
    25
100
AcDbLine
 10
18.3
 20
8.095
 30
0.0
 11
14.2709083079
 21
8.095
 31
0.0
  0
LINE
  5
BD
330
1F
100
AcDbEntity
  8
1
  6
SLD-Solid
370
    25
100
AcDbLine
 10
19.05
 20
8.595
 30
0.0
 11
19.05
 21
31.0
 31
0.0
  0
LINE
  5
BE
330
1F
100
AcDbEntity
  8
1
  6
SLD-Solid
370
    25
100
AcDbLine
 10
14.6368366421
 20
8.73252
 30
0.0
 11
14.6368366421
 21
31.75
 31
0.0
  0
LINE
  5
BF
330
1F
100
AcDbEntity
  8
1
  6
SLD-Solid
370
    25
100
AcDbLine
 10
3.2
 20
-18.35
 30
0.0
 11
3.2
 21
-8.595
 31
0.0
  0
LINE
  5
C0
330
1F
100
AcDbEntity
  8
1
  6
SLD-Solid
370
    25
100
AcDbLine
 10
3.2
 20
-8.595
 30
0.0
 11
3.7
 21
-8.095
 31
0.0
  0
LINE
  5
C1
330
1F
100
AcDbEntity
  8
1
  6
SLD-Solid
370
    25
100
AcDbLine
 10
7.5931633579
 20
-8.73252
 30
0.0
 11
3.95
 21
-8.73252
 31
0.0
  0
LINE
  5
C2
330
1F
100
AcDbEntity
  8
1
  6
SLD-Solid
370
    25
100
AcDbLine
 10
3.95
 20
-8.095
 30
0.0
 11
7.9590916921
 21
-8.095
 31
0.0
  0
LINE
  5
C3
330
1F
100
AcDbEntity
  8
1
  6
SLD-Solid
370
    25
100
AcDbLine
 10
3.95
 20
-18.35
 30
0.0
 11
7.5931633579
 21
-18.35
 31
0.0
  0
LINE
  5
C4
330
1F
100
AcDbEntity
  8
1
  6
SLD-Solid
370
    25
100
AcDbLine
 10
7.5931633579
 20
-18.35
 30
0.0
 11
7.5931633579
 21
-8.73252
 31
0.0
  0
LINE
  5
C5
330
1F
100
AcDbEntity
  8
1
  6
SLD-Solid
370
    25
100
AcDbLine
 10
13.03
 20
8.095
 30
0.0
 11
13.03
 21
27.0172626808
 31
0.0
  0
LINE
  5
C6
330
1F
100
AcDbEntity
  8
1
  6
SLD-Solid
370
    25
100
AcDbLine
 10
13.03
 20
27.4118626313
 30
0.0
 11
13.03
 21
28.9668772965
 31
0.0
  0
LINE
  5
C7
330
1F
100
AcDbEntity
  8
1
  6
SLD-Solid
370
    25
100
AcDbLine
 10
13.03
 20
-18.35
 30
0.0
 11
13.03
 21
-8.095
 31
0.0
  0
LINE
  5
C8
330
1F
100
AcDbEntity
  8
1
  6
SLD-Solid
370
    25
100
AcDbLine
 10
9.2
 20
27.4118626313
 30
0.0
 11
9.2
 21
28.9668772965
 31
0.0
  0
LINE
  5
C9
330
1F
100
AcDbEntity
  8
1
  6
SLD-Solid
370
    25
100
AcDbLine
 10
9.2
 20
8.095
 30
0.0
 11
9.2
 21
27.0172626808
 31
0.0
  0
LINE
  5
CA
330
1F
100
AcDbEntity
  8
1
  6
SLD-Solid
370
    25
100
AcDbLine
 10
9.2
 20
-18.35
 30
0.0
 11
9.2
 21
-8.095
 31
0.0
  0
LINE
  5
CB
330
1F
100
AcDbEntity
  8
1
  6
SLD-Solid
370
    25
100
AcDbLine
 10
9.95
 20
8.095
 30
0.0
 11
12.28
 21
8.095
 31
0.0
  0
LINE
  5
CC
330
1F
100
AcDbEntity
  8
1
  6
SLD-Solid
370
    25
100
AcDbLine
 10
9.95
 20
-18.35
 30
0.0
 11
12.28
 21
-18.35
 31
0.0
  0
LINE
  5
CD
330
1F
100
AcDbEntity
  8
1
  6
SLD-Solid
370
    25
100
AcDbLine
 10
12.28
 20
-8.095
 30
0.0
 11
9.95
 21
-8.095
 31
0.0
  0
LINE
  5
CE
330
1F
100
AcDbEntity
  8
1
  6
SLD-Solid
370
    25
100
AcDbLine
 10
18.6091799559
 20
7.595
 30
0.0
 11
19.0973439647
 21
7.627262558
 31
0.0
  0
LINE
  5
CF
330
1F
100
AcDbEntity
  8
1
  6
SLD-Solid
370
    25
100
AcDbLine
 10
18.6091799559
 20
-7.595
 30
0.0
 11
19.0973439647
 21
-7.627262558
 31
0.0
  0
LINE
  5
D0
330
1F
100
AcDbEntity
  8
1
  6
SLD-Solid
370
    25
100
AcDbLine
 10
3.7
 20
-7.595
 30
0.0
 11
3.7
 21
-8.095
 31
0.0
  0
LINE
  5
D1
330
1F
100
AcDbEntity
  8
1
  6
SLD-Solid
370
    25
100
AcDbLine
 10
18.55
 20
-8.095
 30
0.0
 11
18.55
 21
-7.9651360176
 31
0.0
  0
LINE
  5
D2
330
1F
100
AcDbEntity
  8
1
  6
SLD-Solid
370
    25
100
AcDbLine
 10
18.55
 20
-7.9651360176
 30
0.0
 11
19.05
 21
-8.3352720352
 31
0.0
  0
LINE
  5
D3
330
1F
100
AcDbEntity
  8
1
  6
SLD-Solid
370
    25
100
AcDbLine
 10
19.05
 20
-8.3352720352
 30
0.0
 11
19.05
 21
-8.595
 31
0.0
  0
LINE
  5
D4
330
1F
100
AcDbEntity
  8
1
  6
SLD-Solid
370
    25
100
AcDbLine
 10
3.7
 20
8.095
 30
0.0
 11
3.7
 21
7.595
 31
0.0
  0
LINE
  5
D5
330
1F
100
AcDbEntity
  8
1
  6
SLD-Solid
370
    25
100
AcDbLine
 10
18.55
 20
7.9651360176
 30
0.0
 11
18.55
 21
8.095
 31
0.0
  0
LINE
  5
D6
330
1F
100
AcDbEntity
  8
1
  6
SLD-Solid
370
    25
100
AcDbLine
 10
18.55
 20
7.9651360176
 30
0.0
 11
19.05
 21
8.3352720352
 31
0.0
  0
LINE
  5
D7
330
1F
100
AcDbEntity
  8
1
  6
SLD-Solid
370
    25
100
AcDbLine
 10
19.05
 20
8.595
 30
0.0
 11
19.05
 21
8.3352720352
 31
0.0
  0
LINE
  5
D8
330
1F
100
AcDbEntity
  8
1
  6
SLD-Solid
370
    25
100
AcDbLine
 10
3.2
 20
7.595
 30
0.0
 11
3.2
 21
8.595
 31
0.0
  0
LINE
  5
D9
330
1F
100
AcDbEntity
  8
1
  6
SLD-Solid
370
    25
100
AcDbLine
 10
3.2
 20
-8.595
 30
0.0
 11
3.2
 21
-7.595
 31
0.0
  0
LINE
  5
DA
330
1F
100
AcDbEntity
  8
1
  6
SLD-Solid
370
    25
100
AcDbLine
 10
3.7
 20
7.595
 30
0.0
 11
3.7
 21
-7.595
 31
0.0
  0
LINE
  5
DB
330
1F
100
AcDbEntity
  8
1
  6
SLD-Solid
370
    25
100
AcDbLine
 10
3.2
 20
-7.595
 30
0.0
 11
3.2
 21
7.595
 31
0.0
  0
LINE
  5
DC
330
1F
100
AcDbEntity
  8
1
  6
SLD-Solid
370
    25
100
AcDbLine
 10
0.0
 20
-22.225
 30
0.0
 11
0.0
 21
22.225
 31
0.0
  0
LINE
  5
DD
330
1F
100
AcDbEntity
  8
1
  6
SLD-Solid
370
    25
100
AcDbLine
 10
3.2
 20
-18.85
 30
0.0
 11
3.2
 21
-18.35
 31
0.0
  0
LINE
  5
DE
330
1F
100
AcDbEntity
  8
1
  6
SLD-Solid
370
    25
100
AcDbLine
 10
19.05
 20
-18.35
 30
0.0
 11
19.05
 21
-18.85
 31
0.0
  0
LINE
  5
DF
330
1F
100
AcDbEntity
  8
1
  6
SLD-Solid
370
    25
100
AcDbLine
 10
3.2
 20
-31.0
 30
0.0
 11
3.2
 21
-24.9855458216
 31
0.0
  0
LINE
  5
E0
330
1F
100
AcDbEntity
  8
1
  6
SLD-Solid
370
    25
100
AcDbLine
 10
7.5931633579
 20
-25.91022964
 30
0.0
 11
3.95
 21
-25.91022964
 31
0.0
  0
LINE
  5
E1
330
1F
100
AcDbEntity
  8
1
  6
SLD-Solid
370
    25
100
AcDbLine
 10
7.5931633579
 20
-31.75
 30
0.0
 11
7.5931633579
 21
-25.91022964
 31
0.0
  0
LINE
  5
E2
330
1F
100
AcDbEntity
  8
1
  6
SLD-Solid
370
    25
100
AcDbLine
 10
19.05
 20
-31.0
 30
0.0
 11
19.05
 21
-24.9855458215
 31
0.0
  0
LINE
  5
E3
330
1F
100
AcDbEntity
  8
1
  6
SLD-Solid
370
    25
100
AcDbLine
 10
18.3
 20
-25.91022964
 30
0.0
 11
14.6368366421
 21
-25.91022964
 31
0.0
  0
LINE
  5
E4
330
1F
100
AcDbEntity
  8
1
  6
SLD-Solid
370
    25
100
AcDbLine
 10
14.6368366421
 20
-31.75
 30
0.0
 11
14.6368366421
 21
-25.91022964
 31
0.0
  0
LINE
  5
E5
330
1F
100
AcDbEntity
  8
1
  6
SLD-Solid
370
    25
100
AcDbLine
 10
12.28
 20
-21.1489361435
 30
0.0
 11
9.95
 21
-21.1489361435
 31
0.0
  0
LINE
  5
E6
330
1F
100
AcDbEntity
  8
1
  6
SLD-Solid
370
    25
100
AcDbLine
 10
13.03
 20
-22.4133326462
 30
0.0
 11
13.03
 21
-22.1323292945
 31
0.0
  0
LINE
  5
E7
330
1F
100
AcDbEntity
  8
1
  6
SLD-Solid
370
    25
100
AcDbLine
 10
9.2
 20
-22.1323292945
 30
0.0
 11
9.2
 21
-22.4133326462
 31
0.0
  0
LINE
  5
E8
330
1F
100
AcDbEntity
  8
1
  6
SLD-Solid
370
    25
100
AcDbLine
 10
3.2
 20
-18.85
 30
0.0
 11
3.2
 21
-24.9855458216
 31
0.0
  0
LINE
  5
E9
330
1F
100
AcDbEntity
  8
1
  6
SLD-Solid
370
    25
100
AcDbLine
 10
19.05
 20
-18.85
 30
0.0
 11
19.05
 21
-24.9855458215
 31
0.0
  0
LINE
  5
EA
330
1F
100
AcDbEntity
  8
1
  6
SLD-Solid
370
    25
100
AcDbLine
 10
13.03
 20
-28.9668772965
 30
0.0
 11
13.03
 21
-22.4133326462
 31
0.0
  0
LINE
  5
EB
330
1F
100
AcDbEntity
  8
1
  6
SLD-Solid
370
    25
100
AcDbLine
 10
9.2
 20
-28.9668772965
 30
0.0
 11
9.2
 21
-22.4133326462
 31
0.0
  0
LINE
  5
EC
330
1F
100
AcDbEntity
  8
SK1
  6
SLD-Solid
370
    25
100
AcDbLine
 10
-68.25
 20
-11.4070377962
 30
0.0
 11
-68.25
 21
11.4070377962
 31
0.0
  0
LINE
  5
ED
330
1F
100
AcDbEntity
  8
1
  6
SLD-Solid
370
    25
100
AcDbLine
 10
9.2
 20
27.2080239064
 30
0.0
 11
9.2
 21
27.4118626313
 31
0.0
  0
LINE
  5
EE
330
1F
100
AcDbEntity
  8
1
  6
SLD-Solid
370
    25
100
AcDbLine
 10
13.03
 20
27.4118626313
 30
0.0
 11
13.03
 21
27.2080239064
 31
0.0
  0
LINE
  5
EF
330
1F
100
AcDbEntity
  8
1
  6
SLD-Solid
370
    25
100
AcDbLine
 10
21.05
 20
24.0
 30
0.0
 11
21.05
 21
-24.0
 31
0.0
  0
LINE
  5
F0
330
1F
100
AcDbEntity
  8
1
  6
SLD-Solid
370
    25
100
AcDbLine
 10
34.3
 20
-24.0
 30
0.0
 11
34.3
 21
24.0
 31
0.0
  0
LINE
  5
F1
330
1F
100
AcDbEntity
  8
1
  6
SLD-Dashed
370
    18
100
AcDbLine
 10
39.91011234
 20
32.4976588377
 30
0.0
 11
39.9758994316
 21
32.4958723809
 31
0.0
  0
LINE
  5
F2
330
1F
100
AcDbEntity
  8
1
  6
SLD-Dashed
370
    18
100
AcDbLine
 10
61.9390315388
 20
32.4819993271
 30
0.0
 11
62.0695103005
 21
32.49186989
 31
0.0
  0
LINE
  5
F3
330
1F
100
AcDbEntity
  8
1
  6
SLD-Dashed
370
    18
100
AcDbLine
 10
63.9344595657
 20
32.490652728
 30
0.0
 11
64.0215377641
 21
32.4909826395
 31
0.0
  0
LINE
  5
F4
330
1F
100
AcDbEntity
  8
1
  6
SLD-Dashed
370
    18
100
AcDbLine
 10
86.0885004259
 20
32.4999014604
 30
0.0
 11
86.091533778
 21
32.4981097022
 31
0.0
  0
LINE
  5
F5
330
1F
100
AcDbEntity
  8
1
  6
SLD-Dashed
370
    18
100
AcDbLine
 10
13.1081088715
 20
27.3467456154
 30
0.0
 11
13.1123837663
 21
27.3888561012
 31
0.0
  0
LINE
  5
F6
330
1F
100
AcDbEntity
  8
SK3
  6
SLD-Dashed
370
    18
100
AcDbLine
 10
99.0
 20
12.5
 30
0.0
 11
99.0
 21
-12.5
 31
0.0
  0
LINE
  5
F7
330
1F
100
AcDbEntity
  8
1
  6
SLD-Dashed
370
    18
100
AcDbLine
 10
100.0
 20
13.0605655839
 30
0.0
 11
100.0
 21
-13.0605655839
 31
0.0
  0
LINE
  5
F8
330
1F
100
AcDbEntity
  8
SK3
  6
SLD-Dashed
370
    18
100
AcDbLine
 10
46.0
 20
-10.8282039139
 30
0.0
 11
46.0
 21
12.5
 31
0.0
  0
LINE
  5
F9
330
1F
100
AcDbEntity
  8
SK3
  6
SLD-Dashed
370
    18
100
AcDbLine
 10
45.75
 20
-11.2305387226
 30
0.0
 11
45.75
 21
12.75
 31
0.0
  0
LINE
  5
FA
330
1F
100
AcDbEntity
  8
SK3
  6
SLD-Dashed
370
    18
100
AcDbLine
 10
41.25
 20
-12.75
 30
0.0
 11
41.25
 21
12.733094646
 31
0.0
  0
LINE
  5
FB
330
1F
100
AcDbEntity
  8
SK3
  6
SLD-Dashed
370
    18
100
AcDbLine
 10
41.0
 20
12.4999999844
 30
0.0
 11
41.0
 21
-12.5
 31
0.0
  0
LINE
  5
FC
330
1F
100
AcDbEntity
  8
SK3
  6
SLD-Dashed
370
    18
100
AcDbLine
 10
9.1285767029
 20
23.1308393474
 30
0.0
 11
9.2573958249
 21
22.9569187183
 31
0.0
  0
LINE
  5
FD
330
1F
100
AcDbEntity
  8
SK3
  6
SLD-Dashed
370
    18
100
AcDbLine
 10
9.2573958249
 20
22.9569187183
 30
0.0
 11
9.5140072867
 21
22.8004366559
 31
0.0
  0
LINE
  5
FE
330
1F
100
AcDbEntity
  8
SK3
  6
SLD-Dashed
370
    18
100
AcDbLine
 10
9.5140072867
 20
22.8004366559
 30
0.0
 11
9.8807577155
 21
22.672158214
 31
0.0
  0
LINE
  5
FF
330
1F
100
AcDbEntity
  8
SK3
  6
SLD-Dashed
370
    18
100
AcDbLine
 10
9.8807577155
 20
22.672158214
 30
0.0
 11
10.3324168196
 21
22.5809082018
 31
0.0
  0
LINE
  5
100
330
1F
100
AcDbEntity
  8
SK3
  6
SLD-Dashed
370
    18
100
AcDbLine
 10
10.3324168196
 20
22.5809082018
 30
0.0
 11
10.837913085
 21
22.5329640883
 31
0.0
  0
LINE
  5
101
330
1F
100
AcDbEntity
  8
SK3
  6
SLD-Dashed
370
    18
100
AcDbLine
 10
10.837913085
 20
22.5329640883
 30
0.0
 11
11.3624713152
 21
22.5316241489
 31
0.0
  0
LINE
  5
102
330
1F
100
AcDbEntity
  8
SK3
  6
SLD-Dashed
370
    18
100
AcDbLine
 10
11.3624713152
 20
22.5316241489
 30
0.0
 11
11.8700049613
 21
22.5769805638
 31
0.0
  0
LINE
  5
103
330
1F
100
AcDbEntity
  8
SK3
  6
SLD-Dashed
370
    18
100
AcDbLine
 10
11.8700049613
 20
22.5769805638
 30
0.0
 11
12.3255986667
 21
22.6659130758
 31
0.0
  0
LINE
  5
104
330
1F
100
AcDbEntity
  8
SK3
  6
SLD-Dashed
370
    18
100
AcDbLine
 10
12.3255986667
 20
22.6659130758
 30
0.0
 11
12.69791024
 21
22.7923036467
 31
0.0
  0
LINE
  5
105
330
1F
100
AcDbEntity
  8
SK3
  6
SLD-Dashed
370
    18
100
AcDbLine
 10
12.69791024
 20
22.7923036467
 30
0.0
 11
12.9613268151
 21
22.9474573417
 31
0.0
  0
LINE
  5
106
330
1F
100
AcDbEntity
  8
SK3
  6
SLD-Dashed
370
    18
100
AcDbLine
 10
12.9613268151
 20
22.9474573417
 30
0.0
 11
13.0977268669
 21
23.120700491
 31
0.0
  0
LINE
  5
107
330
1F
100
AcDbEntity
  8
SK3
  6
SLD-Dashed
370
    18
100
AcDbLine
 10
13.0977268669
 20
23.120700491
 30
0.0
 11
13.0977268669
 21
23.3001149758
 31
0.0
  0
LINE
  5
108
330
1F
100
AcDbEntity
  8
SK3
  6
SLD-Dashed
370
    18
100
AcDbLine
 10
13.0977268669
 20
23.3001149758
 30
0.0
 11
12.9613268151
 21
23.4733581251
 31
0.0
  0
LINE
  5
109
330
1F
100
AcDbEntity
  8
SK3
  6
SLD-Dashed
370
    18
100
AcDbLine
 10
12.9613268151
 20
23.4733581251
 30
0.0
 11
12.69791024
 21
23.6285118201
 31
0.0
  0
LINE
  5
10A
330
1F
100
AcDbEntity
  8
SK3
  6
SLD-Dashed
370
    18
100
AcDbLine
 10
12.69791024
 20
23.6285118201
 30
0.0
 11
12.3255986667
 21
23.754902391
 31
0.0
  0
LINE
  5
10B
330
1F
100
AcDbEntity
  8
SK3
  6
SLD-Dashed
370
    18
100
AcDbLine
 10
12.3255986667
 20
23.754902391
 30
0.0
 11
11.8700049613
 21
23.8438349031
 31
0.0
  0
LINE
  5
10C
330
1F
100
AcDbEntity
  8
SK3
  6
SLD-Dashed
370
    18
100
AcDbLine
 10
11.8700049613
 20
23.8438349031
 30
0.0
 11
11.3624713152
 21
23.8891913179
 31
0.0
  0
LINE
  5
10D
330
1F
100
AcDbEntity
  8
SK3
  6
SLD-Dashed
370
    18
100
AcDbLine
 10
11.3624713152
 20
23.8891913179
 30
0.0
 11
10.837913085
 21
23.8878513785
 31
0.0
  0
LINE
  5
10E
330
1F
100
AcDbEntity
  8
SK3
  6
SLD-Dashed
370
    18
100
AcDbLine
 10
10.837913085
 20
23.8878513785
 30
0.0
 11
10.3324168196
 21
23.839907265
 31
0.0
  0
LINE
  5
10F
330
1F
100
AcDbEntity
  8
SK3
  6
SLD-Dashed
370
    18
100
AcDbLine
 10
10.3324168196
 20
23.839907265
 30
0.0
 11
9.8807577155
 21
23.7486572528
 31
0.0
  0
LINE
  5
110
330
1F
100
AcDbEntity
  8
SK3
  6
SLD-Dashed
370
    18
100
AcDbLine
 10
9.8807577155
 20
23.7486572528
 30
0.0
 11
9.5140072867
 21
23.6203788109
 31
0.0
  0
LINE
  5
111
330
1F
100
AcDbEntity
  8
SK3
  6
SLD-Dashed
370
    18
100
AcDbLine
 10
9.5140072867
 20
23.6203788109
 30
0.0
 11
9.2573958249
 21
23.4638967485
 31
0.0
  0
LINE
  5
112
330
1F
100
AcDbEntity
  8
SK3
  6
SLD-Dashed
370
    18
100
AcDbLine
 10
9.2573958249
 20
23.4638967485
 30
0.0
 11
9.1285767029
 21
23.2899761194
 31
0.0
  0
LINE
  5
113
330
1F
100
AcDbEntity
  8
1
  6
SLD-Dashed
370
    18
100
AcDbLine
 10
13.03
 20
26.813423956
 30
0.0
 11
13.03
 21
27.0172626808
 31
0.0
  0
LINE
  5
114
330
1F
100
AcDbEntity
  8
1
  6
SLD-Dashed
370
    18
100
AcDbLine
 10
9.2
 20
27.0172626808
 30
0.0
 11
9.2
 21
26.813423956
 31
0.0
  0
LINE
  5
115
330
1F
100
AcDbEntity
  8
SK3
  6
SLD-Dashed
370
    18
100
AcDbLine
 10
3.3100253255
 20
22.7838057852
 30
0.0
 11
3.4399584689
 21
22.7705685797
 31
0.0
  0
LINE
  5
116
330
1F
100
AcDbEntity
  8
SK3
  6
SLD-Dashed
370
    18
100
AcDbLine
 10
3.4399584689
 20
22.7705685797
 30
0.0
 11
3.6435729011
 21
22.8666981846
 31
0.0
  0
LINE
  5
117
330
1F
100
AcDbEntity
  8
SK3
  6
SLD-Dashed
370
    18
100
AcDbLine
 10
3.6435729011
 20
22.8666981846
 30
0.0
 11
3.9069926353
 21
23.0656435262
 31
0.0
  0
LINE
  5
118
330
1F
100
AcDbEntity
  8
SK3
  6
SLD-Dashed
370
    18
100
AcDbLine
 10
3.9069926353
 20
23.0656435262
 30
0.0
 11
4.2122660518
 21
23.3538468081
 31
0.0
  0
LINE
  5
119
330
1F
100
AcDbEntity
  8
SK3
  6
SLD-Dashed
370
    18
100
AcDbLine
 10
4.2122660518
 20
23.3538468081
 30
0.0
 11
4.5385892718
 21
23.7116674531
 31
0.0
  0
LINE
  5
11A
330
1F
100
AcDbEntity
  8
SK3
  6
SLD-Dashed
370
    18
100
AcDbLine
 10
4.5385892718
 20
23.7116674531
 30
0.0
 11
4.8637239071
 21
24.1147205754
 31
0.0
  0
LINE
  5
11B
330
1F
100
AcDbEntity
  8
SK3
  6
SLD-Dashed
370
    18
100
AcDbLine
 10
4.8637239071
 20
24.1147205754
 30
0.0
 11
5.1655125697
 21
24.535538771
 31
0.0
  0
LINE
  5
11C
330
1F
100
AcDbEntity
  8
SK3
  6
SLD-Dashed
370
    18
100
AcDbLine
 10
5.1655125697
 20
24.535538771
 30
0.0
 11
5.4233888608
 21
24.945443975
 31
0.0
  0
LINE
  5
11D
330
1F
100
AcDbEntity
  8
SK3
  6
SLD-Dashed
370
    18
100
AcDbLine
 10
5.4233888608
 20
24.945443975
 30
0.0
 11
5.6197789374
 21
25.3165018254
 31
0.0
  0
LINE
  5
11E
330
1F
100
AcDbEntity
  8
SK3
  6
SLD-Dashed
370
    18
100
AcDbLine
 10
5.6197789374
 20
25.3165018254
 30
0.0
 11
5.7412991405
 21
25.6234253429
 31
0.0
  0
LINE
  5
11F
330
1F
100
AcDbEntity
  8
SK3
  6
SLD-Dashed
370
    18
100
AcDbLine
 10
5.7412991405
 20
25.6234253429
 30
0.0
 11
5.7796680688
 21
25.8452981968
 31
0.0
  0
LINE
  5
120
330
1F
100
AcDbEntity
  8
SK3
  6
SLD-Dashed
370
    18
100
AcDbLine
 10
5.7796680688
 20
25.8452981968
 30
0.0
 11
5.7322709434
 21
25.9670001189
 31
0.0
  0
LINE
  5
121
330
1F
100
AcDbEntity
  8
SK3
  6
SLD-Dashed
370
    18
100
AcDbLine
 10
5.7322709434
 20
25.9670001189
 30
0.0
 11
5.6023378001
 21
25.9802373244
 31
0.0
  0
LINE
  5
122
330
1F
100
AcDbEntity
  8
SK3
  6
SLD-Dashed
370
    18
100
AcDbLine
 10
5.6023378001
 20
25.9802373244
 30
0.0
 11
5.3987233678
 21
25.8841077195
 31
0.0
  0
LINE
  5
123
330
1F
100
AcDbEntity
  8
SK3
  6
SLD-Dashed
370
    18
100
AcDbLine
 10
5.3987233678
 20
25.8841077195
 30
0.0
 11
5.1353036336
 21
25.6851623779
 31
0.0
  0
LINE
  5
124
330
1F
100
AcDbEntity
  8
SK3
  6
SLD-Dashed
370
    18
100
AcDbLine
 10
5.1353036336
 20
25.6851623779
 30
0.0
 11
4.8300302171
 21
25.3969590959
 31
0.0
  0
LINE
  5
125
330
1F
100
AcDbEntity
  8
SK3
  6
SLD-Dashed
370
    18
100
AcDbLine
 10
4.8300302171
 20
25.3969590959
 30
0.0
 11
4.5037069971
 21
25.039138451
 31
0.0
  0
LINE
  5
126
330
1F
100
AcDbEntity
  8
SK3
  6
SLD-Dashed
370
    18
100
AcDbLine
 10
4.5037069971
 20
25.039138451
 30
0.0
 11
4.1785723618
 21
24.6360853286
 31
0.0
  0
LINE
  5
127
330
1F
100
AcDbEntity
  8
SK3
  6
SLD-Dashed
370
    18
100
AcDbLine
 10
4.1785723618
 20
24.6360853286
 30
0.0
 11
3.8767836993
 21
24.2152671331
 31
0.0
  0
LINE
  5
128
330
1F
100
AcDbEntity
  8
SK3
  6
SLD-Dashed
370
    18
100
AcDbLine
 10
3.8767836993
 20
24.2152671331
 30
0.0
 11
3.6189074082
 21
23.805361929
 31
0.0
  0
LINE
  5
129
330
1F
100
AcDbEntity
  8
SK3
  6
SLD-Dashed
370
    18
100
AcDbLine
 10
3.6189074082
 20
23.805361929
 30
0.0
 11
3.4225173315
 21
23.4343040786
 31
0.0
  0
LINE
  5
12A
330
1F
100
AcDbEntity
  8
SK3
  6
SLD-Dashed
370
    18
100
AcDbLine
 10
3.4225173315
 20
23.4343040786
 30
0.0
 11
3.3009971285
 21
23.1273805612
 31
0.0
  0
LINE
  5
12B
330
1F
100
AcDbEntity
  8
SK3
  6
SLD-Dashed
370
    18
100
AcDbLine
 10
3.3009971285
 20
23.1273805612
 30
0.0
 11
3.2626282002
 21
22.9055077073
 31
0.0
  0
LINE
  5
12C
330
1F
100
AcDbEntity
  8
SK3
  6
SLD-Dashed
370
    18
100
AcDbLine
 10
3.2626282002
 20
22.9055077073
 30
0.0
 11
3.3100253255
 21
22.7838057852
 31
0.0
  0
LINE
  5
12D
330
1F
100
AcDbEntity
  8
SK3
  6
SLD-Dashed
370
    18
100
AcDbLine
 10
3.2
 20
22.8742979511
 30
0.0
 11
3.2
 21
27.8871582268
 31
0.0
  0
LINE
  5
12E
330
1F
100
AcDbEntity
  8
SK3
  6
SLD-Dashed
370
    18
100
AcDbLine
 10
3.3403033958
 20
22.8235957143
 30
0.0
 11
3.4669882105
 21
22.810689439
 31
0.0
  0
LINE
  5
12F
330
1F
100
AcDbEntity
  8
SK3
  6
SLD-Dashed
370
    18
100
AcDbLine
 10
3.4669882105
 20
22.810689439
 30
0.0
 11
3.665512282
 21
22.9044158038
 31
0.0
  0
LINE
  5
130
330
1F
100
AcDbEntity
  8
SK3
  6
SLD-Dashed
370
    18
100
AcDbLine
 10
3.665512282
 20
22.9044158038
 30
0.0
 11
3.9223465228
 21
23.0983875118
 31
0.0
  0
LINE
  5
131
330
1F
100
AcDbEntity
  8
SK3
  6
SLD-Dashed
370
    18
100
AcDbLine
 10
3.9223465228
 20
23.0983875118
 30
0.0
 11
4.2199881039
 21
23.3793857117
 31
0.0
  0
LINE
  5
132
330
1F
100
AcDbEntity
  8
SK3
  6
SLD-Dashed
370
    18
100
AcDbLine
 10
4.2199881039
 20
23.3793857117
 30
0.0
 11
4.5381532434
 21
23.7282608406
 31
0.0
  0
LINE
  5
133
330
1F
100
AcDbEntity
  8
SK3
  6
SLD-Dashed
370
    18
100
AcDbLine
 10
4.5381532434
 20
23.7282608406
 30
0.0
 11
4.8551595128
 21
24.1212376349
 31
0.0
  0
LINE
  5
134
330
1F
100
AcDbEntity
  8
SK3
  6
SLD-Dashed
370
    18
100
AcDbLine
 10
4.8551595128
 20
24.1212376349
 30
0.0
 11
5.1494034588
 21
24.5315353755
 31
0.0
  0
LINE
  5
135
330
1F
100
AcDbEntity
  8
SK3
  6
SLD-Dashed
370
    18
100
AcDbLine
 10
5.1494034588
 20
24.5315353755
 30
0.0
 11
5.4008328426
 21
24.9311929495
 31
0.0
  0
LINE
  5
136
330
1F
100
AcDbEntity
  8
SK3
  6
SLD-Dashed
370
    18
100
AcDbLine
 10
5.4008328426
 20
24.9311929495
 30
0.0
 11
5.5923131674
 21
25.2929743536
 31
0.0
  0
LINE
  5
137
330
1F
100
AcDbEntity
  8
SK3
  6
SLD-Dashed
370
    18
100
AcDbLine
 10
5.5923131674
 20
25.2929743536
 30
0.0
 11
5.7107953653
 21
25.5922247831
 31
0.0
  0
LINE
  5
138
330
1F
100
AcDbEntity
  8
SK3
  6
SLD-Dashed
370
    18
100
AcDbLine
 10
5.7107953653
 20
25.5922247831
 30
0.0
 11
5.7482050704
 21
25.8085508157
 31
0.0
  0
LINE
  5
139
330
1F
100
AcDbEntity
  8
SK3
  6
SLD-Dashed
370
    18
100
AcDbLine
 10
5.7482050704
 20
25.8085508157
 30
0.0
 11
5.7019928732
 21
25.9272101898
 31
0.0
  0
LINE
  5
13A
330
1F
100
AcDbEntity
  8
SK3
  6
SLD-Dashed
370
    18
100
AcDbLine
 10
5.7019928732
 20
25.9272101898
 30
0.0
 11
5.5753080585
 21
25.9401164651
 31
0.0
  0
LINE
  5
13B
330
1F
100
AcDbEntity
  8
SK3
  6
SLD-Dashed
370
    18
100
AcDbLine
 10
5.5753080585
 20
25.9401164651
 30
0.0
 11
5.376783987
 21
25.8463901003
 31
0.0
  0
LINE
  5
13C
330
1F
100
AcDbEntity
  8
SK3
  6
SLD-Dashed
370
    18
100
AcDbLine
 10
5.376783987
 20
25.8463901003
 30
0.0
 11
5.1199497461
 21
25.6524183922
 31
0.0
  0
LINE
  5
13D
330
1F
100
AcDbEntity
  8
SK3
  6
SLD-Dashed
370
    18
100
AcDbLine
 10
5.1199497461
 20
25.6524183922
 30
0.0
 11
4.8223081651
 21
25.3714201923
 31
0.0
  0
LINE
  5
13E
330
1F
100
AcDbEntity
  8
SK3
  6
SLD-Dashed
370
    18
100
AcDbLine
 10
4.8223081651
 20
25.3714201923
 30
0.0
 11
4.5041430256
 21
25.0225450635
 31
0.0
  0
LINE
  5
13F
330
1F
100
AcDbEntity
  8
SK3
  6
SLD-Dashed
370
    18
100
AcDbLine
 10
4.5041430256
 20
25.0225450635
 30
0.0
 11
4.1871367561
 21
24.6295682692
 31
0.0
  0
LINE
  5
140
330
1F
100
AcDbEntity
  8
SK3
  6
SLD-Dashed
370
    18
100
AcDbLine
 10
4.1871367561
 20
24.6295682692
 30
0.0
 11
3.8928928102
 21
24.2192705286
 31
0.0
  0
LINE
  5
141
330
1F
100
AcDbEntity
  8
SK3
  6
SLD-Dashed
370
    18
100
AcDbLine
 10
3.8928928102
 20
24.2192705286
 30
0.0
 11
3.6414634263
 21
23.8196129546
 31
0.0
  0
LINE
  5
142
330
1F
100
AcDbEntity
  8
SK3
  6
SLD-Dashed
370
    18
100
AcDbLine
 10
3.6414634263
 20
23.8196129546
 30
0.0
 11
3.4499831016
 21
23.4578315505
 31
0.0
  0
LINE
  5
143
330
1F
100
AcDbEntity
  8
SK3
  6
SLD-Dashed
370
    18
100
AcDbLine
 10
3.4499831016
 20
23.4578315505
 30
0.0
 11
3.3315009036
 21
23.158581121
 31
0.0
  0
LINE
  5
144
330
1F
100
AcDbEntity
  8
SK3
  6
SLD-Dashed
370
    18
100
AcDbLine
 10
3.3315009036
 20
23.158581121
 30
0.0
 11
3.2940911985
 21
22.9422550884
 31
0.0
  0
LINE
  5
145
330
1F
100
AcDbEntity
  8
SK3
  6
SLD-Dashed
370
    18
100
AcDbLine
 10
3.2940911985
 20
22.9422550884
 30
0.0
 11
3.3403033958
 21
22.8235957143
 31
0.0
  0
LINE
  5
146
330
1F
100
AcDbEntity
  8
SK3
  6
SLD-Dashed
370
    18
100
AcDbLine
 10
13.9872030677
 20
14.7218578465
 30
0.0
 11
14.1138878825
 21
14.7089515712
 31
0.0
  0
LINE
  5
147
330
1F
100
AcDbEntity
  8
SK3
  6
SLD-Dashed
370
    18
100
AcDbLine
 10
14.1138878825
 20
14.7089515712
 30
0.0
 11
14.3124119539
 21
14.802677936
 31
0.0
  0
LINE
  5
148
330
1F
100
AcDbEntity
  8
SK3
  6
SLD-Dashed
370
    18
100
AcDbLine
 10
14.3124119539
 20
14.802677936
 30
0.0
 11
14.5692461948
 21
14.996649644
 31
0.0
  0
LINE
  5
149
330
1F
100
AcDbEntity
  8
SK3
  6
SLD-Dashed
370
    18
100
AcDbLine
 10
14.5692461948
 20
14.996649644
 30
0.0
 11
14.8668877759
 21
15.2776478439
 31
0.0
  0
LINE
  5
14A
330
1F
100
AcDbEntity
  8
SK3
  6
SLD-Dashed
370
    18
100
AcDbLine
 10
14.8668877759
 20
15.2776478439
 30
0.0
 11
15.1850529154
 21
15.6265229727
 31
0.0
  0
LINE
  5
14B
330
1F
100
AcDbEntity
  8
SK3
  6
SLD-Dashed
370
    18
100
AcDbLine
 10
15.1850529154
 20
15.6265229727
 30
0.0
 11
15.5020591848
 21
16.019499767
 31
0.0
  0
LINE
  5
14C
330
1F
100
AcDbEntity
  8
SK3
  6
SLD-Dashed
370
    18
100
AcDbLine
 10
15.5020591848
 20
16.019499767
 30
0.0
 11
15.7963031307
 21
16.4297975076
 31
0.0
  0
LINE
  5
14D
330
1F
100
AcDbEntity
  8
SK3
  6
SLD-Dashed
370
    18
100
AcDbLine
 10
15.7963031307
 20
16.4297975076
 30
0.0
 11
16.0477325146
 21
16.8294550816
 31
0.0
  0
LINE
  5
14E
330
1F
100
AcDbEntity
  8
SK3
  6
SLD-Dashed
370
    18
100
AcDbLine
 10
16.0477325146
 20
16.8294550816
 30
0.0
 11
16.2392128393
 21
17.1912364858
 31
0.0
  0
LINE
  5
14F
330
1F
100
AcDbEntity
  8
SK3
  6
SLD-Dashed
370
    18
100
AcDbLine
 10
16.2392128393
 20
17.1912364858
 30
0.0
 11
16.3576950373
 21
17.4904869152
 31
0.0
  0
LINE
  5
150
330
1F
100
AcDbEntity
  8
SK3
  6
SLD-Dashed
370
    18
100
AcDbLine
 10
16.3576950373
 20
17.4904869152
 30
0.0
 11
16.3951047424
 21
17.7068129478
 31
0.0
  0
LINE
  5
151
330
1F
100
AcDbEntity
  8
SK3
  6
SLD-Dashed
370
    18
100
AcDbLine
 10
16.3951047424
 20
17.7068129478
 30
0.0
 11
16.3488925452
 21
17.8254723219
 31
0.0
  0
LINE
  5
152
330
1F
100
AcDbEntity
  8
SK3
  6
SLD-Dashed
370
    18
100
AcDbLine
 10
16.3488925452
 20
17.8254723219
 30
0.0
 11
16.2222077304
 21
17.8383785972
 31
0.0
  0
LINE
  5
153
330
1F
100
AcDbEntity
  8
SK3
  6
SLD-Dashed
370
    18
100
AcDbLine
 10
16.2222077304
 20
17.8383785972
 30
0.0
 11
16.0236836589
 21
17.7446522324
 31
0.0
  0
LINE
  5
154
330
1F
100
AcDbEntity
  8
SK3
  6
SLD-Dashed
370
    18
100
AcDbLine
 10
16.0236836589
 20
17.7446522324
 30
0.0
 11
15.7668494181
 21
17.5506805244
 31
0.0
  0
LINE
  5
155
330
1F
100
AcDbEntity
  8
SK3
  6
SLD-Dashed
370
    18
100
AcDbLine
 10
15.7668494181
 20
17.5506805244
 30
0.0
 11
15.469207837
 21
17.2696823245
 31
0.0
  0
LINE
  5
156
330
1F
100
AcDbEntity
  8
SK3
  6
SLD-Dashed
370
    18
100
AcDbLine
 10
15.469207837
 20
17.2696823245
 30
0.0
 11
15.1510426975
 21
16.9208071957
 31
0.0
  0
LINE
  5
157
330
1F
100
AcDbEntity
  8
SK3
  6
SLD-Dashed
370
    18
100
AcDbLine
 10
15.1510426975
 20
16.9208071957
 30
0.0
 11
14.8340364281
 21
16.5278304014
 31
0.0
  0
LINE
  5
158
330
1F
100
AcDbEntity
  8
SK3
  6
SLD-Dashed
370
    18
100
AcDbLine
 10
14.8340364281
 20
16.5278304014
 30
0.0
 11
14.5397924821
 21
16.1175326608
 31
0.0
  0
LINE
  5
159
330
1F
100
AcDbEntity
  8
SK3
  6
SLD-Dashed
370
    18
100
AcDbLine
 10
14.5397924821
 20
16.1175326608
 30
0.0
 11
14.2883630983
 21
15.7178750868
 31
0.0
  0
LINE
  5
15A
330
1F
100
AcDbEntity
  8
SK3
  6
SLD-Dashed
370
    18
100
AcDbLine
 10
14.2883630983
 20
15.7178750868
 30
0.0
 11
14.0968827735
 21
15.3560936826
 31
0.0
  0
LINE
  5
15B
330
1F
100
AcDbEntity
  8
SK3
  6
SLD-Dashed
370
    18
100
AcDbLine
 10
14.0968827735
 20
15.3560936826
 30
0.0
 11
13.9784005756
 21
15.0568432532
 31
0.0
  0
LINE
  5
15C
330
1F
100
AcDbEntity
  8
SK3
  6
SLD-Dashed
370
    18
100
AcDbLine
 10
13.9784005756
 20
15.0568432532
 30
0.0
 11
13.9409908705
 21
14.8405172206
 31
0.0
  0
LINE
  5
15D
330
1F
100
AcDbEntity
  8
SK3
  6
SLD-Dashed
370
    18
100
AcDbLine
 10
13.9409908705
 20
14.8405172206
 30
0.0
 11
13.9872030677
 21
14.7218578465
 31
0.0
  0
LINE
  5
15E
330
1F
100
AcDbEntity
  8
SK3
  6
SLD-Dashed
370
    18
100
AcDbLine
 10
11.115
 20
22.6460744969
 30
0.0
 11
11.5798587188
 21
22.6689339582
 31
0.0
  0
LINE
  5
15F
330
1F
100
AcDbEntity
  8
SK3
  6
SLD-Dashed
370
    18
100
AcDbLine
 10
11.5798587188
 20
22.6689339582
 30
0.0
 11
12.0070573488
 21
22.7356604045
 31
0.0
  0
LINE
  5
160
330
1F
100
AcDbEntity
  8
SK3
  6
SLD-Dashed
370
    18
100
AcDbLine
 10
12.0070573488
 20
22.7356604045
 30
0.0
 11
12.3619867977
 21
22.840848056
 31
0.0
  0
LINE
  5
161
330
1F
100
AcDbEntity
  8
SK3
  6
SLD-Dashed
370
    18
100
AcDbLine
 10
12.3619867977
 20
22.840848056
 30
0.0
 11
12.6158927923
 21
22.9759752346
 31
0.0
  0
LINE
  5
162
330
1F
100
AcDbEntity
  8
SK3
  6
SLD-Dashed
370
    18
100
AcDbLine
 10
12.6158927923
 20
22.9759752346
 30
0.0
 11
12.7482053791
 21
23.1300947401
 31
0.0
  0
LINE
  5
163
330
1F
100
AcDbEntity
  8
SK3
  6
SLD-Dashed
370
    18
100
AcDbLine
 10
12.7482053791
 20
23.1300947401
 30
0.0
 11
12.7482053791
 21
23.2907207267
 31
0.0
  0
LINE
  5
164
330
1F
100
AcDbEntity
  8
SK3
  6
SLD-Dashed
370
    18
100
AcDbLine
 10
12.7482053791
 20
23.2907207267
 30
0.0
 11
12.6158927923
 21
23.4448402322
 31
0.0
  0
LINE
  5
165
330
1F
100
AcDbEntity
  8
SK3
  6
SLD-Dashed
370
    18
100
AcDbLine
 10
12.6158927923
 20
23.4448402322
 30
0.0
 11
12.3619867977
 21
23.5799674108
 31
0.0
  0
LINE
  5
166
330
1F
100
AcDbEntity
  8
SK3
  6
SLD-Dashed
370
    18
100
AcDbLine
 10
12.3619867977
 20
23.5799674108
 30
0.0
 11
12.0070573488
 21
23.6851550623
 31
0.0
  0
LINE
  5
167
330
1F
100
AcDbEntity
  8
SK3
  6
SLD-Dashed
370
    18
100
AcDbLine
 10
12.0070573488
 20
23.6851550623
 30
0.0
 11
11.5798587188
 21
23.7518815086
 31
0.0
  0
LINE
  5
168
330
1F
100
AcDbEntity
  8
SK3
  6
SLD-Dashed
370
    18
100
AcDbLine
 10
11.5798587188
 20
23.7518815086
 30
0.0
 11
11.115
 21
23.7747409699
 31
0.0
  0
LINE
  5
169
330
1F
100
AcDbEntity
  8
SK3
  6
SLD-Dashed
370
    18
100
AcDbLine
 10
11.115
 20
23.7747409699
 30
0.0
 11
10.6501412812
 21
23.7518815086
 31
0.0
  0
LINE
  5
16A
330
1F
100
AcDbEntity
  8
SK3
  6
SLD-Dashed
370
    18
100
AcDbLine
 10
10.6501412812
 20
23.7518815086
 30
0.0
 11
10.2229426512
 21
23.6851550623
 31
0.0
  0
LINE
  5
16B
330
1F
100
AcDbEntity
  8
SK3
  6
SLD-Dashed
370
    18
100
AcDbLine
 10
10.2229426512
 20
23.6851550623
 30
0.0
 11
9.8680132023
 21
23.5799674108
 31
0.0
  0
LINE
  5
16C
330
1F
100
AcDbEntity
  8
SK3
  6
SLD-Dashed
370
    18
100
AcDbLine
 10
9.8680132023
 20
23.5799674108
 30
0.0
 11
9.6141072077
 21
23.4448402322
 31
0.0
  0
LINE
  5
16D
330
1F
100
AcDbEntity
  8
SK3
  6
SLD-Dashed
370
    18
100
AcDbLine
 10
9.6141072077
 20
23.4448402322
 30
0.0
 11
9.4817946209
 21
23.2907207267
 31
0.0
  0
LINE
  5
16E
330
1F
100
AcDbEntity
  8
SK3
  6
SLD-Dashed
370
    18
100
AcDbLine
 10
9.4817946209
 20
23.2907207267
 30
0.0
 11
9.4817946209
 21
23.1300947401
 31
0.0
  0
LINE
  5
16F
330
1F
100
AcDbEntity
  8
SK3
  6
SLD-Dashed
370
    18
100
AcDbLine
 10
9.4817946209
 20
23.1300947401
 30
0.0
 11
9.6141072077
 21
22.9759752346
 31
0.0
  0
LINE
  5
170
330
1F
100
AcDbEntity
  8
SK3
  6
SLD-Dashed
370
    18
100
AcDbLine
 10
9.6141072077
 20
22.9759752346
 30
0.0
 11
9.8680132023
 21
22.840848056
 31
0.0
  0
LINE
  5
171
330
1F
100
AcDbEntity
  8
SK3
  6
SLD-Dashed
370
    18
100
AcDbLine
 10
9.8680132023
 20
22.840848056
 30
0.0
 11
10.2229426512
 21
22.7356604045
 31
0.0
  0
LINE
  5
172
330
1F
100
AcDbEntity
  8
SK3
  6
SLD-Dashed
370
    18
100
AcDbLine
 10
10.2229426512
 20
22.7356604045
 30
0.0
 11
10.6501412812
 21
22.6689339582
 31
0.0
  0
LINE
  5
173
330
1F
100
AcDbEntity
  8
SK3
  6
SLD-Dashed
370
    18
100
AcDbLine
 10
10.6501412812
 20
22.6689339582
 30
0.0
 11
11.115
 21
22.6460744969
 31
0.0
  0
LINE
  5
174
330
1F
100
AcDbEntity
  8
SK3
  6
SLD-Dashed
370
    18
100
AcDbLine
 10
65.875
 20
-30.4
 30
0.0
 11
86.125
 21
-30.4
 31
0.0
  0
LINE
  5
175
330
1F
100
AcDbEntity
  8
SK3
  6
SLD-Dashed
370
    18
100
AcDbLine
 10
40.875
 20
-30.4
 30
0.0
 11
61.125
 21
-30.4
 31
0.0
  0
LINE
  5
176
330
1F
100
AcDbEntity
  8
SK3
  6
SLD-Dashed
370
    18
100
AcDbLine
 10
-66.9509618943
 20
-8.5
 30
0.0
 11
-66.9509618943
 21
8.5
 31
0.0
  0
LINE
  5
177
330
1F
100
AcDbEntity
  8
SK3
  6
SLD-Dashed
370
    18
100
AcDbLine
 10
-68.25
 20
9.25
 30
0.0
 11
-68.25
 21
-9.25
 31
0.0
  0
LINE
  5
178
330
1F
100
AcDbEntity
  8
SK3
  6
SLD-Dashed
370
    18
100
AcDbLine
 10
-57.75
 20
-8.8
 30
0.0
 11
-57.75
 21
8.8
 31
0.0
  0
LINE
  5
179
330
1F
100
AcDbEntity
  8
SK3
  6
SLD-Dashed
370
    18
100
AcDbLine
 10
-59.75
 20
-8.8
 30
0.0
 11
-59.75
 21
8.8
 31
0.0
  0
LINE
  5
17A
330
1F
100
AcDbEntity
  8
SK3
  6
SLD-Dashed
370
    18
100
AcDbLine
 10
-60.2696152423
 20
-8.5
 30
0.0
 11
-60.2696152423
 21
8.5
 31
0.0
  0
LINE
  5
17B
330
1F
100
AcDbEntity
  8
SK3
  6
SLD-Dashed
370
    18
100
AcDbLine
 10
-56.7107695155
 20
7.0
 30
0.0
 11
-56.7107695155
 21
-7.0
 31
0.0
  0
LINE
  5
17C
330
1F
100
AcDbEntity
  8
SK3
  6
SLD-Dashed
370
    18
100
AcDbLine
 10
68.0
 20
-30.4
 30
0.0
 11
83.983563142
 21
-30.4
 31
0.0
  0
LINE
  5
17D
330
1F
100
AcDbEntity
  8
SK3
  6
SLD-Dashed
370
    18
100
AcDbLine
 10
43.0
 20
-30.4
 30
0.0
 11
58.983563142
 21
-30.4
 31
0.0
  0
LINE
  5
17E
330
1F
100
AcDbEntity
  8
SK3
  6
SLD-Dashed
370
    18
100
AcDbLine
 10
41.0
 20
6.99995
 30
0.0
 11
41.0
 21
-6.9828984736
 31
0.0
  0
LINE
  5
17F
330
1F
100
AcDbEntity
  8
SK3
  6
SLD-Dashed
370
    18
100
AcDbLine
 10
16.3488925452
 20
-17.8254723219
 30
0.0
 11
16.2222077304
 21
-17.8383785972
 31
0.0
  0
LINE
  5
180
330
1F
100
AcDbEntity
  8
SK3
  6
SLD-Dashed
370
    18
100
AcDbLine
 10
16.2222077304
 20
-17.8383785972
 30
0.0
 11
16.0236836589
 21
-17.7446522324
 31
0.0
  0
LINE
  5
181
330
1F
100
AcDbEntity
  8
SK3
  6
SLD-Dashed
370
    18
100
AcDbLine
 10
16.0236836589
 20
-17.7446522324
 30
0.0
 11
15.7668494181
 21
-17.5506805244
 31
0.0
  0
LINE
  5
182
330
1F
100
AcDbEntity
  8
SK3
  6
SLD-Dashed
370
    18
100
AcDbLine
 10
15.7668494181
 20
-17.5506805244
 30
0.0
 11
15.469207837
 21
-17.2696823245
 31
0.0
  0
LINE
  5
183
330
1F
100
AcDbEntity
  8
SK3
  6
SLD-Dashed
370
    18
100
AcDbLine
 10
15.469207837
 20
-17.2696823245
 30
0.0
 11
15.1510426975
 21
-16.9208071957
 31
0.0
  0
LINE
  5
184
330
1F
100
AcDbEntity
  8
SK3
  6
SLD-Dashed
370
    18
100
AcDbLine
 10
15.1510426975
 20
-16.9208071957
 30
0.0
 11
14.8340364281
 21
-16.5278304014
 31
0.0
  0
LINE
  5
185
330
1F
100
AcDbEntity
  8
SK3
  6
SLD-Dashed
370
    18
100
AcDbLine
 10
14.8340364281
 20
-16.5278304014
 30
0.0
 11
14.5397924821
 21
-16.1175326608
 31
0.0
  0
LINE
  5
186
330
1F
100
AcDbEntity
  8
SK3
  6
SLD-Dashed
370
    18
100
AcDbLine
 10
14.5397924821
 20
-16.1175326608
 30
0.0
 11
14.2883630983
 21
-15.7178750868
 31
0.0
  0
LINE
  5
187
330
1F
100
AcDbEntity
  8
SK3
  6
SLD-Dashed
370
    18
100
AcDbLine
 10
14.2883630983
 20
-15.7178750868
 30
0.0
 11
14.0968827735
 21
-15.3560936826
 31
0.0
  0
LINE
  5
188
330
1F
100
AcDbEntity
  8
SK3
  6
SLD-Dashed
370
    18
100
AcDbLine
 10
14.0968827735
 20
-15.3560936826
 30
0.0
 11
13.9784005756
 21
-15.0568432532
 31
0.0
  0
LINE
  5
189
330
1F
100
AcDbEntity
  8
SK3
  6
SLD-Dashed
370
    18
100
AcDbLine
 10
13.9784005756
 20
-15.0568432532
 30
0.0
 11
13.9409908705
 21
-14.8405172206
 31
0.0
  0
LINE
  5
18A
330
1F
100
AcDbEntity
  8
SK3
  6
SLD-Dashed
370
    18
100
AcDbLine
 10
13.9409908705
 20
-14.8405172206
 30
0.0
 11
13.9872030677
 21
-14.7218578465
 31
0.0
  0
LINE
  5
18B
330
1F
100
AcDbEntity
  8
SK3
  6
SLD-Dashed
370
    18
100
AcDbLine
 10
13.9872030677
 20
-14.7218578465
 30
0.0
 11
14.1138878825
 21
-14.7089515712
 31
0.0
  0
LINE
  5
18C
330
1F
100
AcDbEntity
  8
SK3
  6
SLD-Dashed
370
    18
100
AcDbLine
 10
14.1138878825
 20
-14.7089515712
 30
0.0
 11
14.3124119539
 21
-14.802677936
 31
0.0
  0
LINE
  5
18D
330
1F
100
AcDbEntity
  8
SK3
  6
SLD-Dashed
370
    18
100
AcDbLine
 10
14.3124119539
 20
-14.802677936
 30
0.0
 11
14.5692461948
 21
-14.996649644
 31
0.0
  0
LINE
  5
18E
330
1F
100
AcDbEntity
  8
SK3
  6
SLD-Dashed
370
    18
100
AcDbLine
 10
14.5692461948
 20
-14.996649644
 30
0.0
 11
14.8668877759
 21
-15.2776478439
 31
0.0
  0
LINE
  5
18F
330
1F
100
AcDbEntity
  8
SK3
  6
SLD-Dashed
370
    18
100
AcDbLine
 10
14.8668877759
 20
-15.2776478439
 30
0.0
 11
15.1850529154
 21
-15.6265229727
 31
0.0
  0
LINE
  5
190
330
1F
100
AcDbEntity
  8
SK3
  6
SLD-Dashed
370
    18
100
AcDbLine
 10
15.1850529154
 20
-15.6265229727
 30
0.0
 11
15.5020591848
 21
-16.019499767
 31
0.0
  0
LINE
  5
191
330
1F
100
AcDbEntity
  8
SK3
  6
SLD-Dashed
370
    18
100
AcDbLine
 10
15.5020591848
 20
-16.019499767
 30
0.0
 11
15.7963031307
 21
-16.4297975076
 31
0.0
  0
LINE
  5
192
330
1F
100
AcDbEntity
  8
SK3
  6
SLD-Dashed
370
    18
100
AcDbLine
 10
15.7963031307
 20
-16.4297975076
 30
0.0
 11
16.0477325146
 21
-16.8294550816
 31
0.0
  0
LINE
  5
193
330
1F
100
AcDbEntity
  8
SK3
  6
SLD-Dashed
370
    18
100
AcDbLine
 10
16.0477325146
 20
-16.8294550816
 30
0.0
 11
16.2392128393
 21
-17.1912364858
 31
0.0
  0
LINE
  5
194
330
1F
100
AcDbEntity
  8
SK3
  6
SLD-Dashed
370
    18
100
AcDbLine
 10
16.2392128393
 20
-17.1912364858
 30
0.0
 11
16.3576950373
 21
-17.4904869152
 31
0.0
  0
LINE
  5
195
330
1F
100
AcDbEntity
  8
SK3
  6
SLD-Dashed
370
    18
100
AcDbLine
 10
16.3576950373
 20
-17.4904869152
 30
0.0
 11
16.3951047424
 21
-17.7068129478
 31
0.0
  0
LINE
  5
196
330
1F
100
AcDbEntity
  8
SK3
  6
SLD-Dashed
370
    18
100
AcDbLine
 10
16.3951047424
 20
-17.7068129478
 30
0.0
 11
16.3488925452
 21
-17.8254723219
 31
0.0
  0
LINE
  5
197
330
1F
100
AcDbEntity
  8
SK3
  6
SLD-Dashed
370
    18
100
AcDbLine
 10
5.7019928732
 20
-25.9272101898
 30
0.0
 11
5.5753080585
 21
-25.9401164651
 31
0.0
  0
LINE
  5
198
330
1F
100
AcDbEntity
  8
SK3
  6
SLD-Dashed
370
    18
100
AcDbLine
 10
5.5753080585
 20
-25.9401164651
 30
0.0
 11
5.376783987
 21
-25.8463901003
 31
0.0
  0
LINE
  5
199
330
1F
100
AcDbEntity
  8
SK3
  6
SLD-Dashed
370
    18
100
AcDbLine
 10
5.376783987
 20
-25.8463901003
 30
0.0
 11
5.1199497461
 21
-25.6524183922
 31
0.0
  0
LINE
  5
19A
330
1F
100
AcDbEntity
  8
SK3
  6
SLD-Dashed
370
    18
100
AcDbLine
 10
5.1199497461
 20
-25.6524183922
 30
0.0
 11
4.8223081651
 21
-25.3714201923
 31
0.0
  0
LINE
  5
19B
330
1F
100
AcDbEntity
  8
SK3
  6
SLD-Dashed
370
    18
100
AcDbLine
 10
4.8223081651
 20
-25.3714201923
 30
0.0
 11
4.5041430256
 21
-25.0225450635
 31
0.0
  0
LINE
  5
19C
330
1F
100
AcDbEntity
  8
SK3
  6
SLD-Dashed
370
    18
100
AcDbLine
 10
4.5041430256
 20
-25.0225450635
 30
0.0
 11
4.1871367561
 21
-24.6295682692
 31
0.0
  0
LINE
  5
19D
330
1F
100
AcDbEntity
  8
SK3
  6
SLD-Dashed
370
    18
100
AcDbLine
 10
4.1871367561
 20
-24.6295682692
 30
0.0
 11
3.8928928102
 21
-24.2192705286
 31
0.0
  0
LINE
  5
19E
330
1F
100
AcDbEntity
  8
SK3
  6
SLD-Dashed
370
    18
100
AcDbLine
 10
3.8928928102
 20
-24.2192705286
 30
0.0
 11
3.6414634263
 21
-23.8196129546
 31
0.0
  0
LINE
  5
19F
330
1F
100
AcDbEntity
  8
SK3
  6
SLD-Dashed
370
    18
100
AcDbLine
 10
3.6414634263
 20
-23.8196129546
 30
0.0
 11
3.4499831016
 21
-23.4578315505
 31
0.0
  0
LINE
  5
1A0
330
1F
100
AcDbEntity
  8
SK3
  6
SLD-Dashed
370
    18
100
AcDbLine
 10
3.4499831016
 20
-23.4578315505
 30
0.0
 11
3.3315009036
 21
-23.158581121
 31
0.0
  0
LINE
  5
1A1
330
1F
100
AcDbEntity
  8
SK3
  6
SLD-Dashed
370
    18
100
AcDbLine
 10
3.3315009036
 20
-23.158581121
 30
0.0
 11
3.2940911985
 21
-22.9422550884
 31
0.0
  0
LINE
  5
1A2
330
1F
100
AcDbEntity
  8
SK3
  6
SLD-Dashed
370
    18
100
AcDbLine
 10
3.2940911985
 20
-22.9422550884
 30
0.0
 11
3.3403033958
 21
-22.8235957143
 31
0.0
  0
LINE
  5
1A3
330
1F
100
AcDbEntity
  8
SK3
  6
SLD-Dashed
370
    18
100
AcDbLine
 10
3.3403033958
 20
-22.8235957143
 30
0.0
 11
3.4669882105
 21
-22.810689439
 31
0.0
  0
LINE
  5
1A4
330
1F
100
AcDbEntity
  8
SK3
  6
SLD-Dashed
370
    18
100
AcDbLine
 10
3.4669882105
 20
-22.810689439
 30
0.0
 11
3.665512282
 21
-22.9044158038
 31
0.0
  0
LINE
  5
1A5
330
1F
100
AcDbEntity
  8
SK3
  6
SLD-Dashed
370
    18
100
AcDbLine
 10
3.665512282
 20
-22.9044158038
 30
0.0
 11
3.9223465228
 21
-23.0983875118
 31
0.0
  0
LINE
  5
1A6
330
1F
100
AcDbEntity
  8
SK3
  6
SLD-Dashed
370
    18
100
AcDbLine
 10
3.9223465228
 20
-23.0983875118
 30
0.0
 11
4.2199881039
 21
-23.3793857117
 31
0.0
  0
LINE
  5
1A7
330
1F
100
AcDbEntity
  8
SK3
  6
SLD-Dashed
370
    18
100
AcDbLine
 10
4.2199881039
 20
-23.3793857117
 30
0.0
 11
4.5381532434
 21
-23.7282608406
 31
0.0
  0
LINE
  5
1A8
330
1F
100
AcDbEntity
  8
SK3
  6
SLD-Dashed
370
    18
100
AcDbLine
 10
4.5381532434
 20
-23.7282608406
 30
0.0
 11
4.8551595128
 21
-24.1212376349
 31
0.0
  0
LINE
  5
1A9
330
1F
100
AcDbEntity
  8
SK3
  6
SLD-Dashed
370
    18
100
AcDbLine
 10
4.8551595128
 20
-24.1212376349
 30
0.0
 11
5.1494034588
 21
-24.5315353755
 31
0.0
  0
LINE
  5
1AA
330
1F
100
AcDbEntity
  8
SK3
  6
SLD-Dashed
370
    18
100
AcDbLine
 10
5.1494034588
 20
-24.5315353755
 30
0.0
 11
5.4008328426
 21
-24.9311929495
 31
0.0
  0
LINE
  5
1AB
330
1F
100
AcDbEntity
  8
SK3
  6
SLD-Dashed
370
    18
100
AcDbLine
 10
5.4008328426
 20
-24.9311929495
 30
0.0
 11
5.5923131674
 21
-25.2929743536
 31
0.0
  0
LINE
  5
1AC
330
1F
100
AcDbEntity
  8
SK3
  6
SLD-Dashed
370
    18
100
AcDbLine
 10
5.5923131674
 20
-25.2929743536
 30
0.0
 11
5.7107953653
 21
-25.5922247831
 31
0.0
  0
LINE
  5
1AD
330
1F
100
AcDbEntity
  8
SK3
  6
SLD-Dashed
370
    18
100
AcDbLine
 10
5.7107953653
 20
-25.5922247831
 30
0.0
 11
5.7482050704
 21
-25.8085508157
 31
0.0
  0
LINE
  5
1AE
330
1F
100
AcDbEntity
  8
SK3
  6
SLD-Dashed
370
    18
100
AcDbLine
 10
5.7482050704
 20
-25.8085508157
 30
0.0
 11
5.7019928732
 21
-25.9272101898
 31
0.0
  0
LINE
  5
1AF
330
1F
100
AcDbEntity
  8
SK3
  6
SLD-Dashed
370
    18
100
AcDbLine
 10
11.115
 20
-22.9279822832
 30
0.0
 11
10.6501412812
 21
-22.9508417445
 31
0.0
  0
LINE
  5
1B0
330
1F
100
AcDbEntity
  8
SK3
  6
SLD-Dashed
370
    18
100
AcDbLine
 10
10.6501412812
 20
-22.9508417445
 30
0.0
 11
10.2229426512
 21
-23.0175681908
 31
0.0
  0
LINE
  5
1B1
330
1F
100
AcDbEntity
  8
SK3
  6
SLD-Dashed
370
    18
100
AcDbLine
 10
10.2229426512
 20
-23.0175681908
 30
0.0
 11
9.8680132023
 21
-23.1227558422
 31
0.0
  0
LINE
  5
1B2
330
1F
100
AcDbEntity
  8
SK3
  6
SLD-Dashed
370
    18
100
AcDbLine
 10
9.8680132023
 20
-23.1227558422
 30
0.0
 11
9.6141072077
 21
-23.2578830209
 31
0.0
  0
LINE
  5
1B3
330
1F
100
AcDbEntity
  8
SK3
  6
SLD-Dashed
370
    18
100
AcDbLine
 10
9.6141072077
 20
-23.2578830209
 30
0.0
 11
9.4817946209
 21
-23.4120025264
 31
0.0
  0
LINE
  5
1B4
330
1F
100
AcDbEntity
  8
SK3
  6
SLD-Dashed
370
    18
100
AcDbLine
 10
9.4817946209
 20
-23.4120025264
 30
0.0
 11
9.4817946209
 21
-23.5726285129
 31
0.0
  0
LINE
  5
1B5
330
1F
100
AcDbEntity
  8
SK3
  6
SLD-Dashed
370
    18
100
AcDbLine
 10
9.4817946209
 20
-23.5726285129
 30
0.0
 11
9.6141072077
 21
-23.7267480184
 31
0.0
  0
LINE
  5
1B6
330
1F
100
AcDbEntity
  8
SK3
  6
SLD-Dashed
370
    18
100
AcDbLine
 10
9.6141072077
 20
-23.7267480184
 30
0.0
 11
9.8680132023
 21
-23.8618751971
 31
0.0
  0
LINE
  5
1B7
330
1F
100
AcDbEntity
  8
SK3
  6
SLD-Dashed
370
    18
100
AcDbLine
 10
9.8680132023
 20
-23.8618751971
 30
0.0
 11
10.2229426512
 21
-23.9670628485
 31
0.0
  0
LINE
  5
1B8
330
1F
100
AcDbEntity
  8
SK3
  6
SLD-Dashed
370
    18
100
AcDbLine
 10
10.2229426512
 20
-23.9670628485
 30
0.0
 11
10.6501412812
 21
-24.0337892948
 31
0.0
  0
LINE
  5
1B9
330
1F
100
AcDbEntity
  8
SK3
  6
SLD-Dashed
370
    18
100
AcDbLine
 10
10.6501412812
 20
-24.0337892948
 30
0.0
 11
11.115
 21
-24.0566487561
 31
0.0
  0
LINE
  5
1BA
330
1F
100
AcDbEntity
  8
SK3
  6
SLD-Dashed
370
    18
100
AcDbLine
 10
11.115
 20
-24.0566487561
 30
0.0
 11
11.5798587188
 21
-24.0337892948
 31
0.0
  0
LINE
  5
1BB
330
1F
100
AcDbEntity
  8
SK3
  6
SLD-Dashed
370
    18
100
AcDbLine
 10
11.5798587188
 20
-24.0337892948
 30
0.0
 11
12.0070573488
 21
-23.9670628485
 31
0.0
  0
LINE
  5
1BC
330
1F
100
AcDbEntity
  8
SK3
  6
SLD-Dashed
370
    18
100
AcDbLine
 10
12.0070573488
 20
-23.9670628485
 30
0.0
 11
12.3619867977
 21
-23.8618751971
 31
0.0
  0
LINE
  5
1BD
330
1F
100
AcDbEntity
  8
SK3
  6
SLD-Dashed
370
    18
100
AcDbLine
 10
12.3619867977
 20
-23.8618751971
 30
0.0
 11
12.6158927923
 21
-23.7267480184
 31
0.0
  0
LINE
  5
1BE
330
1F
100
AcDbEntity
  8
SK3
  6
SLD-Dashed
370
    18
100
AcDbLine
 10
12.6158927923
 20
-23.7267480184
 30
0.0
 11
12.7482053791
 21
-23.5726285129
 31
0.0
  0
LINE
  5
1BF
330
1F
100
AcDbEntity
  8
SK3
  6
SLD-Dashed
370
    18
100
AcDbLine
 10
12.7482053791
 20
-23.5726285129
 30
0.0
 11
12.7482053791
 21
-23.4120025264
 31
0.0
  0
LINE
  5
1C0
330
1F
100
AcDbEntity
  8
SK3
  6
SLD-Dashed
370
    18
100
AcDbLine
 10
12.7482053791
 20
-23.4120025264
 30
0.0
 11
12.6158927923
 21
-23.2578830209
 31
0.0
  0
LINE
  5
1C1
330
1F
100
AcDbEntity
  8
SK3
  6
SLD-Dashed
370
    18
100
AcDbLine
 10
12.6158927923
 20
-23.2578830209
 30
0.0
 11
12.3619867977
 21
-23.1227558422
 31
0.0
  0
LINE
  5
1C2
330
1F
100
AcDbEntity
  8
SK3
  6
SLD-Dashed
370
    18
100
AcDbLine
 10
12.3619867977
 20
-23.1227558422
 30
0.0
 11
12.0070573488
 21
-23.0175681908
 31
0.0
  0
LINE
  5
1C3
330
1F
100
AcDbEntity
  8
SK3
  6
SLD-Dashed
370
    18
100
AcDbLine
 10
12.0070573488
 20
-23.0175681908
 30
0.0
 11
11.5798587188
 21
-22.9508417445
 31
0.0
  0
LINE
  5
1C4
330
1F
100
AcDbEntity
  8
SK3
  6
SLD-Dashed
370
    18
100
AcDbLine
 10
11.5798587188
 20
-22.9508417445
 30
0.0
 11
11.115
 21
-22.9279822832
 31
0.0
  0
LINE
  5
1C5
330
1F
100
AcDbEntity
  8
SK3
  6
SLD-Dashed
370
    18
100
AcDbLine
 10
5.7322709434
 20
-25.9670001189
 30
0.0
 11
5.6023378001
 21
-25.9802373244
 31
0.0
  0
LINE
  5
1C6
330
1F
100
AcDbEntity
  8
SK3
  6
SLD-Dashed
370
    18
100
AcDbLine
 10
5.6023378001
 20
-25.9802373244
 30
0.0
 11
5.3987233678
 21
-25.8841077195
 31
0.0
  0
LINE
  5
1C7
330
1F
100
AcDbEntity
  8
SK3
  6
SLD-Dashed
370
    18
100
AcDbLine
 10
5.3987233678
 20
-25.8841077195
 30
0.0
 11
5.1353036336
 21
-25.6851623779
 31
0.0
  0
LINE
  5
1C8
330
1F
100
AcDbEntity
  8
SK3
  6
SLD-Dashed
370
    18
100
AcDbLine
 10
5.1353036336
 20
-25.6851623779
 30
0.0
 11
4.8300302171
 21
-25.3969590959
 31
0.0
  0
LINE
  5
1C9
330
1F
100
AcDbEntity
  8
SK3
  6
SLD-Dashed
370
    18
100
AcDbLine
 10
4.8300302171
 20
-25.3969590959
 30
0.0
 11
4.5037069971
 21
-25.039138451
 31
0.0
  0
LINE
  5
1CA
330
1F
100
AcDbEntity
  8
SK3
  6
SLD-Dashed
370
    18
100
AcDbLine
 10
4.5037069971
 20
-25.039138451
 30
0.0
 11
4.1785723618
 21
-24.6360853286
 31
0.0
  0
LINE
  5
1CB
330
1F
100
AcDbEntity
  8
SK3
  6
SLD-Dashed
370
    18
100
AcDbLine
 10
4.1785723618
 20
-24.6360853286
 30
0.0
 11
3.8767836993
 21
-24.2152671331
 31
0.0
  0
LINE
  5
1CC
330
1F
100
AcDbEntity
  8
SK3
  6
SLD-Dashed
370
    18
100
AcDbLine
 10
3.8767836993
 20
-24.2152671331
 30
0.0
 11
3.6189074082
 21
-23.805361929
 31
0.0
  0
LINE
  5
1CD
330
1F
100
AcDbEntity
  8
SK3
  6
SLD-Dashed
370
    18
100
AcDbLine
 10
3.6189074082
 20
-23.805361929
 30
0.0
 11
3.4225173315
 21
-23.4343040786
 31
0.0
  0
LINE
  5
1CE
330
1F
100
AcDbEntity
  8
SK3
  6
SLD-Dashed
370
    18
100
AcDbLine
 10
3.4225173315
 20
-23.4343040786
 30
0.0
 11
3.3009971285
 21
-23.1273805612
 31
0.0
  0
LINE
  5
1CF
330
1F
100
AcDbEntity
  8
SK3
  6
SLD-Dashed
370
    18
100
AcDbLine
 10
3.3009971285
 20
-23.1273805612
 30
0.0
 11
3.2626282002
 21
-22.9055077073
 31
0.0
  0
LINE
  5
1D0
330
1F
100
AcDbEntity
  8
SK3
  6
SLD-Dashed
370
    18
100
AcDbLine
 10
3.2626282002
 20
-22.9055077073
 30
0.0
 11
3.3100253255
 21
-22.7838057852
 31
0.0
  0
LINE
  5
1D1
330
1F
100
AcDbEntity
  8
SK3
  6
SLD-Dashed
370
    18
100
AcDbLine
 10
3.3100253255
 20
-22.7838057852
 30
0.0
 11
3.4399584689
 21
-22.7705685797
 31
0.0
  0
LINE
  5
1D2
330
1F
100
AcDbEntity
  8
SK3
  6
SLD-Dashed
370
    18
100
AcDbLine
 10
3.4399584689
 20
-22.7705685797
 30
0.0
 11
3.6435729011
 21
-22.8666981846
 31
0.0
  0
LINE
  5
1D3
330
1F
100
AcDbEntity
  8
SK3
  6
SLD-Dashed
370
    18
100
AcDbLine
 10
3.6435729011
 20
-22.8666981846
 30
0.0
 11
3.9069926353
 21
-23.0656435262
 31
0.0
  0
LINE
  5
1D4
330
1F
100
AcDbEntity
  8
SK3
  6
SLD-Dashed
370
    18
100
AcDbLine
 10
3.9069926353
 20
-23.0656435262
 30
0.0
 11
4.2122660518
 21
-23.3538468081
 31
0.0
  0
LINE
  5
1D5
330
1F
100
AcDbEntity
  8
SK3
  6
SLD-Dashed
370
    18
100
AcDbLine
 10
4.2122660518
 20
-23.3538468081
 30
0.0
 11
4.5385892718
 21
-23.7116674531
 31
0.0
  0
LINE
  5
1D6
330
1F
100
AcDbEntity
  8
SK3
  6
SLD-Dashed
370
    18
100
AcDbLine
 10
4.5385892718
 20
-23.7116674531
 30
0.0
 11
4.8637239071
 21
-24.1147205754
 31
0.0
  0
LINE
  5
1D7
330
1F
100
AcDbEntity
  8
SK3
  6
SLD-Dashed
370
    18
100
AcDbLine
 10
4.8637239071
 20
-24.1147205754
 30
0.0
 11
5.1655125697
 21
-24.535538771
 31
0.0
  0
LINE
  5
1D8
330
1F
100
AcDbEntity
  8
SK3
  6
SLD-Dashed
370
    18
100
AcDbLine
 10
5.1655125697
 20
-24.535538771
 30
0.0
 11
5.4233888608
 21
-24.945443975
 31
0.0
  0
LINE
  5
1D9
330
1F
100
AcDbEntity
  8
SK3
  6
SLD-Dashed
370
    18
100
AcDbLine
 10
5.4233888608
 20
-24.945443975
 30
0.0
 11
5.6197789374
 21
-25.3165018254
 31
0.0
  0
LINE
  5
1DA
330
1F
100
AcDbEntity
  8
SK3
  6
SLD-Dashed
370
    18
100
AcDbLine
 10
5.6197789374
 20
-25.3165018254
 30
0.0
 11
5.7412991405
 21
-25.6234253429
 31
0.0
  0
LINE
  5
1DB
330
1F
100
AcDbEntity
  8
SK3
  6
SLD-Dashed
370
    18
100
AcDbLine
 10
5.7412991405
 20
-25.6234253429
 30
0.0
 11
5.7796680688
 21
-25.8452981968
 31
0.0
  0
LINE
  5
1DC
330
1F
100
AcDbEntity
  8
SK3
  6
SLD-Dashed
370
    18
100
AcDbLine
 10
5.7796680688
 20
-25.8452981968
 30
0.0
 11
5.7322709434
 21
-25.9670001189
 31
0.0
  0
LINE
  5
1DD
330
1F
100
AcDbEntity
  8
1
  6
SLD-Dashed
370
    18
100
AcDbLine
 10
3.2
 20
-22.8742979511
 30
0.0
 11
3.2
 21
-27.8871582268
 31
0.0
  0
LINE
  5
1DE
330
1F
100
AcDbEntity
  8
SK3
  6
SLD-Dashed
370
    18
100
AcDbLine
 10
100.0
 20
13.0773502692
 30
0.0
 11
99.0
 21
12.5
 31
0.0
  0
LINE
  5
1DF
330
1F
100
AcDbEntity
  8
SK3
  6
SLD-Dashed
370
    18
100
AcDbLine
 10
99.0
 20
-12.5
 30
0.0
 11
100.0
 21
-13.0773502692
 31
0.0
  0
LINE
  5
1E0
330
1F
100
AcDbEntity
  8
SK3
  6
SLD-Dashed
370
    18
100
AcDbLine
 10
41.25
 20
-12.75
 30
0.0
 11
43.009315928
 21
-12.75
 31
0.0
  0
LINE
  5
1E1
330
1F
100
AcDbEntity
  8
SK3
  6
SLD-Dashed
370
    18
100
AcDbLine
 10
45.75
 20
12.75
 30
0.0
 11
41.25
 21
12.75
 31
0.0
  0
LINE
  5
1E2
330
1F
100
AcDbEntity
  8
SK3
  6
SLD-Dashed
370
    18
100
AcDbLine
 10
99.0
 20
12.5
 30
0.0
 11
46.0
 21
12.5
 31
0.0
  0
LINE
  5
1E3
330
1F
100
AcDbEntity
  8
SK3
  6
SLD-Dashed
370
    18
100
AcDbLine
 10
84.0
 20
-12.5
 30
0.0
 11
99.0
 21
-12.5
 31
0.0
  0
LINE
  5
1E4
330
1F
100
AcDbEntity
  8
SK3
  6
SLD-Dashed
370
    18
100
AcDbLine
 10
58.9888980024
 20
-12.5
 30
0.0
 11
68.0106033908
 21
-12.5
 31
0.0
  0
LINE
  5
1E5
330
1F
100
AcDbEntity
  8
SK3
  6
SLD-Dashed
370
    18
100
AcDbLine
 10
9.115
 20
27.3466468125
 30
0.0
 11
9.115
 21
23.230614392
 31
0.0
  0
LINE
  5
1E6
330
1F
100
AcDbEntity
  8
SK3
  6
SLD-Dashed
370
    18
100
AcDbLine
 10
13.115
 20
23.2104077334
 30
0.0
 11
13.115
 21
27.3466468125
 31
0.0
  0
LINE
  5
1E7
330
1F
100
AcDbEntity
  8
SK3
  6
SLD-Dashed
370
    18
100
AcDbLine
 10
3.2
 20
22.8675293454
 30
0.0
 11
3.3100253255
 21
22.7838057852
 31
0.0
  0
LINE
  5
1E8
330
1F
100
AcDbEntity
  8
SK3
  6
SLD-Dashed
370
    18
100
AcDbLine
 10
5.7322709434
 20
25.9670001189
 30
0.0
 11
3.2
 21
27.8939268324
 31
0.0
  0
LINE
  5
1E9
330
1F
100
AcDbEntity
  8
SK3
  6
SLD-Dashed
370
    18
100
AcDbLine
 10
12.6773076344
 20
15.718620262
 30
0.0
 11
13.9872030677
 21
14.7218578465
 31
0.0
  0
LINE
  5
1EA
330
1F
100
AcDbEntity
  8
SK3
  6
SLD-Dashed
370
    18
100
AcDbLine
 10
3.3403033958
 20
22.8235957143
 30
0.0
 11
9.5636972046
 21
18.0879161418
 31
0.0
  0
LINE
  5
1EB
330
1F
100
AcDbEntity
  8
SK3
  6
SLD-Dashed
370
    18
100
AcDbLine
 10
9.5541511667
 20
22.9959177308
 30
0.0
 11
5.7019928732
 21
25.9272101898
 31
0.0
  0
LINE
  5
1EC
330
1F
100
AcDbEntity
  8
SK3
  6
SLD-Dashed
370
    18
100
AcDbLine
 10
16.3488925452
 20
17.8254723219
 30
0.0
 11
12.6670873806
 21
20.6271348944
 31
0.0
  0
LINE
  5
1ED
330
1F
100
AcDbEntity
  8
SK3
  6
SLD-Dashed
370
    18
100
AcDbLine
 10
86.125
 20
-32.5
 30
0.0
 11
86.125
 21
-30.4
 31
0.0
  0
LINE
  5
1EE
330
1F
100
AcDbEntity
  8
SK3
  6
SLD-Dashed
370
    18
100
AcDbLine
 10
65.875
 20
-30.4
 30
0.0
 11
65.875
 21
-32.5
 31
0.0
  0
LINE
  5
1EF
330
1F
100
AcDbEntity
  8
SK3
  6
SLD-Dashed
370
    18
100
AcDbLine
 10
61.125
 20
-32.5
 30
0.0
 11
61.125
 21
-30.4
 31
0.0
  0
LINE
  5
1F0
330
1F
100
AcDbEntity
  8
SK3
  6
SLD-Dashed
370
    18
100
AcDbLine
 10
40.875
 20
-30.4
 30
0.0
 11
40.875
 21
-32.5
 31
0.0
  0
LINE
  5
1F1
330
1F
100
AcDbEntity
  8
SK3
  6
SLD-Dashed
370
    18
100
AcDbLine
 10
9.465
 20
23.2104077334
 30
0.0
 11
9.465
 21
22.9667378435
 31
0.0
  0
LINE
  5
1F2
330
1F
100
AcDbEntity
  8
SK3
  6
SLD-Dashed
370
    18
100
AcDbLine
 10
12.765
 20
20.454307559
 30
0.0
 11
12.765
 21
23.2104077334
 31
0.0
  0
LINE
  5
1F3
330
1F
100
AcDbEntity
  8
SK3
  6
SLD-Dashed
370
    18
100
AcDbLine
 10
-68.25
 20
-9.25
 30
0.0
 11
-66.9509618943
 21
-8.5
 31
0.0
  0
LINE
  5
1F4
330
1F
100
AcDbEntity
  8
SK3
  6
SLD-Dashed
370
    18
100
AcDbLine
 10
-66.9509618943
 20
8.5
 30
0.0
 11
-68.25
 21
9.25
 31
0.0
  0
LINE
  5
1F5
330
1F
100
AcDbEntity
  8
SK3
  6
SLD-Dashed
370
    18
100
AcDbLine
 10
-57.75
 20
8.8
 30
0.0
 11
-59.75
 21
8.8
 31
0.0
  0
LINE
  5
1F6
330
1F
100
AcDbEntity
  8
SK3
  6
SLD-Dashed
370
    18
100
AcDbLine
 10
-59.75
 20
-8.8
 30
0.0
 11
-57.75
 21
-8.8
 31
0.0
  0
LINE
  5
1F7
330
1F
100
AcDbEntity
  8
SK3
  6
SLD-Dashed
370
    18
100
AcDbLine
 10
-59.75
 20
8.8
 30
0.0
 11
-60.2696152423
 21
8.5
 31
0.0
  0
LINE
  5
1F8
330
1F
100
AcDbEntity
  8
SK3
  6
SLD-Dashed
370
    18
100
AcDbLine
 10
-60.2696152423
 20
-8.5
 30
0.0
 11
-59.75
 21
-8.8
 31
0.0
  0
LINE
  5
1F9
330
1F
100
AcDbEntity
  8
SK3
  6
SLD-Dashed
370
    18
100
AcDbLine
 10
-57.75
 20
-8.8
 30
0.0
 11
-56.7107695155
 21
-7.0
 31
0.0
  0
LINE
  5
1FA
330
1F
100
AcDbEntity
  8
SK3
  6
SLD-Dashed
370
    18
100
AcDbLine
 10
-56.7107695155
 20
7.0
 30
0.0
 11
-57.75
 21
8.8
 31
0.0
  0
LINE
  5
1FB
330
1F
100
AcDbEntity
  8
SK3
  6
SLD-Dashed
370
    18
100
AcDbLine
 10
-66.9509618943
 20
-8.5
 30
0.0
 11
-60.2696152423
 21
-8.5
 31
0.0
  0
LINE
  5
1FC
330
1F
100
AcDbEntity
  8
SK3
  6
SLD-Dashed
370
    18
100
AcDbLine
 10
-60.2696152423
 20
8.5
 30
0.0
 11
-66.9509618943
 21
8.5
 31
0.0
  0
LINE
  5
1FD
330
1F
100
AcDbEntity
  8
SK3
  6
SLD-Dashed
370
    18
100
AcDbLine
 10
9.465
 20
18.2613425767
 30
0.0
 11
9.465
 21
6.5760827024
 31
0.0
  0
LINE
  5
1FE
330
1F
100
AcDbEntity
  8
SK3
  6
SLD-Dashed
370
    18
100
AcDbLine
 10
12.765
 20
6.5734926391
 30
0.0
 11
12.765
 21
15.7500776376
 31
0.0
  0
LINE
  5
1FF
330
1F
100
AcDbEntity
  8
SK3
  6
SLD-Dashed
370
    18
100
AcDbLine
 10
84.0
 20
-30.4
 30
0.0
 11
84.0
 21
-12.5
 31
0.0
  0
LINE
  5
200
330
1F
100
AcDbEntity
  8
SK3
  6
SLD-Dashed
370
    18
100
AcDbLine
 10
68.0
 20
-12.4932392759
 30
0.0
 11
68.0
 21
-30.4
 31
0.0
  0
LINE
  5
201
330
1F
100
AcDbEntity
  8
SK3
  6
SLD-Dashed
370
    18
100
AcDbLine
 10
59.0
 20
-30.4
 30
0.0
 11
59.0
 21
-12.4929253997
 31
0.0
  0
LINE
  5
202
330
1F
100
AcDbEntity
  8
SK3
  6
SLD-Dashed
370
    18
100
AcDbLine
 10
43.0
 20
-12.744185805
 30
0.0
 11
43.0
 21
-30.4
 31
0.0
  0
LINE
  5
203
330
1F
100
AcDbEntity
  8
SK3
  6
SLD-Dashed
370
    18
100
AcDbLine
 10
14.1920377033
 20
14.7367975886
 30
0.0
 11
16.0786127932
 21
15.5807724054
 31
0.0
  0
LINE
  5
204
330
1F
100
AcDbEntity
  8
SK3
  6
SLD-Dashed
370
    18
100
AcDbLine
 10
16.0786127932
 20
15.5807724054
 30
0.0
 11
16.3891004984
 21
17.6240678921
 31
0.0
  0
LINE
  5
205
330
1F
100
AcDbEntity
  8
SK3
  6
SLD-Dashed
370
    18
100
AcDbLine
 10
-56.7107695155
 20
-7.0
 30
0.0
 11
-11.25
 21
-7.0
 31
0.0
  0
LINE
  5
206
330
1F
100
AcDbEntity
  8
SK3
  6
SLD-Dashed
370
    18
100
AcDbLine
 10
-11.25
 20
7.0
 30
0.0
 11
-56.7107695155
 21
7.0
 31
0.0
  0
LINE
  5
207
330
1F
100
AcDbEntity
  8
SK3
  6
SLD-Dashed
370
    18
100
AcDbLine
 10
-11.249969957
 20
-6.99995
 30
0.0
 11
41.0
 21
-6.99995
 31
0.0
  0
LINE
  5
208
330
1F
100
AcDbEntity
  8
SK3
  6
SLD-Dashed
370
    18
100
AcDbLine
 10
41.0
 20
6.99995
 30
0.0
 11
-11.249969957
 21
6.99995
 31
0.0
  0
LINE
  5
209
330
1F
100
AcDbEntity
  8
SK3
  6
SLD-Dashed
370
    18
100
AcDbLine
 10
9.465
 20
-6.5734926391
 30
0.0
 11
9.465
 21
-18.259206264
 31
0.0
  0
LINE
  5
20A
330
1F
100
AcDbEntity
  8
SK3
  6
SLD-Dashed
370
    18
100
AcDbLine
 10
12.765
 20
-15.7542792276
 30
0.0
 11
12.765
 21
-6.5760827024
 31
0.0
  0
LINE
  5
20B
330
1F
100
AcDbEntity
  8
SK3
  6
SLD-Dashed
370
    18
100
AcDbLine
 10
16.3891004984
 20
-17.6240678921
 30
0.0
 11
16.0786127932
 21
-15.5807724054
 31
0.0
  0
LINE
  5
20C
330
1F
100
AcDbEntity
  8
SK3
  6
SLD-Dashed
370
    18
100
AcDbLine
 10
16.0786127932
 20
-15.5807724054
 30
0.0
 11
14.1920377033
 21
-14.7367975886
 31
0.0
  0
LINE
  5
20D
330
1F
100
AcDbEntity
  8
SK3
  6
SLD-Dashed
370
    18
100
AcDbLine
 10
12.6773076344
 20
-20.6193578118
 30
0.0
 11
16.3488925452
 21
-17.8254723219
 31
0.0
  0
LINE
  5
20E
330
1F
100
AcDbEntity
  8
SK3
  6
SLD-Dashed
370
    18
100
AcDbLine
 10
5.7019928732
 20
-25.9272101898
 30
0.0
 11
9.5594085835
 21
-22.9919171096
 31
0.0
  0
LINE
  5
20F
330
1F
100
AcDbEntity
  8
SK3
  6
SLD-Dashed
370
    18
100
AcDbLine
 10
9.5588677739
 20
-18.0915910878
 30
0.0
 11
3.3403033958
 21
-22.8235957143
 31
0.0
  0
LINE
  5
210
330
1F
100
AcDbEntity
  8
SK3
  6
SLD-Dashed
370
    18
100
AcDbLine
 10
13.9872030677
 20
-14.7218578465
 30
0.0
 11
12.6651816959
 21
-15.7278474716
 31
0.0
  0
LINE
  5
211
330
1F
100
AcDbEntity
  8
SK3
  6
SLD-Dashed
370
    18
100
AcDbLine
 10
9.465
 20
-22.9638453577
 30
0.0
 11
9.465
 21
-23.4923155196
 31
0.0
  0
LINE
  5
212
330
1F
100
AcDbEntity
  8
SK3
  6
SLD-Dashed
370
    18
100
AcDbLine
 10
12.765
 20
-23.4923155196
 30
0.0
 11
12.765
 21
-20.4547737958
 31
0.0
  0
LINE
  5
213
330
1F
100
AcDbEntity
  8
SK3
  6
SLD-Dashed
370
    18
100
AcDbLine
 10
3.2
 20
-27.8939268324
 30
0.0
 11
5.7322709434
 21
-25.9670001189
 31
0.0
  0
LINE
  5
214
330
1F
100
AcDbEntity
  8
SK3
  6
SLD-Dashed
370
    18
100
AcDbLine
 10
3.3100253255
 20
-22.7838057852
 30
0.0
 11
3.2
 21
-22.8675293454
 31
0.0
  0
LINE
  5
215
330
1F
100
AcDbEntity
  8
SK3
  6
SLD-Dashed
370
    18
100
AcDbLine
 10
9.8021669195
 20
-23.8341593579
 30
0.0
 11
11.115
 21
-24.4239455979
 31
0.0
  0
LINE
  5
216
330
1F
100
AcDbEntity
  8
SK3
  6
SLD-Dashed
370
    18
100
AcDbLine
 10
11.115
 20
-24.4239455979
 30
0.0
 11
12.4278330805
 21
-23.8341593579
 31
0.0
  0
LINE
  5
217
330
1F
100
AcDbEntity
  8
SK3
  6
SLD-Solid
370
    18
100
AcDbLine
 10
-35.2500006557
 20
8.00000038
 30
0.0
 11
-57.2881214321
 21
8.00000038
 31
0.0
  0
LINE
  5
218
330
1F
100
AcDbEntity
  8
SK3
  6
SLD-Solid
370
    18
100
AcDbLine
 10
-57.2881214321
 20
-8.00000038
 30
0.0
 11
-35.2500006557
 21
-8.00000038
 31
0.0
  0
LINE
  5
219
330
1F
100
AcDbEntity
  8
SK3
  6
SLD-Solid
370
    18
100
AcDbLine
 10
-35.2500006557
 20
8.00000038
 30
0.0
 11
-35.2500006557
 21
7.9015064985
 31
0.0
  0
LINE
  5
21A
330
1F
100
AcDbEntity
  8
SK3
  6
SLD-Solid
370
    18
100
AcDbLine
 10
-35.2500428763
 20
7.9015064985
 30
0.0
 11
-35.2500006557
 21
7.6084523462
 31
0.0
  0
LINE
  5
21B
330
1F
100
AcDbEntity
  8
SK3
  6
SLD-Solid
370
    18
100
AcDbLine
 10
-35.2500006557
 20
7.6084523462
 30
0.0
 11
-35.2500006557
 21
7.1280524135
 31
0.0
  0
LINE
  5
21C
330
1F
100
AcDbEntity
  8
SK3
  6
SLD-Solid
370
    18
100
AcDbLine
 10
-35.2500006557
 20
7.1280524135
 30
0.0
 11
-35.2500006557
 21
6.472135894
 31
0.0
  0
LINE
  5
21D
330
1F
100
AcDbEntity
  8
SK3
  6
SLD-Solid
370
    18
100
AcDbLine
 10
-35.2500006557
 20
6.472135894
 30
0.0
 11
-35.2500006557
 21
5.6568542495
 31
0.0
  0
LINE
  5
21E
330
1F
100
AcDbEntity
  8
SK3
  6
SLD-Solid
370
    18
100
AcDbLine
 10
-35.2500006557
 20
5.6568542495
 30
0.0
 11
-35.2500006557
 21
4.7022821382
 31
0.0
  0
LINE
  5
21F
330
1F
100
AcDbEntity
  8
SK3
  6
SLD-Solid
370
    18
100
AcDbLine
 10
-35.2500006557
 20
4.7022821382
 30
0.0
 11
-35.2500006557
 21
3.6319240462
 31
0.0
  0
LINE
  5
220
330
1F
100
AcDbEntity
  8
SK3
  6
SLD-Solid
370
    18
100
AcDbLine
 10
-35.2500006557
 20
3.6319240462
 30
0.0
 11
-35.2500006557
 21
2.4721359368
 31
0.0
  0
LINE
  5
221
330
1F
100
AcDbEntity
  8
SK3
  6
SLD-Solid
370
    18
100
AcDbLine
 10
-35.2500006557
 20
2.4721359368
 30
0.0
 11
-35.2500006557
 21
1.2514757691
 31
0.0
  0
LINE
  5
222
330
1F
100
AcDbEntity
  8
SK3
  6
SLD-Solid
370
    18
100
AcDbLine
 10
-35.2500006557
 20
1.2514757691
 30
0.0
 11
-35.2500006557
 21
0.0
 31
0.0
  0
LINE
  5
223
330
1F
100
AcDbEntity
  8
SK3
  6
SLD-Solid
370
    18
100
AcDbLine
 10
-35.2500006557
 20
0.0
 30
0.0
 11
-35.2500006557
 21
-1.2514757691
 31
0.0
  0
LINE
  5
224
330
1F
100
AcDbEntity
  8
SK3
  6
SLD-Solid
370
    18
100
AcDbLine
 10
-35.2500006557
 20
-1.2514757691
 30
0.0
 11
-35.2500006557
 21
-2.4721359368
 31
0.0
  0
LINE
  5
225
330
1F
100
AcDbEntity
  8
SK3
  6
SLD-Solid
370
    18
100
AcDbLine
 10
-35.2500006557
 20
-2.4721359368
 30
0.0
 11
-35.2500006557
 21
-3.6319240462
 31
0.0
  0
LINE
  5
226
330
1F
100
AcDbEntity
  8
SK3
  6
SLD-Solid
370
    18
100
AcDbLine
 10
-35.2500006557
 20
-3.6319240462
 30
0.0
 11
-35.2500006557
 21
-4.7022821382
 31
0.0
  0
LINE
  5
227
330
1F
100
AcDbEntity
  8
SK3
  6
SLD-Solid
370
    18
100
AcDbLine
 10
-35.2500006557
 20
-4.7022821382
 30
0.0
 11
-35.2500006557
 21
-5.6568542495
 31
0.0
  0
LINE
  5
228
330
1F
100
AcDbEntity
  8
SK3
  6
SLD-Solid
370
    18
100
AcDbLine
 10
-35.2500006557
 20
-5.6568542495
 30
0.0
 11
-35.2500006557
 21
-6.472135894
 31
0.0
  0
LINE
  5
229
330
1F
100
AcDbEntity
  8
SK3
  6
SLD-Solid
370
    18
100
AcDbLine
 10
-35.2500006557
 20
-6.472135894
 30
0.0
 11
-35.2500006557
 21
-7.1280524135
 31
0.0
  0
LINE
  5
22A
330
1F
100
AcDbEntity
  8
SK3
  6
SLD-Solid
370
    18
100
AcDbLine
 10
-35.2500006557
 20
-7.1280524135
 30
0.0
 11
-35.2500006557
 21
-7.6084523462
 31
0.0
  0
LINE
  5
22B
330
1F
100
AcDbEntity
  8
SK3
  6
SLD-Solid
370
    18
100
AcDbLine
 10
-35.2500006557
 20
-7.6084523462
 30
0.0
 11
-35.2500006557
 21
-7.9015064985
 31
0.0
  0
LINE
  5
22C
330
1F
100
AcDbEntity
  8
SK3
  6
SLD-Solid
370
    18
100
AcDbLine
 10
-35.2500006557
 20
-7.9015064985
 30
0.0
 11
-35.2500006557
 21
-8.00000038
 31
0.0
  0
LINE
  5
22D
330
1F
100
AcDbEntity
  8
SK3
  6
SLD-Solid
370
    18
100
AcDbLine
 10
67.0000016689
 20
-12.4833909795
 30
0.0
 11
67.0000016689
 21
-30.4000005126
 31
0.0
  0
LINE
  5
22E
330
1F
100
AcDbEntity
  8
SK3
  6
SLD-Solid
370
    18
100
AcDbLine
 10
85.0000008941
 20
-30.4000005126
 30
0.0
 11
85.0000008941
 21
-12.4833909795
 31
0.0
  0
LINE
  5
22F
330
1F
100
AcDbEntity
  8
SK3
  6
SLD-Solid
370
    18
100
AcDbLine
 10
80.1231041551
 20
-9.6046859398
 30
0.0
 11
81.4877748489
 21
-10.2640725672
 31
0.0
  0
LINE
  5
230
330
1F
100
AcDbEntity
  8
SK3
  6
SLD-Solid
370
    18
100
AcDbLine
 10
67.0229494572
 20
-12.4833909795
 30
0.0
 11
67.016467452
 21
-12.4879879877
 31
0.0
  0
LINE
  5
231
330
1F
100
AcDbEntity
  8
SK3
  6
SLD-Solid
370
    18
100
AcDbLine
 10
71.8767891321
 20
-9.6046859398
 30
0.0
 11
80.1231041551
 21
-9.6046859398
 31
0.0
  0
LINE
  5
232
330
1F
100
AcDbEntity
  8
SK3
  6
SLD-Solid
370
    18
100
AcDbLine
 10
41.9999994338
 20
-12.7286296338
 30
0.0
 11
41.9999994338
 21
-30.4000005126
 31
0.0
  0
LINE
  5
233
330
1F
100
AcDbEntity
  8
SK3
  6
SLD-Solid
370
    18
100
AcDbLine
 10
59.9999986589
 20
-30.4000005126
 30
0.0
 11
59.9999986589
 21
-12.4833909795
 31
0.0
  0
LINE
  5
234
330
1F
100
AcDbEntity
  8
SK3
  6
SLD-Solid
370
    18
100
AcDbLine
 10
45.7499995828
 20
-10.4462914169
 30
0.0
 11
44.5703975856
 21
-11.0857002437
 31
0.0
  0
LINE
  5
235
330
1F
100
AcDbEntity
  8
SK3
  6
SLD-Solid
370
    18
100
AcDbLine
 10
46.0000000894
 20
-10.0124925375
 30
0.0
 11
46.8768961728
 21
-9.6046859398
 31
0.0
  0
LINE
  5
236
330
1F
100
AcDbEntity
  8
SK3
  6
SLD-Solid
370
    18
100
AcDbLine
 10
55.1231056452
 20
-9.6046859398
 30
0.0
 11
56.4877763391
 21
-10.2640725672
 31
0.0
  0
LINE
  5
237
330
1F
100
AcDbEntity
  8
SK3
  6
SLD-Solid
370
    18
100
AcDbLine
 10
46.8768129739
 20
-9.6046859398
 30
0.0
 11
55.1231056452
 21
-9.6046859398
 31
0.0
  0
LINE
  5
238
330
1F
100
AcDbEntity
  8
4
  6
SLD-Center
370
    18
100
AcDbLine
 10
102.0
 20
0.0
 30
0.0
 11
0.5299737216
 21
0.0
 31
0.0
  0
LINE
  5
239
330
1F
100
AcDbEntity
  8
4
  6
SLD-Center
370
    18
100
AcDbLine
 10
76.0
 20
-10.5
 30
0.0
 11
76.0
 21
-32.4
 31
0.0
  0
LINE
  5
23A
330
1F
100
AcDbEntity
  8
4
  6
SLD-Center
370
    18
100
AcDbLine
 10
51.0
 20
-12.625
 30
0.0
 11
51.0
 21
-30.4
 31
0.0
  0
LINE
  5
23B
330
1F
100
AcDbEntity
  8
SK4
  6
SLD-Center
370
    18
100
AcDbLine
 10
102.0035109776
 20
0.0
 30
0.0
 11
-68.9509618943
 21
0.0
 31
0.0
  0
ARC
  5
23C
330
1F
100
AcDbEntity
  8
1
  6
SLD-Solid
370
    25
100
AcDbCircle
 10
35.8
 20
-31.75
 30
0.0
 40
0.75
100
AcDbArc
 50
180.0
 51
270.0
  0
ARC
  5
23D
330
1F
100
AcDbEntity
  8
1
  6
SLD-Solid
370
    25
100
AcDbCircle
 10
35.8
 20
31.75
 30
0.0
 40
0.75
100
AcDbArc
 50
90.0
 51
180.0
  0
ARC
  5
23E
330
1F
100
AcDbEntity
  8
1
  6
SLD-Solid
370
    25
100
AcDbCircle
 10
3.95
 20
31.0
 30
0.0
 40
0.7500000000000009
100
AcDbArc
 50
90.0
 51
180.0
  0
ARC
  5
23F
330
1F
100
AcDbEntity
  8
1
  6
SLD-Solid
370
    25
100
AcDbCircle
 10
18.3
 20
31.0
 30
0.0
 40
0.7500000000000036
100
AcDbArc
 50
360.0
 51
90.0
  0
ARC
  5
240
330
1F
100
AcDbEntity
  8
1
  6
SLD-Solid
370
    25
100
AcDbCircle
 10
21.05
 20
26.0
 30
0.0
 40
2.000000000000004
100
AcDbArc
 50
180.0
 51
270.0
  0
ARC
  5
241
330
1F
100
AcDbEntity
  8
1
  6
SLD-Solid
370
    25
100
AcDbCircle
 10
21.05
 20
-26.0
 30
0.0
 40
2.000000000000004
100
AcDbArc
 50
90.0
 51
180.0
  0
ARC
  5
242
330
1F
100
AcDbEntity
  8
1
  6
SLD-Solid
370
    25
100
AcDbCircle
 10
34.3
 20
-24.75
 30
0.0
 40
0.75
100
AcDbArc
 50
0.0
 51
90.0
  0
ARC
  5
243
330
1F
100
AcDbEntity
  8
1
  6
SLD-Solid
370
    25
100
AcDbCircle
 10
34.3
 20
24.75
 30
0.0
 40
0.75
100
AcDbArc
 50
270.0
 51
0.0
  0
ARC
  5
244
330
1F
100
AcDbEntity
  8
1
  6
SLD-Solid
370
    25
100
AcDbCircle
 10
2.45
 20
-22.79
 30
0.0
 40
0.7500000000000284
100
AcDbArc
 50
0.0
 51
115.0
  0
ARC
  5
245
330
1F
100
AcDbEntity
  8
1
  6
SLD-Solid
370
    25
100
AcDbCircle
 10
2.45
 20
22.79
 30
0.0
 40
0.7500000000000284
100
AcDbArc
 50
245.0
 51
0.0
  0
ARC
  5
246
330
1F
100
AcDbEntity
  8
1
  6
SLD-Solid
370
    25
100
AcDbCircle
 10
3.95
 20
-31.0
 30
0.0
 40
0.7500000000000142
100
AcDbArc
 50
180.0
 51
270.0
  0
ARC
  5
247
330
1F
100
AcDbEntity
  8
1
  6
SLD-Solid
370
    25
100
AcDbCircle
 10
18.3
 20
-31.0
 30
0.0
 40
0.7500000000000284
100
AcDbArc
 50
270.0
 51
0.0
  0
ARC
  5
248
330
1F
100
AcDbEntity
  8
1
  6
SLD-Solid
370
    25
100
AcDbCircle
 10
12.28
 20
-28.75
 30
0.0
 40
0.750000000000016
100
AcDbArc
 50
360.0
 51
90.0
  0
ARC
  5
249
330
1F
100
AcDbEntity
  8
1
  6
SLD-Solid
370
    25
100
AcDbCircle
 10
9.95
 20
-28.75
 30
0.0
 40
0.7500000000000142
100
AcDbArc
 50
90.0
 51
180.0
  0
ARC
  5
24A
330
1F
100
AcDbEntity
  8
SK1
  6
SLD-Solid
370
    25
100
AcDbCircle
 10
-67.25
 20
-11.4070377962
 30
0.0
 40
1.0
100
AcDbArc
 50
180.0
 51
261.7027777778
  0
ARC
  5
24B
330
1F
100
AcDbEntity
  8
SK1
  6
SLD-Solid
370
    25
100
AcDbCircle
 10
-67.25
 20
11.4070377962
 30
0.0
 40
1.000000000000002
100
AcDbArc
 50
98.2972222222
 51
180.0
  0
ARC
  5
24C
330
1F
100
AcDbEntity
  8
1
  6
SLD-Solid
370
    25
100
AcDbCircle
 10
12.28
 20
28.75
 30
0.0
 40
0.7500000000000284
100
AcDbArc
 50
270.0
 51
0.0
  0
ARC
  5
24D
330
1F
100
AcDbEntity
  8
1
  6
SLD-Solid
370
    25
100
AcDbCircle
 10
9.95
 20
28.75
 30
0.0
 40
0.7500000000000018
100
AcDbArc
 50
180.0
 51
270.0
  0
CIRCLE
  5
24E
330
1F
100
AcDbEntity
  8
1
  6
SLD-Solid
370
    25
100
AcDbCircle
 10
11.1
 20
0.0
 30
0.0
 40
4.999999999999991
  0
ARC
  5
24F
330
1F
100
AcDbEntity
  8
SK3
  6
SLD-Dashed
370
    18
100
AcDbCircle
 10
45.75
 20
12.5
 30
0.0
 40
0.25
100
AcDbArc
 50
0.0
 51
89.9999999986
  0
ARC
  5
250
330
1F
100
AcDbEntity
  8
SK3
  6
SLD-Dashed
370
    18
100
AcDbCircle
 10
41.25
 20
-12.5
 30
0.0
 40
0.25
100
AcDbArc
 50
180.0
 51
270.0
  0
ARC
  5
251
330
1F
100
AcDbEntity
  8
SK3
  6
SLD-Dashed
370
    18
100
AcDbCircle
 10
41.25
 20
12.5
 30
0.0
 40
0.2500000000000004
100
AcDbArc
 50
90.0
 51
180.0000035642
  0
ARC
  5
252
330
1F
100
AcDbEntity
  8
SK3
  6
SLD-Dashed
370
    18
100
AcDbCircle
 10
51.0
 20
38.1086673787
 30
0.0
 40
12.50000000000003
100
AcDbArc
 50
206.894539092
 51
333.2079392976
  0
ARC
  5
253
330
1F
100
AcDbEntity
  8
SK3
  6
SLD-Dashed
370
    18
100
AcDbCircle
 10
75.0
 20
38.1086673787
 30
0.0
 40
12.50000000000002
100
AcDbArc
 50
206.8097185169
 51
333.1549419567
  0
SPLINE
  5
254
330
1F
100
AcDbEntity
  8
1
  6
SLD-Solid
370
    25
100
AcDbSpline
210
0.0
220
0.0
230
1.0
 70
     8
 71
     3
 72
    23
 73
    19
 74
     0
 42
0.000000001
 43
0.00000001
 40
0.0
 40
0.0
 40
0.0
 40
0.0
 40
0.054062977529037
 40
0.1084889781134328
 40
0.1640657931212163
 40
0.2200443783134214
 40
0.2741095088307939
 40
0.3841537483767176
 40
0.4403017725562805
 40
0.4927157924122152
 40
0.5996066627722674
 40
0.6542897764989517
 40
0.7023223185071351
 40
0.8003174213044164
 40
0.850460842295752
 40
0.8942761579059706
 40
0.9835167820466032
 40
1.0
 40
1.0
 40
1.0
 40
1.0
 10
50.99999999999793
 20
30.50920848370799
 30
0.0
 10
50.6761393188424
 20
30.51183787250201
 30
0.0
 10
50.02624329099575
 20
30.51711430595733
 30
0.0
 10
49.04994453715196
 20
30.55987812416479
 30
0.0
 10
48.07572506433855
 20
30.62817786127395
 30
0.0
 10
47.12417425927194
 20
30.72249814403649
 30
0.0
 10
45.89661599099247
 20
30.87780629005701
 30
0.0
 10
44.73351074449232
 20
31.07317723407857
 30
0.0
 10
43.6784011773496
 20
31.29066625269879
 30
0.0
 10
42.71026881835933
 20
31.51411359104737
 30
0.0
 10
41.86445888468683
 20
31.7410261839737
 30
0.0
 10
41.18098201339772
 20
31.94782245249311
 30
0.0
 10
40.62079490955159
 20
32.13082901341662
 30
0.0
 10
40.21311231026553
 20
32.28187511898026
 30
0.0
 10
39.96701119581153
 20
32.39017780050484
 30
0.0
 10
39.83206070691583
 20
32.46590093312249
 30
0.0
 10
39.81194156333075
 20
32.50191352481612
 30
0.0
 10
39.89687112213673
 20
32.49823270744965
 30
0.0
 10
39.91011234001869
 20
32.49765883769901
 30
0.0
  0
SPLINE
  5
255
330
1F
100
AcDbEntity
  8
1
  6
SLD-Solid
370
    25
100
AcDbSpline
210
0.0
220
0.0
230
1.0
 70
     8
 71
     3
 72
    34
 73
    30
 74
     0
 42
0.000000001
 43
0.00000001
 40
0.0
 40
0.0
 40
0.0
 40
0.0
 40
0.0251054337016484
 40
0.0761313560165202
 40
0.1020983750947617
 40
0.1280163506813988
 40
0.1806265197681181
 40
0.2073568348842252
 40
0.2353206169404857
 40
0.2920689948006384
 40
0.3208958119438431
 40
0.3512568860949469
 40
0.4129089546453372
 40
0.4442561976505159
 40
0.4763579227186827
 40
0.5416120499521855
 40
0.5748387204875961
 40
0.6075110668112302
 40
0.6404145936170469
 40
0.6740605714694866
 40
0.7079702724065335
 40
0.7399442615153675
 40
0.8051072947471937
 40
0.8384134193536353
 40
0.8682537461644803
 40
0.9291394461990597
 40
0.96030423258017
 40
0.9873570839245053
 40
0.9999999999999999
 40
0.9999999999999999
 40
0.9999999999999999
 40
0.9999999999999999
 10
39.97589943157044
 20
32.49587238089268
 30
0.0
 10
40.02440836481298
 20
32.49018630612052
 30
0.0
 10
40.17151002059623
 20
32.4729434817997
 30
0.0
 10
40.5110726215734
 20
32.40993894940049
 30
0.0
 10
40.95683495824002
 20
32.32146411431462
 30
0.0
 10
41.48334740299586
 20
32.21548962902586
 30
0.0
 10
42.11859068811438
 20
32.0893251013315
 30
0.0
 10
42.85766029759794
 20
31.95162316182909
 30
0.0
 10
43.6856493231195
 20
31.80586819345227
 30
0.0
 10
44.61702013143944
 20
31.65910769629773
 30
0.0
 10
45.63605797651144
 20
31.52346603004715
 30
0.0
 10
46.74135182533473
 20
31.39579819252046
 30
0.0
 10
47.92883792120503
 20
31.29292625225553
 30
0.0
 10
49.16580062832445
 20
31.22580144770894
 30
0.0
 10
50.45447901717628
 20
31.18440832971747
 30
0.0
 10
51.77648131357787
 20
31.18786796420492
 30
0.0
 10
53.08646504154345
 20
31.23717414414912
 30
0.0
 10
54.05903823211196
 20
31.29608330319138
 30
0.0
 10
55.01411181307559
 20
31.37521990623614
 30
0.0
 10
55.9517549229202
 20
31.47328647578204
 30
0.0
 10
56.84378219561137
 20
31.58521360835392
 30
0.0
 10
57.96039837359532
 20
31.74632339130304
 30
0.0
 10
58.97613021758111
 20
31.91950351965202
 30
0.0
 10
59.84691451840199
 20
32.08346986319027
 30
0.0
 10
60.60063828376597
 20
32.2316317108988
 30
0.0
 10
61.21391274118926
 20
32.35689234160812
 30
0.0
 10
61.64264354659435
 20
32.43782333153241
 30
0.0
 10
61.86733437003747
 20
32.478667561083
 30
0.0
 10
61.92171239308853
 20
32.48119450671426
 30
0.0
 10
61.93903153884312
 20
32.48199932706715
 30
0.0
  0
SPLINE
  5
256
330
1F
100
AcDbEntity
  8
1
  6
SLD-Solid
370
    25
100
AcDbSpline
210
0.0
220
0.0
230
1.0
 70
     8
 71
     3
 72
    24
 73
    20
 74
     0
 42
0.000000001
 43
0.00000001
 40
0.0
 40
0.0
 40
0.0
 40
0.0
 40
0.0246220173616873
 40
0.0720011977423065
 40
0.1145313011443809
 40
0.2010483325906121
 40
0.2451281714018266
 40
0.2877572391791163
 40
0.3743274715527509
 40
0.4183362061614458
 40
0.4636251412912208
 40
0.5555315176017578
 40
0.6022144463452862
 40
0.6514835153840051
 40
0.751493834892951
 40
0.8023175002259199
 40
0.8510626906877997
 40
0.9498623988654306
 40
0.9999999999999999
 40
0.9999999999999999
 40
0.9999999999999999
 40
0.9999999999999999
 10
62.06951030047617
 20
32.4918698900245
 30
0.0
 10
62.09549361378394
 20
32.49450683194385
 30
0.0
 10
62.1714755957633
 20
32.50221793756861
 30
0.0
 10
62.16512641775232
 20
32.47746501984751
 30
0.0
 10
62.10835009748239
 20
32.42553028176494
 30
0.0
 10
61.91511540446054
 20
32.33509934522941
 30
0.0
 10
61.60418659693603
 20
32.21454076181055
 30
0.0
 10
61.21490848357636
 20
32.07563746949594
 30
0.0
 10
60.71425562591157
 20
31.91366142303881
 30
0.0
 10
60.10558913090874
 20
31.73605460721572
 30
0.0
 10
59.41232894523291
 20
31.54747232545499
 30
0.0
 10
58.61231170887923
 20
31.35324067414444
 30
0.0
 10
57.7155265845303
 20
31.16486390571846
 30
0.0
 10
56.72812519800804
 20
30.97942420341922
 30
0.0
 10
55.64598435185028
 20
30.81408186789808
 30
0.0
 10
54.51722124081136
 20
30.68462252632501
 30
0.0
 10
53.36866179735623
 20
30.58222433171062
 30
0.0
 10
52.19259841137922
 20
30.51855452407205
 30
0.0
 10
51.30035941409668
 20
30.51156231143498
 30
0.0
 10
50.99999999999793
 20
30.50920848370799
 30
0.0
  0
SPLINE
  5
257
330
1F
100
AcDbEntity
  8
1
  6
SLD-Solid
370
    25
100
AcDbSpline
210
0.0
220
0.0
230
1.0
 70
     8
 71
     3
 72
    26
 73
    22
 74
     0
 42
0.000000001
 43
0.00000001
 40
0.0
 40
0.0
 40
0.0
 40
0.0
 40
0.05120551045063
 40
0.1039384281136607
 40
0.1551326364319825
 40
0.2077371070169887
 40
0.260355969944981
 40
0.3144267646069691
 40
0.3682523545454969
 40
0.4237301282278255
 40
0.4759112512077981
 40
0.5297319438210606
 40
0.5799383402308954
 40
0.6315644408880646
 40
0.6825524940449336
 40
0.7348962566145605
 40
0.7881493887810467
 40
0.8429191721430105
 40
0.8965026792544324
 40
0.9517619589320393
 40
1.0
 40
1.0
 40
1.0
 40
1.0
 10
61.12500000000001
 20
-32.50000000000001
 30
0.0
 10
61.0993431892965
 20
-32.49196032000572
 30
0.0
 10
61.04726425186455
 20
-32.47564114471017
 30
0.0
 10
60.62943377694993
 20
-32.34768593695751
 30
0.0
 10
59.97186411495115
 20
-32.15662509848462
 30
0.0
 10
59.07445060191485
 20
-31.91568434784642
 30
0.0
 10
57.94484296756658
 20
-31.64624147823955
 30
0.0
 10
56.61273964758409
 20
-31.3779911460146
 30
0.0
 10
55.09203503749334
 20
-31.13913030160746
 30
0.0
 10
53.46244909655324
 20
-30.96555120125829
 30
0.0
 10
51.75714493108581
 20
-30.87627623841133
 30
0.0
 10
50.08330472864375
 20
-30.8812383851286
 30
0.0
 10
48.44459176108078
 20
-30.97479198330573
 30
0.0
 10
46.9066711522842
 20
-31.14089245554481
 30
0.0
 10
45.46075650884924
 20
-31.36565944503969
 30
0.0
 10
44.14900481973928
 20
-31.62569549175615
 30
0.0
 10
42.99442525278954
 20
-31.89785710983938
 30
0.0
 10
42.05309143711264
 20
-32.14935003994785
 30
0.0
 10
41.3624538292466
 20
-32.34998449944002
 30
0.0
 10
40.94467976203069
 20
-32.47817958382063
 30
0.0
 10
40.90262367647671
 20
-32.49136677457321
 30
0.0
 10
40.88302217213345
 20
-32.49751306168972
 30
0.0
  0
SPLINE
  5
258
330
1F
100
AcDbEntity
  8
1
  6
SLD-Solid
370
    25
100
AcDbSpline
210
0.0
220
0.0
230
1.0
 70
     8
 71
     3
 72
    26
 73
    22
 74
     0
 42
0.000000001
 43
0.00000001
 40
0.0
 40
0.0
 40
0.0
 40
0.0
 40
0.05120551045063
 40
0.1039384281136606
 40
0.1551326364319824
 40
0.2077371070169887
 40
0.2603559699449811
 40
0.3144267646069694
 40
0.368252354545497
 40
0.4237301282278256
 40
0.4759112512077986
 40
0.5297319438210607
 40
0.5799383402308953
 40
0.6315644408880642
 40
0.682552494044933
 40
0.73489625661456
 40
0.7881493887810463
 40
0.84291917214301
 40
0.8965026792544318
 40
0.9517619589320389
 40
1.0
 40
1.0
 40
1.0
 40
1.0
 10
86.125
 20
-32.50000000000001
 30
0.0
 10
86.09934318929646
 20
-32.49196032000571
 30
0.0
 10
86.04726425186455
 20
-32.47564114471017
 30
0.0
 10
85.62943377694992
 20
-32.34768593695751
 30
0.0
 10
84.97186411495115
 20
-32.15662509848462
 30
0.0
 10
84.07445060191485
 20
-31.91568434784642
 30
0.0
 10
82.94484296756663
 20
-31.64624147823956
 30
0.0
 10
81.61273964758409
 20
-31.3779911460146
 30
0.0
 10
80.09203503749335
 20
-31.13913030160743
 30
0.0
 10
78.46244909655326
 20
-30.96555120125829
 30
0.0
 10
76.75714493108585
 20
-30.87627623841133
 30
0.0
 10
75.08330472864374
 20
-30.8812383851286
 30
0.0
 10
73.44459176108079
 20
-30.97479198330572
 30
0.0
 10
71.90667115228419
 20
-31.14089245554479
 30
0.0
 10
70.46075650884929
 20
-31.3656594450397
 30
0.0
 10
69.14900481973932
 20
-31.62569549175617
 30
0.0
 10
67.99442525278954
 20
-31.89785710983938
 30
0.0
 10
67.05309143711266
 20
-32.14935003994787
 30
0.0
 10
66.36245382924663
 20
-32.34998449944002
 30
0.0
 10
65.94467976203069
 20
-32.47817958382064
 30
0.0
 10
65.90262367647671
 20
-32.49136677457322
 30
0.0
 10
65.88302217213347
 20
-32.49751306168972
 30
0.0
  0
SPLINE
  5
259
330
1F
100
AcDbEntity
  8
1
  6
SLD-Solid
370
    25
100
AcDbSpline
210
0.0
220
0.0
230
1.0
 70
     8
 71
     3
 72
    18
 73
    14
 74
     0
 42
0.000000001
 43
0.00000001
 40
0.0
 40
0.0
 40
0.0
 40
0.0
 40
0.0724951086726828
 40
0.2197060965197573
 40
0.2946190703568111
 40
0.3671239039735039
 40
0.514804726366198
 40
0.5902399507450972
 40
0.6588904275412195
 40
0.7988808222359597
 40
0.8704559574988763
 40
0.9340866053238444
 40
1.0
 40
1.0
 40
1.0
 40
1.0
 10
69.38012356267875
 20
30.968454398734
 30
0.0
 10
69.12605858297796
 20
31.01214770121223
 30
0.0
 10
68.3560807737928
 20
31.14456608235973
 30
0.0
 10
67.41057882701479
 20
31.34801813035999
 30
0.0
 10
66.56117162747216
 20
31.5561791412888
 30
0.0
 10
65.78393066429753
 20
31.76419817143786
 30
0.0
 10
65.12322739511389
 20
31.96401438894701
 30
0.0
 10
64.61210253904545
 20
32.13630350453596
 30
0.0
 10
64.20792019771076
 20
32.28400982989157
 30
0.0
 10
63.9459199592936
 20
32.39668886102755
 30
0.0
 10
63.84484187115252
 20
32.46323994606423
 30
0.0
 10
63.82259875149143
 20
32.49693366437562
 30
0.0
 10
63.89673715360425
 20
32.49277082511265
 30
0.0
 10
63.9344595657258
 20
32.49065272796194
 30
0.0
  0
SPLINE
  5
25A
330
1F
100
AcDbEntity
  8
1
  6
SLD-Solid
370
    25
100
AcDbSpline
210
0.0
220
0.0
230
1.0
 70
     8
 71
     3
 72
    50
 73
    46
 74
     0
 42
0.000000001
 43
0.00000001
 40
0.0
 40
0.0
 40
0.0
 40
0.0
 40
0.03125
 40
0.03125
 40
0.0625
 40
0.0625
 40
0.1250000000000006
 40
0.1250000000000006
 40
0.1875000000000011
 40
0.1875000000000011
 40
0.2187500000000014
 40
0.2187500000000014
 40
0.2500000000000017
 40
0.2500000000000017
 40
0.3125000000000021
 40
0.3125000000000021
 40
0.3750000000000026
 40
0.3750000000000026
 40
0.437500000000003
 40
0.437500000000003
 40
0.5000000000000034
 40
0.5000000000000034
 40
0.5625000000000039
 40
0.5625000000000039
 40
0.5937500000000041
 40
0.5937500000000041
 40
0.6250000000000042
 40
0.6250000000000042
 40
0.6875000000000046
 40
0.6875000000000046
 40
0.7187500000000041
 40
0.7187500000000041
 40
0.7500000000000037
 40
0.7500000000000037
 40
0.8125000000000039
 40
0.8125000000000039
 40
0.8437500000000036
 40
0.8437500000000036
 40
0.8750000000000031
 40
0.8750000000000031
 40
0.9375000000000016
 40
0.9375000000000016
 40
0.9687500000000008
 40
0.9687500000000008
 40
1.0
 40
1.0
 40
1.0
 40
1.0
 10
64.02153776414899
 20
32.49098263945023
 30
0.0
 10
64.0836726770648
 20
32.48358687989854
 30
0.0
 10
64.16216173954787
 20
32.47160770202982
 30
0.0
 10
64.35001318186993
 20
32.43928392272455
 30
0.0
 10
64.45856455524668
 20
32.41909871538773
 30
0.0
 10
64.82628894040154
 20
32.34810762459109
 30
0.0
 10
65.12717993653338
 20
32.28687163083686
 30
0.0
 10
65.84026973757679
 20
32.14457024414676
 30
0.0
 10
66.24275082361724
 20
32.06552972815907
 30
0.0
 10
66.90825963558927
 20
31.94306682414243
 30
0.0
 10
67.14059348369645
 20
31.9015569023104
 30
0.0
 10
67.62626342639582
 20
31.81831629960841
 30
0.0
 10
67.8802650769878
 20
31.77649892477687
 30
0.0
 10
68.65996969064014
 20
31.65462164080328
 30
0.0
 10
69.20721116639223
 20
31.57743750327947
 30
0.0
 10
70.35442478815875
 20
31.43868167883611
 30
0.0
 10
70.95942268124244
 20
31.37681091527306
 30
0.0
 10
72.18511657596378
 20
31.27848131563876
 30
0.0
 10
72.80853606756519
 20
31.24148922649293
 30
0.0
 10
74.07619853075367
 20
31.19504456744795
 30
0.0
 10
74.72544567297534
 20
31.18578999986638
 30
0.0
 10
76.00413848591236
 20
31.19677435202403
 30
0.0
 10
76.63715774366969
 20
31.21666029913399
 30
0.0
 10
77.5771960245418
 20
31.26664744662495
 30
0.0
 10
77.88895207538249
 20
31.28666743327277
 30
0.0
 10
78.50917791306999
 20
31.33314461494314
 30
0.0
 10
78.81663915760362
 20
31.35955780365259
 30
0.0
 10
79.71716220809292
 20
31.44605809263478
 30
0.0
 10
80.2939122842879
 20
31.5138062686543
 30
0.0
 10
81.12328059187199
 20
31.62559271327854
 30
0.0
 10
81.39374550422885
 20
31.66454673493395
 30
0.0
 10
81.92221137041936
 20
31.74493848784699
 30
0.0
 10
82.18074329878391
 20
31.78648599935626
 30
0.0
 10
82.92126252199256
 20
31.91069689557585
 30
0.0
 10
83.37381450225698
 20
31.99372040452525
 30
0.0
 10
83.99003196383775
 20
32.11167595657368
 30
0.0
 10
84.18494336378795
 20
32.14989544930224
 30
0.0
 10
84.55280857521095
 20
32.2228800906165
 30
0.0
 10
84.72624776113521
 20
32.25774350244147
 30
0.0
 10
85.20064414610648
 20
32.35293760107911
 30
0.0
 10
85.4602514846357
 20
32.40471167200781
 30
0.0
 10
85.76366124770895
 20
32.45930058096304
 30
0.0
 10
85.85037349457484
 20
32.47364894796852
 30
0.0
 10
85.9935325550118
 20
32.49362285956096
 30
0.0
 10
86.04926829903822
 20
32.49911902612142
 30
0.0
 10
86.08850042594176
 20
32.49990146040259
 30
0.0
  0
SPLINE
  5
25B
330
1F
100
AcDbEntity
  8
1
  6
SLD-Solid
370
    25
100
AcDbSpline
210
0.0
220
0.0
230
1.0
 70
     8
 71
     3
 72
    28
 73
    24
 74
     0
 42
0.000000001
 43
0.00000001
 40
0.0
 40
0.0
 40
0.0
 40
0.0
 40
0.0645156122727925
 40
0.0991690934815317
 40
0.1310243883061613
 40
0.1957819763116226
 40
0.228745560727711
 40
0.2614114269036047
 40
0.3277248540328867
 40
0.3614211006496422
 40
0.3965585591715006
 40
0.467863429115696
 40
0.5040831285221008
 40
0.542277211812483
 40
0.6198275436874994
 40
0.6592527892758702
 40
0.6997932266029451
 40
0.7821914761128758
 40
0.8241409569333052
 40
0.8672366707939901
 40
0.9106607334208602
 40
0.9551423005028765
 40
1.0
 40
1.0
 40
1.0
 40
1.0
 10
86.09153377803807
 20
32.49810970216485
 30
0.0
 10
86.13019597702987
 20
32.49226098144297
 30
0.0
 10
86.18962492904552
 20
32.48327071828678
 30
0.0
 10
86.08781055871295
 20
32.41881110697019
 30
0.0
 10
85.90960023846286
 20
32.33294296082505
 30
0.0
 10
85.60996589416492
 20
32.21481594933616
 30
0.0
 10
85.19549207129354
 20
32.07060448053668
 30
0.0
 10
84.70224327223002
 20
31.91030200384966
 30
0.0
 10
84.09942046221968
 20
31.73201600204793
 30
0.0
 10
83.39183508702006
 20
31.54457414694828
 30
0.0
 10
82.59622017395826
 20
31.34986624791897
 30
0.0
 10
81.69619037528655
 20
31.15735872989585
 30
0.0
 10
80.7059041050579
 20
30.97969568798138
 30
0.0
 10
79.6277190178506
 20
30.8117043202963
 30
0.0
 10
78.46377845292668
 20
30.67363219597183
 30
0.0
 10
77.24491801085357
 20
30.57780832845587
 30
0.0
 10
75.96901428240052
 20
30.51211442138121
 30
0.0
 10
74.65318611558733
 20
30.49998487014201
 30
0.0
 10
73.3289306606404
 20
30.544699342692
 30
0.0
 10
72.32438343874206
 20
30.60772582244213
 30
0.0
 10
71.32134739451718
 20
30.70053037671423
 30
0.0
 10
70.33046391661883
 20
30.81958908361893
 30
0.0
 10
69.69779156415062
 20
30.91869354521976
 30
0.0
 10
69.38012356267875
 20
30.96845439873401
 30
0.0
  0
SPLINE
  5
25C
330
1F
100
AcDbEntity
  8
1
  6
SLD-Solid
370
    25
100
AcDbSpline
210
0.0
220
0.0
230
1.0
 70
     8
 71
     3
 72
     8
 73
     4
 74
     0
 42
0.000000001
 43
0.00000001
 40
0.0
 40
0.0
 40
0.0
 40
0.0
 40
0.0008783072046589
 40
0.0008783072046589
 40
0.0008783072046589
 40
0.0008783072046589
 10
14.63683664205673
 20
-8.732520000000028
 30
0.0
 10
14.51427081432995
 20
-8.520229759105508
 30
0.0
 10
14.39228083356646
 20
-8.307726875209438
 30
0.0
 10
14.27090830787688
 20
-8.095000000000004
 30
0.0
  0
SPLINE
  5
25D
330
1F
100
AcDbEntity
  8
1
  6
SLD-Solid
370
    25
100
AcDbSpline
210
0.0
220
0.0
230
1.0
 70
    24
 71
     3
 72
    18
 73
    14
 74
     0
 42
0.000000001
 43
0.00000001
 40
0.0
 40
0.0
 40
0.0
 40
0.0
 40
0.0503985907721767
 40
0.1007611985112129
 40
0.1867133625924686
 40
0.250707802088887
 40
0.3759053866292146
 40
0.5002769903873882
 40
0.6254727404757954
 40
0.7499722576385894
 40
0.8750533663912197
 40
0.9372999447731115
 40
1.0
 40
1.0
 40
1.0
 40
1.0
 10
18.29999999999999
 20
-8.095000000000004
 30
0.0
 10
18.30672586936914
 20
-8.095000000000004
 30
0.0
 10
18.32017280604495
 20
-8.095000000000008
 30
0.0
 10
18.34490953258425
 20
-8.095000000000006
 30
0.0
 10
18.37097379942356
 20
-8.09500000000001
 30
0.0
 10
18.40534068018864
 20
-8.095000000000011
 30
0.0
 10
18.44197202237655
 20
-8.095000000000017
 30
0.0
 10
18.47986487117877
 20
-8.095000000000018
 30
0.0
 10
18.51053614991206
 20
-8.095000000000022
 30
0.0
 10
18.53314513148847
 20
-8.09500000000002
 30
0.0
 10
18.54454926815959
 20
-8.095000000000024
 30
0.0
 10
18.54932787138486
 20
-8.095000000000024
 30
0.0
 10
18.54977541569449
 20
-8.095000000000024
 30
0.0
 10
18.54999999999993
 20
-8.095000000000024
 30
0.0
  0
SPLINE
  5
25E
330
1F
100
AcDbEntity
  8
1
  6
SLD-Solid
370
    25
100
AcDbSpline
210
0.0
220
0.0
230
1.0
 70
     8
 71
     3
 72
    15
 73
    11
 74
     0
 42
0.000000001
 43
0.00000001
 40
0.0
 40
0.0
 40
0.0
 40
0.0
 40
0.0701435325383619
 40
0.1230076382658076
 40
0.2464580449108382
 40
0.4936501266417946
 40
0.6221640882791771
 40
0.7451781028260629
 40
0.8734188463590339
 40
1.0
 40
1.0
 40
1.0
 40
1.0
 10
19.04999999999993
 20
-8.595000000000017
 30
0.0
 10
19.04914464771494
 20
-8.60006893133667
 30
0.0
 10
19.04764465390715
 20
-8.608958094024787
 30
0.0
 10
19.03267384616035
 20
-8.626522361201271
 30
0.0
 10
18.9857229961064
 20
-8.655890547791124
 30
0.0
 10
18.87530842138216
 20
-8.68667639342894
 30
0.0
 10
18.72430920317453
 20
-8.709663478514933
 30
0.0
 10
18.59259636522154
 20
-8.722605848112567
 30
0.0
 10
18.4499751246527
 20
-8.730953584814682
 30
0.0
 10
18.34977418050386
 20
-8.732000133573111
 30
0.0
 10
18.29999999999998
 20
-8.732520000000028
 30
0.0
  0
SPLINE
  5
25F
330
1F
100
AcDbEntity
  8
1
  6
SLD-Solid
370
    25
100
AcDbSpline
210
0.0
220
0.0
230
1.0
 70
     8
 71
     3
 72
    15
 73
    11
 74
     0
 42
0.000000001
 43
0.00000001
 40
0.0
 40
0.0
 40
0.0
 40
0.0
 40
0.0701435317584967
 40
0.1230076382662367
 40
0.2464580449112068
 40
0.4936501266420016
 40
0.6221640881379922
 40
0.7451781028261539
 40
0.8734188462348811
 40
1.0
 40
1.0
 40
1.0
 40
1.0
 10
3.199999999999994
 20
8.59500000000002
 30
0.0
 10
3.200855352267412
 20
8.600068931280639
 30
0.0
 10
3.202355346061045
 20
8.608958093969388
 30
0.0
 10
3.217326153752961
 20
8.62652236114663
 30
0.0
 10
3.264277003893479
 20
8.655890547791847
 30
0.0
 10
3.374691578586955
 20
8.686676393418136
 30
0.0
 10
3.525690796777975
 20
8.709663478512715
 30
0.0
 10
3.657403634682338
 20
8.722605848105268
 30
0.0
 10
3.800024875297514
 20
8.730953584808624
 30
0.0
 10
3.90022581944692
 20
8.732000133570741
 30
0.0
 10
3.949999999999898
 20
8.732520000000001
 30
0.0
  0
SPLINE
  5
260
330
1F
100
AcDbEntity
  8
1
  6
SLD-Solid
370
    25
100
AcDbSpline
210
0.0
220
0.0
230
1.0
 70
    24
 71
     3
 72
    18
 73
    14
 74
     0
 42
0.000000001
 43
0.00000001
 40
0.0
 40
0.0
 40
0.0
 40
0.0
 40
0.0503985907721798
 40
0.1007611985112149
 40
0.1867133625924612
 40
0.2507078020888837
 40
0.3759053866292191
 40
0.5002769903873768
 40
0.6254727404758004
 40
0.7499722576385829
 40
0.8750533663912293
 40
0.9372999447731251
 40
1.0
 40
1.0
 40
1.0
 40
1.0
 10
3.949999999999967
 20
8.09499999999997
 30
0.0
 10
3.943274130630808
 20
8.09499999999997
 30
0.0
 10
3.92982719395496
 20
8.09499999999997
 30
0.0
 10
3.905090467415703
 20
8.094999999999969
 30
0.0
 10
3.879026200576396
 20
8.094999999999976
 30
0.0
 10
3.844659319811345
 20
8.094999999999976
 30
0.0
 10
3.808027977623405
 20
8.094999999999981
 30
0.0
 10
3.770135128821184
 20
8.09499999999998
 30
0.0
 10
3.739463850087929
 20
8.094999999999986
 30
0.0
 10
3.71685486851149
 20
8.094999999999985
 30
0.0
 10
3.705450731840393
 20
8.094999999999985
 30
0.0
 10
3.700672128615079
 20
8.094999999999992
 30
0.0
 10
3.700224584305495
 20
8.094999999999992
 30
0.0
 10
3.700000000000023
 20
8.094999999999992
 30
0.0
  0
SPLINE
  5
261
330
1F
100
AcDbEntity
  8
1
  6
SLD-Solid
370
    25
100
AcDbSpline
210
0.0
220
0.0
230
1.0
 70
    24
 71
     3
 72
     8
 73
     4
 74
     0
 42
0.000000001
 43
0.00000001
 40
0.0
 40
0.0
 40
0.0
 40
0.0
 40
0.2499999999999996
 40
0.2499999999999996
 40
0.2499999999999996
 40
0.2499999999999996
 10
18.29999999999998
 20
-18.35
 30
0.0
 10
18.41009345940819
 20
-18.35
 30
0.0
 10
18.51914645498261
 20
-18.35
 30
0.0
 10
18.61478964588867
 20
-18.35
 30
0.0
  0
SPLINE
  5
262
330
1F
100
AcDbEntity
  8
1
  6
SLD-Solid
370
    25
100
AcDbSpline
210
0.0
220
0.0
230
1.0
 70
    24
 71
     3
 72
     8
 73
     4
 74
     0
 42
0.000000001
 43
0.00000001
 40
0.2499999999999996
 40
0.2499999999999996
 40
0.2499999999999996
 40
0.2499999999999996
 40
0.4999999999999991
 40
0.4999999999999991
 40
0.4999999999999991
 40
0.4999999999999991
 10
18.61478964588867
 20
-18.35
 30
0.0
 10
18.7104328367947
 20
-18.35
 30
0.0
 10
18.79290518035347
 20
-18.34999999999999
 30
0.0
 10
18.85782919697516
 20
-18.35
 30
0.0
  0
SPLINE
  5
263
330
1F
100
AcDbEntity
  8
1
  6
SLD-Solid
370
    25
100
AcDbSpline
210
0.0
220
0.0
230
1.0
 70
    24
 71
     2
 72
     6
 73
     3
 74
     0
 42
0.000000001
 43
0.00000001
 40
0.4999999999999991
 40
0.4999999999999991
 40
0.4999999999999991
 40
1.0
 40
1.0
 40
1.0
 10
18.85782919697516
 20
-18.35
 30
0.0
 10
18.98767723021848
 20
-18.35
 30
0.0
 10
19.04999999999998
 20
-18.35
 30
0.0
  0
SPLINE
  5
264
330
1F
100
AcDbEntity
  8
1
  6
SLD-Solid
370
    25
100
AcDbSpline
210
0.0
220
0.0
230
1.0
 70
     8
 71
     3
 72
     8
 73
     4
 74
     0
 42
0.000000001
 43
0.00000001
 40
0.0
 40
0.0
 40
0.0
 40
0.0
 40
0.0008783072046589
 40
0.0008783072046589
 40
0.0008783072046589
 40
0.0008783072046589
 10
7.593163357943217
 20
8.732520000000001
 30
0.0
 10
7.715729185670011
 20
8.520229759105485
 30
0.0
 10
7.837719166433526
 20
8.307726875209413
 30
0.0
 10
7.959091692123152
 20
8.09499999999997
 30
0.0
  0
SPLINE
  5
265
330
1F
100
AcDbEntity
  8
1
  6
SLD-Solid
370
    25
100
AcDbSpline
210
0.0
220
0.0
230
1.0
 70
    24
 71
     3
 72
    18
 73
    14
 74
     0
 42
0.000000001
 43
0.00000001
 40
0.0
 40
0.0
 40
0.0
 40
0.0
 40
0.0502617221452385
 40
0.1003354213518343
 40
0.1864287239590559
 40
0.2507033761673368
 40
0.3754040368259516
 40
0.5003115117971194
 40
0.6254321409840755
 40
0.7499589778058467
 40
0.8750959321922386
 40
0.9373335260982067
 40
1.0
 40
1.0
 40
1.0
 40
1.0
 10
18.54999999999995
 20
8.094999999999992
 30
0.0
 10
18.54985585338431
 20
8.094999999999985
 30
0.0
 10
18.54956809938785
 20
8.094999999999978
 30
0.0
 10
18.54670424339199
 20
8.094999999999901
 30
0.0
 10
18.54109212159202
 20
8.094999999999741
 30
0.0
 10
18.52936746843978
 20
8.09499999999941
 30
0.0
 10
18.51041383753827
 20
8.094999999998874
 30
0.0
 10
18.47965032418383
 20
8.094999999998006
 30
0.0
 10
18.4417227034796
 20
8.094999999996931
 30
0.0
 10
18.3979518445753
 20
8.094999999995697
 30
0.0
 10
18.35803612823353
 20
8.094999999994572
 30
0.0
 10
18.32503585238422
 20
8.094999999993641
 30
0.0
 10
18.3083643656181
 20
8.09499999999317
 30
0.0
 10
18.29999999999998
 20
8.094999999992934
 30
0.0
  0
SPLINE
  5
266
330
1F
100
AcDbEntity
  8
1
  6
SLD-Solid
370
    25
100
AcDbSpline
210
0.0
220
0.0
230
1.0
 70
     8
 71
     3
 72
    17
 73
    13
 74
     0
 42
0.000000001
 43
0.00000001
 40
0.0
 40
0.0
 40
0.0
 40
0.0
 40
0.0630096892532792
 40
0.1264306799664213
 40
0.1902686728771463
 40
0.2545292253591724
 40
0.3775638368193145
 40
0.5060541142148836
 40
0.7530801336068137
 40
0.8766168954597358
 40
0.9296269325062025
 40
1.0
 40
1.0
 40
1.0
 40
1.0
 10
18.29999999999683
 20
8.732519999992943
 30
0.0
 10
18.32475416474072
 20
8.73239197811998
 30
0.0
 10
18.37442407928336
 20
8.732135098699668
 30
0.0
 10
18.44843090931136
 20
8.730043004151893
 30
0.0
 10
18.52143218660493
 20
8.726684778834723
 30
0.0
 10
18.61417448602587
 20
8.720522494880937
 30
0.0
 10
18.72385267704536
 20
8.709704769506512
 30
0.0
 10
18.87491226457107
 20
8.686766754249787
 30
0.0
 10
18.9854814883226
 20
8.655981996491716
 30
0.0
 10
19.03257258939281
 20
8.626607912865895
 30
0.0
 10
19.04762809452212
 20
8.609006381148747
 30
0.0
 10
19.04913851381909
 20
8.600087177325536
 30
0.0
 10
19.04999999999683
 20
8.59499999999292
 30
0.0
  0
SPLINE
  5
267
330
1F
100
AcDbEntity
  8
1
  6
SLD-Solid
370
    25
100
AcDbSpline
210
0.0
220
0.0
230
1.0
 70
     8
 71
     3
 72
     8
 73
     4
 74
     0
 42
0.000000001
 43
0.00000001
 40
0.0
 40
0.0
 40
0.0
 40
0.0
 40
0.0008783072046589
 40
0.0008783072046589
 40
0.0008783072046589
 40
0.0008783072046589
 10
14.2709083078737
 20
8.094999999992934
 30
0.0
 10
14.39228083356329
 20
8.307726875202363
 30
0.0
 10
14.51427081432681
 20
8.520229759098427
 30
0.0
 10
14.63683664205358
 20
8.732519999992943
 30
0.0
  0
SPLINE
  5
268
330
1F
100
AcDbEntity
  8
1
  6
SLD-Solid
370
    25
100
AcDbSpline
210
0.0
220
0.0
230
1.0
 70
    24
 71
     2
 72
     6
 73
     3
 74
     0
 42
0.000000001
 43
0.00000001
 40
0.0
 40
0.0
 40
0.0
 40
0.5000000000000032
 40
0.5000000000000032
 40
0.5000000000000032
 10
3.199999999999994
 20
-18.35000000000002
 30
0.0
 10
3.262453391497278
 20
-18.34999999999999
 30
0.0
 10
3.391824966518506
 20
-18.35
 30
0.0
  0
SPLINE
  5
269
330
1F
100
AcDbEntity
  8
1
  6
SLD-Solid
370
    25
100
AcDbSpline
210
0.0
220
0.0
230
1.0
 70
    24
 71
     3
 72
     8
 73
     4
 74
     0
 42
0.000000001
 43
0.00000001
 40
0.5000000000000032
 40
0.5000000000000032
 40
0.5000000000000032
 40
0.5000000000000032
 40
0.7500000000000016
 40
0.7500000000000016
 40
0.7500000000000016
 40
0.7500000000000016
 10
3.391824966518506
 20
-18.35
 30
0.0
 10
3.456510754029099
 20
-18.35
 30
0.0
 10
3.538937009729404
 20
-18.35
 30
0.0
 10
3.63440883323693
 20
-18.35
 30
0.0
  0
SPLINE
  5
26A
330
1F
100
AcDbEntity
  8
1
  6
SLD-Solid
370
    25
100
AcDbSpline
210
0.0
220
0.0
230
1.0
 70
    24
 71
     3
 72
     8
 73
     4
 74
     0
 42
0.000000001
 43
0.00000001
 40
0.7500000000000016
 40
0.7500000000000016
 40
0.7500000000000016
 40
0.7500000000000016
 40
1.0
 40
1.0
 40
1.0
 40
1.0
 10
3.63440883323693
 20
-18.35
 30
0.0
 10
3.729880656744427
 20
-18.35
 30
0.0
 10
3.838711986975829
 20
-18.35
 30
0.0
 10
3.949999999999995
 20
-18.35
 30
0.0
  0
SPLINE
  5
26B
330
1F
100
AcDbEntity
  8
1
  6
SLD-Solid
370
    25
100
AcDbSpline
210
0.0
220
0.0
230
1.0
 70
     8
 71
     3
 72
    17
 73
    13
 74
     0
 42
0.000000001
 43
0.00000001
 40
0.0
 40
0.0
 40
0.0
 40
0.0
 40
0.0630096892551791
 40
0.1264306799689548
 40
0.1902686728790542
 40
0.25452922535919
 40
0.3775638368184449
 40
0.5060541142149001
 40
0.7530801336068497
 40
0.876616895459772
 40
0.9296269324372894
 40
1.0
 40
1.0
 40
1.0
 40
1.0
 10
3.949999999999995
 20
-8.732520000000042
 30
0.0
 10
3.925245835255373
 20
-8.732391978127074
 30
0.0
 10
3.875575920711722
 20
-8.73213509870677
 30
0.0
 10
3.801569090683021
 20
-8.730043004158864
 30
0.0
 10
3.728567813390274
 20
-8.726684778841653
 30
0.0
 10
3.635825513970611
 20
-8.72052249488801
 30
0.0
 10
3.526147322951742
 20
-8.709704769513813
 30
0.0
 10
3.375087735425927
 20
-8.686766754256857
 30
0.0
 10
3.264518511674225
 20
-8.655981996498818
 30
0.0
 10
3.217427410611692
 20
-8.626607912877823
 30
0.0
 10
3.202371905477522
 20
-8.609006381160748
 30
0.0
 10
3.20086148617929
 20
-8.600087177337578
 30
0.0
 10
3.199999999999994
 20
-8.595000000000033
 30
0.0
  0
SPLINE
  5
26C
330
1F
100
AcDbEntity
  8
1
  6
SLD-Solid
370
    25
100
AcDbSpline
210
0.0
220
0.0
230
1.0
 70
    24
 71
     3
 72
    18
 73
    14
 74
     0
 42
0.000000001
 43
0.00000001
 40
0.0
 40
0.0
 40
0.0
 40
0.0
 40
0.0502617221452593
 40
0.1003354213518503
 40
0.1864287239590571
 40
0.2507033761673361
 40
0.3754040368259496
 40
0.5003115117971217
 40
0.6254321409840763
 40
0.7499589778058474
 40
0.8750959321922346
 40
0.9373335260982119
 40
1.0
 40
1.0
 40
1.0
 40
1.0
 10
3.700000000000023
 20
-8.095000000000004
 30
0.0
 10
3.700144146615653
 20
-8.095000000000004
 30
0.0
 10
3.700431900612131
 20
-8.095000000000004
 30
0.0
 10
3.703295756608021
 20
-8.095000000000018
 30
0.0
 10
3.708907878407983
 20
-8.095000000000004
 30
0.0
 10
3.7206325315602
 20
-8.095000000000018
 30
0.0
 10
3.739586162461714
 20
-8.095000000000004
 30
0.0
 10
3.770349675816131
 20
-8.095000000000004
 30
0.0
 10
3.808277296520377
 20
-8.095000000000004
 30
0.0
 10
3.852048155424684
 20
-8.095000000000004
 30
0.0
 10
3.891963871766477
 20
-8.095000000000004
 30
0.0
 10
3.924964147615756
 20
-8.095000000000018
 30
0.0
 10
3.941635634381865
 20
-8.095000000000018
 30
0.0
 10
3.949999999999995
 20
-8.095000000000004
 30
0.0
  0
SPLINE
  5
26D
330
1F
100
AcDbEntity
  8
1
  6
SLD-Solid
370
    25
100
AcDbSpline
210
0.0
220
0.0
230
1.0
 70
     8
 71
     3
 72
     8
 73
     4
 74
     0
 42
0.000000001
 43
0.00000001
 40
0.0
 40
0.0
 40
0.0
 40
0.0
 40
0.0008783072046589
 40
0.0008783072046589
 40
0.0008783072046589
 40
0.0008783072046589
 10
7.959091692123138
 20
-8.095000000000004
 30
0.0
 10
7.837719166433513
 20
-8.307726875209434
 30
0.0
 10
7.715729185669998
 20
-8.520229759105526
 30
0.0
 10
7.593163357943217
 20
-8.732520000000042
 30
0.0
  0
SPLINE
  5
26E
330
1F
100
AcDbEntity
  8
1
  6
SLD-Solid
370
    25
100
AcDbSpline
210
0.0
220
0.0
230
1.0
 70
    24
 71
     3
 72
     8
 73
     4
 74
     0
 42
0.000000001
 43
0.00000001
 40
0.0
 40
0.0
 40
0.0
 40
0.0
 40
1.0
 40
1.0
 40
1.0
 40
1.0
 10
13.02999999999682
 20
8.094999999992934
 30
0.0
 10
13.44271800981457
 20
8.094999999992934
 30
0.0
 10
13.856418886234
 20
8.094999999992934
 30
0.0
 10
14.2709083078737
 20
8.094999999992934
 30
0.0
  0
SPLINE
  5
26F
330
1F
100
AcDbEntity
  8
1
  6
SLD-Solid
370
    25
100
AcDbSpline
210
0.0
220
0.0
230
1.0
 70
     8
 71
     3
 72
     9
 73
     5
 74
     0
 42
0.000000001
 43
0.00000001
 40
0.0
 40
0.0
 40
0.0
 40
0.0
 40
0.5549482632672378
 40
1.0
 40
1.0
 40
1.0
 40
1.0
 10
13.02999999999682
 20
27.01726268082102
 30
0.0
 10
13.05715000916624
 20
27.09737051094023
 30
0.0
 10
13.10607350522262
 20
27.24172239997503
 30
0.0
 10
13.10748201276946
 20
27.31440022370288
 30
0.0
 10
13.10810887149939
 20
27.34674561537491
 30
0.0
  0
SPLINE
  5
270
330
1F
100
AcDbEntity
  8
1
  6
SLD-Solid
370
    25
100
AcDbSpline
210
0.0
220
0.0
230
1.0
 70
     8
 71
     3
 72
     8
 73
     4
 74
     0
 42
0.000000001
 43
0.00000001
 40
0.0
 40
0.0
 40
0.0
 40
0.0
 40
1.0
 40
1.0
 40
1.0
 40
1.0
 10
13.11238376628521
 20
27.3888561011681
 30
0.0
 10
13.10369243773719
 20
27.43220912960293
 30
0.0
 10
13.07354924829485
 20
27.43601780818719
 30
0.0
 10
13.02999999999673
 20
27.41186263126707
 30
0.0
  0
SPLINE
  5
271
330
1F
100
AcDbEntity
  8
1
  6
SLD-Solid
370
    25
100
AcDbSpline
210
0.0
220
0.0
230
1.0
 70
    24
 71
     3
 72
     8
 73
     4
 74
     0
 42
0.000000001
 43
0.00000001
 40
0.0
 40
0.0
 40
0.0
 40
0.0
 40
1.0
 40
1.0
 40
1.0
 40
1.0
 10
13.03
 20
-18.35
 30
0.0
 10
13.55326815339425
 20
-18.35
 30
0.0
 10
14.09021285193385
 20
-18.35
 30
0.0
 10
14.63683664205673
 20
-18.35
 30
0.0
  0
SPLINE
  5
272
330
1F
100
AcDbEntity
  8
1
  6
SLD-Solid
370
    25
100
AcDbSpline
210
0.0
220
0.0
230
1.0
 70
    24
 71
     3
 72
     8
 73
     4
 74
     0
 42
0.000000001
 43
0.00000001
 40
0.0
 40
0.0
 40
0.0
 40
0.0
 40
1.0
 40
1.0
 40
1.0
 40
1.0
 10
14.27090830787685
 20
-8.095000000000004
 30
0.0
 10
13.85641888623715
 20
-8.095000000000004
 30
0.0
 10
13.44271800981772
 20
-8.095000000000004
 30
0.0
 10
13.02999999999997
 20
-8.095000000000004
 30
0.0
  0
SPLINE
  5
273
330
1F
100
AcDbEntity
  8
1
  6
SLD-Solid
370
    25
100
AcDbSpline
210
0.0
220
0.0
230
1.0
 70
     8
 71
     3
 72
    14
 73
    10
 74
     0
 42
0.000000001
 43
0.00000001
 40
0.0
 40
0.0
 40
0.0
 40
0.0
 40
0.25
 40
0.25
 40
0.5
 40
0.5
 40
0.75
 40
0.75
 40
1.0
 40
1.0
 40
1.0
 40
1.0
 10
9.19999999999998
 20
27.41186263126166
 30
0.0
 10
9.173850986626855
 20
27.42636653360209
 30
0.0
 10
9.152634041267017
 20
27.43095735096776
 30
0.0
 10
9.122930435167993
 20
27.41447268826341
 30
0.0
 10
9.115069084731342
 20
27.39329444381266
 30
0.0
 10
9.114931833420979
 20
27.32424384477568
 30
0.0
 10
9.12287089105576
 20
27.27570924655766
 30
0.0
 10
9.152219475897567
 20
27.15977821327369
 30
0.0
 10
9.173774255136369
 20
27.09136204738279
 30
0.0
 10
9.2
 20
27.0172626808281
 30
0.0
  0
SPLINE
  5
274
330
1F
100
AcDbEntity
  8
1
  6
SLD-Solid
370
    25
100
AcDbSpline
210
0.0
220
0.0
230
1.0
 70
    24
 71
     3
 72
     8
 73
     4
 74
     0
 42
0.000000001
 43
0.00000001
 40
0.0
 40
0.0
 40
0.0
 40
0.0
 40
1.0
 40
1.0
 40
1.0
 40
1.0
 10
7.959091692123152
 20
8.09499999999997
 30
0.0
 10
8.373581113762823
 20
8.094999999999978
 30
0.0
 10
8.78728199018225
 20
8.094999999999985
 30
0.0
 10
9.2
 20
8.094999999999992
 30
0.0
  0
SPLINE
  5
275
330
1F
100
AcDbEntity
  8
1
  6
SLD-Solid
370
    25
100
AcDbSpline
210
0.0
220
0.0
230
1.0
 70
    24
 71
     3
 72
     8
 73
     4
 74
     0
 42
0.000000001
 43
0.00000001
 40
0.0
 40
0.0
 40
0.0
 40
0.0
 40
1.0
 40
1.0
 40
1.0
 40
1.0
 10
7.593163357943217
 20
-18.35
 30
0.0
 10
8.139818051543331
 20
-18.35
 30
0.0
 10
8.676973665110694
 20
-18.35
 30
0.0
 10
9.199999999999985
 20
-18.35
 30
0.0
  0
SPLINE
  5
276
330
1F
100
AcDbEntity
  8
1
  6
SLD-Solid
370
    25
100
AcDbSpline
210
0.0
220
0.0
230
1.0
 70
    24
 71
     3
 72
     8
 73
     4
 74
     0
 42
0.000000001
 43
0.00000001
 40
0.0
 40
0.0
 40
0.0
 40
0.0
 40
1.0
 40
1.0
 40
1.0
 40
1.0
 10
9.199999999999985
 20
-8.095000000000004
 30
0.0
 10
8.787281990182235
 20
-8.095000000000004
 30
0.0
 10
8.37358111376281
 20
-8.095000000000004
 30
0.0
 10
7.959091692123138
 20
-8.095000000000004
 30
0.0
  0
SPLINE
  5
277
330
1F
100
AcDbEntity
  8
1
  6
SLD-Solid
370
    25
100
AcDbSpline
210
0.0
220
0.0
230
1.0
 70
    24
 71
     3
 72
     8
 73
     4
 74
     0
 42
0.000000001
 43
0.00000001
 40
0.0
 40
0.0
 40
0.0
 40
0.0
 40
0.25
 40
0.25
 40
0.25
 40
0.25
 10
12.27999999999997
 20
-18.35
 30
0.0
 10
12.39351868075159
 20
-18.35
 30
0.0
 10
12.50715208952619
 20
-18.35
 30
0.0
 10
12.60448354500659
 20
-18.35
 30
0.0
  0
SPLINE
  5
278
330
1F
100
AcDbEntity
  8
1
  6
SLD-Solid
370
    25
100
AcDbSpline
210
0.0
220
0.0
230
1.0
 70
    24
 71
     3
 72
     8
 73
     4
 74
     0
 42
0.000000001
 43
0.00000001
 40
0.25
 40
0.25
 40
0.25
 40
0.25
 40
0.5
 40
0.5
 40
0.5
 40
0.5
 10
12.60448354500659
 20
-18.35
 30
0.0
 10
12.70181500048702
 20
-18.35
 30
0.0
 10
12.78100032850088
 20
-18.35
 30
0.0
 10
12.84409901342838
 20
-18.35
 30
0.0
  0
SPLINE
  5
279
330
1F
100
AcDbEntity
  8
1
  6
SLD-Solid
370
    25
100
AcDbSpline
210
0.0
220
0.0
230
1.0
 70
    24
 71
     2
 72
     6
 73
     3
 74
     0
 42
0.000000001
 43
0.00000001
 40
0.5
 40
0.5
 40
0.5
 40
1.0
 40
1.0
 40
1.0
 10
12.84409901342838
 20
-18.35
 30
0.0
 10
12.97029638328343
 20
-18.35
 30
0.0
 10
13.03
 20
-18.35
 30
0.0
  0
SPLINE
  5
27A
330
1F
100
AcDbEntity
  8
1
  6
SLD-Solid
370
    25
100
AcDbSpline
210
0.0
220
0.0
230
1.0
 70
    24
 71
     2
 72
     6
 73
     3
 74
     0
 42
0.000000001
 43
0.00000001
 40
0.0
 40
0.0
 40
0.0
 40
0.5000000000000047
 40
0.5000000000000047
 40
0.5000000000000047
 10
13.03
 20
-8.095000000000004
 30
0.0
 10
12.95349719051725
 20
-8.095000000000004
 30
0.0
 10
12.81634843037009
 20
-8.095000000000004
 30
0.0
  0
SPLINE
  5
27B
330
1F
100
AcDbEntity
  8
1
  6
SLD-Solid
370
    25
100
AcDbSpline
210
0.0
220
0.0
230
1.0
 70
    24
 71
     3
 72
     8
 73
     4
 74
     0
 42
0.000000001
 43
0.00000001
 40
0.5000000000000047
 40
0.5000000000000047
 40
0.5000000000000047
 40
0.5000000000000047
 40
0.7500000000000023
 40
0.7500000000000023
 40
0.7500000000000023
 40
0.7500000000000023
 10
12.81634843037009
 20
-8.095000000000004
 30
0.0
 10
12.74777405029651
 20
-8.095000000000004
 30
0.0
 10
12.66546509018091
 20
-8.095000000000004
 30
0.0
 10
12.57309648684345
 20
-8.095000000000004
 30
0.0
  0
SPLINE
  5
27C
330
1F
100
AcDbEntity
  8
1
  6
SLD-Solid
370
    25
100
AcDbSpline
210
0.0
220
0.0
230
1.0
 70
    24
 71
     3
 72
     8
 73
     4
 74
     0
 42
0.000000001
 43
0.00000001
 40
0.7500000000000023
 40
0.7500000000000023
 40
0.7500000000000023
 40
0.7500000000000023
 40
1.0
 40
1.0
 40
1.0
 40
1.0
 10
12.57309648684345
 20
-8.095000000000004
 30
0.0
 10
12.48072788350595
 20
-8.095000000000004
 30
0.0
 10
12.37983045260058
 20
-8.095000000000004
 30
0.0
 10
12.27999999999997
 20
-8.095000000000004
 30
0.0
  0
SPLINE
  5
27D
330
1F
100
AcDbEntity
  8
1
  6
SLD-Solid
370
    25
100
AcDbSpline
210
0.0
220
0.0
230
1.0
 70
     8
 71
     3
 72
    16
 73
    12
 74
     0
 42
0.000000001
 43
0.00000001
 40
0.0
 40
0.0
 40
0.0
 40
0.0
 40
0.1249999999999979
 40
0.1249999999999979
 40
0.2499999999999958
 40
0.2499999999999958
 40
0.4999999999999972
 40
0.4999999999999972
 40
0.7499999999999986
 40
0.7499999999999986
 40
1.0
 40
1.0
 40
1.0
 40
1.0
 10
9.2
 20
26.81342395599223
 30
0.0
 10
9.2
 20
26.75008219873891
 30
0.0
 10
9.209563827901404
 20
26.67853228546582
 30
0.0
 10
9.236165608094925
 20
26.55137620786218
 30
0.0
 10
9.253606986679333
 20
26.49121349319728
 30
0.0
 10
9.313827278242371
 20
26.32086774534962
 30
0.0
 10
9.364947089709322
 20
26.21821216600434
 30
0.0
 10
9.492010964480672
 20
26.02727557642675
 30
0.0
 10
9.566115913432386
 20
25.94241156889362
 30
0.0
 10
9.739483002625725
 20
25.79997779741086
 30
0.0
 10
9.839659725882798
 20
25.74236666909598
 30
0.0
 10
9.949999999996836
 20
25.71100064078868
 30
0.0
  0
SPLINE
  5
27E
330
1F
100
AcDbEntity
  8
1
  6
SLD-Solid
370
    25
100
AcDbSpline
210
0.0
220
0.0
230
1.0
 70
    24
 71
     2
 72
     6
 73
     3
 74
     0
 42
0.000000001
 43
0.00000001
 40
0.0
 40
0.0
 40
0.0
 40
0.25
 40
0.25
 40
0.25
 10
9.199999999999985
 20
8.094999999999992
 30
0.0
 10
9.218706918939404
 20
8.094999999999992
 30
0.0
 10
9.254984916689635
 20
8.094999999999992
 30
0.0
  0
SPLINE
  5
27F
330
1F
100
AcDbEntity
  8
1
  6
SLD-Solid
370
    25
100
AcDbSpline
210
0.0
220
0.0
230
1.0
 70
    24
 71
     3
 72
     8
 73
     4
 74
     0
 42
0.000000001
 43
0.00000001
 40
0.25
 40
0.25
 40
0.25
 40
0.25
 40
0.5
 40
0.5
 40
0.5
 40
0.5
 10
9.254984916689635
 20
8.094999999999992
 30
0.0
 10
9.291262914439837
 20
8.094999999999992
 30
0.0
 10
9.345503941425248
 20
8.094999999999992
 30
0.0
 10
9.413757757814862
 20
8.094999999999992
 30
0.0
  0
SPLINE
  5
280
330
1F
100
AcDbEntity
  8
1
  6
SLD-Solid
370
    25
100
AcDbSpline
210
0.0
220
0.0
230
1.0
 70
    24
 71
     3
 72
     8
 73
     4
 74
     0
 42
0.000000001
 43
0.00000001
 40
0.5
 40
0.5
 40
0.5
 40
0.5
 40
0.75
 40
0.75
 40
0.75
 40
0.75
 10
9.413757757814862
 20
8.094999999999992
 30
0.0
 10
9.482011574204474
 20
8.094999999999992
 30
0.0
 10
9.565219805752214
 20
8.094999999999992
 30
0.0
 10
9.657354312945385
 20
8.094999999999992
 30
0.0
  0
SPLINE
  5
281
330
1F
100
AcDbEntity
  8
1
  6
SLD-Solid
370
    25
100
AcDbSpline
210
0.0
220
0.0
230
1.0
 70
    24
 71
     3
 72
     8
 73
     4
 74
     0
 42
0.000000001
 43
0.00000001
 40
0.75
 40
0.75
 40
0.75
 40
0.75
 40
1.0
 40
1.0
 40
1.0
 40
1.0
 10
9.657354312945385
 20
8.094999999999992
 30
0.0
 10
9.749488820138568
 20
8.094999999999992
 30
0.0
 10
9.849028188255518
 20
8.094999999999992
 30
0.0
 10
9.949999999999987
 20
8.094999999999992
 30
0.0
  0
SPLINE
  5
282
330
1F
100
AcDbEntity
  8
1
  6
SLD-Solid
370
    25
100
AcDbSpline
210
0.0
220
0.0
230
1.0
 70
     8
 71
     3
 72
    16
 73
    12
 74
     0
 42
0.000000001
 43
0.00000001
 40
0.0
 40
0.0
 40
0.0
 40
0.0
 40
0.2500000000000017
 40
0.2500000000000017
 40
0.5000000000000034
 40
0.5000000000000034
 40
0.7500000000000051
 40
0.7500000000000051
 40
0.8750000000000026
 40
0.8750000000000026
 40
1.0
 40
1.0
 40
1.0
 40
1.0
 10
12.27999999999682
 20
25.71100064078868
 30
0.0
 10
12.39043372689841
 20
25.74239323457943
 30
0.0
 10
12.48882901746023
 20
25.7987325018882
 30
0.0
 10
12.66410334854882
 20
25.94245138604112
 30
0.0
 10
12.73788841341346
 20
26.02725745595261
 30
0.0
 10
12.86422126911936
 20
26.2168303701315
 30
0.0
 10
12.91628240591207
 20
26.32104193278872
 30
0.0
 10
12.97661386675236
 20
26.49190672933528
 30
0.0
 10
12.99395951695428
 20
26.55178250641628
 30
0.0
 10
13.02063019805651
 20
26.67965382866437
 30
0.0
 10
13.02999999999682
 20
26.74911867245211
 30
0.0
 10
13.02999999999682
 20
26.81342395598518
 30
0.0
  0
SPLINE
  5
283
330
1F
100
AcDbEntity
  8
1
  6
SLD-Solid
370
    25
100
AcDbSpline
210
0.0
220
0.0
230
1.0
 70
    24
 71
     3
 72
     8
 73
     4
 74
     0
 42
0.000000001
 43
0.00000001
 40
0.0
 40
0.0
 40
0.0
 40
0.0
 40
0.5
 40
0.5
 40
0.5
 40
0.5
 10
12.27999999999679
 20
8.094999999999992
 30
0.0
 10
12.48222477372497
 20
8.094999999997329
 30
0.0
 10
12.67833084460925
 20
8.09499999999475
 30
0.0
 10
12.81596325226628
 20
8.094999999992934
 30
0.0
  0
SPLINE
  5
284
330
1F
100
AcDbEntity
  8
1
  6
SLD-Solid
370
    25
100
AcDbSpline
210
0.0
220
0.0
230
1.0
 70
    24
 71
     2
 72
     6
 73
     3
 74
     0
 42
0.000000001
 43
0.00000001
 40
0.5
 40
0.5
 40
0.5
 40
1.0
 40
1.0
 40
1.0
 10
12.81596325226628
 20
8.094999999992934
 30
0.0
 10
12.95359565992335
 20
8.094999999992934
 30
0.0
 10
13.02999999999682
 20
8.094999999992934
 30
0.0
  0
SPLINE
  5
285
330
1F
100
AcDbEntity
  8
1
  6
SLD-Solid
370
    25
100
AcDbSpline
210
0.0
220
0.0
230
1.0
 70
    24
 71
     2
 72
     6
 73
     3
 74
     0
 42
0.000000001
 43
0.00000001
 40
0.0
 40
0.0
 40
0.0
 40
0.25
 40
0.25
 40
0.25
 10
9.199999999999985
 20
-18.35
 30
0.0
 10
9.215049552321581
 20
-18.35
 30
0.0
 10
9.245719510034458
 20
-18.35
 30
0.0
  0
SPLINE
  5
286
330
1F
100
AcDbEntity
  8
1
  6
SLD-Solid
370
    25
100
AcDbSpline
210
0.0
220
0.0
230
1.0
 70
    24
 71
     3
 72
     8
 73
     4
 74
     0
 42
0.000000001
 43
0.00000001
 40
0.25
 40
0.25
 40
0.25
 40
0.25
 40
0.5
 40
0.5
 40
0.5
 40
0.5
 10
9.245719510034458
 20
-18.35
 30
0.0
 10
9.276389467747379
 20
-18.35
 30
0.0
 10
9.322582428042987
 20
-18.35
 30
0.0
 10
9.385647257598093
 20
-18.35
 30
0.0
  0
SPLINE
  5
287
330
1F
100
AcDbEntity
  8
1
  6
SLD-Solid
370
    25
100
AcDbSpline
210
0.0
220
0.0
230
1.0
 70
    24
 71
     3
 72
     8
 73
     4
 74
     0
 42
0.000000001
 43
0.00000001
 40
0.5
 40
0.5
 40
0.5
 40
0.5
 40
0.75
 40
0.75
 40
0.75
 40
0.75
 10
9.385647257598093
 20
-18.35
 30
0.0
 10
9.448712087153213
 20
-18.35
 30
0.0
 10
9.528898807595942
 20
-18.35
 30
0.0
 10
9.625947673409934
 20
-18.35
 30
0.0
  0
SPLINE
  5
288
330
1F
100
AcDbEntity
  8
1
  6
SLD-Solid
370
    25
100
AcDbSpline
210
0.0
220
0.0
230
1.0
 70
    24
 71
     3
 72
     8
 73
     4
 74
     0
 42
0.000000001
 43
0.00000001
 40
0.75
 40
0.75
 40
0.75
 40
0.75
 40
1.0
 40
1.0
 40
1.0
 40
1.0
 10
9.625947673409934
 20
-18.35
 30
0.0
 10
9.722996539223969
 20
-18.35
 30
0.0
 10
9.836191071280641
 20
-18.35
 30
0.0
 10
9.949999999999987
 20
-18.35
 30
0.0
  0
SPLINE
  5
289
330
1F
100
AcDbEntity
  8
1
  6
SLD-Solid
370
    25
100
AcDbSpline
210
0.0
220
0.0
230
1.0
 70
    24
 71
     3
 72
     8
 73
     4
 74
     0
 42
0.000000001
 43
0.00000001
 40
0.0
 40
0.0
 40
0.0
 40
0.0
 40
0.2500000000000009
 40
0.2500000000000009
 40
0.2500000000000009
 40
0.2500000000000009
 10
9.949999999999987
 20
-8.095000000000004
 30
0.0
 10
9.850219275687632
 20
-8.095000000000004
 30
0.0
 10
9.748489574720256
 20
-8.095000000000004
 30
0.0
 10
9.656770208427368
 20
-8.095000000000004
 30
0.0
  0
SPLINE
  5
28A
330
1F
100
AcDbEntity
  8
1
  6
SLD-Solid
370
    25
100
AcDbSpline
210
0.0
220
0.0
230
1.0
 70
    24
 71
     3
 72
     8
 73
     4
 74
     0
 42
0.000000001
 43
0.00000001
 40
0.2500000000000009
 40
0.2500000000000009
 40
0.2500000000000009
 40
0.2500000000000009
 40
0.5000000000000018
 40
0.5000000000000018
 40
0.5000000000000018
 40
0.5000000000000018
 10
9.656770208427368
 20
-8.095000000000004
 30
0.0
 10
9.565050842134436
 20
-8.095000000000004
 30
0.0
 10
9.481946114451494
 20
-8.095000000000004
 30
0.0
 10
9.413655347818697
 20
-8.095000000000004
 30
0.0
  0
SPLINE
  5
28B
330
1F
100
AcDbEntity
  8
1
  6
SLD-Solid
370
    25
100
AcDbSpline
210
0.0
220
0.0
230
1.0
 70
    24
 71
     2
 72
     6
 73
     3
 74
     0
 42
0.000000001
 43
0.00000001
 40
0.5000000000000018
 40
0.5000000000000018
 40
0.5000000000000018
 40
1.0
 40
1.0
 40
1.0
 10
9.413655347818697
 20
-8.095000000000004
 30
0.0
 10
9.277073814553116
 20
-8.095000000000004
 30
0.0
 10
9.199999999999708
 20
-8.095000000000004
 30
0.0
  0
SPLINE
  5
28C
330
1F
100
AcDbEntity
  8
1
  6
SLD-Solid
370
    25
100
AcDbSpline
210
0.0
220
0.0
230
1.0
 70
     8
 71
     3
 72
    12
 73
     8
 74
     0
 42
0.000000001
 43
0.00000001
 40
0.0
 40
0.0
 40
0.0
 40
0.0
 40
0.25
 40
0.25
 40
0.5
 40
0.5
 40
1.0
 40
1.0
 40
1.0
 40
1.0
 10
9.949999999996836
 20
25.71100064078868
 30
0.0
 10
10.11987070991419
 20
25.66271211206653
 30
0.0
 10
10.30396582361801
 20
25.6252759063343
 30
0.0
 10
10.70032541250138
 20
25.57346530882965
 30
0.0
 10
10.90572162653104
 20
25.56022125844618
 30
0.0
 10
11.52828854875021
 20
25.55999751387887
 30
0.0
 10
11.94025576621637
 20
25.61442278343421
 30
0.0
 10
12.27999999999682
 20
25.71100064078868
 30
0.0
  0
SPLINE
  5
28D
330
1F
100
AcDbEntity
  8
1
  6
SLD-Solid
370
    25
100
AcDbSpline
210
0.0
220
0.0
230
1.0
 70
     8
 71
     3
 72
    33
 73
    29
 74
     0
 42
0.000000001
 43
0.00000001
 40
0.0
 40
0.0
 40
0.0
 40
0.0
 40
0.0302275348056055
 40
0.0625381947454978
 40
0.0938027791566763
 40
0.1250680687166627
 40
0.1563347427708529
 40
0.1876024165789437
 40
0.2188701360061084
 40
0.2501369237364322
 40
0.2814023037277182
 40
0.3126668851339355
 40
0.375203518762385
 40
0.4376967910239239
 40
0.500090116831007
 40
0.5624548992564448
 40
0.6248659624902955
 40
0.6873643326112557
 40
0.7186264817707108
 40
0.7498880057822389
 40
0.7811509095161512
 40
0.8124145445519294
 40
0.843678140606168
 40
0.8749409592175594
 40
0.9062028240443729
 40
0.9374646211760649
 40
0.9697572357693293
 40
1.0
 40
1.0
 40
1.0
 40
1.0
 10
18.60917995585584
 20
-7.595000000000004
 30
0.0
 10
18.61993629612323
 20
-7.441767693852134
 30
0.0
 10
18.6421902479165
 20
-7.124743104688483
 30
0.0
 10
18.68296506250145
 20
-6.649795037430486
 30
0.0
 10
18.72839828254028
 20
-6.169986968486803
 30
0.0
 10
18.77684346454561
 20
-5.695805116977346
 30
0.0
 10
18.82755448825899
 20
-5.221847449007732
 30
0.0
 10
18.87946327886078
 20
-4.748007648714511
 30
0.0
 10
18.93141534340948
 20
-4.274172090129917
 30
0.0
 10
18.98229069083582
 20
-3.800230795232288
 30
0.0
 10
19.03091775055095
 20
-3.326066716635503
 30
0.0
 10
19.09122358672477
 20
-2.693379336974822
 30
0.0
 10
19.15522514134818
 20
-1.901643612087802
 30
0.0
 10
19.20537052350083
 20
-0.9503765228647959
 30
0.0
 10
19.22278683414769
 20
0.0012292935462691
 30
0.0
 10
19.2052866832413
 20
0.9524153954381178
 30
0.0
 10
19.15512884236316
 20
1.902922772558831
 30
0.0
 10
19.09116671013689
 20
2.694034956432271
 30
0.0
 10
19.0308708958677
 20
3.326495862307176
 30
0.0
 10
18.98225064420418
 20
3.800608653551488
 30
0.0
 10
18.93138529203454
 20
4.274490597425178
 30
0.0
 10
18.87943406734076
 20
4.748264667541899
 30
0.0
 10
18.82753415441078
 20
5.222044006270784
 30
0.0
 10
18.77682926254505
 20
5.695944276712689
 30
0.0
 10
18.72838746019827
 20
6.170075056938056
 30
0.0
 10
18.68296848146826
 20
6.649760641363703
 30
0.0
 10
18.64219033299602
 20
7.124679845031144
 30
0.0
 10
18.61994030328407
 20
7.441690383194192
 30
0.0
 10
18.60917995585584
 20
7.594999999999991
 30
0.0
  0
SPLINE
  5
28E
330
1F
100
AcDbEntity
  8
1
  6
SLD-Solid
370
    25
100
AcDbSpline
210
0.0
220
0.0
230
1.0
 70
     8
 71
     3
 72
    23
 73
    19
 74
     0
 42
0.000000001
 43
0.00000001
 40
0.0
 40
0.0
 40
0.0
 40
0.0
 40
0.0307353922161882
 40
0.0616654172179519
 40
0.1236166688661287
 40
0.1858469968534193
 40
0.2483341913451911
 40
0.3739453976179693
 40
0.4369083951387454
 40
0.4999089442400879
 40
0.562938441176399
 40
0.6259845861012516
 40
0.7516408427766409
 40
0.8141358981876768
 40
0.8763743616278333
 40
0.9383318019365041
 40
0.9692614053649969
 40
0.9999999999999999
 40
0.9999999999999999
 40
0.9999999999999999
 40
0.9999999999999999
 10
19.09734396468465
 20
7.62726255804072
 30
0.0
 10
19.10624252708931
 20
7.471035878099566
 30
0.0
 10
19.12409600230984
 20
7.15759320811879
 30
0.0
 10
19.16771795144567
 20
6.529607777205119
 30
0.0
 10
19.23067613995619
 20
5.74205064228648
 30
0.0
 10
19.31370153781625
 20
4.794581152622011
 30
0.0
 10
19.42477342075617
 20
3.523654423845689
 30
0.0
 10
19.52089307459301
 20
2.246991355592594
 30
0.0
 10
19.57423681857284
 20
0.9650881668529023
 30
0.0
 10
19.58822882989987
 20
0.0012458448471822
 30
0.0
 10
19.57430394936463
 20
-0.9630218523348846
 30
0.0
 10
19.52098207495166
 20
-2.245728825773559
 30
0.0
 10
19.42482152213032
 20
-3.523085187377709
 30
0.0
 10
19.31372561451972
 20
-4.794322090125966
 30
0.0
 10
19.23068799060297
 20
-5.741904152197854
 30
0.0
 10
19.16772368027288
 20
-6.529531820731103
 30
0.0
 10
19.12409801862531
 20
-7.157562778162804
 30
0.0
 10
19.1062435487402
 20
-7.471019594594046
 30
0.0
 10
19.09734396468465
 20
-7.627262558040734
 30
0.0
  0
SPLINE
  5
28F
330
1F
100
AcDbEntity
  8
1
  6
SLD-Solid
370
    25
100
AcDbSpline
210
0.0
220
0.0
230
1.0
 70
     8
 71
     3
 72
    14
 73
    10
 74
     0
 42
0.000000001
 43
0.00000001
 40
0.0
 40
0.0
 40
0.0
 40
0.0
 40
0.1334895394492291
 40
0.2653983188181343
 40
0.5215450124841329
 40
0.6447840171528428
 40
0.7652317225523237
 40
0.8838949015738505
 40
0.9999999999999999
 40
0.9999999999999999
 40
0.9999999999999999
 40
0.9999999999999999
 10
19.09734396468465
 20
-7.627262558040748
 30
0.0
 10
19.09537205694631
 20
-7.661201940499573
 30
0.0
 10
19.09145159246063
 20
-7.728678801109472
 30
0.0
 10
19.08160668015768
 20
-7.860949653750029
 30
0.0
 10
19.07068750348679
 20
-7.988854788777633
 30
0.0
 10
19.06094310325121
 20
-8.10808296506511
 30
0.0
 10
19.05507785345621
 20
-8.190685279539215
 30
0.0
 10
19.05088715093924
 20
-8.26746137076994
 30
0.0
 10
19.05029356102287
 20
-8.31283327409631
 30
0.0
 10
19.04999999999995
 20
-8.335272035238834
 30
0.0
  0
SPLINE
  5
290
330
1F
100
AcDbEntity
  8
1
  6
SLD-Solid
370
    25
100
AcDbSpline
210
0.0
220
0.0
230
1.0
 70
     8
 71
     3
 72
    15
 73
    11
 74
     0
 42
0.000000001
 43
0.00000001
 40
0.0
 40
0.0
 40
0.0
 40
0.0
 40
0.076537678808643
 40
0.1540040287018841
 40
0.2328571877475731
 40
0.3538283651645215
 40
0.477731519244101
 40
0.7326330333489504
 40
0.8654631645418129
 40
1.0
 40
1.0
 40
1.0
 40
1.0
 10
19.04999999999995
 20
8.335272035238823
 30
0.0
 10
19.05012723115493
 20
8.320642644603769
 30
0.0
 10
19.05038323722599
 20
8.291206357400917
 30
0.0
 10
19.0522880717368
 20
8.242988846014148
 30
0.0
 10
19.05560212726763
 20
8.182920106270593
 30
0.0
 10
19.06087864054069
 20
8.109033973736878
 30
0.0
 10
19.07059282827624
 20
7.989894420613291
 30
0.0
 10
19.08152707235161
 20
7.86190915660212
 30
0.0
 10
19.09140377667626
 20
7.729455848915046
 30
0.0
 10
19.09535549358166
 20
7.66147164461102
 30
0.0
 10
19.09734396468465
 20
7.62726255804072
 30
0.0
  0
SPLINE
  5
291
330
1F
100
AcDbEntity
  8
1
  6
SLD-Solid
370
    25
100
AcDbSpline
210
0.0
220
0.0
230
1.0
 70
     8
 71
     3
 72
    15
 73
    11
 74
     0
 42
0.000000001
 43
0.00000001
 40
0.0
 40
0.0
 40
0.0
 40
0.0
 40
0.1204459286115475
 40
0.2497846498597998
 40
0.374167357490017
 40
0.4988289978483281
 40
0.6248151100313746
 40
0.750205288952527
 40
0.8748738773867212
 40
1.0
 40
1.0
 40
1.0
 40
1.0
 10
18.54999999999993
 20
-7.965136017619407
 30
0.0
 10
18.55034321054002
 20
-7.95338981522382
 30
0.0
 10
18.55105497162291
 20
-7.929030162005271
 30
0.0
 10
18.55619013738017
 20
-7.887936190122721
 30
0.0
 10
18.56359799125671
 20
-7.843655207730986
 30
0.0
 10
18.57260843894871
 20
-7.797234985930997
 30
0.0
 10
18.58247416010484
 20
-7.748672891973025
 30
0.0
 10
18.59237079330946
 20
-7.69845562614533
 30
0.0
 10
18.60171405625667
 20
-7.647141049866756
 30
0.0
 10
18.60668828565562
 20
-7.612401560044313
 30
0.0
 10
18.60917995585584
 20
-7.595000000000007
 30
0.0
  0
SPLINE
  5
292
330
1F
100
AcDbEntity
  8
1
  6
SLD-Solid
370
    25
100
AcDbSpline
210
0.0
220
0.0
230
1.0
 70
     8
 71
     3
 72
    15
 73
    11
 74
     0
 42
0.000000001
 43
0.00000001
 40
0.0
 40
0.0
 40
0.0
 40
0.0
 40
0.1256406716267319
 40
0.2517041120032199
 40
0.376977368133515
 40
0.5019325014341834
 40
0.6275904825088461
 40
0.7522670486295853
 40
0.8804984585738101
 40
1.0
 40
1.0
 40
1.0
 40
1.0
 10
18.60917995585584
 20
7.594999999999991
 30
0.0
 10
18.60667716917468
 20
7.612473038558609
 30
0.0
 10
18.60166317417648
 20
7.647477910766407
 30
0.0
 10
18.59226223104216
 20
7.699029542962525
 30
0.0
 10
18.58235482493831
 20
7.749258228512954
 30
0.0
 10
18.57249938437522
 20
7.797780592084573
 30
0.0
 10
18.56349338413676
 20
7.844211874703258
 30
0.0
 10
18.55611228717191
 20
7.888473336465633
 30
0.0
 10
18.55103826728978
 20
7.92933144919078
 30
0.0
 10
18.55033786189469
 20
7.95348487590683
 30
0.0
 10
18.54999999999995
 20
7.96513601761941
 30
0.0
  0
SPLINE
  5
293
330
1F
100
AcDbEntity
  8
1
  6
SLD-Solid
370
    25
100
AcDbSpline
210
0.0
220
0.0
230
1.0
 70
     8
 71
     3
 72
    12
 73
     8
 74
     0
 42
0.000000001
 43
0.00000001
 40
0.0
 40
0.0
 40
0.0
 40
0.0
 40
0.25
 40
0.25
 40
0.5
 40
0.5
 40
1.0
 40
1.0
 40
1.0
 40
1.0
 10
3.949999999999995
 20
-25.91022964004757
 30
0.0
 10
3.840647431218688
 20
-25.91022964004755
 30
0.0
 10
3.731411799312467
 20
-25.8799279656398
 30
0.0
 10
3.538605968889011
 20
-25.77047014941628
 30
0.0
 10
3.456827742745985
 20
-25.69343095107758
 30
0.0
 10
3.262709090922647
 20
-25.42763934306024
 30
0.0
 10
3.200000000003686
 20
-25.2042509359331
 30
0.0
 10
3.199999999999994
 20
-24.98554582155402
 30
0.0
  0
SPLINE
  5
294
330
1F
100
AcDbEntity
  8
1
  6
SLD-Solid
370
    25
100
AcDbSpline
210
0.0
220
0.0
230
1.0
 70
     8
 71
     3
 72
    12
 73
     8
 74
     0
 42
0.000000001
 43
0.00000001
 40
0.0
 40
0.0
 40
0.0
 40
0.0
 40
0.5000000000000023
 40
0.5000000000000023
 40
0.7500000000000011
 40
0.7500000000000011
 40
1.0
 40
1.0
 40
1.0
 40
1.0
 10
19.05
 20
-24.98554582153446
 30
0.0
 10
19.04999999999998
 20
-25.20557810036766
 30
0.0
 10
18.98853102466322
 20
-25.42532674379459
 30
0.0
 10
18.79383121800843
 20
-25.69283297454336
 30
0.0
 10
18.71149076980411
 20
-25.77032859015182
 30
0.0
 10
18.51931186109923
 20
-25.87960340703114
 30
0.0
 10
18.40982431419733
 20
-25.91022964004752
 30
0.0
 10
18.29999999999998
 20
-25.91022964004754
 30
0.0
  0
SPLINE
  5
295
330
1F
100
AcDbEntity
  8
1
  6
SLD-Solid
370
    25
100
AcDbSpline
210
0.0
220
0.0
230
1.0
 70
     8
 71
     3
 72
    14
 73
    10
 74
     0
 42
0.000000001
 43
0.00000001
 40
0.0
 40
0.0
 40
0.0
 40
0.0
 40
0.25
 40
0.25
 40
0.5
 40
0.5
 40
0.75
 40
0.75
 40
1.0
 40
1.0
 40
1.0
 40
1.0
 10
13.02999999999988
 20
-22.1323292944957
 30
0.0
 10
13.02999999999986
 20
-22.01777408914422
 30
0.0
 10
13.01492864850314
 20
-21.90563883030908
 30
0.0
 10
12.95345971831152
 20
-21.68639823941054
 30
0.0
 10
12.90719806346116
 20
-21.58103168145684
 30
0.0
 10
12.78074687769229
 20
-21.39134178492615
 30
0.0
 10
12.69960171970476
 20
-21.30659206817996
 30
0.0
 10
12.50672306519955
 20
-21.1849004232358
 30
0.0
 10
12.39370933271976
 20
-21.14893614345651
 30
0.0
 10
12.28
 20
-21.14893614345647
 30
0.0
  0
SPLINE
  5
296
330
1F
100
AcDbEntity
  8
1
  6
SLD-Solid
370
    25
100
AcDbSpline
210
0.0
220
0.0
230
1.0
 70
     8
 71
     3
 72
    14
 73
    10
 74
     0
 42
0.000000001
 43
0.00000001
 40
0.0
 40
0.0
 40
0.0
 40
0.0
 40
0.1249999999999982
 40
0.1249999999999982
 40
0.2499999999999964
 40
0.2499999999999964
 40
0.4999999999999969
 40
0.4999999999999969
 40
1.0
 40
1.0
 40
1.0
 40
1.0
 10
9.949999999999987
 20
-21.14893614345647
 30
0.0
 10
9.893223661227275
 20
-21.14893614345648
 30
0.0
 10
9.835184734431234
 20
-21.15782630300203
 30
0.0
 10
9.725709414661429
 20
-21.19144609061742
 30
0.0
 10
9.67452622739967
 20
-21.21560556432989
 30
0.0
 10
9.530077159662309
 20
-21.30690106897558
 30
0.0
 10
9.448993190155047
 20
-21.39170378208911
 30
0.0
 10
9.259877421569918
 20
-21.67548088616528
 30
0.0
 10
9.199999999999973
 20
-21.90492065088522
 30
0.0
 10
9.2
 20
-22.13232929449587
 30
0.0
  0
SPLINE
  5
297
330
1F
100
AcDbEntity
  8
1
  6
SLD-Solid
370
    25
100
AcDbSpline
210
0.0
220
0.0
230
1.0
 70
     8
 71
     3
 72
     8
 73
     4
 74
     0
 42
0.000000001
 43
0.00000001
 40
0.0
 40
0.0
 40
0.0
 40
0.0
 40
1.0
 40
1.0
 40
1.0
 40
1.0
 10
14.6368366420567
 20
-25.91022964004754
 30
0.0
 10
14.0901684710647
 20
-24.74996546403974
 30
0.0
 10
13.55303211683953
 20
-23.5841367280859
 30
0.0
 10
13.02999999999988
 20
-22.41333264622107
 30
0.0
  0
SPLINE
  5
298
330
1F
100
AcDbEntity
  8
1
  6
SLD-Solid
370
    25
100
AcDbSpline
210
0.0
220
0.0
230
1.0
 70
     8
 71
     3
 72
     8
 73
     4
 74
     0
 42
0.000000001
 43
0.00000001
 40
0.0
 40
0.0
 40
0.0
 40
0.0
 40
1.0
 40
1.0
 40
1.0
 40
1.0
 10
9.2
 20
-22.41333264622106
 30
0.0
 10
8.676967883160344
 20
-23.58413672808591
 30
0.0
 10
8.139831528935188
 20
-24.74996546403977
 30
0.0
 10
7.593163357943244
 20
-25.91022964004757
 30
0.0
  0
SPLINE
  5
299
330
1F
100
AcDbEntity
  8
1
  6
SLD-Solid
370
    25
100
AcDbSpline
210
0.0
220
0.0
230
1.0
 70
     8
 71
     3
 72
    16
 73
    12
 74
     0
 42
0.000000001
 43
0.00000001
 40
0.0
 40
0.0
 40
0.0
 40
0.0
 40
0.2500000000000011
 40
0.2500000000000011
 40
0.5000000000000021
 40
0.5000000000000021
 40
0.7500000000000031
 40
0.7500000000000031
 40
0.8750000000000016
 40
0.8750000000000016
 40
1.0
 40
1.0
 40
1.0
 40
1.0
 10
9.94999999999989
 20
26.82301853349018
 30
0.0
 10
9.83956627309826
 20
26.80027599034485
 30
0.0
 10
9.741170982536463
 20
26.79683942016772
 30
0.0
 10
9.565896651447844
 20
26.81222120094812
 30
0.0
 10
9.492111586583226
 20
26.83083008839228
 30
0.0
 10
9.365778730877338
 20
26.88495833898958
 30
0.0
 10
9.313717594084643
 20
26.91972746121534
 30
0.0
 10
9.253386133244351
 20
26.99319708569395
 30
0.0
 10
9.236040483042459
 20
27.02133912772177
 30
0.0
 10
9.20936980194025
 20
27.09589126404211
 30
0.0
 10
9.199999999999964
 20
27.14371862289293
 30
0.0
 10
9.19999999999998
 20
27.20802390642598
 30
0.0
  0
SPLINE
  5
29A
330
1F
100
AcDbEntity
  8
1
  6
SLD-Solid
370
    25
100
AcDbSpline
210
0.0
220
0.0
230
1.0
 70
     8
 71
     3
 72
    12
 73
     8
 74
     0
 42
0.000000001
 43
0.00000001
 40
0.0
 40
0.0
 40
0.0
 40
0.0
 40
0.25
 40
0.25
 40
0.5
 40
0.5
 40
1.0
 40
1.0
 40
1.0
 40
1.0
 10
12.27999999999987
 20
26.82301853349012
 30
0.0
 10
12.11012929008255
 20
26.85800143280735
 30
0.0
 10
11.9260341763787
 20
26.88390423639616
 30
0.0
 10
11.52967458749536
 20
26.91937262947672
 30
0.0
 10
11.32427837346565
 20
26.92817666438653
 30
0.0
 10
10.70171145124654
 20
26.92832683986094
 30
0.0
 10
10.28974423378038
 20
26.89298491162408
 30
0.0
 10
9.949999999999886
 20
26.82301853349018
 30
0.0
  0
SPLINE
  5
29B
330
1F
100
AcDbEntity
  8
1
  6
SLD-Solid
370
    25
100
AcDbSpline
210
0.0
220
0.0
230
1.0
 70
     8
 71
     3
 72
    16
 73
    12
 74
     0
 42
0.000000001
 43
0.00000001
 40
0.0
 40
0.0
 40
0.0
 40
0.0
 40
0.1250000000000009
 40
0.1250000000000009
 40
0.2500000000000018
 40
0.2500000000000018
 40
0.5000000000000012
 40
0.5000000000000012
 40
0.7500000000000007
 40
0.7500000000000007
 40
1.0
 40
1.0
 40
1.0
 40
1.0
 10
13.02999999999673
 20
27.20802390643122
 30
0.0
 10
13.02999999999673
 20
27.14468214917789
 30
0.0
 10
13.02043617209529
 20
27.09517885573591
 30
0.0
 10
12.99383439190178
 20
27.02116147442295
 30
0.0
 10
12.97639301331737
 20
26.99288151408816
 30
0.0
 10
12.91617272175432
 20
26.9196877827192
 30
0.0
 10
12.86505291028741
 20
26.8853831151977
 30
0.0
 10
12.73798903551602
 20
26.8308052475017
 30
0.0
 10
12.66388408656435
 20
26.81227314493874
 30
0.0
 10
12.49051699737098
 20
26.79691696881303
 30
0.0
 10
12.39034027411391
 20
26.80029523586116
 30
0.0
 10
12.27999999999987
 20
26.82301853349012
 30
0.0
  0
SPLINE
  5
29C
330
1F
100
AcDbEntity
  8
SK3
  6
SLD-Dashed
370
    18
100
AcDbSpline
210
0.0
220
0.0
230
1.0
 70
     8
 71
     3
 72
    12
 73
     8
 74
     0
 42
0.000000001
 43
0.00000001
 40
0.0
 40
0.0
 40
0.0
 40
0.0
 40
0.2499999999999995
 40
0.2499999999999995
 40
0.499999999999999
 40
0.499999999999999
 40
1.0
 40
1.0
 40
1.0
 40
1.0
 10
46.00000000000001
 20
-10.82820391385386
 30
0.0
 10
46.00000000000001
 20
-10.87407469812791
 30
0.0
 10
45.99079758436618
 20
-10.91924754271191
 30
0.0
 10
45.96207727632169
 20
-11.00300034457798
 30
0.0
 10
45.94282943306514
 20
-11.04109472666771
 30
0.0
 10
45.87382385785548
 20
-11.14589237033732
 30
0.0
 10
45.81539026375852
 20
-11.19997038630667
 30
0.0
 10
45.75000000000605
 20
-11.23053872262597
 30
0.0
  0
SPLINE
  5
29D
330
1F
100
AcDbEntity
  8
SK3
  6
SLD-Dashed
370
    18
100
AcDbSpline
210
0.0
220
0.0
230
1.0
 70
     8
 71
     3
 72
    10
 73
     6
 74
     0
 42
0.000000001
 43
0.00000001
 40
0.0
 40
0.0
 40
0.0
 40
0.0
 40
0.5
 40
0.5
 40
1.0
 40
1.0
 40
1.0
 40
1.0
 10
45.75000000000605
 20
-11.23053872262597
 30
0.0
 10
45.81552931247139
 20
-11.19990538446044
 30
0.0
 10
45.87406022918191
 20
-11.14541667253742
 30
0.0
 10
45.96515456491476
 20
-11.00730607372771
 30
0.0
 10
46.00000000000281
 20
-10.92010848121981
 30
0.0
 10
46.0
 20
-10.82820391385388
 30
0.0
  0
SPLINE
  5
29E
330
1F
100
AcDbEntity
  8
SK3
  6
SLD-Dashed
370
    18
100
AcDbSpline
210
0.0
220
0.0
230
1.0
 70
     8
 71
     3
 72
    18
 73
    14
 74
     0
 42
0.000000001
 43
0.00000001
 40
0.0
 40
0.0
 40
0.0
 40
0.0
 40
0.1250000000000003
 40
0.1250000000000003
 40
0.1875000000000003
 40
0.1875000000000003
 40
0.2500000000000003
 40
0.2500000000000003
 40
0.3750000000000001
 40
0.3750000000000001
 40
0.4374999999999999
 40
0.4374999999999999
 40
0.4999999999999998
 40
0.4999999999999998
 40
0.4999999999999998
 40
0.4999999999999998
 10
45.75000000000897
 20
-11.23053872262436
 30
0.0
 10
45.32923502214717
 20
-11.4272359771642
 30
0.0
 10
44.95281249208535
 20
-11.62117098719849
 30
0.0
 10
44.4504627149286
 20
-11.89281708587919
 30
0.0
 10
44.29352050256323
 20
-11.98018885127415
 30
0.0
 10
44.00147321028378
 20
-12.14608722548044
 30
0.0
 10
43.86729833489208
 20
-12.22409868515113
 30
0.0
 10
43.5081622229737
 20
-12.43594611439854
 30
0.0
 10
43.32261963650005
 20
-12.54968498514625
 30
0.0
 10
43.131090369608
 20
-12.66805903705949
 30
0.0
 10
43.08190832669993
 20
-12.6987413826397
 30
0.0
 10
43.01693291955591
 20
-12.73935700760593
 30
0.0
 10
43.00053000578453
 20
-12.7496674476647
 30
0.0
 10
43.00001260076161
 20
-12.74999209364356
 30
0.0
  0
SPLINE
  5
29F
330
1F
100
AcDbEntity
  8
SK3
  6
SLD-Dashed
370
    18
100
AcDbSpline
210
0.0
220
0.0
230
1.0
 70
     8
 71
     3
 72
    40
 73
    36
 74
     0
 42
0.000000001
 43
0.00000001
 40
0.0
 40
0.0
 40
0.0
 40
0.0
 40
0.0625000000000002
 40
0.0625000000000002
 40
0.0937500000000001
 40
0.0937500000000001
 40
0.1249999999999999
 40
0.1249999999999999
 40
0.1406249999999998
 40
0.1406249999999998
 40
0.1562499999999998
 40
0.1562499999999998
 40
0.1874999999999996
 40
0.1874999999999996
 40
0.2031249999999995
 40
0.2031249999999995
 40
0.2187499999999994
 40
0.2187499999999994
 40
0.2499999999999992
 40
0.2499999999999992
 40
0.3124999999999992
 40
0.3124999999999992
 40
0.3437499999999993
 40
0.3437499999999993
 40
0.3749999999999993
 40
0.3749999999999993
 40
0.4062499999999994
 40
0.4062499999999994
 40
0.4374999999999994
 40
0.4374999999999994
 40
0.4531249999999994
 40
0.4531249999999994
 40
0.4687499999999994
 40
0.4687499999999994
 40
0.4999999999999994
 40
0.4999999999999994
 40
0.4999999999999994
 40
0.4999999999999994
 10
46.0
 20
-10.82820391385385
 30
0.0
 10
46.57087155274214
 20
-10.56459992316258
 30
0.0
 10
47.19310524627182
 20
-10.31106171770252
 30
0.0
 10
48.22068303800299
 20
-9.993422301460136
 30
0.0
 10
48.57913936255637
 20
-9.898665956387852
 30
0.0
 10
49.30797270411615
 20
-9.74607499767182
 30
0.0
 10
49.68109371111728
 20
-9.687325475490633
 30
0.0
 10
50.25545516447272
 20
-9.631616545493236
 30
0.0
 10
50.45016906718286
 20
-9.61847404368883
 30
0.0
 10
50.83654978237092
 20
-9.604136861169572
 30
0.0
 10
51.02903907492507
 20
-9.60281594536364
 30
0.0
 10
51.60444992034269
 20
-9.616042998907282
 30
0.0
 10
51.98531841941463
 20
-9.647830768591312
 30
0.0
 10
52.55262727601408
 20
-9.727568966404585
 30
0.0
 10
52.74135212162898
 20
-9.759587460322912
 30
0.0
 10
53.11055157390487
 20
-9.832175147458607
 30
0.0
 10
53.29192972644313
 20
-9.87284626885958
 30
0.0
 10
53.82709929925585
 20
-10.00615294497229
 30
0.0
 10
54.17197636837808
 20
-10.11003934610003
 30
0.0
 10
55.17448622902572
 20
-10.45381180569529
 30
0.0
 10
55.77561461856016
 20
-10.71584431494546
 30
0.0
 10
56.59292343478511
 20
-11.11188546767173
 30
0.0
 10
56.84825488310766
 20
-11.24333088027378
 30
0.0
 10
57.3193497980371
 20
-11.4954158678787
 30
0.0
 10
57.53633380109585
 20
-11.61668282533071
 30
0.0
 10
57.93276511819695
 20
-11.84427678201899
 30
0.0
 10
58.11347201146419
 20
-11.95139685413091
 30
0.0
 10
58.42673691528519
 20
-12.14046226121172
 30
0.0
 10
58.559327476916
 20
-12.22236900272537
 30
0.0
 10
58.72137090093285
 20
-12.32346487898811
 30
0.0
 10
58.76921962608472
 20
-12.35353144895632
 30
0.0
 10
58.85212594874945
 20
-12.40583925323219
 30
0.0
 10
58.8873006312515
 20
-12.42815526612784
 30
0.0
 10
58.97139310153921
 20
-12.48163596105221
 30
0.0
 10
58.99941858301786
 20
-12.49962789337416
 30
0.0
 10
58.99999109291903
 20
-12.49999429947005
 30
0.0
  0
SPLINE
  5
2A0
330
1F
100
AcDbEntity
  8
SK3
  6
SLD-Dashed
370
    18
100
AcDbSpline
210
0.0
220
0.0
230
1.0
 70
     8
 71
     2
 72
     6
 73
     3
 74
     0
 42
0.000000001
 43
0.00000001
 40
0.0
 40
0.0
 40
0.0
 40
0.0312500000000004
 40
0.0312500000000004
 40
0.0312500000000004
 10
83.99999999999996
 20
-12.49999999999999
 30
0.0
 10
83.94487200499424
 20
-12.46451582282261
 30
0.0
 10
83.83815072026074
 20
-12.3970402400542
 30
0.0
  0
SPLINE
  5
2A1
330
1F
100
AcDbEntity
  8
SK3
  6
SLD-Dashed
370
    18
100
AcDbSpline
210
0.0
220
0.0
230
1.0
 70
     8
 71
     3
 72
     8
 73
     4
 74
     0
 42
0.000000001
 43
0.00000001
 40
0.0312500000000004
 40
0.0312500000000004
 40
0.0312500000000004
 40
0.0312500000000004
 40
0.0625000000000007
 40
0.0625000000000007
 40
0.0625000000000007
 40
0.0625000000000007
 10
83.83815072026074
 20
-12.3970402400542
 30
0.0
 10
83.73142943552719
 20
-12.32956465728578
 30
0.0
 10
83.57026718731228
 20
-12.22835303711901
 30
0.0
 10
83.36578952359986
 20
-12.10391900608944
 30
0.0
  0
SPLINE
  5
2A2
330
1F
100
AcDbEntity
  8
SK3
  6
SLD-Dashed
370
    18
100
AcDbSpline
210
0.0
220
0.0
230
1.0
 70
     8
 71
     3
 72
     8
 73
     4
 74
     0
 42
0.000000001
 43
0.00000001
 40
0.0625000000000007
 40
0.0625000000000007
 40
0.0625000000000007
 40
0.0625000000000007
 40
0.0937500000000011
 40
0.0937500000000011
 40
0.0937500000000011
 40
0.0937500000000011
 10
83.36578952359986
 20
-12.10391900608944
 30
0.0
 10
83.16131185988735
 20
-11.97948497505983
 30
0.0
 10
82.91324416489529
 20
-11.83155161903472
 30
0.0
 10
82.62240608595278
 20
-11.66645886150824
 30
0.0
  0
SPLINE
  5
2A3
330
1F
100
AcDbEntity
  8
SK3
  6
SLD-Dashed
370
    18
100
AcDbSpline
210
0.0
220
0.0
230
1.0
 70
     8
 71
     3
 72
     8
 73
     4
 74
     0
 42
0.000000001
 43
0.00000001
 40
0.0937500000000011
 40
0.0937500000000011
 40
0.0937500000000011
 40
0.0937500000000011
 40
0.1250000000000014
 40
0.1250000000000014
 40
0.1250000000000014
 40
0.1250000000000014
 10
82.62240608595278
 20
-11.66645886150824
 30
0.0
 10
82.3315680070103
 20
-11.50136610398176
 30
0.0
 10
82.0063600833385
 20
-11.32389709808394
 30
0.0
 10
81.64746165504289
 20
-11.1419847040453
 30
0.0
  0
SPLINE
  5
2A4
330
1F
100
AcDbEntity
  8
SK3
  6
SLD-Dashed
370
    18
100
AcDbSpline
210
0.0
220
0.0
230
1.0
 70
     8
 71
     3
 72
     8
 73
     4
 74
     0
 42
0.000000001
 43
0.00000001
 40
0.1250000000000014
 40
0.1250000000000014
 40
0.1250000000000014
 40
0.1250000000000014
 40
0.1406250000000013
 40
0.1406250000000013
 40
0.1406250000000013
 40
0.1406250000000013
 10
81.64746165504289
 20
-11.1419847040453
 30
0.0
 10
81.46801244089508
 20
-11.051028507026
 30
0.0
 10
81.28005528985233
 20
-10.95895483162436
 30
0.0
 10
81.08313506022996
 20
-10.86684232150899
 30
0.0
  0
SPLINE
  5
2A5
330
1F
100
AcDbEntity
  8
SK3
  6
SLD-Dashed
370
    18
100
AcDbSpline
210
0.0
220
0.0
230
1.0
 70
     8
 71
     3
 72
     8
 73
     4
 74
     0
 42
0.000000001
 43
0.00000001
 40
0.1406250000000013
 40
0.1406250000000013
 40
0.1406250000000013
 40
0.1406250000000013
 40
0.1562500000000012
 40
0.1562500000000012
 40
0.1562500000000012
 40
0.1562500000000012
 10
81.08313506022996
 20
-10.86684232150899
 30
0.0
 10
80.88621483060754
 20
-10.77472981139361
 30
0.0
 10
80.68092445039093
 20
-10.68290858386389
 30
0.0
 10
80.47014491924185
 20
-10.59396977525532
 30
0.0
  0
SPLINE
  5
2A6
330
1F
100
AcDbEntity
  8
SK3
  6
SLD-Dashed
370
    18
100
AcDbSpline
210
0.0
220
0.0
230
1.0
 70
     8
 71
     3
 72
     8
 73
     4
 74
     0
 42
0.000000001
 43
0.00000001
 40
0.1562500000000012
 40
0.1562500000000012
 40
0.1562500000000012
 40
0.1562500000000012
 40
0.1875000000000003
 40
0.1875000000000003
 40
0.1875000000000003
 40
0.1875000000000003
 10
80.47014491924185
 20
-10.59396977525532
 30
0.0
 10
80.04858585694366
 20
-10.41609215803822
 30
0.0
 10
79.60196720249002
 20
-10.24789395910732
 30
0.0
 10
79.12600996016172
 20
-10.100590986226
 30
0.0
  0
SPLINE
  5
2A7
330
1F
100
AcDbEntity
  8
SK3
  6
SLD-Dashed
370
    18
100
AcDbSpline
210
0.0
220
0.0
230
1.0
 70
     8
 71
     3
 72
     8
 73
     4
 74
     0
 42
0.000000001
 43
0.00000001
 40
0.1875000000000003
 40
0.1875000000000003
 40
0.1875000000000003
 40
0.1875000000000003
 40
0.2187499999999995
 40
0.2187499999999995
 40
0.2187499999999995
 40
0.2187499999999995
 10
79.12600996016172
 20
-10.100590986226
 30
0.0
 10
78.65005271783343
 20
-9.953288013344684
 30
0.0
 10
78.13919124436869
 20
-9.826632768344785
 30
0.0
 10
77.61870128339821
 20
-9.740133153344196
 30
0.0
  0
SPLINE
  5
2A8
330
1F
100
AcDbEntity
  8
SK3
  6
SLD-Dashed
370
    18
100
AcDbSpline
210
0.0
220
0.0
230
1.0
 70
     8
 71
     3
 72
     8
 73
     4
 74
     0
 42
0.000000001
 43
0.00000001
 40
0.2187499999999995
 40
0.2187499999999995
 40
0.2187499999999995
 40
0.2187499999999995
 40
0.2343749999999994
 40
0.2343749999999994
 40
0.2343749999999994
 40
0.2343749999999994
 10
77.61870128339821
 20
-9.740133153344196
 30
0.0
 10
77.35845630291294
 20
-9.69688334584391
 30
0.0
 10
77.09462543108545
 20
-9.663181981160001
 30
0.0
 10
76.82695764305674
 20
-9.640220897023575
 30
0.0
  0
SPLINE
  5
2A9
330
1F
100
AcDbEntity
  8
SK3
  6
SLD-Dashed
370
    18
100
AcDbSpline
210
0.0
220
0.0
230
1.0
 70
     8
 71
     3
 72
     8
 73
     4
 74
     0
 42
0.000000001
 43
0.00000001
 40
0.2343749999999994
 40
0.2343749999999994
 40
0.2343749999999994
 40
0.2343749999999994
 40
0.2499999999999994
 40
0.2499999999999994
 40
0.2499999999999994
 40
0.2499999999999994
 10
76.82695764305674
 20
-9.640220897023575
 30
0.0
 10
76.55928985502808
 20
-9.617259812887136
 30
0.0
 10
76.28567438055997
 20
-9.60511165466469
 30
0.0
 10
76.01467599569398
 20
-9.60469756863012
 30
0.0
  0
SPLINE
  5
2AA
330
1F
100
AcDbEntity
  8
SK3
  6
SLD-Dashed
370
    18
100
AcDbSpline
210
0.0
220
0.0
230
1.0
 70
     8
 71
     3
 72
     8
 73
     4
 74
     0
 42
0.000000001
 43
0.00000001
 40
0.2499999999999994
 40
0.2499999999999994
 40
0.2499999999999994
 40
0.2499999999999994
 40
0.2812499999999984
 40
0.2812499999999984
 40
0.2812499999999984
 40
0.2812499999999984
 10
76.01467599569398
 20
-9.60469756863012
 30
0.0
 10
75.47267922596201
 20
-9.603869396561004
 30
0.0
 10
74.93963870365258
 20
-9.649161036654908
 30
0.0
 10
74.4148927596943
 20
-9.734606564379966
 30
0.0
  0
SPLINE
  5
2AB
330
1F
100
AcDbEntity
  8
SK3
  6
SLD-Dashed
370
    18
100
AcDbSpline
210
0.0
220
0.0
230
1.0
 70
     8
 71
     3
 72
     8
 73
     4
 74
     0
 42
0.000000001
 43
0.00000001
 40
0.2812499999999984
 40
0.2812499999999984
 40
0.2812499999999984
 40
0.2812499999999984
 40
0.2968749999999984
 40
0.2968749999999984
 40
0.2968749999999984
 40
0.2968749999999984
 10
74.4148927596943
 20
-9.734606564379966
 30
0.0
 10
74.15251978771512
 20
-9.777329328242493
 30
0.0
 10
73.8923193240964
 20
-9.830179756899645
 30
0.0
 10
73.64033072804766
 20
-9.890300251913297
 30
0.0
  0
SPLINE
  5
2AC
330
1F
100
AcDbEntity
  8
SK3
  6
SLD-Dashed
370
    18
100
AcDbSpline
210
0.0
220
0.0
230
1.0
 70
     8
 71
     3
 72
     8
 73
     4
 74
     0
 42
0.000000001
 43
0.00000001
 40
0.2968749999999984
 40
0.2968749999999984
 40
0.2968749999999984
 40
0.2968749999999984
 40
0.3124999999999984
 40
0.3124999999999984
 40
0.3124999999999984
 40
0.3124999999999984
 10
73.64033072804766
 20
-9.890300251913297
 30
0.0
 10
73.38834213199888
 20
-9.950420746926932
 30
0.0
 10
73.14283900957247
 20
-10.01805174516005
 30
0.0
 10
72.90322524215748
 20
-10.09158133796732
 30
0.0
  0
SPLINE
  5
2AD
330
1F
100
AcDbEntity
  8
SK3
  6
SLD-Dashed
370
    18
100
AcDbSpline
210
0.0
220
0.0
230
1.0
 70
     8
 71
     3
 72
     8
 73
     4
 74
     0
 42
0.000000001
 43
0.00000001
 40
0.3124999999999984
 40
0.3124999999999984
 40
0.3124999999999984
 40
0.3124999999999984
 40
0.3437499999999989
 40
0.3437499999999989
 40
0.3437499999999989
 40
0.3437499999999989
 10
72.90322524215748
 20
-10.09158133796732
 30
0.0
 10
72.42399770732749
 20
-10.23864052358189
 30
0.0
 10
71.96601554500567
 20
-10.41036980560688
 30
0.0
 10
71.54300810114641
 20
-10.58842654913589
 30
0.0
  0
SPLINE
  5
2AE
330
1F
100
AcDbEntity
  8
SK3
  6
SLD-Dashed
370
    18
100
AcDbSpline
210
0.0
220
0.0
230
1.0
 70
     8
 71
     3
 72
     8
 73
     4
 74
     0
 42
0.000000001
 43
0.00000001
 40
0.3437499999999989
 40
0.3437499999999989
 40
0.3437499999999989
 40
0.3437499999999989
 40
0.3749999999999995
 40
0.3749999999999995
 40
0.3749999999999995
 40
0.3749999999999995
 10
71.54300810114641
 20
-10.58842654913589
 30
0.0
 10
71.1200006572872
 20
-10.76648329266491
 30
0.0
 10
70.72788291798379
 20
-10.95203295804859
 30
0.0
 10
70.36456969706484
 20
-11.13589128445674
 30
0.0
  0
SPLINE
  5
2AF
330
1F
100
AcDbEntity
  8
SK3
  6
SLD-Dashed
370
    18
100
AcDbSpline
210
0.0
220
0.0
230
1.0
 70
     8
 71
     3
 72
     8
 73
     4
 74
     0
 42
0.000000001
 43
0.00000001
 40
0.3749999999999995
 40
0.3749999999999995
 40
0.3749999999999995
 40
0.3749999999999995
 40
0.4062500000000001
 40
0.4062500000000001
 40
0.4062500000000001
 40
0.4062500000000001
 10
70.36456969706484
 20
-11.13589128445674
 30
0.0
 10
70.00125647614594
 20
-11.3197496108649
 30
0.0
 10
69.67558568556026
 20
-11.49748247883515
 30
0.0
 10
69.38799947349713
 20
-11.66055534537157
 30
0.0
  0
SPLINE
  5
2B0
330
1F
100
AcDbEntity
  8
SK3
  6
SLD-Dashed
370
    18
100
AcDbSpline
210
0.0
220
0.0
230
1.0
 70
     8
 71
     3
 72
     8
 73
     4
 74
     0
 42
0.000000001
 43
0.00000001
 40
0.4062500000000001
 40
0.4062500000000001
 40
0.4062500000000001
 40
0.4062500000000001
 40
0.4218750000000002
 40
0.4218750000000002
 40
0.4218750000000002
 40
0.4218750000000002
 10
69.38799947349713
 20
-11.66055534537157
 30
0.0
 10
69.2442063674656
 20
-11.7420917786398
 30
0.0
 10
69.10982862145599
 20
-11.82008156068955
 30
0.0
 10
68.98517339030302
 20
-11.89360300178679
 30
0.0
  0
SPLINE
  5
2B1
330
1F
100
AcDbEntity
  8
SK3
  6
SLD-Dashed
370
    18
100
AcDbSpline
210
0.0
220
0.0
230
1.0
 70
     8
 71
     3
 72
     8
 73
     4
 74
     0
 42
0.000000001
 43
0.00000001
 40
0.4218750000000002
 40
0.4218750000000002
 40
0.4218750000000002
 40
0.4218750000000002
 40
0.4375000000000002
 40
0.4375000000000002
 40
0.4375000000000002
 40
0.4375000000000002
 10
68.98517339030302
 20
-11.89360300178679
 30
0.0
 10
68.86051815915012
 20
-11.96712444288403
 30
0.0
 10
68.74504265165898
 20
-12.03651231325846
 30
0.0
 10
68.64133261686412
 20
-12.09958617704044
 30
0.0
  0
SPLINE
  5
2B2
330
1F
100
AcDbEntity
  8
SK3
  6
SLD-Dashed
370
    18
100
AcDbSpline
210
0.0
220
0.0
230
1.0
 70
     8
 71
     3
 72
     8
 73
     4
 74
     0
 42
0.000000001
 43
0.00000001
 40
0.4375000000000002
 40
0.4375000000000002
 40
0.4375000000000002
 40
0.4375000000000002
 40
0.4687500000000001
 40
0.4687500000000001
 40
0.4687500000000001
 40
0.4687500000000001
 10
68.64133261686412
 20
-12.09958617704044
 30
0.0
 10
68.43391254727432
 20
-12.2257339046044
 30
0.0
 10
68.2750307651355
 20
-12.32550451053688
 30
0.0
 10
68.16638731927257
 20
-12.39417151856684
 30
0.0
  0
SPLINE
  5
2B3
330
1F
100
AcDbEntity
  8
SK3
  6
SLD-Dashed
370
    18
100
AcDbSpline
210
0.0
220
0.0
230
1.0
 70
     8
 71
     3
 72
     8
 73
     4
 74
     0
 42
0.000000001
 43
0.00000001
 40
0.4687500000000001
 40
0.4687500000000001
 40
0.4687500000000001
 40
0.4687500000000001
 40
0.4843749999999999
 40
0.4843749999999999
 40
0.4843749999999999
 40
0.4843749999999999
 10
68.16638731927257
 20
-12.39417151856684
 30
0.0
 10
68.11206559634105
 20
-12.42850502258182
 30
0.0
 10
68.07025106871689
 20
-12.45513779513606
 30
0.0
 10
68.04237990659115
 20
-12.47291936761494
 30
0.0
  0
SPLINE
  5
2B4
330
1F
100
AcDbEntity
  8
SK3
  6
SLD-Dashed
370
    18
100
AcDbSpline
210
0.0
220
0.0
230
1.0
 70
     8
 71
     3
 72
     8
 73
     4
 74
     0
 42
0.000000001
 43
0.00000001
 40
0.4843749999999999
 40
0.4843749999999999
 40
0.4843749999999999
 40
0.4843749999999999
 40
0.4999999999999998
 40
0.4999999999999998
 40
0.4999999999999998
 40
0.4999999999999998
 10
68.04237990659115
 20
-12.47291936761494
 30
0.0
 10
68.0145087444654
 20
-12.49070094009381
 30
0.0
 10
68.00050447836195
 20
-12.49967713416232
 30
0.0
 10
68.00001335262587
 20
-12.49999145432367
 30
0.0
  0
SPLINE
  5
2B5
330
1F
100
AcDbEntity
  8
SK3
  6
SLD-Dashed
370
    18
100
AcDbSpline
210
0.0
220
0.0
230
1.0
 70
     8
 71
     3
 72
     8
 73
     4
 74
     0
 42
0.000000001
 43
0.00000001
 40
0.5156249999999997
 40
0.5156249999999997
 40
0.5156249999999997
 40
0.5156249999999997
 40
0.5312499999999994
 40
0.5312499999999994
 40
0.5312499999999994
 40
0.5312499999999994
 10
68.03914951911142
 20
-12.47498057630005
 30
0.0
 10
68.06575341653051
 20
-12.45800342364904
 30
0.0
 10
68.10631694514451
 20
-12.43215608124547
 30
0.0
 10
68.15996644807295
 20
-12.39823076472369
 30
0.0
  0
SPLINE
  5
2B6
330
1F
100
AcDbEntity
  8
SK3
  6
SLD-Dashed
370
    18
100
AcDbSpline
210
0.0
220
0.0
230
1.0
 70
     8
 71
     3
 72
     8
 73
     4
 74
     0
 42
0.000000001
 43
0.00000001
 40
0.5312499999999994
 40
0.5312499999999994
 40
0.5312499999999994
 40
0.5312499999999994
 40
0.5624999999999992
 40
0.5624999999999992
 40
0.5624999999999992
 40
0.5624999999999992
 10
68.15996644807295
 20
-12.39823076472369
 30
0.0
 10
68.26726545392991
 20
-12.33038013168011
 30
0.0
 10
68.42497690575155
 20
-12.23129359795033
 30
0.0
 10
68.6299043926993
 20
-12.10653993760206
 30
0.0
  0
SPLINE
  5
2B7
330
1F
100
AcDbEntity
  8
SK3
  6
SLD-Dashed
370
    18
100
AcDbSpline
210
0.0
220
0.0
230
1.0
 70
     8
 71
     3
 72
     8
 73
     4
 74
     0
 42
0.000000001
 43
0.00000001
 40
0.5624999999999992
 40
0.5624999999999992
 40
0.5624999999999992
 40
0.5624999999999992
 40
0.5781249999999993
 40
0.5781249999999993
 40
0.5781249999999993
 40
0.5781249999999993
 10
68.6299043926993
 20
-12.10653993760206
 30
0.0
 10
68.73236813617315
 20
-12.04416310742791
 30
0.0
 10
68.84738542848834
 20
-11.97496452245611
 30
0.0
 10
68.9720379918913
 20
-11.90135496434834
 30
0.0
  0
SPLINE
  5
2B8
330
1F
100
AcDbEntity
  8
SK3
  6
SLD-Dashed
370
    18
100
AcDbSpline
210
0.0
220
0.0
230
1.0
 70
     8
 71
     3
 72
     8
 73
     4
 74
     0
 42
0.000000001
 43
0.00000001
 40
0.5781249999999993
 40
0.5781249999999993
 40
0.5781249999999993
 40
0.5781249999999993
 40
0.5937499999999994
 40
0.5937499999999994
 40
0.5937499999999994
 40
0.5937499999999994
 10
68.9720379918913
 20
-11.90135496434834
 30
0.0
 10
69.0966905552943
 20
-11.82774540624056
 30
0.0
 10
69.23120345895737
 20
-11.74957637285042
 30
0.0
 10
69.3752569353161
 20
-11.66778559423667
 30
0.0
  0
SPLINE
  5
2B9
330
1F
100
AcDbEntity
  8
SK3
  6
SLD-Dashed
370
    18
100
AcDbSpline
210
0.0
220
0.0
230
1.0
 70
     8
 71
     3
 72
     8
 73
     4
 74
     0
 42
0.000000001
 43
0.00000001
 40
0.5937499999999994
 40
0.5937499999999994
 40
0.5937499999999994
 40
0.5937499999999994
 40
0.6093749999999994
 40
0.6093749999999994
 40
0.6093749999999994
 40
0.6093749999999994
 10
69.3752569353161
 20
-11.66778559423667
 30
0.0
 10
69.51931041167481
 20
-11.58599481562292
 30
0.0
 10
69.67290573709734
 20
-11.50057642764536
 30
0.0
 10
69.8361011251675
 20
-11.41243397961894
 30
0.0
  0
SPLINE
  5
2BA
330
1F
100
AcDbEntity
  8
SK3
  6
SLD-Dashed
370
    18
100
AcDbSpline
210
0.0
220
0.0
230
1.0
 70
     8
 71
     3
 72
     8
 73
     4
 74
     0
 42
0.000000001
 43
0.00000001
 40
0.6093749999999994
 40
0.6093749999999994
 40
0.6093749999999994
 40
0.6093749999999994
 40
0.6249999999999996
 40
0.6249999999999996
 40
0.6249999999999996
 40
0.6249999999999996
 10
69.8361011251675
 20
-11.41243397961894
 30
0.0
 10
69.9992965132377
 20
-11.32429153159253
 30
0.0
 10
70.17289671820839
 20
-11.23302608753969
 30
0.0
 10
70.3535653508118
 20
-11.14146418777859
 30
0.0
  0
SPLINE
  5
2BB
330
1F
100
AcDbEntity
  8
SK3
  6
SLD-Dashed
370
    18
100
AcDbSpline
210
0.0
220
0.0
230
1.0
 70
     8
 71
     3
 72
     8
 73
     4
 74
     0
 42
0.000000001
 43
0.00000001
 40
0.6249999999999996
 40
0.6249999999999996
 40
0.6249999999999996
 40
0.6249999999999996
 40
0.6562499999999996
 40
0.6562499999999996
 40
0.6562499999999996
 40
0.6562499999999996
 10
70.3535653508118
 20
-11.14146418777859
 30
0.0
 10
70.71490261601862
 20
-10.9583403882564
 30
0.0
 10
71.10537888063672
 20
-10.77316290981264
 30
0.0
 10
71.52727729818872
 20
-10.59505773307996
 30
0.0
  0
SPLINE
  5
2BC
330
1F
100
AcDbEntity
  8
SK3
  6
SLD-Dashed
370
    18
100
AcDbSpline
210
0.0
220
0.0
230
1.0
 70
     8
 71
     3
 72
     8
 73
     4
 74
     0
 42
0.000000001
 43
0.00000001
 40
0.6562499999999996
 40
0.6562499999999996
 40
0.6562499999999996
 40
0.6562499999999996
 40
0.6874999999999996
 40
0.6874999999999996
 40
0.6874999999999996
 40
0.6874999999999996
 10
71.52727729818872
 20
-10.59505773307996
 30
0.0
 10
71.94917571574075
 20
-10.41695255634728
 30
0.0
 10
72.4072271631503
 20
-10.24457193990269
 30
0.0
 10
72.88525124048057
 20
-10.09711145996358
 30
0.0
  0
SPLINE
  5
2BD
330
1F
100
AcDbEntity
  8
SK3
  6
SLD-Dashed
370
    18
100
AcDbSpline
210
0.0
220
0.0
230
1.0
 70
     8
 71
     3
 72
     8
 73
     4
 74
     0
 42
0.000000001
 43
0.00000001
 40
0.6874999999999996
 40
0.6874999999999996
 40
0.6874999999999996
 40
0.6874999999999996
 40
0.7187499999999996
 40
0.7187499999999996
 40
0.7187499999999996
 40
0.7187499999999996
 10
72.88525124048059
 20
-10.09711145996358
 30
0.0
 10
73.36327531781083
 20
-9.949650980024481
 30
0.0
 10
73.86346537876513
 20
-9.825688083798337
 30
0.0
 10
74.3909399618855
 20
-9.738535526775099
 30
0.0
  0
SPLINE
  5
2BE
330
1F
100
AcDbEntity
  8
SK3
  6
SLD-Dashed
370
    18
100
AcDbSpline
210
0.0
220
0.0
230
1.0
 70
     8
 71
     3
 72
     8
 73
     4
 74
     0
 42
0.000000001
 43
0.00000001
 40
0.7187499999999996
 40
0.7187499999999996
 40
0.7187499999999996
 40
0.7187499999999996
 40
0.7499999999999996
 40
0.7499999999999996
 40
0.7499999999999996
 40
0.7499999999999996
 10
74.39093996188548
 20
-9.738535526775106
 30
0.0
 10
74.91841454500577
 20
-9.651382969751872
 30
0.0
 10
75.45315387978532
 20
-9.605258676434117
 30
0.0
 10
75.98985375813972
 20
-9.604691715314125
 30
0.0
  0
SPLINE
  5
2BF
330
1F
100
AcDbEntity
  8
SK3
  6
SLD-Dashed
370
    18
100
AcDbSpline
210
0.0
220
0.0
230
1.0
 70
     8
 71
     3
 72
     8
 73
     4
 74
     0
 42
0.000000001
 43
0.00000001
 40
0.7499999999999996
 40
0.7499999999999996
 40
0.7499999999999996
 40
0.7499999999999996
 40
0.7656249999999997
 40
0.7656249999999997
 40
0.7656249999999997
 40
0.7656249999999997
 10
75.98985375813972
 20
-9.604691715314125
 30
0.0
 10
76.2582036973169
 20
-9.604408234754125
 30
0.0
 10
76.52748556158195
 20
-9.61538936593535
 30
0.0
 10
76.79772374834731
 20
-9.637757165371887
 30
0.0
  0
SPLINE
  5
2C0
330
1F
100
AcDbEntity
  8
SK3
  6
SLD-Dashed
370
    18
100
AcDbSpline
210
0.0
220
0.0
230
1.0
 70
     8
 71
     3
 72
     8
 73
     4
 74
     0
 42
0.000000001
 43
0.00000001
 40
0.7656249999999997
 40
0.7656249999999997
 40
0.7656249999999997
 40
0.7656249999999997
 40
0.7812499999999998
 40
0.7812499999999998
 40
0.7812499999999998
 40
0.7812499999999998
 10
76.79772374834731
 20
-9.637757165371887
 30
0.0
 10
77.0679619351127
 20
-9.660124964808409
 30
0.0
 10
77.33561431285271
 20
-9.693675726676394
 30
0.0
 10
77.59706336530617
 20
-9.736560552515591
 30
0.0
  0
SPLINE
  5
2C1
330
1F
100
AcDbEntity
  8
SK3
  6
SLD-Dashed
370
    18
100
AcDbSpline
210
0.0
220
0.0
230
1.0
 70
     8
 71
     3
 72
     8
 73
     4
 74
     0
 42
0.000000001
 43
0.00000001
 40
0.7812499999999998
 40
0.7812499999999998
 40
0.7812499999999998
 40
0.7812499999999998
 40
0.7968749999999998
 40
0.7968749999999998
 40
0.7968749999999998
 40
0.7968749999999998
 10
77.59706336530617
 20
-9.736560552515591
 30
0.0
 10
77.8585124177596
 20
-9.779445378354787
 30
0.0
 10
78.1150381566821
 20
-9.831761310701474
 30
0.0
 10
78.36701285536238
 20
-9.89205488548513
 30
0.0
  0
SPLINE
  5
2C2
330
1F
100
AcDbEntity
  8
SK3
  6
SLD-Dashed
370
    18
100
AcDbSpline
210
0.0
220
0.0
230
1.0
 70
     8
 71
     3
 72
     8
 73
     4
 74
     0
 42
0.000000001
 43
0.00000001
 40
0.7968749999999998
 40
0.7968749999999998
 40
0.7968749999999998
 40
0.7968749999999998
 40
0.8124999999999999
 40
0.8124999999999999
 40
0.8124999999999999
 40
0.8124999999999999
 10
78.36701285536238
 20
-9.89205488548513
 30
0.0
 10
78.61898755404259
 20
-9.952348460268801
 30
0.0
 10
78.8677290837372
 20
-10.02104694947689
 30
0.0
 10
79.10853220621458
 20
-10.09519551455409
 30
0.0
  0
SPLINE
  5
2C3
330
1F
100
AcDbEntity
  8
SK3
  6
SLD-Dashed
370
    18
100
AcDbSpline
210
0.0
220
0.0
230
1.0
 70
     8
 71
     3
 72
     8
 73
     4
 74
     0
 42
0.000000001
 43
0.00000001
 40
0.8124999999999999
 40
0.8124999999999999
 40
0.8124999999999999
 40
0.8124999999999999
 40
0.8437499999999999
 40
0.8437499999999999
 40
0.8437499999999999
 40
0.8437499999999999
 10
79.10853220621458
 20
-10.09519551455409
 30
0.0
 10
79.59013845116932
 20
-10.24349264470849
 30
0.0
 10
80.03917695217211
 20
-10.41241812783789
 30
0.0
 10
80.46120231829248
 20
-10.59019953186615
 30
0.0
  0
SPLINE
  5
2C4
330
1F
100
AcDbEntity
  8
SK3
  6
SLD-Dashed
370
    18
100
AcDbSpline
210
0.0
220
0.0
230
1.0
 70
     8
 71
     3
 72
     8
 73
     4
 74
     0
 42
0.000000001
 43
0.00000001
 40
0.8437499999999999
 40
0.8437499999999999
 40
0.8437499999999999
 40
0.8437499999999999
 40
0.8593749999999997
 40
0.8593749999999997
 40
0.8593749999999997
 40
0.8593749999999997
 10
80.46120231829248
 20
-10.59019953186615
 30
0.0
 10
80.67221500135265
 20
-10.67909023388027
 30
0.0
 10
80.87638377513953
 20
-10.7702650390794
 30
0.0
 10
81.07392930809068
 20
-10.86253923461273
 30
0.0
  0
SPLINE
  5
2C5
330
1F
100
AcDbEntity
  8
SK3
  6
SLD-Dashed
370
    18
100
AcDbSpline
210
0.0
220
0.0
230
1.0
 70
     8
 71
     3
 72
     8
 73
     4
 74
     0
 42
0.000000001
 43
0.00000001
 40
0.8593749999999997
 40
0.8593749999999997
 40
0.8593749999999997
 40
0.8593749999999997
 40
0.8749999999999993
 40
0.8749999999999993
 40
0.8749999999999993
 40
0.8749999999999993
 10
81.07392930809068
 20
-10.86253923461273
 30
0.0
 10
81.27147484104181
 20
-10.95481343014607
 30
0.0
 10
81.46155968444505
 20
-11.04782737942589
 30
0.0
 10
81.6417680513808
 20
-11.13909990733458
 30
0.0
  0
SPLINE
  5
2C6
330
1F
100
AcDbEntity
  8
SK3
  6
SLD-Dashed
370
    18
100
AcDbSpline
210
0.0
220
0.0
230
1.0
 70
     8
 71
     3
 72
     8
 73
     4
 74
     0
 42
0.000000001
 43
0.00000001
 40
0.8749999999999993
 40
0.8749999999999993
 40
0.8749999999999993
 40
0.8749999999999993
 40
0.9062499999999993
 40
0.9062499999999993
 40
0.9062499999999993
 40
0.9062499999999993
 10
81.6417680513808
 20
-11.13909990733458
 30
0.0
 10
82.00218478525237
 20
-11.32164496315193
 30
0.0
 10
82.32690709140749
 20
-11.49882548065043
 30
0.0
 10
82.61622078092884
 20
-11.66294891620445
 30
0.0
  0
SPLINE
  5
2C7
330
1F
100
AcDbEntity
  8
SK3
  6
SLD-Dashed
370
    18
100
AcDbSpline
210
0.0
220
0.0
230
1.0
 70
     8
 71
     3
 72
     8
 73
     4
 74
     0
 42
0.000000001
 43
0.00000001
 40
0.9062499999999993
 40
0.9062499999999993
 40
0.9062499999999993
 40
0.9062499999999993
 40
0.9218749999999996
 40
0.9218749999999996
 40
0.9218749999999996
 40
0.9218749999999996
 10
82.61622078092884
 20
-11.66294891620445
 30
0.0
 10
82.76087762568952
 20
-11.74501063398144
 30
0.0
 10
82.89728222362378
 20
-11.82422467749893
 30
0.0
 10
83.02247185795244
 20
-11.8981137578918
 30
0.0
  0
SPLINE
  5
2C8
330
1F
100
AcDbEntity
  8
SK3
  6
SLD-Dashed
370
    18
100
AcDbSpline
210
0.0
220
0.0
230
1.0
 70
     8
 71
     3
 72
     8
 73
     4
 74
     0
 42
0.000000001
 43
0.00000001
 40
0.9218749999999996
 40
0.9218749999999996
 40
0.9218749999999996
 40
0.9218749999999996
 40
0.9374999999999998
 40
0.9374999999999998
 40
0.9374999999999998
 40
0.9374999999999998
 10
83.02247185795244
 20
-11.8981137578918
 30
0.0
 10
83.14766149228109
 20
-11.97200283828466
 30
0.0
 10
83.26121702938164
 20
-12.04029551662563
 30
0.0
 10
83.3632468954324
 20
-12.10237186848487
 30
0.0
  0
SPLINE
  5
2C9
330
1F
100
AcDbEntity
  8
SK3
  6
SLD-Dashed
370
    18
100
AcDbSpline
210
0.0
220
0.0
230
1.0
 70
     8
 71
     3
 72
     8
 73
     4
 74
     0
 42
0.000000001
 43
0.00000001
 40
0.9374999999999998
 40
0.9374999999999998
 40
0.9374999999999998
 40
0.9374999999999998
 40
0.9687499999999999
 40
0.9687499999999999
 40
0.9687499999999999
 40
0.9687499999999999
 10
83.3632468954324
 20
-12.10237186848487
 30
0.0
 10
83.56730662753387
 20
-12.22652457220338
 30
0.0
 10
83.72568757797588
 20
-12.32595417263759
 30
0.0
 10
83.834443221644
 20
-12.39469647039264
 30
0.0
  0
SPLINE
  5
2CA
330
1F
100
AcDbEntity
  8
SK3
  6
SLD-Dashed
370
    18
100
AcDbSpline
210
0.0
220
0.0
230
1.0
 70
     8
 71
     3
 72
     8
 73
     4
 74
     0
 42
0.000000001
 43
0.00000001
 40
0.9687499999999999
 40
0.9687499999999999
 40
0.9687499999999999
 40
0.9687499999999999
 40
0.9843749999999999
 40
0.9843749999999999
 40
0.9843749999999999
 40
0.9843749999999999
 10
83.834443221644
 20
-12.39469647039264
 30
0.0
 10
83.88882104347806
 20
-12.42906761927018
 30
0.0
 10
83.9306236014053
 20
-12.45569491474524
 30
0.0
 10
83.9583221821385
 20
-12.47336730617348
 30
0.0
  0
SPLINE
  5
2CB
330
1F
100
AcDbEntity
  8
SK3
  6
SLD-Dashed
370
    18
100
AcDbSpline
210
0.0
220
0.0
230
1.0
 70
     8
 71
     2
 72
     6
 73
     3
 74
     0
 42
0.000000001
 43
0.00000001
 40
0.9843749999999999
 40
0.9843749999999999
 40
0.9843749999999999
 40
1.0
 40
1.0
 40
1.0
 10
83.9583221821385
 20
-12.47336730617348
 30
0.0
 10
83.9860207628717
 20
-12.49103969760172
 30
0.0
 10
83.99999999999996
 20
-12.49999999999999
 30
0.0
  0
SPLINE
  5
2CC
330
1F
100
AcDbEntity
  8
SK3
  6
SLD-Dashed
370
    18
100
AcDbSpline
210
0.0
220
0.0
230
1.0
 70
     8
 71
     3
 72
     8
 73
     4
 74
     0
 42
0.000000001
 43
0.00000001
 40
0.0
 40
0.0
 40
0.0
 40
0.0
 40
1.0
 40
1.0
 40
1.0
 40
1.0
 10
9.128576702935323
 20
23.28997611937698
 30
0.0
 10
9.110727234552378
 20
23.27357610829826
 30
0.0
 10
9.11071768412333
 20
23.21873966459207
 30
0.0
 10
9.128576702935923
 20
23.13083934744693
 30
0.0
  0
SPLINE
  5
2CD
330
1F
100
AcDbEntity
  8
SK3
  6
SLD-Dashed
370
    18
100
AcDbSpline
210
0.0
220
0.0
230
1.0
 70
     8
 71
     3
 72
    34
 73
    30
 74
     0
 42
0.000000001
 43
0.00000001
 40
0.4999999999999976
 40
0.4999999999999976
 40
0.4999999999999976
 40
0.4999999999999976
 40
0.562499999999998
 40
0.562499999999998
 40
0.5937499999999983
 40
0.5937499999999983
 40
0.6249999999999987
 40
0.6249999999999987
 40
0.656249999999999
 40
0.656249999999999
 40
0.6874999999999993
 40
0.6874999999999993
 40
0.7499999999999998
 40
0.7499999999999998
 40
0.7812499999999998
 40
0.7812499999999998
 40
0.8124999999999998
 40
0.8124999999999998
 40
0.8437499999999999
 40
0.8437499999999999
 40
0.8749999999999999
 40
0.8749999999999999
 40
0.9062499999999999
 40
0.9062499999999999
 40
0.9374999999999999
 40
0.9374999999999999
 40
0.96875
 40
0.96875
 40
1.0
 40
1.0
 40
1.0
 40
1.0
 10
10.44989457346449
 20
20.83939046133177
 30
0.0
 10
10.59263203931579
 20
20.61623535383181
 30
0.0
 10
10.74572898252594
 20
20.40034020612855
 30
0.0
 10
11.02346457422349
 20
20.11974774983988
 30
0.0
 10
11.12372720463395
 20
20.03506133841345
 30
0.0
 10
11.34651412887493
 20
19.90202523848854
 30
0.0
 10
11.46788474947187
 20
19.85636932238475
 30
0.0
 10
11.71475803299393
 20
19.81834705508891
 30
0.0
 10
11.83869929941915
 20
19.82541361136527
 30
0.0
 10
12.06754486308009
 20
19.87113904737418
 30
0.0
 10
12.17335137945198
 20
19.90901688262058
 30
0.0
 10
12.45826053814741
 20
20.0433870630456
 30
0.0
 10
12.60079742123001
 20
20.15748101913771
 30
0.0
 10
12.72395241472731
 20
20.31637956905151
 30
0.0
 10
12.75035560308828
 20
20.3686983002106
 30
0.0
 10
12.77026974501039
 20
20.46407068698104
 30
0.0
 10
12.7643751338236
 20
20.50809579026946
 30
0.0
 10
12.72033810945408
 20
20.58670273274055
 30
0.0
 10
12.6830209596871
 20
20.62036391382855
 30
0.0
 10
12.57844952904384
 20
20.67880303965009
 30
0.0
 10
12.51125932456626
 20
20.70315217179685
 30
0.0
 10
12.35309446794182
 20
20.74506697422294
 30
0.0
 10
12.25993473983124
 20
20.76306355348386
 30
0.0
 10
12.05554915126637
 20
20.80054797821103
 30
0.0
 10
11.94432147845088
 20
20.81988880904708
 30
0.0
 10
11.70236550523705
 20
20.87856381245234
 30
0.0
 10
11.57681201416268
 20
20.91779460819587
 30
0.0
 10
11.33321027169285
 20
21.02911527108175
 30
0.0
 10
11.21910590689124
 20
21.09953242026531
 30
0.0
 10
11.11499999999999
 20
21.17875161027495
 30
0.0
  0
SPLINE
  5
2CE
330
1F
100
AcDbEntity
  8
SK3
  6
SLD-Dashed
370
    18
100
AcDbSpline
210
0.0
220
0.0
230
1.0
 70
     8
 71
     3
 72
    32
 73
    28
 74
     0
 42
0.000000001
 43
0.00000001
 40
0.0
 40
0.0
 40
0.0
 40
0.0
 40
0.0312499999999999
 40
0.0312499999999999
 40
0.0624999999999998
 40
0.0624999999999998
 40
0.1249999999999991
 40
0.1249999999999991
 40
0.1874999999999984
 40
0.1874999999999984
 40
0.2187499999999981
 40
0.2187499999999981
 40
0.2499999999999978
 40
0.2499999999999978
 40
0.2812499999999978
 40
0.2812499999999978
 40
0.3124999999999977
 40
0.3124999999999977
 40
0.3437499999999976
 40
0.3437499999999976
 40
0.3749999999999975
 40
0.3749999999999975
 40
0.4062499999999974
 40
0.4062499999999974
 40
0.4374999999999973
 40
0.4374999999999973
 40
0.4999999999999976
 40
0.4999999999999976
 40
0.4999999999999976
 40
0.4999999999999976
 10
11.11499999999999
 20
21.17875161027495
 30
0.0
 10
11.01089409310874
 20
21.25797080028458
 30
0.0
 10
10.91907857642195
 20
21.34285059862823
 30
0.0
 10
10.74762137377522
 20
21.51739232411443
 30
0.0
 10
10.66818813797002
 20
21.60711674781947
 30
0.0
 10
10.44047236553636
 20
21.87810823988764
 30
0.0
 10
10.30542057236915
 20
22.05723493175802
 30
0.0
 10
10.0525870356363
 20
22.39465868829964
 30
0.0
 10
9.934813607757942
 20
22.55444913615408
 30
0.0
 10
9.770188160048098
 20
22.76413869711338
 30
0.0
 10
9.717965925809063
 20
22.82813217252616
 30
0.0
 10
9.623196888300559
 20
22.93456489587036
 30
0.0
 10
9.579891013149599
 20
22.97806553251084
 30
0.0
 10
9.508588627253456
 20
23.02840087322285
 30
0.0
 10
9.48189227676846
 20
23.03332613058726
 30
0.0
 10
9.459811777617261
 20
22.98326804514635
 30
0.0
 10
9.465063840888202
 20
22.92678738490278
 30
0.0
 10
9.505124926315833
 20
22.76846886513447
 30
0.0
 10
9.538244242074084
 20
22.67034415658175
 30
0.0
 10
9.619247903804599
 20
22.45687868614511
 30
0.0
 10
9.66574356746909
 20
22.34495490160376
 30
0.0
 10
9.766569607309581
 20
22.11524263911088
 30
0.0
 10
9.821244160784518
 20
21.99690704152573
 30
0.0
 10
9.934291731587845
 20
21.76239601491104
 30
0.0
 10
9.993038231873266
 20
21.64535767447227
 30
0.0
 10
10.17595206270196
 20
21.29563855276317
 30
0.0
 10
10.30715710761319
 20
21.06254556883173
 30
0.0
 10
10.44989457346449
 20
20.83939046133177
 30
0.0
  0
SPLINE
  5
2CF
330
1F
100
AcDbEntity
  8
SK3
  6
SLD-Dashed
370
    18
100
AcDbSpline
210
0.0
220
0.0
230
1.0
 70
     8
 71
     3
 72
    38
 73
    34
 74
     0
 42
0.000000001
 43
0.00000001
 40
0.5000000000000008
 40
0.5000000000000008
 40
0.5000000000000008
 40
0.5000000000000008
 40
0.5312500000000011
 40
0.5312500000000011
 40
0.5625000000000014
 40
0.5625000000000014
 40
0.5937500000000017
 40
0.5937500000000017
 40
0.625000000000002
 40
0.625000000000002
 40
0.6562500000000023
 40
0.6562500000000023
 40
0.6875000000000027
 40
0.6875000000000027
 40
0.718750000000003
 40
0.718750000000003
 40
0.7500000000000032
 40
0.7500000000000032
 40
0.812500000000003
 40
0.812500000000003
 40
0.8437500000000026
 40
0.8437500000000026
 40
0.8750000000000021
 40
0.8750000000000021
 40
0.9062500000000017
 40
0.9062500000000017
 40
0.9375000000000011
 40
0.9375000000000011
 40
0.9687500000000007
 40
0.9687500000000007
 40
0.9843750000000003
 40
0.9843750000000003
 40
1.0
 40
1.0
 40
1.0
 40
1.0
 10
9.56216591730219
 20
18.47093598961304
 30
0.0
 10
9.60666960882875
 20
18.52416098688806
 30
0.0
 10
9.666912210336957
 20
18.57938849438463
 30
0.0
 10
9.81181263223152
 20
18.68375239917333
 30
0.0
 10
9.897567425050546
 20
18.73401424472705
 30
0.0
 10
10.09207138823538
 20
18.8199322275476
 30
0.0
 10
10.19846038260033
 20
18.85489400372537
 30
0.0
 10
10.42991716747881
 20
18.89353738847553
 30
0.0
 10
10.5550916813739
 20
18.89577731622842
 30
0.0
 10
10.80142802631483
 20
18.84685379350589
 30
0.0
 10
10.92088750473036
 20
18.79569165197122
 30
0.0
 10
11.13971660654366
 20
18.65451476066452
 30
0.0
 10
11.23726506040233
 20
18.56770093185931
 30
0.0
 10
11.41790338683527
 20
18.37844427042388
 30
0.0
 10
11.50153843453276
 20
18.27510513220281
 30
0.0
 10
11.65792087602183
 20
18.06321384263407
 30
0.0
 10
11.73120965691783
 20
17.95392511395891
 30
0.0
 10
11.94219226675071
 20
17.61974155296101
 30
0.0
 10
12.07203185085183
 20
17.3873463276272
 30
0.0
 10
12.25447266366206
 20
17.03574839840396
 30
0.0
 10
12.31288111599017
 20
16.91845212228917
 30
0.0
 10
12.4247898608672
 20
16.68436964494052
 30
0.0
 10
12.47864510461583
 20
16.56677083259166
 30
0.0
 10
12.57771343290429
 20
16.33866118066523
 30
0.0
 10
12.62343468736296
 20
16.22711687706209
 30
0.0
 10
12.70112312343483
 20
16.01827980161889
 30
0.0
 10
12.73250492214958
 20
15.92212850952398
 30
0.0
 10
12.7672598594827
 20
15.77300891717614
 30
0.0
 10
12.76963724396987
 20
15.72182794413951
 30
0.0
 10
12.74922628849652
 20
15.69153457680419
 30
0.0
 10
12.73857436485562
 20
15.68875344160839
 30
0.0
 10
12.71187670664378
 20
15.69536171497652
 30
0.0
 10
12.69586259956382
 20
15.70450089689617
 30
0.0
 10
12.67730763443388
 20
15.71862026199412
 30
0.0
  0
SPLINE
  5
2D0
330
1F
100
AcDbEntity
  8
SK3
  6
SLD-Dashed
370
    18
100
AcDbSpline
210
0.0
220
0.0
230
1.0
 70
     8
 71
     3
 72
    32
 73
    28
 74
     0
 42
0.000000001
 43
0.00000001
 40
0.0
 40
0.0
 40
0.0
 40
0.0
 40
0.03125
 40
0.03125
 40
0.0625
 40
0.0625
 40
0.1249999999999999
 40
0.1249999999999999
 40
0.1874999999999999
 40
0.1874999999999999
 40
0.2187499999999998
 40
0.2187499999999998
 40
0.2499999999999998
 40
0.2499999999999998
 40
0.2812499999999998
 40
0.2812499999999998
 40
0.3124999999999997
 40
0.3124999999999997
 40
0.3437499999999997
 40
0.3437499999999997
 40
0.3749999999999997
 40
0.3749999999999997
 40
0.4375000000000002
 40
0.4375000000000002
 40
0.4687500000000004
 40
0.4687500000000004
 40
0.5000000000000008
 40
0.5000000000000008
 40
0.5000000000000008
 40
0.5000000000000008
 10
12.67730763443388
 20
15.71862026199411
 30
0.0
 10
12.640197704174
 20
15.74685899219002
 30
0.0
 10
12.59620302127294
 20
15.79224259566823
 30
0.0
 10
12.49971880657835
 20
15.9022963991526
 30
0.0
 10
12.44665882244544
 20
15.96790322450679
 30
0.0
 10
12.28056941339609
 20
16.18069042781309
 30
0.0
 10
12.16116169070404
 20
16.34294467859647
 30
0.0
 10
11.9030894599052
 20
16.68678550781621
 30
0.0
 10
11.76485718622872
 20
16.86913497916119
 30
0.0
 10
11.5344414119258
 20
17.13967173638347
 30
0.0
 10
11.45348400885539
 20
17.22963068267214
 30
0.0
 10
11.27594996715917
 20
17.40558287635432
 30
0.0
 10
11.1804181803696
 20
17.49045861876101
 30
0.0
 10
10.96802844471276
 20
17.64380301353632
 30
0.0
 10
10.85203519791082
 20
17.71043612197694
 30
0.0
 10
10.60633681320568
 20
17.8142110669719
 30
0.0
 10
10.4818727023106
 20
17.84965901655795
 30
0.0
 10
10.24397755356145
 20
17.90370925451105
 30
0.0
 10
10.13459384449089
 20
17.92220535972609
 30
0.0
 10
9.934042005980873
 20
17.95947433583486
 30
0.0
 10
9.845027015680587
 20
17.97770297449697
 30
0.0
 10
9.616531880722881
 20
18.0431335092885
 30
0.0
 10
9.516243573240727
 20
18.10241425150424
 30
0.0
 10
9.462270080515284
 20
18.22319269411325
 30
0.0
 10
9.460111331805882
 20
18.26770507956404
 30
0.0
 10
9.487789440891737
 20
18.3654332474002
 30
0.0
 10
9.517662225775616
 20
18.41771099233802
 30
0.0
 10
9.56216591730219
 20
18.47093598961304
 30
0.0
  0
SPLINE
  5
2D1
330
1F
100
AcDbEntity
  8
SK3
  6
SLD-Dashed
370
    18
100
AcDbSpline
210
0.0
220
0.0
230
1.0
 70
     8
 71
     3
 72
    30
 73
    26
 74
     0
 42
0.000000001
 43
0.00000001
 40
0.4999999999999958
 40
0.4999999999999958
 40
0.4999999999999958
 40
0.4999999999999958
 40
0.5624999999999962
 40
0.5624999999999962
 40
0.5937499999999964
 40
0.5937499999999964
 40
0.6249999999999968
 40
0.6249999999999968
 40
0.656249999999997
 40
0.656249999999997
 40
0.6874999999999973
 40
0.6874999999999973
 40
0.7499999999999978
 40
0.7499999999999978
 40
0.7812499999999982
 40
0.7812499999999982
 40
0.8124999999999986
 40
0.8124999999999986
 40
0.874999999999999
 40
0.874999999999999
 40
0.9374999999999994
 40
0.9374999999999994
 40
0.9687499999999998
 40
0.9687499999999998
 40
1.0
 40
1.0
 40
1.0
 40
1.0
 10
11.11569631694154
 20
5.828118860750131
 30
0.0
 10
10.89990872469668
 20
5.828066959117244
 30
0.0
 10
10.68204869439905
 20
5.853178352513262
 30
0.0
 10
10.38394680294169
 20
5.921330855601322
 30
0.0
 10
10.28746604323368
 20
5.949419321585631
 30
0.0
 10
10.10820323788685
 20
6.012924687184104
 30
0.0
 10
10.02537901245282
 20
6.04817924035337
 30
0.0
 10
9.873121289792063
 20
6.124333354423847
 30
0.0
 10
9.803681933968244
 20
6.165418181912435
 30
0.0
 10
9.684279941293228
 20
6.248573285672895
 30
0.0
 10
9.633412105938557
 20
6.291049151618503
 30
0.0
 10
9.50820558962949
 20
6.41964710443755
 30
0.0
 10
9.465125329029156
 20
6.50297594938342
 30
0.0
 10
9.464937743673033
 20
6.614727810660207
 30
0.0
 10
9.475546983123987
 20
6.649079505291748
 30
0.0
 10
9.517585039394053
 20
6.712381754065966
 30
0.0
 10
9.549548798404944
 20
6.741521134481822
 30
0.0
 10
9.673420656055947
 20
6.818244166438441
 30
0.0
 10
9.79613206530866
 20
6.856913129969278
 30
0.0
 10
10.09893117027434
 20
6.912480095519862
 30
0.0
 10
10.28218197203773
 20
6.930192911438391
 30
0.0
 10
10.57995008226185
 20
6.946625347922487
 30
0.0
 10
10.6849477956464
 20
6.95052461901495
 30
0.0
 10
10.89769528898828
 20
6.955579984062175
 30
0.0
 10
11.00557868551755
 20
6.956785249985095
 30
0.0
 10
11.11499999999999
 20
6.956785249985095
 30
0.0
  0
SPLINE
  5
2D2
330
1F
100
AcDbEntity
  8
SK3
  6
SLD-Dashed
370
    18
100
AcDbSpline
210
0.0
220
0.0
230
1.0
 70
     8
 71
     3
 72
    32
 73
    28
 74
     0
 42
0.000000001
 43
0.00000001
 40
0.0
 40
0.0
 40
0.0
 40
0.0
 40
0.0312499999999996
 40
0.0312499999999996
 40
0.0624999999999992
 40
0.0624999999999992
 40
0.0937499999999988
 40
0.0937499999999988
 40
0.1249999999999984
 40
0.1249999999999984
 40
0.1874999999999976
 40
0.1874999999999976
 40
0.2499999999999968
 40
0.2499999999999968
 40
0.2812499999999964
 40
0.2812499999999964
 40
0.3124999999999961
 40
0.3124999999999961
 40
0.3749999999999958
 40
0.3749999999999958
 40
0.4062499999999958
 40
0.4062499999999958
 40
0.4374999999999958
 40
0.4374999999999958
 40
0.4687499999999958
 40
0.4687499999999958
 40
0.4999999999999958
 40
0.4999999999999958
 40
0.4999999999999958
 40
0.4999999999999958
 10
11.11499999999999
 20
6.956785249985095
 30
0.0
 10
11.22442131448238
 20
6.956785249985095
 30
0.0
 10
11.33193414152717
 20
6.955579635659618
 30
0.0
 10
11.54332444319613
 20
6.950574738100429
 30
0.0
 10
11.64832098289324
 20
6.946705728820869
 30
0.0
 10
11.84793306468805
 20
6.93571995219961
 30
0.0
 10
11.94254519042087
 20
6.928648943863733
 30
0.0
 10
12.12160221727664
 20
6.910183829536322
 30
0.0
 10
12.20606745345285
 20
6.898696105629848
 30
0.0
 10
12.43345668439873
 20
6.857030184983535
 30
0.0
 10
12.5562700778523
 20
6.818300476594062
 30
0.0
 10
12.72112945459306
 20
6.716460560978701
 30
0.0
 10
12.76486706317447
 20
6.652019447780905
 30
0.0
 10
12.76506600217915
 20
6.541211798441089
 30
0.0
 10
12.75426006613775
 20
6.501252463902082
 30
0.0
 10
12.71198911749942
 20
6.419578813744963
 30
0.0
 10
12.68071768111606
 20
6.377598407896472
 30
0.0
 10
12.55618179578638
 20
6.249271679382599
 30
0.0
 10
12.43480936785248
 20
6.163428739057029
 30
0.0
 10
12.20531421017586
 20
6.048468009215234
 30
0.0
 10
12.12243739559383
 20
6.013200883306951
 30
0.0
 10
11.94410844556081
 20
5.949928459094096
 30
0.0
 10
11.84749233556789
 20
5.921708122695712
 30
0.0
 10
11.64829058947942
 20
5.876070401958492
 30
0.0
 10
11.54544425868787
 20
5.858412277425431
 30
0.0
 10
11.33312782578494
 20
5.834356571066284
 30
0.0
 10
11.22359011306395
 20
5.828144811566578
 30
0.0
 10
11.11569631694154
 20
5.828118860750131
 30
0.0
  0
SPLINE
  5
2D3
330
1F
100
AcDbEntity
  8
SK3
  6
SLD-Dashed
370
    18
100
AcDbSpline
210
0.0
220
0.0
230
1.0
 70
     8
 71
     3
 72
    30
 73
    26
 74
     0
 42
0.000000001
 43
0.00000001
 40
0.499999999999996
 40
0.499999999999996
 40
0.499999999999996
 40
0.499999999999996
 40
0.5624999999999963
 40
0.5624999999999963
 40
0.5937499999999966
 40
0.5937499999999966
 40
0.6249999999999967
 40
0.6249999999999967
 40
0.6562499999999969
 40
0.6562499999999969
 40
0.687499999999997
 40
0.687499999999997
 40
0.7499999999999974
 40
0.7499999999999974
 40
0.7812499999999978
 40
0.7812499999999978
 40
0.8124999999999981
 40
0.8124999999999981
 40
0.8749999999999988
 40
0.8749999999999988
 40
0.9374999999999994
 40
0.9374999999999994
 40
0.9687499999999997
 40
0.9687499999999997
 40
1.0
 40
1.0
 40
1.0
 40
1.0
 10
11.11430368305845
 20
-6.956785233221213
 30
0.0
 10
11.33009127530327
 20
-6.956795623434965
 30
0.0
 10
11.54795130560089
 20
-6.952193217180727
 30
0.0
 10
11.8460531970583
 20
-6.935841424474256
 30
0.0
 10
11.94253395676628
 20
-6.928651961099114
 30
0.0
 10
12.1217967621131
 20
-6.910161906578557
 30
0.0
 10
12.20462098754714
 20
-6.898922416800183
 30
0.0
 10
12.35687871020792
 20
-6.871100206533847
 30
0.0
 10
12.42631806603171
 20
-6.854385757486221
 30
0.0
 10
12.54572005870673
 20
-6.815565320931603
 30
0.0
 10
12.5965878940614
 20
-6.793338880874096
 30
0.0
 10
12.72179441037048
 20
-6.716160531564944
 30
0.0
 10
12.76487467097082
 20
-6.652571251466278
 30
0.0
 10
12.76506225632693
 20
-6.540902490698293
 30
0.0
 10
12.75445301687597
 20
-6.501808848192774
 30
0.0
 10
12.71241496060592
 20
-6.420220705647815
 30
0.0
 10
12.68045120159503
 20
-6.377316705302412
 30
0.0
 10
12.55657934394401
 20
-6.249695563478603
 30
0.0
 10
12.43386793469128
 20
-6.163028705867227
 30
0.0
 10
12.13106882972559
 20
-6.011205112641512
 30
0.0
 10
11.94781802796223
 20
-5.944805669355198
 30
0.0
 10
11.6500499177381
 20
-5.876417755056658
 30
0.0
 10
11.54505220435356
 20
-5.858344814756941
 30
0.0
 10
11.33230471101169
 20
-5.834286485611704
 30
0.0
 10
11.22442131448241
 20
-5.828118777010411
 30
0.0
 10
11.11499999999999
 20
-5.828118777010411
 30
0.0
  0
SPLINE
  5
2D4
330
1F
100
AcDbEntity
  8
SK3
  6
SLD-Dashed
370
    18
100
AcDbSpline
210
0.0
220
0.0
230
1.0
 70
     8
 71
     3
 72
    32
 73
    28
 74
     0
 42
0.000000001
 43
0.00000001
 40
0.0
 40
0.0
 40
0.0
 40
0.0
 40
0.0312499999999997
 40
0.0312499999999997
 40
0.0624999999999995
 40
0.0624999999999995
 40
0.0937499999999992
 40
0.0937499999999992
 40
0.1249999999999989
 40
0.1249999999999989
 40
0.1874999999999982
 40
0.1874999999999982
 40
0.2499999999999975
 40
0.2499999999999975
 40
0.2812499999999971
 40
0.2812499999999971
 40
0.3124999999999967
 40
0.3124999999999967
 40
0.3749999999999963
 40
0.3749999999999963
 40
0.4062499999999962
 40
0.4062499999999962
 40
0.4374999999999962
 40
0.4374999999999962
 40
0.4687499999999961
 40
0.4687499999999961
 40
0.499999999999996
 40
0.499999999999996
 40
0.499999999999996
 40
0.499999999999996
 10
11.11499999999999
 20
-5.828118777010425
 30
0.0
 10
11.00557868551752
 20
-5.828118777010414
 30
0.0
 10
10.89806585847274
 20
-5.834284418330185
 30
0.0
 10
10.6866755568038
 20
-5.858109988008085
 30
0.0
 10
10.58167901710667
 20
-5.876067982477997
 30
0.0
 10
10.38206693531182
 20
-5.921818499940144
 30
0.0
 10
10.28745480957903
 20
-5.949427367456919
 30
0.0
 10
10.10839778272328
 20
-6.012851705936458
 30
0.0
 10
10.02393254654706
 20
-6.04884253853688
 30
0.0
 10
9.79654331560119
 20
-6.162756727647035
 30
0.0
 10
9.673729922147627
 20
-6.249521956188362
 30
0.0
 10
9.508870545406875
 20
-6.419081974581083
 30
0.0
 10
9.465132936825466
 20
-6.503524382808455
 30
0.0
 10
9.46493399782078
 20
-6.614420162333309
 30
0.0
 10
9.475739933862194
 20
-6.649550307798513
 30
0.0
 10
9.518010882500496
 20
-6.712840086506269
 30
0.0
 10
9.54928231888387
 20
-6.741349407769777
 30
0.0
 10
9.673818204213564
 20
-6.818503738973237
 30
0.0
 10
9.795190632147468
 20
-6.856785886595828
 30
0.0
 10
10.0246857898241
 20
-6.898832345070067
 30
0.0
 10
10.10756260440612
 20
-6.910073301990282
 30
0.0
 10
10.28589155443917
 20
-6.928511809027625
 30
0.0
 10
10.38250766443206
 20
-6.935747180365964
 30
0.0
 10
10.58170941052052
 20
-6.946704422141289
 30
0.0
 10
10.68455574131209
 20
-6.950509985122838
 30
0.0
 10
10.89687217421502
 20
-6.955565712422611
 30
0.0
 10
11.00640988693605
 20
-6.95678003811434
 30
0.0
 10
11.11430368305845
 20
-6.956785233221213
 30
0.0
  0
SPLINE
  5
2D5
330
1F
100
AcDbEntity
  8
SK3
  6
SLD-Dashed
370
    18
100
AcDbSpline
210
0.0
220
0.0
230
1.0
 70
     8
 71
     3
 72
    30
 73
    26
 74
     0
 42
0.000000001
 43
0.00000001
 40
0.4999999999999997
 40
0.4999999999999997
 40
0.4999999999999997
 40
0.4999999999999997
 40
0.5624999999999999
 40
0.5624999999999999
 40
0.625
 40
0.625
 40
0.65625
 40
0.65625
 40
0.6875
 40
0.6875
 40
0.71875
 40
0.71875
 40
0.7499999999999999
 40
0.7499999999999999
 40
0.7812500000000001
 40
0.7812500000000001
 40
0.8125000000000003
 40
0.8125000000000003
 40
0.8750000000000002
 40
0.8750000000000002
 40
0.9375
 40
0.9375
 40
0.96875
 40
0.96875
 40
1.0
 40
1.0
 40
1.0
 40
1.0
 10
11.76979658556571
 20
-17.89232296268973
 30
0.0
 10
11.91246294966132
 20
-17.67070440556974
 30
0.0
 10
12.04384136644404
 20
-17.43839527667696
 30
0.0
 10
12.28743240561783
 20
-16.97483031967649
 30
0.0
 10
12.4007403709436
 20
-16.74140211064309
 30
0.0
 10
12.55447570845297
 20
-16.39375558576601
 30
0.0
 10
12.60138543677655
 20
-16.28170289315485
 30
0.0
 10
12.68295201157338
 20
-16.06989778885582
 30
0.0
 10
12.71817196931758
 20
-15.9681907943343
 30
0.0
 10
12.76213654526592
 20
-15.80428414547202
 30
0.0
 10
12.77026091463634
 20
-15.74311791179768
 30
0.0
 10
12.75239776164136
 20
-15.68353507622141
 30
0.0
 10
12.72724833739215
 20
-15.6852383443289
 30
0.0
 10
12.65908666407788
 20
-15.72953787216992
 30
0.0
 10
12.61568164729124
 20
-15.7718799393592
 30
0.0
 10
12.52100924552235
 20
-15.87679896563815
 30
0.0
 10
12.46941331137413
 20
-15.93961580200764
 30
0.0
 10
12.30490621332257
 20
-16.1482268060285
 30
0.0
 10
12.18517846713214
 20
-16.31053867976721
 30
0.0
 10
11.9298373161686
 20
-16.65147882946562
 30
0.0
 10
11.79267665531762
 20
-16.83353639743864
 30
0.0
 10
11.56451158979954
 20
-17.10544293868933
 30
0.0
 10
11.48485276967111
 20
-17.19558760882548
 30
0.0
 10
11.31258630900464
 20
-17.3712485576523
 30
0.0
 10
11.21906269051033
 20
-17.45771014988549
 30
0.0
 10
11.11499999999999
 20
-17.53689645447306
 30
0.0
  0
SPLINE
  5
2D6
330
1F
100
AcDbEntity
  8
SK3
  6
SLD-Dashed
370
    18
100
AcDbSpline
210
0.0
220
0.0
230
1.0
 70
     8
 71
     3
 72
    34
 73
    30
 74
     0
 42
0.000000001
 43
0.00000001
 40
0.0
 40
0.0
 40
0.0
 40
0.0
 40
0.03125
 40
0.03125
 40
0.0625
 40
0.0625
 40
0.0937499999999999
 40
0.0937499999999999
 40
0.1249999999999999
 40
0.1249999999999999
 40
0.1562499999999999
 40
0.1562499999999999
 40
0.1874999999999999
 40
0.1874999999999999
 40
0.2499999999999998
 40
0.2499999999999998
 40
0.3124999999999998
 40
0.3124999999999998
 40
0.3437499999999998
 40
0.3437499999999998
 40
0.3749999999999998
 40
0.3749999999999998
 40
0.4062499999999997
 40
0.4062499999999997
 40
0.4374999999999997
 40
0.4374999999999997
 40
0.4687499999999997
 40
0.4687499999999997
 40
0.4999999999999997
 40
0.4999999999999997
 40
0.4999999999999997
 40
0.4999999999999997
 10
11.11500000000001
 20
-17.53689645447307
 30
0.0
 10
11.01093730948964
 20
-17.61608275906062
 30
0.0
 10
10.89827240143049
 20
-17.68568655045028
 30
0.0
 10
10.65524603173762
 20
-17.79707922957897
 30
0.0
 10
10.53100003630444
 20
-17.8360813271216
 30
0.0
 10
10.29040472633827
 20
-17.8947937444836
 30
0.0
 10
10.17852991293558
 20
-17.91436206658053
 30
0.0
 10
9.971641719228334
 20
-17.95228558252375
 30
0.0
 10
9.88014021175604
 20
-17.96985838929502
 30
0.0
 10
9.720479632928742
 20
-18.01190468167746
 30
0.0
 10
9.653640231842244
 20
-18.03603027826315
 30
0.0
 10
9.549145986449389
 20
-18.09373421516215
 30
0.0
 10
9.510668589618174
 20
-18.12800625055018
 30
0.0
 10
9.44414422677005
 20
-18.24422870024207
 30
0.0
 10
9.463570934642714
 20
-18.34292442278662
 30
0.0
 10
9.62543846018471
 20
-18.55480157919677
 30
0.0
 10
9.767910053168155
 20
-18.66930111395119
 30
0.0
 10
10.04867356462021
 20
-18.80341694907246
 30
0.0
 10
10.15222938652334
 20
-18.84139332547927
 30
0.0
 10
10.38092358660671
 20
-18.88914098662088
 30
0.0
 10
10.5028594505292
 20
-18.8975492076596
 30
0.0
 10
10.75142302172967
 20
-18.86243703960253
 30
0.0
 10
10.87148365715396
 20
-18.81899219989534
 30
0.0
 10
11.0956118967542
 20
-18.68857740517252
 30
0.0
 10
11.19522385975341
 20
-18.60587995809754
 30
0.0
 10
11.38076798793608
 20
-18.42116017956386
 30
0.0
 10
11.4655569433985
 20
-18.32003566241223
 30
0.0
 10
11.6241609189693
 20
-18.1114066507393
 30
0.0
 10
11.69846340351791
 20
-18.00313224124972
 30
0.0
 10
11.76979658556571
 20
-17.89232296268973
 30
0.0
  0
SPLINE
  5
2D7
330
1F
100
AcDbEntity
  8
SK3
  6
SLD-Dashed
370
    18
100
AcDbSpline
210
0.0
220
0.0
230
1.0
 70
     8
 71
     3
 72
    30
 73
    26
 74
     0
 42
0.000000001
 43
0.00000001
 40
0.4999999999999977
 40
0.4999999999999977
 40
0.4999999999999977
 40
0.4999999999999977
 40
0.5312499999999976
 40
0.5312499999999976
 40
0.5624999999999974
 40
0.5624999999999974
 40
0.6249999999999978
 40
0.6249999999999978
 40
0.6874999999999982
 40
0.6874999999999982
 40
0.7187499999999984
 40
0.7187499999999984
 40
0.7499999999999987
 40
0.7499999999999987
 40
0.7812499999999989
 40
0.7812499999999989
 40
0.8124999999999991
 40
0.8124999999999991
 40
0.8437499999999993
 40
0.8437499999999993
 40
0.8749999999999994
 40
0.8749999999999994
 40
0.9374999999999996
 40
0.9374999999999996
 40
1.0
 40
1.0
 40
1.0
 40
1.0
 10
9.543420299935379
 20
-22.65998997114814
 30
0.0
 10
9.578561233735378
 20
-22.560227168831
 30
0.0
 10
9.622627266506978
 20
-22.44904839944532
 30
0.0
 10
9.718027024244998
 20
-22.2236780839706
 30
0.0
 10
9.770165859587731
 20
-22.10744453751686
 30
0.0
 10
9.9357271809314
 20
-21.75463004044463
 30
0.0
 10
10.05462982796812
 20
-21.52064448601666
 30
0.0
 10
10.3108194870768
 20
-21.0588380163739
 30
0.0
 10
10.44840974433157
 20
-20.82955805298788
 30
0.0
 10
10.67777322328786
 20
-20.50643317375553
 30
0.0
 10
10.7587109791655
 20
-20.40152870512313
 30
0.0
 10
10.93364535127568
 20
-20.20556086715295
 30
0.0
 10
11.02698337642651
 20
-20.11488201047908
 30
0.0
 10
11.23604536410173
 20
-19.96052893895907
 30
0.0
 10
11.35057343779473
 20
-19.89926443941834
 30
0.0
 10
11.59480302461457
 20
-19.82807633767501
 30
0.0
 10
11.71945599477355
 20
-19.81958662546976
 30
0.0
 10
11.95950363931198
 20
-19.84303817835687
 30
0.0
 10
12.07031700587891
 20
-19.87318242107356
 30
0.0
 10
12.27422745067748
 20
-19.95206349756282
 30
0.0
 10
12.3650270117984
 20
-20.00025605676591
 30
0.0
 10
12.59959907667482
 20
-20.15399503516337
 30
0.0
 10
12.70444177032676
 20
-20.26792332503299
 30
0.0
 10
12.78609851062197
 20
-20.46801773808178
 30
0.0
 10
12.76320534245738
 20
-20.55399411581357
 30
0.0
 10
12.67730763443394
 20
-20.6193578118468
 30
0.0
  0
SPLINE
  5
2D8
330
1F
100
AcDbEntity
  8
SK3
  6
SLD-Dashed
370
    18
100
AcDbSpline
210
0.0
220
0.0
230
1.0
 70
     8
 71
     3
 72
    34
 73
    30
 74
     0
 42
0.000000001
 43
0.00000001
 40
0.0
 40
0.0
 40
0.0
 40
0.0
 40
0.0312499999999997
 40
0.0312499999999997
 40
0.0624999999999993
 40
0.0624999999999993
 40
0.093749999999999
 40
0.093749999999999
 40
0.1249999999999986
 40
0.1249999999999986
 40
0.1562499999999983
 40
0.1562499999999983
 40
0.1874999999999979
 40
0.1874999999999979
 40
0.2499999999999978
 40
0.2499999999999978
 40
0.3124999999999976
 40
0.3124999999999976
 40
0.3437499999999977
 40
0.3437499999999977
 40
0.3749999999999978
 40
0.3749999999999978
 40
0.4062499999999979
 40
0.4062499999999979
 40
0.4374999999999978
 40
0.4374999999999978
 40
0.4687499999999978
 40
0.4687499999999978
 40
0.4999999999999977
 40
0.4999999999999977
 40
0.4999999999999977
 40
0.4999999999999977
 10
12.67730763443392
 20
-20.61935781184681
 30
0.0
 10
12.63435878042218
 20
-20.65203965986342
 30
0.0
 10
12.57729529856066
 20
-20.67893166493469
 30
0.0
 10
12.436038089627
 20
-20.72541543980044
 30
0.0
 10
12.35095491427451
 20
-20.74490836916301
 30
0.0
 10
12.16118186397772
 20
-20.78180696819733
 30
0.0
 10
12.05422579636495
 20
-20.79954830523238
 30
0.0
 10
11.82324491388435
 20
-20.84734178875044
 30
0.0
 10
11.69889439480552
 20
-20.8780740541351
 30
0.0
 10
11.45304455248937
 20
-20.96908417859749
 30
0.0
 10
11.33231684279023
 20
-21.03008950406161
 30
0.0
 10
11.11245426351669
 20
-21.1749727905974
 30
0.0
 10
11.01315393168728
 20
-21.25735513703284
 30
0.0
 10
10.73767466537663
 20
-21.51687030422059
 30
0.0
 10
10.58689176004737
 20
-21.69912075795286
 30
0.0
 10
10.30357248622243
 20
-22.05725573907559
 30
0.0
 10
10.1728647649037
 20
-22.23420714395772
 30
0.0
 10
9.991005005593593
 20
-22.47743384821165
 30
0.0
 10
9.932635222666256
 20
-22.55514665472536
 30
0.0
 10
9.820404805610403
 20
-22.70089934625717
 30
0.0
 10
9.766060353100583
 20
-22.7695737764045
 30
0.0
 10
9.665448853514281
 20
-22.88873427842827
 30
0.0
 10
9.619326797725646
 20
-22.93921098612152
 30
0.0
 10
9.53938853672938
 20
-23.010529165629
 30
0.0
 10
9.505665766297314
 20
-23.03089302097995
 30
0.0
 10
9.465224495380092
 20
-23.01585114589003
 30
0.0
 10
9.459739461343556
 20
-22.97888962661065
 30
0.0
 10
9.481585255233737
 20
-22.84998128766083
 30
0.0
 10
9.50827936613538
 20
-22.75975277346527
 30
0.0
 10
9.543420299935379
 20
-22.65998997114814
 30
0.0
  0
ELLIPSE
  5
2D9
330
1F
100
AcDbEntity
  8
SK3
  6
SLD-Dashed
370
    18
100
AcDbEllipse
 10
6.0521267237
 20
23.2104077334
 30
0.0
 11
3.098580671678175
 21
0.0
 31
0.0
210
0.0
220
0.0
230
1.0
 40
0.2152402503
 41
6.163596669273423
 42
6.402773945087436
  0
INSERT
  5
2DA
330
1F
100
AcDbEntity
  8
81
100
AcDbBlockReference
  2
Block11
 10
8.3735173495
 20
-130.2676275275
 30
0.0
  0
INSERT
  5
2DB
330
1F
100
AcDbEntity
  8
80
100
AcDbBlockReference
  2
Block12
 10
-61.7273641656
 20
-130.3356800267
 30
0.0
  0
DIMENSION
  5
2DC
330
1F
100
AcDbEntity
  8
SK2
100
AcDbDimension
  2
_D
 10
19.05
 20
59.0405626474
 30
0.0
 11
9.9179505979
 21
59.0405626474
 31
0.0
 70
   160
  1
<>
 71
     2
 42
-1.0
  3
SLDDIMSTYLE0
100
AcDbAlignedDimension
 13
0.0
 23
22.225
 33
0.0
 14
19.05
 24
31.0
 34
0.0
 50
0.0
100
AcDbRotatedDimension
  0
DIMENSION
  5
2E8
330
1F
100
AcDbEntity
  8
SK2
100
AcDbDimension
  2
_D_1
 10
100.0
 20
40.4552589915
 30
0.0
 11
93.4918644569
 21
40.4552589915
 31
0.0
 70
   160
  1
<>
 71
     2
 42
-1.0
  3
SLDDIMSTYLE0
100
AcDbAlignedDimension
 13
87.0
 23
32.5
 33
0.0
 14
100.0
 24
24.9944465005
 34
0.0
100
AcDbRotatedDimension
  0
DIMENSION
  5
2F2
330
1F
100
AcDbEntity
  8
SK2
100
AcDbDimension
  2
_D_2
 10
35.05
 20
49.687958227
 30
0.0
 11
68.9113015572
 21
49.687958227
 31
0.0
 70
   160
  1
<>
 71
     2
 42
-1.0
  3
SLDDIMSTYLE0
100
AcDbAlignedDimension
 13
100.0
 23
24.9944465005
 33
0.0
 14
35.05
 24
31.75
 34
0.0
100
AcDbRotatedDimension
  0
DIMENSION
  5
2FC
330
1F
100
AcDbEntity
  8
SK2
100
AcDbDimension
  2
_D_3
 10
19.05
 20
59.0405626474
 30
0.0
 11
60.5179386158
 21
59.0405626474
 31
0.0
 70
   160
  1
<>
 71
     2
 42
-1.0
  3
SLDDIMSTYLE0
100
AcDbAlignedDimension
 13
100.0
 23
24.9944465005
 33
0.0
 14
19.05
 24
31.0
 34
0.0
100
AcDbRotatedDimension
  0
DIMENSION
  5
306
330
1F
100
AcDbEntity
  8
2
100
AcDbDimension
  2
_D_4
 10
100.0
 20
68.7528826224
 30
0.0
 11
52.2444808593
 21
68.7528826224
 31
0.0
 70
   160
  1
<>
 71
     2
 42
-1.0
  3
SLDDIMSTYLE0
100
AcDbAlignedDimension
 13
0.0
 23
22.225
 33
0.0
 14
100.0
 24
24.9944465005
 34
0.0
100
AcDbRotatedDimension
  0
DIMENSION
  5
310
330
1F
100
AcDbEntity
  8
SK2
100
AcDbDimension
  2
_D_5
 10
141.4822800077
 20
32.5
 30
0.0
 11
141.4822800077
 21
-0.5351460641
 31
0.0
 70
   160
  1
%%c<>
 71
     2
 42
-1.0
  3
SLDDIMSTYLE0
100
AcDbAlignedDimension
 13
87.0
 23
-32.5
 33
0.0
 14
87.0
 24
32.5
 34
0.0
 50
90.0
100
AcDbRotatedDimension
  0
DIMENSION
  5
31B
330
1F
100
AcDbEntity
  8
SK2
100
AcDbDimension
  2
_D_6
 10
129.3733890237
 20
24.9944465005
 30
0.0
 11
129.3733890237
 21
-0.5351460641
 31
0.0
 70
   160
  1
%%c<>
 71
     2
 42
-1.0
  3
SLDDIMSTYLE0
100
AcDbAlignedDimension
 13
100.0
 23
-24.9944465005
 33
0.0
 14
100.0
 24
24.9944465005
 34
0.0
 50
90.0
100
AcDbRotatedDimension
  0
DIMENSION
  5
326
330
1F
100
AcDbEntity
  8
SK2
100
AcDbDimension
  2
_D_7
 10
118.2679886225
 20
12.5
 30
0.0
 11
118.2679886225
 21
-0.5351460641
 31
0.0
 70
   160
  1
%%c<>
 71
     2
 42
-1.0
  3
SLDDIMSTYLE0
100
AcDbAlignedDimension
 13
99.0
 23
-12.5
 33
0.0
 14
99.0
 24
12.5
 34
0.0
 50
90.0
100
AcDbRotatedDimension
  0
DIMENSION
  5
331
330
1F
100
AcDbEntity
  8
SK2
100
AcDbDimension
  2
_D_8
 10
76.0
 20
-43.4223773674
 30
0.0
 11
88.1711530423
 21
-43.4223773674
 31
0.0
 70
   160
  1
<>
 71
     2
 42
-1.0
  3
SLDDIMSTYLE0
100
AcDbAlignedDimension
 13
100.0
 23
-24.9944465005
 33
0.0
 14
76.0
 24
-32.4
 34
0.0
100
AcDbRotatedDimension
  0
DIMENSION
  5
33B
330
1F
100
AcDbEntity
  8
SK2
100
AcDbDimension
  2
_D_9
 10
51.0
 20
-43.4223773674
 30
0.0
 11
63.9700384335
 21
-43.4223773674
 31
0.0
 70
   160
  1
<>
 71
     2
 42
-1.0
  3
SLDDIMSTYLE0
100
AcDbAlignedDimension
 13
76.0
 23
-32.4
 33
0.0
 14
51.0
 24
-30.4
 34
0.0
 50
0.0
100
AcDbRotatedDimension
  0
DIMENSION
  5
345
330
1F
100
AcDbEntity
  8
SK2
100
AcDbDimension
  2
_D_10
 10
46.0
 20
-52.6212624965
 30
0.0
 11
73.0397410824
 21
-52.6212624965
 31
0.0
 70
   160
  1
<>
 71
     2
 42
-1.0
  3
SLDDIMSTYLE0
100
AcDbAlignedDimension
 13
100.0
 23
-24.9944465005
 33
0.0
 14
46.0
 24
-10.8282039139
 34
0.0
100
AcDbRotatedDimension
  0
DIMENSION
  5
34F
330
1F
100
AcDbEntity
  8
SK2
100
AcDbDimension
  2
_D_11
 10
-85.0635360349
 20
-22.225
 30
0.0
 11
-85.0635360349
 21
-1.0000078745
 31
0.0
 70
   160
  1
%%c<>
 71
     2
 42
-1.0
  3
SLDDIMSTYLE0
100
AcDbAlignedDimension
 13
0.0
 23
22.225
 33
0.0
 14
0.0
 24
-22.225
 34
0.0
 50
90.0
100
AcDbRotatedDimension
  0
DIMENSION
  5
35A
330
1F
100
AcDbEntity
  8
SK2
100
AcDbDimension
  2
_D_12
 10
-75.6524432912
 20
8.00000038
 30
0.0
 11
-75.6524432912
 21
0.1794490162
 31
0.0
 70
   160
  1
M<>
 71
     2
 42
-1.0
  3
SLDDIMSTYLE0
100
AcDbAlignedDimension
 13
-57.2881214321
 23
-8.00000038
 33
0.0
 14
-57.2881214321
 24
8.00000038
 34
0.0
 50
90.0
100
AcDbRotatedDimension
  0
DIMENSION
  5
365
330
1F
100
AcDbEntity
  8
SK2
100
AcDbDimension
  2
_D_13
 10
-95.3356904424
 20
-31.75
 30
0.0
 11
-95.3356904424
 21
-1.0000078745
 31
0.0
 70
   160
  1
%%c<>
 71
     2
 42
-1.0
  3
SLDDIMSTYLE0
100
AcDbAlignedDimension
 13
3.95
 23
31.75
 33
0.0
 14
3.95
 24
-31.75
 34
0.0
 50
90.0
100
AcDbRotatedDimension
  0
MTEXT
  5
370
330
1F
100
AcDbEntity
  8
SK6
 62
     5
100
AcDbMText
 10
-67.1398397881
 20
-49.1352198297
 30
0.0
 40
3.5
 41
0.0
 71
     1
 72
     1
  1
A1B20-40 25 100
  7
SLDTEXTSTYLE0
 73
     1
 44
1.0
  0
INSERT
  5
376
330
1F
100
AcDbEntity
  8
SK6
 62
     5
100
AcDbBlockReference
  2
SW_NOTE_0
 10
-36.9859020639
 20
26.6486785268
 30
0.0
  0
ENDSEC
  0
SECTION
  2
OBJECTS
  0
DICTIONARY
  5
C
330
0
100
AcDbDictionary
281
     1
  3
ACAD_GROUP
350
D
  3
ACAD_LAYOUT
350
1A
  3
ACAD_MLINESTYLE
350
17
  3
ACAD_PLOTSETTINGS
350
19
  3
ACAD_PLOTSTYLENAME
350
E
  3
ACAD_SCALELIST
350
47
  0
DICTIONARY
  5
D
102
{ACAD_REACTORS
330
C
102
}
330
C
100
AcDbDictionary
281
     1
  0
DICTIONARY
  5
1A
102
{ACAD_REACTORS
330
C
102
}
330
C
100
AcDbDictionary
281
     1
  3
Layout1
350
1E
  3
Layout2
350
26
  3
Model
350
22
  0
DICTIONARY
  5
17
102
{ACAD_REACTORS
330
C
102
}
330
C
100
AcDbDictionary
281
     1
  3
Standard
350
18
  0
DICTIONARY
  5
19
102
{ACAD_REACTORS
330
C
102
}
330
C
100
AcDbDictionary
281
     1
  0
ACDBDICTIONARYWDFLT
  5
E
102
{ACAD_REACTORS
330
C
102
}
330
C
100
AcDbDictionary
281
     1
  3
Normal
350
F
100
AcDbDictionaryWithDefault
340
F
  0
DICTIONARY
  5
47
102
{ACAD_REACTORS
330
C
102
}
330
C
100
AcDbDictionary
281
     1
  3
A0
350
48
  3
A1
350
49
  3
A2
350
4A
  3
A3
350
4B
  3
A4
350
4C
  3
A5
350
4D
  3
A6
350
4E
  3
A7
350
4F
  3
A8
350
50
  3
A9
350
51
  3
B0
350
52
  3
B1
350
53
  3
B2
350
54
  3
B3
350
55
  3
B4
350
56
  3
B5
350
57
  3
B6
350
58
  3
B7
350
59
  3
B8
350
5A
  3
B9
350
5B
  3
C0
350
5C
  3
C1
350
5D
  3
C2
350
5E
  3
C3
350
5F
  3
C4
350
60
  3
C5
350
61
  3
C6
350
62
  3
C7
350
63
  3
C8
350
64
  3
C9
350
65
  3
D0
350
66
  3
D1
350
67
  3
D2
350
68
  0
LAYOUT
  5
1E
102
{ACAD_REACTORS
330
1A
102
}
330
1A
100
AcDbPlotSettings
  1

  2
none_device
  4

  6

 40
0.0
 41
0.0
 42
0.0
 43
0.0
 44
0.0
 45
0.0
 46
0.0
 47
0.0
 48
0.0
 49
0.0
140
0.0
141
0.0
142
1.0
143
1.0
 70
   688
 72
     1
 73
     0
 74
     5
  7

 75
    16
147
1.0
148
0.0
149
0.0
100
AcDbLayout
  1
Layout1
 70
     1
 71
     1
 10
0.0
 20
0.0
 11
420.0
 21
297.0
 12
0.0
 22
0.0
 32
0.0
 14
1.0000000000E+20
 24
1.0000000000E+20
 34
1.0000000000E+20
 15
-1.0000000000E+20
 25
-1.0000000000E+20
 35
-1.0000000000E+20
146
0.0
 13
0.0
 23
0.0
 33
0.0
 16
1.0
 26
0.0
 36
0.0
 17
0.0
 27
1.0
 37
0.0
 76
     0
330
1B
  0
LAYOUT
  5
26
102
{ACAD_REACTORS
330
1A
102
}
330
1A
100
AcDbPlotSettings
  1

  2
none_device
  4

  6

 40
0.0
 41
0.0
 42
0.0
 43
0.0
 44
0.0
 45
0.0
 46
0.0
 47
0.0
 48
0.0
 49
0.0
140
0.0
141
0.0
142
1.0
143
1.0
 70
   688
 72
     1
 73
     0
 74
     5
  7

 75
    16
147
1.0
148
0.0
149
0.0
100
AcDbLayout
  1
Layout2
 70
     1
 71
     2
 10
0.0
 20
0.0
 11
0.0
 21
0.0
 12
0.0
 22
0.0
 32
0.0
 14
0.0
 24
0.0
 34
0.0
 15
0.0
 25
0.0
 35
0.0
146
0.0
 13
0.0
 23
0.0
 33
0.0
 16
1.0
 26
0.0
 36
0.0
 17
0.0
 27
1.0
 37
0.0
 76
     0
330
23
  0
LAYOUT
  5
22
102
{ACAD_REACTORS
330
1A
102
}
330
1A
100
AcDbPlotSettings
  1

  2
none_device
  4
Letter_(8.50_x_11.00_Inches)
  6

 40
6.35
 41
6.35
 42
6.35000508
 43
6.35000508
 44
215.9
 45
279.4
 46
0.0
 47
0.0
 48
0.0
 49
0.0
140
0.0
141
0.0
142
1.0
143
1.0
 70
  1712
 72
     1
 73
     0
 74
     0
  7

 75
     0
147
1.0
148
0.0
149
0.0
100
AcDbLayout
  1
Model
 70
     1
 71
     0
 10
0.0
 20
0.0
 11
297.0
 21
210.0
 12
0.0
 22
0.0
 32
0.0
 14
0.0
 24
0.0
 34
0.0
 15
297.0
 25
210.0
 35
0.0
146
0.0
 13
0.0
 23
0.0
 33
0.0
 16
1.0
 26
0.0
 36
0.0
 17
0.0
 27
1.0
 37
0.0
 76
     0
330
1F
331
29
  0
MLINESTYLE
  5
18
102
{ACAD_REACTORS
330
17
102
}
330
17
100
AcDbMlineStyle
  2
Standard
 70
     0
  3

 62
   256
 51
90.0
 52
90.0
 71
     2
 49
0.5
 62
   256
  6
BYLAYER
 49
-0.5
 62
   256
  6
BYLAYER
  0
ACDBPLACEHOLDER
  5
F
102
{ACAD_REACTORS
330
E
102
}
330
E
  0
SCALE
  5
48
102
{ACAD_REACTORS
330
47
102
}
330
47
100
AcDbScale
 70
     0
300
1:1
140
1.0
141
1.0
290
     1
  0
SCALE
  5
49
102
{ACAD_REACTORS
330
47
102
}
330
47
100
AcDbScale
 70
     0
300
1:2
140
1.0
141
2.0
290
     0
  0
SCALE
  5
4A
102
{ACAD_REACTORS
330
47
102
}
330
47
100
AcDbScale
 70
     0
300
1:4
140
1.0
141
4.0
290
     0
  0
SCALE
  5
4B
102
{ACAD_REACTORS
330
47
102
}
330
47
100
AcDbScale
 70
     0
300
1:5
140
1.0
141
5.0
290
     0
  0
SCALE
  5
4C
102
{ACAD_REACTORS
330
47
102
}
330
47
100
AcDbScale
 70
     0
300
1:8
140
1.0
141
8.0
290
     0
  0
SCALE
  5
4D
102
{ACAD_REACTORS
330
47
102
}
330
47
100
AcDbScale
 70
     0
300
1:10
140
1.0
141
10.0
290
     0
  0
SCALE
  5
4E
102
{ACAD_REACTORS
330
47
102
}
330
47
100
AcDbScale
 70
     0
300
1:16
140
1.0
141
16.0
290
     0
  0
SCALE
  5
4F
102
{ACAD_REACTORS
330
47
102
}
330
47
100
AcDbScale
 70
     0
300
1:20
140
1.0
141
20.0
290
     0
  0
SCALE
  5
50
102
{ACAD_REACTORS
330
47
102
}
330
47
100
AcDbScale
 70
     0
300
1:30
140
1.0
141
30.0
290
     0
  0
SCALE
  5
51
102
{ACAD_REACTORS
330
47
102
}
330
47
100
AcDbScale
 70
     0
300
1:40
140
1.0
141
40.0
290
     0
  0
SCALE
  5
52
102
{ACAD_REACTORS
330
47
102
}
330
47
100
AcDbScale
 70
     0
300
1:50
140
1.0
141
50.0
290
     0
  0
SCALE
  5
53
102
{ACAD_REACTORS
330
47
102
}
330
47
100
AcDbScale
 70
     0
300
1:100
140
1.0
141
100.0
290
     0
  0
SCALE
  5
54
102
{ACAD_REACTORS
330
47
102
}
330
47
100
AcDbScale
 70
     0
300
2:1
140
2.0
141
1.0
290
     0
  0
SCALE
  5
55
102
{ACAD_REACTORS
330
47
102
}
330
47
100
AcDbScale
 70
     0
300
4:1
140
4.0
141
1.0
290
     0
  0
SCALE
  5
56
102
{ACAD_REACTORS
330
47
102
}
330
47
100
AcDbScale
 70
     0
300
8:1
140
8.0
141
1.0
290
     0
  0
SCALE
  5
57
102
{ACAD_REACTORS
330
47
102
}
330
47
100
AcDbScale
 70
     0
300
10:1
140
10.0
141
1.0
290
     0
  0
SCALE
  5
58
102
{ACAD_REACTORS
330
47
102
}
330
47
100
AcDbScale
 70
     0
300
100:1
140
100.0
141
1.0
290
     0
  0
SCALE
  5
59
102
{ACAD_REACTORS
330
47
102
}
330
47
100
AcDbScale
 70
     0
300
1/128" = 1'-0"
140
0.0078125
141
12.0
290
     0
  0
SCALE
  5
5A
102
{ACAD_REACTORS
330
47
102
}
330
47
100
AcDbScale
 70
     0
300
1/64" = 1'-0"
140
0.015625
141
12.0
290
     0
  0
SCALE
  5
5B
102
{ACAD_REACTORS
330
47
102
}
330
47
100
AcDbScale
 70
     0
300
1/32" = 1'-0"
140
0.03125
141
12.0
290
     0
  0
SCALE
  5
5C
102
{ACAD_REACTORS
330
47
102
}
330
47
100
AcDbScale
 70
     0
300
1/16" = 1'-0"
140
0.0625
141
12.0
290
     0
  0
SCALE
  5
5D
102
{ACAD_REACTORS
330
47
102
}
330
47
100
AcDbScale
 70
     0
300
3/32" = 1'-0"
140
0.09375
141
12.0
290
     0
  0
SCALE
  5
5E
102
{ACAD_REACTORS
330
47
102
}
330
47
100
AcDbScale
 70
     0
300
1/8" = 1'-0"
140
0.125
141
12.0
290
     0
  0
SCALE
  5
5F
102
{ACAD_REACTORS
330
47
102
}
330
47
100
AcDbScale
 70
     0
300
3/16" = 1'-0"
140
0.1875
141
12.0
290
     0
  0
SCALE
  5
60
102
{ACAD_REACTORS
330
47
102
}
330
47
100
AcDbScale
 70
     0
300
1/4" = 1'-0"
140
0.25
141
12.0
290
     0
  0
SCALE
  5
61
102
{ACAD_REACTORS
330
47
102
}
330
47
100
AcDbScale
 70
     0
300
3/8" = 1'-0"
140
0.375
141
12.0
290
     0
  0
SCALE
  5
62
102
{ACAD_REACTORS
330
47
102
}
330
47
100
AcDbScale
 70
     0
300
1/2" = 1'-0"
140
0.5
141
12.0
290
     0
  0
SCALE
  5
63
102
{ACAD_REACTORS
330
47
102
}
330
47
100
AcDbScale
 70
     0
300
3/4" = 1'-0"
140
0.75
141
12.0
290
     0
  0
SCALE
  5
64
102
{ACAD_REACTORS
330
47
102
}
330
47
100
AcDbScale
 70
     0
300
1" = 1'-0"
140
1.0
141
12.0
290
     0
  0
SCALE
  5
65
102
{ACAD_REACTORS
330
47
102
}
330
47
100
AcDbScale
 70
     0
300
1-1/2" = 1'-0"
140
1.5
141
12.0
290
     0
  0
SCALE
  5
66
102
{ACAD_REACTORS
330
47
102
}
330
47
100
AcDbScale
 70
     0
300
3" = 1'-0"
140
3.0
141
12.0
290
     0
  0
SCALE
  5
67
102
{ACAD_REACTORS
330
47
102
}
330
47
100
AcDbScale
 70
     0
300
6" = 1'-0"
140
6.0
141
12.0
290
     0
  0
SCALE
  5
68
102
{ACAD_REACTORS
330
47
102
}
330
47
100
AcDbScale
 70
     0
300
1'-0" = 1'-0"
140
12.0
141
12.0
290
     0
  0
ENDSEC
  0
EOF
