  0
SECTION
  2
HEADER
  9
$ACADVER
  1
AC1015
  9
$ACADMAINTVER
 70
     6
  9
$DWGCODEPAGE
  3
ANSI_1250
  9
$INSBASE
 10
0.0
 20
0.0
 30
0.0
  9
$EXTMIN
 10
0.0
 20
0.0
 30
0.0
  9
$EXTMAX
 10
297.0
 20
210.0
 30
0.0
  9
$LIMMIN
 10
0.0
 20
0.0
  9
$LIMMAX
 10
297.0
 20
210.0
  9
$ORTHOMODE
 70
     0
  9
$REGENMODE
 70
     1
  9
$FILLMODE
 70
     1
  9
$QTEXTMODE
 70
     0
  9
$MIRRTEXT
 70
     1
  9
$LTSCALE
 40
1.0
  9
$ATTMODE
 70
     1
  9
$TEXTSIZE
 40
3.5
  9
$TRACEWID
 40
1.0
  9
$TEXTSTYLE
  7
Standard
  9
$CLAYER
  8
0
  9
$CELTYPE
  6
ByLayer
  9
$CECOLOR
 62
   256
  9
$CELTSCALE
 40
1.0
  9
$DISPSILH
 70
     0
  9
$DIMSCALE
 40
1.0
  9
$DIMASZ
 40
3.302
  9
$DIMEXO
 40
1.0
  9
$DIMDLI
 40
3.75
  9
$DIMRND
 40
0.0
  9
$DIMDLE
 40
0.0
  9
$DIMEXE
 40
1.0
  9
$DIMTP
 40
0.0
  9
$DIMTM
 40
0.0
  9
$DIMTXT
 40
3.5
  9
$DIMCEN
 40
2.5
  9
$DIMTSZ
 40
0.0
  9
$DIMTOL
 70
     0
  9
$DIMLIM
 70
     0
  9
$DIMTIH
 70
     1
  9
$DIMTOH
 70
     1
  9
$DIMSE1
 70
     0
  9
$DIMSE2
 70
     0
  9
$DIMTAD
 70
     1
  9
$DIMZIN
 70
     0
  9
$DIMBLK
  1

  9
$DIMASO
 70
     1
  9
$DIMSHO
 70
     1
  9
$DIMPOST
  1

  9
$DIMAPOST
  1

  9
$DIMALT
 70
     0
  9
$DIMALTD
 70
     3
  9
$DIMALTF
 40
0.0393700787
  9
$DIMLFAC
 40
1.0
  9
$DIMTOFL
 70
     1
  9
$DIMTVP
 40
0.0
  9
$DIMTIX
 70
     0
  9
$DIMSOXD
 70
     0
  9
$DIMSAH
 70
     0
  9
$DIMBLK1
  1

  9
$DIMBLK2
  1

  9
$DIMSTYLE
  2
ISO-25
  9
$DIMCLRD
 70
     0
  9
$DIMCLRE
 70
     0
  9
$DIMCLRT
 70
     0
  9
$DIMTFAC
 40
1.0
  9
$DIMGAP
 40
1.524
  9
$DIMJUST
 70
     0
  9
$DIMSD1
 70
     0
  9
$DIMSD2
 70
     0
  9
$DIMTOLJ
 70
     0
  9
$DIMTZIN
 70
     0
  9
$DIMALTZ
 70
     0
  9
$DIMALTTZ
 70
     0
  9
$DIMUPT
 70
     0
  9
$DIMDEC
 70
     2
  9
$DIMTDEC
 70
     2
  9
$DIMALTU
 70
     2
  9
$DIMALTTD
 70
     3
  9
$DIMTXSTY
  7
Standard
  9
$DIMAUNIT
 70
     0
  9
$DIMADEC
 70
     2
  9
$DIMALTRND
 40
0.0
  9
$DIMAZIN
 70
     0
  9
$DIMDSEP
 70
    44
  9
$DIMATFIT
 70
     3
  9
$DIMFRAC
 70
     0
  9
$DIMLDRBLK
  1

  9
$DIMLUNIT
 70
     2
  9
$DIMLWD
 70
    -2
  9
$DIMLWE
 70
    -2
  9
$DIMTMOVE
 70
     0
  9
$LUNITS
 70
     2
  9
$LUPREC
 70
     2
  9
$SKETCHINC
 40
1.0
  9
$FILLETRAD
 40
10.0
  9
$AUNITS
 70
     0
  9
$AUPREC
 70
     2
  9
$MENU
  1
.
  9
$ELEVATION
 40
0.0
  9
$PELEVATION
 40
0.0
  9
$THICKNESS
 40
0.0
  9
$LIMCHECK
 70
     0
  9
$CHAMFERA
 40
0.0
  9
$CHAMFERB
 40
0.0
  9
$CHAMFERC
 40
0.0
  9
$CHAMFERD
 40
0.0
  9
$SKPOLY
 70
     0
  9
$TDCREATE
 40
2459290.49865838
  9
$TDUCREATE
 40
2459290.456991713
  9
$TDUPDATE
 40
2459290.498660104
  9
$TDUUPDATE
 40
2459290.456993437
  9
$TDINDWG
 40
0.0000000116
  9
$TDUSRTIMER
 40
0.0000000116
  9
$USRTIMER
 70
     1
  9
$ANGBASE
 50
0.0
  9
$ANGDIR
 70
     0
  9
$PDMODE
 70
     0
  9
$PDSIZE
 40
-1.0
  9
$PLINEWID
 40
0.0
  9
$SPLFRAME
 70
     0
  9
$SPLINETYPE
 70
     6
  9
$SPLINESEGS
 70
     8
  9
$HANDSEED
  5
3AB
  9
$SURFTAB1
 70
     6
  9
$SURFTAB2
 70
     6
  9
$SURFTYPE
 70
     6
  9
$SURFU
 70
     6
  9
$SURFV
 70
     6
  9
$UCSBASE
  2

  9
$UCSNAME
  2

  9
$UCSORG
 10
0.0
 20
0.0
 30
0.0
  9
$UCSXDIR
 10
1.0
 20
0.0
 30
0.0
  9
$UCSYDIR
 10
0.0
 20
1.0
 30
0.0
  9
$UCSORTHOREF
  2

  9
$UCSORTHOVIEW
 70
     0
  9
$UCSORGTOP
 10
0.0
 20
0.0
 30
0.0
  9
$UCSORGBOTTOM
 10
0.0
 20
0.0
 30
0.0
  9
$UCSORGLEFT
 10
0.0
 20
0.0
 30
0.0
  9
$UCSORGRIGHT
 10
0.0
 20
0.0
 30
0.0
  9
$UCSORGFRONT
 10
0.0
 20
0.0
 30
0.0
  9
$UCSORGBACK
 10
0.0
 20
0.0
 30
0.0
  9
$PUCSBASE
  2

  9
$PUCSNAME
  2

  9
$PUCSORG
 10
0.0
 20
0.0
 30
0.0
  9
$PUCSXDIR
 10
1.0
 20
0.0
 30
0.0
  9
$PUCSYDIR
 10
0.0
 20
1.0
 30
0.0
  9
$PUCSORTHOREF
  2

  9
$PUCSORTHOVIEW
 70
     0
  9
$PUCSORGTOP
 10
0.0
 20
0.0
 30
0.0
  9
$PUCSORGBOTTOM
 10
0.0
 20
0.0
 30
0.0
  9
$PUCSORGLEFT
 10
0.0
 20
0.0
 30
0.0
  9
$PUCSORGRIGHT
 10
0.0
 20
0.0
 30
0.0
  9
$PUCSORGFRONT
 10
0.0
 20
0.0
 30
0.0
  9
$PUCSORGBACK
 10
0.0
 20
0.0
 30
0.0
  9
$USERI1
 70
     0
  9
$USERI2
 70
     0
  9
$USERI3
 70
     0
  9
$USERI4
 70
     0
  9
$USERI5
 70
     0
  9
$USERR1
 40
0.0
  9
$USERR2
 40
0.0
  9
$USERR3
 40
0.0
  9
$USERR4
 40
0.0
  9
$USERR5
 40
0.0
  9
$WORLDVIEW
 70
     1
  9
$SHADEDGE
 70
     3
  9
$SHADEDIF
 70
    70
  9
$TILEMODE
 70
     1
  9
$MAXACTVP
 70
    64
  9
$PINSBASE
 10
0.0
 20
0.0
 30
0.0
  9
$PLIMCHECK
 70
     0
  9
$PEXTMIN
 10
1.0000000000E+20
 20
1.0000000000E+20
 30
1.0000000000E+20
  9
$PEXTMAX
 10
-1.0000000000E+20
 20
-1.0000000000E+20
 30
-1.0000000000E+20
  9
$PLIMMIN
 10
0.0
 20
0.0
  9
$PLIMMAX
 10
420.0
 20
297.0
  9
$UNITMODE
 70
     0
  9
$VISRETAIN
 70
     1
  9
$PLINEGEN
 70
     0
  9
$PSLTSCALE
 70
     1
  9
$TREEDEPTH
 70
  3020
  9
$CMLSTYLE
  2
Standard
  9
$CMLJUST
 70
     0
  9
$CMLSCALE
 40
20.0
  9
$PROXYGRAPHICS
 70
     1
  9
$MEASUREMENT
 70
     1
  9
$CELWEIGHT
370
    -1
  9
$ENDCAPS
280
     0
  9
$JOINSTYLE
280
     0
  9
$LWDISPLAY
290
     1
  9
$INSUNITS
 70
     4
  9
$HYPERLINKBASE
  1

  9
$STYLESHEET
  1

  9
$XEDIT
290
     1
  9
$CEPSNTYPE
380
     0
  9
$PSTYLEMODE
290
     1
  9
$FINGERPRINTGUID
  2
{39084F23-D4D9-4A53-BF16-EBDF23C9D415}
  9
$VERSIONGUID
  2
{FAEB1C32-E019-11D5-929B-00C0DF256EC4}
  9
$EXTNAMES
290
     1
  9
$PSVPSCALE
 40
0.0
  9
$OLESTARTUP
290
     0
  0
ENDSEC
  0
SECTION
  2
CLASSES
  0
CLASS
  1
ACDBDICTIONARYWDFLT
  2
AcDbDictionaryWithDefault
  3
ObjectDBX Classes
 90
        0
280
     0
281
     0
  0
CLASS
  1
VISUALSTYLE
  2
AcDbVisualStyle
  3
ObjectDBX Classes
 90
     4095
280
     0
281
     0
  0
CLASS
  1
MATERIAL
  2
AcDbMaterial
  3
ObjectDBX Classes
 90
     1153
280
     0
281
     0
  0
CLASS
  1
SCALE
  2
AcDbScale
  3
ObjectDBX Classes
 90
     1153
280
     0
281
     0
  0
CLASS
  1
TABLESTYLE
  2
AcDbTableStyle
  3
ObjectDBX Classes
 90
     4095
280
     0
281
     0
  0
CLASS
  1
MLEADERSTYLE
  2
AcDbMLeaderStyle
  3
ACDB_MLEADERSTYLE_CLASS
 90
     4095
280
     0
281
     0
  0
CLASS
  1
SUN
  2
AcDbSun
  3
SCENEOE
 90
     1153
280
     0
281
     0
  0
CLASS
  1
ACDBPLACEHOLDER
  2
AcDbPlaceHolder
  3
ObjectDBX Classes
 90
        0
280
     0
281
     0
  0
CLASS
  1
LAYOUT
  2
AcDbLayout
  3
ObjectDBX Classes
 90
        0
280
     0
281
     0
  0
ENDSEC
  0
SECTION
  2
TABLES
  0
TABLE
  2
VPORT
  5
8
330
0
100
AcDbSymbolTable
 70
     1
  0
VPORT
  5
29
330
8
100
AcDbSymbolTableRecord
100
AcDbViewportTableRecord
  2
*Active
 70
     0
 10
0.0
 20
0.0
 11
1.0
 21
1.0
 12
148.5
 22
105.0
 13
0.0
 23
0.0
 14
10.0
 24
10.0
 15
10.0
 25
10.0
 16
0.0
 26
0.0
 36
1.0
 17
0.0
 27
0.0
 37
0.0
 40
210.0
 41
1.4142857143
 42
50.0
 43
0.0
 44
0.0
 50
0.0
 51
0.0
 71
     0
 72
  2000
 73
     1
 74
     3
 75
     0
 76
     0
 77
     0
 78
     0
281
     0
 65
     1
110
0.0
120
0.0
130
0.0
111
1.0
121
0.0
131
0.0
112
0.0
122
1.0
132
0.0
 79
     0
146
0.0
  0
ENDTAB
  0
TABLE
  2
LTYPE
  5
5
330
0
100
AcDbSymbolTable
 70
     8
  0
LTYPE
  5
14
330
5
100
AcDbSymbolTableRecord
100
AcDbLinetypeTableRecord
  2
ByBlock
 70
     0
  3

 72
    65
 73
     0
 40
0.0
  0
LTYPE
  5
15
330
5
100
AcDbSymbolTableRecord
100
AcDbLinetypeTableRecord
  2
ByLayer
 70
     0
  3

 72
    65
 73
     0
 40
0.0
  0
LTYPE
  5
16
330
5
100
AcDbSymbolTableRecord
100
AcDbLinetypeTableRecord
  2
Continuous
 70
     0
  3
Solid line
 72
    65
 73
     0
 40
0.0
  0
LTYPE
  5
6E
330
5
100
AcDbSymbolTableRecord
100
AcDbLinetypeTableRecord
  2
SLD-Solid
 70
     0
  3
SolidWorks Line Style
 72
    65
 73
     0
 40
0.0
  0
LTYPE
  5
6F
330
5
100
AcDbSymbolTableRecord
100
AcDbLinetypeTableRecord
  2
SLD-Dashed
 70
     0
  3
SolidWorks Line Style
 72
    65
 73
     2
 40
1.905
 49
1.27
 74
     0
 49
-0.635
 74
     0
  0
LTYPE
  5
70
330
5
100
AcDbSymbolTableRecord
100
AcDbLinetypeTableRecord
  2
SLD-Phantom
 70
     0
  3
SolidWorks Line Style
 72
    65
 73
     6
 40
12.7
 49
6.35
 74
     0
 49
-1.27
 74
     0
 49
1.27
 74
     0
 49
-1.27
 74
     0
 49
1.27
 74
     0
 49
-1.27
 74
     0
  0
LTYPE
  5
71
330
5
100
AcDbSymbolTableRecord
100
AcDbLinetypeTableRecord
  2
SLD-Chain
 70
     0
  3
SolidWorks Line Style
 72
    65
 73
     4
 40
10.16
 49
6.35
 74
     0
 49
-1.27
 74
     0
 49
1.27
 74
     0
 49
-1.27
 74
     0
  0
LTYPE
  5
72
330
5
100
AcDbSymbolTableRecord
100
AcDbLinetypeTableRecord
  2
SLD-Center
 70
     0
  3
SolidWorks Line Style
 72
    65
 73
     4
 40
19.05
 49
15.24
 74
     0
 49
-1.27
 74
     0
 49
1.27
 74
     0
 49
-1.27
 74
     0
  0
LTYPE
  5
73
330
5
100
AcDbSymbolTableRecord
100
AcDbLinetypeTableRecord
  2
SLD-Stitch
 70
     0
  3
SolidWorks Line Style
 72
    65
 73
     2
 40
0.635
 49
0.0
 74
     0
 49
-0.635
 74
     0
  0
LTYPE
  5
74
330
5
100
AcDbSymbolTableRecord
100
AcDbLinetypeTableRecord
  2
SLD-Thin-Thick-Chain
 70
     0
  3
SolidWorks Line Style
 72
    65
 73
     4
 40
10.16
 49
6.35
 74
     0
 49
-1.27
 74
     0
 49
1.27
 74
     0
 49
-1.27
 74
     0
  0
ENDTAB
  0
TABLE
  2
LAYER
  5
2
330
0
100
AcDbSymbolTable
 70
    12
  0
LAYER
  5
10
330
2
100
AcDbSymbolTableRecord
100
AcDbLayerTableRecord
  2
0
 70
     0
 62
     7
  6
Continuous
370
    -3
390
F
  0
LAYER
  5
75
330
2
100
AcDbSymbolTableRecord
100
AcDbLayerTableRecord
  2
SLD-0
 70
     0
 62
   179
  6
SLD-Solid
370
    -3
390
F
  0
LAYER
  5
76
330
2
100
AcDbSymbolTableRecord
100
AcDbLayerTableRecord
  2
80
 70
     0
 62
    -6
  6
SLD-Solid
290
     0
370
    -3
390
F
  0
LAYER
  5
77
330
2
100
AcDbSymbolTableRecord
100
AcDbLayerTableRecord
  2
81
 70
     0
 62
    -3
  6
SLD-Solid
290
     0
370
    -3
390
F
  0
LAYER
  5
78
330
2
100
AcDbSymbolTableRecord
100
AcDbLayerTableRecord
  2
1
 70
     0
 62
     4
  6
SLD-Solid
290
     0
370
    -3
390
F
  0
LAYER
  5
79
330
2
100
AcDbSymbolTableRecord
100
AcDbLayerTableRecord
  2
4
 70
     0
 62
    -2
  6
SLD-Chain
290
     0
370
    -3
390
F
  0
LAYER
  5
7A
330
2
100
AcDbSymbolTableRecord
100
AcDbLayerTableRecord
  2
2
 70
     0
 62
     7
  6
SLD-Solid
290
     0
370
    -3
390
F
  0
LAYER
  5
7B
330
2
100
AcDbSymbolTableRecord
100
AcDbLayerTableRecord
  2
SK3
 70
     0
 62
     1
  6
SLD-Dashed
290
     0
370
    -3
390
F
  0
LAYER
  5
7C
330
2
100
AcDbSymbolTableRecord
100
AcDbLayerTableRecord
  2
SK4
 70
     0
 62
     2
  6
SLD-Chain
290
     0
370
    -3
390
F
  0
LAYER
  5
7D
330
2
100
AcDbSymbolTableRecord
100
AcDbLayerTableRecord
  2
SK2
 70
     0
 62
     7
  6
SLD-Solid
290
     0
370
    -3
390
F
  0
LAYER
  5
7E
330
2
100
AcDbSymbolTableRecord
100
AcDbLayerTableRecord
  2
SK6
 70
     0
 62
     5
  6
SLD-Solid
290
     0
370
    -3
390
F
  0
LAYER
  5
7F
330
2
100
AcDbSymbolTableRecord
100
AcDbLayerTableRecord
  2
SK1
 70
     0
 62
     4
  6
SLD-Solid
370
    -3
390
F
  0
ENDTAB
  0
TABLE
  2
STYLE
  5
3
330
0
100
AcDbSymbolTable
 70
     2
  0
STYLE
  5
11
330
3
100
AcDbSymbolTableRecord
100
AcDbTextStyleTableRecord
  2
Standard
 70
     0
 40
0.0
 41
1.0
 50
0.0
 71
     0
 42
3.5
  3
txt
  4

  0
STYLE
  5
31B
330
3
100
AcDbSymbolTableRecord
100
AcDbTextStyleTableRecord
  2
SLDTEXTSTYLE0
 70
     0
 40
0.0
 41
0.75
 50
0.0
 71
     0
 42
3.5
  3
TXT
  4

  0
ENDTAB
  0
TABLE
  2
VIEW
  5
6
330
0
100
AcDbSymbolTable
 70
     0
  0
ENDTAB
  0
TABLE
  2
UCS
  5
7
330
0
100
AcDbSymbolTable
 70
     0
  0
ENDTAB
  0
TABLE
  2
APPID
  5
9
330
0
100
AcDbSymbolTable
 70
     1
  0
APPID
  5
12
330
9
100
AcDbSymbolTableRecord
100
AcDbRegAppTableRecord
  2
ACAD
 70
     0
  0
ENDTAB
  0
TABLE
  2
DIMSTYLE
  5
A
330
0
100
AcDbSymbolTable
 70
     2
100
AcDbDimStyleTable
  0
DIMSTYLE
105
27
330
A
100
AcDbSymbolTableRecord
100
AcDbDimStyleTableRecord
  2
ISO-25
 70
     0
 41
2.5
 42
0.625
 43
3.75
 44
1.25
 73
     0
 74
     0
 77
     1
 78
     8
140
2.5
141
2.5
143
0.0393700787
147
0.625
171
     3
172
     1
178
     0
271
     2
272
     2
274
     3
278
    44
283
     0
284
     8
340
11
  0
DIMSTYLE
105
31C
102
{ACAD_REACTORS
330
31A
330
326
330
330
330
33B
330
345
330
34F
330
359
330
364
330
36F
330
37A
330
385
330
390
330
39A
102
}
330
A
100
AcDbSymbolTableRecord
100
AcDbDimStyleTableRecord
  2
SLDDIMSTYLE0
 70
     0
 41
3.302
 44
0.0
 45
0.000000001
 73
     0
 74
     0
 77
     1
 78
    12
 79
     3
140
3.5
147
0.875
173
     1
178
     0
271
     2
272
     2
276
     2
284
    12
340
31B
  0
ENDTAB
  0
TABLE
  2
BLOCK_RECORD
  5
1
330
0
100
AcDbSymbolTable
 70
    17
  0
BLOCK_RECORD
  5
1F
330
1
100
AcDbSymbolTableRecord
100
AcDbBlockTableRecord
  2
*Model_Space
340
22
  0
BLOCK_RECORD
  5
1B
330
1
100
AcDbSymbolTableRecord
100
AcDbBlockTableRecord
  2
*Paper_Space
340
1E
  0
BLOCK_RECORD
  5
23
330
1
100
AcDbSymbolTableRecord
100
AcDbBlockTableRecord
  2
*Paper_Space0
340
26
  0
BLOCK_RECORD
  5
80
330
1
100
AcDbSymbolTableRecord
100
AcDbBlockTableRecord
  2
Block11
340
0
102
{BLKREFS
331
318
102
}
  0
BLOCK_RECORD
  5
89
330
1
100
AcDbSymbolTableRecord
100
AcDbBlockTableRecord
  2
Block12
340
0
102
{BLKREFS
331
319
102
}
  0
BLOCK_RECORD
  5
31D
330
1
100
AcDbSymbolTableRecord
100
AcDbBlockTableRecord
  2
_D
340
0
  0
BLOCK_RECORD
  5
327
330
1
100
AcDbSymbolTableRecord
100
AcDbBlockTableRecord
  2
_D_1
340
0
  0
BLOCK_RECORD
  5
331
330
1
100
AcDbSymbolTableRecord
100
AcDbBlockTableRecord
  2
_D_2
340
0
  0
BLOCK_RECORD
  5
33C
330
1
100
AcDbSymbolTableRecord
100
AcDbBlockTableRecord
  2
_D_3
340
0
  0
BLOCK_RECORD
  5
346
330
1
100
AcDbSymbolTableRecord
100
AcDbBlockTableRecord
  2
_D_4
340
0
  0
BLOCK_RECORD
  5
350
330
1
100
AcDbSymbolTableRecord
100
AcDbBlockTableRecord
  2
_D_5
340
0
  0
BLOCK_RECORD
  5
35A
330
1
100
AcDbSymbolTableRecord
100
AcDbBlockTableRecord
  2
_D_6
340
0
  0
BLOCK_RECORD
  5
365
330
1
100
AcDbSymbolTableRecord
100
AcDbBlockTableRecord
  2
_D_7
340
0
  0
BLOCK_RECORD
  5
370
330
1
100
AcDbSymbolTableRecord
100
AcDbBlockTableRecord
  2
_D_8
340
0
  0
BLOCK_RECORD
  5
37B
330
1
100
AcDbSymbolTableRecord
100
AcDbBlockTableRecord
  2
_D_9
340
0
  0
BLOCK_RECORD
  5
386
330
1
100
AcDbSymbolTableRecord
100
AcDbBlockTableRecord
  2
_D_10
340
0
  0
BLOCK_RECORD
  5
391
330
1
100
AcDbSymbolTableRecord
100
AcDbBlockTableRecord
  2
_D_11
340
0
  0
BLOCK_RECORD
  5
39B
330
1
100
AcDbSymbolTableRecord
100
AcDbBlockTableRecord
  2
_D_12
340
0
  0
BLOCK_RECORD
  5
3A5
330
1
100
AcDbSymbolTableRecord
100
AcDbBlockTableRecord
  2
SW_NOTE_0
340
0
102
{BLKREFS
331
3AA
102
}
  0
ENDTAB
  0
ENDSEC
  0
SECTION
  2
BLOCKS
  0
BLOCK
  5
20
330
1F
100
AcDbEntity
  8
0
100
AcDbBlockBegin
  2
*Model_Space
 70
     0
 10
0.0
 20
0.0
 30
0.0
  3
*Model_Space
  1

  0
ENDBLK
  5
21
330
1F
100
AcDbEntity
  8
0
100
AcDbBlockEnd
  0
BLOCK
  5
1C
330
1B
100
AcDbEntity
 67
     1
  8
0
100
AcDbBlockBegin
  2
*Paper_Space
 70
     0
 10
0.0
 20
0.0
 30
0.0
  3
*Paper_Space
  1

  0
ENDBLK
  5
1D
330
1B
100
AcDbEntity
 67
     1
  8
0
100
AcDbBlockEnd
  0
BLOCK
  5
24
330
23
100
AcDbEntity
  8
0
100
AcDbBlockBegin
  2
*Paper_Space0
 70
     0
 10
0.0
 20
0.0
 30
0.0
  3
*Paper_Space0
  1

  0
ENDBLK
  5
25
330
23
100
AcDbEntity
  8
0
100
AcDbBlockEnd
  0
BLOCK
  5
81
330
80
100
AcDbEntity
  8
0
100
AcDbBlockBegin
  2
Block11
 70
     0
 10
0.0
 20
0.0
 30
0.0
  3
Block11
  1

  0
CIRCLE
  5
83
330
80
100
AcDbEntity
  8
81
370
    18
100
AcDbCircle
 10
91.6264826505
 20
130.2676275275
 30
0.0
 40
2.499999999999981
  0
LINE
  5
84
330
80
100
AcDbEntity
  8
81
370
    18
100
AcDbLine
 10
91.6264826505
 20
130.2676275275
 30
0.0
 11
95.1620165565
 21
133.8031614334
 31
0.0
  0
LINE
  5
85
330
80
100
AcDbEntity
  8
81
370
    18
100
AcDbLine
 10
91.6264826505
 20
130.2676275275
 30
0.0
 11
88.0909487446
 21
126.7320936216
 31
0.0
  0
LINE
  5
86
330
80
100
AcDbEntity
  8
81
370
    18
100
AcDbLine
 10
91.6264826505
 20
130.2676275275
 30
0.0
 11
88.0909487446
 21
133.8031614334
 31
0.0
  0
LINE
  5
87
330
80
100
AcDbEntity
  8
81
100
AcDbLine
 10
91.6264826505
 20
130.2676275275
 30
0.0
 11
101.6264826505
 21
130.2676275275
 31
0.0
  0
LINE
  5
88
330
80
100
AcDbEntity
  8
81
370
    18
100
AcDbLine
 10
91.6264826505
 20
130.2676275275
 30
0.0
 11
95.1620165565
 21
126.7320936216
 31
0.0
  0
ENDBLK
  5
82
330
80
100
AcDbEntity
  8
0
100
AcDbBlockEnd
  0
BLOCK
  5
8A
330
89
100
AcDbEntity
  8
0
100
AcDbBlockBegin
  2
Block12
 70
     0
 10
0.0
 20
0.0
 30
0.0
  3
Block12
  1

  0
CIRCLE
  5
8C
330
89
100
AcDbEntity
  8
80
370
    18
100
AcDbCircle
 10
61.7273641656
 20
130.3356800267
 30
0.0
 40
2.500000000000004
  0
LINE
  5
8D
330
89
100
AcDbEntity
  8
80
370
    18
100
AcDbLine
 10
61.7273641656
 20
130.3356800267
 30
0.0
 11
65.2628980715
 21
133.8712139326
 31
0.0
  0
LINE
  5
8E
330
89
100
AcDbEntity
  8
80
370
    18
100
AcDbLine
 10
61.7273641656
 20
130.3356800267
 30
0.0
 11
58.1918302597
 21
126.8001461208
 31
0.0
  0
LINE
  5
8F
330
89
100
AcDbEntity
  8
80
370
    18
100
AcDbLine
 10
61.7273641656
 20
130.3356800267
 30
0.0
 11
58.1918302597
 21
133.8712139326
 31
0.0
  0
LINE
  5
90
330
89
100
AcDbEntity
  8
80
370
    18
100
AcDbLine
 10
61.7273641656
 20
130.3356800267
 30
0.0
 11
51.7273641656
 21
130.3356800267
 31
0.0
  0
LINE
  5
91
330
89
100
AcDbEntity
  8
80
370
    18
100
AcDbLine
 10
61.7273641656
 20
130.3356800267
 30
0.0
 11
65.2628980715
 21
126.8001461208
 31
0.0
  0
ENDBLK
  5
8B
330
89
100
AcDbEntity
  8
0
100
AcDbBlockEnd
  0
BLOCK
  5
31E
330
31D
100
AcDbEntity
  8
0
100
AcDbBlockBegin
  2
_D
 70
     0
 10
0.0
 20
0.0
 30
0.0
  3
_D
  1

  0
SOLID
  5
320
330
31D
100
AcDbEntity
  8
SK2
100
AcDbTrace
 10
0.0
 20
50.128660874
 30
0.0
 11
3.302
 21
49.620660874
 31
0.0
 12
3.302
 22
50.636660874
 32
0.0
 13
3.302
 23
50.636660874
 33
0.0
  0
SOLID
  5
321
330
31D
100
AcDbEntity
  8
SK2
100
AcDbTrace
 10
19.05
 20
50.128660874
 30
0.0
 11
15.748
 21
50.636660874
 31
0.0
 12
15.748
 22
49.620660874
 32
0.0
 13
15.748
 23
49.620660874
 33
0.0
  0
LINE
  5
322
330
31D
100
AcDbEntity
  8
SK2
100
AcDbLine
 10
0.0
 20
23.225
 30
0.0
 11
0.0
 21
51.128660874
 31
0.0
  0
LINE
  5
323
330
31D
100
AcDbEntity
  8
SK2
100
AcDbLine
 10
19.05
 20
32.0
 30
0.0
 11
19.05
 21
51.128660874
 31
0.0
  0
LINE
  5
324
330
31D
100
AcDbEntity
  8
SK2
100
AcDbLine
 10
0.0
 20
50.128660874
 30
0.0
 11
19.05
 21
50.128660874
 31
0.0
  0
MTEXT
  5
325
330
31D
100
AcDbEntity
  8
SK2
100
AcDbMText
 10
3.4317822913
 20
54.6403977886
 30
0.0
 40
3.5
 41
0.0
 71
     1
 72
     1
  1
19,05
  7
SLDTEXTSTYLE0
 73
     1
 44
1.0
  0
ENDBLK
  5
31F
330
31D
100
AcDbEntity
  8
0
100
AcDbBlockEnd
  0
BLOCK
  5
328
330
327
100
AcDbEntity
  8
0
100
AcDbBlockBegin
  2
_D_1
 70
     0
 10
0.0
 20
0.0
 30
0.0
  3
_D_1
  1

  0
SOLID
  5
32A
330
327
100
AcDbEntity
  8
SK2
100
AcDbTrace
 10
19.05
 20
50.128660874
 30
0.0
 11
22.352
 21
49.620660874
 31
0.0
 12
22.352
 22
50.636660874
 32
0.0
 13
22.352
 23
50.636660874
 33
0.0
  0
SOLID
  5
32B
330
327
100
AcDbEntity
  8
SK2
100
AcDbTrace
 10
63.0
 20
50.128660874
 30
0.0
 11
59.698
 21
50.636660874
 31
0.0
 12
59.698
 22
49.620660874
 32
0.0
 13
59.698
 23
49.620660874
 33
0.0
  0
LINE
  5
32C
330
327
100
AcDbEntity
  8
SK2
100
AcDbLine
 10
19.05
 20
32.0
 30
0.0
 11
19.05
 21
51.128660874
 31
0.0
  0
LINE
  5
32D
330
327
100
AcDbEntity
  8
SK2
100
AcDbLine
 10
63.0
 20
19.4944465005
 30
0.0
 11
63.0
 21
51.128660874
 31
0.0
  0
LINE
  5
32E
330
327
100
AcDbEntity
  8
SK2
100
AcDbLine
 10
19.05
 20
50.128660874
 30
0.0
 11
63.0
 21
50.128660874
 31
0.0
  0
MTEXT
  5
32F
330
327
100
AcDbEntity
  8
SK2
100
AcDbMText
 10
33.6122873876
 20
54.6403977886
 30
0.0
 40
3.5
 41
0.0
 71
     1
 72
     1
  1
43,95
  7
SLDTEXTSTYLE0
 73
     1
 44
1.0
  0
ENDBLK
  5
329
330
327
100
AcDbEntity
  8
0
100
AcDbBlockEnd
  0
BLOCK
  5
332
330
331
100
AcDbEntity
  8
0
100
AcDbBlockBegin
  2
_D_2
 70
     0
 10
0.0
 20
0.0
 30
0.0
  3
_D_2
  1

  0
SOLID
  5
334
330
331
100
AcDbEntity
  8
SK2
100
AcDbTrace
 10
102.7326977112
 20
-26.0
 30
0.0
 11
103.2406977112
 21
-22.698
 31
0.0
 12
102.2246977112
 22
-22.698
 32
0.0
 13
102.2246977112
 23
-22.698
 33
0.0
  0
SOLID
  5
335
330
331
100
AcDbEntity
  8
SK2
100
AcDbTrace
 10
102.7326977112
 20
26.0
 30
0.0
 11
102.2246977112
 21
22.698
 31
0.0
 12
103.2406977112
 22
22.698
 32
0.0
 13
103.2406977112
 23
22.698
 33
0.0
  0
LINE
  5
336
330
331
100
AcDbEntity
  8
SK2
100
AcDbLine
 10
51.0
 20
-26.0
 30
0.0
 11
103.7326977112
 21
-26.0
 31
0.0
  0
LINE
  5
337
330
331
100
AcDbEntity
  8
SK2
100
AcDbLine
 10
51.0
 20
26.0
 30
0.0
 11
103.7326977112
 21
26.0
 31
0.0
  0
LINE
  5
338
330
331
100
AcDbEntity
  8
SK2
100
AcDbLine
 10
102.7326977112
 20
-26.0
 30
0.0
 11
102.7326977112
 21
26.0
 31
0.0
  0
MTEXT
  5
339
330
331
100
AcDbEntity
  8
SK2
100
AcDbMText
 10
98.220960622
 20
-5.8019765992
 30
0.0
 40
3.5
 41
0.0
 71
     1
 72
     1
  1
%%c
  7
SLDTEXTSTYLE0
 11
6.123233995736766E-17
 21
1.0
 31
0.0
 73
     1
 44
1.0
  0
MTEXT
  5
33A
330
331
100
AcDbEntity
  8
SK2
100
AcDbMText
 10
98.1674884454
 20
-0.5235392008
 30
0.0
 40
3.5
 41
0.0
 71
     1
 72
     1
  1
52
  7
SLDTEXTSTYLE0
 11
6.123233995736766E-17
 21
1.0
 31
0.0
 73
     1
 44
1.0
  0
ENDBLK
  5
333
330
331
100
AcDbEntity
  8
0
100
AcDbBlockEnd
  0
BLOCK
  5
33D
330
33C
100
AcDbEntity
  8
0
100
AcDbBlockBegin
  2
_D_3
 70
     0
 10
0.0
 20
0.0
 30
0.0
  3
_D_3
  1

  0
SOLID
  5
33F
330
33C
100
AcDbEntity
  8
SK2
100
AcDbTrace
 10
63.0
 20
33.2935491112
 30
0.0
 11
59.698
 21
33.8015491112
 31
0.0
 12
59.698
 22
32.7855491112
 32
0.0
 13
59.698
 23
32.7855491112
 33
0.0
  0
SOLID
  5
340
330
33C
100
AcDbEntity
  8
SK2
100
AcDbTrace
 10
50.0
 20
33.2935491112
 30
0.0
 11
53.302
 21
32.7855491112
 31
0.0
 12
53.302
 22
33.8015491112
 32
0.0
 13
53.302
 23
33.8015491112
 33
0.0
  0
LINE
  5
341
330
33C
100
AcDbEntity
  8
SK2
100
AcDbLine
 10
63.0
 20
19.4944465005
 30
0.0
 11
63.0
 21
34.2935491112
 31
0.0
  0
LINE
  5
342
330
33C
100
AcDbEntity
  8
SK2
100
AcDbLine
 10
50.0
 20
27.0
 30
0.0
 11
50.0
 21
34.2935491112
 31
0.0
  0
LINE
  5
343
330
33C
100
AcDbEntity
  8
SK2
100
AcDbLine
 10
63.0
 20
33.2935491112
 30
0.0
 11
50.0
 21
33.2935491112
 31
0.0
  0
MTEXT
  5
344
330
33C
100
AcDbEntity
  8
SK2
100
AcDbMText
 10
53.2988562149
 20
37.8052860258
 30
0.0
 40
3.5
 41
0.0
 71
     1
 72
     1
  1
13
  7
SLDTEXTSTYLE0
 73
     1
 44
1.0
  0
ENDBLK
  5
33E
330
33C
100
AcDbEntity
  8
0
100
AcDbBlockEnd
  0
BLOCK
  5
347
330
346
100
AcDbEntity
  8
0
100
AcDbBlockBegin
  2
_D_4
 70
     0
 10
0.0
 20
0.0
 30
0.0
  3
_D_4
  1

  0
SOLID
  5
349
330
346
100
AcDbEntity
  8
SK2
100
AcDbTrace
 10
63.0
 20
41.2808489656
 30
0.0
 11
59.698
 21
41.7888489656
 31
0.0
 12
59.698
 22
40.7728489656
 32
0.0
 13
59.698
 23
40.7728489656
 33
0.0
  0
SOLID
  5
34A
330
346
100
AcDbEntity
  8
SK2
100
AcDbTrace
 10
34.05
 20
41.2808489656
 30
0.0
 11
37.352
 21
40.7728489656
 31
0.0
 12
37.352
 22
41.7888489656
 32
0.0
 13
37.352
 23
41.7888489656
 33
0.0
  0
LINE
  5
34B
330
346
100
AcDbEntity
  8
SK2
100
AcDbLine
 10
63.0
 20
19.4944465005
 30
0.0
 11
63.0
 21
42.2808489656
 31
0.0
  0
LINE
  5
34C
330
346
100
AcDbEntity
  8
SK2
100
AcDbLine
 10
34.05
 20
23.5824099787
 30
0.0
 11
34.05
 21
42.2808489656
 31
0.0
  0
LINE
  5
34D
330
346
100
AcDbEntity
  8
SK2
100
AcDbLine
 10
63.0
 20
41.2808489656
 30
0.0
 11
34.05
 21
41.2808489656
 31
0.0
  0
MTEXT
  5
34E
330
346
100
AcDbEntity
  8
SK2
100
AcDbMText
 10
42.887757802
 20
45.7925858801
 30
0.0
 40
3.5
 41
0.0
 71
     1
 72
     1
  1
28,95
  7
SLDTEXTSTYLE0
 73
     1
 44
1.0
  0
ENDBLK
  5
348
330
346
100
AcDbEntity
  8
0
100
AcDbBlockEnd
  0
BLOCK
  5
351
330
350
100
AcDbEntity
  8
0
100
AcDbBlockBegin
  2
_D_5
 70
     0
 10
0.0
 20
0.0
 30
0.0
  3
_D_5
  1

  0
SOLID
  5
353
330
350
100
AcDbEntity
  8
2
100
AcDbTrace
 10
0.0
 20
60.3220100756
 30
0.0
 11
3.302
 21
59.8140100756
 31
0.0
 12
3.302
 22
60.8300100756
 32
0.0
 13
3.302
 23
60.8300100756
 33
0.0
  0
SOLID
  5
354
330
350
100
AcDbEntity
  8
2
100
AcDbTrace
 10
63.0
 20
60.3220100756
 30
0.0
 11
59.698
 21
60.8300100756
 31
0.0
 12
59.698
 22
59.8140100756
 32
0.0
 13
59.698
 23
59.8140100756
 33
0.0
  0
LINE
  5
355
330
350
100
AcDbEntity
  8
2
100
AcDbLine
 10
0.0
 20
23.225
 30
0.0
 11
0.0
 21
61.3220100756
 31
0.0
  0
LINE
  5
356
330
350
100
AcDbEntity
  8
2
100
AcDbLine
 10
63.0
 20
19.4944465005
 30
0.0
 11
63.0
 21
61.3220100756
 31
0.0
  0
LINE
  5
357
330
350
100
AcDbEntity
  8
2
100
AcDbLine
 10
0.0
 20
60.3220100756
 30
0.0
 11
63.0
 21
60.3220100756
 31
0.0
  0
MTEXT
  5
358
330
350
100
AcDbEntity
  8
2
100
AcDbMText
 10
28.0648352024
 20
64.8337469902
 30
0.0
 40
3.5
 41
0.0
 71
     1
 72
     1
  1
63
  7
SLDTEXTSTYLE0
 73
     1
 44
1.0
  0
ENDBLK
  5
352
330
350
100
AcDbEntity
  8
0
100
AcDbBlockEnd
  0
BLOCK
  5
35B
330
35A
100
AcDbEntity
  8
0
100
AcDbBlockBegin
  2
_D_6
 70
     0
 10
0.0
 20
0.0
 30
0.0
  3
_D_6
  1

  0
SOLID
  5
35D
330
35A
100
AcDbEntity
  8
SK2
100
AcDbTrace
 10
92.2855662975
 20
-18.4944465005
 30
0.0
 11
92.7935662975
 21
-15.1924465005
 31
0.0
 12
91.7775662975
 22
-15.1924465005
 32
0.0
 13
91.7775662975
 23
-15.1924465005
 33
0.0
  0
SOLID
  5
35E
330
35A
100
AcDbEntity
  8
SK2
100
AcDbTrace
 10
92.2855662975
 20
18.4944465005
 30
0.0
 11
91.7775662975
 21
15.1924465005
 31
0.0
 12
92.7935662975
 22
15.1924465005
 32
0.0
 13
92.7935662975
 23
15.1924465005
 33
0.0
  0
LINE
  5
35F
330
35A
100
AcDbEntity
  8
SK2
100
AcDbLine
 10
64.0
 20
-18.4944465005
 30
0.0
 11
93.2855662975
 21
-18.4944465005
 31
0.0
  0
LINE
  5
360
330
35A
100
AcDbEntity
  8
SK2
100
AcDbLine
 10
64.0
 20
18.4944465005
 30
0.0
 11
93.2855662975
 21
18.4944465005
 31
0.0
  0
LINE
  5
361
330
35A
100
AcDbEntity
  8
SK2
100
AcDbLine
 10
92.2855662975
 20
-18.4944465005
 30
0.0
 11
92.2855662975
 21
18.4944465005
 31
0.0
  0
MTEXT
  5
362
330
35A
100
AcDbEntity
  8
SK2
100
AcDbMText
 10
87.7738292083
 20
-5.8019765992
 30
0.0
 40
3.5
 41
0.0
 71
     1
 72
     1
  1
%%c
  7
SLDTEXTSTYLE0
 11
6.123233995736766E-17
 21
1.0
 31
0.0
 73
     1
 44
1.0
  0
MTEXT
  5
363
330
35A
100
AcDbEntity
  8
SK2
100
AcDbMText
 10
87.7203570316
 20
-0.5235392008
 30
0.0
 40
3.5
 41
0.0
 71
     1
 72
     1
  1
37
  7
SLDTEXTSTYLE0
 11
6.123233995736766E-17
 21
1.0
 31
0.0
 73
     1
 44
1.0
  0
ENDBLK
  5
35C
330
35A
100
AcDbEntity
  8
0
100
AcDbBlockEnd
  0
BLOCK
  5
366
330
365
100
AcDbEntity
  8
0
100
AcDbBlockBegin
  2
_D_7
 70
     0
 10
0.0
 20
0.0
 30
0.0
  3
_D_7
  1

  0
SOLID
  5
368
330
365
100
AcDbEntity
  8
SK2
100
AcDbTrace
 10
81.5055095314
 20
-10.0
 30
0.0
 11
82.0135095314
 21
-6.698
 31
0.0
 12
80.9975095314
 22
-6.698
 32
0.0
 13
80.9975095314
 23
-6.698
 33
0.0
  0
SOLID
  5
369
330
365
100
AcDbEntity
  8
SK2
100
AcDbTrace
 10
81.5055095314
 20
10.0
 30
0.0
 11
80.9975095314
 21
6.698
 31
0.0
 12
82.0135095314
 22
6.698
 32
0.0
 13
82.0135095314
 23
6.698
 33
0.0
  0
LINE
  5
36A
330
365
100
AcDbEntity
  8
SK2
100
AcDbLine
 10
63.0
 20
-10.0
 30
0.0
 11
82.5055095314
 21
-10.0
 31
0.0
  0
LINE
  5
36B
330
365
100
AcDbEntity
  8
SK2
100
AcDbLine
 10
63.0
 20
10.0
 30
0.0
 11
82.5055095314
 21
10.0
 31
0.0
  0
LINE
  5
36C
330
365
100
AcDbEntity
  8
SK2
100
AcDbLine
 10
81.5055095314
 20
-10.0
 30
0.0
 11
81.5055095314
 21
10.0
 31
0.0
  0
MTEXT
  5
36D
330
365
100
AcDbEntity
  8
SK2
100
AcDbMText
 10
76.9937724422
 20
-5.8019765992
 30
0.0
 40
3.5
 41
0.0
 71
     1
 72
     1
  1
%%c
  7
SLDTEXTSTYLE0
 11
6.123233995736766E-17
 21
1.0
 31
0.0
 73
     1
 44
1.0
  0
MTEXT
  5
36E
330
365
100
AcDbEntity
  8
SK2
100
AcDbMText
 10
76.9403002656
 20
-0.5235392008
 30
0.0
 40
3.5
 41
0.0
 71
     1
 72
     1
  1
20
  7
SLDTEXTSTYLE0
 11
6.123233995736766E-17
 21
1.0
 31
0.0
 73
     1
 44
1.0
  0
ENDBLK
  5
367
330
365
100
AcDbEntity
  8
0
100
AcDbBlockEnd
  0
BLOCK
  5
371
330
370
100
AcDbEntity
  8
0
100
AcDbBlockBegin
  2
_D_8
 70
     0
 10
0.0
 20
0.0
 30
0.0
  3
_D_8
  1

  0
SOLID
  5
373
330
370
100
AcDbEntity
  8
SK2
100
AcDbTrace
 10
-86.6361650729
 20
22.225
 30
0.0
 11
-87.1441650729
 21
18.923
 31
0.0
 12
-86.1281650729
 22
18.923
 32
0.0
 13
-86.1281650729
 23
18.923
 33
0.0
  0
SOLID
  5
374
330
370
100
AcDbEntity
  8
SK2
100
AcDbTrace
 10
-86.6361650729
 20
-22.225
 30
0.0
 11
-86.1281650729
 21
-18.923
 31
0.0
 12
-87.1441650729
 22
-18.923
 32
0.0
 13
-87.1441650729
 23
-18.923
 33
0.0
  0
LINE
  5
375
330
370
100
AcDbEntity
  8
SK2
100
AcDbLine
 10
-1.0
 20
22.225
 30
0.0
 11
-87.6361650729
 21
22.225
 31
0.0
  0
LINE
  5
376
330
370
100
AcDbEntity
  8
SK2
100
AcDbLine
 10
-1.0
 20
-22.225
 30
0.0
 11
-87.6361650729
 21
-22.225
 31
0.0
  0
LINE
  5
377
330
370
100
AcDbEntity
  8
SK2
100
AcDbLine
 10
-86.6361650729
 20
22.225
 30
0.0
 11
-86.6361650729
 21
-22.225
 31
0.0
  0
MTEXT
  5
378
330
370
100
AcDbEntity
  8
SK2
100
AcDbMText
 10
-91.1479021621
 20
-9.0346154164
 30
0.0
 40
3.5
 41
0.0
 71
     1
 72
     1
  1
%%c
  7
SLDTEXTSTYLE0
 11
-7.044195017643634E-15
 21
1.0
 31
0.0
 73
     1
 44
1.0
  0
MTEXT
  5
379
330
370
100
AcDbEntity
  8
SK2
100
AcDbMText
 10
-91.2013743388
 20
-3.7561780181
 30
0.0
 40
3.5
 41
0.0
 71
     1
 72
     1
  1
44,45
  7
SLDTEXTSTYLE0
 11
-7.044195017643634E-15
 21
1.0
 31
0.0
 73
     1
 44
1.0
  0
ENDBLK
  5
372
330
370
100
AcDbEntity
  8
0
100
AcDbBlockEnd
  0
BLOCK
  5
37C
330
37B
100
AcDbEntity
  8
0
100
AcDbBlockBegin
  2
_D_9
 70
     0
 10
0.0
 20
0.0
 30
0.0
  3
_D_9
  1

  0
SOLID
  5
37E
330
37B
100
AcDbEntity
  8
SK2
100
AcDbTrace
 10
-98.5293968421
 20
31.75
 30
0.0
 11
-99.0373968421
 21
28.448
 31
0.0
 12
-98.0213968421
 22
28.448
 32
0.0
 13
-98.0213968421
 23
28.448
 33
0.0
  0
SOLID
  5
37F
330
37B
100
AcDbEntity
  8
SK2
100
AcDbTrace
 10
-98.5293968421
 20
-31.75
 30
0.0
 11
-98.0213968421
 21
-28.448
 31
0.0
 12
-99.0373968421
 22
-28.448
 32
0.0
 13
-99.0373968421
 23
-28.448
 33
0.0
  0
LINE
  5
380
330
37B
100
AcDbEntity
  8
SK2
100
AcDbLine
 10
2.95
 20
31.75
 30
0.0
 11
-99.5293968421
 21
31.75
 31
0.0
  0
LINE
  5
381
330
37B
100
AcDbEntity
  8
SK2
100
AcDbLine
 10
2.95
 20
-31.75
 30
0.0
 11
-99.5293968421
 21
-31.75
 31
0.0
  0
LINE
  5
382
330
37B
100
AcDbEntity
  8
SK2
100
AcDbLine
 10
-98.5293968421
 20
31.75
 30
0.0
 11
-98.5293968421
 21
-31.75
 31
0.0
  0
MTEXT
  5
383
330
37B
100
AcDbEntity
  8
SK2
100
AcDbMText
 10
-103.0411339313
 20
-7.7415601689
 30
0.0
 40
3.5
 41
0.0
 71
     1
 72
     1
  1
%%c
  7
SLDTEXTSTYLE0
 11
-7.044195017643634E-15
 21
1.0
 31
0.0
 73
     1
 44
1.0
  0
MTEXT
  5
384
330
37B
100
AcDbEntity
  8
SK2
100
AcDbMText
 10
-103.094606108
 20
-2.4631227706
 30
0.0
 40
3.5
 41
0.0
 71
     1
 72
     1
  1
63,5
  7
SLDTEXTSTYLE0
 11
-7.044195017643634E-15
 21
1.0
 31
0.0
 73
     1
 44
1.0
  0
ENDBLK
  5
37D
330
37B
100
AcDbEntity
  8
0
100
AcDbBlockEnd
  0
BLOCK
  5
387
330
386
100
AcDbEntity
  8
0
100
AcDbBlockBegin
  2
_D_10
 70
     0
 10
0.0
 20
0.0
 30
0.0
  3
_D_10
  1

  0
SOLID
  5
389
330
386
100
AcDbEntity
  8
SK2
100
AcDbTrace
 10
-75.9770759161
 20
-8.00000038
 30
0.0
 11
-75.4690759161
 21
-4.69800038
 31
0.0
 12
-76.4850759161
 22
-4.69800038
 32
0.0
 13
-76.4850759161
 23
-4.69800038
 33
0.0
  0
SOLID
  5
38A
330
386
100
AcDbEntity
  8
SK2
100
AcDbTrace
 10
-75.9770759161
 20
8.00000038
 30
0.0
 11
-76.4850759161
 21
4.69800038
 31
0.0
 12
-75.4690759161
 22
4.69800038
 32
0.0
 13
-75.4690759161
 23
4.69800038
 33
0.0
  0
LINE
  5
38B
330
386
100
AcDbEntity
  8
SK2
100
AcDbLine
 10
-58.2881214321
 20
-8.00000038
 30
0.0
 11
-76.9770759161
 21
-8.00000038
 31
0.0
  0
LINE
  5
38C
330
386
100
AcDbEntity
  8
SK2
100
AcDbLine
 10
-58.2881214321
 20
8.00000038
 30
0.0
 11
-76.9770759161
 21
8.00000038
 31
0.0
  0
LINE
  5
38D
330
386
100
AcDbEntity
  8
SK2
100
AcDbLine
 10
-75.9770759161
 20
-8.00000038
 30
0.0
 11
-75.9770759161
 21
8.00000038
 31
0.0
  0
MTEXT
  5
38E
330
386
100
AcDbEntity
  8
SK2
100
AcDbMText
 10
-80.4888128307
 20
-4.3436555279
 30
0.0
 40
3.5
 41
0.0
 71
     1
 72
     1
  1
M
  7
SLDTEXTSTYLE0
 11
3.835990623682900E-15
 21
1.0
 31
0.0
 73
     1
 44
1.0
  0
MTEXT
  5
38F
330
386
100
AcDbEntity
  8
SK2
100
AcDbMText
 10
-80.4888128307
 20
-0.0561555934
 30
0.0
 40
3.5
 41
0.0
 71
     1
 72
     1
  1
16
  7
SLDTEXTSTYLE0
 11
3.835990623682900E-15
 21
1.0
 31
0.0
 73
     1
 44
1.0
  0
ENDBLK
  5
388
330
386
100
AcDbEntity
  8
0
100
AcDbBlockEnd
  0
BLOCK
  5
392
330
391
100
AcDbEntity
  8
0
100
AcDbBlockBegin
  2
_D_11
 70
     0
 10
0.0
 20
0.0
 30
0.0
  3
_D_11
  1

  0
SOLID
  5
394
330
391
100
AcDbEntity
  8
SK2
100
AcDbTrace
 10
63.0
 20
-35.6260547583
 30
0.0
 11
59.698
 21
-35.1180547583
 31
0.0
 12
59.698
 22
-36.1340547583
 32
0.0
 13
59.698
 23
-36.1340547583
 33
0.0
  0
SOLID
  5
395
330
391
100
AcDbEntity
  8
SK2
100
AcDbTrace
 10
38.0
 20
-35.6260547583
 30
0.0
 11
41.302
 21
-36.1340547583
 31
0.0
 12
41.302
 22
-35.1180547583
 32
0.0
 13
41.302
 23
-35.1180547583
 33
0.0
  0
LINE
  5
396
330
391
100
AcDbEntity
  8
SK2
100
AcDbLine
 10
63.0
 20
-19.4944465005
 30
0.0
 11
63.0
 21
-36.6260547583
 31
0.0
  0
LINE
  5
397
330
391
100
AcDbEntity
  8
SK2
100
AcDbLine
 10
38.0
 20
-26.8176376691
 30
0.0
 11
38.0
 21
-36.6260547583
 31
0.0
  0
LINE
  5
398
330
391
100
AcDbEntity
  8
SK2
100
AcDbLine
 10
63.0
 20
-35.6260547583
 30
0.0
 11
38.0
 21
-35.6260547583
 31
0.0
  0
MTEXT
  5
399
330
391
100
AcDbEntity
  8
SK2
100
AcDbMText
 10
48.1476149739
 20
-31.1143178437
 30
0.0
 40
3.5
 41
0.0
 71
     1
 72
     1
  1
25
  7
SLDTEXTSTYLE0
 73
     1
 44
1.0
  0
ENDBLK
  5
393
330
391
100
AcDbEntity
  8
0
100
AcDbBlockEnd
  0
BLOCK
  5
39C
330
39B
100
AcDbEntity
  8
0
100
AcDbBlockBegin
  2
_D_12
 70
     0
 10
0.0
 20
0.0
 30
0.0
  3
_D_12
  1

  0
SOLID
  5
39E
330
39B
100
AcDbEntity
  8
SK2
100
AcDbTrace
 10
63.0
 20
-44.4574074971
 30
0.0
 11
59.698
 21
-43.9494074971
 31
0.0
 12
59.698
 22
-44.9654074971
 32
0.0
 13
59.698
 23
-44.9654074971
 33
0.0
  0
SOLID
  5
39F
330
39B
100
AcDbEntity
  8
SK2
100
AcDbTrace
 10
14.0
 20
-44.4574074971
 30
0.0
 11
17.302
 21
-44.9654074971
 31
0.0
 12
17.302
 22
-43.9494074971
 32
0.0
 13
17.302
 23
-43.9494074971
 33
0.0
  0
LINE
  5
3A0
330
39B
100
AcDbEntity
  8
SK2
100
AcDbLine
 10
63.0
 20
-19.4944465005
 30
0.0
 11
63.0
 21
-45.4574074971
 31
0.0
  0
LINE
  5
3A1
330
39B
100
AcDbEntity
  8
SK2
100
AcDbLine
 10
14.0
 20
-11.0
 30
0.0
 11
14.0
 21
-45.4574074971
 31
0.0
  0
LINE
  5
3A2
330
39B
100
AcDbEntity
  8
SK2
100
AcDbLine
 10
63.0
 20
-44.4574074971
 30
0.0
 11
14.0
 21
-44.4574074971
 31
0.0
  0
MTEXT
  5
3A3
330
39B
100
AcDbEntity
  8
SK2
100
AcDbMText
 10
37.9921951251
 20
-39.9456705825
 30
0.0
 40
3.5
 41
0.0
 71
     1
 72
     1
  1
49
  7
SLDTEXTSTYLE0
 73
     1
 44
1.0
  0
ENDBLK
  5
39D
330
39B
100
AcDbEntity
  8
0
100
AcDbBlockEnd
  0
BLOCK
  5
3A6
330
3A5
100
AcDbEntity
  8
0
100
AcDbBlockBegin
  2
SW_NOTE_0
 70
     0
 10
0.0
 20
0.0
 30
0.0
  3
SW_NOTE_0
  1

  0
MTEXT
  5
3A8
330
3A5
100
AcDbEntity
  8
SK6
 62
     0
100
AcDbMText
 10
0.0
 20
4.5117370892
 30
0.0
 40
3.5
 41
0.0
 71
     1
 72
     1
  1
TAPER ISO 40
  7
SLDTEXTSTYLE0
 73
     1
 44
1.0
  0
MTEXT
  5
3A9
330
3A5
100
AcDbEntity
  8
SK6
 62
     0
100
AcDbMText
 10
0.0
 20
-0.0139574413
 30
0.0
 40
3.5
 41
0.0
 71
     1
 72
     1
  1
DIN 69871-AD/B
  7
SLDTEXTSTYLE0
 73
     1
 44
1.0
  0
ENDBLK
  5
3A7
330
3A5
100
AcDbEntity
  8
0
100
AcDbBlockEnd
  0
ENDSEC
  0
SECTION
  2
ENTITIES
  0
LINE
  5
92
330
1F
100
AcDbEntity
  8
1
  6
SLD-Solid
370
    25
100
AcDbLine
 10
7.5931633579
 20
31.75
 30
0.0
 11
3.95
 21
31.75
 31
0.0
  0
LINE
  5
93
330
1F
100
AcDbEntity
  8
1
  6
SLD-Solid
370
    25
100
AcDbLine
 10
18.3
 20
31.75
 30
0.0
 11
14.6368366421
 21
31.75
 31
0.0
  0
LINE
  5
94
330
1F
100
AcDbEntity
  8
1
  6
SLD-Solid
370
    25
100
AcDbLine
 10
14.6368366421
 20
31.75
 30
0.0
 11
13.03
 21
28.9668772965
 31
0.0
  0
LINE
  5
95
330
1F
100
AcDbEntity
  8
1
  6
SLD-Solid
370
    25
100
AcDbLine
 10
9.2
 20
28.9668772965
 30
0.0
 11
7.5931633579
 21
31.75
 31
0.0
  0
LINE
  5
96
330
1F
100
AcDbEntity
  8
1
  6
SLD-Solid
370
    25
100
AcDbLine
 10
47.125
 20
-26.0
 30
0.0
 11
50.0
 21
-26.0
 31
0.0
  0
LINE
  5
97
330
1F
100
AcDbEntity
  8
1
  6
SLD-Solid
370
    25
100
AcDbLine
 10
50.0
 20
26.0
 30
0.0
 11
47.768614641
 21
26.0
 31
0.0
  0
LINE
  5
98
330
1F
100
AcDbEntity
  8
1
  6
SLD-Solid
370
    25
100
AcDbLine
 10
50.0
 20
-26.0
 30
0.0
 11
63.0
 21
-18.4944465005
 31
0.0
  0
LINE
  5
99
330
1F
100
AcDbEntity
  8
1
  6
SLD-Solid
370
    25
100
AcDbLine
 10
63.0
 20
18.4944465005
 30
0.0
 11
50.0
 21
26.0
 31
0.0
  0
LINE
  5
9A
330
1F
100
AcDbEntity
  8
1
  6
SLD-Solid
370
    25
100
AcDbLine
 10
21.05
 20
-24.0
 30
0.0
 11
28.9044285637
 21
-24.0
 31
0.0
  0
LINE
  5
9B
330
1F
100
AcDbEntity
  8
1
  6
SLD-Solid
370
    25
100
AcDbLine
 10
29.8657188234
 20
24.0
 30
0.0
 11
21.05
 21
24.0
 31
0.0
  0
LINE
  5
9C
330
1F
100
AcDbEntity
  8
1
  6
SLD-Solid
370
    25
100
AcDbLine
 10
0.0
 20
-22.225
 30
0.0
 11
1.8869952227
 21
-22.225
 31
0.0
  0
LINE
  5
9D
330
1F
100
AcDbEntity
  8
1
  6
SLD-Solid
370
    25
100
AcDbLine
 10
1.8869952227
 20
22.225
 30
0.0
 11
0.0
 21
22.225
 31
0.0
  0
LINE
  5
9E
330
1F
100
AcDbEntity
  8
1
  6
SLD-Solid
370
    25
100
AcDbLine
 10
1.8869952227
 20
-22.225
 30
0.0
 11
2.1330363037
 21
-22.1102691597
 31
0.0
  0
LINE
  5
9F
330
1F
100
AcDbEntity
  8
1
  6
SLD-Solid
370
    25
100
AcDbLine
 10
2.1330363037
 20
22.1102691597
 30
0.0
 11
1.8869952227
 21
22.225
 31
0.0
  0
LINE
  5
A0
330
1F
100
AcDbEntity
  8
SK1
  6
SLD-Solid
370
    25
100
AcDbLine
 10
0.0
 20
22.225
 30
0.0
 11
-67.3943082273
 21
12.3965705827
 31
0.0
  0
LINE
  5
A1
330
1F
100
AcDbEntity
  8
SK1
  6
SLD-Solid
370
    25
100
AcDbLine
 10
-67.3943082273
 20
-12.3965705827
 30
0.0
 11
0.0
 21
-22.225
 31
0.0
  0
LINE
  5
A2
330
1F
100
AcDbEntity
  8
1
  6
SLD-Solid
370
    25
100
AcDbLine
 10
3.95
 20
-31.75
 30
0.0
 11
7.5931633579
 21
-31.75
 31
0.0
  0
LINE
  5
A3
330
1F
100
AcDbEntity
  8
1
  6
SLD-Solid
370
    25
100
AcDbLine
 10
14.6368366421
 20
-31.75
 30
0.0
 11
18.3
 21
-31.75
 31
0.0
  0
LINE
  5
A4
330
1F
100
AcDbEntity
  8
1
  6
SLD-Solid
370
    25
100
AcDbLine
 10
13.03
 20
-28.9668772965
 30
0.0
 11
14.6368366421
 21
-31.75
 31
0.0
  0
LINE
  5
A5
330
1F
100
AcDbEntity
  8
1
  6
SLD-Solid
370
    25
100
AcDbLine
 10
9.95
 20
-28.0
 30
0.0
 11
12.28
 21
-28.0
 31
0.0
  0
LINE
  5
A6
330
1F
100
AcDbEntity
  8
1
  6
SLD-Solid
370
    25
100
AcDbLine
 10
7.5931633579
 20
-31.75
 30
0.0
 11
9.2
 21
-28.9668772965
 31
0.0
  0
LINE
  5
A7
330
1F
100
AcDbEntity
  8
1
  6
SLD-Solid
370
    25
100
AcDbLine
 10
12.28
 20
28.0
 30
0.0
 11
9.95
 21
28.0
 31
0.0
  0
LINE
  5
A8
330
1F
100
AcDbEntity
  8
1
  6
SLD-Solid
370
    25
100
AcDbLine
 10
18.55
 20
-8.095
 30
0.0
 11
19.05
 21
-8.595
 31
0.0
  0
LINE
  5
A9
330
1F
100
AcDbEntity
  8
1
  6
SLD-Solid
370
    25
100
AcDbLine
 10
14.2709083079
 20
-8.095
 30
0.0
 11
18.3
 21
-8.095
 31
0.0
  0
LINE
  5
AA
330
1F
100
AcDbEntity
  8
1
  6
SLD-Solid
370
    25
100
AcDbLine
 10
18.3
 20
-8.73252
 30
0.0
 11
14.6368366421
 21
-8.73252
 31
0.0
  0
LINE
  5
AB
330
1F
100
AcDbEntity
  8
1
  6
SLD-Solid
370
    25
100
AcDbLine
 10
3.2
 20
8.595
 30
0.0
 11
3.7
 21
8.095
 31
0.0
  0
LINE
  5
AC
330
1F
100
AcDbEntity
  8
1
  6
SLD-Solid
370
    25
100
AcDbLine
 10
3.95
 20
8.73252
 30
0.0
 11
7.5931633579
 21
8.73252
 31
0.0
  0
LINE
  5
AD
330
1F
100
AcDbEntity
  8
1
  6
SLD-Solid
370
    25
100
AcDbLine
 10
7.5931633579
 20
8.73252
 30
0.0
 11
7.5931633579
 21
31.75
 31
0.0
  0
LINE
  5
AE
330
1F
100
AcDbEntity
  8
1
  6
SLD-Solid
370
    25
100
AcDbLine
 10
3.2
 20
8.595
 30
0.0
 11
3.2
 21
31.0
 31
0.0
  0
LINE
  5
AF
330
1F
100
AcDbEntity
  8
1
  6
SLD-Solid
370
    25
100
AcDbLine
 10
7.9590916921
 20
8.095
 30
0.0
 11
3.95
 21
8.095
 31
0.0
  0
LINE
  5
B0
330
1F
100
AcDbEntity
  8
1
  6
SLD-Solid
370
    25
100
AcDbLine
 10
19.05
 20
-18.35
 30
0.0
 11
19.05
 21
-8.595
 31
0.0
  0
LINE
  5
B1
330
1F
100
AcDbEntity
  8
1
  6
SLD-Solid
370
    25
100
AcDbLine
 10
14.6368366421
 20
-18.35
 30
0.0
 11
18.3
 21
-18.35
 31
0.0
  0
LINE
  5
B2
330
1F
100
AcDbEntity
  8
1
  6
SLD-Solid
370
    25
100
AcDbLine
 10
14.6368366421
 20
-18.35
 30
0.0
 11
14.6368366421
 21
-8.73252
 31
0.0
  0
LINE
  5
B3
330
1F
100
AcDbEntity
  8
1
  6
SLD-Solid
370
    25
100
AcDbLine
 10
19.05
 20
8.595
 30
0.0
 11
19.05
 21
31.0
 31
0.0
  0
LINE
  5
B4
330
1F
100
AcDbEntity
  8
1
  6
SLD-Solid
370
    25
100
AcDbLine
 10
14.6368366421
 20
8.73252
 30
0.0
 11
18.3
 21
8.73252
 31
0.0
  0
LINE
  5
B5
330
1F
100
AcDbEntity
  8
1
  6
SLD-Solid
370
    25
100
AcDbLine
 10
18.3
 20
8.095
 30
0.0
 11
14.2709083079
 21
8.095
 31
0.0
  0
LINE
  5
B6
330
1F
100
AcDbEntity
  8
1
  6
SLD-Solid
370
    25
100
AcDbLine
 10
18.55
 20
8.095
 30
0.0
 11
19.05
 21
8.595
 31
0.0
  0
LINE
  5
B7
330
1F
100
AcDbEntity
  8
1
  6
SLD-Solid
370
    25
100
AcDbLine
 10
14.6368366421
 20
8.73252
 30
0.0
 11
14.6368366421
 21
31.75
 31
0.0
  0
LINE
  5
B8
330
1F
100
AcDbEntity
  8
1
  6
SLD-Solid
370
    25
100
AcDbLine
 10
7.5931633579
 20
-8.73252
 30
0.0
 11
3.95
 21
-8.73252
 31
0.0
  0
LINE
  5
B9
330
1F
100
AcDbEntity
  8
1
  6
SLD-Solid
370
    25
100
AcDbLine
 10
3.95
 20
-8.095
 30
0.0
 11
7.9590916921
 21
-8.095
 31
0.0
  0
LINE
  5
BA
330
1F
100
AcDbEntity
  8
1
  6
SLD-Solid
370
    25
100
AcDbLine
 10
3.2
 20
-8.595
 30
0.0
 11
3.7
 21
-8.095
 31
0.0
  0
LINE
  5
BB
330
1F
100
AcDbEntity
  8
1
  6
SLD-Solid
370
    25
100
AcDbLine
 10
3.95
 20
-18.35
 30
0.0
 11
7.5931633579
 21
-18.35
 31
0.0
  0
LINE
  5
BC
330
1F
100
AcDbEntity
  8
1
  6
SLD-Solid
370
    25
100
AcDbLine
 10
7.5931633579
 20
-18.35
 30
0.0
 11
7.5931633579
 21
-8.73252
 31
0.0
  0
LINE
  5
BD
330
1F
100
AcDbEntity
  8
1
  6
SLD-Solid
370
    25
100
AcDbLine
 10
3.2
 20
-18.35
 30
0.0
 11
3.2
 21
-8.595
 31
0.0
  0
LINE
  5
BE
330
1F
100
AcDbEntity
  8
1
  6
SLD-Solid
370
    25
100
AcDbLine
 10
13.03
 20
8.095
 30
0.0
 11
13.03
 21
27.0172626808
 31
0.0
  0
LINE
  5
BF
330
1F
100
AcDbEntity
  8
1
  6
SLD-Solid
370
    25
100
AcDbLine
 10
13.03
 20
27.4118626313
 30
0.0
 11
13.03
 21
28.9668772965
 31
0.0
  0
LINE
  5
C0
330
1F
100
AcDbEntity
  8
1
  6
SLD-Solid
370
    25
100
AcDbLine
 10
13.03
 20
-18.35
 30
0.0
 11
13.03
 21
-8.095
 31
0.0
  0
LINE
  5
C1
330
1F
100
AcDbEntity
  8
1
  6
SLD-Solid
370
    25
100
AcDbLine
 10
9.2
 20
27.4118626313
 30
0.0
 11
9.2
 21
28.9668772965
 31
0.0
  0
LINE
  5
C2
330
1F
100
AcDbEntity
  8
1
  6
SLD-Solid
370
    25
100
AcDbLine
 10
9.2
 20
8.095
 30
0.0
 11
9.2
 21
27.0172626808
 31
0.0
  0
LINE
  5
C3
330
1F
100
AcDbEntity
  8
1
  6
SLD-Solid
370
    25
100
AcDbLine
 10
9.2
 20
-18.35
 30
0.0
 11
9.2
 21
-8.095
 31
0.0
  0
LINE
  5
C4
330
1F
100
AcDbEntity
  8
1
  6
SLD-Solid
370
    25
100
AcDbLine
 10
9.95
 20
8.095
 30
0.0
 11
12.28
 21
8.095
 31
0.0
  0
LINE
  5
C5
330
1F
100
AcDbEntity
  8
1
  6
SLD-Solid
370
    25
100
AcDbLine
 10
9.95
 20
-18.35
 30
0.0
 11
12.28
 21
-18.35
 31
0.0
  0
LINE
  5
C6
330
1F
100
AcDbEntity
  8
1
  6
SLD-Solid
370
    25
100
AcDbLine
 10
12.28
 20
-8.095
 30
0.0
 11
9.95
 21
-8.095
 31
0.0
  0
LINE
  5
C7
330
1F
100
AcDbEntity
  8
1
  6
SLD-Solid
370
    25
100
AcDbLine
 10
34.05
 20
-23.9
 30
0.0
 11
34.05
 21
22.5824099787
 31
0.0
  0
LINE
  5
C8
330
1F
100
AcDbEntity
  8
1
  6
SLD-Solid
370
    25
100
AcDbLine
 10
50.0
 20
-26.0
 30
0.0
 11
50.0
 21
26.0
 31
0.0
  0
LINE
  5
C9
330
1F
100
AcDbEntity
  8
1
  6
SLD-Solid
370
    25
100
AcDbLine
 10
63.0
 20
-18.4944465005
 30
0.0
 11
63.0
 21
18.4944465005
 31
0.0
  0
LINE
  5
CA
330
1F
100
AcDbEntity
  8
1
  6
SLD-Solid
370
    25
100
AcDbLine
 10
19.05
 20
-8.3352720352
 30
0.0
 11
19.05
 21
-8.595
 31
0.0
  0
LINE
  5
CB
330
1F
100
AcDbEntity
  8
1
  6
SLD-Solid
370
    25
100
AcDbLine
 10
19.05
 20
8.595
 30
0.0
 11
19.05
 21
8.3352720352
 31
0.0
  0
LINE
  5
CC
330
1F
100
AcDbEntity
  8
1
  6
SLD-Solid
370
    25
100
AcDbLine
 10
3.2
 20
-8.595
 30
0.0
 11
3.2
 21
-7.595
 31
0.0
  0
LINE
  5
CD
330
1F
100
AcDbEntity
  8
1
  6
SLD-Solid
370
    25
100
AcDbLine
 10
3.2
 20
7.595
 30
0.0
 11
3.2
 21
8.595
 31
0.0
  0
LINE
  5
CE
330
1F
100
AcDbEntity
  8
1
  6
SLD-Solid
370
    25
100
AcDbLine
 10
3.2
 20
-7.595
 30
0.0
 11
3.2
 21
7.595
 31
0.0
  0
LINE
  5
CF
330
1F
100
AcDbEntity
  8
1
  6
SLD-Solid
370
    25
100
AcDbLine
 10
31.350939916
 20
-23.9
 30
0.0
 11
29.1413530943
 21
-23.9
 31
0.0
  0
LINE
  5
D0
330
1F
100
AcDbEntity
  8
1
  6
SLD-Solid
370
    25
100
AcDbLine
 10
0.0
 20
-22.225
 30
0.0
 11
0.0
 21
22.225
 31
0.0
  0
LINE
  5
D1
330
1F
100
AcDbEntity
  8
1
  6
SLD-Solid
370
    25
100
AcDbLine
 10
3.2
 20
-18.85
 30
0.0
 11
3.2
 21
-18.35
 31
0.0
  0
LINE
  5
D2
330
1F
100
AcDbEntity
  8
1
  6
SLD-Solid
370
    25
100
AcDbLine
 10
19.05
 20
-18.35
 30
0.0
 11
19.05
 21
-18.85
 31
0.0
  0
LINE
  5
D3
330
1F
100
AcDbEntity
  8
1
  6
SLD-Solid
370
    25
100
AcDbLine
 10
3.2
 20
-31.0
 30
0.0
 11
3.2
 21
-24.9855458216
 31
0.0
  0
LINE
  5
D4
330
1F
100
AcDbEntity
  8
1
  6
SLD-Solid
370
    25
100
AcDbLine
 10
7.5931633579
 20
-25.91022964
 30
0.0
 11
3.95
 21
-25.91022964
 31
0.0
  0
LINE
  5
D5
330
1F
100
AcDbEntity
  8
1
  6
SLD-Solid
370
    25
100
AcDbLine
 10
7.5931633579
 20
-31.75
 30
0.0
 11
7.5931633579
 21
-25.91022964
 31
0.0
  0
LINE
  5
D6
330
1F
100
AcDbEntity
  8
1
  6
SLD-Solid
370
    25
100
AcDbLine
 10
18.3
 20
-25.91022964
 30
0.0
 11
14.6368366421
 21
-25.91022964
 31
0.0
  0
LINE
  5
D7
330
1F
100
AcDbEntity
  8
1
  6
SLD-Solid
370
    25
100
AcDbLine
 10
14.6368366421
 20
-31.75
 30
0.0
 11
14.6368366421
 21
-25.91022964
 31
0.0
  0
LINE
  5
D8
330
1F
100
AcDbEntity
  8
1
  6
SLD-Solid
370
    25
100
AcDbLine
 10
19.05
 20
-31.0
 30
0.0
 11
19.05
 21
-24.9855458215
 31
0.0
  0
LINE
  5
D9
330
1F
100
AcDbEntity
  8
1
  6
SLD-Solid
370
    25
100
AcDbLine
 10
12.28
 20
-21.1489361435
 30
0.0
 11
9.95
 21
-21.1489361435
 31
0.0
  0
LINE
  5
DA
330
1F
100
AcDbEntity
  8
1
  6
SLD-Solid
370
    25
100
AcDbLine
 10
13.03
 20
-22.4133326462
 30
0.0
 11
13.03
 21
-22.1323292945
 31
0.0
  0
LINE
  5
DB
330
1F
100
AcDbEntity
  8
1
  6
SLD-Solid
370
    25
100
AcDbLine
 10
9.2
 20
-22.1323292945
 30
0.0
 11
9.2
 21
-22.4133326462
 31
0.0
  0
LINE
  5
DC
330
1F
100
AcDbEntity
  8
1
  6
SLD-Solid
370
    25
100
AcDbLine
 10
3.2
 20
-18.85
 30
0.0
 11
3.2
 21
-24.9855458216
 31
0.0
  0
LINE
  5
DD
330
1F
100
AcDbEntity
  8
1
  6
SLD-Solid
370
    25
100
AcDbLine
 10
19.05
 20
-18.85
 30
0.0
 11
19.05
 21
-24.9855458215
 31
0.0
  0
LINE
  5
DE
330
1F
100
AcDbEntity
  8
1
  6
SLD-Solid
370
    25
100
AcDbLine
 10
13.03
 20
-28.9668772965
 30
0.0
 11
13.03
 21
-22.4133326462
 31
0.0
  0
LINE
  5
DF
330
1F
100
AcDbEntity
  8
1
  6
SLD-Solid
370
    25
100
AcDbLine
 10
9.2
 20
-28.9668772965
 30
0.0
 11
9.2
 21
-22.4133326462
 31
0.0
  0
LINE
  5
E0
330
1F
100
AcDbEntity
  8
1
  6
SLD-Solid
370
    25
100
AcDbLine
 10
34.05
 20
23.7260725879
 30
0.0
 11
34.05
 21
24.8211765355
 31
0.0
  0
LINE
  5
E1
330
1F
100
AcDbEntity
  8
SK1
  6
SLD-Solid
370
    25
100
AcDbLine
 10
-68.25
 20
-11.4070377962
 30
0.0
 11
-68.25
 21
11.4070377962
 31
0.0
  0
LINE
  5
E2
330
1F
100
AcDbEntity
  8
1
  6
SLD-Solid
370
    25
100
AcDbLine
 10
9.2
 20
27.2080239064
 30
0.0
 11
9.2
 21
27.4118626313
 31
0.0
  0
LINE
  5
E3
330
1F
100
AcDbEntity
  8
1
  6
SLD-Solid
370
    25
100
AcDbLine
 10
13.03
 20
27.4118626313
 30
0.0
 11
13.03
 21
27.2080239064
 31
0.0
  0
LINE
  5
E4
330
1F
100
AcDbEntity
  8
1
  6
SLD-Solid
370
    25
100
AcDbLine
 10
21.05
 20
24.0
 30
0.0
 11
21.05
 21
-24.0
 31
0.0
  0
LINE
  5
E5
330
1F
100
AcDbEntity
  8
1
  6
SLD-Dashed
370
    18
100
AcDbLine
 10
13.1081088715
 20
27.3467456154
 30
0.0
 11
13.1123837663
 21
27.3888561012
 31
0.0
  0
LINE
  5
E6
330
1F
100
AcDbEntity
  8
1
  6
SLD-Dashed
370
    18
100
AcDbLine
 10
9.1331830483
 20
27.4195712955
 30
0.0
 11
9.1218911285
 21
27.3465480095
 31
0.0
  0
LINE
  5
E7
330
1F
100
AcDbEntity
  8
1
  6
SLD-Dashed
370
    18
100
AcDbLine
 10
29.1413530943
 20
-23.9
 30
0.0
 11
31.350939916
 21
-23.9
 31
0.0
  0
LINE
  5
E8
330
1F
100
AcDbEntity
  8
1
  6
SLD-Dashed
370
    18
100
AcDbLine
 10
34.05
 20
22.5824099787
 30
0.0
 11
34.05
 21
21.8103354276
 31
0.0
  0
LINE
  5
E9
330
1F
100
AcDbEntity
  8
SK3
  6
SLD-Dashed
370
    18
100
AcDbLine
 10
9.1285767029
 20
23.1308393474
 30
0.0
 11
9.2422118013
 21
22.9703436114
 31
0.0
  0
LINE
  5
EA
330
1F
100
AcDbEntity
  8
SK3
  6
SLD-Dashed
370
    18
100
AcDbLine
 10
9.2422118013
 20
22.9703436114
 30
0.0
 11
9.4649911871
 21
22.8238385806
 31
0.0
  0
LINE
  5
EB
330
1F
100
AcDbEntity
  8
SK3
  6
SLD-Dashed
370
    18
100
AcDbLine
 10
9.4649911871
 20
22.8238385806
 30
0.0
 11
9.7839314929
 21
22.6998624266
 31
0.0
  0
LINE
  5
EC
330
1F
100
AcDbEntity
  8
SK3
  6
SLD-Dashed
370
    18
100
AcDbLine
 10
9.7839314929
 20
22.6998624266
 30
0.0
 11
10.1804451857
 21
22.60564036
 31
0.0
  0
LINE
  5
ED
330
1F
100
AcDbEntity
  8
SK3
  6
SLD-Dashed
370
    18
100
AcDbLine
 10
10.1804451857
 20
22.60564036
 30
0.0
 11
10.6314238305
 21
22.5466635519
 31
0.0
  0
LINE
  5
EE
330
1F
100
AcDbEntity
  8
SK3
  6
SLD-Dashed
370
    18
100
AcDbLine
 10
10.6314238305
 20
22.5466635519
 30
0.0
 11
11.1105848275
 21
22.5263691136
 31
0.0
  0
LINE
  5
EF
330
1F
100
AcDbEntity
  8
SK3
  6
SLD-Dashed
370
    18
100
AcDbLine
 10
11.1105848275
 20
22.5263691136
 30
0.0
 11
11.5900031364
 21
22.5459397854
 31
0.0
  0
LINE
  5
F0
330
1F
100
AcDbEntity
  8
SK3
  6
SLD-Dashed
370
    18
100
AcDbLine
 10
11.5900031364
 20
22.5459397854
 30
0.0
 11
12.0417387213
 21
22.6042350074
 31
0.0
  0
LINE
  5
F1
330
1F
100
AcDbEntity
  8
SK3
  6
SLD-Dashed
370
    18
100
AcDbLine
 10
12.0417387213
 20
22.6042350074
 30
0.0
 11
12.4394648686
 21
22.6978573905
 31
0.0
  0
LINE
  5
F2
330
1F
100
AcDbEntity
  8
SK3
  6
SLD-Dashed
370
    18
100
AcDbLine
 10
12.4394648686
 20
22.6978573905
 30
0.0
 11
12.7600024825
 21
22.8213507126
 31
0.0
  0
LINE
  5
F3
330
1F
100
AcDbEntity
  8
SK3
  6
SLD-Dashed
370
    18
100
AcDbLine
 10
12.7600024825
 20
22.8213507126
 30
0.0
 11
12.9846709405
 21
22.967517902
 31
0.0
  0
LINE
  5
F4
330
1F
100
AcDbEntity
  8
SK3
  6
SLD-Dashed
370
    18
100
AcDbLine
 10
12.9846709405
 20
22.967517902
 30
0.0
 11
13.1003767818
 21
23.1278404763
 31
0.0
  0
LINE
  5
F5
330
1F
100
AcDbEntity
  8
SK3
  6
SLD-Dashed
370
    18
100
AcDbLine
 10
13.1003767818
 20
23.1278404763
 30
0.0
 11
13.1003767818
 21
23.2929749905
 31
0.0
  0
LINE
  5
F6
330
1F
100
AcDbEntity
  8
SK3
  6
SLD-Dashed
370
    18
100
AcDbLine
 10
13.1003767818
 20
23.2929749905
 30
0.0
 11
12.9846709405
 21
23.4532975648
 31
0.0
  0
LINE
  5
F7
330
1F
100
AcDbEntity
  8
SK3
  6
SLD-Dashed
370
    18
100
AcDbLine
 10
12.9846709405
 20
23.4532975648
 30
0.0
 11
12.7600024825
 21
23.5994647542
 31
0.0
  0
LINE
  5
F8
330
1F
100
AcDbEntity
  8
SK3
  6
SLD-Dashed
370
    18
100
AcDbLine
 10
12.7600024825
 20
23.5994647542
 30
0.0
 11
12.4394648686
 21
23.7229580763
 31
0.0
  0
LINE
  5
F9
330
1F
100
AcDbEntity
  8
SK3
  6
SLD-Dashed
370
    18
100
AcDbLine
 10
12.4394648686
 20
23.7229580763
 30
0.0
 11
12.0417387213
 21
23.8165804594
 31
0.0
  0
LINE
  5
FA
330
1F
100
AcDbEntity
  8
SK3
  6
SLD-Dashed
370
    18
100
AcDbLine
 10
12.0417387213
 20
23.8165804594
 30
0.0
 11
11.5900031364
 21
23.8748756814
 31
0.0
  0
LINE
  5
FB
330
1F
100
AcDbEntity
  8
SK3
  6
SLD-Dashed
370
    18
100
AcDbLine
 10
11.5900031364
 20
23.8748756814
 30
0.0
 11
11.1105848275
 21
23.8944463532
 31
0.0
  0
LINE
  5
FC
330
1F
100
AcDbEntity
  8
SK3
  6
SLD-Dashed
370
    18
100
AcDbLine
 10
11.1105848275
 20
23.8944463532
 30
0.0
 11
10.6314238305
 21
23.8741519149
 31
0.0
  0
LINE
  5
FD
330
1F
100
AcDbEntity
  8
SK3
  6
SLD-Dashed
370
    18
100
AcDbLine
 10
10.6314238305
 20
23.8741519149
 30
0.0
 11
10.1804451857
 21
23.8151751068
 31
0.0
  0
LINE
  5
FE
330
1F
100
AcDbEntity
  8
SK3
  6
SLD-Dashed
370
    18
100
AcDbLine
 10
10.1804451857
 20
23.8151751068
 30
0.0
 11
9.7839314929
 21
23.7209530402
 31
0.0
  0
LINE
  5
FF
330
1F
100
AcDbEntity
  8
SK3
  6
SLD-Dashed
370
    18
100
AcDbLine
 10
9.7839314929
 20
23.7209530402
 30
0.0
 11
9.4649911871
 21
23.5969768862
 31
0.0
  0
LINE
  5
100
330
1F
100
AcDbEntity
  8
SK3
  6
SLD-Dashed
370
    18
100
AcDbLine
 10
9.4649911871
 20
23.5969768862
 30
0.0
 11
9.2422118013
 21
23.4504718554
 31
0.0
  0
LINE
  5
101
330
1F
100
AcDbEntity
  8
SK3
  6
SLD-Dashed
370
    18
100
AcDbLine
 10
9.2422118013
 20
23.4504718554
 30
0.0
 11
9.1285767029
 21
23.2899761194
 31
0.0
  0
LINE
  5
102
330
1F
100
AcDbEntity
  8
1
  6
SLD-Dashed
370
    18
100
AcDbLine
 10
13.03
 20
26.813423956
 30
0.0
 11
13.03
 21
27.0172626808
 31
0.0
  0
LINE
  5
103
330
1F
100
AcDbEntity
  8
1
  6
SLD-Dashed
370
    18
100
AcDbLine
 10
9.2
 20
27.0172626808
 30
0.0
 11
9.2
 21
26.813423956
 31
0.0
  0
LINE
  5
104
330
1F
100
AcDbEntity
  8
SK3
  6
SLD-Dashed
370
    18
100
AcDbLine
 10
3.3100253255
 20
22.7838057852
 30
0.0
 11
3.4272021018
 21
22.7676693301
 31
0.0
  0
LINE
  5
105
330
1F
100
AcDbEntity
  8
SK3
  6
SLD-Dashed
370
    18
100
AcDbLine
 10
3.4272021018
 20
22.7676693301
 30
0.0
 11
3.6079550452
 21
22.8449685093
 31
0.0
  0
LINE
  5
106
330
1F
100
AcDbEntity
  8
SK3
  6
SLD-Dashed
370
    18
100
AcDbLine
 10
3.6079550452
 20
22.8449685093
 30
0.0
 11
3.8417794516
 21
23.0112109753
 31
0.0
  0
LINE
  5
107
330
1F
100
AcDbEntity
  8
SK3
  6
SLD-Dashed
370
    18
100
AcDbLine
 10
3.8417794516
 20
23.0112109753
 30
0.0
 11
4.1150862965
 21
23.2567353205
 31
0.0
  0
LINE
  5
108
330
1F
100
AcDbEntity
  8
SK3
  6
SLD-Dashed
370
    18
100
AcDbLine
 10
4.1150862965
 20
23.2567353205
 30
0.0
 11
4.4119919794
 21
23.5672725622
 31
0.0
  0
LINE
  5
109
330
1F
100
AcDbEntity
  8
SK3
  6
SLD-Dashed
370
    18
100
AcDbLine
 10
4.4119919794
 20
23.5672725622
 30
0.0
 11
4.7152414213
 21
23.9247754047
 31
0.0
  0
LINE
  5
10A
330
1F
100
AcDbEntity
  8
SK3
  6
SLD-Dashed
370
    18
100
AcDbLine
 10
4.7152414213
 20
23.9247754047
 30
0.0
 11
5.0072108668
 21
24.3084670823
 31
0.0
  0
LINE
  5
10B
330
1F
100
AcDbEntity
  8
SK3
  6
SLD-Dashed
370
    18
100
AcDbLine
 10
5.0072108668
 20
24.3084670823
 30
0.0
 11
5.2709321131
 21
24.6960488293
 31
0.0
  0
LINE
  5
10C
330
1F
100
AcDbEntity
  8
SK3
  6
SLD-Dashed
370
    18
100
AcDbLine
 10
5.2709321131
 20
24.6960488293
 30
0.0
 11
5.4910786399
 21
25.0649958035
 31
0.0
  0
LINE
  5
10D
330
1F
100
AcDbEntity
  8
SK3
  6
SLD-Dashed
370
    18
100
AcDbLine
 10
5.4910786399
 20
25.0649958035
 30
0.0
 11
5.6548563313
 21
25.3938661477
 31
0.0
  0
LINE
  5
10E
330
1F
100
AcDbEntity
  8
SK3
  6
SLD-Dashed
370
    18
100
AcDbLine
 10
5.6548563313
 20
25.3938661477
 30
0.0
 11
5.7527470232
 21
25.6635471129
 31
0.0
  0
LINE
  5
10F
330
1F
100
AcDbEntity
  8
SK3
  6
SLD-Dashed
370
    18
100
AcDbLine
 10
5.7527470232
 20
25.6635471129
 30
0.0
 11
5.7790616643
 21
25.8583658217
 31
0.0
  0
LINE
  5
110
330
1F
100
AcDbEntity
  8
SK3
  6
SLD-Dashed
370
    18
100
AcDbLine
 10
5.7790616643
 20
25.8583658217
 30
0.0
 11
5.7322709434
 21
25.9670001189
 31
0.0
  0
LINE
  5
111
330
1F
100
AcDbEntity
  8
SK3
  6
SLD-Dashed
370
    18
100
AcDbLine
 10
5.7322709434
 20
25.9670001189
 30
0.0
 11
5.6150941671
 21
25.983136574
 31
0.0
  0
LINE
  5
112
330
1F
100
AcDbEntity
  8
SK3
  6
SLD-Dashed
370
    18
100
AcDbLine
 10
5.6150941671
 20
25.983136574
 30
0.0
 11
5.4343412237
 21
25.9058373948
 31
0.0
  0
LINE
  5
113
330
1F
100
AcDbEntity
  8
SK3
  6
SLD-Dashed
370
    18
100
AcDbLine
 10
5.4343412237
 20
25.9058373948
 30
0.0
 11
5.2005168173
 21
25.7395949287
 31
0.0
  0
LINE
  5
114
330
1F
100
AcDbEntity
  8
SK3
  6
SLD-Dashed
370
    18
100
AcDbLine
 10
5.2005168173
 20
25.7395949287
 30
0.0
 11
4.9272099725
 21
25.4940705836
 31
0.0
  0
LINE
  5
115
330
1F
100
AcDbEntity
  8
SK3
  6
SLD-Dashed
370
    18
100
AcDbLine
 10
4.9272099725
 20
25.4940705836
 30
0.0
 11
4.6303042896
 21
25.1835333419
 31
0.0
  0
LINE
  5
116
330
1F
100
AcDbEntity
  8
SK3
  6
SLD-Dashed
370
    18
100
AcDbLine
 10
4.6303042896
 20
25.1835333419
 30
0.0
 11
4.3270548477
 21
24.8260304994
 31
0.0
  0
LINE
  5
117
330
1F
100
AcDbEntity
  8
SK3
  6
SLD-Dashed
370
    18
100
AcDbLine
 10
4.3270548477
 20
24.8260304994
 30
0.0
 11
4.0350854021
 21
24.4423388218
 31
0.0
  0
LINE
  5
118
330
1F
100
AcDbEntity
  8
SK3
  6
SLD-Dashed
370
    18
100
AcDbLine
 10
4.0350854021
 20
24.4423388218
 30
0.0
 11
3.7713641558
 21
24.0547570748
 31
0.0
  0
LINE
  5
119
330
1F
100
AcDbEntity
  8
SK3
  6
SLD-Dashed
370
    18
100
AcDbLine
 10
3.7713641558
 20
24.0547570748
 30
0.0
 11
3.551217629
 21
23.6858101006
 31
0.0
  0
LINE
  5
11A
330
1F
100
AcDbEntity
  8
SK3
  6
SLD-Dashed
370
    18
100
AcDbLine
 10
3.551217629
 20
23.6858101006
 30
0.0
 11
3.3874399376
 21
23.3569397564
 31
0.0
  0
LINE
  5
11B
330
1F
100
AcDbEntity
  8
SK3
  6
SLD-Dashed
370
    18
100
AcDbLine
 10
3.3874399376
 20
23.3569397564
 30
0.0
 11
3.2895492458
 21
23.0872587912
 31
0.0
  0
LINE
  5
11C
330
1F
100
AcDbEntity
  8
SK3
  6
SLD-Dashed
370
    18
100
AcDbLine
 10
3.2895492458
 20
23.0872587912
 30
0.0
 11
3.2632346046
 21
22.8924400823
 31
0.0
  0
LINE
  5
11D
330
1F
100
AcDbEntity
  8
SK3
  6
SLD-Dashed
370
    18
100
AcDbLine
 10
3.2632346046
 20
22.8924400823
 30
0.0
 11
3.3100253255
 21
22.7838057852
 31
0.0
  0
LINE
  5
11E
330
1F
100
AcDbEntity
  8
SK3
  6
SLD-Dashed
370
    18
100
AcDbLine
 10
3.2
 20
22.8742979511
 30
0.0
 11
3.2
 21
27.8871582268
 31
0.0
  0
LINE
  5
11F
330
1F
100
AcDbEntity
  8
SK3
  6
SLD-Dashed
370
    18
100
AcDbLine
 10
3.3403033958
 20
22.8235957143
 30
0.0
 11
3.4545507526
 21
22.8078626706
 31
0.0
  0
LINE
  5
120
330
1F
100
AcDbEntity
  8
SK3
  6
SLD-Dashed
370
    18
100
AcDbLine
 10
3.4545507526
 20
22.8078626706
 30
0.0
 11
3.6307848724
 21
22.8832293703
 31
0.0
  0
LINE
  5
121
330
1F
100
AcDbEntity
  8
SK3
  6
SLD-Dashed
370
    18
100
AcDbLine
 10
3.6307848724
 20
22.8832293703
 30
0.0
 11
3.8587636687
 21
23.0453157748
 31
0.0
  0
LINE
  5
122
330
1F
100
AcDbEntity
  8
SK3
  6
SLD-Dashed
370
    18
100
AcDbLine
 10
3.8587636687
 20
23.0453157748
 30
0.0
 11
4.1252378424
 21
23.2847020113
 31
0.0
  0
LINE
  5
123
330
1F
100
AcDbEntity
  8
SK3
  6
SLD-Dashed
370
    18
100
AcDbLine
 10
4.1252378424
 20
23.2847020113
 30
0.0
 11
4.4147208833
 21
23.5874758219
 31
0.0
  0
LINE
  5
124
330
1F
100
AcDbEntity
  8
SK3
  6
SLD-Dashed
370
    18
100
AcDbLine
 10
4.4147208833
 20
23.5874758219
 30
0.0
 11
4.7103890891
 21
23.9360410934
 31
0.0
  0
LINE
  5
125
330
1F
100
AcDbEntity
  8
SK3
  6
SLD-Dashed
370
    18
100
AcDbLine
 10
4.7103890891
 20
23.9360410934
 30
0.0
 11
4.9950592985
 21
24.310140479
 31
0.0
  0
LINE
  5
126
330
1F
100
AcDbEntity
  8
SK3
  6
SLD-Dashed
370
    18
100
AcDbLine
 10
4.9950592985
 20
24.310140479
 30
0.0
 11
5.2521875137
 21
24.6880326824
 31
0.0
  0
LINE
  5
127
330
1F
100
AcDbEntity
  8
SK3
  6
SLD-Dashed
370
    18
100
AcDbLine
 10
5.2521875137
 20
24.6880326824
 30
0.0
 11
5.4668303773
 21
25.0477559822
 31
0.0
  0
LINE
  5
128
330
1F
100
AcDbEntity
  8
SK3
  6
SLD-Dashed
370
    18
100
AcDbLine
 10
5.4668303773
 20
25.0477559822
 30
0.0
 11
5.6265136264
 21
25.3684045678
 31
0.0
  0
LINE
  5
129
330
1F
100
AcDbEntity
  8
SK3
  6
SLD-Dashed
370
    18
100
AcDbLine
 10
5.6265136264
 20
25.3684045678
 30
0.0
 11
5.721957051
 21
25.6313435089
 31
0.0
  0
LINE
  5
12A
330
1F
100
AcDbEntity
  8
SK3
  6
SLD-Dashed
370
    18
100
AcDbLine
 10
5.721957051
 20
25.6313435089
 30
0.0
 11
5.7476138261
 21
25.82129175
 31
0.0
  0
LINE
  5
12B
330
1F
100
AcDbEntity
  8
SK3
  6
SLD-Dashed
370
    18
100
AcDbLine
 10
5.7476138261
 20
25.82129175
 30
0.0
 11
5.7019928732
 21
25.9272101898
 31
0.0
  0
LINE
  5
12C
330
1F
100
AcDbEntity
  8
SK3
  6
SLD-Dashed
370
    18
100
AcDbLine
 10
5.7019928732
 20
25.9272101898
 30
0.0
 11
5.5877455163
 21
25.9429432334
 31
0.0
  0
LINE
  5
12D
330
1F
100
AcDbEntity
  8
SK3
  6
SLD-Dashed
370
    18
100
AcDbLine
 10
5.5877455163
 20
25.9429432334
 30
0.0
 11
5.4115113965
 21
25.8675765338
 31
0.0
  0
LINE
  5
12E
330
1F
100
AcDbEntity
  8
SK3
  6
SLD-Dashed
370
    18
100
AcDbLine
 10
5.4115113965
 20
25.8675765338
 30
0.0
 11
5.1835326003
 21
25.7054901293
 31
0.0
  0
LINE
  5
12F
330
1F
100
AcDbEntity
  8
SK3
  6
SLD-Dashed
370
    18
100
AcDbLine
 10
5.1835326003
 20
25.7054901293
 30
0.0
 11
4.9170584265
 21
25.4661038928
 31
0.0
  0
LINE
  5
130
330
1F
100
AcDbEntity
  8
SK3
  6
SLD-Dashed
370
    18
100
AcDbLine
 10
4.9170584265
 20
25.4661038928
 30
0.0
 11
4.6275753857
 21
25.1633300822
 31
0.0
  0
LINE
  5
131
330
1F
100
AcDbEntity
  8
SK3
  6
SLD-Dashed
370
    18
100
AcDbLine
 10
4.6275753857
 20
25.1633300822
 30
0.0
 11
4.3319071799
 21
24.8147648107
 31
0.0
  0
LINE
  5
132
330
1F
100
AcDbEntity
  8
SK3
  6
SLD-Dashed
370
    18
100
AcDbLine
 10
4.3319071799
 20
24.8147648107
 30
0.0
 11
4.0472369705
 21
24.4406654251
 31
0.0
  0
LINE
  5
133
330
1F
100
AcDbEntity
  8
SK3
  6
SLD-Dashed
370
    18
100
AcDbLine
 10
4.0472369705
 20
24.4406654251
 30
0.0
 11
3.7901087553
 21
24.0627732217
 31
0.0
  0
LINE
  5
134
330
1F
100
AcDbEntity
  8
SK3
  6
SLD-Dashed
370
    18
100
AcDbLine
 10
3.7901087553
 20
24.0627732217
 30
0.0
 11
3.5754658917
 21
23.7030499219
 31
0.0
  0
LINE
  5
135
330
1F
100
AcDbEntity
  8
SK3
  6
SLD-Dashed
370
    18
100
AcDbLine
 10
3.5754658917
 20
23.7030499219
 30
0.0
 11
3.4157826425
 21
23.3824013363
 31
0.0
  0
LINE
  5
136
330
1F
100
AcDbEntity
  8
SK3
  6
SLD-Dashed
370
    18
100
AcDbLine
 10
3.4157826425
 20
23.3824013363
 30
0.0
 11
3.320339218
 21
23.1194623952
 31
0.0
  0
LINE
  5
137
330
1F
100
AcDbEntity
  8
SK3
  6
SLD-Dashed
370
    18
100
AcDbLine
 10
3.320339218
 20
23.1194623952
 30
0.0
 11
3.2946824429
 21
22.9295141541
 31
0.0
  0
LINE
  5
138
330
1F
100
AcDbEntity
  8
SK3
  6
SLD-Dashed
370
    18
100
AcDbLine
 10
3.2946824429
 20
22.9295141541
 30
0.0
 11
3.3403033958
 21
22.8235957143
 31
0.0
  0
LINE
  5
139
330
1F
100
AcDbEntity
  8
SK3
  6
SLD-Dashed
370
    18
100
AcDbLine
 10
13.9872030677
 20
14.7218578465
 30
0.0
 11
14.1014504246
 21
14.7061248028
 31
0.0
  0
LINE
  5
13A
330
1F
100
AcDbEntity
  8
SK3
  6
SLD-Dashed
370
    18
100
AcDbLine
 10
14.1014504246
 20
14.7061248028
 30
0.0
 11
14.2776845444
 21
14.7814915025
 31
0.0
  0
LINE
  5
13B
330
1F
100
AcDbEntity
  8
SK3
  6
SLD-Dashed
370
    18
100
AcDbLine
 10
14.2776845444
 20
14.7814915025
 30
0.0
 11
14.5056633407
 21
14.9435779069
 31
0.0
  0
LINE
  5
13C
330
1F
100
AcDbEntity
  8
SK3
  6
SLD-Dashed
370
    18
100
AcDbLine
 10
14.5056633407
 20
14.9435779069
 30
0.0
 11
14.7721375144
 21
15.1829641434
 31
0.0
  0
LINE
  5
13D
330
1F
100
AcDbEntity
  8
SK3
  6
SLD-Dashed
370
    18
100
AcDbLine
 10
14.7721375144
 20
15.1829641434
 30
0.0
 11
15.0616205552
 21
15.4857379541
 31
0.0
  0
LINE
  5
13E
330
1F
100
AcDbEntity
  8
SK3
  6
SLD-Dashed
370
    18
100
AcDbLine
 10
15.0616205552
 20
15.4857379541
 30
0.0
 11
15.3572887611
 21
15.8343032255
 31
0.0
  0
LINE
  5
13F
330
1F
100
AcDbEntity
  8
SK3
  6
SLD-Dashed
370
    18
100
AcDbLine
 10
15.3572887611
 20
15.8343032255
 30
0.0
 11
15.6419589705
 21
16.2084026112
 31
0.0
  0
LINE
  5
140
330
1F
100
AcDbEntity
  8
SK3
  6
SLD-Dashed
370
    18
100
AcDbLine
 10
15.6419589705
 20
16.2084026112
 30
0.0
 11
15.8990871856
 21
16.5862948145
 31
0.0
  0
LINE
  5
141
330
1F
100
AcDbEntity
  8
SK3
  6
SLD-Dashed
370
    18
100
AcDbLine
 10
15.8990871856
 20
16.5862948145
 30
0.0
 11
16.1137300493
 21
16.9460181144
 31
0.0
  0
LINE
  5
142
330
1F
100
AcDbEntity
  8
SK3
  6
SLD-Dashed
370
    18
100
AcDbLine
 10
16.1137300493
 20
16.9460181144
 30
0.0
 11
16.2734132984
 21
17.2666667
 31
0.0
  0
LINE
  5
143
330
1F
100
AcDbEntity
  8
SK3
  6
SLD-Dashed
370
    18
100
AcDbLine
 10
16.2734132984
 20
17.2666667
 30
0.0
 11
16.3688567229
 21
17.5296056411
 31
0.0
  0
LINE
  5
144
330
1F
100
AcDbEntity
  8
SK3
  6
SLD-Dashed
370
    18
100
AcDbLine
 10
16.3688567229
 20
17.5296056411
 30
0.0
 11
16.394513498
 21
17.7195538822
 31
0.0
  0
LINE
  5
145
330
1F
100
AcDbEntity
  8
SK3
  6
SLD-Dashed
370
    18
100
AcDbLine
 10
16.394513498
 20
17.7195538822
 30
0.0
 11
16.3488925452
 21
17.8254723219
 31
0.0
  0
LINE
  5
146
330
1F
100
AcDbEntity
  8
SK3
  6
SLD-Dashed
370
    18
100
AcDbLine
 10
16.3488925452
 20
17.8254723219
 30
0.0
 11
16.2346451883
 21
17.8412053656
 31
0.0
  0
LINE
  5
147
330
1F
100
AcDbEntity
  8
SK3
  6
SLD-Dashed
370
    18
100
AcDbLine
 10
16.2346451883
 20
17.8412053656
 30
0.0
 11
16.0584110685
 21
17.7658386659
 31
0.0
  0
LINE
  5
148
330
1F
100
AcDbEntity
  8
SK3
  6
SLD-Dashed
370
    18
100
AcDbLine
 10
16.0584110685
 20
17.7658386659
 30
0.0
 11
15.8304322722
 21
17.6037522615
 31
0.0
  0
LINE
  5
149
330
1F
100
AcDbEntity
  8
SK3
  6
SLD-Dashed
370
    18
100
AcDbLine
 10
15.8304322722
 20
17.6037522615
 30
0.0
 11
15.5639580985
 21
17.364366025
 31
0.0
  0
LINE
  5
14A
330
1F
100
AcDbEntity
  8
SK3
  6
SLD-Dashed
370
    18
100
AcDbLine
 10
15.5639580985
 20
17.364366025
 30
0.0
 11
15.2744750576
 21
17.0615922143
 31
0.0
  0
LINE
  5
14B
330
1F
100
AcDbEntity
  8
SK3
  6
SLD-Dashed
370
    18
100
AcDbLine
 10
15.2744750576
 20
17.0615922143
 30
0.0
 11
14.9788068518
 21
16.7130269429
 31
0.0
  0
LINE
  5
14C
330
1F
100
AcDbEntity
  8
SK3
  6
SLD-Dashed
370
    18
100
AcDbLine
 10
14.9788068518
 20
16.7130269429
 30
0.0
 11
14.6941366424
 21
16.3389275572
 31
0.0
  0
LINE
  5
14D
330
1F
100
AcDbEntity
  8
SK3
  6
SLD-Dashed
370
    18
100
AcDbLine
 10
14.6941366424
 20
16.3389275572
 30
0.0
 11
14.4370084273
 21
15.9610353539
 31
0.0
  0
LINE
  5
14E
330
1F
100
AcDbEntity
  8
SK3
  6
SLD-Dashed
370
    18
100
AcDbLine
 10
14.4370084273
 20
15.9610353539
 30
0.0
 11
14.2223655636
 21
15.601312054
 31
0.0
  0
LINE
  5
14F
330
1F
100
AcDbEntity
  8
SK3
  6
SLD-Dashed
370
    18
100
AcDbLine
 10
14.2223655636
 20
15.601312054
 30
0.0
 11
14.0626823145
 21
15.2806634684
 31
0.0
  0
LINE
  5
150
330
1F
100
AcDbEntity
  8
SK3
  6
SLD-Dashed
370
    18
100
AcDbLine
 10
14.0626823145
 20
15.2806634684
 30
0.0
 11
13.9672388899
 21
15.0177245273
 31
0.0
  0
LINE
  5
151
330
1F
100
AcDbEntity
  8
SK3
  6
SLD-Dashed
370
    18
100
AcDbLine
 10
13.9672388899
 20
15.0177245273
 30
0.0
 11
13.9415821148
 21
14.8277762862
 31
0.0
  0
LINE
  5
152
330
1F
100
AcDbEntity
  8
SK3
  6
SLD-Dashed
370
    18
100
AcDbLine
 10
13.9415821148
 20
14.8277762862
 30
0.0
 11
13.9872030677
 21
14.7218578465
 31
0.0
  0
LINE
  5
153
330
1F
100
AcDbEntity
  8
SK3
  6
SLD-Dashed
370
    18
100
AcDbLine
 10
62.0
 20
10.0
 30
0.0
 11
62.0
 21
-10.0
 31
0.0
  0
LINE
  5
154
330
1F
100
AcDbEntity
  8
1
  6
SLD-Dashed
370
    18
100
AcDbLine
 10
63.0
 20
10.563774316
 30
0.0
 11
63.0
 21
-10.563774316
 31
0.0
  0
LINE
  5
155
330
1F
100
AcDbEntity
  8
SK3
  6
SLD-Dashed
370
    18
100
AcDbLine
 10
11.115
 20
22.6460744969
 30
0.0
 11
11.5420514244
 21
22.6653036857
 31
0.0
  0
LINE
  5
156
330
1F
100
AcDbEntity
  8
SK3
  6
SLD-Dashed
370
    18
100
AcDbLine
 10
11.5420514244
 20
22.6653036857
 30
0.0
 11
11.94
 21
22.7216808144
 31
0.0
  0
LINE
  5
157
330
1F
100
AcDbEntity
  8
SK3
  6
SLD-Dashed
370
    18
100
AcDbLine
 10
11.94
 20
22.7216808144
 30
0.0
 11
12.281726189
 21
22.811363875
 31
0.0
  0
LINE
  5
158
330
1F
100
AcDbEntity
  8
SK3
  6
SLD-Dashed
370
    18
100
AcDbLine
 10
12.281726189
 20
22.811363875
 30
0.0
 11
12.5439419162
 21
22.9282411152
 31
0.0
  0
LINE
  5
159
330
1F
100
AcDbEntity
  8
SK3
  6
SLD-Dashed
370
    18
100
AcDbLine
 10
12.5439419162
 20
22.9282411152
 30
0.0
 11
12.7087776134
 21
23.064347544
 31
0.0
  0
LINE
  5
15A
330
1F
100
AcDbEntity
  8
SK3
  6
SLD-Dashed
370
    18
100
AcDbLine
 10
12.7087776134
 20
23.064347544
 30
0.0
 11
12.765
 21
23.2104077334
 31
0.0
  0
LINE
  5
15B
330
1F
100
AcDbEntity
  8
SK3
  6
SLD-Dashed
370
    18
100
AcDbLine
 10
12.765
 20
23.2104077334
 30
0.0
 11
12.7087776134
 21
23.3564679228
 31
0.0
  0
LINE
  5
15C
330
1F
100
AcDbEntity
  8
SK3
  6
SLD-Dashed
370
    18
100
AcDbLine
 10
12.7087776134
 20
23.3564679228
 30
0.0
 11
12.5439419162
 21
23.4925743517
 31
0.0
  0
LINE
  5
15D
330
1F
100
AcDbEntity
  8
SK3
  6
SLD-Dashed
370
    18
100
AcDbLine
 10
12.5439419162
 20
23.4925743517
 30
0.0
 11
12.281726189
 21
23.6094515918
 31
0.0
  0
LINE
  5
15E
330
1F
100
AcDbEntity
  8
SK3
  6
SLD-Dashed
370
    18
100
AcDbLine
 10
12.281726189
 20
23.6094515918
 30
0.0
 11
11.94
 21
23.6991346524
 31
0.0
  0
LINE
  5
15F
330
1F
100
AcDbEntity
  8
SK3
  6
SLD-Dashed
370
    18
100
AcDbLine
 10
11.94
 20
23.6991346524
 30
0.0
 11
11.5420514244
 21
23.7555117812
 31
0.0
  0
LINE
  5
160
330
1F
100
AcDbEntity
  8
SK3
  6
SLD-Dashed
370
    18
100
AcDbLine
 10
11.5420514244
 20
23.7555117812
 30
0.0
 11
11.115
 21
23.7747409699
 31
0.0
  0
LINE
  5
161
330
1F
100
AcDbEntity
  8
SK3
  6
SLD-Dashed
370
    18
100
AcDbLine
 10
11.115
 20
23.7747409699
 30
0.0
 11
10.6879485756
 21
23.7555117812
 31
0.0
  0
LINE
  5
162
330
1F
100
AcDbEntity
  8
SK3
  6
SLD-Dashed
370
    18
100
AcDbLine
 10
10.6879485756
 20
23.7555117812
 30
0.0
 11
10.29
 21
23.6991346524
 31
0.0
  0
LINE
  5
163
330
1F
100
AcDbEntity
  8
SK3
  6
SLD-Dashed
370
    18
100
AcDbLine
 10
10.29
 20
23.6991346524
 30
0.0
 11
9.948273811
 21
23.6094515918
 31
0.0
  0
LINE
  5
164
330
1F
100
AcDbEntity
  8
SK3
  6
SLD-Dashed
370
    18
100
AcDbLine
 10
9.948273811
 20
23.6094515918
 30
0.0
 11
9.6860580838
 21
23.4925743517
 31
0.0
  0
LINE
  5
165
330
1F
100
AcDbEntity
  8
SK3
  6
SLD-Dashed
370
    18
100
AcDbLine
 10
9.6860580838
 20
23.4925743517
 30
0.0
 11
9.5212223866
 21
23.3564679228
 31
0.0
  0
LINE
  5
166
330
1F
100
AcDbEntity
  8
SK3
  6
SLD-Dashed
370
    18
100
AcDbLine
 10
9.5212223866
 20
23.3564679228
 30
0.0
 11
9.465
 21
23.2104077334
 31
0.0
  0
LINE
  5
167
330
1F
100
AcDbEntity
  8
SK3
  6
SLD-Dashed
370
    18
100
AcDbLine
 10
9.465
 20
23.2104077334
 30
0.0
 11
9.5212223866
 21
23.064347544
 31
0.0
  0
LINE
  5
168
330
1F
100
AcDbEntity
  8
SK3
  6
SLD-Dashed
370
    18
100
AcDbLine
 10
9.5212223866
 20
23.064347544
 30
0.0
 11
9.6860580838
 21
22.9282411152
 31
0.0
  0
LINE
  5
169
330
1F
100
AcDbEntity
  8
SK3
  6
SLD-Dashed
370
    18
100
AcDbLine
 10
9.6860580838
 20
22.9282411152
 30
0.0
 11
9.948273811
 21
22.811363875
 31
0.0
  0
LINE
  5
16A
330
1F
100
AcDbEntity
  8
SK3
  6
SLD-Dashed
370
    18
100
AcDbLine
 10
9.948273811
 20
22.811363875
 30
0.0
 11
10.29
 21
22.7216808144
 31
0.0
  0
LINE
  5
16B
330
1F
100
AcDbEntity
  8
SK3
  6
SLD-Dashed
370
    18
100
AcDbLine
 10
10.29
 20
22.7216808144
 30
0.0
 11
10.6879485756
 21
22.6653036857
 31
0.0
  0
LINE
  5
16C
330
1F
100
AcDbEntity
  8
SK3
  6
SLD-Dashed
370
    18
100
AcDbLine
 10
10.6879485756
 20
22.6653036857
 30
0.0
 11
11.115
 21
22.6460744969
 31
0.0
  0
LINE
  5
16D
330
1F
100
AcDbEntity
  8
SK3
  6
SLD-Dashed
370
    18
100
AcDbLine
 10
14.0
 20
10.0
 30
0.0
 11
14.0
 21
-10.0
 31
0.0
  0
LINE
  5
16E
330
1F
100
AcDbEntity
  8
SK3
  6
SLD-Dashed
370
    18
100
AcDbLine
 10
13.75
 20
-10.25
 30
0.0
 11
13.75
 21
10.2364094213
 31
0.0
  0
LINE
  5
16F
330
1F
100
AcDbEntity
  8
SK3
  6
SLD-Dashed
370
    18
100
AcDbLine
 10
9.25
 20
-10.25
 30
0.0
 11
9.25
 21
10.2364094213
 31
0.0
  0
LINE
  5
170
330
1F
100
AcDbEntity
  8
SK3
  6
SLD-Dashed
370
    18
100
AcDbLine
 10
9.0
 20
10.0
 30
0.0
 11
9.0
 21
-10.0
 31
0.0
  0
LINE
  5
171
330
1F
100
AcDbEntity
  8
SK3
  6
SLD-Dashed
370
    18
100
AcDbLine
 10
-66.9509618943
 20
-8.5
 30
0.0
 11
-66.9509618943
 21
8.5
 31
0.0
  0
LINE
  5
172
330
1F
100
AcDbEntity
  8
SK3
  6
SLD-Dashed
370
    18
100
AcDbLine
 10
-68.25
 20
9.2364340781
 30
0.0
 11
-68.25
 21
-9.2364340781
 31
0.0
  0
LINE
  5
173
330
1F
100
AcDbEntity
  8
SK3
  6
SLD-Dashed
370
    18
100
AcDbLine
 10
34.0504511542
 20
-23.9
 30
0.0
 11
47.125
 21
-23.9
 31
0.0
  0
LINE
  5
174
330
1F
100
AcDbEntity
  8
SK3
  6
SLD-Dashed
370
    18
100
AcDbLine
 10
-57.75
 20
-8.8
 30
0.0
 11
-57.75
 21
8.8
 31
0.0
  0
LINE
  5
175
330
1F
100
AcDbEntity
  8
SK3
  6
SLD-Dashed
370
    18
100
AcDbLine
 10
-59.75
 20
-8.8
 30
0.0
 11
-59.75
 21
8.8
 31
0.0
  0
LINE
  5
176
330
1F
100
AcDbEntity
  8
SK3
  6
SLD-Dashed
370
    18
100
AcDbLine
 10
-60.2696152423
 20
-8.5
 30
0.0
 11
-60.2696152423
 21
8.5
 31
0.0
  0
LINE
  5
177
330
1F
100
AcDbEntity
  8
SK3
  6
SLD-Dashed
370
    18
100
AcDbLine
 10
-56.7107695155
 20
7.0
 30
0.0
 11
-56.7107695155
 21
-7.0
 31
0.0
  0
LINE
  5
178
330
1F
100
AcDbEntity
  8
1
  6
SLD-Dashed
370
    18
100
AcDbLine
 10
34.05
 20
-23.2938296551
 30
0.0
 11
34.05
 21
-23.9
 31
0.0
  0
LINE
  5
179
330
1F
100
AcDbEntity
  8
1
  6
SLD-Dashed
370
    18
100
AcDbLine
 10
31.350939916
 20
-23.9
 30
0.0
 11
31.0
 21
-23.9
 31
0.0
  0
LINE
  5
17A
330
1F
100
AcDbEntity
  8
SK3
  6
SLD-Dashed
370
    18
100
AcDbLine
 10
34.05
 20
-23.9
 30
0.0
 11
45.0
 21
-23.9
 31
0.0
  0
LINE
  5
17B
330
1F
100
AcDbEntity
  8
SK3
  6
SLD-Dashed
370
    18
100
AcDbLine
 10
9.0
 20
6.99995
 30
0.0
 11
9.0
 21
-6.99995
 31
0.0
  0
LINE
  5
17C
330
1F
100
AcDbEntity
  8
1
  6
SLD-Dashed
370
    18
100
AcDbLine
 10
29.1413530943
 20
-23.9
 30
0.0
 11
28.875
 21
-23.9
 31
0.0
  0
LINE
  5
17D
330
1F
100
AcDbEntity
  8
SK3
  6
SLD-Dashed
370
    18
100
AcDbLine
 10
16.3488925452
 20
-17.8254723219
 30
0.0
 11
16.2346451883
 21
-17.8412053656
 31
0.0
  0
LINE
  5
17E
330
1F
100
AcDbEntity
  8
SK3
  6
SLD-Dashed
370
    18
100
AcDbLine
 10
16.2346451883
 20
-17.8412053656
 30
0.0
 11
16.0584110685
 21
-17.7658386659
 31
0.0
  0
LINE
  5
17F
330
1F
100
AcDbEntity
  8
SK3
  6
SLD-Dashed
370
    18
100
AcDbLine
 10
16.0584110685
 20
-17.7658386659
 30
0.0
 11
15.8304322722
 21
-17.6037522615
 31
0.0
  0
LINE
  5
180
330
1F
100
AcDbEntity
  8
SK3
  6
SLD-Dashed
370
    18
100
AcDbLine
 10
15.8304322722
 20
-17.6037522615
 30
0.0
 11
15.5639580985
 21
-17.364366025
 31
0.0
  0
LINE
  5
181
330
1F
100
AcDbEntity
  8
SK3
  6
SLD-Dashed
370
    18
100
AcDbLine
 10
15.5639580985
 20
-17.364366025
 30
0.0
 11
15.2744750576
 21
-17.0615922143
 31
0.0
  0
LINE
  5
182
330
1F
100
AcDbEntity
  8
SK3
  6
SLD-Dashed
370
    18
100
AcDbLine
 10
15.2744750576
 20
-17.0615922143
 30
0.0
 11
14.9788068518
 21
-16.7130269429
 31
0.0
  0
LINE
  5
183
330
1F
100
AcDbEntity
  8
SK3
  6
SLD-Dashed
370
    18
100
AcDbLine
 10
14.9788068518
 20
-16.7130269429
 30
0.0
 11
14.6941366424
 21
-16.3389275572
 31
0.0
  0
LINE
  5
184
330
1F
100
AcDbEntity
  8
SK3
  6
SLD-Dashed
370
    18
100
AcDbLine
 10
14.6941366424
 20
-16.3389275572
 30
0.0
 11
14.4370084273
 21
-15.9610353539
 31
0.0
  0
LINE
  5
185
330
1F
100
AcDbEntity
  8
SK3
  6
SLD-Dashed
370
    18
100
AcDbLine
 10
14.4370084273
 20
-15.9610353539
 30
0.0
 11
14.2223655636
 21
-15.601312054
 31
0.0
  0
LINE
  5
186
330
1F
100
AcDbEntity
  8
SK3
  6
SLD-Dashed
370
    18
100
AcDbLine
 10
14.2223655636
 20
-15.601312054
 30
0.0
 11
14.0626823145
 21
-15.2806634684
 31
0.0
  0
LINE
  5
187
330
1F
100
AcDbEntity
  8
SK3
  6
SLD-Dashed
370
    18
100
AcDbLine
 10
14.0626823145
 20
-15.2806634684
 30
0.0
 11
13.9672388899
 21
-15.0177245273
 31
0.0
  0
LINE
  5
188
330
1F
100
AcDbEntity
  8
SK3
  6
SLD-Dashed
370
    18
100
AcDbLine
 10
13.9672388899
 20
-15.0177245273
 30
0.0
 11
13.9415821148
 21
-14.8277762862
 31
0.0
  0
LINE
  5
189
330
1F
100
AcDbEntity
  8
SK3
  6
SLD-Dashed
370
    18
100
AcDbLine
 10
13.9415821148
 20
-14.8277762862
 30
0.0
 11
13.9872030677
 21
-14.7218578465
 31
0.0
  0
LINE
  5
18A
330
1F
100
AcDbEntity
  8
SK3
  6
SLD-Dashed
370
    18
100
AcDbLine
 10
13.9872030677
 20
-14.7218578465
 30
0.0
 11
14.1014504246
 21
-14.7061248028
 31
0.0
  0
LINE
  5
18B
330
1F
100
AcDbEntity
  8
SK3
  6
SLD-Dashed
370
    18
100
AcDbLine
 10
14.1014504246
 20
-14.7061248028
 30
0.0
 11
14.2776845444
 21
-14.7814915025
 31
0.0
  0
LINE
  5
18C
330
1F
100
AcDbEntity
  8
SK3
  6
SLD-Dashed
370
    18
100
AcDbLine
 10
14.2776845444
 20
-14.7814915025
 30
0.0
 11
14.5056633407
 21
-14.9435779069
 31
0.0
  0
LINE
  5
18D
330
1F
100
AcDbEntity
  8
SK3
  6
SLD-Dashed
370
    18
100
AcDbLine
 10
14.5056633407
 20
-14.9435779069
 30
0.0
 11
14.7721375144
 21
-15.1829641434
 31
0.0
  0
LINE
  5
18E
330
1F
100
AcDbEntity
  8
SK3
  6
SLD-Dashed
370
    18
100
AcDbLine
 10
14.7721375144
 20
-15.1829641434
 30
0.0
 11
15.0616205552
 21
-15.4857379541
 31
0.0
  0
LINE
  5
18F
330
1F
100
AcDbEntity
  8
SK3
  6
SLD-Dashed
370
    18
100
AcDbLine
 10
15.0616205552
 20
-15.4857379541
 30
0.0
 11
15.3572887611
 21
-15.8343032255
 31
0.0
  0
LINE
  5
190
330
1F
100
AcDbEntity
  8
SK3
  6
SLD-Dashed
370
    18
100
AcDbLine
 10
15.3572887611
 20
-15.8343032255
 30
0.0
 11
15.6419589705
 21
-16.2084026112
 31
0.0
  0
LINE
  5
191
330
1F
100
AcDbEntity
  8
SK3
  6
SLD-Dashed
370
    18
100
AcDbLine
 10
15.6419589705
 20
-16.2084026112
 30
0.0
 11
15.8990871856
 21
-16.5862948145
 31
0.0
  0
LINE
  5
192
330
1F
100
AcDbEntity
  8
SK3
  6
SLD-Dashed
370
    18
100
AcDbLine
 10
15.8990871856
 20
-16.5862948145
 30
0.0
 11
16.1137300493
 21
-16.9460181144
 31
0.0
  0
LINE
  5
193
330
1F
100
AcDbEntity
  8
SK3
  6
SLD-Dashed
370
    18
100
AcDbLine
 10
16.1137300493
 20
-16.9460181144
 30
0.0
 11
16.2734132984
 21
-17.2666667
 31
0.0
  0
LINE
  5
194
330
1F
100
AcDbEntity
  8
SK3
  6
SLD-Dashed
370
    18
100
AcDbLine
 10
16.2734132984
 20
-17.2666667
 30
0.0
 11
16.3688567229
 21
-17.5296056411
 31
0.0
  0
LINE
  5
195
330
1F
100
AcDbEntity
  8
SK3
  6
SLD-Dashed
370
    18
100
AcDbLine
 10
16.3688567229
 20
-17.5296056411
 30
0.0
 11
16.394513498
 21
-17.7195538822
 31
0.0
  0
LINE
  5
196
330
1F
100
AcDbEntity
  8
SK3
  6
SLD-Dashed
370
    18
100
AcDbLine
 10
16.394513498
 20
-17.7195538822
 30
0.0
 11
16.3488925452
 21
-17.8254723219
 31
0.0
  0
LINE
  5
197
330
1F
100
AcDbEntity
  8
SK3
  6
SLD-Dashed
370
    18
100
AcDbLine
 10
5.7019928732
 20
-25.9272101898
 30
0.0
 11
5.5877455163
 21
-25.9429432334
 31
0.0
  0
LINE
  5
198
330
1F
100
AcDbEntity
  8
SK3
  6
SLD-Dashed
370
    18
100
AcDbLine
 10
5.5877455163
 20
-25.9429432334
 30
0.0
 11
5.4115113965
 21
-25.8675765338
 31
0.0
  0
LINE
  5
199
330
1F
100
AcDbEntity
  8
SK3
  6
SLD-Dashed
370
    18
100
AcDbLine
 10
5.4115113965
 20
-25.8675765338
 30
0.0
 11
5.1835326003
 21
-25.7054901293
 31
0.0
  0
LINE
  5
19A
330
1F
100
AcDbEntity
  8
SK3
  6
SLD-Dashed
370
    18
100
AcDbLine
 10
5.1835326003
 20
-25.7054901293
 30
0.0
 11
4.9170584265
 21
-25.4661038928
 31
0.0
  0
LINE
  5
19B
330
1F
100
AcDbEntity
  8
SK3
  6
SLD-Dashed
370
    18
100
AcDbLine
 10
4.9170584265
 20
-25.4661038928
 30
0.0
 11
4.6275753857
 21
-25.1633300822
 31
0.0
  0
LINE
  5
19C
330
1F
100
AcDbEntity
  8
SK3
  6
SLD-Dashed
370
    18
100
AcDbLine
 10
4.6275753857
 20
-25.1633300822
 30
0.0
 11
4.3319071799
 21
-24.8147648107
 31
0.0
  0
LINE
  5
19D
330
1F
100
AcDbEntity
  8
SK3
  6
SLD-Dashed
370
    18
100
AcDbLine
 10
4.3319071799
 20
-24.8147648107
 30
0.0
 11
4.0472369705
 21
-24.4406654251
 31
0.0
  0
LINE
  5
19E
330
1F
100
AcDbEntity
  8
SK3
  6
SLD-Dashed
370
    18
100
AcDbLine
 10
4.0472369705
 20
-24.4406654251
 30
0.0
 11
3.7901087553
 21
-24.0627732217
 31
0.0
  0
LINE
  5
19F
330
1F
100
AcDbEntity
  8
SK3
  6
SLD-Dashed
370
    18
100
AcDbLine
 10
3.7901087553
 20
-24.0627732217
 30
0.0
 11
3.5754658917
 21
-23.7030499219
 31
0.0
  0
LINE
  5
1A0
330
1F
100
AcDbEntity
  8
SK3
  6
SLD-Dashed
370
    18
100
AcDbLine
 10
3.5754658917
 20
-23.7030499219
 30
0.0
 11
3.4157826425
 21
-23.3824013363
 31
0.0
  0
LINE
  5
1A1
330
1F
100
AcDbEntity
  8
SK3
  6
SLD-Dashed
370
    18
100
AcDbLine
 10
3.4157826425
 20
-23.3824013363
 30
0.0
 11
3.320339218
 21
-23.1194623952
 31
0.0
  0
LINE
  5
1A2
330
1F
100
AcDbEntity
  8
SK3
  6
SLD-Dashed
370
    18
100
AcDbLine
 10
3.320339218
 20
-23.1194623952
 30
0.0
 11
3.2946824429
 21
-22.9295141541
 31
0.0
  0
LINE
  5
1A3
330
1F
100
AcDbEntity
  8
SK3
  6
SLD-Dashed
370
    18
100
AcDbLine
 10
3.2946824429
 20
-22.9295141541
 30
0.0
 11
3.3403033958
 21
-22.8235957143
 31
0.0
  0
LINE
  5
1A4
330
1F
100
AcDbEntity
  8
SK3
  6
SLD-Dashed
370
    18
100
AcDbLine
 10
3.3403033958
 20
-22.8235957143
 30
0.0
 11
3.4545507526
 21
-22.8078626706
 31
0.0
  0
LINE
  5
1A5
330
1F
100
AcDbEntity
  8
SK3
  6
SLD-Dashed
370
    18
100
AcDbLine
 10
3.4545507526
 20
-22.8078626706
 30
0.0
 11
3.6307848724
 21
-22.8832293703
 31
0.0
  0
LINE
  5
1A6
330
1F
100
AcDbEntity
  8
SK3
  6
SLD-Dashed
370
    18
100
AcDbLine
 10
3.6307848724
 20
-22.8832293703
 30
0.0
 11
3.8587636687
 21
-23.0453157748
 31
0.0
  0
LINE
  5
1A7
330
1F
100
AcDbEntity
  8
SK3
  6
SLD-Dashed
370
    18
100
AcDbLine
 10
3.8587636687
 20
-23.0453157748
 30
0.0
 11
4.1252378424
 21
-23.2847020113
 31
0.0
  0
LINE
  5
1A8
330
1F
100
AcDbEntity
  8
SK3
  6
SLD-Dashed
370
    18
100
AcDbLine
 10
4.1252378424
 20
-23.2847020113
 30
0.0
 11
4.4147208833
 21
-23.5874758219
 31
0.0
  0
LINE
  5
1A9
330
1F
100
AcDbEntity
  8
SK3
  6
SLD-Dashed
370
    18
100
AcDbLine
 10
4.4147208833
 20
-23.5874758219
 30
0.0
 11
4.7103890891
 21
-23.9360410934
 31
0.0
  0
LINE
  5
1AA
330
1F
100
AcDbEntity
  8
SK3
  6
SLD-Dashed
370
    18
100
AcDbLine
 10
4.7103890891
 20
-23.9360410934
 30
0.0
 11
4.9950592985
 21
-24.310140479
 31
0.0
  0
LINE
  5
1AB
330
1F
100
AcDbEntity
  8
SK3
  6
SLD-Dashed
370
    18
100
AcDbLine
 10
4.9950592985
 20
-24.310140479
 30
0.0
 11
5.2521875137
 21
-24.6880326824
 31
0.0
  0
LINE
  5
1AC
330
1F
100
AcDbEntity
  8
SK3
  6
SLD-Dashed
370
    18
100
AcDbLine
 10
5.2521875137
 20
-24.6880326824
 30
0.0
 11
5.4668303773
 21
-25.0477559822
 31
0.0
  0
LINE
  5
1AD
330
1F
100
AcDbEntity
  8
SK3
  6
SLD-Dashed
370
    18
100
AcDbLine
 10
5.4668303773
 20
-25.0477559822
 30
0.0
 11
5.6265136264
 21
-25.3684045678
 31
0.0
  0
LINE
  5
1AE
330
1F
100
AcDbEntity
  8
SK3
  6
SLD-Dashed
370
    18
100
AcDbLine
 10
5.6265136264
 20
-25.3684045678
 30
0.0
 11
5.721957051
 21
-25.6313435089
 31
0.0
  0
LINE
  5
1AF
330
1F
100
AcDbEntity
  8
SK3
  6
SLD-Dashed
370
    18
100
AcDbLine
 10
5.721957051
 20
-25.6313435089
 30
0.0
 11
5.7476138261
 21
-25.82129175
 31
0.0
  0
LINE
  5
1B0
330
1F
100
AcDbEntity
  8
SK3
  6
SLD-Dashed
370
    18
100
AcDbLine
 10
5.7476138261
 20
-25.82129175
 30
0.0
 11
5.7019928732
 21
-25.9272101898
 31
0.0
  0
LINE
  5
1B1
330
1F
100
AcDbEntity
  8
SK3
  6
SLD-Dashed
370
    18
100
AcDbLine
 10
11.115
 20
-22.9279822832
 30
0.0
 11
10.6879485756
 21
-22.9472114719
 31
0.0
  0
LINE
  5
1B2
330
1F
100
AcDbEntity
  8
SK3
  6
SLD-Dashed
370
    18
100
AcDbLine
 10
10.6879485756
 20
-22.9472114719
 30
0.0
 11
10.29
 21
-23.0035886006
 31
0.0
  0
LINE
  5
1B3
330
1F
100
AcDbEntity
  8
SK3
  6
SLD-Dashed
370
    18
100
AcDbLine
 10
10.29
 20
-23.0035886006
 30
0.0
 11
9.948273811
 21
-23.0932716613
 31
0.0
  0
LINE
  5
1B4
330
1F
100
AcDbEntity
  8
SK3
  6
SLD-Dashed
370
    18
100
AcDbLine
 10
9.948273811
 20
-23.0932716613
 30
0.0
 11
9.6860580838
 21
-23.2101489014
 31
0.0
  0
LINE
  5
1B5
330
1F
100
AcDbEntity
  8
SK3
  6
SLD-Dashed
370
    18
100
AcDbLine
 10
9.6860580838
 20
-23.2101489014
 30
0.0
 11
9.5212223866
 21
-23.3462553303
 31
0.0
  0
LINE
  5
1B6
330
1F
100
AcDbEntity
  8
SK3
  6
SLD-Dashed
370
    18
100
AcDbLine
 10
9.5212223866
 20
-23.3462553303
 30
0.0
 11
9.465
 21
-23.4923155196
 31
0.0
  0
LINE
  5
1B7
330
1F
100
AcDbEntity
  8
SK3
  6
SLD-Dashed
370
    18
100
AcDbLine
 10
9.465
 20
-23.4923155196
 30
0.0
 11
9.5212223866
 21
-23.638375709
 31
0.0
  0
LINE
  5
1B8
330
1F
100
AcDbEntity
  8
SK3
  6
SLD-Dashed
370
    18
100
AcDbLine
 10
9.5212223866
 20
-23.638375709
 30
0.0
 11
9.6860580838
 21
-23.7744821379
 31
0.0
  0
LINE
  5
1B9
330
1F
100
AcDbEntity
  8
SK3
  6
SLD-Dashed
370
    18
100
AcDbLine
 10
9.6860580838
 20
-23.7744821379
 30
0.0
 11
9.948273811
 21
-23.891359378
 31
0.0
  0
LINE
  5
1BA
330
1F
100
AcDbEntity
  8
SK3
  6
SLD-Dashed
370
    18
100
AcDbLine
 10
9.948273811
 20
-23.891359378
 30
0.0
 11
10.29
 21
-23.9810424386
 31
0.0
  0
LINE
  5
1BB
330
1F
100
AcDbEntity
  8
SK3
  6
SLD-Dashed
370
    18
100
AcDbLine
 10
10.29
 20
-23.9810424386
 30
0.0
 11
10.6879485756
 21
-24.0374195674
 31
0.0
  0
LINE
  5
1BC
330
1F
100
AcDbEntity
  8
SK3
  6
SLD-Dashed
370
    18
100
AcDbLine
 10
10.6879485756
 20
-24.0374195674
 30
0.0
 11
11.115
 21
-24.0566487561
 31
0.0
  0
LINE
  5
1BD
330
1F
100
AcDbEntity
  8
SK3
  6
SLD-Dashed
370
    18
100
AcDbLine
 10
11.115
 20
-24.0566487561
 30
0.0
 11
11.5420514244
 21
-24.0374195674
 31
0.0
  0
LINE
  5
1BE
330
1F
100
AcDbEntity
  8
SK3
  6
SLD-Dashed
370
    18
100
AcDbLine
 10
11.5420514244
 20
-24.0374195674
 30
0.0
 11
11.94
 21
-23.9810424386
 31
0.0
  0
LINE
  5
1BF
330
1F
100
AcDbEntity
  8
SK3
  6
SLD-Dashed
370
    18
100
AcDbLine
 10
11.94
 20
-23.9810424386
 30
0.0
 11
12.281726189
 21
-23.891359378
 31
0.0
  0
LINE
  5
1C0
330
1F
100
AcDbEntity
  8
SK3
  6
SLD-Dashed
370
    18
100
AcDbLine
 10
12.281726189
 20
-23.891359378
 30
0.0
 11
12.5439419162
 21
-23.7744821379
 31
0.0
  0
LINE
  5
1C1
330
1F
100
AcDbEntity
  8
SK3
  6
SLD-Dashed
370
    18
100
AcDbLine
 10
12.5439419162
 20
-23.7744821379
 30
0.0
 11
12.7087776134
 21
-23.638375709
 31
0.0
  0
LINE
  5
1C2
330
1F
100
AcDbEntity
  8
SK3
  6
SLD-Dashed
370
    18
100
AcDbLine
 10
12.7087776134
 20
-23.638375709
 30
0.0
 11
12.765
 21
-23.4923155196
 31
0.0
  0
LINE
  5
1C3
330
1F
100
AcDbEntity
  8
SK3
  6
SLD-Dashed
370
    18
100
AcDbLine
 10
12.765
 20
-23.4923155196
 30
0.0
 11
12.7087776134
 21
-23.3462553303
 31
0.0
  0
LINE
  5
1C4
330
1F
100
AcDbEntity
  8
SK3
  6
SLD-Dashed
370
    18
100
AcDbLine
 10
12.7087776134
 20
-23.3462553303
 30
0.0
 11
12.5439419162
 21
-23.2101489014
 31
0.0
  0
LINE
  5
1C5
330
1F
100
AcDbEntity
  8
SK3
  6
SLD-Dashed
370
    18
100
AcDbLine
 10
12.5439419162
 20
-23.2101489014
 30
0.0
 11
12.281726189
 21
-23.0932716613
 31
0.0
  0
LINE
  5
1C6
330
1F
100
AcDbEntity
  8
SK3
  6
SLD-Dashed
370
    18
100
AcDbLine
 10
12.281726189
 20
-23.0932716613
 30
0.0
 11
11.94
 21
-23.0035886006
 31
0.0
  0
LINE
  5
1C7
330
1F
100
AcDbEntity
  8
SK3
  6
SLD-Dashed
370
    18
100
AcDbLine
 10
11.94
 20
-23.0035886006
 30
0.0
 11
11.5420514244
 21
-22.9472114719
 31
0.0
  0
LINE
  5
1C8
330
1F
100
AcDbEntity
  8
SK3
  6
SLD-Dashed
370
    18
100
AcDbLine
 10
11.5420514244
 20
-22.9472114719
 30
0.0
 11
11.115
 21
-22.9279822832
 31
0.0
  0
LINE
  5
1C9
330
1F
100
AcDbEntity
  8
SK3
  6
SLD-Dashed
370
    18
100
AcDbLine
 10
5.7322709434
 20
-25.9670001189
 30
0.0
 11
5.6150941671
 21
-25.983136574
 31
0.0
  0
LINE
  5
1CA
330
1F
100
AcDbEntity
  8
SK3
  6
SLD-Dashed
370
    18
100
AcDbLine
 10
5.6150941671
 20
-25.983136574
 30
0.0
 11
5.4343412237
 21
-25.9058373948
 31
0.0
  0
LINE
  5
1CB
330
1F
100
AcDbEntity
  8
SK3
  6
SLD-Dashed
370
    18
100
AcDbLine
 10
5.4343412237
 20
-25.9058373948
 30
0.0
 11
5.2005168173
 21
-25.7395949287
 31
0.0
  0
LINE
  5
1CC
330
1F
100
AcDbEntity
  8
SK3
  6
SLD-Dashed
370
    18
100
AcDbLine
 10
5.2005168173
 20
-25.7395949287
 30
0.0
 11
4.9272099725
 21
-25.4940705836
 31
0.0
  0
LINE
  5
1CD
330
1F
100
AcDbEntity
  8
SK3
  6
SLD-Dashed
370
    18
100
AcDbLine
 10
4.9272099725
 20
-25.4940705836
 30
0.0
 11
4.6303042896
 21
-25.1835333419
 31
0.0
  0
LINE
  5
1CE
330
1F
100
AcDbEntity
  8
SK3
  6
SLD-Dashed
370
    18
100
AcDbLine
 10
4.6303042896
 20
-25.1835333419
 30
0.0
 11
4.3270548477
 21
-24.8260304994
 31
0.0
  0
LINE
  5
1CF
330
1F
100
AcDbEntity
  8
SK3
  6
SLD-Dashed
370
    18
100
AcDbLine
 10
4.3270548477
 20
-24.8260304994
 30
0.0
 11
4.0350854021
 21
-24.4423388218
 31
0.0
  0
LINE
  5
1D0
330
1F
100
AcDbEntity
  8
SK3
  6
SLD-Dashed
370
    18
100
AcDbLine
 10
4.0350854021
 20
-24.4423388218
 30
0.0
 11
3.7713641558
 21
-24.0547570748
 31
0.0
  0
LINE
  5
1D1
330
1F
100
AcDbEntity
  8
SK3
  6
SLD-Dashed
370
    18
100
AcDbLine
 10
3.7713641558
 20
-24.0547570748
 30
0.0
 11
3.551217629
 21
-23.6858101006
 31
0.0
  0
LINE
  5
1D2
330
1F
100
AcDbEntity
  8
SK3
  6
SLD-Dashed
370
    18
100
AcDbLine
 10
3.551217629
 20
-23.6858101006
 30
0.0
 11
3.3874399376
 21
-23.3569397564
 31
0.0
  0
LINE
  5
1D3
330
1F
100
AcDbEntity
  8
SK3
  6
SLD-Dashed
370
    18
100
AcDbLine
 10
3.3874399376
 20
-23.3569397564
 30
0.0
 11
3.2895492458
 21
-23.0872587912
 31
0.0
  0
LINE
  5
1D4
330
1F
100
AcDbEntity
  8
SK3
  6
SLD-Dashed
370
    18
100
AcDbLine
 10
3.2895492458
 20
-23.0872587912
 30
0.0
 11
3.2632346046
 21
-22.8924400823
 31
0.0
  0
LINE
  5
1D5
330
1F
100
AcDbEntity
  8
SK3
  6
SLD-Dashed
370
    18
100
AcDbLine
 10
3.2632346046
 20
-22.8924400823
 30
0.0
 11
3.3100253255
 21
-22.7838057852
 31
0.0
  0
LINE
  5
1D6
330
1F
100
AcDbEntity
  8
SK3
  6
SLD-Dashed
370
    18
100
AcDbLine
 10
3.3100253255
 20
-22.7838057852
 30
0.0
 11
3.4272021018
 21
-22.7676693301
 31
0.0
  0
LINE
  5
1D7
330
1F
100
AcDbEntity
  8
SK3
  6
SLD-Dashed
370
    18
100
AcDbLine
 10
3.4272021018
 20
-22.7676693301
 30
0.0
 11
3.6079550452
 21
-22.8449685093
 31
0.0
  0
LINE
  5
1D8
330
1F
100
AcDbEntity
  8
SK3
  6
SLD-Dashed
370
    18
100
AcDbLine
 10
3.6079550452
 20
-22.8449685093
 30
0.0
 11
3.8417794516
 21
-23.0112109753
 31
0.0
  0
LINE
  5
1D9
330
1F
100
AcDbEntity
  8
SK3
  6
SLD-Dashed
370
    18
100
AcDbLine
 10
3.8417794516
 20
-23.0112109753
 30
0.0
 11
4.1150862965
 21
-23.2567353205
 31
0.0
  0
LINE
  5
1DA
330
1F
100
AcDbEntity
  8
SK3
  6
SLD-Dashed
370
    18
100
AcDbLine
 10
4.1150862965
 20
-23.2567353205
 30
0.0
 11
4.4119919794
 21
-23.5672725622
 31
0.0
  0
LINE
  5
1DB
330
1F
100
AcDbEntity
  8
SK3
  6
SLD-Dashed
370
    18
100
AcDbLine
 10
4.4119919794
 20
-23.5672725622
 30
0.0
 11
4.7152414213
 21
-23.9247754047
 31
0.0
  0
LINE
  5
1DC
330
1F
100
AcDbEntity
  8
SK3
  6
SLD-Dashed
370
    18
100
AcDbLine
 10
4.7152414213
 20
-23.9247754047
 30
0.0
 11
5.0072108668
 21
-24.3084670823
 31
0.0
  0
LINE
  5
1DD
330
1F
100
AcDbEntity
  8
SK3
  6
SLD-Dashed
370
    18
100
AcDbLine
 10
5.0072108668
 20
-24.3084670823
 30
0.0
 11
5.2709321131
 21
-24.6960488293
 31
0.0
  0
LINE
  5
1DE
330
1F
100
AcDbEntity
  8
SK3
  6
SLD-Dashed
370
    18
100
AcDbLine
 10
5.2709321131
 20
-24.6960488293
 30
0.0
 11
5.4910786399
 21
-25.0649958035
 31
0.0
  0
LINE
  5
1DF
330
1F
100
AcDbEntity
  8
SK3
  6
SLD-Dashed
370
    18
100
AcDbLine
 10
5.4910786399
 20
-25.0649958035
 30
0.0
 11
5.6548563313
 21
-25.3938661477
 31
0.0
  0
LINE
  5
1E0
330
1F
100
AcDbEntity
  8
SK3
  6
SLD-Dashed
370
    18
100
AcDbLine
 10
5.6548563313
 20
-25.3938661477
 30
0.0
 11
5.7527470232
 21
-25.6635471129
 31
0.0
  0
LINE
  5
1E1
330
1F
100
AcDbEntity
  8
SK3
  6
SLD-Dashed
370
    18
100
AcDbLine
 10
5.7527470232
 20
-25.6635471129
 30
0.0
 11
5.7790616643
 21
-25.8583658217
 31
0.0
  0
LINE
  5
1E2
330
1F
100
AcDbEntity
  8
SK3
  6
SLD-Dashed
370
    18
100
AcDbLine
 10
5.7790616643
 20
-25.8583658217
 30
0.0
 11
5.7322709434
 21
-25.9670001189
 31
0.0
  0
LINE
  5
1E3
330
1F
100
AcDbEntity
  8
1
  6
SLD-Dashed
370
    18
100
AcDbLine
 10
3.2
 20
-22.8742979511
 30
0.0
 11
3.2
 21
-27.8871582268
 31
0.0
  0
LINE
  5
1E4
330
1F
100
AcDbEntity
  8
SK3
  6
SLD-Dashed
370
    18
100
AcDbLine
 10
9.115
 20
27.3466468125
 30
0.0
 11
9.115
 21
23.230614392
 31
0.0
  0
LINE
  5
1E5
330
1F
100
AcDbEntity
  8
SK3
  6
SLD-Dashed
370
    18
100
AcDbLine
 10
13.115
 20
23.2104077334
 30
0.0
 11
13.115
 21
27.3466468125
 31
0.0
  0
LINE
  5
1E6
330
1F
100
AcDbEntity
  8
SK3
  6
SLD-Dashed
370
    18
100
AcDbLine
 10
3.2
 20
22.8675293454
 30
0.0
 11
3.3100253255
 21
22.7838057852
 31
0.0
  0
LINE
  5
1E7
330
1F
100
AcDbEntity
  8
SK3
  6
SLD-Dashed
370
    18
100
AcDbLine
 10
5.7322709434
 20
25.9670001189
 30
0.0
 11
3.2
 21
27.8939268324
 31
0.0
  0
LINE
  5
1E8
330
1F
100
AcDbEntity
  8
SK3
  6
SLD-Dashed
370
    18
100
AcDbLine
 10
12.6773076344
 20
15.718620262
 30
0.0
 11
13.9872030677
 21
14.7218578465
 31
0.0
  0
LINE
  5
1E9
330
1F
100
AcDbEntity
  8
SK3
  6
SLD-Dashed
370
    18
100
AcDbLine
 10
3.3403033958
 20
22.8235957143
 30
0.0
 11
9.5636972046
 21
18.0879161418
 31
0.0
  0
LINE
  5
1EA
330
1F
100
AcDbEntity
  8
SK3
  6
SLD-Dashed
370
    18
100
AcDbLine
 10
9.5541511667
 20
22.9959177308
 30
0.0
 11
5.7019928732
 21
25.9272101898
 31
0.0
  0
LINE
  5
1EB
330
1F
100
AcDbEntity
  8
SK3
  6
SLD-Dashed
370
    18
100
AcDbLine
 10
16.3488925452
 20
17.8254723219
 30
0.0
 11
12.6670873806
 21
20.6271348944
 31
0.0
  0
LINE
  5
1EC
330
1F
100
AcDbEntity
  8
SK3
  6
SLD-Dashed
370
    18
100
AcDbLine
 10
63.0
 20
10.5773502692
 30
0.0
 11
62.0
 21
10.0
 31
0.0
  0
LINE
  5
1ED
330
1F
100
AcDbEntity
  8
SK3
  6
SLD-Dashed
370
    18
100
AcDbLine
 10
62.0
 20
-10.0
 30
0.0
 11
63.0
 21
-10.5773502692
 31
0.0
  0
LINE
  5
1EE
330
1F
100
AcDbEntity
  8
SK3
  6
SLD-Dashed
370
    18
100
AcDbLine
 10
9.25
 20
-10.25
 30
0.0
 11
13.75
 21
-10.25
 31
0.0
  0
LINE
  5
1EF
330
1F
100
AcDbEntity
  8
SK3
  6
SLD-Dashed
370
    18
100
AcDbLine
 10
13.75
 20
10.25
 30
0.0
 11
9.25
 21
10.25
 31
0.0
  0
LINE
  5
1F0
330
1F
100
AcDbEntity
  8
SK3
  6
SLD-Dashed
370
    18
100
AcDbLine
 10
62.0
 20
10.0
 30
0.0
 11
14.0
 21
10.0
 31
0.0
  0
LINE
  5
1F1
330
1F
100
AcDbEntity
  8
SK3
  6
SLD-Dashed
370
    18
100
AcDbLine
 10
45.0
 20
-10.0
 30
0.0
 11
62.0
 21
-10.0
 31
0.0
  0
LINE
  5
1F2
330
1F
100
AcDbEntity
  8
SK3
  6
SLD-Dashed
370
    18
100
AcDbLine
 10
14.0
 20
-10.0
 30
0.0
 11
31.0004980682
 21
-10.0
 31
0.0
  0
LINE
  5
1F3
330
1F
100
AcDbEntity
  8
SK3
  6
SLD-Dashed
370
    18
100
AcDbLine
 10
9.465
 20
23.2104077334
 30
0.0
 11
9.465
 21
22.9667378435
 31
0.0
  0
LINE
  5
1F4
330
1F
100
AcDbEntity
  8
SK3
  6
SLD-Dashed
370
    18
100
AcDbLine
 10
12.765
 20
20.454307559
 30
0.0
 11
12.765
 21
23.2104077334
 31
0.0
  0
LINE
  5
1F5
330
1F
100
AcDbEntity
  8
SK3
  6
SLD-Dashed
370
    18
100
AcDbLine
 10
-68.25
 20
-9.25
 30
0.0
 11
-66.9509618943
 21
-8.5
 31
0.0
  0
LINE
  5
1F6
330
1F
100
AcDbEntity
  8
SK3
  6
SLD-Dashed
370
    18
100
AcDbLine
 10
-66.9509618943
 20
8.5
 30
0.0
 11
-68.25
 21
9.25
 31
0.0
  0
LINE
  5
1F7
330
1F
100
AcDbEntity
  8
SK3
  6
SLD-Dashed
370
    18
100
AcDbLine
 10
47.125
 20
-26.0
 30
0.0
 11
47.125
 21
-23.9
 31
0.0
  0
LINE
  5
1F8
330
1F
100
AcDbEntity
  8
SK3
  6
SLD-Dashed
370
    18
100
AcDbLine
 10
-57.75
 20
8.8
 30
0.0
 11
-59.75
 21
8.8
 31
0.0
  0
LINE
  5
1F9
330
1F
100
AcDbEntity
  8
SK3
  6
SLD-Dashed
370
    18
100
AcDbLine
 10
-59.75
 20
-8.8
 30
0.0
 11
-57.75
 21
-8.8
 31
0.0
  0
LINE
  5
1FA
330
1F
100
AcDbEntity
  8
SK3
  6
SLD-Dashed
370
    18
100
AcDbLine
 10
-59.75
 20
8.8
 30
0.0
 11
-60.2696152423
 21
8.5
 31
0.0
  0
LINE
  5
1FB
330
1F
100
AcDbEntity
  8
SK3
  6
SLD-Dashed
370
    18
100
AcDbLine
 10
-60.2696152423
 20
-8.5
 30
0.0
 11
-59.75
 21
-8.8
 31
0.0
  0
LINE
  5
1FC
330
1F
100
AcDbEntity
  8
SK3
  6
SLD-Dashed
370
    18
100
AcDbLine
 10
-57.75
 20
-8.8
 30
0.0
 11
-56.7107695155
 21
-7.0
 31
0.0
  0
LINE
  5
1FD
330
1F
100
AcDbEntity
  8
SK3
  6
SLD-Dashed
370
    18
100
AcDbLine
 10
-56.7107695155
 20
7.0
 30
0.0
 11
-57.75
 21
8.8
 31
0.0
  0
LINE
  5
1FE
330
1F
100
AcDbEntity
  8
SK3
  6
SLD-Dashed
370
    18
100
AcDbLine
 10
-66.9509618943
 20
-8.5
 30
0.0
 11
-60.2696152423
 21
-8.5
 31
0.0
  0
LINE
  5
1FF
330
1F
100
AcDbEntity
  8
SK3
  6
SLD-Dashed
370
    18
100
AcDbLine
 10
-60.2696152423
 20
8.5
 30
0.0
 11
-66.9509618943
 21
8.5
 31
0.0
  0
LINE
  5
200
330
1F
100
AcDbEntity
  8
SK3
  6
SLD-Dashed
370
    18
100
AcDbLine
 10
9.465
 20
18.2613425767
 30
0.0
 11
9.465
 21
9.6287861391
 31
0.0
  0
LINE
  5
201
330
1F
100
AcDbEntity
  8
SK3
  6
SLD-Dashed
370
    18
100
AcDbLine
 10
12.765
 20
9.6314778987
 30
0.0
 11
12.765
 21
15.7500776376
 31
0.0
  0
LINE
  5
202
330
1F
100
AcDbEntity
  8
SK3
  6
SLD-Dashed
370
    18
100
AcDbLine
 10
14.1920377033
 20
14.7367975886
 30
0.0
 11
16.0786127932
 21
15.5807724054
 31
0.0
  0
LINE
  5
203
330
1F
100
AcDbEntity
  8
SK3
  6
SLD-Dashed
370
    18
100
AcDbLine
 10
16.0786127932
 20
15.5807724054
 30
0.0
 11
16.3891004984
 21
17.6240678921
 31
0.0
  0
LINE
  5
204
330
1F
100
AcDbEntity
  8
SK3
  6
SLD-Dashed
370
    18
100
AcDbLine
 10
45.0
 20
-23.9
 30
0.0
 11
45.0
 21
-10.0
 31
0.0
  0
LINE
  5
205
330
1F
100
AcDbEntity
  8
SK3
  6
SLD-Dashed
370
    18
100
AcDbLine
 10
31.0
 20
-9.9996533339
 30
0.0
 11
31.0
 21
-23.9
 31
0.0
  0
LINE
  5
206
330
1F
100
AcDbEntity
  8
SK3
  6
SLD-Dashed
370
    18
100
AcDbLine
 10
-56.7107695155
 20
-7.0
 30
0.0
 11
-11.25
 21
-7.0
 31
0.0
  0
LINE
  5
207
330
1F
100
AcDbEntity
  8
SK3
  6
SLD-Dashed
370
    18
100
AcDbLine
 10
-11.25
 20
7.0
 30
0.0
 11
-56.7107695155
 21
7.0
 31
0.0
  0
LINE
  5
208
330
1F
100
AcDbEntity
  8
SK3
  6
SLD-Dashed
370
    18
100
AcDbLine
 10
-11.249969957
 20
-6.99995
 30
0.0
 11
9.0
 21
-6.99995
 31
0.0
  0
LINE
  5
209
330
1F
100
AcDbEntity
  8
SK3
  6
SLD-Dashed
370
    18
100
AcDbLine
 10
9.0
 20
6.99995
 30
0.0
 11
-11.249969957
 21
6.99995
 31
0.0
  0
LINE
  5
20A
330
1F
100
AcDbEntity
  8
1
  6
SLD-Dashed
370
    18
100
AcDbLine
 10
28.875
 20
-23.9
 30
0.0
 11
28.875
 21
-24.0
 31
0.0
  0
LINE
  5
20B
330
1F
100
AcDbEntity
  8
SK3
  6
SLD-Dashed
370
    18
100
AcDbLine
 10
9.465
 20
-9.6314778987
 30
0.0
 11
9.465
 21
-18.259206264
 31
0.0
  0
LINE
  5
20C
330
1F
100
AcDbEntity
  8
SK3
  6
SLD-Dashed
370
    18
100
AcDbLine
 10
12.765
 20
-15.7542792276
 30
0.0
 11
12.765
 21
-9.6287861391
 31
0.0
  0
LINE
  5
20D
330
1F
100
AcDbEntity
  8
SK3
  6
SLD-Dashed
370
    18
100
AcDbLine
 10
16.3891004984
 20
-17.6240678921
 30
0.0
 11
16.0786127932
 21
-15.5807724054
 31
0.0
  0
LINE
  5
20E
330
1F
100
AcDbEntity
  8
SK3
  6
SLD-Dashed
370
    18
100
AcDbLine
 10
16.0786127932
 20
-15.5807724054
 30
0.0
 11
14.1920377033
 21
-14.7367975886
 31
0.0
  0
LINE
  5
20F
330
1F
100
AcDbEntity
  8
SK3
  6
SLD-Dashed
370
    18
100
AcDbLine
 10
12.6773076344
 20
-20.6193578118
 30
0.0
 11
16.3488925452
 21
-17.8254723219
 31
0.0
  0
LINE
  5
210
330
1F
100
AcDbEntity
  8
SK3
  6
SLD-Dashed
370
    18
100
AcDbLine
 10
5.7019928732
 20
-25.9272101898
 30
0.0
 11
9.5594085835
 21
-22.9919171096
 31
0.0
  0
LINE
  5
211
330
1F
100
AcDbEntity
  8
SK3
  6
SLD-Dashed
370
    18
100
AcDbLine
 10
9.5588677739
 20
-18.0915910878
 30
0.0
 11
3.3403033958
 21
-22.8235957143
 31
0.0
  0
LINE
  5
212
330
1F
100
AcDbEntity
  8
SK3
  6
SLD-Dashed
370
    18
100
AcDbLine
 10
13.9872030677
 20
-14.7218578465
 30
0.0
 11
12.6651816959
 21
-15.7278474716
 31
0.0
  0
LINE
  5
213
330
1F
100
AcDbEntity
  8
SK3
  6
SLD-Dashed
370
    18
100
AcDbLine
 10
9.465
 20
-22.9638453577
 30
0.0
 11
9.465
 21
-23.4923155196
 31
0.0
  0
LINE
  5
214
330
1F
100
AcDbEntity
  8
SK3
  6
SLD-Dashed
370
    18
100
AcDbLine
 10
12.765
 20
-23.4923155196
 30
0.0
 11
12.765
 21
-20.4547737958
 31
0.0
  0
LINE
  5
215
330
1F
100
AcDbEntity
  8
SK3
  6
SLD-Dashed
370
    18
100
AcDbLine
 10
3.2
 20
-27.8939268324
 30
0.0
 11
5.7322709434
 21
-25.9670001189
 31
0.0
  0
LINE
  5
216
330
1F
100
AcDbEntity
  8
SK3
  6
SLD-Dashed
370
    18
100
AcDbLine
 10
3.3100253255
 20
-22.7838057852
 30
0.0
 11
3.2
 21
-22.8675293454
 31
0.0
  0
LINE
  5
217
330
1F
100
AcDbEntity
  8
SK3
  6
SLD-Dashed
370
    18
100
AcDbLine
 10
9.8021669195
 20
-23.8341593579
 30
0.0
 11
11.115
 21
-24.4239455979
 31
0.0
  0
LINE
  5
218
330
1F
100
AcDbEntity
  8
SK3
  6
SLD-Dashed
370
    18
100
AcDbLine
 10
11.115
 20
-24.4239455979
 30
0.0
 11
12.4278330805
 21
-23.8341593579
 31
0.0
  0
LINE
  5
219
330
1F
100
AcDbEntity
  8
SK3
  6
SLD-Solid
370
    18
100
AcDbLine
 10
-35.2500006557
 20
8.00000038
 30
0.0
 11
-57.2881214321
 21
8.00000038
 31
0.0
  0
LINE
  5
21A
330
1F
100
AcDbEntity
  8
SK3
  6
SLD-Solid
370
    18
100
AcDbLine
 10
-57.2881214321
 20
-8.00000038
 30
0.0
 11
-35.2500006557
 21
-8.00000038
 31
0.0
  0
LINE
  5
21B
330
1F
100
AcDbEntity
  8
SK3
  6
SLD-Solid
370
    18
100
AcDbLine
 10
-35.2500006557
 20
8.00000038
 30
0.0
 11
-35.2500006557
 21
7.918571122
 31
0.0
  0
LINE
  5
21C
330
1F
100
AcDbEntity
  8
SK3
  6
SLD-Solid
370
    18
100
AcDbLine
 10
-35.2500006557
 20
7.918571122
 30
0.0
 11
-35.2500006557
 21
7.6759438962
 31
0.0
  0
LINE
  5
21D
330
1F
100
AcDbEntity
  8
SK3
  6
SLD-Solid
370
    18
100
AcDbLine
 10
-35.2500006557
 20
7.6759438962
 30
0.0
 11
-35.2500006557
 21
7.2770561092
 31
0.0
  0
LINE
  5
21E
330
1F
100
AcDbEntity
  8
SK3
  6
SLD-Solid
370
    18
100
AcDbLine
 10
-35.2500006557
 20
7.2770561092
 30
0.0
 11
-35.2500006557
 21
6.7300284281
 31
0.0
  0
LINE
  5
21F
330
1F
100
AcDbEntity
  8
SK3
  6
SLD-Solid
370
    18
100
AcDbLine
 10
-35.2500006557
 20
6.7300284281
 30
0.0
 11
-35.2500006557
 21
6.0459966771
 31
0.0
  0
LINE
  5
220
330
1F
100
AcDbEntity
  8
SK3
  6
SLD-Solid
370
    18
100
AcDbLine
 10
-35.2500006557
 20
6.0459966771
 30
0.0
 11
-35.2500006557
 21
5.2388859913
 31
0.0
  0
LINE
  5
221
330
1F
100
AcDbEntity
  8
SK3
  6
SLD-Solid
370
    18
100
AcDbLine
 10
-35.2500006557
 20
5.2388859913
 30
0.0
 11
-35.2500006557
 21
4.3251267634
 31
0.0
  0
LINE
  5
222
330
1F
100
AcDbEntity
  8
SK3
  6
SLD-Solid
370
    18
100
AcDbLine
 10
-35.2500006557
 20
4.3251267634
 30
0.0
 11
-35.2500006557
 21
3.3233200666
 31
0.0
  0
LINE
  5
223
330
1F
100
AcDbEntity
  8
SK3
  6
SLD-Solid
370
    18
100
AcDbLine
 10
-35.2500006557
 20
3.3233200666
 30
0.0
 11
-35.2500006557
 21
2.253860468
 31
0.0
  0
LINE
  5
224
330
1F
100
AcDbEntity
  8
SK3
  6
SLD-Solid
370
    18
100
AcDbLine
 10
-35.2500006557
 20
2.253860468
 30
0.0
 11
-35.2500006557
 21
1.1385186808
 31
0.0
  0
LINE
  5
225
330
1F
100
AcDbEntity
  8
SK3
  6
SLD-Solid
370
    18
100
AcDbLine
 10
-35.2500006557
 20
1.1385186808
 30
0.0
 11
-35.2500006557
 21
0.0
 31
0.0
  0
LINE
  5
226
330
1F
100
AcDbEntity
  8
SK3
  6
SLD-Solid
370
    18
100
AcDbLine
 10
-35.2500006557
 20
0.0
 30
0.0
 11
-35.2500006557
 21
-1.1385186808
 31
0.0
  0
LINE
  5
227
330
1F
100
AcDbEntity
  8
SK3
  6
SLD-Solid
370
    18
100
AcDbLine
 10
-35.2500006557
 20
-1.1385186808
 30
0.0
 11
-35.2500006557
 21
-2.253860468
 31
0.0
  0
LINE
  5
228
330
1F
100
AcDbEntity
  8
SK3
  6
SLD-Solid
370
    18
100
AcDbLine
 10
-35.2500006557
 20
-2.253860468
 30
0.0
 11
-35.2500006557
 21
-3.3233200666
 31
0.0
  0
LINE
  5
229
330
1F
100
AcDbEntity
  8
SK3
  6
SLD-Solid
370
    18
100
AcDbLine
 10
-35.2500006557
 20
-3.3233200666
 30
0.0
 11
-35.2500006557
 21
-4.3251267634
 31
0.0
  0
LINE
  5
22A
330
1F
100
AcDbEntity
  8
SK3
  6
SLD-Solid
370
    18
100
AcDbLine
 10
-35.2500006557
 20
-4.3251267634
 30
0.0
 11
-35.2500006557
 21
-5.2388859913
 31
0.0
  0
LINE
  5
22B
330
1F
100
AcDbEntity
  8
SK3
  6
SLD-Solid
370
    18
100
AcDbLine
 10
-35.2500006557
 20
-5.2388859913
 30
0.0
 11
-35.2500006557
 21
-6.0459966771
 31
0.0
  0
LINE
  5
22C
330
1F
100
AcDbEntity
  8
SK3
  6
SLD-Solid
370
    18
100
AcDbLine
 10
-35.2500006557
 20
-6.0459966771
 30
0.0
 11
-35.2500006557
 21
-6.7300284281
 31
0.0
  0
LINE
  5
22D
330
1F
100
AcDbEntity
  8
SK3
  6
SLD-Solid
370
    18
100
AcDbLine
 10
-35.2500006557
 20
-6.7300284281
 30
0.0
 11
-35.2500006557
 21
-7.2770561092
 31
0.0
  0
LINE
  5
22E
330
1F
100
AcDbEntity
  8
SK3
  6
SLD-Solid
370
    18
100
AcDbLine
 10
-35.2500006557
 20
-7.2770561092
 30
0.0
 11
-35.2500006557
 21
-7.6759438962
 31
0.0
  0
LINE
  5
22F
330
1F
100
AcDbEntity
  8
SK3
  6
SLD-Solid
370
    18
100
AcDbLine
 10
-35.2500006557
 20
-7.6759438962
 30
0.0
 11
-35.2500006557
 21
-7.918571122
 31
0.0
  0
LINE
  5
230
330
1F
100
AcDbEntity
  8
SK3
  6
SLD-Solid
370
    18
100
AcDbLine
 10
-35.2500006557
 20
-7.918571122
 30
0.0
 11
-35.2500006557
 21
-8.00000038
 31
0.0
  0
LINE
  5
231
330
1F
100
AcDbEntity
  8
SK3
  6
SLD-Solid
370
    18
100
AcDbLine
 10
29.9999993294
 20
-9.9890111014
 30
0.0
 11
29.9999993294
 21
-23.9000003785
 31
0.0
  0
LINE
  5
232
330
1F
100
AcDbEntity
  8
SK3
  6
SLD-Solid
370
    18
100
AcDbLine
 10
46.0000000894
 20
-23.9000003785
 30
0.0
 11
46.0000000894
 21
-9.9890111014
 31
0.0
  0
LINE
  5
233
330
1F
100
AcDbEntity
  8
SK3
  6
SLD-Solid
370
    18
100
AcDbLine
 10
41.8729819357
 20
-7.1414285339
 30
0.0
 11
43.0774651468
 21
-7.8589655459
 31
0.0
  0
LINE
  5
234
330
1F
100
AcDbEntity
  8
SK3
  6
SLD-Solid
370
    18
100
AcDbLine
 10
30.0136394799
 20
-9.9890111014
 30
0.0
 11
30.0042591989
 21
-9.9964831024
 31
0.0
  0
LINE
  5
235
330
1F
100
AcDbEntity
  8
SK3
  6
SLD-Solid
370
    18
100
AcDbLine
 10
34.1269397408
 20
-7.1414285339
 30
0.0
 11
41.8729819357
 21
-7.1414285339
 31
0.0
  0
LINE
  5
236
330
1F
100
AcDbEntity
  8
4
  6
SLD-Center
370
    18
100
AcDbLine
 10
65.0
 20
0.0
 30
0.0
 11
0.6156499361
 21
0.0
 31
0.0
  0
LINE
  5
237
330
1F
100
AcDbEntity
  8
4
  6
SLD-Center
370
    18
100
AcDbLine
 10
38.0
 20
-7.6197309778
 30
0.0
 11
38.0
 21
-25.8176376691
 31
0.0
  0
LINE
  5
238
330
1F
100
AcDbEntity
  8
SK4
  6
SLD-Center
370
    18
100
AcDbLine
 10
65.1711901515
 20
0.0
 30
0.0
 11
-68.9509618943
 21
0.0
 31
0.0
  0
ARC
  5
239
330
1F
100
AcDbEntity
  8
1
  6
SLD-Solid
370
    25
100
AcDbCircle
 10
3.95
 20
31.0
 30
0.0
 40
0.7500000000000009
100
AcDbArc
 50
90.0
 51
180.0
  0
ARC
  5
23A
330
1F
100
AcDbEntity
  8
1
  6
SLD-Solid
370
    25
100
AcDbCircle
 10
18.3
 20
31.0
 30
0.0
 40
0.75
100
AcDbArc
 50
0.0
 51
90.0
  0
ARC
  5
23B
330
1F
100
AcDbEntity
  8
1
  6
SLD-Solid
370
    25
100
AcDbCircle
 10
21.05
 20
26.0
 30
0.0
 40
2.000000000000004
100
AcDbArc
 50
180.0
 51
270.0
  0
ARC
  5
23C
330
1F
100
AcDbEntity
  8
1
  6
SLD-Solid
370
    25
100
AcDbCircle
 10
21.05
 20
-26.0
 30
0.0
 40
2.000000000000004
100
AcDbArc
 50
90.0
 51
180.0
  0
ARC
  5
23D
330
1F
100
AcDbEntity
  8
1
  6
SLD-Solid
370
    25
100
AcDbCircle
 10
2.45
 20
-22.79
 30
0.0
 40
0.750000000000013
100
AcDbArc
 50
0.0
 51
115.0
  0
ARC
  5
23E
330
1F
100
AcDbEntity
  8
1
  6
SLD-Solid
370
    25
100
AcDbCircle
 10
2.45
 20
22.79
 30
0.0
 40
0.7500000000000046
100
AcDbArc
 50
245.0
 51
0.0
  0
ARC
  5
23F
330
1F
100
AcDbEntity
  8
1
  6
SLD-Solid
370
    25
100
AcDbCircle
 10
3.95
 20
-31.0
 30
0.0
 40
0.7500000000000009
100
AcDbArc
 50
180.0
 51
270.0
  0
ARC
  5
240
330
1F
100
AcDbEntity
  8
1
  6
SLD-Solid
370
    25
100
AcDbCircle
 10
18.3
 20
-31.0
 30
0.0
 40
0.75
100
AcDbArc
 50
270.0
 51
0.0
  0
ARC
  5
241
330
1F
100
AcDbEntity
  8
1
  6
SLD-Solid
370
    25
100
AcDbCircle
 10
9.95
 20
-28.75
 30
0.0
 40
0.7500000000000284
100
AcDbArc
 50
90.0
 51
180.0
  0
ARC
  5
242
330
1F
100
AcDbEntity
  8
1
  6
SLD-Solid
370
    25
100
AcDbCircle
 10
12.28
 20
-28.75
 30
0.0
 40
0.7500000000000142
100
AcDbArc
 50
0.0
 51
90.0
  0
ARC
  5
243
330
1F
100
AcDbEntity
  8
SK1
  6
SLD-Solid
370
    25
100
AcDbCircle
 10
-67.25
 20
-11.4070377962
 30
0.0
 40
1.0
100
AcDbArc
 50
180.0
 51
261.7027777778
  0
ARC
  5
244
330
1F
100
AcDbEntity
  8
SK1
  6
SLD-Solid
370
    25
100
AcDbCircle
 10
-67.25
 20
11.4070377962
 30
0.0
 40
1.000000000000003
100
AcDbArc
 50
98.2972222222
 51
180.0
  0
ARC
  5
245
330
1F
100
AcDbEntity
  8
1
  6
SLD-Solid
370
    25
100
AcDbCircle
 10
12.28
 20
28.75
 30
0.0
 40
0.75
100
AcDbArc
 50
270.0
 51
0.0
  0
ARC
  5
246
330
1F
100
AcDbEntity
  8
1
  6
SLD-Solid
370
    25
100
AcDbCircle
 10
9.95
 20
28.75
 30
0.0
 40
0.7500000000000071
100
AcDbArc
 50
180.0
 51
270.0
  0
CIRCLE
  5
247
330
1F
100
AcDbEntity
  8
1
  6
SLD-Solid
370
    25
100
AcDbCircle
 10
11.1
 20
0.0
 30
0.0
 40
4.999999999999993
  0
ARC
  5
248
330
1F
100
AcDbEntity
  8
SK3
  6
SLD-Dashed
370
    18
100
AcDbCircle
 10
38.0
 20
32.3322524444
 30
0.0
 40
12.5
100
AcDbArc
 50
224.6253451533
 51
327.3724570872
  0
ARC
  5
249
330
1F
100
AcDbEntity
  8
SK3
  6
SLD-Dashed
370
    18
100
AcDbCircle
 10
13.75
 20
-10.0
 30
0.0
 40
0.25
100
AcDbArc
 50
270.0
 51
0.0
  0
ARC
  5
24A
330
1F
100
AcDbEntity
  8
SK3
  6
SLD-Dashed
370
    18
100
AcDbCircle
 10
13.75
 20
10.0
 30
0.0
 40
0.25
100
AcDbArc
 50
360.0
 51
90.0
  0
ARC
  5
24B
330
1F
100
AcDbEntity
  8
SK3
  6
SLD-Dashed
370
    18
100
AcDbCircle
 10
9.25
 20
-10.0
 30
0.0
 40
0.2500000000000018
100
AcDbArc
 50
180.0
 51
270.0
  0
ARC
  5
24C
330
1F
100
AcDbEntity
  8
SK3
  6
SLD-Dashed
370
    18
100
AcDbCircle
 10
9.25
 20
10.0
 30
0.0
 40
0.2500000000000018
100
AcDbArc
 50
90.0
 51
180.0
  0
SPLINE
  5
24D
330
1F
100
AcDbEntity
  8
1
  6
SLD-Solid
370
    25
100
AcDbSpline
210
0.0
220
0.0
230
1.0
 70
    24
 71
     3
 72
    18
 73
    14
 74
     0
 42
0.000000001
 43
0.00000001
 40
0.0
 40
0.0
 40
0.0
 40
0.0
 40
0.0503985907721767
 40
0.1007611985112129
 40
0.1867133625924686
 40
0.250707802088887
 40
0.3759053866292146
 40
0.5002769903873882
 40
0.6254727404757954
 40
0.7499722576385894
 40
0.8750533663912197
 40
0.9372999447731115
 40
1.0
 40
1.0
 40
1.0
 40
1.0
 10
18.30000000000001
 20
-8.094999999999999
 30
0.0
 10
18.30672586936916
 20
-8.094999999999999
 30
0.0
 10
18.320172806045
 20
-8.094999999999997
 30
0.0
 10
18.3449095325843
 20
-8.094999999999997
 30
0.0
 10
18.37097379942361
 20
-8.094999999999997
 30
0.0
 10
18.40534068018866
 20
-8.094999999999997
 30
0.0
 10
18.4419720223766
 20
-8.094999999999999
 30
0.0
 10
18.47986487117882
 20
-8.094999999999999
 30
0.0
 10
18.51053614991211
 20
-8.094999999999999
 30
0.0
 10
18.53314513148852
 20
-8.094999999999999
 30
0.0
 10
18.54454926815964
 20
-8.094999999999999
 30
0.0
 10
18.54932787138489
 20
-8.094999999999999
 30
0.0
 10
18.54977541569454
 20
-8.094999999999999
 30
0.0
 10
18.54999999999998
 20
-8.094999999999999
 30
0.0
  0
SPLINE
  5
24E
330
1F
100
AcDbEntity
  8
1
  6
SLD-Solid
370
    25
100
AcDbSpline
210
0.0
220
0.0
230
1.0
 70
     8
 71
     3
 72
    15
 73
    11
 74
     0
 42
0.000000001
 43
0.00000001
 40
0.0
 40
0.0
 40
0.0
 40
0.0
 40
0.0701435325383619
 40
0.1230076382658076
 40
0.2464580449108382
 40
0.4936501266417946
 40
0.6221640882791771
 40
0.7451781028260629
 40
0.8734188463590339
 40
1.0
 40
1.0
 40
1.0
 40
1.0
 10
19.04999999999998
 20
-8.594999999999999
 30
0.0
 10
19.049144647715
 20
-8.600068931336667
 30
0.0
 10
19.04764465390721
 20
-8.608958094024784
 30
0.0
 10
19.03267384616041
 20
-8.626522361201253
 30
0.0
 10
18.98572299610649
 20
-8.65589054779112
 30
0.0
 10
18.87530842138224
 20
-8.686676393428922
 30
0.0
 10
18.72430920317458
 20
-8.709663478514928
 30
0.0
 10
18.59259636522159
 20
-8.722605848112547
 30
0.0
 10
18.44997512465275
 20
-8.730953584814676
 30
0.0
 10
18.34977418050395
 20
-8.73200013357309
 30
0.0
 10
18.30000000000006
 20
-8.732520000000022
 30
0.0
  0
SPLINE
  5
24F
330
1F
100
AcDbEntity
  8
1
  6
SLD-Solid
370
    25
100
AcDbSpline
210
0.0
220
0.0
230
1.0
 70
     8
 71
     3
 72
     8
 73
     4
 74
     0
 42
0.000000001
 43
0.00000001
 40
0.0
 40
0.0
 40
0.0
 40
0.0
 40
0.0008783072046589
 40
0.0008783072046589
 40
0.0008783072046589
 40
0.0008783072046589
 10
14.63683664205678
 20
-8.732520000000022
 30
0.0
 10
14.51427081432996
 20
-8.520229759105504
 30
0.0
 10
14.39228083356647
 20
-8.30772687520941
 30
0.0
 10
14.27090830787685
 20
-8.094999999999999
 30
0.0
  0
SPLINE
  5
250
330
1F
100
AcDbEntity
  8
1
  6
SLD-Solid
370
    25
100
AcDbSpline
210
0.0
220
0.0
230
1.0
 70
     8
 71
     3
 72
    15
 73
    11
 74
     0
 42
0.000000001
 43
0.00000001
 40
0.0
 40
0.0
 40
0.0
 40
0.0
 40
0.070143531794924
 40
0.1230076382662239
 40
0.2464580449112004
 40
0.4936501266420342
 40
0.6221640882725309
 40
0.7451781028261851
 40
0.8734188463588567
 40
1.0
 40
1.0
 40
1.0
 40
1.0
 10
3.199999999999994
 20
8.595000000000013
 30
0.0
 10
3.200855352268203
 20
8.600068931283253
 30
0.0
 10
3.202355346062516
 20
8.60895809397194
 30
0.0
 10
3.217326153757027
 20
8.626522361149199
 30
0.0
 10
3.264277003893534
 20
8.655890547791458
 30
0.0
 10
3.374691578616251
 20
8.686676393428536
 30
0.0
 10
3.525690796823091
 20
8.70966347851447
 30
0.0
 10
3.657403634775735
 20
8.722605848112428
 30
0.0
 10
3.800024875347141
 20
8.730953584814586
 30
0.0
 10
3.90022581949595
 20
8.732000133573045
 30
0.0
 10
3.949999999999898
 20
8.73251999999998
 30
0.0
  0
SPLINE
  5
251
330
1F
100
AcDbEntity
  8
1
  6
SLD-Solid
370
    25
100
AcDbSpline
210
0.0
220
0.0
230
1.0
 70
    24
 71
     3
 72
    18
 73
    14
 74
     0
 42
0.000000001
 43
0.00000001
 40
0.0
 40
0.0
 40
0.0
 40
0.0
 40
0.0503985907721776
 40
0.1007611985112122
 40
0.1867133625924729
 40
0.250707802088889
 40
0.3759053866292136
 40
0.5002769903873886
 40
0.6254727404758041
 40
0.7499722576385879
 40
0.8750533663912278
 40
0.9372999447731191
 40
0.9999999999999999
 40
0.9999999999999999
 40
0.9999999999999999
 40
0.9999999999999999
 10
3.949999999999967
 20
8.09499999999997
 30
0.0
 10
3.943274130630808
 20
8.09499999999997
 30
0.0
 10
3.92982719395496
 20
8.09499999999997
 30
0.0
 10
3.905090467415703
 20
8.094999999999978
 30
0.0
 10
3.879026200576396
 20
8.094999999999978
 30
0.0
 10
3.844659319811317
 20
8.094999999999985
 30
0.0
 10
3.808027977623405
 20
8.094999999999992
 30
0.0
 10
3.770135128821184
 20
8.094999999999999
 30
0.0
 10
3.739463850087901
 20
8.094999999999999
 30
0.0
 10
3.71685486851149
 20
8.095000000000004
 30
0.0
 10
3.705450731840365
 20
8.095000000000004
 30
0.0
 10
3.700672128615079
 20
8.095000000000004
 30
0.0
 10
3.700224584305467
 20
8.095000000000004
 30
0.0
 10
3.699999999999995
 20
8.095000000000004
 30
0.0
  0
SPLINE
  5
252
330
1F
100
AcDbEntity
  8
1
  6
SLD-Solid
370
    25
100
AcDbSpline
210
0.0
220
0.0
230
1.0
 70
     8
 71
     3
 72
     8
 73
     4
 74
     0
 42
0.000000001
 43
0.00000001
 40
0.0
 40
0.0
 40
0.0
 40
0.0
 40
0.0008783072046589
 40
0.0008783072046589
 40
0.0008783072046589
 40
0.0008783072046589
 10
7.593163357943244
 20
8.73251999999998
 30
0.0
 10
7.715729185670039
 20
8.520229759105463
 30
0.0
 10
7.837719166433526
 20
8.307726875209385
 30
0.0
 10
7.959091692123152
 20
8.09499999999997
 30
0.0
  0
SPLINE
  5
253
330
1F
100
AcDbEntity
  8
1
  6
SLD-Solid
370
    25
100
AcDbSpline
210
0.0
220
0.0
230
1.0
 70
    24
 71
     3
 72
     8
 73
     4
 74
     0
 42
0.000000001
 43
0.00000001
 40
0.0
 40
0.0
 40
0.0
 40
0.0
 40
0.2499999999999996
 40
0.2499999999999996
 40
0.2499999999999996
 40
0.2499999999999996
 10
18.29999999999998
 20
-18.34999999999999
 30
0.0
 10
18.41009345940825
 20
-18.34999999999999
 30
0.0
 10
18.51914645498264
 20
-18.34999999999999
 30
0.0
 10
18.6147896458887
 20
-18.34999999999999
 30
0.0
  0
SPLINE
  5
254
330
1F
100
AcDbEntity
  8
1
  6
SLD-Solid
370
    25
100
AcDbSpline
210
0.0
220
0.0
230
1.0
 70
    24
 71
     3
 72
     8
 73
     4
 74
     0
 42
0.000000001
 43
0.00000001
 40
0.2499999999999996
 40
0.2499999999999996
 40
0.2499999999999996
 40
0.2499999999999996
 40
0.4999999999999991
 40
0.4999999999999991
 40
0.4999999999999991
 40
0.4999999999999991
 10
18.6147896458887
 20
-18.34999999999999
 30
0.0
 10
18.71043283679473
 20
-18.34999999999999
 30
0.0
 10
18.79290518035347
 20
-18.34999999999999
 30
0.0
 10
18.85782919697514
 20
-18.34999999999999
 30
0.0
  0
SPLINE
  5
255
330
1F
100
AcDbEntity
  8
1
  6
SLD-Solid
370
    25
100
AcDbSpline
210
0.0
220
0.0
230
1.0
 70
    24
 71
     2
 72
     6
 73
     3
 74
     0
 42
0.000000001
 43
0.00000001
 40
0.4999999999999991
 40
0.4999999999999991
 40
0.4999999999999991
 40
1.0
 40
1.0
 40
1.0
 10
18.85782919697514
 20
-18.34999999999999
 30
0.0
 10
18.98767723021848
 20
-18.34999999999999
 30
0.0
 10
19.04999999999998
 20
-18.34999999999999
 30
0.0
  0
SPLINE
  5
256
330
1F
100
AcDbEntity
  8
1
  6
SLD-Solid
370
    25
100
AcDbSpline
210
0.0
220
0.0
230
1.0
 70
     8
 71
     3
 72
    17
 73
    13
 74
     0
 42
0.000000001
 43
0.00000001
 40
0.0
 40
0.0
 40
0.0
 40
0.0
 40
0.0630096892532792
 40
0.1264306799664213
 40
0.1902686728771463
 40
0.2545292253591724
 40
0.3775638368193145
 40
0.5060541142148836
 40
0.7530801336068137
 40
0.8766168954597358
 40
0.9296269325062025
 40
1.0
 40
1.0
 40
1.0
 40
1.0
 10
18.29999999999685
 20
8.73251999999293
 30
0.0
 10
18.32475416474074
 20
8.732391978119972
 30
0.0
 10
18.37442407928337
 20
8.732135098699661
 30
0.0
 10
18.4484309093114
 20
8.73004300415188
 30
0.0
 10
18.52143218660494
 20
8.726684778834711
 30
0.0
 10
18.61417448602591
 20
8.720522494880923
 30
0.0
 10
18.72385267704538
 20
8.709704769506498
 30
0.0
 10
18.87491226457111
 20
8.686766754249765
 30
0.0
 10
18.98548148832262
 20
8.655981996491702
 30
0.0
 10
19.03257258939285
 20
8.626607912865882
 30
0.0
 10
19.04762809452214
 20
8.60900638114874
 30
0.0
 10
19.04913851381911
 20
8.600087177325522
 30
0.0
 10
19.04999999999685
 20
8.594999999992927
 30
0.0
  0
SPLINE
  5
257
330
1F
100
AcDbEntity
  8
1
  6
SLD-Solid
370
    25
100
AcDbSpline
210
0.0
220
0.0
230
1.0
 70
     8
 71
     3
 72
     8
 73
     4
 74
     0
 42
0.000000001
 43
0.00000001
 40
0.0
 40
0.0
 40
0.0
 40
0.0
 40
0.0008783072046589
 40
0.0008783072046589
 40
0.0008783072046589
 40
0.0008783072046589
 10
14.27090830787371
 20
8.094999999992927
 30
0.0
 10
14.39228083356334
 20
8.307726875202343
 30
0.0
 10
14.51427081432682
 20
8.52022975909842
 30
0.0
 10
14.63683664205365
 20
8.73251999999293
 30
0.0
  0
SPLINE
  5
258
330
1F
100
AcDbEntity
  8
1
  6
SLD-Solid
370
    25
100
AcDbSpline
210
0.0
220
0.0
230
1.0
 70
    24
 71
     3
 72
    18
 73
    14
 74
     0
 42
0.000000001
 43
0.00000001
 40
0.0
 40
0.0
 40
0.0
 40
0.0
 40
0.0502617221452385
 40
0.1003354213518343
 40
0.1864287239590559
 40
0.2507033761673368
 40
0.3754040368259516
 40
0.5003115117971194
 40
0.6254321409840755
 40
0.7499589778058467
 40
0.8750959321922386
 40
0.9373335260982067
 40
1.0
 40
1.0
 40
1.0
 40
1.0
 10
18.54999999999685
 20
8.094999999992927
 30
0.0
 10
18.5498558533812
 20
8.094999999992927
 30
0.0
 10
18.54956809938477
 20
8.094999999992927
 30
0.0
 10
18.54670424338888
 20
8.094999999992927
 30
0.0
 10
18.54109212158889
 20
8.094999999992927
 30
0.0
 10
18.5293674684367
 20
8.094999999992927
 30
0.0
 10
18.51041383753513
 20
8.094999999992927
 30
0.0
 10
18.47965032418072
 20
8.094999999992927
 30
0.0
 10
18.44172270347647
 20
8.094999999992927
 30
0.0
 10
18.39795184457219
 20
8.094999999992927
 30
0.0
 10
18.35803612823039
 20
8.094999999992927
 30
0.0
 10
18.32503585238111
 20
8.094999999992927
 30
0.0
 10
18.30836436561496
 20
8.094999999992927
 30
0.0
 10
18.29999999999685
 20
8.094999999992927
 30
0.0
  0
SPLINE
  5
259
330
1F
100
AcDbEntity
  8
1
  6
SLD-Solid
370
    25
100
AcDbSpline
210
0.0
220
0.0
230
1.0
 70
     8
 71
     3
 72
     8
 73
     4
 74
     0
 42
0.000000001
 43
0.00000001
 40
0.0
 40
0.0
 40
0.0
 40
0.0
 40
0.0008783072046589
 40
0.0008783072046589
 40
0.0008783072046589
 40
0.0008783072046589
 10
7.959091692123138
 20
-8.095000000000011
 30
0.0
 10
7.837719166433513
 20
-8.307726875209442
 30
0.0
 10
7.715729185670026
 20
-8.520229759105533
 30
0.0
 10
7.593163357943244
 20
-8.732520000000035
 30
0.0
  0
SPLINE
  5
25A
330
1F
100
AcDbEntity
  8
1
  6
SLD-Solid
370
    25
100
AcDbSpline
210
0.0
220
0.0
230
1.0
 70
     8
 71
     3
 72
    17
 73
    13
 74
     0
 42
0.000000001
 43
0.00000001
 40
0.0
 40
0.0
 40
0.0
 40
0.0
 40
0.0630096893448915
 40
0.1264306800885594
 40
0.1902686729687489
 40
0.2545292253591998
 40
0.3775638371034538
 40
0.5060541142149917
 40
0.7530801336068986
 40
0.876616895459794
 40
0.9296269324393096
 40
1.0
 40
1.0
 40
1.0
 40
1.0
 10
3.949999999999995
 20
-8.732520000000035
 30
0.0
 10
3.925245835220095
 20
-8.73239197812643
 30
0.0
 10
3.875575920629384
 20
-8.732135098704987
 30
0.0
 10
3.801569090567489
 20
-8.730043004151838
 30
0.0
 10
3.728567813312031
 20
-8.726684778832874
 30
0.0
 10
3.635825513834512
 20
-8.720522494880214
 30
0.0
 10
3.526147322855763
 20
-8.709704769500192
 30
0.0
 10
3.375087735363991
 20
-8.68676675424038
 30
0.0
 10
3.264518511674031
 20
-8.655981996498609
 30
0.0
 10
3.21742741061147
 20
-8.62660791287766
 30
0.0
 10
3.202371905477439
 20
-8.609006381160585
 30
0.0
 10
3.200861486179263
 20
-8.600087177337429
 30
0.0
 10
3.199999999999994
 20
-8.595000000000026
 30
0.0
  0
SPLINE
  5
25B
330
1F
100
AcDbEntity
  8
1
  6
SLD-Solid
370
    25
100
AcDbSpline
210
0.0
220
0.0
230
1.0
 70
    24
 71
     3
 72
    18
 73
    14
 74
     0
 42
0.000000001
 43
0.00000001
 40
0.0
 40
0.0
 40
0.0
 40
0.0
 40
0.0502617221452651
 40
0.1003354213518358
 40
0.1864287239590548
 40
0.2507033761673301
 40
0.375404036825936
 40
0.5003115117971219
 40
0.6254321409840791
 40
0.7499589778058473
 40
0.8750959321922366
 40
0.9373335260982129
 40
1.0
 40
1.0
 40
1.0
 40
1.0
 10
3.699999999999995
 20
-8.095000000000018
 30
0.0
 10
3.700144146615625
 20
-8.095000000000018
 30
0.0
 10
3.700431900612131
 20
-8.095000000000018
 30
0.0
 10
3.703295756607994
 20
-8.095000000000018
 30
0.0
 10
3.708907878407983
 20
-8.095000000000018
 30
0.0
 10
3.7206325315602
 20
-8.095000000000004
 30
0.0
 10
3.739586162461714
 20
-8.095000000000015
 30
0.0
 10
3.770349675816131
 20
-8.095000000000015
 30
0.0
 10
3.808277296520377
 20
-8.095
 30
0.0
 10
3.852048155424684
 20
-8.095000000000015
 30
0.0
 10
3.891963871766477
 20
-8.095000000000011
 30
0.0
 10
3.924964147615756
 20
-8.094999999999999
 30
0.0
 10
3.941635634381893
 20
-8.095000000000011
 30
0.0
 10
3.949999999999995
 20
-8.095000000000011
 30
0.0
  0
SPLINE
  5
25C
330
1F
100
AcDbEntity
  8
1
  6
SLD-Solid
370
    25
100
AcDbSpline
210
0.0
220
0.0
230
1.0
 70
    24
 71
     2
 72
     6
 73
     3
 74
     0
 42
0.000000001
 43
0.00000001
 40
0.0
 40
0.0
 40
0.0
 40
0.5000000000000032
 40
0.5000000000000032
 40
0.5000000000000032
 10
3.199999999999994
 20
-18.34999999999999
 30
0.0
 10
3.262453391497278
 20
-18.34999999999999
 30
0.0
 10
3.391824966518506
 20
-18.34999999999999
 30
0.0
  0
SPLINE
  5
25D
330
1F
100
AcDbEntity
  8
1
  6
SLD-Solid
370
    25
100
AcDbSpline
210
0.0
220
0.0
230
1.0
 70
    24
 71
     3
 72
     8
 73
     4
 74
     0
 42
0.000000001
 43
0.00000001
 40
0.5000000000000032
 40
0.5000000000000032
 40
0.5000000000000032
 40
0.5000000000000032
 40
0.7500000000000016
 40
0.7500000000000016
 40
0.7500000000000016
 40
0.7500000000000016
 10
3.391824966518506
 20
-18.34999999999999
 30
0.0
 10
3.456510754029099
 20
-18.34999999999999
 30
0.0
 10
3.538937009729404
 20
-18.34999999999999
 30
0.0
 10
3.63440883323693
 20
-18.34999999999999
 30
0.0
  0
SPLINE
  5
25E
330
1F
100
AcDbEntity
  8
1
  6
SLD-Solid
370
    25
100
AcDbSpline
210
0.0
220
0.0
230
1.0
 70
    24
 71
     3
 72
     8
 73
     4
 74
     0
 42
0.000000001
 43
0.00000001
 40
0.7500000000000016
 40
0.7500000000000016
 40
0.7500000000000016
 40
0.7500000000000016
 40
1.0
 40
1.0
 40
1.0
 40
1.0
 10
3.63440883323693
 20
-18.34999999999999
 30
0.0
 10
3.729880656744427
 20
-18.34999999999999
 30
0.0
 10
3.838711986975829
 20
-18.34999999999999
 30
0.0
 10
3.949999999999995
 20
-18.34999999999999
 30
0.0
  0
SPLINE
  5
25F
330
1F
100
AcDbEntity
  8
1
  6
SLD-Solid
370
    25
100
AcDbSpline
210
0.0
220
0.0
230
1.0
 70
    24
 71
     3
 72
     8
 73
     4
 74
     0
 42
0.000000001
 43
0.00000001
 40
0.0
 40
0.0
 40
0.0
 40
0.0
 40
1.0
 40
1.0
 40
1.0
 40
1.0
 10
13.02999999999686
 20
8.094999999992927
 30
0.0
 10
13.44271800981461
 20
8.094999999992927
 30
0.0
 10
13.85641888623401
 20
8.094999999992927
 30
0.0
 10
14.27090830787371
 20
8.094999999992927
 30
0.0
  0
SPLINE
  5
260
330
1F
100
AcDbEntity
  8
1
  6
SLD-Solid
370
    25
100
AcDbSpline
210
0.0
220
0.0
230
1.0
 70
     8
 71
     3
 72
     9
 73
     5
 74
     0
 42
0.000000001
 43
0.00000001
 40
0.0
 40
0.0
 40
0.0
 40
0.0
 40
0.5549482632672378
 40
1.0
 40
1.0
 40
1.0
 40
1.0
 10
13.02999999999686
 20
27.01726268082101
 30
0.0
 10
13.05715000916631
 20
27.09737051094022
 30
0.0
 10
13.10607350522267
 20
27.24172239997501
 30
0.0
 10
13.10748201276953
 20
27.31440022370287
 30
0.0
 10
13.10810887149946
 20
27.3467456153749
 30
0.0
  0
SPLINE
  5
261
330
1F
100
AcDbEntity
  8
1
  6
SLD-Solid
370
    25
100
AcDbSpline
210
0.0
220
0.0
230
1.0
 70
     8
 71
     3
 72
     8
 73
     4
 74
     0
 42
0.000000001
 43
0.00000001
 40
0.0
 40
0.0
 40
0.0
 40
0.0
 40
1.0
 40
1.0
 40
1.0
 40
1.0
 10
13.11238376628524
 20
27.38885610116811
 30
0.0
 10
13.10369243773721
 20
27.43220912960294
 30
0.0
 10
13.07354924829487
 20
27.43601780818719
 30
0.0
 10
13.02999999999675
 20
27.41186263126708
 30
0.0
  0
SPLINE
  5
262
330
1F
100
AcDbEntity
  8
1
  6
SLD-Solid
370
    25
100
AcDbSpline
210
0.0
220
0.0
230
1.0
 70
    24
 71
     3
 72
     8
 73
     4
 74
     0
 42
0.000000001
 43
0.00000001
 40
0.0
 40
0.0
 40
0.0
 40
0.0
 40
1.0
 40
1.0
 40
1.0
 40
1.0
 10
13.03
 20
-18.34999999999999
 30
0.0
 10
13.5532681533943
 20
-18.34999999999999
 30
0.0
 10
14.0902128519339
 20
-18.34999999999999
 30
0.0
 10
14.63683664205678
 20
-18.34999999999999
 30
0.0
  0
SPLINE
  5
263
330
1F
100
AcDbEntity
  8
1
  6
SLD-Solid
370
    25
100
AcDbSpline
210
0.0
220
0.0
230
1.0
 70
    24
 71
     3
 72
     8
 73
     4
 74
     0
 42
0.000000001
 43
0.00000001
 40
0.0
 40
0.0
 40
0.0
 40
0.0
 40
1.0
 40
1.0
 40
1.0
 40
1.0
 10
14.27090830787685
 20
-8.094999999999999
 30
0.0
 10
13.85641888623715
 20
-8.094999999999999
 30
0.0
 10
13.44271800981775
 20
-8.094999999999999
 30
0.0
 10
13.03
 20
-8.094999999999999
 30
0.0
  0
SPLINE
  5
264
330
1F
100
AcDbEntity
  8
1
  6
SLD-Solid
370
    25
100
AcDbSpline
210
0.0
220
0.0
230
1.0
 70
     8
 71
     3
 72
     8
 73
     4
 74
     0
 42
0.000000001
 43
0.00000001
 40
0.0
 40
0.0
 40
0.0
 40
0.0
 40
1.0
 40
1.0
 40
1.0
 40
1.0
 10
9.199999999999985
 20
27.41186263126166
 30
0.0
 10
9.171016811579447
 20
27.42793854695173
 30
0.0
 10
9.148067685310846
 20
27.43188644554218
 30
0.0
 10
9.13318304827454
 20
27.41957129554514
 30
0.0
  0
SPLINE
  5
265
330
1F
100
AcDbEntity
  8
1
  6
SLD-Solid
370
    25
100
AcDbSpline
210
0.0
220
0.0
230
1.0
 70
     8
 71
     3
 72
    10
 73
     6
 74
     0
 42
0.000000001
 43
0.00000001
 40
0.0
 40
0.0
 40
0.0
 40
0.0
 40
0.1680288744547075
 40
0.7148701403564326
 40
1.0
 40
1.0
 40
1.0
 40
1.0
 10
9.121891128497428
 20
27.34654800952584
 30
0.0
 10
9.119836714036017
 20
27.33839028304315
 30
0.0
 10
9.11109631415448
 20
27.30368365839543
 30
0.0
 10
9.14668226228034
 20
27.17482051366003
 30
0.0
 10
9.186391132696134
 20
27.05747788371193
 30
0.0
 10
9.200000000000028
 20
27.01726268082809
 30
0.0
  0
SPLINE
  5
266
330
1F
100
AcDbEntity
  8
1
  6
SLD-Solid
370
    25
100
AcDbSpline
210
0.0
220
0.0
230
1.0
 70
    24
 71
     3
 72
     8
 73
     4
 74
     0
 42
0.000000001
 43
0.00000001
 40
0.0
 40
0.0
 40
0.0
 40
0.0
 40
1.0
 40
1.0
 40
1.0
 40
1.0
 10
7.959091692123152
 20
8.09499999999997
 30
0.0
 10
8.37358111376288
 20
8.094999999999978
 30
0.0
 10
8.787281990182278
 20
8.094999999999992
 30
0.0
 10
9.200000000000028
 20
8.094999999999999
 30
0.0
  0
SPLINE
  5
267
330
1F
100
AcDbEntity
  8
1
  6
SLD-Solid
370
    25
100
AcDbSpline
210
0.0
220
0.0
230
1.0
 70
    24
 71
     3
 72
     8
 73
     4
 74
     0
 42
0.000000001
 43
0.00000001
 40
0.0
 40
0.0
 40
0.0
 40
0.0
 40
1.0
 40
1.0
 40
1.0
 40
1.0
 10
7.593163357943244
 20
-18.34999999999999
 30
0.0
 10
8.139818051543331
 20
-18.34999999999999
 30
0.0
 10
8.676973665110694
 20
-18.34999999999999
 30
0.0
 10
9.199999999999985
 20
-18.34999999999999
 30
0.0
  0
SPLINE
  5
268
330
1F
100
AcDbEntity
  8
1
  6
SLD-Solid
370
    25
100
AcDbSpline
210
0.0
220
0.0
230
1.0
 70
    24
 71
     3
 72
     8
 73
     4
 74
     0
 42
0.000000001
 43
0.00000001
 40
0.0
 40
0.0
 40
0.0
 40
0.0
 40
1.0
 40
1.0
 40
1.0
 40
1.0
 10
9.200000000000014
 20
-8.094999999999999
 30
0.0
 10
8.787281990182235
 20
-8.095000000000002
 30
0.0
 10
8.373581113762837
 20
-8.095000000000008
 30
0.0
 10
7.959091692123138
 20
-8.095000000000011
 30
0.0
  0
SPLINE
  5
269
330
1F
100
AcDbEntity
  8
1
  6
SLD-Solid
370
    25
100
AcDbSpline
210
0.0
220
0.0
230
1.0
 70
    24
 71
     3
 72
     8
 73
     4
 74
     0
 42
0.000000001
 43
0.00000001
 40
0.0
 40
0.0
 40
0.0
 40
0.0
 40
0.25
 40
0.25
 40
0.25
 40
0.25
 10
12.28
 20
-18.34999999999999
 30
0.0
 10
12.39351868075161
 20
-18.34999999999999
 30
0.0
 10
12.50715208952621
 20
-18.34999999999999
 30
0.0
 10
12.60448354500662
 20
-18.34999999999999
 30
0.0
  0
SPLINE
  5
26A
330
1F
100
AcDbEntity
  8
1
  6
SLD-Solid
370
    25
100
AcDbSpline
210
0.0
220
0.0
230
1.0
 70
    24
 71
     3
 72
     8
 73
     4
 74
     0
 42
0.000000001
 43
0.00000001
 40
0.25
 40
0.25
 40
0.25
 40
0.25
 40
0.5
 40
0.5
 40
0.5
 40
0.5
 10
12.60448354500662
 20
-18.34999999999999
 30
0.0
 10
12.70181500048705
 20
-18.34999999999999
 30
0.0
 10
12.78100032850088
 20
-18.34999999999999
 30
0.0
 10
12.84409901342838
 20
-18.34999999999998
 30
0.0
  0
SPLINE
  5
26B
330
1F
100
AcDbEntity
  8
1
  6
SLD-Solid
370
    25
100
AcDbSpline
210
0.0
220
0.0
230
1.0
 70
    24
 71
     2
 72
     6
 73
     3
 74
     0
 42
0.000000001
 43
0.00000001
 40
0.5
 40
0.5
 40
0.5
 40
1.0
 40
1.0
 40
1.0
 10
12.84409901342838
 20
-18.34999999999998
 30
0.0
 10
12.97029638328343
 20
-18.34999999999999
 30
0.0
 10
13.03
 20
-18.34999999999999
 30
0.0
  0
SPLINE
  5
26C
330
1F
100
AcDbEntity
  8
1
  6
SLD-Solid
370
    25
100
AcDbSpline
210
0.0
220
0.0
230
1.0
 70
    24
 71
     2
 72
     6
 73
     3
 74
     0
 42
0.000000001
 43
0.00000001
 40
0.0
 40
0.0
 40
0.0
 40
0.5000000000000047
 40
0.5000000000000047
 40
0.5000000000000047
 10
13.03000000000003
 20
-8.094999999999999
 30
0.0
 10
12.95349719051725
 20
-8.094999999999999
 30
0.0
 10
12.81634843037009
 20
-8.094999999999999
 30
0.0
  0
SPLINE
  5
26D
330
1F
100
AcDbEntity
  8
1
  6
SLD-Solid
370
    25
100
AcDbSpline
210
0.0
220
0.0
230
1.0
 70
    24
 71
     3
 72
     8
 73
     4
 74
     0
 42
0.000000001
 43
0.00000001
 40
0.5000000000000047
 40
0.5000000000000047
 40
0.5000000000000047
 40
0.5000000000000047
 40
0.7500000000000023
 40
0.7500000000000023
 40
0.7500000000000023
 40
0.7500000000000023
 10
12.81634843037009
 20
-8.094999999999999
 30
0.0
 10
12.74777405029651
 20
-8.094999999999999
 30
0.0
 10
12.66546509018093
 20
-8.094999999999999
 30
0.0
 10
12.57309648684345
 20
-8.094999999999999
 30
0.0
  0
SPLINE
  5
26E
330
1F
100
AcDbEntity
  8
1
  6
SLD-Solid
370
    25
100
AcDbSpline
210
0.0
220
0.0
230
1.0
 70
    24
 71
     3
 72
     8
 73
     4
 74
     0
 42
0.000000001
 43
0.00000001
 40
0.7500000000000023
 40
0.7500000000000023
 40
0.7500000000000023
 40
0.7500000000000023
 40
1.0
 40
1.0
 40
1.0
 40
1.0
 10
12.57309648684345
 20
-8.094999999999999
 30
0.0
 10
12.48072788350595
 20
-8.094999999999999
 30
0.0
 10
12.3798304526006
 20
-8.094999999999999
 30
0.0
 10
12.28
 20
-8.094999999999999
 30
0.0
  0
SPLINE
  5
26F
330
1F
100
AcDbEntity
  8
1
  6
SLD-Solid
370
    25
100
AcDbSpline
210
0.0
220
0.0
230
1.0
 70
     8
 71
     3
 72
    16
 73
    12
 74
     0
 42
0.000000001
 43
0.00000001
 40
0.0
 40
0.0
 40
0.0
 40
0.0
 40
0.1249999999999979
 40
0.1249999999999979
 40
0.2499999999999958
 40
0.2499999999999958
 40
0.4999999999999972
 40
0.4999999999999972
 40
0.7499999999999986
 40
0.7499999999999986
 40
1.0
 40
1.0
 40
1.0
 40
1.0
 10
9.200000000000028
 20
26.81342395599223
 30
0.0
 10
9.200000000000028
 20
26.75008219873891
 30
0.0
 10
9.209563827901473
 20
26.67853228546582
 30
0.0
 10
9.236165608094996
 20
26.55137620786218
 30
0.0
 10
9.253606986679388
 20
26.49121349319728
 30
0.0
 10
9.313827278242398
 20
26.32086774534962
 30
0.0
 10
9.36494708970935
 20
26.21821216600434
 30
0.0
 10
9.492010964480727
 20
26.02727557642674
 30
0.0
 10
9.5661159134324
 20
25.94241156889361
 30
0.0
 10
9.73948300262574
 20
25.79997779741085
 30
0.0
 10
9.839659725882841
 20
25.74236666909598
 30
0.0
 10
9.94999999999685
 20
25.71100064078867
 30
0.0
  0
SPLINE
  5
270
330
1F
100
AcDbEntity
  8
1
  6
SLD-Solid
370
    25
100
AcDbSpline
210
0.0
220
0.0
230
1.0
 70
    24
 71
     2
 72
     6
 73
     3
 74
     0
 42
0.000000001
 43
0.00000001
 40
0.0
 40
0.0
 40
0.0
 40
0.25
 40
0.25
 40
0.25
 10
9.199999999999985
 20
8.094999999999999
 30
0.0
 10
9.218706918939432
 20
8.094999999999999
 30
0.0
 10
9.254984916689663
 20
8.094999999999999
 30
0.0
  0
SPLINE
  5
271
330
1F
100
AcDbEntity
  8
1
  6
SLD-Solid
370
    25
100
AcDbSpline
210
0.0
220
0.0
230
1.0
 70
    24
 71
     3
 72
     8
 73
     4
 74
     0
 42
0.000000001
 43
0.00000001
 40
0.25
 40
0.25
 40
0.25
 40
0.25
 40
0.5
 40
0.5
 40
0.5
 40
0.5
 10
9.254984916689663
 20
8.094999999999999
 30
0.0
 10
9.291262914439866
 20
8.094999999999999
 30
0.0
 10
9.345503941425276
 20
8.094999999999999
 30
0.0
 10
9.413757757814889
 20
8.094999999999999
 30
0.0
  0
SPLINE
  5
272
330
1F
100
AcDbEntity
  8
1
  6
SLD-Solid
370
    25
100
AcDbSpline
210
0.0
220
0.0
230
1.0
 70
    24
 71
     3
 72
     8
 73
     4
 74
     0
 42
0.000000001
 43
0.00000001
 40
0.5
 40
0.5
 40
0.5
 40
0.5
 40
0.75
 40
0.75
 40
0.75
 40
0.75
 10
9.413757757814889
 20
8.094999999999999
 30
0.0
 10
9.482011574204503
 20
8.094999999999999
 30
0.0
 10
9.565219805752243
 20
8.094999999999999
 30
0.0
 10
9.657354312945385
 20
8.094999999999999
 30
0.0
  0
SPLINE
  5
273
330
1F
100
AcDbEntity
  8
1
  6
SLD-Solid
370
    25
100
AcDbSpline
210
0.0
220
0.0
230
1.0
 70
    24
 71
     3
 72
     8
 73
     4
 74
     0
 42
0.000000001
 43
0.00000001
 40
0.75
 40
0.75
 40
0.75
 40
0.75
 40
1.0
 40
1.0
 40
1.0
 40
1.0
 10
9.657354312945385
 20
8.094999999999999
 30
0.0
 10
9.749488820138568
 20
8.094999999999999
 30
0.0
 10
9.849028188255545
 20
8.094999999999999
 30
0.0
 10
9.949999999999987
 20
8.094999999999999
 30
0.0
  0
SPLINE
  5
274
330
1F
100
AcDbEntity
  8
1
  6
SLD-Solid
370
    25
100
AcDbSpline
210
0.0
220
0.0
230
1.0
 70
     8
 71
     3
 72
    16
 73
    12
 74
     0
 42
0.000000001
 43
0.00000001
 40
0.0
 40
0.0
 40
0.0
 40
0.0
 40
0.2500000000000017
 40
0.2500000000000017
 40
0.5000000000000034
 40
0.5000000000000034
 40
0.7500000000000051
 40
0.7500000000000051
 40
0.8750000000000026
 40
0.8750000000000026
 40
1.0
 40
1.0
 40
1.0
 40
1.0
 10
12.27999999999686
 20
25.71100064078867
 30
0.0
 10
12.39043372689848
 20
25.74239323457942
 30
0.0
 10
12.48882901746028
 20
25.79873250188819
 30
0.0
 10
12.66410334854889
 20
25.94245138604111
 30
0.0
 10
12.7378884134135
 20
26.02725745595259
 30
0.0
 10
12.8642212691194
 20
26.21683037013149
 30
0.0
 10
12.91628240591214
 20
26.32104193278871
 30
0.0
 10
12.97661386675243
 20
26.49190672933526
 30
0.0
 10
12.99395951695433
 20
26.55178250641627
 30
0.0
 10
13.02063019805658
 20
26.67965382866436
 30
0.0
 10
13.02999999999686
 20
26.74911867245209
 30
0.0
 10
13.02999999999686
 20
26.81342395598515
 30
0.0
  0
SPLINE
  5
275
330
1F
100
AcDbEntity
  8
1
  6
SLD-Solid
370
    25
100
AcDbSpline
210
0.0
220
0.0
230
1.0
 70
    24
 71
     3
 72
     8
 73
     4
 74
     0
 42
0.000000001
 43
0.00000001
 40
0.0
 40
0.0
 40
0.0
 40
0.0
 40
0.5
 40
0.5
 40
0.5
 40
0.5
 10
12.27999999999686
 20
8.094999999999999
 30
0.0
 10
12.48222477372502
 20
8.094999999997329
 30
0.0
 10
12.67833084460931
 20
8.094999999994744
 30
0.0
 10
12.81596325226635
 20
8.094999999992927
 30
0.0
  0
SPLINE
  5
276
330
1F
100
AcDbEntity
  8
1
  6
SLD-Solid
370
    25
100
AcDbSpline
210
0.0
220
0.0
230
1.0
 70
    24
 71
     2
 72
     6
 73
     3
 74
     0
 42
0.000000001
 43
0.00000001
 40
0.5
 40
0.5
 40
0.5
 40
1.0
 40
1.0
 40
1.0
 10
12.81596325226635
 20
8.094999999992927
 30
0.0
 10
12.95359565992339
 20
8.094999999992927
 30
0.0
 10
13.02999999999686
 20
8.094999999992927
 30
0.0
  0
SPLINE
  5
277
330
1F
100
AcDbEntity
  8
1
  6
SLD-Solid
370
    25
100
AcDbSpline
210
0.0
220
0.0
230
1.0
 70
    24
 71
     2
 72
     6
 73
     3
 74
     0
 42
0.000000001
 43
0.00000001
 40
0.0
 40
0.0
 40
0.0
 40
0.25
 40
0.25
 40
0.25
 10
9.199999999999985
 20
-18.34999999999999
 30
0.0
 10
9.215049552321581
 20
-18.34999999999999
 30
0.0
 10
9.245719510034487
 20
-18.34999999999999
 30
0.0
  0
SPLINE
  5
278
330
1F
100
AcDbEntity
  8
1
  6
SLD-Solid
370
    25
100
AcDbSpline
210
0.0
220
0.0
230
1.0
 70
    24
 71
     3
 72
     8
 73
     4
 74
     0
 42
0.000000001
 43
0.00000001
 40
0.25
 40
0.25
 40
0.25
 40
0.25
 40
0.5
 40
0.5
 40
0.5
 40
0.5
 10
9.245719510034487
 20
-18.34999999999999
 30
0.0
 10
9.276389467747379
 20
-18.34999999999999
 30
0.0
 10
9.322582428043013
 20
-18.34999999999999
 30
0.0
 10
9.385647257598121
 20
-18.34999999999999
 30
0.0
  0
SPLINE
  5
279
330
1F
100
AcDbEntity
  8
1
  6
SLD-Solid
370
    25
100
AcDbSpline
210
0.0
220
0.0
230
1.0
 70
    24
 71
     3
 72
     8
 73
     4
 74
     0
 42
0.000000001
 43
0.00000001
 40
0.5
 40
0.5
 40
0.5
 40
0.5
 40
0.75
 40
0.75
 40
0.75
 40
0.75
 10
9.385647257598121
 20
-18.34999999999999
 30
0.0
 10
9.448712087153242
 20
-18.34999999999999
 30
0.0
 10
9.528898807595997
 20
-18.34999999999999
 30
0.0
 10
9.625947673409977
 20
-18.34999999999999
 30
0.0
  0
SPLINE
  5
27A
330
1F
100
AcDbEntity
  8
1
  6
SLD-Solid
370
    25
100
AcDbSpline
210
0.0
220
0.0
230
1.0
 70
    24
 71
     3
 72
     8
 73
     4
 74
     0
 42
0.000000001
 43
0.00000001
 40
0.75
 40
0.75
 40
0.75
 40
0.75
 40
1.0
 40
1.0
 40
1.0
 40
1.0
 10
9.625947673409977
 20
-18.34999999999999
 30
0.0
 10
9.722996539223969
 20
-18.34999999999999
 30
0.0
 10
9.83619107128067
 20
-18.34999999999999
 30
0.0
 10
9.949999999999987
 20
-18.34999999999999
 30
0.0
  0
SPLINE
  5
27B
330
1F
100
AcDbEntity
  8
1
  6
SLD-Solid
370
    25
100
AcDbSpline
210
0.0
220
0.0
230
1.0
 70
    24
 71
     3
 72
     8
 73
     4
 74
     0
 42
0.000000001
 43
0.00000001
 40
0.0
 40
0.0
 40
0.0
 40
0.0
 40
0.2500000000000009
 40
0.2500000000000009
 40
0.2500000000000009
 40
0.2500000000000009
 10
9.949999999999987
 20
-8.094999999999999
 30
0.0
 10
9.850219275687632
 20
-8.095000000000011
 30
0.0
 10
9.748489574720285
 20
-8.094999999999999
 30
0.0
 10
9.656770208427396
 20
-8.094999999999999
 30
0.0
  0
SPLINE
  5
27C
330
1F
100
AcDbEntity
  8
1
  6
SLD-Solid
370
    25
100
AcDbSpline
210
0.0
220
0.0
230
1.0
 70
    24
 71
     3
 72
     8
 73
     4
 74
     0
 42
0.000000001
 43
0.00000001
 40
0.2500000000000009
 40
0.2500000000000009
 40
0.2500000000000009
 40
0.2500000000000009
 40
0.5000000000000018
 40
0.5000000000000018
 40
0.5000000000000018
 40
0.5000000000000018
 10
9.656770208427396
 20
-8.094999999999999
 30
0.0
 10
9.565050842134465
 20
-8.094999999999999
 30
0.0
 10
9.481946114451523
 20
-8.094999999999999
 30
0.0
 10
9.413655347818725
 20
-8.094999999999999
 30
0.0
  0
SPLINE
  5
27D
330
1F
100
AcDbEntity
  8
1
  6
SLD-Solid
370
    25
100
AcDbSpline
210
0.0
220
0.0
230
1.0
 70
    24
 71
     2
 72
     6
 73
     3
 74
     0
 42
0.000000001
 43
0.00000001
 40
0.5000000000000018
 40
0.5000000000000018
 40
0.5000000000000018
 40
1.0
 40
1.0
 40
1.0
 10
9.413655347819002
 20
-8.094999999999999
 30
0.0
 10
9.277073814553422
 20
-8.095000000000004
 30
0.0
 10
9.200000000000014
 20
-8.094999999999999
 30
0.0
  0
SPLINE
  5
27E
330
1F
100
AcDbEntity
  8
1
  6
SLD-Solid
370
    25
100
AcDbSpline
210
0.0
220
0.0
230
1.0
 70
     8
 71
     3
 72
    12
 73
     8
 74
     0
 42
0.000000001
 43
0.00000001
 40
0.0
 40
0.0
 40
0.0
 40
0.0
 40
0.25
 40
0.25
 40
0.5
 40
0.5
 40
1.0
 40
1.0
 40
1.0
 40
1.0
 10
9.94999999999685
 20
25.71100064078867
 30
0.0
 10
10.11987070991423
 20
25.6627121120665
 30
0.0
 10
10.30396582361805
 20
25.62527590633429
 30
0.0
 10
10.70032541250139
 20
25.57346530882963
 30
0.0
 10
10.90572162653111
 20
25.56022125844616
 30
0.0
 10
11.52828854875022
 20
25.55999751387886
 30
0.0
 10
11.94025576621638
 20
25.6144227834342
 30
0.0
 10
12.27999999999686
 20
25.71100064078867
 30
0.0
  0
SPLINE
  5
27F
330
1F
100
AcDbEntity
  8
1
  6
SLD-Solid
370
    25
100
AcDbSpline
210
0.0
220
0.0
230
1.0
 70
     8
 71
     2
 72
     6
 73
     3
 74
     0
 42
0.000000001
 43
0.00000001
 40
0.0
 40
0.0
 40
0.0
 40
0.1250000000000006
 40
0.1250000000000006
 40
0.1250000000000006
 10
47.125
 20
-25.99999999999999
 30
0.0
 10
47.03492390993328
 20
-25.96799540695521
 30
0.0
 10
46.85864998345579
 20
-25.90772190929533
 30
0.0
  0
SPLINE
  5
280
330
1F
100
AcDbEntity
  8
1
  6
SLD-Solid
370
    25
100
AcDbSpline
210
0.0
220
0.0
230
1.0
 70
     8
 71
     3
 72
     8
 73
     4
 74
     0
 42
0.000000001
 43
0.00000001
 40
0.1250000000000006
 40
0.1250000000000006
 40
0.1250000000000006
 40
0.1250000000000006
 40
0.1875000000000009
 40
0.1875000000000009
 40
0.1875000000000009
 40
0.1875000000000009
 10
46.85864998345579
 20
-25.90772190929533
 30
0.0
 10
46.77051302021707
 20
-25.87758516046538
 30
0.0
 10
46.65957201436199
 20
-25.84003286678017
 30
0.0
 10
46.52866347711728
 20
-25.79675320085677
 30
0.0
  0
SPLINE
  5
281
330
1F
100
AcDbEntity
  8
1
  6
SLD-Solid
370
    25
100
AcDbSpline
210
0.0
220
0.0
230
1.0
 70
     8
 71
     3
 72
     8
 73
     4
 74
     0
 42
0.000000001
 43
0.00000001
 40
0.1875000000000009
 40
0.1875000000000009
 40
0.1875000000000009
 40
0.1875000000000009
 40
0.2500000000000012
 40
0.2500000000000012
 40
0.2500000000000012
 40
0.2500000000000012
 10
46.52866347711728
 20
-25.79675320085677
 30
0.0
 10
46.3977998284955
 20
-25.75333799527855
 30
0.0
 10
46.24746912937221
 20
-25.70433370059824
 30
0.0
 10
46.0782815342033
 20
-25.65086040371424
 30
0.0
  0
SPLINE
  5
282
330
1F
100
AcDbEntity
  8
1
  6
SLD-Solid
370
    25
100
AcDbSpline
210
0.0
220
0.0
230
1.0
 70
     8
 71
     3
 72
     8
 73
     4
 74
     0
 42
0.000000001
 43
0.00000001
 40
0.2500000000000012
 40
0.2500000000000012
 40
0.2500000000000012
 40
0.2500000000000012
 40
0.3125000000000014
 40
0.3125000000000014
 40
0.3125000000000014
 40
0.3125000000000014
 10
46.0782815342033
 20
-25.65086040371424
 30
0.0
 10
45.90899446050397
 20
-25.59770287821683
 30
0.0
 10
45.72084011487623
 20
-25.54010467661527
 30
0.0
 10
45.51352457200207
 20
-25.47915670688649
 30
0.0
  0
SPLINE
  5
283
330
1F
100
AcDbEntity
  8
1
  6
SLD-Solid
370
    25
100
AcDbSpline
210
0.0
220
0.0
230
1.0
 70
     8
 71
     3
 72
     8
 73
     4
 74
     0
 42
0.000000001
 43
0.00000001
 40
0.3125000000000014
 40
0.3125000000000014
 40
0.3125000000000014
 40
0.3125000000000014
 40
0.3750000000000018
 40
0.3750000000000018
 40
0.3750000000000018
 40
0.3750000000000018
 10
45.51352457200207
 20
-25.47915670688649
 30
0.0
 10
45.30625970535939
 20
-25.41803662518768
 30
0.0
 10
45.07923701471517
 20
-25.35342858144691
 30
0.0
 10
44.8386765545462
 20
-25.28837444386108
 30
0.0
  0
SPLINE
  5
284
330
1F
100
AcDbEntity
  8
1
  6
SLD-Solid
370
    25
100
AcDbSpline
210
0.0
220
0.0
230
1.0
 70
     8
 71
     3
 72
     8
 73
     4
 74
     0
 42
0.000000001
 43
0.00000001
 40
0.3750000000000018
 40
0.3750000000000018
 40
0.3750000000000018
 40
0.3750000000000018
 40
0.5000000000000022
 40
0.5000000000000022
 40
0.5000000000000022
 40
0.5000000000000022
 10
44.8386765545462
 20
-25.28837444386108
 30
0.0
 10
44.35755563420826
 20
-25.15826616868942
 30
0.0
 10
43.81795055435703
 20
-25.02474015471184
 30
0.0
 10
43.21696339007021
 20
-24.89881756943916
 30
0.0
  0
SPLINE
  5
285
330
1F
100
AcDbEntity
  8
1
  6
SLD-Solid
370
    25
100
AcDbSpline
210
0.0
220
0.0
230
1.0
 70
     8
 71
     3
 72
     8
 73
     4
 74
     0
 42
0.000000001
 43
0.00000001
 40
0.5000000000000022
 40
0.5000000000000022
 40
0.5000000000000022
 40
0.5000000000000022
 40
0.562500000000002
 40
0.562500000000002
 40
0.562500000000002
 40
0.562500000000002
 10
43.21696339007021
 20
-24.89881756943916
 30
0.0
 10
42.91646980792682
 20
-24.83585627680283
 30
0.0
 10
42.6032307791252
 20
-24.77547326544877
 30
0.0
 10
42.2820259683456
 20
-24.71983353484532
 30
0.0
  0
SPLINE
  5
286
330
1F
100
AcDbEntity
  8
1
  6
SLD-Solid
370
    25
100
AcDbSpline
210
0.0
220
0.0
230
1.0
 70
     8
 71
     3
 72
     8
 73
     4
 74
     0
 42
0.000000001
 43
0.00000001
 40
0.562500000000002
 40
0.562500000000002
 40
0.562500000000002
 40
0.562500000000002
 40
0.6250000000000017
 40
0.6250000000000017
 40
0.6250000000000017
 40
0.6250000000000017
 10
42.2820259683456
 20
-24.71983353484532
 30
0.0
 10
41.96082115756601
 20
-24.66419380424189
 30
0.0
 10
41.63025644487141
 20
-24.61299605724085
 30
0.0
 10
41.29011595018678
 20
-24.56744394241773
 30
0.0
  0
SPLINE
  5
287
330
1F
100
AcDbEntity
  8
1
  6
SLD-Solid
370
    25
100
AcDbSpline
210
0.0
220
0.0
230
1.0
 70
     8
 71
     3
 72
     8
 73
     4
 74
     0
 42
0.000000001
 43
0.00000001
 40
0.6250000000000017
 40
0.6250000000000017
 40
0.6250000000000017
 40
0.6250000000000017
 40
0.6875000000000014
 40
0.6875000000000014
 40
0.6875000000000014
 40
0.6875000000000014
 10
41.29011595018678
 20
-24.56744394241773
 30
0.0
 10
40.94997545550219
 20
-24.5218918275946
 30
0.0
 10
40.60026363063644
 20
-24.4819801109811
 30
0.0
 10
40.24032160600765
 20
-24.44899785665729
 30
0.0
  0
SPLINE
  5
288
330
1F
100
AcDbEntity
  8
1
  6
SLD-Solid
370
    25
100
AcDbSpline
210
0.0
220
0.0
230
1.0
 70
     8
 71
     3
 72
     8
 73
     4
 74
     0
 42
0.000000001
 43
0.00000001
 40
0.6875000000000014
 40
0.6875000000000014
 40
0.6875000000000014
 40
0.6875000000000014
 40
0.7500000000000011
 40
0.7500000000000011
 40
0.7500000000000011
 40
0.7500000000000011
 10
40.24032160600765
 20
-24.44899785665729
 30
0.0
 10
39.88037958137888
 20
-24.41601560233347
 30
0.0
 10
39.51791573474978
 20
-24.39069899771356
 30
0.0
 10
39.15372560149609
 20
-24.3734600592008
 30
0.0
  0
SPLINE
  5
289
330
1F
100
AcDbEntity
  8
1
  6
SLD-Solid
370
    25
100
AcDbSpline
210
0.0
220
0.0
230
1.0
 70
     8
 71
     3
 72
     8
 73
     4
 74
     0
 42
0.000000001
 43
0.00000001
 40
0.7500000000000011
 40
0.7500000000000011
 40
0.7500000000000011
 40
0.7500000000000011
 40
0.8125000000000009
 40
0.8125000000000009
 40
0.8125000000000009
 40
0.8125000000000009
 10
39.15372560149609
 20
-24.3734600592008
 30
0.0
 10
38.78953546824241
 20
-24.35622112068803
 30
0.0
 10
38.42337339018072
 20
-24.34703657886222
 30
0.0
 10
38.05521619393826
 20
-24.34620173542367
 30
0.0
  0
SPLINE
  5
28A
330
1F
100
AcDbEntity
  8
1
  6
SLD-Solid
370
    25
100
AcDbSpline
210
0.0
220
0.0
230
1.0
 70
     8
 71
     3
 72
     8
 73
     4
 74
     0
 42
0.000000001
 43
0.00000001
 40
0.8125000000000009
 40
0.8125000000000009
 40
0.8125000000000009
 40
0.8125000000000009
 40
0.8750000000000007
 40
0.8750000000000007
 40
0.8750000000000007
 40
0.8750000000000007
 10
38.05521619393826
 20
-24.34620173542367
 30
0.0
 10
37.68705891053948
 20
-24.34540625499825
 30
0.0
 10
37.31458827482366
 20
-24.35307819773113
 30
0.0
 10
36.94582715387366
 20
-24.36907004249199
 30
0.0
  0
SPLINE
  5
28B
330
1F
100
AcDbEntity
  8
1
  6
SLD-Solid
370
    25
100
AcDbSpline
210
0.0
220
0.0
230
1.0
 70
     8
 71
     3
 72
     8
 73
     4
 74
     0
 42
0.000000001
 43
0.00000001
 40
0.8750000000000007
 40
0.8750000000000007
 40
0.8750000000000007
 40
0.8750000000000007
 40
1.0
 40
1.0
 40
1.0
 40
1.0
 10
36.94582715387366
 20
-24.36907004249199
 30
0.0
 10
36.20829969866564
 20
-24.40093328945598
 30
0.0
 10
35.49325050045699
 20
-24.46523408229731
 30
0.0
 10
34.79999999999998
 20
-24.55553654473874
 30
0.0
  0
SPLINE
  5
28C
330
1F
100
AcDbEntity
  8
1
  6
SLD-Solid
370
    25
100
AcDbSpline
210
0.0
220
0.0
230
1.0
 70
     8
 71
     3
 72
    60
 73
    56
 74
     0
 42
0.000000001
 43
0.00000001
 40
0.0
 40
0.0
 40
0.0
 40
0.0
 40
0.0625000000000001
 40
0.0625000000000001
 40
0.0937499999999998
 40
0.0937499999999998
 40
0.1249999999999996
 40
0.1249999999999996
 40
0.1874999999999991
 40
0.1874999999999991
 40
0.2187499999999991
 40
0.2187499999999991
 40
0.2499999999999991
 40
0.2499999999999991
 40
0.2812499999999992
 40
0.2812499999999992
 40
0.3124999999999992
 40
0.3124999999999992
 40
0.3749999999999993
 40
0.3749999999999993
 40
0.4062499999999993
 40
0.4062499999999993
 40
0.4374999999999994
 40
0.4374999999999994
 40
0.4687499999999994
 40
0.4687499999999994
 40
0.4999999999999994
 40
0.4999999999999994
 40
0.5312499999999994
 40
0.5312499999999994
 40
0.5624999999999996
 40
0.5624999999999996
 40
0.6249999999999996
 40
0.6249999999999996
 40
0.6562499999999997
 40
0.6562499999999997
 40
0.6874999999999997
 40
0.6874999999999997
 40
0.7187499999999997
 40
0.7187499999999997
 40
0.7499999999999997
 40
0.7499999999999997
 40
0.7812499999999998
 40
0.7812499999999998
 40
0.8124999999999998
 40
0.8124999999999998
 40
0.8749999999999999
 40
0.8749999999999999
 40
0.9062499999999999
 40
0.9062499999999999
 40
0.9374999999999999
 40
0.9374999999999999
 40
0.96875
 40
0.96875
 40
1.0
 40
1.0
 40
1.0
 40
1.0
 10
34.79999999999507
 20
25.43743950032337
 30
0.0
 10
35.5674004543457
 20
25.39181168725022
 30
0.0
 10
36.3440680232279
 20
25.36107408562789
 30
0.0
 10
37.52216393010123
 20
25.34144160566296
 30
0.0
 10
37.91706609653822
 20
25.33927768834018
 30
0.0
 10
38.71139051711705
 20
25.34406485930221
 30
0.0
 10
39.11023622581465
 20
25.35107747170785
 30
0.0
 10
40.28628065305814
 20
25.38474881625066
 30
0.0
 10
41.05234253260932
 20
25.42416433226165
 30
0.0
 10
42.17371060343232
 20
25.50217019749635
 30
0.0
 10
42.54496988807922
 20
25.53149456969261
 30
0.0
 10
43.26198546673986
 20
25.59340799169017
 30
0.0
 10
43.6088171321307
 20
25.6260304025054
 30
0.0
 10
44.27913216301224
 20
25.69230461199686
 30
0.0
 10
44.60261919745697
 20
25.72596256843189
 30
0.0
 10
45.22531367325323
 20
25.7917297562192
 30
0.0
 10
45.5259273423879
 20
25.82399344221471
 30
0.0
 10
46.37878902048281
 20
25.91284054710534
 30
0.0
 10
46.87004182772908
 20
25.96021234065352
 30
0.0
 10
47.48676474635
 20
25.99570235955167
 30
0.0
 10
47.67283611297843
 20
26.00156758610676
 30
0.0
 10
47.9975335294619
 20
25.99770507133766
 30
0.0
 10
48.13351525418129
 20
25.98805219573059
 30
0.0
 10
48.35364514779153
 20
25.95164800135342
 30
0.0
 10
48.43780024974451
 20
25.92490296926728
 30
0.0
 10
48.55248089044208
 20
25.85246594910958
 30
0.0
 10
48.58272284270257
 20
25.80622313608872
 30
0.0
 10
48.58576255287622
 20
25.69665497255
 30
0.0
 10
48.55932714034721
 20
25.63328063293595
 30
0.0
 10
48.45164857109906
 20
25.49008260260577
 30
0.0
 10
48.36990486379722
 20
25.40986303761594
 30
0.0
 10
48.04296595100124
 20
25.14812391014862
 30
0.0
 10
47.72474161940151
 20
24.95096186119188
 30
0.0
 10
47.10627980880472
 20
24.63568697116938
 30
0.0
 10
46.87776187459971
 20
24.52820430116273
 30
0.0
 10
46.38622815258049
 20
24.31491871700332
 30
0.0
 10
46.12211662724523
 20
24.208548539243
 30
0.0
 10
45.55830171778355
 20
23.99900423859485
 30
0.0
 10
45.25672182692748
 20
23.89528246692894
 30
0.0
 10
44.63043781162959
 20
23.69770189885979
 30
0.0
 10
44.30525038121144
 20
23.60355551926652
 30
0.0
 10
43.63188033567196
 20
23.42650007592113
 30
0.0
 10
43.28369293655712
 20
23.34358704381442
 30
0.0
 10
42.56445446681986
 20
23.19106602760405
 30
0.0
 10
42.19369664415036
 20
23.12165369909792
 30
0.0
 10
41.07171494728431
 20
22.94010000874368
 30
0.0
 10
40.30307860318008
 20
22.8527538143432
 30
0.0
 10
39.11954386569946
 20
22.77820405709369
 30
0.0
 10
38.72001941143763
 20
22.76294405024739
 30
0.0
 10
37.92813705995283
 20
22.75229882780285
 30
0.0
 10
37.53357485976859
 20
22.75674236050516
 30
0.0
 10
36.74717391253638
 20
22.78480735516884
 30
0.0
 10
36.35533507096936
 20
22.80842918101284
 30
0.0
 10
35.57444673087197
 20
22.87471303659247
 30
0.0
 10
35.18422879672183
 20
22.91756764712135
 30
0.0
 10
34.79999999999436
 20
22.96930524890565
 30
0.0
  0
SPLINE
  5
28D
330
1F
100
AcDbEntity
  8
1
  6
SLD-Solid
370
    25
100
AcDbSpline
210
0.0
220
0.0
230
1.0
 70
     8
 71
     3
 72
    14
 73
    10
 74
     0
 42
0.000000001
 43
0.00000001
 40
0.0
 40
0.0
 40
0.0
 40
0.0
 40
0.1334895394492291
 40
0.2653983188181343
 40
0.5215450124841329
 40
0.6447840171528428
 40
0.7652317225523237
 40
0.8838949015738505
 40
0.9999999999999999
 40
0.9999999999999999
 40
0.9999999999999999
 40
0.9999999999999999
 10
19.09734396468465
 20
-7.62726255804073
 30
0.0
 10
19.09537205694633
 20
-7.661201940499555
 30
0.0
 10
19.09145159246066
 20
-7.728678801109455
 30
0.0
 10
19.08160668015771
 20
-7.860949653750009
 30
0.0
 10
19.07068750348682
 20
-7.988854788777616
 30
0.0
 10
19.06094310325125
 20
-8.108082965065107
 30
0.0
 10
19.05507785345622
 20
-8.190685279539212
 30
0.0
 10
19.05088715093925
 20
-8.267461370769922
 30
0.0
 10
19.05029356102288
 20
-8.312833274096306
 30
0.0
 10
19.04999999999998
 20
-8.33527203523883
 30
0.0
  0
SPLINE
  5
28E
330
1F
100
AcDbEntity
  8
1
  6
SLD-Solid
370
    25
100
AcDbSpline
210
0.0
220
0.0
230
1.0
 70
     8
 71
     3
 72
    23
 73
    19
 74
     0
 42
0.000000001
 43
0.00000001
 40
0.0
 40
0.0
 40
0.0
 40
0.0
 40
0.0307353922161882
 40
0.0616654172179519
 40
0.1236166688661287
 40
0.1858469968534193
 40
0.2483341913451911
 40
0.3739453976179693
 40
0.4369083951387454
 40
0.4999089442400879
 40
0.562938441176399
 40
0.6259845861012516
 40
0.7516408427766409
 40
0.8141358981876768
 40
0.8763743616278333
 40
0.9383318019365041
 40
0.9692614053649969
 40
0.9999999999999999
 40
0.9999999999999999
 40
0.9999999999999999
 40
0.9999999999999999
 10
19.09734396468465
 20
7.627262558040727
 30
0.0
 10
19.10624252708937
 20
7.471035878099559
 30
0.0
 10
19.12409600230984
 20
7.157593208118797
 30
0.0
 10
19.1677179514457
 20
6.529607777205112
 30
0.0
 10
19.23067613995619
 20
5.742050642286486
 30
0.0
 10
19.31370153781629
 20
4.794581152622005
 30
0.0
 10
19.4247734207562
 20
3.523654423845682
 30
0.0
 10
19.52089307459307
 20
2.246991355592594
 30
0.0
 10
19.57423681857287
 20
0.9650881668528954
 30
0.0
 10
19.5882288298999
 20
0.0012458448471753
 30
0.0
 10
19.57430394936463
 20
-0.9630218523348811
 30
0.0
 10
19.52098207495166
 20
-2.245728825773559
 30
0.0
 10
19.42482152213038
 20
-3.523085187377716
 30
0.0
 10
19.31372561451974
 20
-4.794322090125959
 30
0.0
 10
19.23068799060297
 20
-5.741904152197847
 30
0.0
 10
19.16772368027288
 20
-6.529531820731109
 30
0.0
 10
19.12409801862531
 20
-7.157562778162798
 30
0.0
 10
19.10624354874023
 20
-7.471019594594026
 30
0.0
 10
19.09734396468465
 20
-7.627262558040742
 30
0.0
  0
SPLINE
  5
28F
330
1F
100
AcDbEntity
  8
1
  6
SLD-Solid
370
    25
100
AcDbSpline
210
0.0
220
0.0
230
1.0
 70
     8
 71
     3
 72
    15
 73
    11
 74
     0
 42
0.000000001
 43
0.00000001
 40
0.0
 40
0.0
 40
0.0
 40
0.0
 40
0.076537678808643
 40
0.1540040287018841
 40
0.2328571877475731
 40
0.3538283651645215
 40
0.477731519244101
 40
0.7326330333489504
 40
0.8654631645418129
 40
1.0
 40
1.0
 40
1.0
 40
1.0
 10
19.04999999999998
 20
8.335272035238823
 30
0.0
 10
19.05012723115496
 20
8.320642644603776
 30
0.0
 10
19.05038323722605
 20
8.291206357400917
 30
0.0
 10
19.0522880717368
 20
8.242988846014141
 30
0.0
 10
19.05560212726763
 20
8.182920106270593
 30
0.0
 10
19.06087864054069
 20
8.109033973736878
 30
0.0
 10
19.07059282827626
 20
7.989894420613291
 30
0.0
 10
19.08152707235167
 20
7.86190915660212
 30
0.0
 10
19.09140377667629
 20
7.729455848915046
 30
0.0
 10
19.09535549358169
 20
7.661471644611034
 30
0.0
 10
19.09734396468465
 20
7.627262558040727
 30
0.0
  0
SPLINE
  5
290
330
1F
100
AcDbEntity
  8
1
  6
SLD-Solid
370
    25
100
AcDbSpline
210
0.0
220
0.0
230
1.0
 70
     8
 71
     3
 72
    12
 73
     8
 74
     0
 42
0.000000001
 43
0.00000001
 40
0.0
 40
0.0
 40
0.0
 40
0.0
 40
0.5000000000000003
 40
0.5000000000000003
 40
0.7500000000000001
 40
0.7500000000000001
 40
1.0
 40
1.0
 40
1.0
 40
1.0
 10
34.05000000000001
 20
-23.29382965508249
 30
0.0
 10
33.4150652475412
 20
-23.40149732112748
 30
0.0
 10
32.86820961623807
 20
-23.51880930083566
 30
0.0
 10
32.17624616780021
 20
-23.68260729511454
 30
0.0
 10
31.97211996364888
 20
-23.73407836629604
 30
0.0
 10
31.62015590341312
 20
-23.82590079853426
 30
0.0
 10
31.47139365572671
 20
-23.86648936600593
 30
0.0
 10
31.35093991604827
 20
-23.90000000000002
 30
0.0
  0
SPLINE
  5
291
330
1F
100
AcDbEntity
  8
1
  6
SLD-Solid
370
    25
100
AcDbSpline
210
0.0
220
0.0
230
1.0
 70
     8
 71
     3
 72
    40
 73
    36
 74
     0
 42
0.000000001
 43
0.00000001
 40
0.0
 40
0.0
 40
0.0
 40
0.0
 40
0.1249999999999999
 40
0.1249999999999999
 40
0.1875000000000002
 40
0.1875000000000002
 40
0.2500000000000002
 40
0.2500000000000002
 40
0.3125000000000002
 40
0.3125000000000002
 40
0.3750000000000001
 40
0.3750000000000001
 40
0.4375000000000001
 40
0.4375000000000001
 40
0.4687500000000001
 40
0.4687500000000001
 40
0.5
 40
0.5
 40
0.5625
 40
0.5625
 40
0.5937499999999999
 40
0.5937499999999999
 40
0.6249999999999999
 40
0.6249999999999999
 40
0.6874999999999998
 40
0.6874999999999998
 40
0.7499999999999996
 40
0.7499999999999996
 40
0.8124999999999994
 40
0.8124999999999994
 40
0.8749999999999997
 40
0.8749999999999997
 40
0.9374999999999998
 40
0.9374999999999998
 40
1.0
 40
1.0
 40
1.0
 40
1.0
 10
34.0499999999942
 20
21.8103354275751
 30
0.0
 10
33.34320399328988
 20
21.93476623093487
 30
0.0
 10
32.68330590659614
 20
22.08675000756887
 30
0.0
 10
31.76919746120657
 20
22.34391619563156
 30
0.0
 10
31.47662571792737
 20
22.43487814389415
 30
0.0
 10
30.93571794574514
 20
22.61891520238525
 30
0.0
 10
30.68513851236643
 20
22.71256297598891
 30
0.0
 10
30.22580129590138
 20
22.90021574003861
 30
0.0
 10
30.01566741933503
 20
22.99491412311211
 30
0.0
 10
29.64853338867924
 20
23.17848995756345
 30
0.0
 10
29.49357171454866
 20
23.26616521219114
 30
0.0
 10
29.24122734903817
 20
23.43082044043968
 30
0.0
 10
29.14381246395758
 20
23.50781079795718
 30
0.0
 10
29.04422022789621
 20
23.61339761339683
 30
0.0
 10
29.01891741764584
 20
23.64693811635964
 30
0.0
 10
28.98528536346445
 20
23.7090390276643
 30
0.0
 10
28.97673191791909
 20
23.73780919011521
 30
0.0
 10
28.97543188501261
 20
23.81733967754611
 30
0.0
 10
29.00690018386683
 20
23.86132388368487
 30
0.0
 10
29.10354487143218
 20
23.9139100896243
 30
0.0
 10
29.1441762456538
 20
23.92918899384949
 30
0.0
 10
29.24026034512062
 20
23.9548875735459
 30
0.0
 10
29.29584618679064
 20
23.96540524062044
 30
0.0
 10
29.4844617626069
 20
23.99055273086464
 30
0.0
 10
29.63923304304961
 20
23.9987862998561
 30
0.0
 10
30.00582887502522
 20
24.00096405416238
 30
0.0
 10
30.21445002661882
 20
23.99487470033757
 30
0.0
 10
30.6742723233203
 20
23.97254698070509
 30
0.0
 10
30.92608793795011
 20
23.95629493529077
 30
0.0
 10
31.47214091228058
 20
23.91711083363903
 30
0.0
 10
31.76219575167211
 20
23.89449205903554
 30
0.0
 10
32.36946634719246
 20
23.84703926556113
 30
0.0
 10
32.68736596839979
 20
23.82214363127741
 30
0.0
 10
33.35070965496516
 20
23.77289647407518
 30
0.0
 10
33.69613883105302
 20
23.74856270884057
 30
0.0
 10
34.04999999999365
 20
23.72607258794731
 30
0.0
  0
SPLINE
  5
292
330
1F
100
AcDbEntity
  8
1
  6
SLD-Solid
370
    25
100
AcDbSpline
210
0.0
220
0.0
230
1.0
 70
     8
 71
     3
 72
    12
 73
     8
 74
     0
 42
0.000000001
 43
0.00000001
 40
0.0
 40
0.0
 40
0.0
 40
0.0
 40
0.25
 40
0.25
 40
0.5
 40
0.5
 40
1.0
 40
1.0
 40
1.0
 40
1.0
 10
3.949999999999995
 20
-25.91022964004758
 30
0.0
 10
3.840647431218688
 20
-25.91022964004758
 30
0.0
 10
3.731411799312467
 20
-25.87992796563979
 30
0.0
 10
3.538605968889011
 20
-25.7704701494163
 30
0.0
 10
3.456827742746013
 20
-25.69343095107759
 30
0.0
 10
3.262709090922647
 20
-25.42763934306025
 30
0.0
 10
3.200000000003686
 20
-25.20425093593309
 30
0.0
 10
3.199999999999994
 20
-24.98554582155403
 30
0.0
  0
SPLINE
  5
293
330
1F
100
AcDbEntity
  8
1
  6
SLD-Solid
370
    25
100
AcDbSpline
210
0.0
220
0.0
230
1.0
 70
     8
 71
     3
 72
    12
 73
     8
 74
     0
 42
0.000000001
 43
0.00000001
 40
0.0
 40
0.0
 40
0.0
 40
0.0
 40
0.5000000000000023
 40
0.5000000000000023
 40
0.7500000000000011
 40
0.7500000000000011
 40
1.0
 40
1.0
 40
1.0
 40
1.0
 10
19.04999999999998
 20
-24.98554582153449
 30
0.0
 10
19.04999999999998
 20
-25.20557810036768
 30
0.0
 10
18.98853102466322
 20
-25.42532674379459
 30
0.0
 10
18.79383121800843
 20
-25.69283297454337
 30
0.0
 10
18.71149076980416
 20
-25.77032859015184
 30
0.0
 10
18.51931186109926
 20
-25.87960340703117
 30
0.0
 10
18.40982431419733
 20
-25.91022964004756
 30
0.0
 10
18.29999999999998
 20
-25.91022964004757
 30
0.0
  0
SPLINE
  5
294
330
1F
100
AcDbEntity
  8
1
  6
SLD-Solid
370
    25
100
AcDbSpline
210
0.0
220
0.0
230
1.0
 70
     8
 71
     3
 72
    14
 73
    10
 74
     0
 42
0.000000001
 43
0.00000001
 40
0.0
 40
0.0
 40
0.0
 40
0.0
 40
0.1249999999999982
 40
0.1249999999999982
 40
0.2499999999999964
 40
0.2499999999999964
 40
0.4999999999999969
 40
0.4999999999999969
 40
1.0
 40
1.0
 40
1.0
 40
1.0
 10
9.949999999999987
 20
-21.14893614345647
 30
0.0
 10
9.893223661227301
 20
-21.14893614345648
 30
0.0
 10
9.835184734431262
 20
-21.15782630300204
 30
0.0
 10
9.725709414661429
 20
-21.19144609061743
 30
0.0
 10
9.6745262273997
 20
-21.21560556432989
 30
0.0
 10
9.530077159662309
 20
-21.30690106897559
 30
0.0
 10
9.448993190155075
 20
-21.39170378208912
 30
0.0
 10
9.259877421569973
 20
-21.67548088616529
 30
0.0
 10
9.199999999999985
 20
-21.90492065088523
 30
0.0
 10
9.199999999999985
 20
-22.13232929449588
 30
0.0
  0
SPLINE
  5
295
330
1F
100
AcDbEntity
  8
1
  6
SLD-Solid
370
    25
100
AcDbSpline
210
0.0
220
0.0
230
1.0
 70
     8
 71
     3
 72
     8
 73
     4
 74
     0
 42
0.000000001
 43
0.00000001
 40
0.0
 40
0.0
 40
0.0
 40
0.0
 40
1.0
 40
1.0
 40
1.0
 40
1.0
 10
14.63683664205679
 20
-25.91022964004757
 30
0.0
 10
14.09016847106479
 20
-24.74996546403979
 30
0.0
 10
13.55303211683964
 20
-23.58413672808592
 30
0.0
 10
13.02999999999999
 20
-22.41333264622106
 30
0.0
  0
SPLINE
  5
296
330
1F
100
AcDbEntity
  8
1
  6
SLD-Solid
370
    25
100
AcDbSpline
210
0.0
220
0.0
230
1.0
 70
     8
 71
     3
 72
    14
 73
    10
 74
     0
 42
0.000000001
 43
0.00000001
 40
0.0
 40
0.0
 40
0.0
 40
0.0
 40
0.25
 40
0.25
 40
0.5
 40
0.5
 40
0.75
 40
0.75
 40
1.0
 40
1.0
 40
1.0
 40
1.0
 10
13.02999999999999
 20
-22.13232929449585
 30
0.0
 10
13.02999999999999
 20
-22.01777408914434
 30
0.0
 10
13.01492864850327
 20
-21.90563883030922
 30
0.0
 10
12.95345971831169
 20
-21.68639823941067
 30
0.0
 10
12.90719806346141
 20
-21.58103168145695
 30
0.0
 10
12.78074687769254
 20
-21.39134178492625
 30
0.0
 10
12.69960171970502
 20
-21.30659206818005
 30
0.0
 10
12.5067230651998
 20
-21.18490042323583
 30
0.0
 10
12.39370933272002
 20
-21.14893614345652
 30
0.0
 10
12.28000000000029
 20
-21.14893614345647
 30
0.0
  0
SPLINE
  5
297
330
1F
100
AcDbEntity
  8
1
  6
SLD-Solid
370
    25
100
AcDbSpline
210
0.0
220
0.0
230
1.0
 70
     8
 71
     3
 72
     8
 73
     4
 74
     0
 42
0.000000001
 43
0.00000001
 40
0.0
 40
0.0
 40
0.0
 40
0.0
 40
1.0
 40
1.0
 40
1.0
 40
1.0
 10
9.199999999999985
 20
-22.41333264622108
 30
0.0
 10
8.67696788316033
 20
-23.58413672808592
 30
0.0
 10
8.139831528935188
 20
-24.74996546403979
 30
0.0
 10
7.593163357943244
 20
-25.91022964004758
 30
0.0
  0
SPLINE
  5
298
330
1F
100
AcDbEntity
  8
1
  6
SLD-Solid
370
    25
100
AcDbSpline
210
0.0
220
0.0
230
1.0
 70
     8
 71
     3
 72
    10
 73
     6
 74
     0
 42
0.000000001
 43
0.00000001
 40
0.0
 40
0.0
 40
0.0
 40
0.0
 40
0.5
 40
0.5
 40
1.0
 40
1.0
 40
1.0
 40
1.0
 10
34.04999999999365
 20
24.82117653546982
 30
0.0
 10
34.04999999999126
 20
24.99261984133354
 30
0.0
 10
34.12630998275935
 20
25.15269124777266
 30
0.0
 10
34.39058800511845
 20
25.37989184932733
 30
0.0
 10
34.58426386644638
 20
25.45026665975374
 30
0.0
 10
34.79999999999507
 20
25.43743950032337
 30
0.0
  0
SPLINE
  5
299
330
1F
100
AcDbEntity
  8
1
  6
SLD-Solid
370
    25
100
AcDbSpline
210
0.0
220
0.0
230
1.0
 70
     8
 71
     3
 72
    16
 73
    12
 74
     0
 42
0.000000001
 43
0.00000001
 40
0.0
 40
0.0
 40
0.0
 40
0.0
 40
0.2500000000000011
 40
0.2500000000000011
 40
0.5000000000000021
 40
0.5000000000000021
 40
0.7500000000000031
 40
0.7500000000000031
 40
0.8750000000000016
 40
0.8750000000000016
 40
1.0
 40
1.0
 40
1.0
 40
1.0
 10
9.949999999999903
 20
26.82301853349018
 30
0.0
 10
9.839566273098315
 20
26.80027599034485
 30
0.0
 10
9.741170982536518
 20
26.79683942016773
 30
0.0
 10
9.5658966514479
 20
26.81222120094812
 30
0.0
 10
9.492111586583265
 20
26.83083008839229
 30
0.0
 10
9.365778730877377
 20
26.88495833898958
 30
0.0
 10
9.313717594084697
 20
26.91972746121535
 30
0.0
 10
9.253386133244376
 20
26.99319708569396
 30
0.0
 10
9.236040483042496
 20
27.02133912772178
 30
0.0
 10
9.209369801940259
 20
27.09589126404211
 30
0.0
 10
9.199999999999973
 20
27.14371862289293
 30
0.0
 10
9.199999999999985
 20
27.20802390642598
 30
0.0
  0
SPLINE
  5
29A
330
1F
100
AcDbEntity
  8
1
  6
SLD-Solid
370
    25
100
AcDbSpline
210
0.0
220
0.0
230
1.0
 70
     8
 71
     3
 72
    12
 73
     8
 74
     0
 42
0.000000001
 43
0.00000001
 40
0.0
 40
0.0
 40
0.0
 40
0.0
 40
0.25
 40
0.25
 40
0.5
 40
0.5
 40
1.0
 40
1.0
 40
1.0
 40
1.0
 10
12.27999999999992
 20
26.82301853349012
 30
0.0
 10
12.11012929008257
 20
26.85800143280735
 30
0.0
 10
11.92603417637875
 20
26.88390423639618
 30
0.0
 10
11.52967458749539
 20
26.91937262947672
 30
0.0
 10
11.32427837346574
 20
26.92817666438653
 30
0.0
 10
10.70171145124657
 20
26.92832683986094
 30
0.0
 10
10.28974423378044
 20
26.89298491162408
 30
0.0
 10
9.949999999999905
 20
26.82301853349018
 30
0.0
  0
SPLINE
  5
29B
330
1F
100
AcDbEntity
  8
1
  6
SLD-Solid
370
    25
100
AcDbSpline
210
0.0
220
0.0
230
1.0
 70
     8
 71
     3
 72
    16
 73
    12
 74
     0
 42
0.000000001
 43
0.00000001
 40
0.0
 40
0.0
 40
0.0
 40
0.0
 40
0.1250000000000009
 40
0.1250000000000009
 40
0.2500000000000018
 40
0.2500000000000018
 40
0.5000000000000012
 40
0.5000000000000012
 40
0.7500000000000007
 40
0.7500000000000007
 40
1.0
 40
1.0
 40
1.0
 40
1.0
 10
13.02999999999675
 20
27.20802390643123
 30
0.0
 10
13.02999999999675
 20
27.1446821491779
 30
0.0
 10
13.02043617209531
 20
27.09517885573592
 30
0.0
 10
12.99383439190183
 20
27.02116147442295
 30
0.0
 10
12.97639301331742
 20
26.99288151408816
 30
0.0
 10
12.91617272175437
 20
26.9196877827192
 30
0.0
 10
12.86505291028743
 20
26.8853831151977
 30
0.0
 10
12.73798903551604
 20
26.8308052475017
 30
0.0
 10
12.66388408656437
 20
26.81227314493874
 30
0.0
 10
12.49051699737103
 20
26.79691696881303
 30
0.0
 10
12.39034027411393
 20
26.80029523586117
 30
0.0
 10
12.27999999999992
 20
26.82301853349012
 30
0.0
  0
SPLINE
  5
29C
330
1F
100
AcDbEntity
  8
1
  6
SLD-Dashed
370
    18
100
AcDbSpline
210
0.0
220
0.0
230
1.0
 70
     8
 71
     3
 72
    14
 73
    10
 74
     0
 42
0.000000001
 43
0.00000001
 40
0.0
 40
0.0
 40
0.0
 40
0.0
 40
0.25
 40
0.25
 40
0.5
 40
0.5
 40
0.75
 40
0.75
 40
1.0
 40
1.0
 40
1.0
 40
1.0
 10
34.79999999999998
 20
-24.55553654473874
 30
0.0
 10
34.70770533288607
 20
-24.56756409438019
 30
0.0
 10
34.61556584879634
 20
-24.56226546791798
 30
0.0
 10
34.43846390001836
 20
-24.51414469024759
 30
0.0
 10
34.3553793186286
 20
-24.47135328984958
 30
0.0
 10
34.21343093162373
 20
-24.35097175478777
 30
0.0
 10
34.15496525280935
 20
-24.27297791042824
 30
0.0
 10
34.07542385211023
 20
-24.09756395218595
 30
0.0
 10
34.05373047344987
 20
-23.999400872346
 30
0.0
 10
34.05045115416025
 20
-23.90000000000106
 30
0.0
  0
SPLINE
  5
29D
330
1F
100
AcDbEntity
  8
1
  6
SLD-Dashed
370
    18
100
AcDbSpline
210
0.0
220
0.0
230
1.0
 70
    24
 71
     3
 72
     8
 73
     4
 74
     0
 42
0.000000001
 43
0.00000001
 40
0.0
 40
0.0
 40
0.0
 40
0.0
 40
1.0
 40
1.0
 40
1.0
 40
1.0
 10
34.05045115416025
 20
-23.90000000000106
 30
0.0
 10
34.05030007552099
 20
-23.90000000000105
 30
0.0
 10
34.05007451620891
 20
-23.90000000000106
 30
0.0
 10
34.0499999999942
 20
-23.90000000000106
 30
0.0
  0
SPLINE
  5
29E
330
1F
100
AcDbEntity
  8
1
  6
SLD-Dashed
370
    18
100
AcDbSpline
210
0.0
220
0.0
230
1.0
 70
     8
 71
     3
 72
    10
 73
     6
 74
     0
 42
0.000000001
 43
0.00000001
 40
0.0
 40
0.0
 40
0.0
 40
0.0
 40
0.5
 40
0.5
 40
1.0
 40
1.0
 40
1.0
 40
1.0
 10
34.79999999999436
 20
22.96930524890565
 30
0.0
 10
34.58438024457511
 20
22.99833911918746
 30
0.0
 10
34.39077320808188
 20
22.96373120468104
 30
0.0
 10
34.12564547969104
 20
22.81912225388016
 30
0.0
 10
34.04999999999536
 20
22.70777865121383
 30
0.0
 10
34.0499999999942
 20
22.58240997872399
 30
0.0
  0
SPLINE
  5
29F
330
1F
100
AcDbEntity
  8
1
  6
SLD-Dashed
370
    18
100
AcDbSpline
210
0.0
220
0.0
230
1.0
 70
     8
 71
     3
 72
     8
 73
     4
 74
     0
 42
0.000000001
 43
0.00000001
 40
0.0
 40
0.0
 40
0.0
 40
0.0
 40
0.1250000000000011
 40
0.1250000000000011
 40
0.1250000000000011
 40
0.1250000000000011
 10
34.79999999999998
 20
-24.55553654473874
 30
0.0
 10
35.49302224643355
 20
-24.46522407347398
 30
0.0
 10
36.20556949575764
 20
-24.40121187993762
 30
0.0
 10
36.9378490264021
 20
-24.36929501833639
 30
0.0
  0
SPLINE
  5
2A0
330
1F
100
AcDbEntity
  8
1
  6
SLD-Dashed
370
    18
100
AcDbSpline
210
0.0
220
0.0
230
1.0
 70
     8
 71
     3
 72
     8
 73
     4
 74
     0
 42
0.000000001
 43
0.00000001
 40
0.1250000000000011
 40
0.1250000000000011
 40
0.1250000000000011
 40
0.1250000000000011
 40
0.1875000000000011
 40
0.1875000000000011
 40
0.1875000000000011
 40
0.1875000000000011
 10
36.9378490264021
 20
-24.36929501833639
 30
0.0
 10
37.30398879172429
 20
-24.35333658753576
 30
0.0
 10
37.67788220420028
 20
-24.3454516941428
 30
0.0
 10
38.04817562760974
 20
-24.34618442161103
 30
0.0
  0
SPLINE
  5
2A1
330
1F
100
AcDbEntity
  8
1
  6
SLD-Dashed
370
    18
100
AcDbSpline
210
0.0
220
0.0
230
1.0
 70
     8
 71
     3
 72
     8
 73
     4
 74
     0
 42
0.000000001
 43
0.00000001
 40
0.1875000000000011
 40
0.1875000000000011
 40
0.1875000000000011
 40
0.1875000000000011
 40
0.2500000000000011
 40
0.2500000000000011
 40
0.2500000000000011
 40
0.2500000000000011
 10
38.04817562760974
 20
-24.34618442161103
 30
0.0
 10
38.4184690510192
 20
-24.34691714907926
 30
0.0
 10
38.7856752869358
 20
-24.35609387616083
 30
0.0
 10
39.14988263598977
 20
-24.37327645345513
 30
0.0
  0
SPLINE
  5
2A2
330
1F
100
AcDbEntity
  8
1
  6
SLD-Dashed
370
    18
100
AcDbSpline
210
0.0
220
0.0
230
1.0
 70
     8
 71
     3
 72
     8
 73
     4
 74
     0
 42
0.000000001
 43
0.00000001
 40
0.2500000000000011
 40
0.2500000000000011
 40
0.2500000000000011
 40
0.2500000000000011
 40
0.312500000000001
 40
0.312500000000001
 40
0.312500000000001
 40
0.312500000000001
 10
39.14988263598977
 20
-24.37327645345513
 30
0.0
 10
39.51408998504377
 20
-24.39045903074944
 30
0.0
 10
39.87529834017818
 20
-24.41564859969394
 30
0.0
 10
40.23347848806037
 20
-24.44837011247638
 30
0.0
  0
SPLINE
  5
2A3
330
1F
100
AcDbEntity
  8
1
  6
SLD-Dashed
370
    18
100
AcDbSpline
210
0.0
220
0.0
230
1.0
 70
     8
 71
     3
 72
     8
 73
     4
 74
     0
 42
0.000000001
 43
0.00000001
 40
0.312500000000001
 40
0.312500000000001
 40
0.312500000000001
 40
0.312500000000001
 40
0.3750000000000009
 40
0.3750000000000009
 40
0.3750000000000009
 40
0.3750000000000009
 10
40.23347848806037
 20
-24.44837011247638
 30
0.0
 10
40.59165863594257
 20
-24.48109162525881
 30
0.0
 10
40.94563677655228
 20
-24.52135095382584
 30
0.0
 10
41.2870831160017
 20
-24.56703666320998
 30
0.0
  0
SPLINE
  5
2A4
330
1F
100
AcDbEntity
  8
1
  6
SLD-Dashed
370
    18
100
AcDbSpline
210
0.0
220
0.0
230
1.0
 70
     8
 71
     3
 72
     8
 73
     4
 74
     0
 42
0.000000001
 43
0.00000001
 40
0.3750000000000009
 40
0.3750000000000009
 40
0.3750000000000009
 40
0.3750000000000009
 40
0.4375000000000009
 40
0.4375000000000009
 40
0.4375000000000009
 40
0.4375000000000009
 10
41.2870831160017
 20
-24.56703666320998
 30
0.0
 10
41.62852945545109
 20
-24.61272237259409
 30
0.0
 10
41.95991811575558
 20
-24.66404235400287
 30
0.0
 10
42.28154603875985
 20
-24.71974942191001
 30
0.0
  0
SPLINE
  5
2A5
330
1F
100
AcDbEntity
  8
1
  6
SLD-Dashed
370
    18
100
AcDbSpline
210
0.0
220
0.0
230
1.0
 70
     8
 71
     3
 72
     8
 73
     4
 74
     0
 42
0.000000001
 43
0.00000001
 40
0.4375000000000009
 40
0.4375000000000009
 40
0.4375000000000009
 40
0.4375000000000009
 40
0.5000000000000009
 40
0.5000000000000009
 40
0.5000000000000009
 40
0.5000000000000009
 10
42.28154603875985
 20
-24.71974942191001
 30
0.0
 10
42.60317396176408
 20
-24.77545648981713
 30
0.0
 10
42.91611621419275
 20
-24.83578344410493
 30
0.0
 10
43.21678697175319
 20
-24.89877991606524
 30
0.0
  0
SPLINE
  5
2A6
330
1F
100
AcDbEntity
  8
1
  6
SLD-Dashed
370
    18
100
AcDbSpline
210
0.0
220
0.0
230
1.0
 70
     8
 71
     3
 72
     8
 73
     4
 74
     0
 42
0.000000001
 43
0.00000001
 40
0.5000000000000009
 40
0.5000000000000009
 40
0.5000000000000009
 40
0.5000000000000009
 40
0.6249999999999999
 40
0.6249999999999999
 40
0.6249999999999999
 40
0.6249999999999999
 10
43.21678697175319
 20
-24.89877991606524
 30
0.0
 10
43.81812848687401
 20
-25.02477285998586
 30
0.0
 10
44.3577906637795
 20
-25.15832697022084
 30
0.0
 10
44.83881366002772
 20
-25.28841132369887
 30
0.0
  0
SPLINE
  5
2A7
330
1F
100
AcDbEntity
  8
1
  6
SLD-Dashed
370
    18
100
AcDbSpline
210
0.0
220
0.0
230
1.0
 70
     8
 71
     3
 72
     8
 73
     4
 74
     0
 42
0.000000001
 43
0.00000001
 40
0.6249999999999999
 40
0.6249999999999999
 40
0.6249999999999999
 40
0.6249999999999999
 40
0.6874999999999999
 40
0.6874999999999999
 40
0.6874999999999999
 40
0.6874999999999999
 10
44.83881366002772
 20
-25.28841132369887
 30
0.0
 10
45.07932515815182
 20
-25.35345350043788
 30
0.0
 10
45.30631954071355
 20
-25.41805420997348
 30
0.0
 10
45.51352457200207
 20
-25.47915670688649
 30
0.0
  0
SPLINE
  5
2A8
330
1F
100
AcDbEntity
  8
1
  6
SLD-Dashed
370
    18
100
AcDbSpline
210
0.0
220
0.0
230
1.0
 70
     8
 71
     3
 72
     8
 73
     4
 74
     0
 42
0.000000001
 43
0.00000001
 40
0.6874999999999999
 40
0.6874999999999999
 40
0.6874999999999999
 40
0.6874999999999999
 40
0.7499999999999999
 40
0.7499999999999999
 40
0.7499999999999999
 40
0.7499999999999999
 10
45.51352457200207
 20
-25.47915670688649
 30
0.0
 10
45.72072960329059
 20
-25.54025920379951
 30
0.0
 10
45.90861978418418
 20
-25.5979476629109
 30
0.0
 10
46.07758210116268
 20
-25.65115411830476
 30
0.0
  0
SPLINE
  5
2A9
330
1F
100
AcDbEntity
  8
1
  6
SLD-Dashed
370
    18
100
AcDbSpline
210
0.0
220
0.0
230
1.0
 70
     8
 71
     3
 72
     8
 73
     4
 74
     0
 42
0.000000001
 43
0.00000001
 40
0.7499999999999999
 40
0.7499999999999999
 40
0.7499999999999999
 40
0.7499999999999999
 40
0.8125
 40
0.8125
 40
0.8125
 40
0.8125
 10
46.07758210116268
 20
-25.65115411830476
 30
0.0
 10
46.24654441814122
 20
-25.70436057369862
 30
0.0
 10
46.3965794743107
 20
-25.75309167598188
 30
0.0
 10
46.52717245385185
 20
-25.79626029209912
 30
0.0
  0
SPLINE
  5
2AA
330
1F
100
AcDbEntity
  8
1
  6
SLD-Dashed
370
    18
100
AcDbSpline
210
0.0
220
0.0
230
1.0
 70
     8
 71
     3
 72
     8
 73
     4
 74
     0
 42
0.000000001
 43
0.00000001
 40
0.8125
 40
0.8125
 40
0.8125
 40
0.8125
 40
0.875
 40
0.875
 40
0.875
 40
0.875
 10
46.52717245385185
 20
-25.79626029209912
 30
0.0
 10
46.65776543339299
 20
-25.83942890821635
 30
0.0
 10
46.76922701681702
 20
-25.87714803712815
 30
0.0
 10
46.85779257721574
 20
-25.90742874815983
 30
0.0
  0
SPLINE
  5
2AB
330
1F
100
AcDbEntity
  8
1
  6
SLD-Dashed
370
    18
100
AcDbSpline
210
0.0
220
0.0
230
1.0
 70
     8
 71
     2
 72
     6
 73
     3
 74
     0
 42
0.000000001
 43
0.00000001
 40
0.875
 40
0.875
 40
0.875
 40
1.0
 40
1.0
 40
1.0
 10
46.85779257721574
 20
-25.90742874815983
 30
0.0
 10
47.03492369801328
 20
-25.96799017022322
 30
0.0
 10
47.125
 20
-25.99999999999999
 30
0.0
  0
SPLINE
  5
2AC
330
1F
100
AcDbEntity
  8
1
  6
SLD-Dashed
370
    18
100
AcDbSpline
210
0.0
220
0.0
230
1.0
 70
     8
 71
     3
 72
    14
 73
    10
 74
     0
 42
0.000000001
 43
0.00000001
 40
0.0
 40
0.0
 40
0.0
 40
0.0
 40
0.25
 40
0.25
 40
0.5
 40
0.5
 40
0.75
 40
0.75
 40
1.0
 40
1.0
 40
1.0
 40
1.0
 10
31.3509399160483
 20
-23.90000000000001
 30
0.0
 10
31.47068739850826
 20
-23.86668584913063
 30
0.0
 10
31.62162948078122
 20
-23.82550512225736
 30
0.0
 10
31.97391824075538
 20
-23.73362056702205
 30
0.0
 10
32.17625194130784
 20
-23.68262266436935
 30
0.0
 10
32.63390239533147
 20
-23.57425668636468
 30
0.0
 10
32.88944145927974
 20
-23.51692368870623
 30
0.0
 10
33.43829115573306
 20
-23.40378342837255
 30
0.0
 10
33.7333659038252
 20
-23.34752218646999
 30
0.0
 10
34.05000000000001
 20
-23.29382965508249
 30
0.0
  0
SPLINE
  5
2AD
330
1F
100
AcDbEntity
  8
SK3
  6
SLD-Dashed
370
    18
100
AcDbSpline
210
0.0
220
0.0
230
1.0
 70
     8
 71
     3
 72
     8
 73
     4
 74
     0
 42
0.000000001
 43
0.00000001
 40
0.0
 40
0.0
 40
0.0
 40
0.0
 40
1.0
 40
1.0
 40
1.0
 40
1.0
 10
9.128576702935307
 20
23.28997611937698
 30
0.0
 10
9.110727234552348
 20
23.27357610829826
 30
0.0
 10
9.11071768412329
 20
23.21873966459206
 30
0.0
 10
9.128576702935904
 20
23.13083934744692
 30
0.0
  0
SPLINE
  5
2AE
330
1F
100
AcDbEntity
  8
SK3
  6
SLD-Dashed
370
    18
100
AcDbSpline
210
0.0
220
0.0
230
1.0
 70
     8
 71
     3
 72
    34
 73
    30
 74
     0
 42
0.000000001
 43
0.00000001
 40
0.5000000000000022
 40
0.5000000000000022
 40
0.5000000000000022
 40
0.5000000000000022
 40
0.5625000000000021
 40
0.5625000000000021
 40
0.5937500000000018
 40
0.5937500000000018
 40
0.6250000000000014
 40
0.6250000000000014
 40
0.6562500000000012
 40
0.6562500000000012
 40
0.6875000000000009
 40
0.6875000000000009
 40
0.7500000000000007
 40
0.7500000000000007
 40
0.7812500000000006
 40
0.7812500000000006
 40
0.8125000000000006
 40
0.8125000000000006
 40
0.8437500000000004
 40
0.8437500000000004
 40
0.8750000000000003
 40
0.8750000000000003
 40
0.9062500000000003
 40
0.9062500000000003
 40
0.9375000000000002
 40
0.9375000000000002
 40
0.9687500000000002
 40
0.9687500000000002
 40
1.0
 40
1.0
 40
1.0
 40
1.0
 10
10.44989457346451
 20
20.83939046133177
 30
0.0
 10
10.59263203931582
 20
20.61623535383182
 30
0.0
 10
10.74572898252594
 20
20.40034020612857
 30
0.0
 10
11.02346457422351
 20
20.11974774983988
 30
0.0
 10
11.12372720463398
 20
20.03506133841344
 30
0.0
 10
11.34651412887493
 20
19.90202523848852
 30
0.0
 10
11.4678847494719
 20
19.85636932238474
 30
0.0
 10
11.71475803299396
 20
19.81834705508891
 30
0.0
 10
11.83869929941915
 20
19.82541361136527
 30
0.0
 10
12.06754486308015
 20
19.87113904737418
 30
0.0
 10
12.17335137945201
 20
19.90901688262058
 30
0.0
 10
12.45826053814744
 20
20.0433870630456
 30
0.0
 10
12.60079742123003
 20
20.15748101913769
 30
0.0
 10
12.72395241472731
 20
20.3163795690515
 30
0.0
 10
12.75035560308828
 20
20.3686983002106
 30
0.0
 10
12.77026974501039
 20
20.46407068698104
 30
0.0
 10
12.76437513382363
 20
20.50809579026947
 30
0.0
 10
12.72033810945414
 20
20.58670273274055
 30
0.0
 10
12.68302095968713
 20
20.62036391382856
 30
0.0
 10
12.57844952904387
 20
20.67880303965011
 30
0.0
 10
12.51125932456629
 20
20.70315217179684
 30
0.0
 10
12.35309446794182
 20
20.74506697422294
 30
0.0
 10
12.25993473983127
 20
20.76306355348387
 30
0.0
 10
12.05554915126637
 20
20.80054797821102
 30
0.0
 10
11.94432147845091
 20
20.81988880904708
 30
0.0
 10
11.70236550523705
 20
20.87856381245233
 30
0.0
 10
11.57681201416268
 20
20.91779460819586
 30
0.0
 10
11.33321027169285
 20
21.02911527108172
 30
0.0
 10
11.21910590689124
 20
21.09953242026532
 30
0.0
 10
11.11499999999999
 20
21.17875161027494
 30
0.0
  0
SPLINE
  5
2AF
330
1F
100
AcDbEntity
  8
SK3
  6
SLD-Dashed
370
    18
100
AcDbSpline
210
0.0
220
0.0
230
1.0
 70
     8
 71
     3
 72
    32
 73
    28
 74
     0
 42
0.000000001
 43
0.00000001
 40
0.0
 40
0.0
 40
0.0
 40
0.0
 40
0.0312500000000004
 40
0.0312500000000004
 40
0.0625000000000007
 40
0.0625000000000007
 40
0.1250000000000009
 40
0.1250000000000009
 40
0.1875000000000011
 40
0.1875000000000011
 40
0.2187500000000011
 40
0.2187500000000011
 40
0.2500000000000012
 40
0.2500000000000012
 40
0.2812500000000014
 40
0.2812500000000014
 40
0.3125000000000016
 40
0.3125000000000016
 40
0.3437500000000018
 40
0.3437500000000018
 40
0.375000000000002
 40
0.375000000000002
 40
0.4062500000000022
 40
0.4062500000000022
 40
0.4375000000000024
 40
0.4375000000000024
 40
0.5000000000000022
 40
0.5000000000000022
 40
0.5000000000000022
 40
0.5000000000000022
 10
11.11499999999999
 20
21.17875161027494
 30
0.0
 10
11.01089409310876
 20
21.25797080028457
 30
0.0
 10
10.91907857642198
 20
21.34285059862821
 30
0.0
 10
10.74762137377525
 20
21.51739232411443
 30
0.0
 10
10.66818813797002
 20
21.60711674781946
 30
0.0
 10
10.44047236553636
 20
21.87810823988763
 30
0.0
 10
10.30542057236915
 20
22.05723493175804
 30
0.0
 10
10.0525870356363
 20
22.39465868829962
 30
0.0
 10
9.93481360775797
 20
22.55444913615407
 30
0.0
 10
9.770188160048153
 20
22.76413869711338
 30
0.0
 10
9.717965925809105
 20
22.82813217252615
 30
0.0
 10
9.623196888300587
 20
22.93456489587036
 30
0.0
 10
9.579891013149599
 20
22.97806553251083
 30
0.0
 10
9.508588627253484
 20
23.02840087322287
 30
0.0
 10
9.48189227676846
 20
23.03332613058728
 30
0.0
 10
9.459811777617261
 20
22.98326804514634
 30
0.0
 10
9.465063840888229
 20
22.92678738490279
 30
0.0
 10
9.505124926315833
 20
22.76846886513447
 30
0.0
 10
9.538244242074112
 20
22.67034415658176
 30
0.0
 10
9.619247903804625
 20
22.45687868614512
 30
0.0
 10
9.665743567469118
 20
22.34495490160376
 30
0.0
 10
9.766569607309581
 20
22.11524263911087
 30
0.0
 10
9.821244160784545
 20
21.99690704152572
 30
0.0
 10
9.934291731587845
 20
21.76239601491104
 30
0.0
 10
9.993038231873266
 20
21.64535767447227
 30
0.0
 10
10.17595206270196
 20
21.29563855276317
 30
0.0
 10
10.30715710761319
 20
21.06254556883173
 30
0.0
 10
10.44989457346451
 20
20.83939046133177
 30
0.0
  0
SPLINE
  5
2B0
330
1F
100
AcDbEntity
  8
SK3
  6
SLD-Dashed
370
    18
100
AcDbSpline
210
0.0
220
0.0
230
1.0
 70
     8
 71
     3
 72
    34
 73
    30
 74
     0
 42
0.000000001
 43
0.00000001
 40
0.5000000000000022
 40
0.5000000000000022
 40
0.5000000000000022
 40
0.5000000000000022
 40
0.5625000000000021
 40
0.5625000000000021
 40
0.5937500000000018
 40
0.5937500000000018
 40
0.6250000000000014
 40
0.6250000000000014
 40
0.6562500000000012
 40
0.6562500000000012
 40
0.6875000000000009
 40
0.6875000000000009
 40
0.7500000000000007
 40
0.7500000000000007
 40
0.7812500000000006
 40
0.7812500000000006
 40
0.8125000000000006
 40
0.8125000000000006
 40
0.8437500000000004
 40
0.8437500000000004
 40
0.8750000000000003
 40
0.8750000000000003
 40
0.9062500000000003
 40
0.9062500000000003
 40
0.9375000000000002
 40
0.9375000000000002
 40
0.9687500000000002
 40
0.9687500000000002
 40
1.0
 40
1.0
 40
1.0
 40
1.0
 10
10.44989457346451
 20
20.83939046133177
 30
0.0
 10
10.59263203931582
 20
20.61623535383182
 30
0.0
 10
10.74572898252594
 20
20.40034020612857
 30
0.0
 10
11.02346457422351
 20
20.11974774983988
 30
0.0
 10
11.12372720463398
 20
20.03506133841344
 30
0.0
 10
11.34651412887493
 20
19.90202523848852
 30
0.0
 10
11.4678847494719
 20
19.85636932238474
 30
0.0
 10
11.71475803299396
 20
19.81834705508891
 30
0.0
 10
11.83869929941915
 20
19.82541361136527
 30
0.0
 10
12.06754486308015
 20
19.87113904737418
 30
0.0
 10
12.17335137945201
 20
19.90901688262058
 30
0.0
 10
12.45826053814744
 20
20.0433870630456
 30
0.0
 10
12.60079742123003
 20
20.15748101913769
 30
0.0
 10
12.72395241472731
 20
20.3163795690515
 30
0.0
 10
12.75035560308828
 20
20.3686983002106
 30
0.0
 10
12.77026974501039
 20
20.46407068698104
 30
0.0
 10
12.76437513382363
 20
20.50809579026947
 30
0.0
 10
12.72033810945414
 20
20.58670273274055
 30
0.0
 10
12.68302095968713
 20
20.62036391382856
 30
0.0
 10
12.57844952904387
 20
20.67880303965011
 30
0.0
 10
12.51125932456629
 20
20.70315217179684
 30
0.0
 10
12.35309446794182
 20
20.74506697422294
 30
0.0
 10
12.25993473983127
 20
20.76306355348387
 30
0.0
 10
12.05554915126637
 20
20.80054797821102
 30
0.0
 10
11.94432147845091
 20
20.81988880904708
 30
0.0
 10
11.70236550523705
 20
20.87856381245233
 30
0.0
 10
11.57681201416268
 20
20.91779460819586
 30
0.0
 10
11.33321027169285
 20
21.02911527108172
 30
0.0
 10
11.21910590689124
 20
21.09953242026532
 30
0.0
 10
11.11499999999999
 20
21.17875161027494
 30
0.0
  0
SPLINE
  5
2B1
330
1F
100
AcDbEntity
  8
SK3
  6
SLD-Dashed
370
    18
100
AcDbSpline
210
0.0
220
0.0
230
1.0
 70
     8
 71
     3
 72
    32
 73
    28
 74
     0
 42
0.000000001
 43
0.00000001
 40
0.0
 40
0.0
 40
0.0
 40
0.0
 40
0.0312500000000004
 40
0.0312500000000004
 40
0.0625000000000007
 40
0.0625000000000007
 40
0.1250000000000009
 40
0.1250000000000009
 40
0.1875000000000011
 40
0.1875000000000011
 40
0.2187500000000011
 40
0.2187500000000011
 40
0.2500000000000012
 40
0.2500000000000012
 40
0.2812500000000014
 40
0.2812500000000014
 40
0.3125000000000016
 40
0.3125000000000016
 40
0.3437500000000018
 40
0.3437500000000018
 40
0.375000000000002
 40
0.375000000000002
 40
0.4062500000000022
 40
0.4062500000000022
 40
0.4375000000000024
 40
0.4375000000000024
 40
0.5000000000000022
 40
0.5000000000000022
 40
0.5000000000000022
 40
0.5000000000000022
 10
11.11499999999999
 20
21.17875161027494
 30
0.0
 10
11.01089409310876
 20
21.25797080028457
 30
0.0
 10
10.91907857642198
 20
21.34285059862821
 30
0.0
 10
10.74762137377525
 20
21.51739232411443
 30
0.0
 10
10.66818813797002
 20
21.60711674781946
 30
0.0
 10
10.44047236553636
 20
21.87810823988763
 30
0.0
 10
10.30542057236915
 20
22.05723493175804
 30
0.0
 10
10.0525870356363
 20
22.39465868829962
 30
0.0
 10
9.93481360775797
 20
22.55444913615407
 30
0.0
 10
9.770188160048153
 20
22.76413869711338
 30
0.0
 10
9.717965925809105
 20
22.82813217252615
 30
0.0
 10
9.623196888300587
 20
22.93456489587036
 30
0.0
 10
9.579891013149599
 20
22.97806553251083
 30
0.0
 10
9.508588627253484
 20
23.02840087322287
 30
0.0
 10
9.48189227676846
 20
23.03332613058728
 30
0.0
 10
9.459811777617261
 20
22.98326804514634
 30
0.0
 10
9.465063840888229
 20
22.92678738490279
 30
0.0
 10
9.505124926315833
 20
22.76846886513447
 30
0.0
 10
9.538244242074112
 20
22.67034415658176
 30
0.0
 10
9.619247903804625
 20
22.45687868614512
 30
0.0
 10
9.665743567469118
 20
22.34495490160376
 30
0.0
 10
9.766569607309581
 20
22.11524263911087
 30
0.0
 10
9.821244160784545
 20
21.99690704152572
 30
0.0
 10
9.934291731587845
 20
21.76239601491104
 30
0.0
 10
9.993038231873266
 20
21.64535767447227
 30
0.0
 10
10.17595206270196
 20
21.29563855276317
 30
0.0
 10
10.30715710761319
 20
21.06254556883173
 30
0.0
 10
10.44989457346451
 20
20.83939046133177
 30
0.0
  0
SPLINE
  5
2B2
330
1F
100
AcDbEntity
  8
SK3
  6
SLD-Dashed
370
    18
100
AcDbSpline
210
0.0
220
0.0
230
1.0
 70
     8
 71
     3
 72
    38
 73
    34
 74
     0
 42
0.000000001
 43
0.00000001
 40
0.4999999999999983
 40
0.4999999999999983
 40
0.4999999999999983
 40
0.4999999999999983
 40
0.5312499999999981
 40
0.5312499999999981
 40
0.5624999999999979
 40
0.5624999999999979
 40
0.5937499999999978
 40
0.5937499999999978
 40
0.6249999999999976
 40
0.6249999999999976
 40
0.6562499999999973
 40
0.6562499999999973
 40
0.6874999999999971
 40
0.6874999999999971
 40
0.7187499999999969
 40
0.7187499999999969
 40
0.7499999999999967
 40
0.7499999999999967
 40
0.8124999999999972
 40
0.8124999999999972
 40
0.8437499999999977
 40
0.8437499999999977
 40
0.8749999999999981
 40
0.8749999999999981
 40
0.9062499999999986
 40
0.9062499999999986
 40
0.9374999999999991
 40
0.9374999999999991
 40
0.9687499999999996
 40
0.9687499999999996
 40
0.9843749999999998
 40
0.9843749999999998
 40
1.0
 40
1.0
 40
1.0
 40
1.0
 10
9.56216591730219
 20
18.47093598961304
 30
0.0
 10
9.606669608828778
 20
18.52416098688805
 30
0.0
 10
9.666912210336983
 20
18.57938849438463
 30
0.0
 10
9.811812632231549
 20
18.68375239917333
 30
0.0
 10
9.897567425050546
 20
18.73401424472705
 30
0.0
 10
10.09207138823538
 20
18.8199322275476
 30
0.0
 10
10.19846038260036
 20
18.85489400372537
 30
0.0
 10
10.42991716747883
 20
18.89353738847551
 30
0.0
 10
10.55509168137395
 20
18.89577731622842
 30
0.0
 10
10.80142802631483
 20
18.84685379350589
 30
0.0
 10
10.92088750473036
 20
18.7956916519712
 30
0.0
 10
11.13971660654368
 20
18.65451476066452
 30
0.0
 10
11.23726506040233
 20
18.56770093185929
 30
0.0
 10
11.41790338683529
 20
18.37844427042388
 30
0.0
 10
11.50153843453279
 20
18.2751051322028
 30
0.0
 10
11.65792087602185
 20
18.06321384263405
 30
0.0
 10
11.73120965691783
 20
17.95392511395889
 30
0.0
 10
11.94219226675071
 20
17.619741552961
 30
0.0
 10
12.07203185085186
 20
17.38734632762718
 30
0.0
 10
12.25447266366209
 20
17.03574839840394
 30
0.0
 10
12.3128811159902
 20
16.91845212228915
 30
0.0
 10
12.4247898608672
 20
16.68436964494052
 30
0.0
 10
12.47864510461585
 20
16.56677083259166
 30
0.0
 10
12.57771343290431
 20
16.33866118066523
 30
0.0
 10
12.62343468736296
 20
16.22711687706208
 30
0.0
 10
12.70112312343485
 20
16.01827980161889
 30
0.0
 10
12.73250492214958
 20
15.92212850952397
 30
0.0
 10
12.7672598594827
 20
15.77300891717612
 30
0.0
 10
12.7696372439699
 20
15.72182794413953
 30
0.0
 10
12.74922628849655
 20
15.69153457680418
 30
0.0
 10
12.73857436485565
 20
15.68875344160837
 30
0.0
 10
12.71187670664378
 20
15.69536171497652
 30
0.0
 10
12.69586259956385
 20
15.70450089689616
 30
0.0
 10
12.67730763443391
 20
15.71862026199411
 30
0.0
  0
SPLINE
  5
2B3
330
1F
100
AcDbEntity
  8
SK3
  6
SLD-Dashed
370
    18
100
AcDbSpline
210
0.0
220
0.0
230
1.0
 70
     8
 71
     3
 72
    32
 73
    28
 74
     0
 42
0.000000001
 43
0.00000001
 40
0.0
 40
0.0
 40
0.0
 40
0.0
 40
0.03125
 40
0.03125
 40
0.0625
 40
0.0625
 40
0.1250000000000001
 40
0.1250000000000001
 40
0.1875000000000001
 40
0.1875000000000001
 40
0.2187499999999999
 40
0.2187499999999999
 40
0.2499999999999997
 40
0.2499999999999997
 40
0.2812499999999995
 40
0.2812499999999995
 40
0.3124999999999993
 40
0.3124999999999993
 40
0.3437499999999991
 40
0.3437499999999991
 40
0.3749999999999989
 40
0.3749999999999989
 40
0.4374999999999987
 40
0.4374999999999987
 40
0.4687499999999986
 40
0.4687499999999986
 40
0.4999999999999983
 40
0.4999999999999983
 40
0.4999999999999983
 40
0.4999999999999983
 10
12.67730763443389
 20
15.71862026199412
 30
0.0
 10
12.64019770417402
 20
15.74685899219003
 30
0.0
 10
12.59620302127298
 20
15.79224259566824
 30
0.0
 10
12.49971880657837
 20
15.90229639915262
 30
0.0
 10
12.44665882244546
 20
15.96790322450679
 30
0.0
 10
12.28056941339611
 20
16.18069042781311
 30
0.0
 10
12.16116169070407
 20
16.34294467859649
 30
0.0
 10
11.90308945990523
 20
16.68678550781623
 30
0.0
 10
11.76485718622874
 20
16.86913497916118
 30
0.0
 10
11.53444141192583
 20
17.13967173638347
 30
0.0
 10
11.45348400885542
 20
17.22963068267214
 30
0.0
 10
11.27594996715917
 20
17.40558287635433
 30
0.0
 10
11.18041818036963
 20
17.49045861876102
 30
0.0
 10
10.96802844471276
 20
17.64380301353632
 30
0.0
 10
10.85203519791082
 20
17.71043612197694
 30
0.0
 10
10.60633681320568
 20
17.81421106697191
 30
0.0
 10
10.48187270231066
 20
17.84965901655795
 30
0.0
 10
10.24397755356145
 20
17.90370925451104
 30
0.0
 10
10.13459384449089
 20
17.92220535972609
 30
0.0
 10
9.934042005980901
 20
17.95947433583486
 30
0.0
 10
9.845027015680587
 20
17.97770297449699
 30
0.0
 10
9.616531880722908
 20
18.0431335092885
 30
0.0
 10
9.516243573240754
 20
18.10241425150425
 30
0.0
 10
9.462270080515284
 20
18.22319269411326
 30
0.0
 10
9.460111331805908
 20
18.26770507956404
 30
0.0
 10
9.487789440891763
 20
18.36543324740019
 30
0.0
 10
9.517662225775616
 20
18.41771099233802
 30
0.0
 10
9.56216591730219
 20
18.47093598961304
 30
0.0
  0
SPLINE
  5
2B4
330
1F
100
AcDbEntity
  8
SK3
  6
SLD-Dashed
370
    18
100
AcDbSpline
210
0.0
220
0.0
230
1.0
 70
     8
 71
     3
 72
    28
 73
    24
 74
     0
 42
0.000000001
 43
0.00000001
 40
0.5000000000000001
 40
0.5000000000000001
 40
0.5000000000000001
 40
0.5000000000000001
 40
0.5625000000000004
 40
0.5625000000000004
 40
0.6250000000000009
 40
0.6250000000000009
 40
0.6562500000000011
 40
0.6562500000000011
 40
0.6875000000000012
 40
0.6875000000000012
 40
0.7500000000000014
 40
0.7500000000000014
 40
0.7812500000000013
 40
0.7812500000000013
 40
0.8125000000000011
 40
0.8125000000000011
 40
0.843750000000001
 40
0.843750000000001
 40
0.8750000000000009
 40
0.8750000000000009
 40
0.9375000000000003
 40
0.9375000000000003
 40
1.0
 40
1.0
 40
1.0
 40
1.0
 10
11.11564261051437
 20
-10.07056770158059
 30
0.0
 10
10.90010778574495
 20
-10.07058354602036
 30
0.0
 10
10.68265365467172
 20
-10.06264479824195
 30
0.0
 10
10.28536507251088
 20
-10.02964748736923
 30
0.0
 10
10.10160712559054
 20
-10.00414411159618
 30
0.0
 10
9.873249201983333
 20
-9.950750182424343
 30
0.0
 10
9.803579398754813
 20
-9.930065251912211
 30
0.0
 10
9.683882191269616
 20
-9.883998959997045
 30
0.0
 10
9.63309493158611
 20
-9.858517186084784
 30
0.0
 10
9.50837192576319
 20
-9.773408468960497
 30
0.0
 10
9.465178861648244
 20
-9.706870155101626
 30
0.0
 10
9.46491139650954
 20
-9.595030982900228
 30
0.0
 10
9.475526012249672
 20
-9.556713343196677
 30
0.0
 10
9.51736908351032
 20
-9.478252595258839
 30
0.0
 10
9.549144086625716
 20
-9.437650913420145
 30
0.0
 10
9.631775047265965
 20
-9.3578082171295
 30
0.0
 10
9.682370529794468
 20
-9.318531520213725
 30
0.0
 10
9.802075762433734
 20
-9.242008897620252
 30
0.0
 10
9.871515635318072
 20
-9.204766604201026
 30
0.0
 10
10.09914466282999
 20
-9.102269777334925
 30
0.0
 10
10.28287041051443
 20
-9.043703198122772
 30
0.0
 10
10.67967561057072
 20
-8.96393531813611
 30
0.0
 10
10.89660516702531
 20
-8.941901252225746
 30
0.0
 10
11.11499999999999
 20
-8.941901252225746
 30
0.0
  0
SPLINE
  5
2B5
330
1F
100
AcDbEntity
  8
SK3
  6
SLD-Dashed
370
    18
100
AcDbSpline
210
0.0
220
0.0
230
1.0
 70
     8
 71
     3
 72
    32
 73
    28
 74
     0
 42
0.000000001
 43
0.00000001
 40
0.0
 40
0.0
 40
0.0
 40
0.0
 40
0.0312499999999998
 40
0.0312499999999998
 40
0.0624999999999995
 40
0.0624999999999995
 40
0.0937499999999993
 40
0.0937499999999993
 40
0.124999999999999
 40
0.124999999999999
 40
0.1874999999999992
 40
0.1874999999999992
 40
0.2499999999999993
 40
0.2499999999999993
 40
0.2812499999999993
 40
0.2812499999999993
 40
0.3124999999999993
 40
0.3124999999999993
 40
0.3749999999999993
 40
0.3749999999999993
 40
0.4062499999999995
 40
0.4062499999999995
 40
0.4374999999999997
 40
0.4374999999999997
 40
0.4687499999999999
 40
0.4687499999999999
 40
0.5000000000000001
 40
0.5000000000000001
 40
0.5000000000000001
 40
0.5000000000000001
 10
11.11499999999999
 20
-8.941901252225746
 30
0.0
 10
11.22419741648734
 20
-8.941901252225746
 30
0.0
 10
11.33153394270735
 20
-8.947232614228241
 30
0.0
 10
11.54264868562738
 20
-8.96791717019518
 30
0.0
 10
11.64753407898229
 20
-8.983524465554567
 30
0.0
 10
11.84725973261394
 20
-9.023579918904886
 30
0.0
 10
11.94195888025636
 20
-9.04784588796056
 30
0.0
 10
12.12118032382029
 20
-9.103992115339524
 30
0.0
 10
12.20589728832511
 20
-9.13609853971711
 30
0.0
 10
12.43377717960491
 20
-9.238592309248107
 30
0.0
 10
12.55665645080443
 20
-9.31780917726701
 30
0.0
 10
12.72135712046619
 20
-9.476619751217529
 30
0.0
 10
12.76487660390595
 20
-9.557768139952287
 30
0.0
 10
12.76506129445199
 20
-9.668406490730433
 30
0.0
 10
12.754308512461
 20
-9.704224655169073
 30
0.0
 10
12.7121401634383
 20
-9.770388241509977
 30
0.0
 10
12.68094210586904
 20
-9.801010346100398
 30
0.0
 10
12.55677044886
 20
-9.886221120474076
 30
0.0
 10
12.43571377904101
 20
-9.932176891525371
 30
0.0
 10
12.2052594518882
 20
-9.986225843662881
 30
0.0
 10
12.12213230410163
 20
-10.00138101483375
 30
0.0
 10
11.94364125322482
 20
-10.02709258377506
 30
0.0
 10
11.8471022328062
 20
-10.03772564435482
 30
0.0
 10
11.64751085961209
 20
-10.05434775685777
 30
0.0
 10
11.5446701916616
 20
-10.06039895778889
 30
0.0
 10
11.33288364358034
 20
-10.06852836867875
 30
0.0
 10
11.22341002289909
 20
-10.07055977936071
 30
0.0
 10
11.11564261051437
 20
-10.07056770158059
 30
0.0
  0
SPLINE
  5
2B6
330
1F
100
AcDbEntity
  8
SK3
  6
SLD-Dashed
370
    18
100
AcDbSpline
210
0.0
220
0.0
230
1.0
 70
     8
 71
     3
 72
    28
 73
    24
 74
     0
 42
0.000000001
 43
0.00000001
 40
0.5000000000000003
 40
0.5000000000000003
 40
0.5000000000000003
 40
0.5000000000000003
 40
0.5625000000000003
 40
0.5625000000000003
 40
0.6250000000000002
 40
0.6250000000000002
 40
0.6562500000000003
 40
0.6562500000000003
 40
0.6875000000000004
 40
0.6875000000000004
 40
0.7500000000000004
 40
0.7500000000000004
 40
0.7812500000000004
 40
0.7812500000000004
 40
0.8125000000000004
 40
0.8125000000000004
 40
0.8437500000000004
 40
0.8437500000000004
 40
0.8750000000000003
 40
0.8750000000000003
 40
0.9375000000000002
 40
0.9375000000000002
 40
1.0
 40
1.0
 40
1.0
 40
1.0
 10
11.11435738948562
 20
8.941901314203859
 30
0.0
 10
11.32989221425504
 20
8.941859738662302
 30
0.0
 10
11.54734634532827
 20
8.963531171306785
 30
0.0
 10
11.94463492748912
 20
9.04300985449799
 30
0.0
 10
12.12839287440946
 20
9.101366074775601
 30
0.0
 10
12.35675079801667
 20
9.203885451492983
 30
0.0
 10
12.42642060124519
 20
9.241166441975187
 30
0.0
 10
12.54611780873037
 20
9.31744937797096
 30
0.0
 10
12.59690506841389
 20
9.35670138732931
 30
0.0
 10
12.72162807423681
 20
9.476716624126572
 30
0.0
 10
12.76482113835178
 20
9.556774459085226
 30
0.0
 10
12.76508860349049
 20
9.668694548875555
 30
0.0
 10
12.75447398775031
 20
9.703771656769312
 30
0.0
 10
12.71263091648968
 20
9.769808593908413
 30
0.0
 10
12.68085591337427
 20
9.801071154991167
 30
0.0
 10
12.59822495273404
 20
9.857771982172407
 30
0.0
 10
12.54762947020555
 20
9.883314942400085
 30
0.0
 10
12.42792423756626
 20
9.929586271364865
 30
0.0
 10
12.35848436468191
 20
9.950269633367864
 30
0.0
 10
12.13085533717006
 20
10.00371587208456
 30
0.0
 10
11.94712958948557
 20
10.02934697218486
 30
0.0
 10
11.55032438942928
 20
10.06248949334464
 30
0.0
 10
11.33339483297464
 20
10.07056772520046
 30
0.0
 10
11.11500000000001
 20
10.07056772520045
 30
0.0
  0
SPLINE
  5
2B7
330
1F
100
AcDbEntity
  8
SK3
  6
SLD-Dashed
370
    18
100
AcDbSpline
210
0.0
220
0.0
230
1.0
 70
     8
 71
     3
 72
    32
 73
    28
 74
     0
 42
0.000000001
 43
0.00000001
 40
0.0
 40
0.0
 40
0.0
 40
0.0
 40
0.0312500000000001
 40
0.0312500000000001
 40
0.0625000000000002
 40
0.0625000000000002
 40
0.0937500000000003
 40
0.0937500000000003
 40
0.1250000000000004
 40
0.1250000000000004
 40
0.1875000000000003
 40
0.1875000000000003
 40
0.2500000000000002
 40
0.2500000000000002
 40
0.2812500000000003
 40
0.2812500000000003
 40
0.3125000000000003
 40
0.3125000000000003
 40
0.3750000000000004
 40
0.3750000000000004
 40
0.4062500000000004
 40
0.4062500000000004
 40
0.4375000000000003
 40
0.4375000000000003
 40
0.4687500000000003
 40
0.4687500000000003
 40
0.5000000000000003
 40
0.5000000000000003
 40
0.5000000000000003
 40
0.5000000000000003
 10
11.11500000000001
 20
10.07056772520045
 30
0.0
 10
11.00580258351269
 20
10.07056772520046
 30
0.0
 10
10.89846605729267
 20
10.06855739145894
 30
0.0
 10
10.68735131437265
 20
10.06049897750128
 30
0.0
 10
10.58246592101776
 20
10.05434736284402
 30
0.0
 10
10.38274026738612
 20
10.03771098655226
 30
0.0
 10
10.2880411197437
 20
10.02730292903754
 30
0.0
 10
10.10881967617974
 20
10.00154968003725
 30
0.0
 10
10.02410271167492
 20
9.986067944961922
 30
0.0
 10
9.796222820395121
 20
9.932647661379628
 30
0.0
 10
9.673343549195579
 20
9.886137144929883
 30
0.0
 10
9.508642879533818
 20
9.773437335730911
 30
0.0
 10
9.465123396094025
 20
9.70589325450466
 30
0.0
 10
9.464938705548029
 20
9.5953107791062
 30
0.0
 10
9.475691487539017
 20
9.556209985021589
 30
0.0
 10
9.517859836561698
 20
9.477528483038997
 30
0.0
 10
9.549057894130964
 20
9.437735944322581
 30
0.0
 10
9.673229551140015
 20
9.317749043584726
 30
0.0
 10
9.794286220959055
 20
9.239486291031648
 30
0.0
 10
10.0247405481118
 20
9.135800206298402
 30
0.0
 10
10.10786769589836
 20
9.104343951756528
 30
0.0
 10
10.28635874677516
 20
9.048320122924128
 30
0.0
 10
10.38289776719381
 20
9.023545128545363
 30
0.0
 10
10.58248914038791
 20
8.98352301515639
 30
0.0
 10
10.68532980833839
 20
8.968171463221687
 30
0.0
 10
10.89711635641964
 20
8.947309512544605
 30
0.0
 10
11.0065899771009
 20
8.941922101974642
 30
0.0
 10
11.11435738948562
 20
8.941901314203859
 30
0.0
  0
SPLINE
  5
2B8
330
1F
100
AcDbEntity
  8
SK3
  6
SLD-Dashed
370
    18
100
AcDbSpline
210
0.0
220
0.0
230
1.0
 70
     8
 71
     2
 72
     6
 73
     3
 74
     0
 42
0.000000001
 43
0.00000001
 40
0.0
 40
0.0
 40
0.0
 40
0.0312499999999996
 40
0.0312499999999996
 40
0.0312499999999996
 10
44.99999999999997
 20
-9.999999999999984
 30
0.0
 10
44.95094970552191
 20
-9.9654920002328
 30
0.0
 10
44.85620613829326
 20
-9.899876898768495
 30
0.0
  0
SPLINE
  5
2B9
330
1F
100
AcDbEntity
  8
SK3
  6
SLD-Dashed
370
    18
100
AcDbSpline
210
0.0
220
0.0
230
1.0
 70
     8
 71
     3
 72
     8
 73
     4
 74
     0
 42
0.000000001
 43
0.00000001
 40
0.0312499999999996
 40
0.0312499999999996
 40
0.0312499999999996
 40
0.0312499999999996
 40
0.0624999999999992
 40
0.0624999999999992
 40
0.0624999999999992
 40
0.0624999999999992
 10
44.85620613829326
 20
-9.899876898768495
 30
0.0
 10
44.76146257106461
 20
-9.834261797304196
 30
0.0
 10
44.6186218925634
 20
-9.735924164816993
 30
0.0
 10
44.43830339215711
 20
-9.615183335197598
 30
0.0
  0
SPLINE
  5
2BA
330
1F
100
AcDbEntity
  8
SK3
  6
SLD-Dashed
370
    18
100
AcDbSpline
210
0.0
220
0.0
230
1.0
 70
     8
 71
     3
 72
     8
 73
     4
 74
     0
 42
0.000000001
 43
0.00000001
 40
0.0624999999999992
 40
0.0624999999999992
 40
0.0624999999999992
 40
0.0624999999999992
 40
0.0937499999999988
 40
0.0937499999999988
 40
0.0937499999999988
 40
0.0937499999999988
 10
44.43830339215711
 20
-9.615183335197598
 30
0.0
 10
44.2579848917508
 20
-9.494442505578192
 30
0.0
 10
44.03860677735216
 20
-9.35017328857002
 30
0.0
 10
43.78436668195766
 20
-9.190152224600993
 30
0.0
  0
SPLINE
  5
2BB
330
1F
100
AcDbEntity
  8
SK3
  6
SLD-Dashed
370
    18
100
AcDbSpline
210
0.0
220
0.0
230
1.0
 70
     8
 71
     3
 72
     8
 73
     4
 74
     0
 42
0.000000001
 43
0.00000001
 40
0.0937499999999988
 40
0.0937499999999988
 40
0.0937499999999988
 40
0.0937499999999988
 40
0.1249999999999984
 40
0.1249999999999984
 40
0.1249999999999984
 40
0.1249999999999984
 10
43.78436668195766
 20
-9.190152224600993
 30
0.0
 10
43.53012658656315
 20
-9.03013116063198
 30
0.0
 10
43.24633260848216
 20
-8.857636123161
 30
0.0
 10
42.93340682428064
 20
-8.679775509416062
 30
0.0
  0
SPLINE
  5
2BC
330
1F
100
AcDbEntity
  8
SK3
  6
SLD-Dashed
370
    18
100
AcDbSpline
210
0.0
220
0.0
230
1.0
 70
     8
 71
     3
 72
     8
 73
     4
 74
     0
 42
0.000000001
 43
0.00000001
 40
0.1249999999999984
 40
0.1249999999999984
 40
0.1249999999999984
 40
0.1249999999999984
 40
0.156249999999998
 40
0.156249999999998
 40
0.156249999999998
 40
0.156249999999998
 10
42.93340682428064
 20
-8.679775509416062
 30
0.0
 10
42.62048104007915
 20
-8.50191489567112
 30
0.0
 10
42.27554479935827
 20
-8.317299974834315
 30
0.0
 10
41.91000159351961
 20
-8.141751191317868
 30
0.0
  0
SPLINE
  5
2BD
330
1F
100
AcDbEntity
  8
SK3
  6
SLD-Dashed
370
    18
100
AcDbSpline
210
0.0
220
0.0
230
1.0
 70
     8
 71
     3
 72
     8
 73
     4
 74
     0
 42
0.000000001
 43
0.00000001
 40
0.156249999999998
 40
0.156249999999998
 40
0.156249999999998
 40
0.156249999999998
 40
0.1874999999999976
 40
0.1874999999999976
 40
0.1874999999999976
 40
0.1874999999999976
 10
41.91000159351961
 20
-8.141751191317868
 30
0.0
 10
41.54445838768095
 20
-7.966202407801419
 30
0.0
 10
41.15654247222484
 20
-7.798288156421536
 30
0.0
 10
40.74105659858355
 20
-7.649404635436566
 30
0.0
  0
SPLINE
  5
2BE
330
1F
100
AcDbEntity
  8
SK3
  6
SLD-Dashed
370
    18
100
AcDbSpline
210
0.0
220
0.0
230
1.0
 70
     8
 71
     3
 72
     8
 73
     4
 74
     0
 42
0.000000001
 43
0.00000001
 40
0.1874999999999976
 40
0.1874999999999976
 40
0.1874999999999976
 40
0.1874999999999976
 40
0.2031249999999974
 40
0.2031249999999974
 40
0.2031249999999974
 40
0.2031249999999974
 10
40.74105659858355
 20
-7.649404635436566
 30
0.0
 10
40.53331366176293
 20
-7.574962874944076
 30
0.0
 10
40.31719089190469
 20
-7.504968791880302
 30
0.0
 10
40.09655608112365
 20
-7.442818511914452
 30
0.0
  0
SPLINE
  5
2BF
330
1F
100
AcDbEntity
  8
SK3
  6
SLD-Dashed
370
    18
100
AcDbSpline
210
0.0
220
0.0
230
1.0
 70
     8
 71
     3
 72
     8
 73
     4
 74
     0
 42
0.000000001
 43
0.00000001
 40
0.2031249999999974
 40
0.2031249999999974
 40
0.2031249999999974
 40
0.2031249999999974
 40
0.2187499999999972
 40
0.2187499999999972
 40
0.2187499999999972
 40
0.2187499999999972
 10
40.09655608112365
 20
-7.442818511914452
 30
0.0
 10
39.87592127034262
 20
-7.380668231948603
 30
0.0
 10
39.65155667450407
 20
-7.326489507799763
 30
0.0
 10
39.42311832754092
 20
-7.281844943019776
 30
0.0
  0
SPLINE
  5
2C0
330
1F
100
AcDbEntity
  8
SK3
  6
SLD-Dashed
370
    18
100
AcDbSpline
210
0.0
220
0.0
230
1.0
 70
     8
 71
     3
 72
     8
 73
     4
 74
     0
 42
0.000000001
 43
0.00000001
 40
0.2187499999999972
 40
0.2187499999999972
 40
0.2187499999999972
 40
0.2187499999999972
 40
0.234374999999997
 40
0.234374999999997
 40
0.234374999999997
 40
0.234374999999997
 10
39.42311832754092
 20
-7.281844943019776
 30
0.0
 10
39.19467998057778
 20
-7.237200378239789
 30
0.0
 10
38.9621680388542
 20
-7.202093728900367
 30
0.0
 10
38.72513084145098
 20
-7.178148419838038
 30
0.0
  0
SPLINE
  5
2C1
330
1F
100
AcDbEntity
  8
SK3
  6
SLD-Dashed
370
    18
100
AcDbSpline
210
0.0
220
0.0
230
1.0
 70
     8
 71
     3
 72
     8
 73
     4
 74
     0
 42
0.000000001
 43
0.00000001
 40
0.234374999999997
 40
0.234374999999997
 40
0.234374999999997
 40
0.234374999999997
 40
0.2499999999999968
 40
0.2499999999999968
 40
0.2499999999999968
 40
0.2499999999999968
 10
38.72513084145098
 20
-7.178148419838038
 30
0.0
 10
38.48809364404774
 20
-7.154203110775709
 30
0.0
 10
38.2469941153091
 20
-7.14174054255504
 30
0.0
 10
38.00919544084369
 20
-7.141434348653789
 30
0.0
  0
SPLINE
  5
2C2
330
1F
100
AcDbEntity
  8
SK3
  6
SLD-Dashed
370
    18
100
AcDbSpline
210
0.0
220
0.0
230
1.0
 70
     8
 71
     3
 72
     8
 73
     4
 74
     0
 42
0.000000001
 43
0.00000001
 40
0.2499999999999968
 40
0.2499999999999968
 40
0.2499999999999968
 40
0.2499999999999968
 40
0.2656249999999966
 40
0.2656249999999966
 40
0.2656249999999966
 40
0.2656249999999966
 10
38.00919544084369
 20
-7.141434348653789
 30
0.0
 10
37.77139676637831
 20
-7.141128154752537
 30
0.0
 10
37.5349391508419
 20
-7.152727322689556
 30
0.0
 10
37.29977957358059
 20
-7.175674786776127
 30
0.0
  0
SPLINE
  5
2C3
330
1F
100
AcDbEntity
  8
SK3
  6
SLD-Dashed
370
    18
100
AcDbSpline
210
0.0
220
0.0
230
1.0
 70
     8
 71
     3
 72
     8
 73
     4
 74
     0
 42
0.000000001
 43
0.00000001
 40
0.2656249999999966
 40
0.2656249999999966
 40
0.2656249999999966
 40
0.2656249999999966
 40
0.2812499999999964
 40
0.2812499999999964
 40
0.2812499999999964
 40
0.2812499999999964
 10
37.29977957358059
 20
-7.175674786776127
 30
0.0
 10
37.06461999631932
 20
-7.19862225086271
 30
0.0
 10
36.82969662788492
 20
-7.233125911700753
 30
0.0
 10
36.59843236198021
 20
-7.277663900177314
 30
0.0
  0
SPLINE
  5
2C4
330
1F
100
AcDbEntity
  8
SK3
  6
SLD-Dashed
370
    18
100
AcDbSpline
210
0.0
220
0.0
230
1.0
 70
     8
 71
     3
 72
     8
 73
     4
 74
     0
 42
0.000000001
 43
0.00000001
 40
0.2812499999999964
 40
0.2812499999999964
 40
0.2812499999999964
 40
0.2812499999999964
 40
0.3124999999999961
 40
0.3124999999999961
 40
0.3124999999999961
 40
0.3124999999999961
 10
36.59843236198021
 20
-7.277663900177314
 30
0.0
 10
36.1359038301708
 20
-7.366739877130455
 30
0.0
 10
35.69746314874908
 20
-7.493197049674365
 30
0.0
 10
35.27793878675226
 20
-7.642618481166492
 30
0.0
  0
SPLINE
  5
2C5
330
1F
100
AcDbEntity
  8
SK3
  6
SLD-Dashed
370
    18
100
AcDbSpline
210
0.0
220
0.0
230
1.0
 70
     8
 71
     3
 72
     8
 73
     4
 74
     0
 42
0.000000001
 43
0.00000001
 40
0.3124999999999961
 40
0.3124999999999961
 40
0.3124999999999961
 40
0.3124999999999961
 40
0.3281249999999959
 40
0.3281249999999959
 40
0.3281249999999959
 40
0.3281249999999959
 10
35.27793878675226
 20
-7.642618481166492
 30
0.0
 10
35.06817660575386
 20
-7.717329196912558
 30
0.0
 10
34.86383508394877
 20
-7.797686311343424
 30
0.0
 10
34.66761266260951
 20
-7.880660211327495
 30
0.0
  0
SPLINE
  5
2C6
330
1F
100
AcDbEntity
  8
SK3
  6
SLD-Dashed
370
    18
100
AcDbSpline
210
0.0
220
0.0
230
1.0
 70
     8
 71
     3
 72
     8
 73
     4
 74
     0
 42
0.000000001
 43
0.00000001
 40
0.3281249999999959
 40
0.3281249999999959
 40
0.3281249999999959
 40
0.3281249999999959
 40
0.3437499999999957
 40
0.3437499999999957
 40
0.3437499999999957
 40
0.3437499999999957
 10
34.66761266260951
 20
-7.880660211327495
 30
0.0
 10
34.47139024127023
 20
-7.963634111311565
 30
0.0
 10
34.2822372052681
 20
-8.049598056039272
 30
0.0
 10
34.09946015325011
 20
-8.137211506166194
 30
0.0
  0
SPLINE
  5
2C7
330
1F
100
AcDbEntity
  8
SK3
  6
SLD-Dashed
370
    18
100
AcDbSpline
210
0.0
220
0.0
230
1.0
 70
     8
 71
     3
 72
     8
 73
     4
 74
     0
 42
0.000000001
 43
0.00000001
 40
0.3437499999999957
 40
0.3437499999999957
 40
0.3437499999999957
 40
0.3437499999999957
 40
0.3749999999999956
 40
0.3749999999999956
 40
0.3749999999999956
 40
0.3749999999999956
 10
34.09946015325011
 20
-8.137211506166194
 30
0.0
 10
33.73390604921406
 20
-8.312438406420055
 30
0.0
 10
33.39311205950128
 20
-8.49444538443011
 30
0.0
 10
33.07681672302019
 20
-8.67396873286579
 30
0.0
  0
SPLINE
  5
2C8
330
1F
100
AcDbEntity
  8
SK3
  6
SLD-Dashed
370
    18
100
AcDbSpline
210
0.0
220
0.0
230
1.0
 70
     8
 71
     3
 72
     8
 73
     4
 74
     0
 42
0.000000001
 43
0.00000001
 40
0.3749999999999956
 40
0.3749999999999956
 40
0.3749999999999956
 40
0.3749999999999956
 40
0.4062499999999956
 40
0.4062499999999956
 40
0.4062499999999956
 40
0.4062499999999956
 10
33.07681672302019
 20
-8.67396873286579
 30
0.0
 10
32.7605213865391
 20
-8.853492081301466
 30
0.0
 10
32.47706466804649
 20
-9.02576520134376
 30
0.0
 10
32.22512765589077
 20
-9.184179364034536
 30
0.0
  0
SPLINE
  5
2C9
330
1F
100
AcDbEntity
  8
SK3
  6
SLD-Dashed
370
    18
100
AcDbSpline
210
0.0
220
0.0
230
1.0
 70
     8
 71
     3
 72
     8
 73
     4
 74
     0
 42
0.000000001
 43
0.00000001
 40
0.4062499999999956
 40
0.4062499999999956
 40
0.4062499999999956
 40
0.4062499999999956
 40
0.4218749999999957
 40
0.4218749999999957
 40
0.4218749999999957
 40
0.4218749999999957
 10
32.22512765589077
 20
-9.184179364034536
 30
0.0
 10
32.09915914981288
 20
-9.263386445379936
 30
0.0
 10
31.98115220351022
 20
-9.339143255954554
 30
0.0
 10
31.87143808362648
 20
-9.410593560600915
 30
0.0
  0
SPLINE
  5
2CA
330
1F
100
AcDbEntity
  8
SK3
  6
SLD-Dashed
370
    18
100
AcDbSpline
210
0.0
220
0.0
230
1.0
 70
     8
 71
     3
 72
     8
 73
     4
 74
     0
 42
0.000000001
 43
0.00000001
 40
0.4218749999999957
 40
0.4218749999999957
 40
0.4218749999999957
 40
0.4218749999999957
 40
0.4374999999999957
 40
0.4374999999999957
 40
0.4374999999999957
 40
0.4374999999999957
 10
31.87143808362648
 20
-9.410593560600915
 30
0.0
 10
31.76172396374276
 20
-9.482043865247276
 30
0.0
 10
31.65975257103754
 20
-9.5495617263246
 30
0.0
 10
31.56839594738251
 20
-9.610698761778238
 30
0.0
  0
SPLINE
  5
2CB
330
1F
100
AcDbEntity
  8
SK3
  6
SLD-Dashed
370
    18
100
AcDbSpline
210
0.0
220
0.0
230
1.0
 70
     8
 71
     3
 72
     8
 73
     4
 74
     0
 42
0.000000001
 43
0.00000001
 40
0.4374999999999957
 40
0.4374999999999957
 40
0.4374999999999957
 40
0.4374999999999957
 40
0.4687499999999959
 40
0.4687499999999959
 40
0.4687499999999959
 40
0.4687499999999959
 10
31.56839594738251
 20
-9.610698761778238
 30
0.0
 10
31.38568270007244
 20
-9.732972832685517
 30
0.0
 10
31.24475785535001
 20
-9.829976115006373
 30
0.0
 10
31.14808581902102
 20
-9.896904967892768
 30
0.0
  0
SPLINE
  5
2CC
330
1F
100
AcDbEntity
  8
SK3
  6
SLD-Dashed
370
    18
100
AcDbSpline
210
0.0
220
0.0
230
1.0
 70
     8
 71
     3
 72
     8
 73
     4
 74
     0
 42
0.000000001
 43
0.00000001
 40
0.4687499999999959
 40
0.4687499999999959
 40
0.4687499999999959
 40
0.4687499999999959
 40
0.484374999999996
 40
0.484374999999996
 40
0.484374999999996
 40
0.484374999999996
 10
31.14808581902102
 20
-9.896904967892768
 30
0.0
 10
31.09974980085653
 20
-9.930369394335955
 30
0.0
 10
31.06248645290294
 20
-9.956343747489143
 30
0.0
 10
31.03776266129855
 20
-9.973602596875836
 30
0.0
  0
SPLINE
  5
2CD
330
1F
100
AcDbEntity
  8
SK3
  6
SLD-Dashed
370
    18
100
AcDbSpline
210
0.0
220
0.0
230
1.0
 70
     8
 71
     3
 72
     8
 73
     4
 74
     0
 42
0.000000001
 43
0.00000001
 40
0.484374999999996
 40
0.484374999999996
 40
0.484374999999996
 40
0.484374999999996
 40
0.499999999999996
 40
0.499999999999996
 40
0.499999999999996
 40
0.499999999999996
 10
31.03776266129855
 20
-9.973602596875836
 30
0.0
 10
31.01303886969418
 20
-9.99086144626254
 30
0.0
 10
31.00052479563212
 20
-9.999632611244522
 30
0.0
 10
31.00001608656519
 20
-9.999988723291949
 30
0.0
  0
SPLINE
  5
2CE
330
1F
100
AcDbEntity
  8
SK3
  6
SLD-Dashed
370
    18
100
AcDbSpline
210
0.0
220
0.0
230
1.0
 70
     8
 71
     3
 72
     8
 73
     4
 74
     0
 42
0.000000001
 43
0.00000001
 40
0.515624999999996
 40
0.515624999999996
 40
0.515624999999996
 40
0.515624999999996
 40
0.531249999999996
 40
0.531249999999996
 40
0.531249999999996
 40
0.531249999999996
 10
31.03467801653588
 20
-9.975756128400931
 30
0.0
 10
31.05835199964517
 20
-9.959226362349623
 30
0.0
 10
31.09457317656876
 20
-9.933969447972357
 30
0.0
 10
31.14200906040924
 20
-9.901113054980684
 30
0.0
  0
SPLINE
  5
2CF
330
1F
100
AcDbEntity
  8
SK3
  6
SLD-Dashed
370
    18
100
AcDbSpline
210
0.0
220
0.0
230
1.0
 70
     8
 71
     3
 72
     8
 73
     4
 74
     0
 42
0.000000001
 43
0.00000001
 40
0.531249999999996
 40
0.531249999999996
 40
0.531249999999996
 40
0.531249999999996
 40
0.5624999999999962
 40
0.5624999999999962
 40
0.5624999999999962
 40
0.5624999999999962
 10
31.14200906040924
 20
-9.901113054980684
 30
0.0
 10
31.23688082809016
 20
-9.835400268997347
 30
0.0
 10
31.37629288645235
 20
-9.739369838340037
 30
0.0
 10
31.55783592302115
 20
-9.617768867815274
 30
0.0
  0
SPLINE
  5
2D0
330
1F
100
AcDbEntity
  8
SK3
  6
SLD-Dashed
370
    18
100
AcDbSpline
210
0.0
220
0.0
230
1.0
 70
     8
 71
     3
 72
     8
 73
     4
 74
     0
 42
0.000000001
 43
0.00000001
 40
0.5624999999999962
 40
0.5624999999999962
 40
0.5624999999999962
 40
0.5624999999999962
 40
0.5781249999999962
 40
0.5781249999999962
 40
0.5781249999999962
 40
0.5781249999999962
 10
31.55783592302115
 20
-9.617768867815274
 30
0.0
 10
31.64860744130553
 20
-9.556968382552881
 30
0.0
 10
31.74963985635876
 20
-9.490002118909873
 30
0.0
 10
31.8588908045061
 20
-9.41876967289143
 30
0.0
  0
SPLINE
  5
2D1
330
1F
100
AcDbEntity
  8
SK3
  6
SLD-Dashed
370
    18
100
AcDbSpline
210
0.0
220
0.0
230
1.0
 70
     8
 71
     3
 72
     8
 73
     4
 74
     0
 42
0.000000001
 43
0.00000001
 40
0.5781249999999962
 40
0.5781249999999962
 40
0.5781249999999962
 40
0.5781249999999962
 40
0.5937499999999962
 40
0.5937499999999962
 40
0.5937499999999962
 40
0.5937499999999962
 10
31.8588908045061
 20
-9.41876967289143
 30
0.0
 10
31.96814175265349
 20
-9.347537226872989
 30
0.0
 10
32.08602903752291
 20
-9.271754242928452
 30
0.0
 10
32.21231492651783
 20
-9.19224121255573
 30
0.0
  0
SPLINE
  5
2D2
330
1F
100
AcDbEntity
  8
SK3
  6
SLD-Dashed
370
    18
100
AcDbSpline
210
0.0
220
0.0
230
1.0
 70
     8
 71
     3
 72
     8
 73
     4
 74
     0
 42
0.000000001
 43
0.00000001
 40
0.5937499999999962
 40
0.5937499999999962
 40
0.5937499999999962
 40
0.5937499999999962
 40
0.6249999999999963
 40
0.6249999999999963
 40
0.6249999999999963
 40
0.6249999999999963
 10
32.21231492651783
 20
-9.19224121255573
 30
0.0
 10
32.46488670450767
 20
-9.033215151810298
 30
0.0
 10
32.75348115672507
 20
-8.857731937092751
 30
0.0
 10
33.06700395203158
 20
-8.679542039144211
 30
0.0
  0
SPLINE
  5
2D3
330
1F
100
AcDbEntity
  8
SK3
  6
SLD-Dashed
370
    18
100
AcDbSpline
210
0.0
220
0.0
230
1.0
 70
     8
 71
     3
 72
     8
 73
     4
 74
     0
 42
0.000000001
 43
0.00000001
 40
0.6249999999999963
 40
0.6249999999999963
 40
0.6249999999999963
 40
0.6249999999999963
 40
0.6562499999999963
 40
0.6562499999999963
 40
0.6562499999999963
 40
0.6562499999999963
 10
33.06700395203158
 20
-8.679542039144211
 30
0.0
 10
33.38052674733809
 20
-8.50135214119568
 30
0.0
 10
33.71983678745323
 20
-8.319589570654387
 30
0.0
 10
34.08794410557132
 20
-8.142737949924085
 30
0.0
  0
SPLINE
  5
2D4
330
1F
100
AcDbEntity
  8
SK3
  6
SLD-Dashed
370
    18
100
AcDbSpline
210
0.0
220
0.0
230
1.0
 70
     8
 71
     3
 72
     8
 73
     4
 74
     0
 42
0.000000001
 43
0.00000001
 40
0.6562499999999963
 40
0.6562499999999963
 40
0.6562499999999963
 40
0.6562499999999963
 40
0.6718749999999964
 40
0.6718749999999964
 40
0.6718749999999964
 40
0.6718749999999964
 10
34.08794410557132
 20
-8.142737949924085
 30
0.0
 10
34.27199776463036
 20
-8.054312139558931
 30
0.0
 10
34.4641480860198
 20
-7.966834937720719
 30
0.0
 10
34.66097138077807
 20
-7.883470816840942
 30
0.0
  0
SPLINE
  5
2D5
330
1F
100
AcDbEntity
  8
SK3
  6
SLD-Dashed
370
    18
100
AcDbSpline
210
0.0
220
0.0
230
1.0
 70
     8
 71
     3
 72
     8
 73
     4
 74
     0
 42
0.000000001
 43
0.00000001
 40
0.6718749999999964
 40
0.6718749999999964
 40
0.6718749999999964
 40
0.6718749999999964
 40
0.6874999999999967
 40
0.6874999999999967
 40
0.6874999999999967
 40
0.6874999999999967
 10
34.66097138077807
 20
-7.883470816840942
 30
0.0
 10
34.85779467553633
 20
-7.800106695961161
 30
0.0
 10
35.05981823367114
 20
-7.720558328910911
 30
0.0
 10
35.2675666614002
 20
-7.646318849609358
 30
0.0
  0
SPLINE
  5
2D6
330
1F
100
AcDbEntity
  8
SK3
  6
SLD-Dashed
370
    18
100
AcDbSpline
210
0.0
220
0.0
230
1.0
 70
     8
 71
     3
 72
     8
 73
     4
 74
     0
 42
0.000000001
 43
0.00000001
 40
0.6874999999999967
 40
0.6874999999999967
 40
0.6874999999999967
 40
0.6874999999999967
 40
0.7031249999999968
 40
0.7031249999999968
 40
0.7031249999999968
 40
0.7031249999999968
 10
35.2675666614002
 20
-7.646318849609358
 30
0.0
 10
35.47531508912928
 20
-7.572079370307818
 30
0.0
 10
35.68878387288502
 20
-7.50314202561796
 30
0.0
 10
35.90878924758275
 20
-7.441314562026336
 30
0.0
  0
SPLINE
  5
2D7
330
1F
100
AcDbEntity
  8
SK3
  6
SLD-Dashed
370
    18
100
AcDbSpline
210
0.0
220
0.0
230
1.0
 70
     8
 71
     3
 72
     8
 73
     4
 74
     0
 42
0.000000001
 43
0.00000001
 40
0.7031249999999968
 40
0.7031249999999968
 40
0.7031249999999968
 40
0.7031249999999968
 40
0.7187499999999969
 40
0.7187499999999969
 40
0.7187499999999969
 40
0.7187499999999969
 10
35.90878924758275
 20
-7.441314562026336
 30
0.0
 10
36.12879462228051
 20
-7.379487098434723
 30
0.0
 10
36.35697502129597
 20
-7.324512946040158
 30
0.0
 10
36.58727609472723
 20
-7.279820659365797
 30
0.0
  0
SPLINE
  5
2D8
330
1F
100
AcDbEntity
  8
SK3
  6
SLD-Dashed
370
    18
100
AcDbSpline
210
0.0
220
0.0
230
1.0
 70
     8
 71
     3
 72
     8
 73
     4
 74
     0
 42
0.000000001
 43
0.00000001
 40
0.7187499999999969
 40
0.7187499999999969
 40
0.7187499999999969
 40
0.7187499999999969
 40
0.7499999999999971
 40
0.7499999999999971
 40
0.7499999999999971
 40
0.7499999999999971
 10
36.58727609472723
 20
-7.279820659365797
 30
0.0
 10
37.04787824158976
 20
-7.190436086017059
 30
0.0
 10
37.51851674058938
 20
-7.141387992320245
 30
0.0
 10
38.00059938275515
 20
-7.141428453696308
 30
0.0
  0
SPLINE
  5
2D9
330
1F
100
AcDbEntity
  8
SK3
  6
SLD-Dashed
370
    18
100
AcDbSpline
210
0.0
220
0.0
230
1.0
 70
     8
 71
     3
 72
     8
 73
     4
 74
     0
 42
0.000000001
 43
0.00000001
 40
0.7499999999999971
 40
0.7499999999999971
 40
0.7499999999999971
 40
0.7499999999999971
 40
0.7812499999999974
 40
0.7812499999999974
 40
0.7812499999999974
 40
0.7812499999999974
 10
38.00059938275515
 20
-7.141428453696308
 30
0.0
 10
38.48268202492093
 20
-7.141468915072367
 30
0.0
 10
38.95474560534967
 20
-7.190830300103683
 30
0.0
 10
39.41461916191506
 20
-7.280188690772859
 30
0.0
  0
SPLINE
  5
2DA
330
1F
100
AcDbEntity
  8
SK3
  6
SLD-Dashed
370
    18
100
AcDbSpline
210
0.0
220
0.0
230
1.0
 70
     8
 71
     3
 72
     8
 73
     4
 74
     0
 42
0.000000001
 43
0.00000001
 40
0.7812499999999974
 40
0.7812499999999974
 40
0.7812499999999974
 40
0.7812499999999974
 40
0.7968749999999976
 40
0.7968749999999976
 40
0.7968749999999976
 40
0.7968749999999976
 10
39.41461916191506
 20
-7.280188690772859
 30
0.0
 10
39.64455594019776
 20
-7.324867886107453
 30
0.0
 10
39.87283739224875
 20
-7.379894728992212
 30
0.0
 10
40.09309012687189
 20
-7.441842935671829
 30
0.0
  0
SPLINE
  5
2DB
330
1F
100
AcDbEntity
  8
SK3
  6
SLD-Dashed
370
    18
100
AcDbSpline
210
0.0
220
0.0
230
1.0
 70
     8
 71
     3
 72
     8
 73
     4
 74
     0
 42
0.000000001
 43
0.00000001
 40
0.7968749999999976
 40
0.7968749999999976
 40
0.7968749999999976
 40
0.7968749999999976
 40
0.8124999999999977
 40
0.8124999999999977
 40
0.8124999999999977
 40
0.8124999999999977
 10
40.09309012687189
 20
-7.441842935671829
 30
0.0
 10
40.31334286149504
 20
-7.503791142351432
 30
0.0
 10
40.5268453359778
 20
-7.572803460140321
 30
0.0
 10
40.73446776950394
 20
-7.647046095222366
 30
0.0
  0
SPLINE
  5
2DC
330
1F
100
AcDbEntity
  8
SK3
  6
SLD-Dashed
370
    18
100
AcDbSpline
210
0.0
220
0.0
230
1.0
 70
     8
 71
     3
 72
     8
 73
     4
 74
     0
 42
0.000000001
 43
0.00000001
 40
0.8124999999999977
 40
0.8124999999999977
 40
0.8124999999999977
 40
0.8124999999999977
 40
0.8281249999999979
 40
0.8281249999999979
 40
0.8281249999999979
 40
0.8281249999999979
 10
40.73446776950394
 20
-7.647046095222366
 30
0.0
 10
40.94209020303006
 20
-7.721288730304421
 30
0.0
 10
41.14382740444325
 20
-7.800769047409957
 30
0.0
 10
41.34023948416965
 20
-7.883983752621885
 30
0.0
  0
SPLINE
  5
2DD
330
1F
100
AcDbEntity
  8
SK3
  6
SLD-Dashed
370
    18
100
AcDbSpline
210
0.0
220
0.0
230
1.0
 70
     8
 71
     3
 72
     8
 73
     4
 74
     0
 42
0.000000001
 43
0.00000001
 40
0.8281249999999979
 40
0.8281249999999979
 40
0.8281249999999979
 40
0.8281249999999979
 40
0.843749999999998
 40
0.843749999999998
 40
0.843749999999998
 40
0.843749999999998
 10
41.34023948416965
 20
-7.883983752621885
 30
0.0
 10
41.53665156389608
 20
-7.967198457833804
 30
0.0
 10
41.72855133018294
 20
-8.054560222503937
 30
0.0
 10
41.91296069074313
 20
-8.143172684359625
 30
0.0
  0
SPLINE
  5
2DE
330
1F
100
AcDbEntity
  8
SK3
  6
SLD-Dashed
370
    18
100
AcDbSpline
210
0.0
220
0.0
230
1.0
 70
     8
 71
     3
 72
     8
 73
     4
 74
     0
 42
0.000000001
 43
0.00000001
 40
0.843749999999998
 40
0.843749999999998
 40
0.843749999999998
 40
0.843749999999998
 40
0.8749999999999983
 40
0.8749999999999983
 40
0.8749999999999983
 40
0.8749999999999983
 10
41.91296069074313
 20
-8.143172684359625
 30
0.0
 10
42.28177941186351
 20
-8.320397608071017
 30
0.0
 10
42.62139097051048
 20
-8.502394474019525
 30
0.0
 10
42.93494869199245
 20
-8.68065196817601
 30
0.0
  0
SPLINE
  5
2DF
330
1F
100
AcDbEntity
  8
SK3
  6
SLD-Dashed
370
    18
100
AcDbSpline
210
0.0
220
0.0
230
1.0
 70
     8
 71
     3
 72
     8
 73
     4
 74
     0
 42
0.000000001
 43
0.00000001
 40
0.8749999999999983
 40
0.8749999999999983
 40
0.8749999999999983
 40
0.8749999999999983
 40
0.9062499999999988
 40
0.9062499999999988
 40
0.9062499999999988
 40
0.9062499999999988
 10
42.93494869199245
 20
-8.68065196817601
 30
0.0
 10
43.24850641347444
 20
-8.858909462332504
 30
0.0
 10
43.53702114733245
 20
-9.034406453308902
 30
0.0
 10
43.78828794858688
 20
-9.19262081105036
 30
0.0
  0
SPLINE
  5
2E0
330
1F
100
AcDbEntity
  8
SK3
  6
SLD-Dashed
370
    18
100
AcDbSpline
210
0.0
220
0.0
230
1.0
 70
     8
 71
     3
 72
     8
 73
     4
 74
     0
 42
0.000000001
 43
0.00000001
 40
0.9062499999999988
 40
0.9062499999999988
 40
0.9062499999999988
 40
0.9062499999999988
 40
0.9374999999999991
 40
0.9374999999999991
 40
0.9374999999999991
 40
0.9374999999999991
 10
43.78828794858688
 20
-9.19262081105036
 30
0.0
 10
44.03955474984134
 20
-9.350835168791805
 30
0.0
 10
44.25671972198461
 20
-9.493604604819877
 30
0.0
 10
44.43741301596852
 20
-9.614587164208428
 30
0.0
  0
SPLINE
  5
2E1
330
1F
100
AcDbEntity
  8
SK3
  6
SLD-Dashed
370
    18
100
AcDbSpline
210
0.0
220
0.0
230
1.0
 70
     8
 71
     3
 72
     8
 73
     4
 74
     0
 42
0.000000001
 43
0.00000001
 40
0.9374999999999991
 40
0.9374999999999991
 40
0.9374999999999991
 40
0.9374999999999991
 40
0.9531249999999993
 40
0.9531249999999993
 40
0.9531249999999993
 40
0.9531249999999993
 10
44.43741301596852
 20
-9.614587164208428
 30
0.0
 10
44.52775966296053
 20
-9.67507844390272
 30
0.0
 10
44.60938934896354
 20
-9.730436536300388
 30
0.0
 10
44.6796412490288
 20
-9.77842560005071
 30
0.0
  0
SPLINE
  5
2E2
330
1F
100
AcDbEntity
  8
SK3
  6
SLD-Dashed
370
    18
100
AcDbSpline
210
0.0
220
0.0
230
1.0
 70
     8
 71
     3
 72
     8
 73
     4
 74
     0
 42
0.000000001
 43
0.00000001
 40
0.9531249999999993
 40
0.9531249999999993
 40
0.9531249999999993
 40
0.9531249999999993
 40
0.9687499999999997
 40
0.9687499999999997
 40
0.9687499999999997
 40
0.9687499999999997
 10
44.6796412490288
 20
-9.77842560005071
 30
0.0
 10
44.74989314909408
 20
-9.826414663801016
 30
0.0
 10
44.8086527673334
 20
-9.866944143971295
 30
0.0
 10
44.85598354183455
 20
-9.89972273985015
 30
0.0
  0
SPLINE
  5
2E3
330
1F
100
AcDbEntity
  8
SK3
  6
SLD-Dashed
370
    18
100
AcDbSpline
210
0.0
220
0.0
230
1.0
 70
     8
 71
     2
 72
     6
 73
     3
 74
     0
 42
0.000000001
 43
0.00000001
 40
0.9687499999999997
 40
0.9687499999999997
 40
0.9687499999999997
 40
1.0
 40
1.0
 40
1.0
 10
44.85598354183453
 20
-9.899722739850128
 30
0.0
 10
44.95064509083686
 20
-9.96527993160785
 30
0.0
 10
44.99999999999997
 20
-9.999999999999984
 30
0.0
  0
SPLINE
  5
2E4
330
1F
100
AcDbEntity
  8
SK3
  6
SLD-Dashed
370
    18
100
AcDbSpline
210
0.0
220
0.0
230
1.0
 70
     8
 71
     2
 72
     6
 73
     3
 74
     0
 42
0.000000001
 43
0.00000001
 40
0.0
 40
0.0
 40
0.0
 40
0.0312499999999996
 40
0.0312499999999996
 40
0.0312499999999996
 10
44.99999999999997
 20
-9.999999999999984
 30
0.0
 10
44.95094970552191
 20
-9.9654920002328
 30
0.0
 10
44.85620613829326
 20
-9.899876898768495
 30
0.0
  0
SPLINE
  5
2E5
330
1F
100
AcDbEntity
  8
SK3
  6
SLD-Dashed
370
    18
100
AcDbSpline
210
0.0
220
0.0
230
1.0
 70
     8
 71
     3
 72
     8
 73
     4
 74
     0
 42
0.000000001
 43
0.00000001
 40
0.0312499999999996
 40
0.0312499999999996
 40
0.0312499999999996
 40
0.0312499999999996
 40
0.0624999999999992
 40
0.0624999999999992
 40
0.0624999999999992
 40
0.0624999999999992
 10
44.85620613829326
 20
-9.899876898768495
 30
0.0
 10
44.76146257106461
 20
-9.834261797304196
 30
0.0
 10
44.6186218925634
 20
-9.735924164816993
 30
0.0
 10
44.43830339215711
 20
-9.615183335197598
 30
0.0
  0
SPLINE
  5
2E6
330
1F
100
AcDbEntity
  8
SK3
  6
SLD-Dashed
370
    18
100
AcDbSpline
210
0.0
220
0.0
230
1.0
 70
     8
 71
     3
 72
     8
 73
     4
 74
     0
 42
0.000000001
 43
0.00000001
 40
0.0624999999999992
 40
0.0624999999999992
 40
0.0624999999999992
 40
0.0624999999999992
 40
0.0937499999999988
 40
0.0937499999999988
 40
0.0937499999999988
 40
0.0937499999999988
 10
44.43830339215711
 20
-9.615183335197598
 30
0.0
 10
44.2579848917508
 20
-9.494442505578192
 30
0.0
 10
44.03860677735216
 20
-9.35017328857002
 30
0.0
 10
43.78436668195766
 20
-9.190152224600993
 30
0.0
  0
SPLINE
  5
2E7
330
1F
100
AcDbEntity
  8
SK3
  6
SLD-Dashed
370
    18
100
AcDbSpline
210
0.0
220
0.0
230
1.0
 70
     8
 71
     3
 72
     8
 73
     4
 74
     0
 42
0.000000001
 43
0.00000001
 40
0.0937499999999988
 40
0.0937499999999988
 40
0.0937499999999988
 40
0.0937499999999988
 40
0.1249999999999984
 40
0.1249999999999984
 40
0.1249999999999984
 40
0.1249999999999984
 10
43.78436668195766
 20
-9.190152224600993
 30
0.0
 10
43.53012658656315
 20
-9.03013116063198
 30
0.0
 10
43.24633260848216
 20
-8.857636123161
 30
0.0
 10
42.93340682428064
 20
-8.679775509416062
 30
0.0
  0
SPLINE
  5
2E8
330
1F
100
AcDbEntity
  8
SK3
  6
SLD-Dashed
370
    18
100
AcDbSpline
210
0.0
220
0.0
230
1.0
 70
     8
 71
     3
 72
     8
 73
     4
 74
     0
 42
0.000000001
 43
0.00000001
 40
0.1249999999999984
 40
0.1249999999999984
 40
0.1249999999999984
 40
0.1249999999999984
 40
0.156249999999998
 40
0.156249999999998
 40
0.156249999999998
 40
0.156249999999998
 10
42.93340682428064
 20
-8.679775509416062
 30
0.0
 10
42.62048104007915
 20
-8.50191489567112
 30
0.0
 10
42.27554479935827
 20
-8.317299974834315
 30
0.0
 10
41.91000159351961
 20
-8.141751191317868
 30
0.0
  0
SPLINE
  5
2E9
330
1F
100
AcDbEntity
  8
SK3
  6
SLD-Dashed
370
    18
100
AcDbSpline
210
0.0
220
0.0
230
1.0
 70
     8
 71
     3
 72
     8
 73
     4
 74
     0
 42
0.000000001
 43
0.00000001
 40
0.156249999999998
 40
0.156249999999998
 40
0.156249999999998
 40
0.156249999999998
 40
0.1874999999999976
 40
0.1874999999999976
 40
0.1874999999999976
 40
0.1874999999999976
 10
41.91000159351961
 20
-8.141751191317868
 30
0.0
 10
41.54445838768095
 20
-7.966202407801419
 30
0.0
 10
41.15654247222484
 20
-7.798288156421536
 30
0.0
 10
40.74105659858355
 20
-7.649404635436566
 30
0.0
  0
SPLINE
  5
2EA
330
1F
100
AcDbEntity
  8
SK3
  6
SLD-Dashed
370
    18
100
AcDbSpline
210
0.0
220
0.0
230
1.0
 70
     8
 71
     3
 72
     8
 73
     4
 74
     0
 42
0.000000001
 43
0.00000001
 40
0.1874999999999976
 40
0.1874999999999976
 40
0.1874999999999976
 40
0.1874999999999976
 40
0.2031249999999974
 40
0.2031249999999974
 40
0.2031249999999974
 40
0.2031249999999974
 10
40.74105659858355
 20
-7.649404635436566
 30
0.0
 10
40.53331366176293
 20
-7.574962874944076
 30
0.0
 10
40.31719089190469
 20
-7.504968791880302
 30
0.0
 10
40.09655608112365
 20
-7.442818511914452
 30
0.0
  0
SPLINE
  5
2EB
330
1F
100
AcDbEntity
  8
SK3
  6
SLD-Dashed
370
    18
100
AcDbSpline
210
0.0
220
0.0
230
1.0
 70
     8
 71
     3
 72
     8
 73
     4
 74
     0
 42
0.000000001
 43
0.00000001
 40
0.2031249999999974
 40
0.2031249999999974
 40
0.2031249999999974
 40
0.2031249999999974
 40
0.2187499999999972
 40
0.2187499999999972
 40
0.2187499999999972
 40
0.2187499999999972
 10
40.09655608112365
 20
-7.442818511914452
 30
0.0
 10
39.87592127034262
 20
-7.380668231948603
 30
0.0
 10
39.65155667450407
 20
-7.326489507799763
 30
0.0
 10
39.42311832754092
 20
-7.281844943019776
 30
0.0
  0
SPLINE
  5
2EC
330
1F
100
AcDbEntity
  8
SK3
  6
SLD-Dashed
370
    18
100
AcDbSpline
210
0.0
220
0.0
230
1.0
 70
     8
 71
     3
 72
     8
 73
     4
 74
     0
 42
0.000000001
 43
0.00000001
 40
0.2187499999999972
 40
0.2187499999999972
 40
0.2187499999999972
 40
0.2187499999999972
 40
0.234374999999997
 40
0.234374999999997
 40
0.234374999999997
 40
0.234374999999997
 10
39.42311832754092
 20
-7.281844943019776
 30
0.0
 10
39.19467998057778
 20
-7.237200378239789
 30
0.0
 10
38.9621680388542
 20
-7.202093728900367
 30
0.0
 10
38.72513084145098
 20
-7.178148419838038
 30
0.0
  0
SPLINE
  5
2ED
330
1F
100
AcDbEntity
  8
SK3
  6
SLD-Dashed
370
    18
100
AcDbSpline
210
0.0
220
0.0
230
1.0
 70
     8
 71
     3
 72
     8
 73
     4
 74
     0
 42
0.000000001
 43
0.00000001
 40
0.234374999999997
 40
0.234374999999997
 40
0.234374999999997
 40
0.234374999999997
 40
0.2499999999999968
 40
0.2499999999999968
 40
0.2499999999999968
 40
0.2499999999999968
 10
38.72513084145098
 20
-7.178148419838038
 30
0.0
 10
38.48809364404774
 20
-7.154203110775709
 30
0.0
 10
38.2469941153091
 20
-7.14174054255504
 30
0.0
 10
38.00919544084369
 20
-7.141434348653789
 30
0.0
  0
SPLINE
  5
2EE
330
1F
100
AcDbEntity
  8
SK3
  6
SLD-Dashed
370
    18
100
AcDbSpline
210
0.0
220
0.0
230
1.0
 70
     8
 71
     3
 72
     8
 73
     4
 74
     0
 42
0.000000001
 43
0.00000001
 40
0.2499999999999968
 40
0.2499999999999968
 40
0.2499999999999968
 40
0.2499999999999968
 40
0.2656249999999966
 40
0.2656249999999966
 40
0.2656249999999966
 40
0.2656249999999966
 10
38.00919544084369
 20
-7.141434348653789
 30
0.0
 10
37.77139676637831
 20
-7.141128154752537
 30
0.0
 10
37.5349391508419
 20
-7.152727322689556
 30
0.0
 10
37.29977957358059
 20
-7.175674786776127
 30
0.0
  0
SPLINE
  5
2EF
330
1F
100
AcDbEntity
  8
SK3
  6
SLD-Dashed
370
    18
100
AcDbSpline
210
0.0
220
0.0
230
1.0
 70
     8
 71
     3
 72
     8
 73
     4
 74
     0
 42
0.000000001
 43
0.00000001
 40
0.2656249999999966
 40
0.2656249999999966
 40
0.2656249999999966
 40
0.2656249999999966
 40
0.2812499999999964
 40
0.2812499999999964
 40
0.2812499999999964
 40
0.2812499999999964
 10
37.29977957358059
 20
-7.175674786776127
 30
0.0
 10
37.06461999631932
 20
-7.19862225086271
 30
0.0
 10
36.82969662788492
 20
-7.233125911700753
 30
0.0
 10
36.59843236198021
 20
-7.277663900177314
 30
0.0
  0
SPLINE
  5
2F0
330
1F
100
AcDbEntity
  8
SK3
  6
SLD-Dashed
370
    18
100
AcDbSpline
210
0.0
220
0.0
230
1.0
 70
     8
 71
     3
 72
     8
 73
     4
 74
     0
 42
0.000000001
 43
0.00000001
 40
0.2812499999999964
 40
0.2812499999999964
 40
0.2812499999999964
 40
0.2812499999999964
 40
0.3124999999999961
 40
0.3124999999999961
 40
0.3124999999999961
 40
0.3124999999999961
 10
36.59843236198021
 20
-7.277663900177314
 30
0.0
 10
36.1359038301708
 20
-7.366739877130455
 30
0.0
 10
35.69746314874908
 20
-7.493197049674365
 30
0.0
 10
35.27793878675226
 20
-7.642618481166492
 30
0.0
  0
SPLINE
  5
2F1
330
1F
100
AcDbEntity
  8
SK3
  6
SLD-Dashed
370
    18
100
AcDbSpline
210
0.0
220
0.0
230
1.0
 70
     8
 71
     3
 72
     8
 73
     4
 74
     0
 42
0.000000001
 43
0.00000001
 40
0.3124999999999961
 40
0.3124999999999961
 40
0.3124999999999961
 40
0.3124999999999961
 40
0.3281249999999959
 40
0.3281249999999959
 40
0.3281249999999959
 40
0.3281249999999959
 10
35.27793878675226
 20
-7.642618481166492
 30
0.0
 10
35.06817660575386
 20
-7.717329196912558
 30
0.0
 10
34.86383508394877
 20
-7.797686311343424
 30
0.0
 10
34.66761266260951
 20
-7.880660211327495
 30
0.0
  0
SPLINE
  5
2F2
330
1F
100
AcDbEntity
  8
SK3
  6
SLD-Dashed
370
    18
100
AcDbSpline
210
0.0
220
0.0
230
1.0
 70
     8
 71
     3
 72
     8
 73
     4
 74
     0
 42
0.000000001
 43
0.00000001
 40
0.3281249999999959
 40
0.3281249999999959
 40
0.3281249999999959
 40
0.3281249999999959
 40
0.3437499999999957
 40
0.3437499999999957
 40
0.3437499999999957
 40
0.3437499999999957
 10
34.66761266260951
 20
-7.880660211327495
 30
0.0
 10
34.47139024127023
 20
-7.963634111311565
 30
0.0
 10
34.2822372052681
 20
-8.049598056039272
 30
0.0
 10
34.09946015325011
 20
-8.137211506166194
 30
0.0
  0
SPLINE
  5
2F3
330
1F
100
AcDbEntity
  8
SK3
  6
SLD-Dashed
370
    18
100
AcDbSpline
210
0.0
220
0.0
230
1.0
 70
     8
 71
     3
 72
     8
 73
     4
 74
     0
 42
0.000000001
 43
0.00000001
 40
0.3437499999999957
 40
0.3437499999999957
 40
0.3437499999999957
 40
0.3437499999999957
 40
0.3749999999999956
 40
0.3749999999999956
 40
0.3749999999999956
 40
0.3749999999999956
 10
34.09946015325011
 20
-8.137211506166194
 30
0.0
 10
33.73390604921406
 20
-8.312438406420055
 30
0.0
 10
33.39311205950128
 20
-8.49444538443011
 30
0.0
 10
33.07681672302019
 20
-8.67396873286579
 30
0.0
  0
SPLINE
  5
2F4
330
1F
100
AcDbEntity
  8
SK3
  6
SLD-Dashed
370
    18
100
AcDbSpline
210
0.0
220
0.0
230
1.0
 70
     8
 71
     3
 72
     8
 73
     4
 74
     0
 42
0.000000001
 43
0.00000001
 40
0.3749999999999956
 40
0.3749999999999956
 40
0.3749999999999956
 40
0.3749999999999956
 40
0.4062499999999956
 40
0.4062499999999956
 40
0.4062499999999956
 40
0.4062499999999956
 10
33.07681672302019
 20
-8.67396873286579
 30
0.0
 10
32.7605213865391
 20
-8.853492081301466
 30
0.0
 10
32.47706466804649
 20
-9.02576520134376
 30
0.0
 10
32.22512765589077
 20
-9.184179364034536
 30
0.0
  0
SPLINE
  5
2F5
330
1F
100
AcDbEntity
  8
SK3
  6
SLD-Dashed
370
    18
100
AcDbSpline
210
0.0
220
0.0
230
1.0
 70
     8
 71
     3
 72
     8
 73
     4
 74
     0
 42
0.000000001
 43
0.00000001
 40
0.4062499999999956
 40
0.4062499999999956
 40
0.4062499999999956
 40
0.4062499999999956
 40
0.4218749999999957
 40
0.4218749999999957
 40
0.4218749999999957
 40
0.4218749999999957
 10
32.22512765589077
 20
-9.184179364034536
 30
0.0
 10
32.09915914981288
 20
-9.263386445379936
 30
0.0
 10
31.98115220351022
 20
-9.339143255954554
 30
0.0
 10
31.87143808362648
 20
-9.410593560600915
 30
0.0
  0
SPLINE
  5
2F6
330
1F
100
AcDbEntity
  8
SK3
  6
SLD-Dashed
370
    18
100
AcDbSpline
210
0.0
220
0.0
230
1.0
 70
     8
 71
     3
 72
     8
 73
     4
 74
     0
 42
0.000000001
 43
0.00000001
 40
0.4218749999999957
 40
0.4218749999999957
 40
0.4218749999999957
 40
0.4218749999999957
 40
0.4374999999999957
 40
0.4374999999999957
 40
0.4374999999999957
 40
0.4374999999999957
 10
31.87143808362648
 20
-9.410593560600915
 30
0.0
 10
31.76172396374276
 20
-9.482043865247276
 30
0.0
 10
31.65975257103754
 20
-9.5495617263246
 30
0.0
 10
31.56839594738251
 20
-9.610698761778238
 30
0.0
  0
SPLINE
  5
2F7
330
1F
100
AcDbEntity
  8
SK3
  6
SLD-Dashed
370
    18
100
AcDbSpline
210
0.0
220
0.0
230
1.0
 70
     8
 71
     3
 72
     8
 73
     4
 74
     0
 42
0.000000001
 43
0.00000001
 40
0.4374999999999957
 40
0.4374999999999957
 40
0.4374999999999957
 40
0.4374999999999957
 40
0.4687499999999959
 40
0.4687499999999959
 40
0.4687499999999959
 40
0.4687499999999959
 10
31.56839594738251
 20
-9.610698761778238
 30
0.0
 10
31.38568270007244
 20
-9.732972832685517
 30
0.0
 10
31.24475785535001
 20
-9.829976115006373
 30
0.0
 10
31.14808581902102
 20
-9.896904967892768
 30
0.0
  0
SPLINE
  5
2F8
330
1F
100
AcDbEntity
  8
SK3
  6
SLD-Dashed
370
    18
100
AcDbSpline
210
0.0
220
0.0
230
1.0
 70
     8
 71
     3
 72
     8
 73
     4
 74
     0
 42
0.000000001
 43
0.00000001
 40
0.4687499999999959
 40
0.4687499999999959
 40
0.4687499999999959
 40
0.4687499999999959
 40
0.484374999999996
 40
0.484374999999996
 40
0.484374999999996
 40
0.484374999999996
 10
31.14808581902102
 20
-9.896904967892768
 30
0.0
 10
31.09974980085653
 20
-9.930369394335955
 30
0.0
 10
31.06248645290294
 20
-9.956343747489143
 30
0.0
 10
31.03776266129855
 20
-9.973602596875836
 30
0.0
  0
SPLINE
  5
2F9
330
1F
100
AcDbEntity
  8
SK3
  6
SLD-Dashed
370
    18
100
AcDbSpline
210
0.0
220
0.0
230
1.0
 70
     8
 71
     3
 72
     8
 73
     4
 74
     0
 42
0.000000001
 43
0.00000001
 40
0.484374999999996
 40
0.484374999999996
 40
0.484374999999996
 40
0.484374999999996
 40
0.499999999999996
 40
0.499999999999996
 40
0.499999999999996
 40
0.499999999999996
 10
31.03776266129855
 20
-9.973602596875836
 30
0.0
 10
31.01303886969418
 20
-9.99086144626254
 30
0.0
 10
31.00052479563212
 20
-9.999632611244522
 30
0.0
 10
31.00001608656519
 20
-9.999988723291949
 30
0.0
  0
SPLINE
  5
2FA
330
1F
100
AcDbEntity
  8
SK3
  6
SLD-Dashed
370
    18
100
AcDbSpline
210
0.0
220
0.0
230
1.0
 70
     8
 71
     3
 72
     8
 73
     4
 74
     0
 42
0.000000001
 43
0.00000001
 40
0.515624999999996
 40
0.515624999999996
 40
0.515624999999996
 40
0.515624999999996
 40
0.531249999999996
 40
0.531249999999996
 40
0.531249999999996
 40
0.531249999999996
 10
31.03467801653588
 20
-9.975756128400931
 30
0.0
 10
31.05835199964517
 20
-9.959226362349623
 30
0.0
 10
31.09457317656876
 20
-9.933969447972357
 30
0.0
 10
31.14200906040924
 20
-9.901113054980684
 30
0.0
  0
SPLINE
  5
2FB
330
1F
100
AcDbEntity
  8
SK3
  6
SLD-Dashed
370
    18
100
AcDbSpline
210
0.0
220
0.0
230
1.0
 70
     8
 71
     3
 72
     8
 73
     4
 74
     0
 42
0.000000001
 43
0.00000001
 40
0.531249999999996
 40
0.531249999999996
 40
0.531249999999996
 40
0.531249999999996
 40
0.5624999999999962
 40
0.5624999999999962
 40
0.5624999999999962
 40
0.5624999999999962
 10
31.14200906040924
 20
-9.901113054980684
 30
0.0
 10
31.23688082809016
 20
-9.835400268997347
 30
0.0
 10
31.37629288645235
 20
-9.739369838340037
 30
0.0
 10
31.55783592302115
 20
-9.617768867815274
 30
0.0
  0
SPLINE
  5
2FC
330
1F
100
AcDbEntity
  8
SK3
  6
SLD-Dashed
370
    18
100
AcDbSpline
210
0.0
220
0.0
230
1.0
 70
     8
 71
     3
 72
     8
 73
     4
 74
     0
 42
0.000000001
 43
0.00000001
 40
0.5624999999999962
 40
0.5624999999999962
 40
0.5624999999999962
 40
0.5624999999999962
 40
0.5781249999999962
 40
0.5781249999999962
 40
0.5781249999999962
 40
0.5781249999999962
 10
31.55783592302115
 20
-9.617768867815274
 30
0.0
 10
31.64860744130553
 20
-9.556968382552881
 30
0.0
 10
31.74963985635876
 20
-9.490002118909873
 30
0.0
 10
31.8588908045061
 20
-9.41876967289143
 30
0.0
  0
SPLINE
  5
2FD
330
1F
100
AcDbEntity
  8
SK3
  6
SLD-Dashed
370
    18
100
AcDbSpline
210
0.0
220
0.0
230
1.0
 70
     8
 71
     3
 72
     8
 73
     4
 74
     0
 42
0.000000001
 43
0.00000001
 40
0.5781249999999962
 40
0.5781249999999962
 40
0.5781249999999962
 40
0.5781249999999962
 40
0.5937499999999962
 40
0.5937499999999962
 40
0.5937499999999962
 40
0.5937499999999962
 10
31.8588908045061
 20
-9.41876967289143
 30
0.0
 10
31.96814175265349
 20
-9.347537226872989
 30
0.0
 10
32.08602903752291
 20
-9.271754242928452
 30
0.0
 10
32.21231492651783
 20
-9.19224121255573
 30
0.0
  0
SPLINE
  5
2FE
330
1F
100
AcDbEntity
  8
SK3
  6
SLD-Dashed
370
    18
100
AcDbSpline
210
0.0
220
0.0
230
1.0
 70
     8
 71
     3
 72
     8
 73
     4
 74
     0
 42
0.000000001
 43
0.00000001
 40
0.5937499999999962
 40
0.5937499999999962
 40
0.5937499999999962
 40
0.5937499999999962
 40
0.6249999999999963
 40
0.6249999999999963
 40
0.6249999999999963
 40
0.6249999999999963
 10
32.21231492651783
 20
-9.19224121255573
 30
0.0
 10
32.46488670450767
 20
-9.033215151810298
 30
0.0
 10
32.75348115672507
 20
-8.857731937092751
 30
0.0
 10
33.06700395203158
 20
-8.679542039144211
 30
0.0
  0
SPLINE
  5
2FF
330
1F
100
AcDbEntity
  8
SK3
  6
SLD-Dashed
370
    18
100
AcDbSpline
210
0.0
220
0.0
230
1.0
 70
     8
 71
     3
 72
     8
 73
     4
 74
     0
 42
0.000000001
 43
0.00000001
 40
0.6249999999999963
 40
0.6249999999999963
 40
0.6249999999999963
 40
0.6249999999999963
 40
0.6562499999999963
 40
0.6562499999999963
 40
0.6562499999999963
 40
0.6562499999999963
 10
33.06700395203158
 20
-8.679542039144211
 30
0.0
 10
33.38052674733809
 20
-8.50135214119568
 30
0.0
 10
33.71983678745323
 20
-8.319589570654387
 30
0.0
 10
34.08794410557132
 20
-8.142737949924085
 30
0.0
  0
SPLINE
  5
300
330
1F
100
AcDbEntity
  8
SK3
  6
SLD-Dashed
370
    18
100
AcDbSpline
210
0.0
220
0.0
230
1.0
 70
     8
 71
     3
 72
     8
 73
     4
 74
     0
 42
0.000000001
 43
0.00000001
 40
0.6562499999999963
 40
0.6562499999999963
 40
0.6562499999999963
 40
0.6562499999999963
 40
0.6718749999999964
 40
0.6718749999999964
 40
0.6718749999999964
 40
0.6718749999999964
 10
34.08794410557132
 20
-8.142737949924085
 30
0.0
 10
34.27199776463036
 20
-8.054312139558931
 30
0.0
 10
34.4641480860198
 20
-7.966834937720719
 30
0.0
 10
34.66097138077807
 20
-7.883470816840942
 30
0.0
  0
SPLINE
  5
301
330
1F
100
AcDbEntity
  8
SK3
  6
SLD-Dashed
370
    18
100
AcDbSpline
210
0.0
220
0.0
230
1.0
 70
     8
 71
     3
 72
     8
 73
     4
 74
     0
 42
0.000000001
 43
0.00000001
 40
0.6718749999999964
 40
0.6718749999999964
 40
0.6718749999999964
 40
0.6718749999999964
 40
0.6874999999999967
 40
0.6874999999999967
 40
0.6874999999999967
 40
0.6874999999999967
 10
34.66097138077807
 20
-7.883470816840942
 30
0.0
 10
34.85779467553633
 20
-7.800106695961161
 30
0.0
 10
35.05981823367114
 20
-7.720558328910911
 30
0.0
 10
35.2675666614002
 20
-7.646318849609358
 30
0.0
  0
SPLINE
  5
302
330
1F
100
AcDbEntity
  8
SK3
  6
SLD-Dashed
370
    18
100
AcDbSpline
210
0.0
220
0.0
230
1.0
 70
     8
 71
     3
 72
     8
 73
     4
 74
     0
 42
0.000000001
 43
0.00000001
 40
0.6874999999999967
 40
0.6874999999999967
 40
0.6874999999999967
 40
0.6874999999999967
 40
0.7031249999999968
 40
0.7031249999999968
 40
0.7031249999999968
 40
0.7031249999999968
 10
35.2675666614002
 20
-7.646318849609358
 30
0.0
 10
35.47531508912928
 20
-7.572079370307818
 30
0.0
 10
35.68878387288502
 20
-7.50314202561796
 30
0.0
 10
35.90878924758275
 20
-7.441314562026336
 30
0.0
  0
SPLINE
  5
303
330
1F
100
AcDbEntity
  8
SK3
  6
SLD-Dashed
370
    18
100
AcDbSpline
210
0.0
220
0.0
230
1.0
 70
     8
 71
     3
 72
     8
 73
     4
 74
     0
 42
0.000000001
 43
0.00000001
 40
0.7031249999999968
 40
0.7031249999999968
 40
0.7031249999999968
 40
0.7031249999999968
 40
0.7187499999999969
 40
0.7187499999999969
 40
0.7187499999999969
 40
0.7187499999999969
 10
35.90878924758275
 20
-7.441314562026336
 30
0.0
 10
36.12879462228051
 20
-7.379487098434723
 30
0.0
 10
36.35697502129597
 20
-7.324512946040158
 30
0.0
 10
36.58727609472723
 20
-7.279820659365797
 30
0.0
  0
SPLINE
  5
304
330
1F
100
AcDbEntity
  8
SK3
  6
SLD-Dashed
370
    18
100
AcDbSpline
210
0.0
220
0.0
230
1.0
 70
     8
 71
     3
 72
     8
 73
     4
 74
     0
 42
0.000000001
 43
0.00000001
 40
0.7187499999999969
 40
0.7187499999999969
 40
0.7187499999999969
 40
0.7187499999999969
 40
0.7499999999999971
 40
0.7499999999999971
 40
0.7499999999999971
 40
0.7499999999999971
 10
36.58727609472723
 20
-7.279820659365797
 30
0.0
 10
37.04787824158976
 20
-7.190436086017059
 30
0.0
 10
37.51851674058938
 20
-7.141387992320245
 30
0.0
 10
38.00059938275515
 20
-7.141428453696308
 30
0.0
  0
SPLINE
  5
305
330
1F
100
AcDbEntity
  8
SK3
  6
SLD-Dashed
370
    18
100
AcDbSpline
210
0.0
220
0.0
230
1.0
 70
     8
 71
     3
 72
     8
 73
     4
 74
     0
 42
0.000000001
 43
0.00000001
 40
0.7499999999999971
 40
0.7499999999999971
 40
0.7499999999999971
 40
0.7499999999999971
 40
0.7812499999999974
 40
0.7812499999999974
 40
0.7812499999999974
 40
0.7812499999999974
 10
38.00059938275515
 20
-7.141428453696308
 30
0.0
 10
38.48268202492093
 20
-7.141468915072367
 30
0.0
 10
38.95474560534967
 20
-7.190830300103683
 30
0.0
 10
39.41461916191506
 20
-7.280188690772859
 30
0.0
  0
SPLINE
  5
306
330
1F
100
AcDbEntity
  8
SK3
  6
SLD-Dashed
370
    18
100
AcDbSpline
210
0.0
220
0.0
230
1.0
 70
     8
 71
     3
 72
     8
 73
     4
 74
     0
 42
0.000000001
 43
0.00000001
 40
0.7812499999999974
 40
0.7812499999999974
 40
0.7812499999999974
 40
0.7812499999999974
 40
0.7968749999999976
 40
0.7968749999999976
 40
0.7968749999999976
 40
0.7968749999999976
 10
39.41461916191506
 20
-7.280188690772859
 30
0.0
 10
39.64455594019776
 20
-7.324867886107453
 30
0.0
 10
39.87283739224875
 20
-7.379894728992212
 30
0.0
 10
40.09309012687189
 20
-7.441842935671829
 30
0.0
  0
SPLINE
  5
307
330
1F
100
AcDbEntity
  8
SK3
  6
SLD-Dashed
370
    18
100
AcDbSpline
210
0.0
220
0.0
230
1.0
 70
     8
 71
     3
 72
     8
 73
     4
 74
     0
 42
0.000000001
 43
0.00000001
 40
0.7968749999999976
 40
0.7968749999999976
 40
0.7968749999999976
 40
0.7968749999999976
 40
0.8124999999999977
 40
0.8124999999999977
 40
0.8124999999999977
 40
0.8124999999999977
 10
40.09309012687189
 20
-7.441842935671829
 30
0.0
 10
40.31334286149504
 20
-7.503791142351432
 30
0.0
 10
40.5268453359778
 20
-7.572803460140321
 30
0.0
 10
40.73446776950394
 20
-7.647046095222366
 30
0.0
  0
SPLINE
  5
308
330
1F
100
AcDbEntity
  8
SK3
  6
SLD-Dashed
370
    18
100
AcDbSpline
210
0.0
220
0.0
230
1.0
 70
     8
 71
     3
 72
     8
 73
     4
 74
     0
 42
0.000000001
 43
0.00000001
 40
0.8124999999999977
 40
0.8124999999999977
 40
0.8124999999999977
 40
0.8124999999999977
 40
0.8281249999999979
 40
0.8281249999999979
 40
0.8281249999999979
 40
0.8281249999999979
 10
40.73446776950394
 20
-7.647046095222366
 30
0.0
 10
40.94209020303006
 20
-7.721288730304421
 30
0.0
 10
41.14382740444325
 20
-7.800769047409957
 30
0.0
 10
41.34023948416965
 20
-7.883983752621885
 30
0.0
  0
SPLINE
  5
309
330
1F
100
AcDbEntity
  8
SK3
  6
SLD-Dashed
370
    18
100
AcDbSpline
210
0.0
220
0.0
230
1.0
 70
     8
 71
     3
 72
     8
 73
     4
 74
     0
 42
0.000000001
 43
0.00000001
 40
0.8281249999999979
 40
0.8281249999999979
 40
0.8281249999999979
 40
0.8281249999999979
 40
0.843749999999998
 40
0.843749999999998
 40
0.843749999999998
 40
0.843749999999998
 10
41.34023948416965
 20
-7.883983752621885
 30
0.0
 10
41.53665156389608
 20
-7.967198457833804
 30
0.0
 10
41.72855133018294
 20
-8.054560222503937
 30
0.0
 10
41.91296069074313
 20
-8.143172684359625
 30
0.0
  0
SPLINE
  5
30A
330
1F
100
AcDbEntity
  8
SK3
  6
SLD-Dashed
370
    18
100
AcDbSpline
210
0.0
220
0.0
230
1.0
 70
     8
 71
     3
 72
     8
 73
     4
 74
     0
 42
0.000000001
 43
0.00000001
 40
0.843749999999998
 40
0.843749999999998
 40
0.843749999999998
 40
0.843749999999998
 40
0.8749999999999983
 40
0.8749999999999983
 40
0.8749999999999983
 40
0.8749999999999983
 10
41.91296069074313
 20
-8.143172684359625
 30
0.0
 10
42.28177941186351
 20
-8.320397608071017
 30
0.0
 10
42.62139097051048
 20
-8.502394474019525
 30
0.0
 10
42.93494869199245
 20
-8.68065196817601
 30
0.0
  0
SPLINE
  5
30B
330
1F
100
AcDbEntity
  8
SK3
  6
SLD-Dashed
370
    18
100
AcDbSpline
210
0.0
220
0.0
230
1.0
 70
     8
 71
     3
 72
     8
 73
     4
 74
     0
 42
0.000000001
 43
0.00000001
 40
0.8749999999999983
 40
0.8749999999999983
 40
0.8749999999999983
 40
0.8749999999999983
 40
0.9062499999999988
 40
0.9062499999999988
 40
0.9062499999999988
 40
0.9062499999999988
 10
42.93494869199245
 20
-8.68065196817601
 30
0.0
 10
43.24850641347444
 20
-8.858909462332504
 30
0.0
 10
43.53702114733245
 20
-9.034406453308902
 30
0.0
 10
43.78828794858688
 20
-9.19262081105036
 30
0.0
  0
SPLINE
  5
30C
330
1F
100
AcDbEntity
  8
SK3
  6
SLD-Dashed
370
    18
100
AcDbSpline
210
0.0
220
0.0
230
1.0
 70
     8
 71
     3
 72
     8
 73
     4
 74
     0
 42
0.000000001
 43
0.00000001
 40
0.9062499999999988
 40
0.9062499999999988
 40
0.9062499999999988
 40
0.9062499999999988
 40
0.9374999999999991
 40
0.9374999999999991
 40
0.9374999999999991
 40
0.9374999999999991
 10
43.78828794858688
 20
-9.19262081105036
 30
0.0
 10
44.03955474984134
 20
-9.350835168791805
 30
0.0
 10
44.25671972198461
 20
-9.493604604819877
 30
0.0
 10
44.43741301596852
 20
-9.614587164208428
 30
0.0
  0
SPLINE
  5
30D
330
1F
100
AcDbEntity
  8
SK3
  6
SLD-Dashed
370
    18
100
AcDbSpline
210
0.0
220
0.0
230
1.0
 70
     8
 71
     3
 72
     8
 73
     4
 74
     0
 42
0.000000001
 43
0.00000001
 40
0.9374999999999991
 40
0.9374999999999991
 40
0.9374999999999991
 40
0.9374999999999991
 40
0.9531249999999993
 40
0.9531249999999993
 40
0.9531249999999993
 40
0.9531249999999993
 10
44.43741301596852
 20
-9.614587164208428
 30
0.0
 10
44.52775966296053
 20
-9.67507844390272
 30
0.0
 10
44.60938934896354
 20
-9.730436536300388
 30
0.0
 10
44.6796412490288
 20
-9.77842560005071
 30
0.0
  0
SPLINE
  5
30E
330
1F
100
AcDbEntity
  8
SK3
  6
SLD-Dashed
370
    18
100
AcDbSpline
210
0.0
220
0.0
230
1.0
 70
     8
 71
     3
 72
     8
 73
     4
 74
     0
 42
0.000000001
 43
0.00000001
 40
0.9531249999999993
 40
0.9531249999999993
 40
0.9531249999999993
 40
0.9531249999999993
 40
0.9687499999999997
 40
0.9687499999999997
 40
0.9687499999999997
 40
0.9687499999999997
 10
44.6796412490288
 20
-9.77842560005071
 30
0.0
 10
44.74989314909408
 20
-9.826414663801016
 30
0.0
 10
44.8086527673334
 20
-9.866944143971295
 30
0.0
 10
44.85598354183455
 20
-9.89972273985015
 30
0.0
  0
SPLINE
  5
30F
330
1F
100
AcDbEntity
  8
SK3
  6
SLD-Dashed
370
    18
100
AcDbSpline
210
0.0
220
0.0
230
1.0
 70
     8
 71
     2
 72
     6
 73
     3
 74
     0
 42
0.000000001
 43
0.00000001
 40
0.9687499999999997
 40
0.9687499999999997
 40
0.9687499999999997
 40
1.0
 40
1.0
 40
1.0
 10
44.85598354183453
 20
-9.899722739850128
 30
0.0
 10
44.95064509083686
 20
-9.96527993160785
 30
0.0
 10
44.99999999999997
 20
-9.999999999999984
 30
0.0
  0
SPLINE
  5
310
330
1F
100
AcDbEntity
  8
1
  6
SLD-Dashed
370
    18
100
AcDbSpline
210
0.0
220
0.0
230
1.0
 70
     8
 71
     3
 72
    14
 73
    10
 74
     0
 42
0.000000001
 43
0.00000001
 40
0.0
 40
0.0
 40
0.0
 40
0.0
 40
0.25
 40
0.25
 40
0.5
 40
0.5
 40
0.75
 40
0.75
 40
1.0
 40
1.0
 40
1.0
 40
1.0
 10
34.05045115416303
 20
-23.90000000000348
 30
0.0
 10
34.05372766958732
 20
-23.99931588315342
 30
0.0
 10
34.07518722758454
 20
-24.09683114843205
 30
0.0
 10
34.15469287452954
 20
-24.27258685684815
 30
0.0
 10
34.2131828777591
 20
-24.35066307169183
 30
0.0
 10
34.35486559448925
 20
-24.47101540825604
 30
0.0
 10
34.43842245422246
 20
-24.51415792300472
 30
0.0
 10
34.61593211922516
 20
-24.56234044914642
 30
0.0
 10
34.70771500456775
 20
-24.56756283399762
 30
0.0
 10
34.79999999999998
 20
-24.55553654473874
 30
0.0
  0
SPLINE
  5
311
330
1F
100
AcDbEntity
  8
SK3
  6
SLD-Dashed
370
    18
100
AcDbSpline
210
0.0
220
0.0
230
1.0
 70
     8
 71
     3
 72
    30
 73
    26
 74
     0
 42
0.000000001
 43
0.00000001
 40
0.5000000000000013
 40
0.5000000000000013
 40
0.5000000000000013
 40
0.5000000000000013
 40
0.5625000000000014
 40
0.5625000000000014
 40
0.6250000000000014
 40
0.6250000000000014
 40
0.6562500000000014
 40
0.6562500000000014
 40
0.6875000000000013
 40
0.6875000000000013
 40
0.7187500000000013
 40
0.7187500000000013
 40
0.7500000000000012
 40
0.7500000000000012
 40
0.7812500000000012
 40
0.7812500000000012
 40
0.8125000000000012
 40
0.8125000000000012
 40
0.8750000000000008
 40
0.8750000000000008
 40
0.9375000000000003
 40
0.9375000000000003
 40
0.9687500000000001
 40
0.9687500000000001
 40
1.0
 40
1.0
 40
1.0
 40
1.0
 10
11.76979658556572
 20
-17.89232296268974
 30
0.0
 10
11.91246294966132
 20
-17.67070440556974
 30
0.0
 10
12.04384136644407
 20
-17.43839527667697
 30
0.0
 10
12.28743240561783
 20
-16.9748303196765
 30
0.0
 10
12.4007403709436
 20
-16.74140211064307
 30
0.0
 10
12.554475708453
 20
-16.393755585766
 30
0.0
 10
12.60138543677658
 20
-16.28170289315484
 30
0.0
 10
12.68295201157341
 20
-16.06989778885581
 30
0.0
 10
12.71817196931761
 20
-15.9681907943343
 30
0.0
 10
12.76213654526595
 20
-15.80428414547201
 30
0.0
 10
12.77026091463637
 20
-15.74311791179767
 30
0.0
 10
12.75239776164136
 20
-15.68353507622142
 30
0.0
 10
12.72724833739215
 20
-15.68523834432891
 30
0.0
 10
12.65908666407788
 20
-15.72953787216991
 30
0.0
 10
12.61568164729124
 20
-15.77187993935919
 30
0.0
 10
12.52100924552238
 20
-15.87679896563816
 30
0.0
 10
12.46941331137416
 20
-15.93961580200765
 30
0.0
 10
12.30490621332257
 20
-16.14822680602849
 30
0.0
 10
12.18517846713217
 20
-16.31053867976722
 30
0.0
 10
11.92983731616863
 20
-16.65147882946563
 30
0.0
 10
11.79267665531762
 20
-16.83353639743864
 30
0.0
 10
11.5645115897996
 20
-17.1054429386893
 30
0.0
 10
11.48485276967111
 20
-17.19558760882549
 30
0.0
 10
11.31258630900467
 20
-17.37124855765231
 30
0.0
 10
11.21906269051036
 20
-17.45771014988549
 30
0.0
 10
11.11499999999999
 20
-17.53689645447305
 30
0.0
  0
SPLINE
  5
312
330
1F
100
AcDbEntity
  8
SK3
  6
SLD-Dashed
370
    18
100
AcDbSpline
210
0.0
220
0.0
230
1.0
 70
     8
 71
     3
 72
    34
 73
    30
 74
     0
 42
0.000000001
 43
0.00000001
 40
0.0
 40
0.0
 40
0.0
 40
0.0
 40
0.0312500000000002
 40
0.0312500000000002
 40
0.0625000000000003
 40
0.0625000000000003
 40
0.0937500000000005
 40
0.0937500000000005
 40
0.1250000000000007
 40
0.1250000000000007
 40
0.1562500000000009
 40
0.1562500000000009
 40
0.1875000000000011
 40
0.1875000000000011
 40
0.2500000000000012
 40
0.2500000000000012
 40
0.3125000000000013
 40
0.3125000000000013
 40
0.3437500000000013
 40
0.3437500000000013
 40
0.3750000000000013
 40
0.3750000000000013
 40
0.4062500000000014
 40
0.4062500000000014
 40
0.4375000000000014
 40
0.4375000000000014
 40
0.4687500000000014
 40
0.4687500000000014
 40
0.5000000000000013
 40
0.5000000000000013
 40
0.5000000000000013
 40
0.5000000000000013
 10
11.11500000000001
 20
-17.53689645447307
 30
0.0
 10
11.01093730948964
 20
-17.61608275906063
 30
0.0
 10
10.89827240143049
 20
-17.68568655045029
 30
0.0
 10
10.65524603173765
 20
-17.797079229579
 30
0.0
 10
10.53100003630444
 20
-17.83608132712163
 30
0.0
 10
10.29040472633827
 20
-17.89479374448363
 30
0.0
 10
10.17852991293558
 20
-17.91436206658058
 30
0.0
 10
9.971641719228334
 20
-17.95228558252378
 30
0.0
 10
9.880140211756066
 20
-17.96985838929504
 30
0.0
 10
9.720479632928742
 20
-18.01190468167749
 30
0.0
 10
9.653640231842244
 20
-18.03603027826319
 30
0.0
 10
9.549145986449432
 20
-18.09373421516218
 30
0.0
 10
9.510668589618188
 20
-18.12800625055021
 30
0.0
 10
9.444144226770062
 20
-18.24422870024211
 30
0.0
 10
9.463570934642757
 20
-18.34292442278666
 30
0.0
 10
9.625438460184752
 20
-18.5548015791968
 30
0.0
 10
9.767910053168197
 20
-18.6693011139512
 30
0.0
 10
10.04867356462025
 20
-18.80341694907247
 30
0.0
 10
10.15222938652335
 20
-18.84139332547929
 30
0.0
 10
10.38092358660674
 20
-18.8891409866209
 30
0.0
 10
10.50285945052923
 20
-18.89754920765962
 30
0.0
 10
10.75142302172972
 20
-18.86243703960255
 30
0.0
 10
10.87148365715397
 20
-18.81899219989534
 30
0.0
 10
11.09561189675425
 20
-18.68857740517249
 30
0.0
 10
11.19522385975345
 20
-18.60587995809755
 30
0.0
 10
11.38076798793609
 20
-18.42116017956388
 30
0.0
 10
11.46555694339854
 20
-18.32003566241222
 30
0.0
 10
11.62416091896934
 20
-18.1114066507393
 30
0.0
 10
11.69846340351793
 20
-18.00313224124975
 30
0.0
 10
11.76979658556572
 20
-17.89232296268974
 30
0.0
  0
SPLINE
  5
313
330
1F
100
AcDbEntity
  8
SK3
  6
SLD-Dashed
370
    18
100
AcDbSpline
210
0.0
220
0.0
230
1.0
 70
     8
 71
     3
 72
    30
 73
    26
 74
     0
 42
0.000000001
 43
0.00000001
 40
0.4999999999999938
 40
0.4999999999999938
 40
0.4999999999999938
 40
0.4999999999999938
 40
0.5312499999999936
 40
0.5312499999999936
 40
0.5624999999999933
 40
0.5624999999999933
 40
0.6249999999999937
 40
0.6249999999999937
 40
0.687499999999994
 40
0.687499999999994
 40
0.7187499999999947
 40
0.7187499999999947
 40
0.7499999999999952
 40
0.7499999999999952
 40
0.7812499999999959
 40
0.7812499999999959
 40
0.8124999999999966
 40
0.8124999999999966
 40
0.8437499999999972
 40
0.8437499999999972
 40
0.8749999999999979
 40
0.8749999999999979
 40
0.9374999999999989
 40
0.9374999999999989
 40
1.0
 40
1.0
 40
1.0
 40
1.0
 10
9.543420299935407
 20
-22.65998997114812
 30
0.0
 10
9.578561233735405
 20
-22.56022716883099
 30
0.0
 10
9.622627266506978
 20
-22.4490483994453
 30
0.0
 10
9.718027024244998
 20
-22.2236780839706
 30
0.0
 10
9.77016585958776
 20
-22.10744453751687
 30
0.0
 10
9.935727180931428
 20
-21.75463004044461
 30
0.0
 10
10.05462982796812
 20
-21.52064448601665
 30
0.0
 10
10.31081948707682
 20
-21.0588380163739
 30
0.0
 10
10.4484097443316
 20
-20.82955805298788
 30
0.0
 10
10.67777322328789
 20
-20.50643317375554
 30
0.0
 10
10.7587109791655
 20
-20.40152870512313
 30
0.0
 10
10.93364535127568
 20
-20.20556086715294
 30
0.0
 10
11.02698337642653
 20
-20.11488201047909
 30
0.0
 10
11.23604536410173
 20
-19.96052893895906
 30
0.0
 10
11.35057343779473
 20
-19.89926443941833
 30
0.0
 10
11.5948030246146
 20
-19.82807633767501
 30
0.0
 10
11.71945599477357
 20
-19.81958662546977
 30
0.0
 10
11.95950363931198
 20
-19.84303817835689
 30
0.0
 10
12.07031700587893
 20
-19.87318242107355
 30
0.0
 10
12.27422745067751
 20
-19.95206349756281
 30
0.0
 10
12.3650270117984
 20
-20.00025605676592
 30
0.0
 10
12.59959907667482
 20
-20.15399503516338
 30
0.0
 10
12.70444177032681
 20
-20.26792332503301
 30
0.0
 10
12.78609851062197
 20
-20.46801773808178
 30
0.0
 10
12.76320534245741
 20
-20.55399411581359
 30
0.0
 10
12.67730763443396
 20
-20.61935781184684
 30
0.0
  0
SPLINE
  5
314
330
1F
100
AcDbEntity
  8
SK3
  6
SLD-Dashed
370
    18
100
AcDbSpline
210
0.0
220
0.0
230
1.0
 70
     8
 71
     3
 72
    34
 73
    30
 74
     0
 42
0.000000001
 43
0.00000001
 40
0.0
 40
0.0
 40
0.0
 40
0.0
 40
0.0312499999999995
 40
0.0312499999999995
 40
0.0624999999999991
 40
0.0624999999999991
 40
0.0937499999999986
 40
0.0937499999999986
 40
0.1249999999999982
 40
0.1249999999999982
 40
0.1562499999999978
 40
0.1562499999999978
 40
0.1874999999999973
 40
0.1874999999999973
 40
0.2499999999999964
 40
0.2499999999999964
 40
0.3124999999999955
 40
0.3124999999999955
 40
0.3437499999999952
 40
0.3437499999999952
 40
0.3749999999999949
 40
0.3749999999999949
 40
0.4062499999999946
 40
0.4062499999999946
 40
0.4374999999999943
 40
0.4374999999999943
 40
0.4687499999999941
 40
0.4687499999999941
 40
0.4999999999999938
 40
0.4999999999999938
 40
0.4999999999999938
 40
0.4999999999999938
 10
12.67730763443395
 20
-20.61935781184685
 30
0.0
 10
12.63435878042221
 20
-20.65203965986347
 30
0.0
 10
12.57729529856069
 20
-20.67893166493472
 30
0.0
 10
12.43603808962705
 20
-20.72541543980049
 30
0.0
 10
12.35095491427454
 20
-20.74490836916306
 30
0.0
 10
12.16118186397774
 20
-20.78180696819736
 30
0.0
 10
12.05422579636498
 20
-20.79954830523241
 30
0.0
 10
11.82324491388441
 20
-20.8473417887505
 30
0.0
 10
11.69889439480558
 20
-20.87807405413514
 30
0.0
 10
11.4530445524894
 20
-20.96908417859751
 30
0.0
 10
11.33231684279029
 20
-21.03008950406164
 30
0.0
 10
11.11245426351673
 20
-21.17497279059742
 30
0.0
 10
11.0131539316873
 20
-21.25735513703287
 30
0.0
 10
10.73767466537663
 20
-21.51687030422061
 30
0.0
 10
10.58689176004737
 20
-21.69912075795288
 30
0.0
 10
10.30357248622243
 20
-22.05725573907562
 30
0.0
 10
10.17286476490373
 20
-22.23420714395774
 30
0.0
 10
9.99100500559362
 20
-22.47743384821167
 30
0.0
 10
9.932635222666283
 20
-22.55514665472535
 30
0.0
 10
9.82040480561043
 20
-22.70089934625719
 30
0.0
 10
9.766060353100583
 20
-22.76957377640452
 30
0.0
 10
9.665448853514308
 20
-22.88873427842829
 30
0.0
 10
9.619326797725675
 20
-22.93921098612152
 30
0.0
 10
9.53938853672938
 20
-23.01052916562901
 30
0.0
 10
9.505665766297314
 20
-23.03089302097996
 30
0.0
 10
9.46522449538012
 20
-23.01585114589004
 30
0.0
 10
9.459739461343583
 20
-22.97888962661065
 30
0.0
 10
9.481585255233766
 20
-22.84998128766082
 30
0.0
 10
9.508279366135408
 20
-22.75975277346525
 30
0.0
 10
9.543420299935407
 20
-22.65998997114812
 30
0.0
  0
SPLINE
  5
315
330
1F
100
AcDbEntity
  8
1
  6
SLD-Dashed
370
    18
100
AcDbSpline
210
0.0
220
0.0
230
1.0
 70
    24
 71
     2
 72
     6
 73
     3
 74
     0
 42
0.000000001
 43
0.00000001
 40
0.0
 40
0.0
 40
0.0
 40
0.5
 40
0.5
 40
0.5
 10
34.0499999999942
 20
-23.90000000000106
 30
0.0
 10
34.05003724343909
 20
-23.90000000000107
 30
0.0
 10
34.05011227176296
 20
-23.90000000000106
 30
0.0
  0
SPLINE
  5
316
330
1F
100
AcDbEntity
  8
1
  6
SLD-Dashed
370
    18
100
AcDbSpline
210
0.0
220
0.0
230
1.0
 70
    24
 71
     3
 72
     8
 73
     4
 74
     0
 42
0.000000001
 43
0.00000001
 40
0.5
 40
0.5
 40
0.5
 40
0.5
 40
1.0
 40
1.0
 40
1.0
 40
1.0
 10
34.05011227176296
 20
-23.90000000000106
 30
0.0
 10
34.05018730008678
 20
-23.90000000000106
 30
0.0
 10
34.05030009107005
 20
-23.90000000000106
 30
0.0
 10
34.05045115416025
 20
-23.90000000000106
 30
0.0
  0
ELLIPSE
  5
317
330
1F
100
AcDbEntity
  8
SK3
  6
SLD-Dashed
370
    18
100
AcDbEllipse
 10
6.0521267237
 20
23.2104077334
 30
0.0
 11
3.098580671678161
 21
0.0
 31
0.0
210
0.0
220
0.0
230
1.0
 40
0.2152402503
 41
6.163596669273415
 42
6.402773945087449
  0
INSERT
  5
318
330
1F
100
AcDbEntity
  8
81
100
AcDbBlockReference
  2
Block11
 10
-28.6264826505
 20
-130.2676275275
 30
0.0
  0
INSERT
  5
319
330
1F
100
AcDbEntity
  8
80
100
AcDbBlockReference
  2
Block12
 10
-61.7273641656
 20
-130.3356800267
 30
0.0
  0
DIMENSION
  5
31A
330
1F
100
AcDbEntity
  8
SK2
100
AcDbDimension
  2
_D
 10
19.05
 20
50.128660874
 30
0.0
 11
9.2505325349
 21
50.128660874
 31
0.0
 70
   160
  1
<>
 71
     2
 42
-1.0
  3
SLDDIMSTYLE0
100
AcDbAlignedDimension
 13
0.0
 23
22.225
 33
0.0
 14
19.05
 24
31.0
 34
0.0
100
AcDbRotatedDimension
  0
DIMENSION
  5
326
330
1F
100
AcDbEntity
  8
SK2
100
AcDbDimension
  2
_D_1
 10
63.0
 20
50.128660874
 30
0.0
 11
39.4310376313
 21
50.128660874
 31
0.0
 70
   160
  1
<>
 71
     2
 42
-1.0
  3
SLDDIMSTYLE0
100
AcDbAlignedDimension
 13
19.05
 23
31.0
 33
0.0
 14
63.0
 24
18.4944465005
 34
0.0
100
AcDbRotatedDimension
  0
DIMENSION
  5
330
330
1F
100
AcDbEntity
  8
SK2
100
AcDbDimension
  2
_D_2
 10
102.7326977112
 20
26.0
 30
0.0
 11
102.7326977112
 21
-0.5766464736
 31
0.0
 70
   160
  1
%%c<>
 71
     2
 42
-1.0
  3
SLDDIMSTYLE0
100
AcDbAlignedDimension
 13
50.0
 23
-26.0
 33
0.0
 14
50.0
 24
26.0
 34
0.0
 50
90.0
100
AcDbRotatedDimension
  0
DIMENSION
  5
33B
330
1F
100
AcDbEntity
  8
SK2
100
AcDbDimension
  2
_D_3
 10
50.0
 20
33.2935491112
 30
0.0
 11
55.8849674084
 21
33.2935491112
 31
0.0
 70
   160
  1
<>
 71
     2
 42
-1.0
  3
SLDDIMSTYLE0
100
AcDbAlignedDimension
 13
63.0
 23
18.4944465005
 33
0.0
 14
50.0
 24
26.0
 34
0.0
100
AcDbRotatedDimension
  0
DIMENSION
  5
345
330
1F
100
AcDbEntity
  8
SK2
100
AcDbDimension
  2
_D_4
 10
34.05
 20
41.2808489656
 30
0.0
 11
48.7065080457
 21
41.2808489656
 31
0.0
 70
   160
  1
<>
 71
     2
 42
-1.0
  3
SLDDIMSTYLE0
100
AcDbAlignedDimension
 13
63.0
 23
18.4944465005
 33
0.0
 14
34.05
 24
22.5824099787
 34
0.0
100
AcDbRotatedDimension
  0
DIMENSION
  5
34F
330
1F
100
AcDbEntity
  8
2
100
AcDbDimension
  2
_D_5
 10
63.0
 20
60.3220100756
 30
0.0
 11
30.6509463959
 21
60.3220100756
 31
0.0
 70
   160
  1
<>
 71
     2
 42
-1.0
  3
SLDDIMSTYLE0
100
AcDbAlignedDimension
 13
0.0
 23
22.225
 33
0.0
 14
63.0
 24
18.4944465005
 34
0.0
100
AcDbRotatedDimension
  0
DIMENSION
  5
359
330
1F
100
AcDbEntity
  8
SK2
100
AcDbDimension
  2
_D_6
 10
92.2855662975
 20
18.4944465005
 30
0.0
 11
92.2855662975
 21
-0.5766464736
 31
0.0
 70
   160
  1
%%c<>
 71
     2
 42
-1.0
  3
SLDDIMSTYLE0
100
AcDbAlignedDimension
 13
63.0
 23
-18.4944465005
 33
0.0
 14
63.0
 24
18.4944465005
 34
0.0
 50
90.0
100
AcDbRotatedDimension
  0
DIMENSION
  5
364
330
1F
100
AcDbEntity
  8
SK2
100
AcDbDimension
  2
_D_7
 10
81.5055095314
 20
10.0
 30
0.0
 11
81.5055095314
 21
-0.5766464736
 31
0.0
 70
   160
  1
%%c<>
 71
     2
 42
-1.0
  3
SLDDIMSTYLE0
100
AcDbAlignedDimension
 13
62.0
 23
-10.0
 33
0.0
 14
62.0
 24
10.0
 34
0.0
 50
90.0
100
AcDbRotatedDimension
  0
DIMENSION
  5
36F
330
1F
100
AcDbEntity
  8
SK2
100
AcDbDimension
  2
_D_8
 10
-86.6361650729
 20
-22.225
 30
0.0
 11
-86.6361650729
 21
-0.5766464736
 31
0.0
 70
   160
  1
%%c<>
 71
     2
 42
-1.0
  3
SLDDIMSTYLE0
100
AcDbAlignedDimension
 13
0.0
 23
22.225
 33
0.0
 14
0.0
 24
-22.225
 34
0.0
 50
90.0
100
AcDbRotatedDimension
  0
DIMENSION
  5
37A
330
1F
100
AcDbEntity
  8
SK2
100
AcDbDimension
  2
_D_9
 10
-98.5293968421
 20
-31.75
 30
0.0
 11
-98.5293968421
 21
-0.5766464736
 31
0.0
 70
   160
  1
%%c<>
 71
     2
 42
-1.0
  3
SLDDIMSTYLE0
100
AcDbAlignedDimension
 13
3.95
 23
31.75
 33
0.0
 14
3.95
 24
-31.75
 34
0.0
 50
90.0
100
AcDbRotatedDimension
  0
DIMENSION
  5
385
330
1F
100
AcDbEntity
  8
SK2
100
AcDbDimension
  2
_D_10
 10
-75.9770759161
 20
8.00000038
 30
0.0
 11
-75.9770759161
 21
0.3862058657
 31
0.0
 70
   160
  1
M<>
 71
     2
 42
-1.0
  3
SLDDIMSTYLE0
100
AcDbAlignedDimension
 13
-57.2881214321
 23
-8.00000038
 33
0.0
 14
-57.2881214321
 24
8.00000038
 34
0.0
 50
90.0
100
AcDbRotatedDimension
  0
DIMENSION
  5
390
330
1F
100
AcDbEntity
  8
SK2
100
AcDbDimension
  2
_D_11
 10
38.0
 20
-35.6260547583
 30
0.0
 11
50.7337261674
 21
-35.6260547583
 31
0.0
 70
   160
  1
<>
 71
     2
 42
-1.0
  3
SLDDIMSTYLE0
100
AcDbAlignedDimension
 13
63.0
 23
-18.4944465005
 33
0.0
 14
38.0
 24
-25.8176376691
 34
0.0
100
AcDbRotatedDimension
  0
DIMENSION
  5
39A
330
1F
100
AcDbEntity
  8
SK2
100
AcDbDimension
  2
_D_12
 10
14.0
 20
-44.4574074971
 30
0.0
 11
40.5783063186
 21
-44.4574074971
 31
0.0
 70
   160
  1
<>
 71
     2
 42
-1.0
  3
SLDDIMSTYLE0
100
AcDbAlignedDimension
 13
63.0
 23
-18.4944465005
 33
0.0
 14
14.0
 24
-10.0
 34
0.0
100
AcDbRotatedDimension
  0
MTEXT
  5
3A4
330
1F
100
AcDbEntity
  8
SK6
 62
     5
100
AcDbMText
 10
-68.427861054
 20
-40.9713648303
 30
0.0
 40
3.5
 41
0.0
 71
     1
 72
     1
  1
A1B20-40 20 063
  7
SLDTEXTSTYLE0
 73
     1
 44
1.0
  0
INSERT
  5
3AA
330
1F
100
AcDbEntity
  8
SK6
 62
     5
100
AcDbBlockReference
  2
SW_NOTE_0
 10
-36.7359308137
 20
26.7893119126
 30
0.0
  0
ENDSEC
  0
SECTION
  2
OBJECTS
  0
DICTIONARY
  5
C
330
0
100
AcDbDictionary
281
     1
  3
ACAD_GROUP
350
D
  3
ACAD_LAYOUT
350
1A
  3
ACAD_MLINESTYLE
350
17
  3
ACAD_PLOTSETTINGS
350
19
  3
ACAD_PLOTSTYLENAME
350
E
  3
ACAD_SCALELIST
350
47
  0
DICTIONARY
  5
D
102
{ACAD_REACTORS
330
C
102
}
330
C
100
AcDbDictionary
281
     1
  0
DICTIONARY
  5
1A
102
{ACAD_REACTORS
330
C
102
}
330
C
100
AcDbDictionary
281
     1
  3
Layout1
350
1E
  3
Layout2
350
26
  3
Model
350
22
  0
DICTIONARY
  5
17
102
{ACAD_REACTORS
330
C
102
}
330
C
100
AcDbDictionary
281
     1
  3
Standard
350
18
  0
DICTIONARY
  5
19
102
{ACAD_REACTORS
330
C
102
}
330
C
100
AcDbDictionary
281
     1
  0
ACDBDICTIONARYWDFLT
  5
E
102
{ACAD_REACTORS
330
C
102
}
330
C
100
AcDbDictionary
281
     1
  3
Normal
350
F
100
AcDbDictionaryWithDefault
340
F
  0
DICTIONARY
  5
47
102
{ACAD_REACTORS
330
C
102
}
330
C
100
AcDbDictionary
281
     1
  3
A0
350
48
  3
A1
350
49
  3
A2
350
4A
  3
A3
350
4B
  3
A4
350
4C
  3
A5
350
4D
  3
A6
350
4E
  3
A7
350
4F
  3
A8
350
50
  3
A9
350
51
  3
B0
350
52
  3
B1
350
53
  3
B2
350
54
  3
B3
350
55
  3
B4
350
56
  3
B5
350
57
  3
B6
350
58
  3
B7
350
59
  3
B8
350
5A
  3
B9
350
5B
  3
C0
350
5C
  3
C1
350
5D
  3
C2
350
5E
  3
C3
350
5F
  3
C4
350
60
  3
C5
350
61
  3
C6
350
62
  3
C7
350
63
  3
C8
350
64
  3
C9
350
65
  3
D0
350
66
  3
D1
350
67
  3
D2
350
68
  0
LAYOUT
  5
1E
102
{ACAD_REACTORS
330
1A
102
}
330
1A
100
AcDbPlotSettings
  1

  2
none_device
  4

  6

 40
0.0
 41
0.0
 42
0.0
 43
0.0
 44
0.0
 45
0.0
 46
0.0
 47
0.0
 48
0.0
 49
0.0
140
0.0
141
0.0
142
1.0
143
1.0
 70
   688
 72
     1
 73
     0
 74
     5
  7

 75
    16
147
1.0
148
0.0
149
0.0
100
AcDbLayout
  1
Layout1
 70
     1
 71
     1
 10
0.0
 20
0.0
 11
420.0
 21
297.0
 12
0.0
 22
0.0
 32
0.0
 14
1.0000000000E+20
 24
1.0000000000E+20
 34
1.0000000000E+20
 15
-1.0000000000E+20
 25
-1.0000000000E+20
 35
-1.0000000000E+20
146
0.0
 13
0.0
 23
0.0
 33
0.0
 16
1.0
 26
0.0
 36
0.0
 17
0.0
 27
1.0
 37
0.0
 76
     0
330
1B
  0
LAYOUT
  5
26
102
{ACAD_REACTORS
330
1A
102
}
330
1A
100
AcDbPlotSettings
  1

  2
none_device
  4

  6

 40
0.0
 41
0.0
 42
0.0
 43
0.0
 44
0.0
 45
0.0
 46
0.0
 47
0.0
 48
0.0
 49
0.0
140
0.0
141
0.0
142
1.0
143
1.0
 70
   688
 72
     1
 73
     0
 74
     5
  7

 75
    16
147
1.0
148
0.0
149
0.0
100
AcDbLayout
  1
Layout2
 70
     1
 71
     2
 10
0.0
 20
0.0
 11
0.0
 21
0.0
 12
0.0
 22
0.0
 32
0.0
 14
0.0
 24
0.0
 34
0.0
 15
0.0
 25
0.0
 35
0.0
146
0.0
 13
0.0
 23
0.0
 33
0.0
 16
1.0
 26
0.0
 36
0.0
 17
0.0
 27
1.0
 37
0.0
 76
     0
330
23
  0
LAYOUT
  5
22
102
{ACAD_REACTORS
330
1A
102
}
330
1A
100
AcDbPlotSettings
  1

  2
none_device
  4
Letter_(8.50_x_11.00_Inches)
  6

 40
6.35
 41
6.35
 42
6.35000508
 43
6.35000508
 44
215.9
 45
279.4
 46
0.0
 47
0.0
 48
0.0
 49
0.0
140
0.0
141
0.0
142
1.0
143
1.0
 70
  1712
 72
     1
 73
     0
 74
     0
  7

 75
     0
147
1.0
148
0.0
149
0.0
100
AcDbLayout
  1
Model
 70
     1
 71
     0
 10
0.0
 20
0.0
 11
297.0
 21
210.0
 12
0.0
 22
0.0
 32
0.0
 14
0.0
 24
0.0
 34
0.0
 15
297.0
 25
210.0
 35
0.0
146
0.0
 13
0.0
 23
0.0
 33
0.0
 16
1.0
 26
0.0
 36
0.0
 17
0.0
 27
1.0
 37
0.0
 76
     0
330
1F
331
29
  0
MLINESTYLE
  5
18
102
{ACAD_REACTORS
330
17
102
}
330
17
100
AcDbMlineStyle
  2
Standard
 70
     0
  3

 62
   256
 51
90.0
 52
90.0
 71
     2
 49
0.5
 62
   256
  6
BYLAYER
 49
-0.5
 62
   256
  6
BYLAYER
  0
ACDBPLACEHOLDER
  5
F
102
{ACAD_REACTORS
330
E
102
}
330
E
  0
SCALE
  5
48
102
{ACAD_REACTORS
330
47
102
}
330
47
100
AcDbScale
 70
     0
300
1:1
140
1.0
141
1.0
290
     1
  0
SCALE
  5
49
102
{ACAD_REACTORS
330
47
102
}
330
47
100
AcDbScale
 70
     0
300
1:2
140
1.0
141
2.0
290
     0
  0
SCALE
  5
4A
102
{ACAD_REACTORS
330
47
102
}
330
47
100
AcDbScale
 70
     0
300
1:4
140
1.0
141
4.0
290
     0
  0
SCALE
  5
4B
102
{ACAD_REACTORS
330
47
102
}
330
47
100
AcDbScale
 70
     0
300
1:5
140
1.0
141
5.0
290
     0
  0
SCALE
  5
4C
102
{ACAD_REACTORS
330
47
102
}
330
47
100
AcDbScale
 70
     0
300
1:8
140
1.0
141
8.0
290
     0
  0
SCALE
  5
4D
102
{ACAD_REACTORS
330
47
102
}
330
47
100
AcDbScale
 70
     0
300
1:10
140
1.0
141
10.0
290
     0
  0
SCALE
  5
4E
102
{ACAD_REACTORS
330
47
102
}
330
47
100
AcDbScale
 70
     0
300
1:16
140
1.0
141
16.0
290
     0
  0
SCALE
  5
4F
102
{ACAD_REACTORS
330
47
102
}
330
47
100
AcDbScale
 70
     0
300
1:20
140
1.0
141
20.0
290
     0
  0
SCALE
  5
50
102
{ACAD_REACTORS
330
47
102
}
330
47
100
AcDbScale
 70
     0
300
1:30
140
1.0
141
30.0
290
     0
  0
SCALE
  5
51
102
{ACAD_REACTORS
330
47
102
}
330
47
100
AcDbScale
 70
     0
300
1:40
140
1.0
141
40.0
290
     0
  0
SCALE
  5
52
102
{ACAD_REACTORS
330
47
102
}
330
47
100
AcDbScale
 70
     0
300
1:50
140
1.0
141
50.0
290
     0
  0
SCALE
  5
53
102
{ACAD_REACTORS
330
47
102
}
330
47
100
AcDbScale
 70
     0
300
1:100
140
1.0
141
100.0
290
     0
  0
SCALE
  5
54
102
{ACAD_REACTORS
330
47
102
}
330
47
100
AcDbScale
 70
     0
300
2:1
140
2.0
141
1.0
290
     0
  0
SCALE
  5
55
102
{ACAD_REACTORS
330
47
102
}
330
47
100
AcDbScale
 70
     0
300
4:1
140
4.0
141
1.0
290
     0
  0
SCALE
  5
56
102
{ACAD_REACTORS
330
47
102
}
330
47
100
AcDbScale
 70
     0
300
8:1
140
8.0
141
1.0
290
     0
  0
SCALE
  5
57
102
{ACAD_REACTORS
330
47
102
}
330
47
100
AcDbScale
 70
     0
300
10:1
140
10.0
141
1.0
290
     0
  0
SCALE
  5
58
102
{ACAD_REACTORS
330
47
102
}
330
47
100
AcDbScale
 70
     0
300
100:1
140
100.0
141
1.0
290
     0
  0
SCALE
  5
59
102
{ACAD_REACTORS
330
47
102
}
330
47
100
AcDbScale
 70
     0
300
1/128" = 1'-0"
140
0.0078125
141
12.0
290
     0
  0
SCALE
  5
5A
102
{ACAD_REACTORS
330
47
102
}
330
47
100
AcDbScale
 70
     0
300
1/64" = 1'-0"
140
0.015625
141
12.0
290
     0
  0
SCALE
  5
5B
102
{ACAD_REACTORS
330
47
102
}
330
47
100
AcDbScale
 70
     0
300
1/32" = 1'-0"
140
0.03125
141
12.0
290
     0
  0
SCALE
  5
5C
102
{ACAD_REACTORS
330
47
102
}
330
47
100
AcDbScale
 70
     0
300
1/16" = 1'-0"
140
0.0625
141
12.0
290
     0
  0
SCALE
  5
5D
102
{ACAD_REACTORS
330
47
102
}
330
47
100
AcDbScale
 70
     0
300
3/32" = 1'-0"
140
0.09375
141
12.0
290
     0
  0
SCALE
  5
5E
102
{ACAD_REACTORS
330
47
102
}
330
47
100
AcDbScale
 70
     0
300
1/8" = 1'-0"
140
0.125
141
12.0
290
     0
  0
SCALE
  5
5F
102
{ACAD_REACTORS
330
47
102
}
330
47
100
AcDbScale
 70
     0
300
3/16" = 1'-0"
140
0.1875
141
12.0
290
     0
  0
SCALE
  5
60
102
{ACAD_REACTORS
330
47
102
}
330
47
100
AcDbScale
 70
     0
300
1/4" = 1'-0"
140
0.25
141
12.0
290
     0
  0
SCALE
  5
61
102
{ACAD_REACTORS
330
47
102
}
330
47
100
AcDbScale
 70
     0
300
3/8" = 1'-0"
140
0.375
141
12.0
290
     0
  0
SCALE
  5
62
102
{ACAD_REACTORS
330
47
102
}
330
47
100
AcDbScale
 70
     0
300
1/2" = 1'-0"
140
0.5
141
12.0
290
     0
  0
SCALE
  5
63
102
{ACAD_REACTORS
330
47
102
}
330
47
100
AcDbScale
 70
     0
300
3/4" = 1'-0"
140
0.75
141
12.0
290
     0
  0
SCALE
  5
64
102
{ACAD_REACTORS
330
47
102
}
330
47
100
AcDbScale
 70
     0
300
1" = 1'-0"
140
1.0
141
12.0
290
     0
  0
SCALE
  5
65
102
{ACAD_REACTORS
330
47
102
}
330
47
100
AcDbScale
 70
     0
300
1-1/2" = 1'-0"
140
1.5
141
12.0
290
     0
  0
SCALE
  5
66
102
{ACAD_REACTORS
330
47
102
}
330
47
100
AcDbScale
 70
     0
300
3" = 1'-0"
140
3.0
141
12.0
290
     0
  0
SCALE
  5
67
102
{ACAD_REACTORS
330
47
102
}
330
47
100
AcDbScale
 70
     0
300
6" = 1'-0"
140
6.0
141
12.0
290
     0
  0
SCALE
  5
68
102
{ACAD_REACTORS
330
47
102
}
330
47
100
AcDbScale
 70
     0
300
1'-0" = 1'-0"
140
12.0
141
12.0
290
     0
  0
ENDSEC
  0
EOF
