  0
SECTION
  2
HEADER
  9
$ACADVER
  1
AC1015
  9
$ACADMAINTVER
 70
     6
  9
$DWGCODEPAGE
  3
ANSI_1250
  9
$INSBASE
 10
0.0
 20
0.0
 30
0.0
  9
$EXTMIN
 10
0.0
 20
0.0
 30
0.0
  9
$EXTMAX
 10
297.0
 20
210.0
 30
0.0
  9
$LIMMIN
 10
0.0
 20
0.0
  9
$LIMMAX
 10
297.0
 20
210.0
  9
$ORTHOMODE
 70
     0
  9
$REGENMODE
 70
     1
  9
$FILLMODE
 70
     1
  9
$QTEXTMODE
 70
     0
  9
$MIRRTEXT
 70
     1
  9
$LTSCALE
 40
1.0
  9
$ATTMODE
 70
     1
  9
$TEXTSIZE
 40
3.5
  9
$TRACEWID
 40
1.0
  9
$TEXTSTYLE
  7
Standard
  9
$CLAYER
  8
0
  9
$CELTYPE
  6
ByLayer
  9
$CECOLOR
 62
   256
  9
$CELTSCALE
 40
1.0
  9
$DISPSILH
 70
     0
  9
$DIMSCALE
 40
1.0
  9
$DIMASZ
 40
3.302
  9
$DIMEXO
 40
1.0
  9
$DIMDLI
 40
3.75
  9
$DIMRND
 40
0.0
  9
$DIMDLE
 40
0.0
  9
$DIMEXE
 40
1.0
  9
$DIMTP
 40
0.0
  9
$DIMTM
 40
0.0
  9
$DIMTXT
 40
3.5
  9
$DIMCEN
 40
2.5
  9
$DIMTSZ
 40
0.0
  9
$DIMTOL
 70
     0
  9
$DIMLIM
 70
     0
  9
$DIMTIH
 70
     1
  9
$DIMTOH
 70
     1
  9
$DIMSE1
 70
     0
  9
$DIMSE2
 70
     0
  9
$DIMTAD
 70
     1
  9
$DIMZIN
 70
     0
  9
$DIMBLK
  1

  9
$DIMASO
 70
     1
  9
$DIMSHO
 70
     1
  9
$DIMPOST
  1

  9
$DIMAPOST
  1

  9
$DIMALT
 70
     0
  9
$DIMALTD
 70
     3
  9
$DIMALTF
 40
0.0393700787
  9
$DIMLFAC
 40
1.0
  9
$DIMTOFL
 70
     1
  9
$DIMTVP
 40
0.0
  9
$DIMTIX
 70
     0
  9
$DIMSOXD
 70
     0
  9
$DIMSAH
 70
     0
  9
$DIMBLK1
  1

  9
$DIMBLK2
  1

  9
$DIMSTYLE
  2
ISO-25
  9
$DIMCLRD
 70
     0
  9
$DIMCLRE
 70
     0
  9
$DIMCLRT
 70
     0
  9
$DIMTFAC
 40
1.0
  9
$DIMGAP
 40
1.524
  9
$DIMJUST
 70
     0
  9
$DIMSD1
 70
     0
  9
$DIMSD2
 70
     0
  9
$DIMTOLJ
 70
     0
  9
$DIMTZIN
 70
     0
  9
$DIMALTZ
 70
     0
  9
$DIMALTTZ
 70
     0
  9
$DIMUPT
 70
     0
  9
$DIMDEC
 70
     2
  9
$DIMTDEC
 70
     2
  9
$DIMALTU
 70
     2
  9
$DIMALTTD
 70
     3
  9
$DIMTXSTY
  7
Standard
  9
$DIMAUNIT
 70
     0
  9
$DIMADEC
 70
     2
  9
$DIMALTRND
 40
0.0
  9
$DIMAZIN
 70
     0
  9
$DIMDSEP
 70
    44
  9
$DIMATFIT
 70
     3
  9
$DIMFRAC
 70
     0
  9
$DIMLDRBLK
  1

  9
$DIMLUNIT
 70
     2
  9
$DIMLWD
 70
    -2
  9
$DIMLWE
 70
    -2
  9
$DIMTMOVE
 70
     0
  9
$LUNITS
 70
     2
  9
$LUPREC
 70
     2
  9
$SKETCHINC
 40
1.0
  9
$FILLETRAD
 40
10.0
  9
$AUNITS
 70
     0
  9
$AUPREC
 70
     2
  9
$MENU
  1
.
  9
$ELEVATION
 40
0.0
  9
$PELEVATION
 40
0.0
  9
$THICKNESS
 40
0.0
  9
$LIMCHECK
 70
     0
  9
$CHAMFERA
 40
0.0
  9
$CHAMFERB
 40
0.0
  9
$CHAMFERC
 40
0.0
  9
$CHAMFERD
 40
0.0
  9
$SKPOLY
 70
     0
  9
$TDCREATE
 40
2459290.497985926
  9
$TDUCREATE
 40
2459290.456319259
  9
$TDUPDATE
 40
2459290.49798735
  9
$TDUUPDATE
 40
2459290.456320683
  9
$TDINDWG
 40
0.0000000116
  9
$TDUSRTIMER
 40
0.0000000116
  9
$USRTIMER
 70
     1
  9
$ANGBASE
 50
0.0
  9
$ANGDIR
 70
     0
  9
$PDMODE
 70
     0
  9
$PDSIZE
 40
-1.0
  9
$PLINEWID
 40
0.0
  9
$SPLFRAME
 70
     0
  9
$SPLINETYPE
 70
     6
  9
$SPLINESEGS
 70
     8
  9
$HANDSEED
  5
373
  9
$SURFTAB1
 70
     6
  9
$SURFTAB2
 70
     6
  9
$SURFTYPE
 70
     6
  9
$SURFU
 70
     6
  9
$SURFV
 70
     6
  9
$UCSBASE
  2

  9
$UCSNAME
  2

  9
$UCSORG
 10
0.0
 20
0.0
 30
0.0
  9
$UCSXDIR
 10
1.0
 20
0.0
 30
0.0
  9
$UCSYDIR
 10
0.0
 20
1.0
 30
0.0
  9
$UCSORTHOREF
  2

  9
$UCSORTHOVIEW
 70
     0
  9
$UCSORGTOP
 10
0.0
 20
0.0
 30
0.0
  9
$UCSORGBOTTOM
 10
0.0
 20
0.0
 30
0.0
  9
$UCSORGLEFT
 10
0.0
 20
0.0
 30
0.0
  9
$UCSORGRIGHT
 10
0.0
 20
0.0
 30
0.0
  9
$UCSORGFRONT
 10
0.0
 20
0.0
 30
0.0
  9
$UCSORGBACK
 10
0.0
 20
0.0
 30
0.0
  9
$PUCSBASE
  2

  9
$PUCSNAME
  2

  9
$PUCSORG
 10
0.0
 20
0.0
 30
0.0
  9
$PUCSXDIR
 10
1.0
 20
0.0
 30
0.0
  9
$PUCSYDIR
 10
0.0
 20
1.0
 30
0.0
  9
$PUCSORTHOREF
  2

  9
$PUCSORTHOVIEW
 70
     0
  9
$PUCSORGTOP
 10
0.0
 20
0.0
 30
0.0
  9
$PUCSORGBOTTOM
 10
0.0
 20
0.0
 30
0.0
  9
$PUCSORGLEFT
 10
0.0
 20
0.0
 30
0.0
  9
$PUCSORGRIGHT
 10
0.0
 20
0.0
 30
0.0
  9
$PUCSORGFRONT
 10
0.0
 20
0.0
 30
0.0
  9
$PUCSORGBACK
 10
0.0
 20
0.0
 30
0.0
  9
$USERI1
 70
     0
  9
$USERI2
 70
     0
  9
$USERI3
 70
     0
  9
$USERI4
 70
     0
  9
$USERI5
 70
     0
  9
$USERR1
 40
0.0
  9
$USERR2
 40
0.0
  9
$USERR3
 40
0.0
  9
$USERR4
 40
0.0
  9
$USERR5
 40
0.0
  9
$WORLDVIEW
 70
     1
  9
$SHADEDGE
 70
     3
  9
$SHADEDIF
 70
    70
  9
$TILEMODE
 70
     1
  9
$MAXACTVP
 70
    64
  9
$PINSBASE
 10
0.0
 20
0.0
 30
0.0
  9
$PLIMCHECK
 70
     0
  9
$PEXTMIN
 10
1.0000000000E+20
 20
1.0000000000E+20
 30
1.0000000000E+20
  9
$PEXTMAX
 10
-1.0000000000E+20
 20
-1.0000000000E+20
 30
-1.0000000000E+20
  9
$PLIMMIN
 10
0.0
 20
0.0
  9
$PLIMMAX
 10
420.0
 20
297.0
  9
$UNITMODE
 70
     0
  9
$VISRETAIN
 70
     1
  9
$PLINEGEN
 70
     0
  9
$PSLTSCALE
 70
     1
  9
$TREEDEPTH
 70
  3020
  9
$CMLSTYLE
  2
Standard
  9
$CMLJUST
 70
     0
  9
$CMLSCALE
 40
20.0
  9
$PROXYGRAPHICS
 70
     1
  9
$MEASUREMENT
 70
     1
  9
$CELWEIGHT
370
    -1
  9
$ENDCAPS
280
     0
  9
$JOINSTYLE
280
     0
  9
$LWDISPLAY
290
     1
  9
$INSUNITS
 70
     4
  9
$HYPERLINKBASE
  1

  9
$STYLESHEET
  1

  9
$XEDIT
290
     1
  9
$CEPSNTYPE
380
     0
  9
$PSTYLEMODE
290
     1
  9
$FINGERPRINTGUID
  2
{0CB54A07-80CA-4ABC-B3FF-C625020B51A8}
  9
$VERSIONGUID
  2
{FAEB1C32-E019-11D5-929B-00C0DF256EC4}
  9
$EXTNAMES
290
     1
  9
$PSVPSCALE
 40
0.0
  9
$OLESTARTUP
290
     0
  0
ENDSEC
  0
SECTION
  2
CLASSES
  0
CLASS
  1
ACDBDICTIONARYWDFLT
  2
AcDbDictionaryWithDefault
  3
ObjectDBX Classes
 90
        0
280
     0
281
     0
  0
CLASS
  1
VISUALSTYLE
  2
AcDbVisualStyle
  3
ObjectDBX Classes
 90
     4095
280
     0
281
     0
  0
CLASS
  1
MATERIAL
  2
AcDbMaterial
  3
ObjectDBX Classes
 90
     1153
280
     0
281
     0
  0
CLASS
  1
SCALE
  2
AcDbScale
  3
ObjectDBX Classes
 90
     1153
280
     0
281
     0
  0
CLASS
  1
TABLESTYLE
  2
AcDbTableStyle
  3
ObjectDBX Classes
 90
     4095
280
     0
281
     0
  0
CLASS
  1
MLEADERSTYLE
  2
AcDbMLeaderStyle
  3
ACDB_MLEADERSTYLE_CLASS
 90
     4095
280
     0
281
     0
  0
CLASS
  1
SUN
  2
AcDbSun
  3
SCENEOE
 90
     1153
280
     0
281
     0
  0
CLASS
  1
ACDBPLACEHOLDER
  2
AcDbPlaceHolder
  3
ObjectDBX Classes
 90
        0
280
     0
281
     0
  0
CLASS
  1
LAYOUT
  2
AcDbLayout
  3
ObjectDBX Classes
 90
        0
280
     0
281
     0
  0
ENDSEC
  0
SECTION
  2
TABLES
  0
TABLE
  2
VPORT
  5
8
330
0
100
AcDbSymbolTable
 70
     1
  0
VPORT
  5
29
330
8
100
AcDbSymbolTableRecord
100
AcDbViewportTableRecord
  2
*Active
 70
     0
 10
0.0
 20
0.0
 11
1.0
 21
1.0
 12
148.5
 22
105.0
 13
0.0
 23
0.0
 14
10.0
 24
10.0
 15
10.0
 25
10.0
 16
0.0
 26
0.0
 36
1.0
 17
0.0
 27
0.0
 37
0.0
 40
210.0
 41
1.4142857143
 42
50.0
 43
0.0
 44
0.0
 50
0.0
 51
0.0
 71
     0
 72
  2000
 73
     1
 74
     3
 75
     0
 76
     0
 77
     0
 78
     0
281
     0
 65
     1
110
0.0
120
0.0
130
0.0
111
1.0
121
0.0
131
0.0
112
0.0
122
1.0
132
0.0
 79
     0
146
0.0
  0
ENDTAB
  0
TABLE
  2
LTYPE
  5
5
330
0
100
AcDbSymbolTable
 70
     8
  0
LTYPE
  5
14
330
5
100
AcDbSymbolTableRecord
100
AcDbLinetypeTableRecord
  2
ByBlock
 70
     0
  3

 72
    65
 73
     0
 40
0.0
  0
LTYPE
  5
15
330
5
100
AcDbSymbolTableRecord
100
AcDbLinetypeTableRecord
  2
ByLayer
 70
     0
  3

 72
    65
 73
     0
 40
0.0
  0
LTYPE
  5
16
330
5
100
AcDbSymbolTableRecord
100
AcDbLinetypeTableRecord
  2
Continuous
 70
     0
  3
Solid line
 72
    65
 73
     0
 40
0.0
  0
LTYPE
  5
6E
330
5
100
AcDbSymbolTableRecord
100
AcDbLinetypeTableRecord
  2
SLD-Solid
 70
     0
  3
SolidWorks Line Style
 72
    65
 73
     0
 40
0.0
  0
LTYPE
  5
6F
330
5
100
AcDbSymbolTableRecord
100
AcDbLinetypeTableRecord
  2
SLD-Dashed
 70
     0
  3
SolidWorks Line Style
 72
    65
 73
     2
 40
1.905
 49
1.27
 74
     0
 49
-0.635
 74
     0
  0
LTYPE
  5
70
330
5
100
AcDbSymbolTableRecord
100
AcDbLinetypeTableRecord
  2
SLD-Phantom
 70
     0
  3
SolidWorks Line Style
 72
    65
 73
     6
 40
12.7
 49
6.35
 74
     0
 49
-1.27
 74
     0
 49
1.27
 74
     0
 49
-1.27
 74
     0
 49
1.27
 74
     0
 49
-1.27
 74
     0
  0
LTYPE
  5
71
330
5
100
AcDbSymbolTableRecord
100
AcDbLinetypeTableRecord
  2
SLD-Chain
 70
     0
  3
SolidWorks Line Style
 72
    65
 73
     4
 40
10.16
 49
6.35
 74
     0
 49
-1.27
 74
     0
 49
1.27
 74
     0
 49
-1.27
 74
     0
  0
LTYPE
  5
72
330
5
100
AcDbSymbolTableRecord
100
AcDbLinetypeTableRecord
  2
SLD-Center
 70
     0
  3
SolidWorks Line Style
 72
    65
 73
     4
 40
19.05
 49
15.24
 74
     0
 49
-1.27
 74
     0
 49
1.27
 74
     0
 49
-1.27
 74
     0
  0
LTYPE
  5
73
330
5
100
AcDbSymbolTableRecord
100
AcDbLinetypeTableRecord
  2
SLD-Stitch
 70
     0
  3
SolidWorks Line Style
 72
    65
 73
     2
 40
0.635
 49
0.0
 74
     0
 49
-0.635
 74
     0
  0
LTYPE
  5
74
330
5
100
AcDbSymbolTableRecord
100
AcDbLinetypeTableRecord
  2
SLD-Thin-Thick-Chain
 70
     0
  3
SolidWorks Line Style
 72
    65
 73
     4
 40
10.16
 49
6.35
 74
     0
 49
-1.27
 74
     0
 49
1.27
 74
     0
 49
-1.27
 74
     0
  0
ENDTAB
  0
TABLE
  2
LAYER
  5
2
330
0
100
AcDbSymbolTable
 70
    12
  0
LAYER
  5
10
330
2
100
AcDbSymbolTableRecord
100
AcDbLayerTableRecord
  2
0
 70
     0
 62
     7
  6
Continuous
370
    -3
390
F
  0
LAYER
  5
75
330
2
100
AcDbSymbolTableRecord
100
AcDbLayerTableRecord
  2
SLD-0
 70
     0
 62
   179
  6
SLD-Solid
370
    -3
390
F
  0
LAYER
  5
76
330
2
100
AcDbSymbolTableRecord
100
AcDbLayerTableRecord
  2
80
 70
     0
 62
    -6
  6
SLD-Solid
290
     0
370
    -3
390
F
  0
LAYER
  5
77
330
2
100
AcDbSymbolTableRecord
100
AcDbLayerTableRecord
  2
81
 70
     0
 62
    -3
  6
SLD-Solid
290
     0
370
    -3
390
F
  0
LAYER
  5
78
330
2
100
AcDbSymbolTableRecord
100
AcDbLayerTableRecord
  2
1
 70
     0
 62
     4
  6
SLD-Solid
290
     0
370
    -3
390
F
  0
LAYER
  5
79
330
2
100
AcDbSymbolTableRecord
100
AcDbLayerTableRecord
  2
4
 70
     0
 62
    -2
  6
SLD-Chain
290
     0
370
    -3
390
F
  0
LAYER
  5
7A
330
2
100
AcDbSymbolTableRecord
100
AcDbLayerTableRecord
  2
2
 70
     0
 62
     7
  6
SLD-Solid
290
     0
370
    -3
390
F
  0
LAYER
  5
7B
330
2
100
AcDbSymbolTableRecord
100
AcDbLayerTableRecord
  2
SK3
 70
     0
 62
     1
  6
SLD-Dashed
290
     0
370
    -3
390
F
  0
LAYER
  5
7C
330
2
100
AcDbSymbolTableRecord
100
AcDbLayerTableRecord
  2
SK4
 70
     0
 62
     2
  6
SLD-Chain
290
     0
370
    -3
390
F
  0
LAYER
  5
7D
330
2
100
AcDbSymbolTableRecord
100
AcDbLayerTableRecord
  2
SK2
 70
     0
 62
     7
  6
SLD-Solid
290
     0
370
    -3
390
F
  0
LAYER
  5
7E
330
2
100
AcDbSymbolTableRecord
100
AcDbLayerTableRecord
  2
SK6
 70
     0
 62
     5
  6
SLD-Solid
290
     0
370
    -3
390
F
  0
LAYER
  5
7F
330
2
100
AcDbSymbolTableRecord
100
AcDbLayerTableRecord
  2
SK1
 70
     0
 62
     4
  6
SLD-Solid
370
    -3
390
F
  0
ENDTAB
  0
TABLE
  2
STYLE
  5
3
330
0
100
AcDbSymbolTable
 70
     2
  0
STYLE
  5
11
330
3
100
AcDbSymbolTableRecord
100
AcDbTextStyleTableRecord
  2
Standard
 70
     0
 40
0.0
 41
1.0
 50
0.0
 71
     0
 42
3.5
  3
txt
  4

  0
STYLE
  5
2EA
330
3
100
AcDbSymbolTableRecord
100
AcDbTextStyleTableRecord
  2
SLDTEXTSTYLE0
 70
     0
 40
0.0
 41
0.75
 50
0.0
 71
     0
 42
3.5
  3
TXT
  4

  0
ENDTAB
  0
TABLE
  2
VIEW
  5
6
330
0
100
AcDbSymbolTable
 70
     0
  0
ENDTAB
  0
TABLE
  2
UCS
  5
7
330
0
100
AcDbSymbolTable
 70
     0
  0
ENDTAB
  0
TABLE
  2
APPID
  5
9
330
0
100
AcDbSymbolTable
 70
     1
  0
APPID
  5
12
330
9
100
AcDbSymbolTableRecord
100
AcDbRegAppTableRecord
  2
ACAD
 70
     0
  0
ENDTAB
  0
TABLE
  2
DIMSTYLE
  5
A
330
0
100
AcDbSymbolTable
 70
     3
100
AcDbDimStyleTable
  0
DIMSTYLE
105
27
330
A
100
AcDbSymbolTableRecord
100
AcDbDimStyleTableRecord
  2
ISO-25
 70
     0
 41
2.5
 42
0.625
 43
3.75
 44
1.25
 73
     0
 74
     0
 77
     1
 78
     8
140
2.5
141
2.5
143
0.0393700787
147
0.625
171
     3
172
     1
178
     0
271
     2
272
     2
274
     3
278
    44
283
     0
284
     8
340
11
  0
DIMSTYLE
105
2EB
102
{ACAD_REACTORS
330
2E9
330
2F5
330
2FF
330
309
330
313
330
31E
330
337
330
341
330
34B
330
356
330
361
102
}
330
A
100
AcDbSymbolTableRecord
100
AcDbDimStyleTableRecord
  2
SLDDIMSTYLE0
 70
     0
 41
3.302
 44
0.0
 45
0.000000001
 73
     0
 74
     0
 77
     1
 78
    12
 79
     3
140
3.5
147
0.875
173
     1
178
     0
271
     2
272
     2
276
     2
284
    12
340
2EA
  0
DIMSTYLE
105
32A
102
{ACAD_REACTORS
330
329
102
}
330
A
100
AcDbSymbolTableRecord
100
AcDbDimStyleTableRecord
  2
SLDDIMSTYLE1
 70
     0
 41
3.302
 44
0.0
 45
0.000000001
 73
     0
 74
     0
 77
     1
 78
    12
 79
     3
140
3.5
147
0.875
172
     1
173
     1
178
     0
271
     2
272
     2
276
     2
284
    12
289
     0
340
2EA
  0
ENDTAB
  0
TABLE
  2
BLOCK_RECORD
  5
1
330
0
100
AcDbSymbolTable
 70
    16
  0
BLOCK_RECORD
  5
1F
330
1
100
AcDbSymbolTableRecord
100
AcDbBlockTableRecord
  2
*Model_Space
340
22
  0
BLOCK_RECORD
  5
1B
330
1
100
AcDbSymbolTableRecord
100
AcDbBlockTableRecord
  2
*Paper_Space
340
1E
  0
BLOCK_RECORD
  5
23
330
1
100
AcDbSymbolTableRecord
100
AcDbBlockTableRecord
  2
*Paper_Space0
340
26
  0
BLOCK_RECORD
  5
80
330
1
100
AcDbSymbolTableRecord
100
AcDbBlockTableRecord
  2
Block11
340
0
102
{BLKREFS
331
2E7
102
}
  0
BLOCK_RECORD
  5
89
330
1
100
AcDbSymbolTableRecord
100
AcDbBlockTableRecord
  2
Block12
340
0
102
{BLKREFS
331
2E8
102
}
  0
BLOCK_RECORD
  5
2EC
330
1
100
AcDbSymbolTableRecord
100
AcDbBlockTableRecord
  2
_D
340
0
  0
BLOCK_RECORD
  5
2F6
330
1
100
AcDbSymbolTableRecord
100
AcDbBlockTableRecord
  2
_D_1
340
0
  0
BLOCK_RECORD
  5
300
330
1
100
AcDbSymbolTableRecord
100
AcDbBlockTableRecord
  2
_D_2
340
0
  0
BLOCK_RECORD
  5
30A
330
1
100
AcDbSymbolTableRecord
100
AcDbBlockTableRecord
  2
_D_3
340
0
  0
BLOCK_RECORD
  5
314
330
1
100
AcDbSymbolTableRecord
100
AcDbBlockTableRecord
  2
_D_4
340
0
  0
BLOCK_RECORD
  5
31F
330
1
100
AcDbSymbolTableRecord
100
AcDbBlockTableRecord
  2
_D_5
340
0
  0
BLOCK_RECORD
  5
32B
330
1
100
AcDbSymbolTableRecord
100
AcDbBlockTableRecord
  2
_D_6
340
0
  0
BLOCK_RECORD
  5
338
330
1
100
AcDbSymbolTableRecord
100
AcDbBlockTableRecord
  2
_D_7
340
0
  0
BLOCK_RECORD
  5
342
330
1
100
AcDbSymbolTableRecord
100
AcDbBlockTableRecord
  2
_D_8
340
0
  0
BLOCK_RECORD
  5
34C
330
1
100
AcDbSymbolTableRecord
100
AcDbBlockTableRecord
  2
_D_9
340
0
  0
BLOCK_RECORD
  5
357
330
1
100
AcDbSymbolTableRecord
100
AcDbBlockTableRecord
  2
_D_10
340
0
  0
BLOCK_RECORD
  5
362
330
1
100
AcDbSymbolTableRecord
100
AcDbBlockTableRecord
  2
_D_11
340
0
  0
BLOCK_RECORD
  5
36D
330
1
100
AcDbSymbolTableRecord
100
AcDbBlockTableRecord
  2
SW_NOTE_0
340
0
102
{BLKREFS
331
372
102
}
  0
ENDTAB
  0
ENDSEC
  0
SECTION
  2
BLOCKS
  0
BLOCK
  5
20
330
1F
100
AcDbEntity
  8
0
100
AcDbBlockBegin
  2
*Model_Space
 70
     0
 10
0.0
 20
0.0
 30
0.0
  3
*Model_Space
  1

  0
ENDBLK
  5
21
330
1F
100
AcDbEntity
  8
0
100
AcDbBlockEnd
  0
BLOCK
  5
1C
330
1B
100
AcDbEntity
 67
     1
  8
0
100
AcDbBlockBegin
  2
*Paper_Space
 70
     0
 10
0.0
 20
0.0
 30
0.0
  3
*Paper_Space
  1

  0
ENDBLK
  5
1D
330
1B
100
AcDbEntity
 67
     1
  8
0
100
AcDbBlockEnd
  0
BLOCK
  5
24
330
23
100
AcDbEntity
  8
0
100
AcDbBlockBegin
  2
*Paper_Space0
 70
     0
 10
0.0
 20
0.0
 30
0.0
  3
*Paper_Space0
  1

  0
ENDBLK
  5
25
330
23
100
AcDbEntity
  8
0
100
AcDbBlockEnd
  0
BLOCK
  5
81
330
80
100
AcDbEntity
  8
0
100
AcDbBlockBegin
  2
Block11
 70
     0
 10
0.0
 20
0.0
 30
0.0
  3
Block11
  1

  0
CIRCLE
  5
83
330
80
100
AcDbEntity
  8
81
370
    18
100
AcDbCircle
 10
91.6264826505
 20
130.2676275275
 30
0.0
 40
2.499999999999981
  0
LINE
  5
84
330
80
100
AcDbEntity
  8
81
370
    18
100
AcDbLine
 10
91.6264826505
 20
130.2676275275
 30
0.0
 11
95.1620165565
 21
133.8031614334
 31
0.0
  0
LINE
  5
85
330
80
100
AcDbEntity
  8
81
370
    18
100
AcDbLine
 10
91.6264826505
 20
130.2676275275
 30
0.0
 11
88.0909487446
 21
126.7320936216
 31
0.0
  0
LINE
  5
86
330
80
100
AcDbEntity
  8
81
370
    18
100
AcDbLine
 10
91.6264826505
 20
130.2676275275
 30
0.0
 11
88.0909487446
 21
133.8031614334
 31
0.0
  0
LINE
  5
87
330
80
100
AcDbEntity
  8
81
100
AcDbLine
 10
91.6264826505
 20
130.2676275275
 30
0.0
 11
101.6264826505
 21
130.2676275275
 31
0.0
  0
LINE
  5
88
330
80
100
AcDbEntity
  8
81
370
    18
100
AcDbLine
 10
91.6264826505
 20
130.2676275275
 30
0.0
 11
95.1620165565
 21
126.7320936216
 31
0.0
  0
ENDBLK
  5
82
330
80
100
AcDbEntity
  8
0
100
AcDbBlockEnd
  0
BLOCK
  5
8A
330
89
100
AcDbEntity
  8
0
100
AcDbBlockBegin
  2
Block12
 70
     0
 10
0.0
 20
0.0
 30
0.0
  3
Block12
  1

  0
CIRCLE
  5
8C
330
89
100
AcDbEntity
  8
80
370
    18
100
AcDbCircle
 10
61.7273641656
 20
130.3356800267
 30
0.0
 40
2.500000000000004
  0
LINE
  5
8D
330
89
100
AcDbEntity
  8
80
370
    18
100
AcDbLine
 10
61.7273641656
 20
130.3356800267
 30
0.0
 11
65.2628980715
 21
133.8712139326
 31
0.0
  0
LINE
  5
8E
330
89
100
AcDbEntity
  8
80
370
    18
100
AcDbLine
 10
61.7273641656
 20
130.3356800267
 30
0.0
 11
58.1918302597
 21
126.8001461208
 31
0.0
  0
LINE
  5
8F
330
89
100
AcDbEntity
  8
80
370
    18
100
AcDbLine
 10
61.7273641656
 20
130.3356800267
 30
0.0
 11
58.1918302597
 21
133.8712139326
 31
0.0
  0
LINE
  5
90
330
89
100
AcDbEntity
  8
80
370
    18
100
AcDbLine
 10
61.7273641656
 20
130.3356800267
 30
0.0
 11
51.7273641656
 21
130.3356800267
 31
0.0
  0
LINE
  5
91
330
89
100
AcDbEntity
  8
80
370
    18
100
AcDbLine
 10
61.7273641656
 20
130.3356800267
 30
0.0
 11
65.2628980715
 21
126.8001461208
 31
0.0
  0
ENDBLK
  5
8B
330
89
100
AcDbEntity
  8
0
100
AcDbBlockEnd
  0
BLOCK
  5
2ED
330
2EC
100
AcDbEntity
  8
0
100
AcDbBlockBegin
  2
_D
 70
     0
 10
0.0
 20
0.0
 30
0.0
  3
_D
  1

  0
SOLID
  5
2EF
330
2EC
100
AcDbEntity
  8
SK2
100
AcDbTrace
 10
0.0
 20
39.0801382643
 30
0.0
 11
3.302
 21
38.5721382643
 31
0.0
 12
3.302
 22
39.5881382643
 32
0.0
 13
3.302
 23
39.5881382643
 33
0.0
  0
SOLID
  5
2F0
330
2EC
100
AcDbEntity
  8
SK2
100
AcDbTrace
 10
19.05
 20
39.0801382643
 30
0.0
 11
15.748
 21
39.5881382643
 31
0.0
 12
15.748
 22
38.5721382643
 32
0.0
 13
15.748
 23
38.5721382643
 33
0.0
  0
LINE
  5
2F1
330
2EC
100
AcDbEntity
  8
SK2
100
AcDbLine
 10
0.0
 20
23.225
 30
0.0
 11
0.0
 21
40.0801382643
 31
0.0
  0
LINE
  5
2F2
330
2EC
100
AcDbEntity
  8
SK2
100
AcDbLine
 10
19.05
 20
32.0
 30
0.0
 11
19.05
 21
40.0801382643
 31
0.0
  0
LINE
  5
2F3
330
2EC
100
AcDbEntity
  8
SK2
100
AcDbLine
 10
0.0
 20
39.0801382643
 30
0.0
 11
19.05
 21
39.0801382643
 31
0.0
  0
MTEXT
  5
2F4
330
2EC
100
AcDbEntity
  8
SK2
100
AcDbMText
 10
2.9162255843
 20
43.5918751788
 30
0.0
 40
3.5
 41
0.0
 71
     1
 72
     1
  1
19,05
  7
SLDTEXTSTYLE0
 73
     1
 44
1.0
  0
ENDBLK
  5
2EE
330
2EC
100
AcDbEntity
  8
0
100
AcDbBlockEnd
  0
BLOCK
  5
2F7
330
2F6
100
AcDbEntity
  8
0
100
AcDbBlockBegin
  2
_D_1
 70
     0
 10
0.0
 20
0.0
 30
0.0
  3
_D_1
  1

  0
SOLID
  5
2F9
330
2F6
100
AcDbEntity
  8
SK2
100
AcDbTrace
 10
19.05
 20
39.0801382643
 30
0.0
 11
22.352
 21
38.5721382643
 31
0.0
 12
22.352
 22
39.5881382643
 32
0.0
 13
22.352
 23
39.5881382643
 33
0.0
  0
SOLID
  5
2FA
330
2F6
100
AcDbEntity
  8
SK2
100
AcDbTrace
 10
50.0
 20
39.0801382643
 30
0.0
 11
46.698
 21
39.5881382643
 31
0.0
 12
46.698
 22
38.5721382643
 32
0.0
 13
46.698
 23
38.5721382643
 33
0.0
  0
LINE
  5
2FB
330
2F6
100
AcDbEntity
  8
SK2
100
AcDbLine
 10
19.05
 20
32.0
 30
0.0
 11
19.05
 21
40.0801382643
 31
0.0
  0
LINE
  5
2FC
330
2F6
100
AcDbEntity
  8
SK2
100
AcDbLine
 10
50.0
 20
14.4944465005
 30
0.0
 11
50.0
 21
40.0801382643
 31
0.0
  0
LINE
  5
2FD
330
2F6
100
AcDbEntity
  8
SK2
100
AcDbLine
 10
19.05
 20
39.0801382643
 30
0.0
 11
50.0
 21
39.0801382643
 31
0.0
  0
MTEXT
  5
2FE
330
2F6
100
AcDbEntity
  8
SK2
100
AcDbMText
 10
29.0195325161
 20
43.5918751788
 30
0.0
 40
3.5
 41
0.0
 71
     1
 72
     1
  1
30,95
  7
SLDTEXTSTYLE0
 73
     1
 44
1.0
  0
ENDBLK
  5
2F8
330
2F6
100
AcDbEntity
  8
0
100
AcDbBlockEnd
  0
BLOCK
  5
301
330
300
100
AcDbEntity
  8
0
100
AcDbBlockBegin
  2
_D_2
 70
     0
 10
0.0
 20
0.0
 30
0.0
  3
_D_2
  1

  0
SOLID
  5
303
330
300
100
AcDbEntity
  8
2
100
AcDbTrace
 10
0.0
 20
47.4671213579
 30
0.0
 11
3.302
 21
46.9591213579
 31
0.0
 12
3.302
 22
47.9751213579
 32
0.0
 13
3.302
 23
47.9751213579
 33
0.0
  0
SOLID
  5
304
330
300
100
AcDbEntity
  8
2
100
AcDbTrace
 10
50.0
 20
47.4671213579
 30
0.0
 11
46.698
 21
47.9751213579
 31
0.0
 12
46.698
 22
46.9591213579
 32
0.0
 13
46.698
 23
46.9591213579
 33
0.0
  0
LINE
  5
305
330
300
100
AcDbEntity
  8
2
100
AcDbLine
 10
0.0
 20
23.225
 30
0.0
 11
0.0
 21
48.4671213579
 31
0.0
  0
LINE
  5
306
330
300
100
AcDbEntity
  8
2
100
AcDbLine
 10
50.0
 20
14.4944465005
 30
0.0
 11
50.0
 21
48.4671213579
 31
0.0
  0
LINE
  5
307
330
300
100
AcDbEntity
  8
2
100
AcDbLine
 10
0.0
 20
47.4671213579
 30
0.0
 11
50.0
 21
47.4671213579
 31
0.0
  0
MTEXT
  5
308
330
300
100
AcDbEntity
  8
2
100
AcDbMText
 10
22.7343592914
 20
51.9788582725
 30
0.0
 40
3.5
 41
0.0
 71
     1
 72
     1
  1
50
  7
SLDTEXTSTYLE0
 73
     1
 44
1.0
  0
ENDBLK
  5
302
330
300
100
AcDbEntity
  8
0
100
AcDbBlockEnd
  0
BLOCK
  5
30B
330
30A
100
AcDbEntity
  8
0
100
AcDbBlockBegin
  2
_D_3
 70
     0
 10
0.0
 20
0.0
 30
0.0
  3
_D_3
  1

  0
SOLID
  5
30D
330
30A
100
AcDbEntity
  8
SK2
100
AcDbTrace
 10
50.0
 20
30.6931551706
 30
0.0
 11
46.698
 21
31.2011551706
 31
0.0
 12
46.698
 22
30.1851551706
 32
0.0
 13
46.698
 23
30.1851551706
 33
0.0
  0
SOLID
  5
30E
330
30A
100
AcDbEntity
  8
SK2
100
AcDbTrace
 10
37.0
 20
30.6931551706
 30
0.0
 11
40.302
 21
30.1851551706
 31
0.0
 12
40.302
 22
31.2011551706
 32
0.0
 13
40.302
 23
31.2011551706
 33
0.0
  0
LINE
  5
30F
330
30A
100
AcDbEntity
  8
SK2
100
AcDbLine
 10
50.0
 20
14.4944465005
 30
0.0
 11
50.0
 21
31.6931551706
 31
0.0
  0
LINE
  5
310
330
30A
100
AcDbEntity
  8
SK2
100
AcDbLine
 10
37.0
 20
22.0
 30
0.0
 11
37.0
 21
31.6931551706
 31
0.0
  0
LINE
  5
311
330
30A
100
AcDbEntity
  8
SK2
100
AcDbLine
 10
50.0
 20
30.6931551706
 30
0.0
 11
37.0
 21
30.6931551706
 31
0.0
  0
MTEXT
  5
312
330
30A
100
AcDbEntity
  8
SK2
100
AcDbMText
 10
40.2622115995
 20
35.2048920852
 30
0.0
 40
3.5
 41
0.0
 71
     1
 72
     1
  1
13
  7
SLDTEXTSTYLE0
 73
     1
 44
1.0
  0
ENDBLK
  5
30C
330
30A
100
AcDbEntity
  8
0
100
AcDbBlockEnd
  0
BLOCK
  5
315
330
314
100
AcDbEntity
  8
0
100
AcDbBlockBegin
  2
_D_4
 70
     0
 10
0.0
 20
0.0
 30
0.0
  3
_D_4
  1

  0
SOLID
  5
317
330
314
100
AcDbEntity
  8
SK2
100
AcDbTrace
 10
88.0923085764
 20
-21.0
 30
0.0
 11
88.6003085764
 21
-17.698
 31
0.0
 12
87.5843085764
 22
-17.698
 32
0.0
 13
87.5843085764
 23
-17.698
 33
0.0
  0
SOLID
  5
318
330
314
100
AcDbEntity
  8
SK2
100
AcDbTrace
 10
88.0923085764
 20
21.0
 30
0.0
 11
87.5843085764
 21
17.698
 31
0.0
 12
88.6003085764
 22
17.698
 32
0.0
 13
88.6003085764
 23
17.698
 33
0.0
  0
LINE
  5
319
330
314
100
AcDbEntity
  8
SK2
100
AcDbLine
 10
38.0
 20
-21.0
 30
0.0
 11
89.0923085764
 21
-21.0
 31
0.0
  0
LINE
  5
31A
330
314
100
AcDbEntity
  8
SK2
100
AcDbLine
 10
38.0
 20
21.0
 30
0.0
 11
89.0923085764
 21
21.0
 31
0.0
  0
LINE
  5
31B
330
314
100
AcDbEntity
  8
SK2
100
AcDbLine
 10
88.0923085764
 20
-21.0
 30
0.0
 11
88.0923085764
 21
21.0
 31
0.0
  0
MTEXT
  5
31C
330
314
100
AcDbEntity
  8
SK2
100
AcDbMText
 10
83.5805714872
 20
-5.5928029992
 30
0.0
 40
3.5
 41
0.0
 71
     1
 72
     1
  1
%%c
  7
SLDTEXTSTYLE0
 11
6.123233995736766E-17
 21
1.0
 31
0.0
 73
     1
 44
1.0
  0
MTEXT
  5
31D
330
314
100
AcDbEntity
  8
SK2
100
AcDbMText
 10
83.5270993105
 20
-0.3143656008
 30
0.0
 40
3.5
 41
0.0
 71
     1
 72
     1
  1
42
  7
SLDTEXTSTYLE0
 11
6.123233995736766E-17
 21
1.0
 31
0.0
 73
     1
 44
1.0
  0
ENDBLK
  5
316
330
314
100
AcDbEntity
  8
0
100
AcDbBlockEnd
  0
BLOCK
  5
320
330
31F
100
AcDbEntity
  8
0
100
AcDbBlockBegin
  2
_D_5
 70
     0
 10
0.0
 20
0.0
 30
0.0
  3
_D_5
  1

  0
SOLID
  5
322
330
31F
100
AcDbEntity
  8
SK2
100
AcDbTrace
 10
77.6949448682
 20
-13.4944465005
 30
0.0
 11
78.2029448682
 21
-10.1924465005
 31
0.0
 12
77.1869448682
 22
-10.1924465005
 32
0.0
 13
77.1869448682
 23
-10.1924465005
 33
0.0
  0
SOLID
  5
323
330
31F
100
AcDbEntity
  8
SK2
100
AcDbTrace
 10
77.6949448682
 20
13.4944465005
 30
0.0
 11
77.1869448682
 21
10.1924465005
 31
0.0
 12
78.2029448682
 22
10.1924465005
 32
0.0
 13
78.2029448682
 23
10.1924465005
 33
0.0
  0
LINE
  5
324
330
31F
100
AcDbEntity
  8
SK2
100
AcDbLine
 10
51.0
 20
-13.4944465005
 30
0.0
 11
78.6949448682
 21
-13.4944465005
 31
0.0
  0
LINE
  5
325
330
31F
100
AcDbEntity
  8
SK2
100
AcDbLine
 10
51.0
 20
13.4944465005
 30
0.0
 11
78.6949448682
 21
13.4944465005
 31
0.0
  0
LINE
  5
326
330
31F
100
AcDbEntity
  8
SK2
100
AcDbLine
 10
77.6949448682
 20
-13.4944465005
 30
0.0
 11
77.6949448682
 21
13.4944465005
 31
0.0
  0
MTEXT
  5
327
330
31F
100
AcDbEntity
  8
SK2
100
AcDbMText
 10
73.183207779
 20
-5.5928029992
 30
0.0
 40
3.5
 41
0.0
 71
     1
 72
     1
  1
%%c
  7
SLDTEXTSTYLE0
 11
6.123233995736766E-17
 21
1.0
 31
0.0
 73
     1
 44
1.0
  0
MTEXT
  5
328
330
31F
100
AcDbEntity
  8
SK2
100
AcDbMText
 10
73.1297356023
 20
-0.3143656008
 30
0.0
 40
3.5
 41
0.0
 71
     1
 72
     1
  1
27
  7
SLDTEXTSTYLE0
 11
6.123233995736766E-17
 21
1.0
 31
0.0
 73
     1
 44
1.0
  0
ENDBLK
  5
321
330
31F
100
AcDbEntity
  8
0
100
AcDbBlockEnd
  0
BLOCK
  5
32C
330
32B
100
AcDbEntity
  8
0
100
AcDbBlockBegin
  2
_D_6
 70
     0
 10
0.0
 20
0.0
 30
0.0
  3
_D_6
  1

  0
SOLID
  5
32E
330
32B
100
AcDbEntity
  8
SK2
100
AcDbTrace
 10
68.1003067229
 20
6.0
 30
0.0
 11
68.6083067229
 21
9.302
 31
0.0
 12
67.5923067229
 22
9.302
 32
0.0
 13
67.5923067229
 23
9.302
 33
0.0
  0
SOLID
  5
32F
330
32B
100
AcDbEntity
  8
SK2
100
AcDbTrace
 10
68.1003067229
 20
-6.0
 30
0.0
 11
67.5923067229
 21
-9.302
 31
0.0
 12
68.6083067229
 22
-9.302
 32
0.0
 13
68.6083067229
 23
-9.302
 33
0.0
  0
LINE
  5
330
330
32B
100
AcDbEntity
  8
SK2
100
AcDbLine
 10
50.0
 20
6.0
 30
0.0
 11
69.1003067229
 21
6.0
 31
0.0
  0
LINE
  5
331
330
32B
100
AcDbEntity
  8
SK2
100
AcDbLine
 10
50.0
 20
-6.0
 30
0.0
 11
69.1003067229
 21
-6.0
 31
0.0
  0
LINE
  5
332
330
32B
100
AcDbEntity
  8
SK2
100
AcDbLine
 10
68.1003067229
 20
6.0
 30
0.0
 11
68.1003067229
 21
12.35
 31
0.0
  0
LINE
  5
333
330
32B
100
AcDbEntity
  8
SK2
100
AcDbLine
 10
68.1003067229
 20
6.0
 30
0.0
 11
68.1003067229
 21
-6.0
 31
0.0
  0
LINE
  5
334
330
32B
100
AcDbEntity
  8
SK2
100
AcDbLine
 10
68.1003067229
 20
-6.0
 30
0.0
 11
68.1003067229
 21
-12.35
 31
0.0
  0
MTEXT
  5
335
330
32B
100
AcDbEntity
  8
SK2
100
AcDbMText
 10
63.5885696337
 20
-5.5928029992
 30
0.0
 40
3.5
 41
0.0
 71
     1
 72
     1
  1
%%c
  7
SLDTEXTSTYLE0
 11
-7.044195017643634E-15
 21
1.0
 31
0.0
 73
     1
 44
1.0
  0
MTEXT
  5
336
330
32B
100
AcDbEntity
  8
SK2
100
AcDbMText
 10
63.535097457
 20
-0.3143656008
 30
0.0
 40
3.5
 41
0.0
 71
     1
 72
     1
  1
12
  7
SLDTEXTSTYLE0
 11
-7.044195017643634E-15
 21
1.0
 31
0.0
 73
     1
 44
1.0
  0
ENDBLK
  5
32D
330
32B
100
AcDbEntity
  8
0
100
AcDbBlockEnd
  0
BLOCK
  5
339
330
338
100
AcDbEntity
  8
0
100
AcDbBlockBegin
  2
_D_7
 70
     0
 10
0.0
 20
0.0
 30
0.0
  3
_D_7
  1

  0
SOLID
  5
33B
330
338
100
AcDbEntity
  8
SK2
100
AcDbTrace
 10
27.5
 20
-31.2354122831
 30
0.0
 11
30.802
 21
-31.7434122831
 31
0.0
 12
30.802
 22
-30.7274122831
 32
0.0
 13
30.802
 23
-30.7274122831
 33
0.0
  0
SOLID
  5
33C
330
338
100
AcDbEntity
  8
SK2
100
AcDbTrace
 10
50.0
 20
-31.2354122831
 30
0.0
 11
46.698
 21
-30.7274122831
 31
0.0
 12
46.698
 22
-31.7434122831
 32
0.0
 13
46.698
 23
-31.7434122831
 33
0.0
  0
LINE
  5
33D
330
338
100
AcDbEntity
  8
SK2
100
AcDbLine
 10
27.5
 20
-20.4
 30
0.0
 11
27.5
 21
-32.2354122831
 31
0.0
  0
LINE
  5
33E
330
338
100
AcDbEntity
  8
SK2
100
AcDbLine
 10
50.0
 20
-14.4944465005
 30
0.0
 11
50.0
 21
-32.2354122831
 31
0.0
  0
LINE
  5
33F
330
338
100
AcDbEntity
  8
SK2
100
AcDbLine
 10
27.5
 20
-31.2354122831
 30
0.0
 11
50.0
 21
-31.2354122831
 31
0.0
  0
MTEXT
  5
340
330
338
100
AcDbEntity
  8
SK2
100
AcDbMText
 10
34.7468928708
 20
-26.7236753685
 30
0.0
 40
3.5
 41
0.0
 71
     1
 72
     1
  1
22,5
  7
SLDTEXTSTYLE0
 73
     1
 44
1.0
  0
ENDBLK
  5
33A
330
338
100
AcDbEntity
  8
0
100
AcDbBlockEnd
  0
BLOCK
  5
343
330
342
100
AcDbEntity
  8
0
100
AcDbBlockBegin
  2
_D_8
 70
     0
 10
0.0
 20
0.0
 30
0.0
  3
_D_8
  1

  0
SOLID
  5
345
330
342
100
AcDbEntity
  8
SK2
100
AcDbTrace
 10
50.0
 20
-40.2304415738
 30
0.0
 11
46.698
 21
-39.7224415738
 31
0.0
 12
46.698
 22
-40.7384415738
 32
0.0
 13
46.698
 23
-40.7384415738
 33
0.0
  0
SOLID
  5
346
330
342
100
AcDbEntity
  8
SK2
100
AcDbTrace
 10
10.350830576
 20
-40.2304415738
 30
0.0
 11
13.652830576
 21
-40.7384415738
 31
0.0
 12
13.652830576
 22
-39.7224415738
 32
0.0
 13
13.652830576
 23
-39.7224415738
 33
0.0
  0
LINE
  5
347
330
342
100
AcDbEntity
  8
SK2
100
AcDbLine
 10
50.0
 20
-14.4944465005
 30
0.0
 11
50.0
 21
-41.2304415738
 31
0.0
  0
LINE
  5
348
330
342
100
AcDbEntity
  8
SK2
100
AcDbLine
 10
10.350830576
 20
-7.0
 30
0.0
 11
10.350830576
 21
-41.2304415738
 31
0.0
  0
LINE
  5
349
330
342
100
AcDbEntity
  8
SK2
100
AcDbLine
 10
50.0
 20
-40.2304415738
 30
0.0
 11
10.350830576
 21
-40.2304415738
 31
0.0
  0
MTEXT
  5
34A
330
342
100
AcDbEntity
  8
SK2
100
AcDbMText
 10
23.0931118713
 20
-35.7187046593
 30
0.0
 40
3.5
 41
0.0
 71
     1
 72
     1
  1
39,65
  7
SLDTEXTSTYLE0
 73
     1
 44
1.0
  0
ENDBLK
  5
344
330
342
100
AcDbEntity
  8
0
100
AcDbBlockEnd
  0
BLOCK
  5
34D
330
34C
100
AcDbEntity
  8
0
100
AcDbBlockBegin
  2
_D_9
 70
     0
 10
0.0
 20
0.0
 30
0.0
  3
_D_9
  1

  0
SOLID
  5
34F
330
34C
100
AcDbEntity
  8
SK2
100
AcDbTrace
 10
-86.65350941
 20
-22.225
 30
0.0
 11
-86.14550941
 21
-18.923
 31
0.0
 12
-87.16150941
 22
-18.923
 32
0.0
 13
-87.16150941
 23
-18.923
 33
0.0
  0
SOLID
  5
350
330
34C
100
AcDbEntity
  8
SK2
100
AcDbTrace
 10
-86.65350941
 20
22.225
 30
0.0
 11
-87.16150941
 21
18.923
 31
0.0
 12
-86.14550941
 22
18.923
 32
0.0
 13
-86.14550941
 23
18.923
 33
0.0
  0
LINE
  5
351
330
34C
100
AcDbEntity
  8
SK2
100
AcDbLine
 10
-1.0
 20
-22.225
 30
0.0
 11
-87.65350941
 21
-22.225
 31
0.0
  0
LINE
  5
352
330
34C
100
AcDbEntity
  8
SK2
100
AcDbLine
 10
-1.0
 20
22.225
 30
0.0
 11
-87.65350941
 21
22.225
 31
0.0
  0
LINE
  5
353
330
34C
100
AcDbEntity
  8
SK2
100
AcDbLine
 10
-86.65350941
 20
-22.225
 30
0.0
 11
-86.65350941
 21
22.225
 31
0.0
  0
MTEXT
  5
354
330
34C
100
AcDbEntity
  8
SK2
100
AcDbMText
 10
-91.1652464992
 20
-9.2875473939
 30
0.0
 40
3.5
 41
0.0
 71
     1
 72
     1
  1
%%c
  7
SLDTEXTSTYLE0
 11
6.123233995736766E-17
 21
1.0
 31
0.0
 73
     1
 44
1.0
  0
MTEXT
  5
355
330
34C
100
AcDbEntity
  8
SK2
100
AcDbMText
 10
-91.2187186759
 20
-4.0091099955
 30
0.0
 40
3.5
 41
0.0
 71
     1
 72
     1
  1
44,45
  7
SLDTEXTSTYLE0
 11
6.123233995736766E-17
 21
1.0
 31
0.0
 73
     1
 44
1.0
  0
ENDBLK
  5
34E
330
34C
100
AcDbEntity
  8
0
100
AcDbBlockEnd
  0
BLOCK
  5
358
330
357
100
AcDbEntity
  8
0
100
AcDbBlockBegin
  2
_D_10
 70
     0
 10
0.0
 20
0.0
 30
0.0
  3
_D_10
  1

  0
SOLID
  5
35A
330
357
100
AcDbEntity
  8
SK2
100
AcDbTrace
 10
-75.9781534261
 20
-8.00000038
 30
0.0
 11
-75.4701534261
 21
-4.69800038
 31
0.0
 12
-76.4861534261
 22
-4.69800038
 32
0.0
 13
-76.4861534261
 23
-4.69800038
 33
0.0
  0
SOLID
  5
35B
330
357
100
AcDbEntity
  8
SK2
100
AcDbTrace
 10
-75.9781534261
 20
8.00000038
 30
0.0
 11
-76.4861534261
 21
4.69800038
 31
0.0
 12
-75.4701534261
 22
4.69800038
 32
0.0
 13
-75.4701534261
 23
4.69800038
 33
0.0
  0
LINE
  5
35C
330
357
100
AcDbEntity
  8
SK2
100
AcDbLine
 10
-58.2881214321
 20
-8.00000038
 30
0.0
 11
-76.9781534261
 21
-8.00000038
 31
0.0
  0
LINE
  5
35D
330
357
100
AcDbEntity
  8
SK2
100
AcDbLine
 10
-58.2881214321
 20
8.00000038
 30
0.0
 11
-76.9781534261
 21
8.00000038
 31
0.0
  0
LINE
  5
35E
330
357
100
AcDbEntity
  8
SK2
100
AcDbLine
 10
-75.9781534261
 20
-8.00000038
 30
0.0
 11
-75.9781534261
 21
8.00000038
 31
0.0
  0
MTEXT
  5
35F
330
357
100
AcDbEntity
  8
SK2
100
AcDbMText
 10
-80.4898903407
 20
-4.3642175686
 30
0.0
 40
3.5
 41
0.0
 71
     1
 72
     1
  1
M
  7
SLDTEXTSTYLE0
 11
3.169856808907806E-15
 21
1.0
 31
0.0
 73
     1
 44
1.0
  0
MTEXT
  5
360
330
357
100
AcDbEntity
  8
SK2
100
AcDbMText
 10
-80.4898903407
 20
-0.0767176341
 30
0.0
 40
3.5
 41
0.0
 71
     1
 72
     1
  1
16
  7
SLDTEXTSTYLE0
 11
3.169856808907806E-15
 21
1.0
 31
0.0
 73
     1
 44
1.0
  0
ENDBLK
  5
359
330
357
100
AcDbEntity
  8
0
100
AcDbBlockEnd
  0
BLOCK
  5
363
330
362
100
AcDbEntity
  8
0
100
AcDbBlockBegin
  2
_D_11
 70
     0
 10
0.0
 20
0.0
 30
0.0
  3
_D_11
  1

  0
SOLID
  5
365
330
362
100
AcDbEntity
  8
SK2
100
AcDbTrace
 10
-97.7901896471
 20
31.75
 30
0.0
 11
-98.2981896471
 21
28.448
 31
0.0
 12
-97.2821896471
 22
28.448
 32
0.0
 13
-97.2821896471
 23
28.448
 33
0.0
  0
SOLID
  5
366
330
362
100
AcDbEntity
  8
SK2
100
AcDbTrace
 10
-97.7901896471
 20
-31.75
 30
0.0
 11
-97.2821896471
 21
-28.448
 31
0.0
 12
-98.2981896471
 22
-28.448
 32
0.0
 13
-98.2981896471
 23
-28.448
 33
0.0
  0
LINE
  5
367
330
362
100
AcDbEntity
  8
SK2
100
AcDbLine
 10
2.95
 20
31.75
 30
0.0
 11
-98.7901896471
 21
31.75
 31
0.0
  0
LINE
  5
368
330
362
100
AcDbEntity
  8
SK2
100
AcDbLine
 10
2.95
 20
-31.75
 30
0.0
 11
-98.7901896471
 21
-31.75
 31
0.0
  0
LINE
  5
369
330
362
100
AcDbEntity
  8
SK2
100
AcDbLine
 10
-97.7901896471
 20
31.75
 30
0.0
 11
-97.7901896471
 21
-31.75
 31
0.0
  0
MTEXT
  5
36A
330
362
100
AcDbEntity
  8
SK2
100
AcDbMText
 10
-102.3019267363
 20
-7.9944921464
 30
0.0
 40
3.5
 41
0.0
 71
     1
 72
     1
  1
%%c
  7
SLDTEXTSTYLE0
 11
-7.044195017643634E-15
 21
1.0
 31
0.0
 73
     1
 44
1.0
  0
MTEXT
  5
36B
330
362
100
AcDbEntity
  8
SK2
100
AcDbMText
 10
-102.355398913
 20
-2.716054748
 30
0.0
 40
3.5
 41
0.0
 71
     1
 72
     1
  1
63,5
  7
SLDTEXTSTYLE0
 11
-7.044195017643634E-15
 21
1.0
 31
0.0
 73
     1
 44
1.0
  0
ENDBLK
  5
364
330
362
100
AcDbEntity
  8
0
100
AcDbBlockEnd
  0
BLOCK
  5
36E
330
36D
100
AcDbEntity
  8
0
100
AcDbBlockBegin
  2
SW_NOTE_0
 70
     0
 10
0.0
 20
0.0
 30
0.0
  3
SW_NOTE_0
  1

  0
MTEXT
  5
370
330
36D
100
AcDbEntity
  8
SK6
 62
     0
100
AcDbMText
 10
0.0
 20
4.5117370892
 30
0.0
 40
3.5
 41
0.0
 71
     1
 72
     1
  1
TAPER ISO 40
  7
SLDTEXTSTYLE0
 73
     1
 44
1.0
  0
MTEXT
  5
371
330
36D
100
AcDbEntity
  8
SK6
 62
     0
100
AcDbMText
 10
0.0
 20
-0.0139574413
 30
0.0
 40
3.5
 41
0.0
 71
     1
 72
     1
  1
DIN 69871-AD/B
  7
SLDTEXTSTYLE0
 73
     1
 44
1.0
  0
ENDBLK
  5
36F
330
36D
100
AcDbEntity
  8
0
100
AcDbBlockEnd
  0
ENDSEC
  0
SECTION
  2
ENTITIES
  0
LINE
  5
92
330
1F
100
AcDbEntity
  8
1
  6
SLD-Solid
370
    25
100
AcDbLine
 10
7.5931633579
 20
31.75
 30
0.0
 11
3.95
 21
31.75
 31
0.0
  0
LINE
  5
93
330
1F
100
AcDbEntity
  8
1
  6
SLD-Solid
370
    25
100
AcDbLine
 10
18.3
 20
31.75
 30
0.0
 11
14.6368366421
 21
31.75
 31
0.0
  0
LINE
  5
94
330
1F
100
AcDbEntity
  8
1
  6
SLD-Solid
370
    25
100
AcDbLine
 10
14.6368366421
 20
31.75
 30
0.0
 11
13.03
 21
28.9668772965
 31
0.0
  0
LINE
  5
95
330
1F
100
AcDbEntity
  8
1
  6
SLD-Solid
370
    25
100
AcDbLine
 10
9.2
 20
28.9668772965
 30
0.0
 11
7.5931633579
 21
31.75
 31
0.0
  0
LINE
  5
96
330
1F
100
AcDbEntity
  8
1
  6
SLD-Solid
370
    25
100
AcDbLine
 10
1.8869952227
 20
-22.225
 30
0.0
 11
2.1330363037
 21
-22.1102691597
 31
0.0
  0
LINE
  5
97
330
1F
100
AcDbEntity
  8
1
  6
SLD-Solid
370
    25
100
AcDbLine
 10
2.1330363037
 20
22.1102691597
 30
0.0
 11
1.8869952227
 21
22.225
 31
0.0
  0
LINE
  5
98
330
1F
100
AcDbEntity
  8
1
  6
SLD-Solid
370
    25
100
AcDbLine
 10
0.0
 20
22.225
 30
0.0
 11
-67.3943082273
 21
12.3965705827
 31
0.0
  0
LINE
  5
99
330
1F
100
AcDbEntity
  8
SK1
  6
SLD-Solid
370
    25
100
AcDbLine
 10
-67.3943082273
 20
-12.3965705827
 30
0.0
 11
0.0
 21
-22.225
 31
0.0
  0
LINE
  5
9A
330
1F
100
AcDbEntity
  8
1
  6
SLD-Solid
370
    25
100
AcDbLine
 10
0.0
 20
-22.225
 30
0.0
 11
1.8869952227
 21
-22.225
 31
0.0
  0
LINE
  5
9B
330
1F
100
AcDbEntity
  8
1
  6
SLD-Solid
370
    25
100
AcDbLine
 10
1.8869952227
 20
22.225
 30
0.0
 11
0.0
 21
22.225
 31
0.0
  0
LINE
  5
9C
330
1F
100
AcDbEntity
  8
1
  6
SLD-Solid
370
    25
100
AcDbLine
 10
34.625
 20
-21.0
 30
0.0
 11
37.0
 21
-21.0
 31
0.0
  0
LINE
  5
9D
330
1F
100
AcDbEntity
  8
1
  6
SLD-Solid
370
    25
100
AcDbLine
 10
21.7949135627
 20
21.0
 30
0.0
 11
21.05
 21
21.0
 31
0.0
  0
LINE
  5
9E
330
1F
100
AcDbEntity
  8
1
  6
SLD-Solid
370
    25
100
AcDbLine
 10
37.0
 20
21.0
 30
0.0
 11
36.2178597933
 21
21.0
 31
0.0
  0
LINE
  5
9F
330
1F
100
AcDbEntity
  8
1
  6
SLD-Solid
370
    25
100
AcDbLine
 10
37.0
 20
-21.0
 30
0.0
 11
50.0
 21
-13.4944465005
 31
0.0
  0
LINE
  5
A0
330
1F
100
AcDbEntity
  8
1
  6
SLD-Solid
370
    25
100
AcDbLine
 10
50.0
 20
13.4944465005
 30
0.0
 11
37.0
 21
21.0
 31
0.0
  0
LINE
  5
A1
330
1F
100
AcDbEntity
  8
1
  6
SLD-Solid
370
    25
100
AcDbLine
 10
3.95
 20
-31.75
 30
0.0
 11
7.5931633579
 21
-31.75
 31
0.0
  0
LINE
  5
A2
330
1F
100
AcDbEntity
  8
1
  6
SLD-Solid
370
    25
100
AcDbLine
 10
14.6368366421
 20
-31.75
 30
0.0
 11
18.3
 21
-31.75
 31
0.0
  0
LINE
  5
A3
330
1F
100
AcDbEntity
  8
1
  6
SLD-Solid
370
    25
100
AcDbLine
 10
13.03
 20
-28.9668772965
 30
0.0
 11
14.6368366421
 21
-31.75
 31
0.0
  0
LINE
  5
A4
330
1F
100
AcDbEntity
  8
1
  6
SLD-Solid
370
    25
100
AcDbLine
 10
9.95
 20
-28.0
 30
0.0
 11
12.28
 21
-28.0
 31
0.0
  0
LINE
  5
A5
330
1F
100
AcDbEntity
  8
1
  6
SLD-Solid
370
    25
100
AcDbLine
 10
7.5931633579
 20
-31.75
 30
0.0
 11
9.2
 21
-28.9668772965
 31
0.0
  0
LINE
  5
A6
330
1F
100
AcDbEntity
  8
1
  6
SLD-Solid
370
    25
100
AcDbLine
 10
12.28
 20
28.0
 30
0.0
 11
9.95
 21
28.0
 31
0.0
  0
LINE
  5
A7
330
1F
100
AcDbEntity
  8
1
  6
SLD-Solid
370
    25
100
AcDbLine
 10
18.55
 20
-8.095
 30
0.0
 11
19.05
 21
-8.595
 31
0.0
  0
LINE
  5
A8
330
1F
100
AcDbEntity
  8
1
  6
SLD-Solid
370
    25
100
AcDbLine
 10
14.2709083079
 20
-8.095
 30
0.0
 11
18.3
 21
-8.095
 31
0.0
  0
LINE
  5
A9
330
1F
100
AcDbEntity
  8
1
  6
SLD-Solid
370
    25
100
AcDbLine
 10
18.3
 20
-8.73252
 30
0.0
 11
14.6368366421
 21
-8.73252
 31
0.0
  0
LINE
  5
AA
330
1F
100
AcDbEntity
  8
1
  6
SLD-Solid
370
    25
100
AcDbLine
 10
3.95
 20
8.73252
 30
0.0
 11
7.5931633579
 21
8.73252
 31
0.0
  0
LINE
  5
AB
330
1F
100
AcDbEntity
  8
1
  6
SLD-Solid
370
    25
100
AcDbLine
 10
7.9590916921
 20
8.095
 30
0.0
 11
3.95
 21
8.095
 31
0.0
  0
LINE
  5
AC
330
1F
100
AcDbEntity
  8
1
  6
SLD-Solid
370
    25
100
AcDbLine
 10
3.2
 20
8.595
 30
0.0
 11
3.7
 21
8.095
 31
0.0
  0
LINE
  5
AD
330
1F
100
AcDbEntity
  8
1
  6
SLD-Solid
370
    25
100
AcDbLine
 10
19.05
 20
-18.35
 30
0.0
 11
19.05
 21
-8.595
 31
0.0
  0
LINE
  5
AE
330
1F
100
AcDbEntity
  8
1
  6
SLD-Solid
370
    25
100
AcDbLine
 10
7.5931633579
 20
8.73252
 30
0.0
 11
7.5931633579
 21
31.75
 31
0.0
  0
LINE
  5
AF
330
1F
100
AcDbEntity
  8
1
  6
SLD-Solid
370
    25
100
AcDbLine
 10
3.2
 20
8.595
 30
0.0
 11
3.2
 21
31.0
 31
0.0
  0
LINE
  5
B0
330
1F
100
AcDbEntity
  8
1
  6
SLD-Solid
370
    25
100
AcDbLine
 10
14.6368366421
 20
-18.35
 30
0.0
 11
18.3
 21
-18.35
 31
0.0
  0
LINE
  5
B1
330
1F
100
AcDbEntity
  8
1
  6
SLD-Solid
370
    25
100
AcDbLine
 10
14.6368366421
 20
-18.35
 30
0.0
 11
14.6368366421
 21
-8.73252
 31
0.0
  0
LINE
  5
B2
330
1F
100
AcDbEntity
  8
1
  6
SLD-Solid
370
    25
100
AcDbLine
 10
14.6368366421
 20
8.73252
 30
0.0
 11
18.3
 21
8.73252
 31
0.0
  0
LINE
  5
B3
330
1F
100
AcDbEntity
  8
1
  6
SLD-Solid
370
    25
100
AcDbLine
 10
18.3
 20
8.095
 30
0.0
 11
14.2709083079
 21
8.095
 31
0.0
  0
LINE
  5
B4
330
1F
100
AcDbEntity
  8
1
  6
SLD-Solid
370
    25
100
AcDbLine
 10
14.6368366421
 20
8.73252
 30
0.0
 11
14.6368366421
 21
31.75
 31
0.0
  0
LINE
  5
B5
330
1F
100
AcDbEntity
  8
1
  6
SLD-Solid
370
    25
100
AcDbLine
 10
19.05
 20
8.595
 30
0.0
 11
19.05
 21
31.0
 31
0.0
  0
LINE
  5
B6
330
1F
100
AcDbEntity
  8
1
  6
SLD-Solid
370
    25
100
AcDbLine
 10
18.55
 20
8.095
 30
0.0
 11
19.05
 21
8.595
 31
0.0
  0
LINE
  5
B7
330
1F
100
AcDbEntity
  8
1
  6
SLD-Solid
370
    25
100
AcDbLine
 10
3.2
 20
-18.35
 30
0.0
 11
3.2
 21
-8.595
 31
0.0
  0
LINE
  5
B8
330
1F
100
AcDbEntity
  8
1
  6
SLD-Solid
370
    25
100
AcDbLine
 10
3.2
 20
-8.595
 30
0.0
 11
3.7
 21
-8.095
 31
0.0
  0
LINE
  5
B9
330
1F
100
AcDbEntity
  8
1
  6
SLD-Solid
370
    25
100
AcDbLine
 10
3.95
 20
-18.35
 30
0.0
 11
7.5931633579
 21
-18.35
 31
0.0
  0
LINE
  5
BA
330
1F
100
AcDbEntity
  8
1
  6
SLD-Solid
370
    25
100
AcDbLine
 10
7.5931633579
 20
-8.73252
 30
0.0
 11
3.95
 21
-8.73252
 31
0.0
  0
LINE
  5
BB
330
1F
100
AcDbEntity
  8
1
  6
SLD-Solid
370
    25
100
AcDbLine
 10
7.5931633579
 20
-18.35
 30
0.0
 11
7.5931633579
 21
-8.73252
 31
0.0
  0
LINE
  5
BC
330
1F
100
AcDbEntity
  8
1
  6
SLD-Solid
370
    25
100
AcDbLine
 10
3.95
 20
-8.095
 30
0.0
 11
7.9590916921
 21
-8.095
 31
0.0
  0
LINE
  5
BD
330
1F
100
AcDbEntity
  8
1
  6
SLD-Solid
370
    25
100
AcDbLine
 10
13.03
 20
8.095
 30
0.0
 11
13.03
 21
27.0172626808
 31
0.0
  0
LINE
  5
BE
330
1F
100
AcDbEntity
  8
1
  6
SLD-Solid
370
    25
100
AcDbLine
 10
13.03
 20
27.4118626313
 30
0.0
 11
13.03
 21
28.9668772965
 31
0.0
  0
LINE
  5
BF
330
1F
100
AcDbEntity
  8
1
  6
SLD-Solid
370
    25
100
AcDbLine
 10
13.03
 20
-18.35
 30
0.0
 11
13.03
 21
-8.095
 31
0.0
  0
LINE
  5
C0
330
1F
100
AcDbEntity
  8
1
  6
SLD-Solid
370
    25
100
AcDbLine
 10
9.2
 20
27.4118626313
 30
0.0
 11
9.2
 21
28.9668772965
 31
0.0
  0
LINE
  5
C1
330
1F
100
AcDbEntity
  8
1
  6
SLD-Solid
370
    25
100
AcDbLine
 10
9.2
 20
8.095
 30
0.0
 11
9.2
 21
27.0172626808
 31
0.0
  0
LINE
  5
C2
330
1F
100
AcDbEntity
  8
1
  6
SLD-Solid
370
    25
100
AcDbLine
 10
9.2
 20
-18.35
 30
0.0
 11
9.2
 21
-8.095
 31
0.0
  0
LINE
  5
C3
330
1F
100
AcDbEntity
  8
1
  6
SLD-Solid
370
    25
100
AcDbLine
 10
9.95
 20
8.095
 30
0.0
 11
12.28
 21
8.095
 31
0.0
  0
LINE
  5
C4
330
1F
100
AcDbEntity
  8
1
  6
SLD-Solid
370
    25
100
AcDbLine
 10
9.95
 20
-18.35
 30
0.0
 11
12.28
 21
-18.35
 31
0.0
  0
LINE
  5
C5
330
1F
100
AcDbEntity
  8
1
  6
SLD-Solid
370
    25
100
AcDbLine
 10
12.28
 20
-8.095
 30
0.0
 11
9.95
 21
-8.095
 31
0.0
  0
LINE
  5
C6
330
1F
100
AcDbEntity
  8
1
  6
SLD-Solid
370
    25
100
AcDbLine
 10
3.7
 20
8.095
 30
0.0
 11
3.7
 21
7.595
 31
0.0
  0
LINE
  5
C7
330
1F
100
AcDbEntity
  8
1
  6
SLD-Solid
370
    25
100
AcDbLine
 10
3.2
 20
7.595
 30
0.0
 11
3.2
 21
8.595
 31
0.0
  0
LINE
  5
C8
330
1F
100
AcDbEntity
  8
1
  6
SLD-Solid
370
    25
100
AcDbLine
 10
3.7
 20
-7.595
 30
0.0
 11
3.7
 21
-8.095
 31
0.0
  0
LINE
  5
C9
330
1F
100
AcDbEntity
  8
1
  6
SLD-Solid
370
    25
100
AcDbLine
 10
18.55
 20
-8.095
 30
0.0
 11
18.55
 21
-7.595
 31
0.0
  0
LINE
  5
CA
330
1F
100
AcDbEntity
  8
1
  6
SLD-Solid
370
    25
100
AcDbLine
 10
18.55
 20
7.595
 30
0.0
 11
18.55
 21
8.095
 31
0.0
  0
LINE
  5
CB
330
1F
100
AcDbEntity
  8
1
  6
SLD-Solid
370
    25
100
AcDbLine
 10
19.05
 20
8.595
 30
0.0
 11
19.05
 21
7.595
 31
0.0
  0
LINE
  5
CC
330
1F
100
AcDbEntity
  8
1
  6
SLD-Solid
370
    25
100
AcDbLine
 10
19.05
 20
-7.595
 30
0.0
 11
19.05
 21
-8.595
 31
0.0
  0
LINE
  5
CD
330
1F
100
AcDbEntity
  8
1
  6
SLD-Solid
370
    25
100
AcDbLine
 10
3.2
 20
-8.595
 30
0.0
 11
3.2
 21
-7.595
 31
0.0
  0
LINE
  5
CE
330
1F
100
AcDbEntity
  8
1
  6
SLD-Solid
370
    25
100
AcDbLine
 10
18.55
 20
-7.595
 30
0.0
 11
18.55
 21
7.595
 31
0.0
  0
LINE
  5
CF
330
1F
100
AcDbEntity
  8
1
  6
SLD-Solid
370
    25
100
AcDbLine
 10
19.05
 20
7.595
 30
0.0
 11
19.05
 21
-7.595
 31
0.0
  0
LINE
  5
D0
330
1F
100
AcDbEntity
  8
1
  6
SLD-Solid
370
    25
100
AcDbLine
 10
3.7
 20
7.595
 30
0.0
 11
3.7
 21
-7.595
 31
0.0
  0
LINE
  5
D1
330
1F
100
AcDbEntity
  8
1
  6
SLD-Solid
370
    25
100
AcDbLine
 10
3.2
 20
-7.595
 30
0.0
 11
3.2
 21
7.595
 31
0.0
  0
LINE
  5
D2
330
1F
100
AcDbEntity
  8
1
  6
SLD-Solid
370
    25
100
AcDbLine
 10
0.0
 20
-22.225
 30
0.0
 11
0.0
 21
22.225
 31
0.0
  0
LINE
  5
D3
330
1F
100
AcDbEntity
  8
1
  6
SLD-Solid
370
    25
100
AcDbLine
 10
37.0
 20
-21.0
 30
0.0
 11
37.0
 21
21.0
 31
0.0
  0
LINE
  5
D4
330
1F
100
AcDbEntity
  8
1
  6
SLD-Solid
370
    25
100
AcDbLine
 10
50.0
 20
-13.4944465005
 30
0.0
 11
50.0
 21
13.4944465005
 31
0.0
  0
LINE
  5
D5
330
1F
100
AcDbEntity
  8
1
  6
SLD-Solid
370
    25
100
AcDbLine
 10
3.2
 20
-18.85
 30
0.0
 11
3.2
 21
-18.35
 31
0.0
  0
LINE
  5
D6
330
1F
100
AcDbEntity
  8
1
  6
SLD-Solid
370
    25
100
AcDbLine
 10
19.05
 20
-18.35
 30
0.0
 11
19.05
 21
-18.85
 31
0.0
  0
LINE
  5
D7
330
1F
100
AcDbEntity
  8
1
  6
SLD-Solid
370
    25
100
AcDbLine
 10
7.5931633579
 20
-25.91022964
 30
0.0
 11
3.95
 21
-25.91022964
 31
0.0
  0
LINE
  5
D8
330
1F
100
AcDbEntity
  8
1
  6
SLD-Solid
370
    25
100
AcDbLine
 10
7.5931633579
 20
-31.75
 30
0.0
 11
7.5931633579
 21
-25.91022964
 31
0.0
  0
LINE
  5
D9
330
1F
100
AcDbEntity
  8
1
  6
SLD-Solid
370
    25
100
AcDbLine
 10
3.2
 20
-31.0
 30
0.0
 11
3.2
 21
-24.9855458216
 31
0.0
  0
LINE
  5
DA
330
1F
100
AcDbEntity
  8
1
  6
SLD-Solid
370
    25
100
AcDbLine
 10
19.05
 20
-31.0
 30
0.0
 11
19.05
 21
-24.9855458215
 31
0.0
  0
LINE
  5
DB
330
1F
100
AcDbEntity
  8
1
  6
SLD-Solid
370
    25
100
AcDbLine
 10
18.3
 20
-25.91022964
 30
0.0
 11
14.6368366421
 21
-25.91022964
 31
0.0
  0
LINE
  5
DC
330
1F
100
AcDbEntity
  8
1
  6
SLD-Solid
370
    25
100
AcDbLine
 10
14.6368366421
 20
-31.75
 30
0.0
 11
14.6368366421
 21
-25.91022964
 31
0.0
  0
LINE
  5
DD
330
1F
100
AcDbEntity
  8
1
  6
SLD-Solid
370
    25
100
AcDbLine
 10
13.03
 20
-28.9668772965
 30
0.0
 11
13.03
 21
-22.4133326462
 31
0.0
  0
LINE
  5
DE
330
1F
100
AcDbEntity
  8
1
  6
SLD-Solid
370
    25
100
AcDbLine
 10
12.28
 20
-21.1489361435
 30
0.0
 11
9.95
 21
-21.1489361435
 31
0.0
  0
LINE
  5
DF
330
1F
100
AcDbEntity
  8
1
  6
SLD-Solid
370
    25
100
AcDbLine
 10
9.2
 20
-28.9668772965
 30
0.0
 11
9.2
 21
-22.4133326462
 31
0.0
  0
LINE
  5
E0
330
1F
100
AcDbEntity
  8
1
  6
SLD-Solid
370
    25
100
AcDbLine
 10
9.2
 20
-22.1323292945
 30
0.0
 11
9.2
 21
-22.4133326462
 31
0.0
  0
LINE
  5
E1
330
1F
100
AcDbEntity
  8
1
  6
SLD-Solid
370
    25
100
AcDbLine
 10
13.03
 20
-22.4133326462
 30
0.0
 11
13.03
 21
-22.1323292945
 31
0.0
  0
LINE
  5
E2
330
1F
100
AcDbEntity
  8
1
  6
SLD-Solid
370
    25
100
AcDbLine
 10
3.2
 20
-18.85
 30
0.0
 11
3.2
 21
-24.9855458216
 31
0.0
  0
LINE
  5
E3
330
1F
100
AcDbEntity
  8
1
  6
SLD-Solid
370
    25
100
AcDbLine
 10
19.05
 20
-18.85
 30
0.0
 11
19.05
 21
-24.9855458215
 31
0.0
  0
LINE
  5
E4
330
1F
100
AcDbEntity
  8
SK1
  6
SLD-Solid
370
    25
100
AcDbLine
 10
-68.25
 20
-11.4070377962
 30
0.0
 11
-68.25
 21
11.4070377962
 31
0.0
  0
LINE
  5
E5
330
1F
100
AcDbEntity
  8
1
  6
SLD-Solid
370
    25
100
AcDbLine
 10
9.2
 20
27.2080239064
 30
0.0
 11
9.2
 21
27.4118626313
 31
0.0
  0
LINE
  5
E6
330
1F
100
AcDbEntity
  8
1
  6
SLD-Solid
370
    25
100
AcDbLine
 10
13.03
 20
27.4118626313
 30
0.0
 11
13.03
 21
27.2080239064
 31
0.0
  0
LINE
  5
E7
330
1F
100
AcDbEntity
  8
1
  6
SLD-Dashed
370
    18
100
AcDbLine
 10
13.1081088715
 20
27.3467456154
 30
0.0
 11
13.1123837663
 21
27.3888561012
 31
0.0
  0
LINE
  5
E8
330
1F
100
AcDbEntity
  8
SK3
  6
SLD-Dashed
370
    18
100
AcDbLine
 10
9.1285767029
 20
23.1308393474
 30
0.0
 11
9.2357599277
 21
22.9763158071
 31
0.0
  0
LINE
  5
E9
330
1F
100
AcDbEntity
  8
SK3
  6
SLD-Dashed
370
    18
100
AcDbLine
 10
9.2357599277
 20
22.9763158071
 30
0.0
 11
9.4442381472
 21
22.8344103142
 31
0.0
  0
LINE
  5
EA
330
1F
100
AcDbEntity
  8
SK3
  6
SLD-Dashed
370
    18
100
AcDbLine
 10
9.4442381472
 20
22.8344103142
 30
0.0
 11
9.7427739468
 21
22.7127718734
 31
0.0
  0
LINE
  5
EB
330
1F
100
AcDbEntity
  8
SK3
  6
SLD-Dashed
370
    18
100
AcDbLine
 10
9.7427739468
 20
22.7127718734
 30
0.0
 11
10.1152756184
 21
22.6179570528
 31
0.0
  0
LINE
  5
EC
330
1F
100
AcDbEntity
  8
SK3
  6
SLD-Dashed
370
    18
100
AcDbLine
 10
10.1152756184
 20
22.6179570528
 30
0.0
 11
10.5416645382
 21
22.5550765708
 31
0.0
  0
LINE
  5
ED
330
1F
100
AcDbEntity
  8
SK3
  6
SLD-Dashed
370
    18
100
AcDbLine
 10
10.5416645382
 20
22.5550765708
 30
0.0
 11
10.998957446
 21
22.5275198175
 31
0.0
  0
LINE
  5
EE
330
1F
100
AcDbEntity
  8
SK3
  6
SLD-Dashed
370
    18
100
AcDbLine
 10
10.998957446
 20
22.5275198175
 30
0.0
 11
11.4625052916
 21
22.5367721601
 31
0.0
  0
LINE
  5
EF
330
1F
100
AcDbEntity
  8
SK3
  6
SLD-Dashed
370
    18
100
AcDbLine
 10
11.4625052916
 20
22.5367721601
 30
0.0
 11
11.9073218707
 21
22.5823348777
 31
0.0
  0
LINE
  5
F0
330
1F
100
AcDbEntity
  8
SK3
  6
SLD-Dashed
370
    18
100
AcDbLine
 10
11.9073218707
 20
22.5823348777
 30
0.0
 11
12.3094306335
 21
22.661752044
 31
0.0
  0
LINE
  5
F1
330
1F
100
AcDbEntity
  8
SK3
  6
SLD-Dashed
370
    18
100
AcDbLine
 10
12.3094306335
 20
22.661752044
 30
0.0
 11
12.6471570715
 21
22.7707429067
 31
0.0
  0
LINE
  5
F2
330
1F
100
AcDbEntity
  8
SK3
  6
SLD-Dashed
370
    18
100
AcDbLine
 10
12.6471570715
 20
22.7707429067
 30
0.0
 11
12.9022970188
 21
22.9034326288
 31
0.0
  0
LINE
  5
F3
330
1F
100
AcDbEntity
  8
SK3
  6
SLD-Dashed
370
    18
100
AcDbLine
 10
12.9022970188
 20
22.9034326288
 30
0.0
 11
13.0610978955
 21
23.052668955
 31
0.0
  0
LINE
  5
F4
330
1F
100
AcDbEntity
  8
SK3
  6
SLD-Dashed
370
    18
100
AcDbLine
 10
13.0610978955
 20
23.052668955
 30
0.0
 11
13.115
 21
23.2104077334
 31
0.0
  0
LINE
  5
F5
330
1F
100
AcDbEntity
  8
SK3
  6
SLD-Dashed
370
    18
100
AcDbLine
 10
13.115
 20
23.2104077334
 30
0.0
 11
13.0610978955
 21
23.3681465118
 31
0.0
  0
LINE
  5
F6
330
1F
100
AcDbEntity
  8
SK3
  6
SLD-Dashed
370
    18
100
AcDbLine
 10
13.0610978955
 20
23.3681465118
 30
0.0
 11
12.9022970188
 21
23.5173828381
 31
0.0
  0
LINE
  5
F7
330
1F
100
AcDbEntity
  8
SK3
  6
SLD-Dashed
370
    18
100
AcDbLine
 10
12.9022970188
 20
23.5173828381
 30
0.0
 11
12.6471570715
 21
23.6500725602
 31
0.0
  0
LINE
  5
F8
330
1F
100
AcDbEntity
  8
SK3
  6
SLD-Dashed
370
    18
100
AcDbLine
 10
12.6471570715
 20
23.6500725602
 30
0.0
 11
12.3094306335
 21
23.7590634228
 31
0.0
  0
LINE
  5
F9
330
1F
100
AcDbEntity
  8
SK3
  6
SLD-Dashed
370
    18
100
AcDbLine
 10
12.3094306335
 20
23.7590634228
 30
0.0
 11
11.9073218707
 21
23.8384805891
 31
0.0
  0
LINE
  5
FA
330
1F
100
AcDbEntity
  8
SK3
  6
SLD-Dashed
370
    18
100
AcDbLine
 10
11.9073218707
 20
23.8384805891
 30
0.0
 11
11.4625052916
 21
23.8840433068
 31
0.0
  0
LINE
  5
FB
330
1F
100
AcDbEntity
  8
SK3
  6
SLD-Dashed
370
    18
100
AcDbLine
 10
11.4625052916
 20
23.8840433068
 30
0.0
 11
10.998957446
 21
23.8932956493
 31
0.0
  0
LINE
  5
FC
330
1F
100
AcDbEntity
  8
SK3
  6
SLD-Dashed
370
    18
100
AcDbLine
 10
10.998957446
 20
23.8932956493
 30
0.0
 11
10.5416645382
 21
23.8657388961
 31
0.0
  0
LINE
  5
FD
330
1F
100
AcDbEntity
  8
SK3
  6
SLD-Dashed
370
    18
100
AcDbLine
 10
10.5416645382
 20
23.8657388961
 30
0.0
 11
10.1152756184
 21
23.802858414
 31
0.0
  0
LINE
  5
FE
330
1F
100
AcDbEntity
  8
SK3
  6
SLD-Dashed
370
    18
100
AcDbLine
 10
10.1152756184
 20
23.802858414
 30
0.0
 11
9.7427739468
 21
23.7080435934
 31
0.0
  0
LINE
  5
FF
330
1F
100
AcDbEntity
  8
SK3
  6
SLD-Dashed
370
    18
100
AcDbLine
 10
9.7427739468
 20
23.7080435934
 30
0.0
 11
9.4442381472
 21
23.5864051527
 31
0.0
  0
LINE
  5
100
330
1F
100
AcDbEntity
  8
SK3
  6
SLD-Dashed
370
    18
100
AcDbLine
 10
9.4442381472
 20
23.5864051527
 30
0.0
 11
9.2357599277
 21
23.4444996598
 31
0.0
  0
LINE
  5
101
330
1F
100
AcDbEntity
  8
SK3
  6
SLD-Dashed
370
    18
100
AcDbLine
 10
9.2357599277
 20
23.4444996598
 30
0.0
 11
9.1285767029
 21
23.2899761194
 31
0.0
  0
LINE
  5
102
330
1F
100
AcDbEntity
  8
1
  6
SLD-Dashed
370
    18
100
AcDbLine
 10
13.03
 20
26.813423956
 30
0.0
 11
13.03
 21
27.0172626808
 31
0.0
  0
LINE
  5
103
330
1F
100
AcDbEntity
  8
1
  6
SLD-Dashed
370
    18
100
AcDbLine
 10
9.2
 20
27.0172626808
 30
0.0
 11
9.2
 21
26.813423956
 31
0.0
  0
LINE
  5
104
330
1F
100
AcDbEntity
  8
SK3
  6
SLD-Dashed
370
    18
100
AcDbLine
 10
3.3100253255
 20
22.7838057852
 30
0.0
 11
3.4216747077
 21
22.7665899995
 31
0.0
  0
LINE
  5
105
330
1F
100
AcDbEntity
  8
SK3
  6
SLD-Dashed
370
    18
100
AcDbLine
 10
3.4216747077
 20
22.7665899995
 30
0.0
 11
3.5925969869
 21
22.8361057366
 31
0.0
  0
LINE
  5
106
330
1F
100
AcDbEntity
  8
SK3
  6
SLD-Dashed
370
    18
100
AcDbLine
 10
3.5925969869
 20
22.8361057366
 30
0.0
 11
3.8135776988
 21
22.9886053849
 31
0.0
  0
LINE
  5
107
330
1F
100
AcDbEntity
  8
SK3
  6
SLD-Dashed
370
    18
100
AcDbLine
 10
3.8135776988
 20
22.9886053849
 30
0.0
 11
4.072703716
 21
23.2158676491
 31
0.0
  0
LINE
  5
108
330
1F
100
AcDbEntity
  8
SK3
  6
SLD-Dashed
370
    18
100
AcDbLine
 10
4.072703716
 20
23.2158676491
 30
0.0
 11
4.3560054879
 21
23.5056407616
 31
0.0
  0
LINE
  5
109
330
1F
100
AcDbEntity
  8
SK3
  6
SLD-Dashed
370
    18
100
AcDbLine
 10
4.3560054879
 20
23.5056407616
 30
0.0
 11
4.6482101427
 21
23.8423029789
 31
0.0
  0
LINE
  5
10A
330
1F
100
AcDbEntity
  8
SK3
  6
SLD-Dashed
370
    18
100
AcDbLine
 10
4.6482101427
 20
23.8423029789
 30
0.0
 11
4.9335648517
 21
24.2077047537
 31
0.0
  0
LINE
  5
10B
330
1F
100
AcDbEntity
  8
SK3
  6
SLD-Dashed
370
    18
100
AcDbLine
 10
4.9335648517
 20
24.2077047537
 30
0.0
 11
5.1966860687
 21
24.5821471819
 31
0.0
  0
LINE
  5
10C
330
1F
100
AcDbEntity
  8
SK3
  6
SLD-Dashed
370
    18
100
AcDbLine
 10
5.1966860687
 20
24.5821471819
 30
0.0
 11
5.4233888608
 21
24.945443975
 31
0.0
  0
LINE
  5
10D
330
1F
100
AcDbEntity
  8
SK3
  6
SLD-Dashed
370
    18
100
AcDbLine
 10
5.4233888608
 20
24.945443975
 30
0.0
 11
5.6014516218
 21
25.2780097091
 31
0.0
  0
LINE
  5
10E
330
1F
100
AcDbEntity
  8
SK3
  6
SLD-Dashed
370
    18
100
AcDbLine
 10
5.6014516218
 20
25.2780097091
 30
0.0
 11
5.7212749422
 21
25.5619156793
 31
0.0
  0
LINE
  5
10F
330
1F
100
AcDbEntity
  8
SK3
  6
SLD-Dashed
370
    18
100
AcDbLine
 10
5.7212749422
 20
25.5619156793
 30
0.0
 11
5.7763991158
 21
25.7818564412
 31
0.0
  0
LINE
  5
110
330
1F
100
AcDbEntity
  8
SK3
  6
SLD-Dashed
370
    18
100
AcDbLine
 10
5.7763991158
 20
25.7818564412
 30
0.0
 11
5.763852384
 21
25.9259749315
 31
0.0
  0
LINE
  5
111
330
1F
100
AcDbEntity
  8
SK3
  6
SLD-Dashed
370
    18
100
AcDbLine
 10
5.763852384
 20
25.9259749315
 30
0.0
 11
5.6843111445
 21
25.986501685
 31
0.0
  0
LINE
  5
112
330
1F
100
AcDbEntity
  8
SK3
  6
SLD-Dashed
370
    18
100
AcDbLine
 10
5.6843111445
 20
25.986501685
 30
0.0
 11
5.5420634861
 21
25.9601736888
 31
0.0
  0
LINE
  5
113
330
1F
100
AcDbEntity
  8
SK3
  6
SLD-Dashed
370
    18
100
AcDbLine
 10
5.5420634861
 20
25.9601736888
 30
0.0
 11
5.3447780167
 21
25.848410292
 31
0.0
  0
LINE
  5
114
330
1F
100
AcDbEntity
  8
SK3
  6
SLD-Dashed
370
    18
100
AcDbLine
 10
5.3447780167
 20
25.848410292
 30
0.0
 11
5.1030904473
 21
25.6572366882
 31
0.0
  0
LINE
  5
115
330
1F
100
AcDbEntity
  8
SK3
  6
SLD-Dashed
370
    18
100
AcDbLine
 10
5.1030904473
 20
25.6572366882
 30
0.0
 11
4.8300302171
 21
25.3969590959
 31
0.0
  0
LINE
  5
116
330
1F
100
AcDbEntity
  8
SK3
  6
SLD-Dashed
370
    18
100
AcDbLine
 10
4.8300302171
 20
25.3969590959
 30
0.0
 11
4.5403180739
 21
25.0816091475
 31
0.0
  0
LINE
  5
117
330
1F
100
AcDbEntity
  8
SK3
  6
SLD-Dashed
370
    18
100
AcDbLine
 10
4.5403180739
 20
25.0816091475
 30
0.0
 11
4.2495724743
 21
24.7281874403
 31
0.0
  0
LINE
  5
118
330
1F
100
AcDbEntity
  8
SK3
  6
SLD-Dashed
370
    18
100
AcDbLine
 10
4.2495724743
 20
24.7281874403
 30
0.0
 11
3.9734675889
 21
24.35574703
 31
0.0
  0
LINE
  5
119
330
1F
100
AcDbEntity
  8
SK3
  6
SLD-Dashed
370
    18
100
AcDbLine
 10
3.9734675889
 20
24.35574703
 30
0.0
 11
3.7268883034
 21
23.9843662755
 31
0.0
  0
LINE
  5
11A
330
1F
100
AcDbEntity
  8
SK3
  6
SLD-Dashed
370
    18
100
AcDbLine
 10
3.7268883034
 20
23.9843662755
 30
0.0
 11
3.523127771
 21
23.6340664095
 31
0.0
  0
LINE
  5
11B
330
1F
100
AcDbEntity
  8
SK3
  6
SLD-Dashed
370
    18
100
AcDbLine
 10
3.523127771
 20
23.6340664095
 30
0.0
 11
3.3731707747
 21
23.3237321884
 31
0.0
  0
LINE
  5
11C
330
1F
100
AcDbEntity
  8
SK3
  6
SLD-Dashed
370
    18
100
AcDbLine
 10
3.3731707747
 20
23.3237321884
 30
0.0
 11
3.285101535
 21
23.0700938104
 31
0.0
  0
LINE
  5
11D
330
1F
100
AcDbEntity
  8
SK3
  6
SLD-Dashed
370
    18
100
AcDbLine
 10
3.285101535
 20
23.0700938104
 30
0.0
 11
3.2636678875
 21
22.886824986
 31
0.0
  0
LINE
  5
11E
330
1F
100
AcDbEntity
  8
SK3
  6
SLD-Dashed
370
    18
100
AcDbLine
 10
3.2636678875
 20
22.886824986
 30
0.0
 11
3.3100253255
 21
22.7838057852
 31
0.0
  0
LINE
  5
11F
330
1F
100
AcDbEntity
  8
SK3
  6
SLD-Dashed
370
    18
100
AcDbLine
 10
3.2
 20
22.8742979511
 30
0.0
 11
3.2
 21
27.8871582268
 31
0.0
  0
LINE
  5
120
330
1F
100
AcDbEntity
  8
SK3
  6
SLD-Dashed
370
    18
100
AcDbLine
 10
3.3403033958
 20
22.8235957143
 30
0.0
 11
3.4491615434
 21
22.8068103233
 31
0.0
  0
LINE
  5
121
330
1F
100
AcDbEntity
  8
SK3
  6
SLD-Dashed
370
    18
100
AcDbLine
 10
3.4491615434
 20
22.8068103233
 30
0.0
 11
3.6158107656
 21
22.8745881669
 31
0.0
  0
LINE
  5
122
330
1F
100
AcDbEntity
  8
SK3
  6
SLD-Dashed
370
    18
100
AcDbLine
 10
3.6158107656
 20
22.8745881669
 30
0.0
 11
3.8312669597
 21
23.0232753241
 31
0.0
  0
LINE
  5
123
330
1F
100
AcDbEntity
  8
SK3
  6
SLD-Dashed
370
    18
100
AcDbLine
 10
3.8312669597
 20
23.0232753241
 30
0.0
 11
4.0839148265
 21
23.2448560317
 31
0.0
  0
LINE
  5
124
330
1F
100
AcDbEntity
  8
SK3
  6
SLD-Dashed
370
    18
100
AcDbLine
 10
4.0839148265
 20
23.2448560317
 30
0.0
 11
4.3601340541
 21
23.5273848163
 31
0.0
  0
LINE
  5
125
330
1F
100
AcDbEntity
  8
SK3
  6
SLD-Dashed
370
    18
100
AcDbLine
 10
4.3601340541
 20
23.5273848163
 30
0.0
 11
4.6450335925
 21
23.8556304782
 31
0.0
  0
LINE
  5
126
330
1F
100
AcDbEntity
  8
SK3
  6
SLD-Dashed
370
    18
100
AcDbLine
 10
4.6450335925
 20
23.8556304782
 30
0.0
 11
4.9232544337
 21
24.2118972087
 31
0.0
  0
LINE
  5
127
330
1F
100
AcDbEntity
  8
SK3
  6
SLD-Dashed
370
    18
100
AcDbLine
 10
4.9232544337
 20
24.2118972087
 30
0.0
 11
5.1797976203
 21
24.5769785761
 31
0.0
  0
LINE
  5
128
330
1F
100
AcDbEntity
  8
SK3
  6
SLD-Dashed
370
    18
100
AcDbLine
 10
5.1797976203
 20
24.5769785761
 30
0.0
 11
5.4008328426
 21
24.9311929495
 31
0.0
  0
LINE
  5
129
330
1F
100
AcDbEntity
  8
SK3
  6
SLD-Dashed
370
    18
100
AcDbLine
 10
5.4008328426
 20
24.9311929495
 30
0.0
 11
5.5744440346
 21
25.2554445402
 31
0.0
  0
LINE
  5
12A
330
1F
100
AcDbEntity
  8
SK3
  6
SLD-Dashed
370
    18
100
AcDbLine
 10
5.5744440346
 20
25.2554445402
 30
0.0
 11
5.691271772
 21
25.5322528611
 31
0.0
  0
LINE
  5
12B
330
1F
100
AcDbEntity
  8
SK3
  6
SLD-Dashed
370
    18
100
AcDbLine
 10
5.691271772
 20
25.5322528611
 30
0.0
 11
5.7450178412
 21
25.746695104
 31
0.0
  0
LINE
  5
12C
330
1F
100
AcDbEntity
  8
SK3
  6
SLD-Dashed
370
    18
100
AcDbLine
 10
5.7450178412
 20
25.746695104
 30
0.0
 11
5.7327847778
 21
25.887210632
 31
0.0
  0
LINE
  5
12D
330
1F
100
AcDbEntity
  8
SK3
  6
SLD-Dashed
370
    18
100
AcDbLine
 10
5.7327847778
 20
25.887210632
 30
0.0
 11
5.6552320693
 21
25.9462242167
 31
0.0
  0
LINE
  5
12E
330
1F
100
AcDbEntity
  8
SK3
  6
SLD-Dashed
370
    18
100
AcDbLine
 10
5.6552320693
 20
25.9462242167
 30
0.0
 11
5.5165406023
 21
25.9205544204
 31
0.0
  0
LINE
  5
12F
330
1F
100
AcDbEntity
  8
SK3
  6
SLD-Dashed
370
    18
100
AcDbLine
 10
5.5165406023
 20
25.9205544204
 30
0.0
 11
5.3241872697
 21
25.8115851085
 31
0.0
  0
LINE
  5
130
330
1F
100
AcDbEntity
  8
SK3
  6
SLD-Dashed
370
    18
100
AcDbLine
 10
5.3241872697
 20
25.8115851085
 30
0.0
 11
5.0885418895
 21
25.6251908448
 31
0.0
  0
LINE
  5
131
330
1F
100
AcDbEntity
  8
SK3
  6
SLD-Dashed
370
    18
100
AcDbLine
 10
5.0885418895
 20
25.6251908448
 30
0.0
 11
4.8223081651
 21
25.3714201923
 31
0.0
  0
LINE
  5
132
330
1F
100
AcDbEntity
  8
SK3
  6
SLD-Dashed
370
    18
100
AcDbLine
 10
4.8223081651
 20
25.3714201923
 30
0.0
 11
4.5398388254
 21
25.0639539926
 31
0.0
  0
LINE
  5
133
330
1F
100
AcDbEntity
  8
SK3
  6
SLD-Dashed
370
    18
100
AcDbLine
 10
4.5398388254
 20
25.0639539926
 30
0.0
 11
4.2563618658
 21
24.7193678281
 31
0.0
  0
LINE
  5
134
330
1F
100
AcDbEntity
  8
SK3
  6
SLD-Dashed
370
    18
100
AcDbLine
 10
4.2563618658
 20
24.7193678281
 30
0.0
 11
3.9871596025
 21
24.356238428
 31
0.0
  0
LINE
  5
135
330
1F
100
AcDbEntity
  8
SK3
  6
SLD-Dashed
370
    18
100
AcDbLine
 10
3.9871596025
 20
24.356238428
 30
0.0
 11
3.7467447992
 21
23.9941421924
 31
0.0
  0
LINE
  5
136
330
1F
100
AcDbEntity
  8
SK3
  6
SLD-Dashed
370
    18
100
AcDbLine
 10
3.7467447992
 20
23.9941421924
 30
0.0
 11
3.5480782801
 21
23.6525998231
 31
0.0
  0
LINE
  5
137
330
1F
100
AcDbEntity
  8
SK3
  6
SLD-Dashed
370
    18
100
AcDbLine
 10
3.5480782801
 20
23.6525998231
 30
0.0
 11
3.4018702087
 21
23.3500239575
 31
0.0
  0
LINE
  5
138
330
1F
100
AcDbEntity
  8
SK3
  6
SLD-Dashed
370
    18
100
AcDbLine
 10
3.4018702087
 20
23.3500239575
 30
0.0
 11
3.3160027
 21
23.1027265389
 31
0.0
  0
LINE
  5
139
330
1F
100
AcDbEntity
  8
SK3
  6
SLD-Dashed
370
    18
100
AcDbLine
 10
3.3160027
 20
23.1027265389
 30
0.0
 11
3.2951048937
 21
22.9240394352
 31
0.0
  0
LINE
  5
13A
330
1F
100
AcDbEntity
  8
SK3
  6
SLD-Dashed
370
    18
100
AcDbLine
 10
3.2951048937
 20
22.9240394352
 30
0.0
 11
3.3403033958
 21
22.8235957143
 31
0.0
  0
LINE
  5
13B
330
1F
100
AcDbEntity
  8
SK3
  6
SLD-Dashed
370
    18
100
AcDbLine
 10
13.9872030677
 20
14.7218578465
 30
0.0
 11
14.0960612153
 21
14.7050724555
 31
0.0
  0
LINE
  5
13C
330
1F
100
AcDbEntity
  8
SK3
  6
SLD-Dashed
370
    18
100
AcDbLine
 10
14.0960612153
 20
14.7050724555
 30
0.0
 11
14.2627104375
 21
14.7728502991
 31
0.0
  0
LINE
  5
13D
330
1F
100
AcDbEntity
  8
SK3
  6
SLD-Dashed
370
    18
100
AcDbLine
 10
14.2627104375
 20
14.7728502991
 30
0.0
 11
14.4781666316
 21
14.9215374563
 31
0.0
  0
LINE
  5
13E
330
1F
100
AcDbEntity
  8
SK3
  6
SLD-Dashed
370
    18
100
AcDbLine
 10
14.4781666316
 20
14.9215374563
 30
0.0
 11
14.7308144984
 21
15.1431181638
 31
0.0
  0
LINE
  5
13F
330
1F
100
AcDbEntity
  8
SK3
  6
SLD-Dashed
370
    18
100
AcDbLine
 10
14.7308144984
 20
15.1431181638
 30
0.0
 11
15.0070337261
 21
15.4256469485
 31
0.0
  0
LINE
  5
140
330
1F
100
AcDbEntity
  8
SK3
  6
SLD-Dashed
370
    18
100
AcDbLine
 10
15.0070337261
 20
15.4256469485
 30
0.0
 11
15.2919332644
 21
15.7538926104
 31
0.0
  0
LINE
  5
141
330
1F
100
AcDbEntity
  8
SK3
  6
SLD-Dashed
370
    18
100
AcDbLine
 10
15.2919332644
 20
15.7538926104
 30
0.0
 11
15.5701541057
 21
16.1101593408
 31
0.0
  0
LINE
  5
142
330
1F
100
AcDbEntity
  8
SK3
  6
SLD-Dashed
370
    18
100
AcDbLine
 10
15.5701541057
 20
16.1101593408
 30
0.0
 11
15.8266972923
 21
16.4752407083
 31
0.0
  0
LINE
  5
143
330
1F
100
AcDbEntity
  8
SK3
  6
SLD-Dashed
370
    18
100
AcDbLine
 10
15.8266972923
 20
16.4752407083
 30
0.0
 11
16.0477325146
 21
16.8294550816
 31
0.0
  0
LINE
  5
144
330
1F
100
AcDbEntity
  8
SK3
  6
SLD-Dashed
370
    18
100
AcDbLine
 10
16.0477325146
 20
16.8294550816
 30
0.0
 11
16.2213437066
 21
17.1537066723
 31
0.0
  0
LINE
  5
145
330
1F
100
AcDbEntity
  8
SK3
  6
SLD-Dashed
370
    18
100
AcDbLine
 10
16.2213437066
 20
17.1537066723
 30
0.0
 11
16.338171444
 21
17.4305149933
 31
0.0
  0
LINE
  5
146
330
1F
100
AcDbEntity
  8
SK3
  6
SLD-Dashed
370
    18
100
AcDbLine
 10
16.338171444
 20
17.4305149933
 30
0.0
 11
16.3919175132
 21
17.6449572362
 31
0.0
  0
LINE
  5
147
330
1F
100
AcDbEntity
  8
SK3
  6
SLD-Dashed
370
    18
100
AcDbLine
 10
16.3919175132
 20
17.6449572362
 30
0.0
 11
16.3796844497
 21
17.7854727642
 31
0.0
  0
LINE
  5
148
330
1F
100
AcDbEntity
  8
SK3
  6
SLD-Dashed
370
    18
100
AcDbLine
 10
16.3796844497
 20
17.7854727642
 30
0.0
 11
16.3021317412
 21
17.8444863489
 31
0.0
  0
LINE
  5
149
330
1F
100
AcDbEntity
  8
SK3
  6
SLD-Dashed
370
    18
100
AcDbLine
 10
16.3021317412
 20
17.8444863489
 30
0.0
 11
16.1634402742
 21
17.8188165526
 31
0.0
  0
LINE
  5
14A
330
1F
100
AcDbEntity
  8
SK3
  6
SLD-Dashed
370
    18
100
AcDbLine
 10
16.1634402742
 20
17.8188165526
 30
0.0
 11
15.9710869416
 21
17.7098472407
 31
0.0
  0
LINE
  5
14B
330
1F
100
AcDbEntity
  8
SK3
  6
SLD-Dashed
370
    18
100
AcDbLine
 10
15.9710869416
 20
17.7098472407
 30
0.0
 11
15.7354415614
 21
17.523452977
 31
0.0
  0
LINE
  5
14C
330
1F
100
AcDbEntity
  8
SK3
  6
SLD-Dashed
370
    18
100
AcDbLine
 10
15.7354415614
 20
17.523452977
 30
0.0
 11
15.469207837
 21
17.2696823245
 31
0.0
  0
LINE
  5
14D
330
1F
100
AcDbEntity
  8
SK3
  6
SLD-Dashed
370
    18
100
AcDbLine
 10
15.469207837
 20
17.2696823245
 30
0.0
 11
15.1867384974
 21
16.9622161248
 31
0.0
  0
LINE
  5
14E
330
1F
100
AcDbEntity
  8
SK3
  6
SLD-Dashed
370
    18
100
AcDbLine
 10
15.1867384974
 20
16.9622161248
 30
0.0
 11
14.9032615378
 21
16.6176299602
 31
0.0
  0
LINE
  5
14F
330
1F
100
AcDbEntity
  8
SK3
  6
SLD-Dashed
370
    18
100
AcDbLine
 10
14.9032615378
 20
16.6176299602
 30
0.0
 11
14.6340592745
 21
16.2545005602
 31
0.0
  0
LINE
  5
150
330
1F
100
AcDbEntity
  8
SK3
  6
SLD-Dashed
370
    18
100
AcDbLine
 10
14.6340592745
 20
16.2545005602
 30
0.0
 11
14.3936444711
 21
15.8924043246
 31
0.0
  0
LINE
  5
151
330
1F
100
AcDbEntity
  8
SK3
  6
SLD-Dashed
370
    18
100
AcDbLine
 10
14.3936444711
 20
15.8924043246
 30
0.0
 11
14.194977952
 21
15.5508619552
 31
0.0
  0
LINE
  5
152
330
1F
100
AcDbEntity
  8
SK3
  6
SLD-Dashed
370
    18
100
AcDbLine
 10
14.194977952
 20
15.5508619552
 30
0.0
 11
14.0487698807
 21
15.2482860897
 31
0.0
  0
LINE
  5
153
330
1F
100
AcDbEntity
  8
SK3
  6
SLD-Dashed
370
    18
100
AcDbLine
 10
14.0487698807
 20
15.2482860897
 30
0.0
 11
13.962902372
 21
15.0009886711
 31
0.0
  0
LINE
  5
154
330
1F
100
AcDbEntity
  8
SK3
  6
SLD-Dashed
370
    18
100
AcDbLine
 10
13.962902372
 20
15.0009886711
 30
0.0
 11
13.9420045656
 21
14.8223015673
 31
0.0
  0
LINE
  5
155
330
1F
100
AcDbEntity
  8
SK3
  6
SLD-Dashed
370
    18
100
AcDbLine
 10
13.9420045656
 20
14.8223015673
 30
0.0
 11
13.9872030677
 21
14.7218578465
 31
0.0
  0
LINE
  5
156
330
1F
100
AcDbEntity
  8
SK3
  6
SLD-Dashed
370
    18
100
AcDbLine
 10
11.115
 20
22.6460744969
 30
0.0
 11
11.5253383138
 21
22.6638040633
 31
0.0
  0
LINE
  5
157
330
1F
100
AcDbEntity
  8
SK3
  6
SLD-Dashed
370
    18
100
AcDbLine
 10
11.5253383138
 20
22.6638040633
 30
0.0
 11
11.9098935623
 21
22.7158787485
 31
0.0
  0
LINE
  5
158
330
1F
100
AcDbEntity
  8
SK3
  6
SLD-Dashed
370
    18
100
AcDbLine
 10
11.9098935623
 20
22.7158787485
 30
0.0
 11
12.2445027248
 21
22.7990265086
 31
0.0
  0
LINE
  5
159
330
1F
100
AcDbEntity
  8
SK3
  6
SLD-Dashed
370
    18
100
AcDbLine
 10
12.2445027248
 20
22.7990265086
 30
0.0
 11
12.5081410771
 21
22.908022864
 31
0.0
  0
LINE
  5
15A
330
1F
100
AcDbEntity
  8
SK3
  6
SLD-Dashed
370
    18
100
AcDbLine
 10
12.5081410771
 20
22.908022864
 30
0.0
 11
12.6842432519
 21
23.0360191728
 31
0.0
  0
LINE
  5
15B
330
1F
100
AcDbEntity
  8
SK3
  6
SLD-Dashed
370
    18
100
AcDbLine
 10
12.6842432519
 20
23.0360191728
 30
0.0
 11
12.7617441019
 21
23.1749729563
 31
0.0
  0
LINE
  5
15C
330
1F
100
AcDbEntity
  8
SK3
  6
SLD-Dashed
370
    18
100
AcDbLine
 10
12.7617441019
 20
23.1749729563
 30
0.0
 11
12.7357739637
 21
23.3161532371
 31
0.0
  0
LINE
  5
15D
330
1F
100
AcDbEntity
  8
SK3
  6
SLD-Dashed
370
    18
100
AcDbLine
 10
12.7357739637
 20
23.3161532371
 30
0.0
 11
12.6079646366
 21
23.4506891391
 31
0.0
  0
LINE
  5
15E
330
1F
100
AcDbEntity
  8
SK3
  6
SLD-Dashed
370
    18
100
AcDbLine
 10
12.6079646366
 20
23.4506891391
 30
0.0
 11
12.3863468506
 21
23.5701272766
 31
0.0
  0
LINE
  5
15F
330
1F
100
AcDbEntity
  8
SK3
  6
SLD-Dashed
370
    18
100
AcDbLine
 10
12.3863468506
 20
23.5701272766
 30
0.0
 11
12.0848456663
 21
23.6669629122
 31
0.0
  0
LINE
  5
160
330
1F
100
AcDbEntity
  8
SK3
  6
SLD-Dashed
370
    18
100
AcDbLine
 10
12.0848456663
 20
23.6669629122
 30
0.0
 11
11.7224055119
 21
23.7351115069
 31
0.0
  0
LINE
  5
161
330
1F
100
AcDbEntity
  8
SK3
  6
SLD-Dashed
370
    18
100
AcDbLine
 10
11.7224055119
 20
23.7351115069
 30
0.0
 11
11.3217998354
 21
23.7702910338
 31
0.0
  0
LINE
  5
162
330
1F
100
AcDbEntity
  8
SK3
  6
SLD-Dashed
370
    18
100
AcDbLine
 10
11.3217998354
 20
23.7702910338
 30
0.0
 11
10.9082001646
 21
23.7702910338
 31
0.0
  0
LINE
  5
163
330
1F
100
AcDbEntity
  8
SK3
  6
SLD-Dashed
370
    18
100
AcDbLine
 10
10.9082001646
 20
23.7702910338
 30
0.0
 11
10.5075944881
 21
23.7351115069
 31
0.0
  0
LINE
  5
164
330
1F
100
AcDbEntity
  8
SK3
  6
SLD-Dashed
370
    18
100
AcDbLine
 10
10.5075944881
 20
23.7351115069
 30
0.0
 11
10.1451543337
 21
23.6669629122
 31
0.0
  0
LINE
  5
165
330
1F
100
AcDbEntity
  8
SK3
  6
SLD-Dashed
370
    18
100
AcDbLine
 10
10.1451543337
 20
23.6669629122
 30
0.0
 11
9.8436531494
 21
23.5701272766
 31
0.0
  0
LINE
  5
166
330
1F
100
AcDbEntity
  8
SK3
  6
SLD-Dashed
370
    18
100
AcDbLine
 10
9.8436531494
 20
23.5701272766
 30
0.0
 11
9.6220353634
 21
23.4506891391
 31
0.0
  0
LINE
  5
167
330
1F
100
AcDbEntity
  8
SK3
  6
SLD-Dashed
370
    18
100
AcDbLine
 10
9.6220353634
 20
23.4506891391
 30
0.0
 11
9.4942260363
 21
23.3161532371
 31
0.0
  0
LINE
  5
168
330
1F
100
AcDbEntity
  8
SK3
  6
SLD-Dashed
370
    18
100
AcDbLine
 10
9.4942260363
 20
23.3161532371
 30
0.0
 11
9.4682558981
 21
23.1749729563
 31
0.0
  0
LINE
  5
169
330
1F
100
AcDbEntity
  8
SK3
  6
SLD-Dashed
370
    18
100
AcDbLine
 10
9.4682558981
 20
23.1749729563
 30
0.0
 11
9.5457567481
 21
23.0360191728
 31
0.0
  0
LINE
  5
16A
330
1F
100
AcDbEntity
  8
SK3
  6
SLD-Dashed
370
    18
100
AcDbLine
 10
9.5457567481
 20
23.0360191728
 30
0.0
 11
9.7218589229
 21
22.908022864
 31
0.0
  0
LINE
  5
16B
330
1F
100
AcDbEntity
  8
SK3
  6
SLD-Dashed
370
    18
100
AcDbLine
 10
9.7218589229
 20
22.908022864
 30
0.0
 11
9.9854972752
 21
22.7990265086
 31
0.0
  0
LINE
  5
16C
330
1F
100
AcDbEntity
  8
SK3
  6
SLD-Dashed
370
    18
100
AcDbLine
 10
9.9854972752
 20
22.7990265086
 30
0.0
 11
10.3201064377
 21
22.7158787485
 31
0.0
  0
LINE
  5
16D
330
1F
100
AcDbEntity
  8
SK3
  6
SLD-Dashed
370
    18
100
AcDbLine
 10
10.3201064377
 20
22.7158787485
 30
0.0
 11
10.7046616862
 21
22.6638040633
 31
0.0
  0
LINE
  5
16E
330
1F
100
AcDbEntity
  8
SK3
  6
SLD-Dashed
370
    18
100
AcDbLine
 10
10.7046616862
 20
22.6638040633
 30
0.0
 11
11.115
 21
22.6460744969
 31
0.0
  0
LINE
  5
16F
330
1F
100
AcDbEntity
  8
SK3
  6
SLD-Dashed
370
    18
100
AcDbLine
 10
-66.9509618943
 20
-8.5
 30
0.0
 11
-66.9509618943
 21
8.5
 31
0.0
  0
LINE
  5
170
330
1F
100
AcDbEntity
  8
SK3
  6
SLD-Dashed
370
    18
100
AcDbLine
 10
-68.25
 20
9.25
 30
0.0
 11
-68.25
 21
-9.25
 31
0.0
  0
LINE
  5
171
330
1F
100
AcDbEntity
  8
SK3
  6
SLD-Dashed
370
    18
100
AcDbLine
 10
-57.75
 20
-8.8
 30
0.0
 11
-57.75
 21
8.8
 31
0.0
  0
LINE
  5
172
330
1F
100
AcDbEntity
  8
SK3
  6
SLD-Dashed
370
    18
100
AcDbLine
 10
-59.75
 20
-8.8
 30
0.0
 11
-59.75
 21
8.8
 31
0.0
  0
LINE
  5
173
330
1F
100
AcDbEntity
  8
SK3
  6
SLD-Dashed
370
    18
100
AcDbLine
 10
-60.2696152423
 20
-8.5
 30
0.0
 11
-60.2696152423
 21
8.5
 31
0.0
  0
LINE
  5
174
330
1F
100
AcDbEntity
  8
SK3
  6
SLD-Dashed
370
    18
100
AcDbLine
 10
-56.7107695155
 20
7.0
 30
0.0
 11
-56.7107695155
 21
-7.0
 31
0.0
  0
LINE
  5
175
330
1F
100
AcDbEntity
  8
SK3
  6
SLD-Dashed
370
    18
100
AcDbLine
 10
20.375
 20
-19.4
 30
0.0
 11
34.625
 21
-19.4
 31
0.0
  0
LINE
  5
176
330
1F
100
AcDbEntity
  8
SK3
  6
SLD-Dashed
370
    18
100
AcDbLine
 10
9.75
 20
6.2028278264
 30
0.0
 11
9.75
 21
-6.99995
 31
0.0
  0
LINE
  5
177
330
1F
100
AcDbEntity
  8
SK3
  6
SLD-Dashed
370
    18
100
AcDbLine
 10
9.75
 20
-6.2028278264
 30
0.0
 11
9.75
 21
6.99995
 31
0.0
  0
LINE
  5
178
330
1F
100
AcDbEntity
  8
SK3
  6
SLD-Dashed
370
    18
100
AcDbLine
 10
10.350830576
 20
4.9679651611
 30
0.0
 11
10.350830576
 21
-6.0
 31
0.0
  0
LINE
  5
179
330
1F
100
AcDbEntity
  8
SK3
  6
SLD-Dashed
370
    18
100
AcDbLine
 10
49.0
 20
6.0
 30
0.0
 11
49.0
 21
-6.0
 31
0.0
  0
LINE
  5
17A
330
1F
100
AcDbEntity
  8
1
  6
SLD-Dashed
370
    18
100
AcDbLine
 10
50.0
 20
6.5643713709
 30
0.0
 11
50.0
 21
-6.5643713709
 31
0.0
  0
LINE
  5
17B
330
1F
100
AcDbEntity
  8
SK3
  6
SLD-Dashed
370
    18
100
AcDbLine
 10
10.350830576
 20
-4.9679651611
 30
0.0
 11
10.350830576
 21
6.0
 31
0.0
  0
LINE
  5
17C
330
1F
100
AcDbEntity
  8
SK3
  6
SLD-Dashed
370
    18
100
AcDbLine
 10
22.39
 20
-19.4
 30
0.0
 11
32.61
 21
-19.4
 31
0.0
  0
LINE
  5
17D
330
1F
100
AcDbEntity
  8
SK3
  6
SLD-Dashed
370
    18
100
AcDbLine
 10
16.3488925452
 20
-17.8254723219
 30
0.0
 11
16.2400343976
 21
-17.8422577129
 31
0.0
  0
LINE
  5
17E
330
1F
100
AcDbEntity
  8
SK3
  6
SLD-Dashed
370
    18
100
AcDbLine
 10
16.2400343976
 20
-17.8422577129
 30
0.0
 11
16.0733851753
 21
-17.7744798693
 31
0.0
  0
LINE
  5
17F
330
1F
100
AcDbEntity
  8
SK3
  6
SLD-Dashed
370
    18
100
AcDbLine
 10
16.0733851753
 20
-17.7744798693
 30
0.0
 11
15.8579289812
 21
-17.6257927121
 31
0.0
  0
LINE
  5
180
330
1F
100
AcDbEntity
  8
SK3
  6
SLD-Dashed
370
    18
100
AcDbLine
 10
15.8579289812
 20
-17.6257927121
 30
0.0
 11
15.6052811144
 21
-17.4042120046
 31
0.0
  0
LINE
  5
181
330
1F
100
AcDbEntity
  8
SK3
  6
SLD-Dashed
370
    18
100
AcDbLine
 10
15.6052811144
 20
-17.4042120046
 30
0.0
 11
15.3290618868
 21
-17.1216832199
 31
0.0
  0
LINE
  5
182
330
1F
100
AcDbEntity
  8
SK3
  6
SLD-Dashed
370
    18
100
AcDbLine
 10
15.3290618868
 20
-17.1216832199
 30
0.0
 11
15.0441623484
 21
-16.793437558
 31
0.0
  0
LINE
  5
183
330
1F
100
AcDbEntity
  8
SK3
  6
SLD-Dashed
370
    18
100
AcDbLine
 10
15.0441623484
 20
-16.793437558
 30
0.0
 11
14.7659415072
 21
-16.4371708276
 31
0.0
  0
LINE
  5
184
330
1F
100
AcDbEntity
  8
SK3
  6
SLD-Dashed
370
    18
100
AcDbLine
 10
14.7659415072
 20
-16.4371708276
 30
0.0
 11
14.5093983206
 21
-16.0720894601
 31
0.0
  0
LINE
  5
185
330
1F
100
AcDbEntity
  8
SK3
  6
SLD-Dashed
370
    18
100
AcDbLine
 10
14.5093983206
 20
-16.0720894601
 30
0.0
 11
14.2883630983
 21
-15.7178750868
 31
0.0
  0
LINE
  5
186
330
1F
100
AcDbEntity
  8
SK3
  6
SLD-Dashed
370
    18
100
AcDbLine
 10
14.2883630983
 20
-15.7178750868
 30
0.0
 11
14.1147519063
 21
-15.3936234961
 31
0.0
  0
LINE
  5
187
330
1F
100
AcDbEntity
  8
SK3
  6
SLD-Dashed
370
    18
100
AcDbLine
 10
14.1147519063
 20
-15.3936234961
 30
0.0
 11
13.9979241689
 21
-15.1168151751
 31
0.0
  0
LINE
  5
188
330
1F
100
AcDbEntity
  8
SK3
  6
SLD-Dashed
370
    18
100
AcDbLine
 10
13.9979241689
 20
-15.1168151751
 30
0.0
 11
13.9441780997
 21
-14.9023729322
 31
0.0
  0
LINE
  5
189
330
1F
100
AcDbEntity
  8
SK3
  6
SLD-Dashed
370
    18
100
AcDbLine
 10
13.9441780997
 20
-14.9023729322
 30
0.0
 11
13.9564111631
 21
-14.7618574042
 31
0.0
  0
LINE
  5
18A
330
1F
100
AcDbEntity
  8
SK3
  6
SLD-Dashed
370
    18
100
AcDbLine
 10
13.9564111631
 20
-14.7618574042
 30
0.0
 11
14.0339638717
 21
-14.7028438195
 31
0.0
  0
LINE
  5
18B
330
1F
100
AcDbEntity
  8
SK3
  6
SLD-Dashed
370
    18
100
AcDbLine
 10
14.0339638717
 20
-14.7028438195
 30
0.0
 11
14.1726553387
 21
-14.7285136158
 31
0.0
  0
LINE
  5
18C
330
1F
100
AcDbEntity
  8
SK3
  6
SLD-Dashed
370
    18
100
AcDbLine
 10
14.1726553387
 20
-14.7285136158
 30
0.0
 11
14.3650086712
 21
-14.8374829277
 31
0.0
  0
LINE
  5
18D
330
1F
100
AcDbEntity
  8
SK3
  6
SLD-Dashed
370
    18
100
AcDbLine
 10
14.3650086712
 20
-14.8374829277
 30
0.0
 11
14.6006540514
 21
-15.0238771914
 31
0.0
  0
LINE
  5
18E
330
1F
100
AcDbEntity
  8
SK3
  6
SLD-Dashed
370
    18
100
AcDbLine
 10
14.6006540514
 20
-15.0238771914
 30
0.0
 11
14.8668877759
 21
-15.2776478439
 31
0.0
  0
LINE
  5
18F
330
1F
100
AcDbEntity
  8
SK3
  6
SLD-Dashed
370
    18
100
AcDbLine
 10
14.8668877759
 20
-15.2776478439
 30
0.0
 11
15.1493571155
 21
-15.5851140436
 31
0.0
  0
LINE
  5
190
330
1F
100
AcDbEntity
  8
SK3
  6
SLD-Dashed
370
    18
100
AcDbLine
 10
15.1493571155
 20
-15.5851140436
 30
0.0
 11
15.4328340751
 21
-15.9297002082
 31
0.0
  0
LINE
  5
191
330
1F
100
AcDbEntity
  8
SK3
  6
SLD-Dashed
370
    18
100
AcDbLine
 10
15.4328340751
 20
-15.9297002082
 30
0.0
 11
15.7020363384
 21
-16.2928296082
 31
0.0
  0
LINE
  5
192
330
1F
100
AcDbEntity
  8
SK3
  6
SLD-Dashed
370
    18
100
AcDbLine
 10
15.7020363384
 20
-16.2928296082
 30
0.0
 11
15.9424511417
 21
-16.6549258438
 31
0.0
  0
LINE
  5
193
330
1F
100
AcDbEntity
  8
SK3
  6
SLD-Dashed
370
    18
100
AcDbLine
 10
15.9424511417
 20
-16.6549258438
 30
0.0
 11
16.1411176608
 21
-16.9964682132
 31
0.0
  0
LINE
  5
194
330
1F
100
AcDbEntity
  8
SK3
  6
SLD-Dashed
370
    18
100
AcDbLine
 10
16.1411176608
 20
-16.9964682132
 30
0.0
 11
16.2873257322
 21
-17.2990440787
 31
0.0
  0
LINE
  5
195
330
1F
100
AcDbEntity
  8
SK3
  6
SLD-Dashed
370
    18
100
AcDbLine
 10
16.2873257322
 20
-17.2990440787
 30
0.0
 11
16.3731932409
 21
-17.5463414973
 31
0.0
  0
LINE
  5
196
330
1F
100
AcDbEntity
  8
SK3
  6
SLD-Dashed
370
    18
100
AcDbLine
 10
16.3731932409
 20
-17.5463414973
 30
0.0
 11
16.3940910473
 21
-17.7250286011
 31
0.0
  0
LINE
  5
197
330
1F
100
AcDbEntity
  8
SK3
  6
SLD-Dashed
370
    18
100
AcDbLine
 10
16.3940910473
 20
-17.7250286011
 30
0.0
 11
16.3488925452
 21
-17.8254723219
 31
0.0
  0
LINE
  5
198
330
1F
100
AcDbEntity
  8
SK3
  6
SLD-Dashed
370
    18
100
AcDbLine
 10
5.7019928732
 20
-25.9272101898
 30
0.0
 11
5.5931347256
 21
-25.9439955808
 31
0.0
  0
LINE
  5
199
330
1F
100
AcDbEntity
  8
SK3
  6
SLD-Dashed
370
    18
100
AcDbLine
 10
5.5931347256
 20
-25.9439955808
 30
0.0
 11
5.4264855034
 21
-25.8762177371
 31
0.0
  0
LINE
  5
19A
330
1F
100
AcDbEntity
  8
SK3
  6
SLD-Dashed
370
    18
100
AcDbLine
 10
5.4264855034
 20
-25.8762177371
 30
0.0
 11
5.2110293093
 21
-25.72753058
 31
0.0
  0
LINE
  5
19B
330
1F
100
AcDbEntity
  8
SK3
  6
SLD-Dashed
370
    18
100
AcDbLine
 10
5.2110293093
 20
-25.72753058
 30
0.0
 11
4.9583814425
 21
-25.5059498724
 31
0.0
  0
LINE
  5
19C
330
1F
100
AcDbEntity
  8
SK3
  6
SLD-Dashed
370
    18
100
AcDbLine
 10
4.9583814425
 20
-25.5059498724
 30
0.0
 11
4.6821622149
 21
-25.2234210877
 31
0.0
  0
LINE
  5
19D
330
1F
100
AcDbEntity
  8
SK3
  6
SLD-Dashed
370
    18
100
AcDbLine
 10
4.6821622149
 20
-25.2234210877
 30
0.0
 11
4.3972626765
 21
-24.8951754259
 31
0.0
  0
LINE
  5
19E
330
1F
100
AcDbEntity
  8
SK3
  6
SLD-Dashed
370
    18
100
AcDbLine
 10
4.3972626765
 20
-24.8951754259
 30
0.0
 11
4.1190418352
 21
-24.5389086954
 31
0.0
  0
LINE
  5
19F
330
1F
100
AcDbEntity
  8
SK3
  6
SLD-Dashed
370
    18
100
AcDbLine
 10
4.1190418352
 20
-24.5389086954
 30
0.0
 11
3.8624986486
 21
-24.173827328
 31
0.0
  0
LINE
  5
1A0
330
1F
100
AcDbEntity
  8
SK3
  6
SLD-Dashed
370
    18
100
AcDbLine
 10
3.8624986486
 20
-24.173827328
 30
0.0
 11
3.6414634263
 21
-23.8196129546
 31
0.0
  0
LINE
  5
1A1
330
1F
100
AcDbEntity
  8
SK3
  6
SLD-Dashed
370
    18
100
AcDbLine
 10
3.6414634263
 20
-23.8196129546
 30
0.0
 11
3.4678522343
 21
-23.4953613639
 31
0.0
  0
LINE
  5
1A2
330
1F
100
AcDbEntity
  8
SK3
  6
SLD-Dashed
370
    18
100
AcDbLine
 10
3.4678522343
 20
-23.4953613639
 30
0.0
 11
3.3510244969
 21
-23.218553043
 31
0.0
  0
LINE
  5
1A3
330
1F
100
AcDbEntity
  8
SK3
  6
SLD-Dashed
370
    18
100
AcDbLine
 10
3.3510244969
 20
-23.218553043
 30
0.0
 11
3.2972784277
 21
-23.0041108001
 31
0.0
  0
LINE
  5
1A4
330
1F
100
AcDbEntity
  8
SK3
  6
SLD-Dashed
370
    18
100
AcDbLine
 10
3.2972784277
 20
-23.0041108001
 30
0.0
 11
3.3095114912
 21
-22.8635952721
 31
0.0
  0
LINE
  5
1A5
330
1F
100
AcDbEntity
  8
SK3
  6
SLD-Dashed
370
    18
100
AcDbLine
 10
3.3095114912
 20
-22.8635952721
 30
0.0
 11
3.3870641997
 21
-22.8045816874
 31
0.0
  0
LINE
  5
1A6
330
1F
100
AcDbEntity
  8
SK3
  6
SLD-Dashed
370
    18
100
AcDbLine
 10
3.3870641997
 20
-22.8045816874
 30
0.0
 11
3.5257556667
 21
-22.8302514837
 31
0.0
  0
LINE
  5
1A7
330
1F
100
AcDbEntity
  8
SK3
  6
SLD-Dashed
370
    18
100
AcDbLine
 10
3.5257556667
 20
-22.8302514837
 30
0.0
 11
3.7181089993
 21
-22.9392207956
 31
0.0
  0
LINE
  5
1A8
330
1F
100
AcDbEntity
  8
SK3
  6
SLD-Dashed
370
    18
100
AcDbLine
 10
3.7181089993
 20
-22.9392207956
 30
0.0
 11
3.9537543795
 21
-23.1256150593
 31
0.0
  0
LINE
  5
1A9
330
1F
100
AcDbEntity
  8
SK3
  6
SLD-Dashed
370
    18
100
AcDbLine
 10
3.9537543795
 20
-23.1256150593
 30
0.0
 11
4.2199881039
 21
-23.3793857117
 31
0.0
  0
LINE
  5
1AA
330
1F
100
AcDbEntity
  8
SK3
  6
SLD-Dashed
370
    18
100
AcDbLine
 10
4.2199881039
 20
-23.3793857117
 30
0.0
 11
4.5024574435
 21
-23.6868519115
 31
0.0
  0
LINE
  5
1AB
330
1F
100
AcDbEntity
  8
SK3
  6
SLD-Dashed
370
    18
100
AcDbLine
 10
4.5024574435
 20
-23.6868519115
 30
0.0
 11
4.7859344031
 21
-24.031438076
 31
0.0
  0
LINE
  5
1AC
330
1F
100
AcDbEntity
  8
SK3
  6
SLD-Dashed
370
    18
100
AcDbLine
 10
4.7859344031
 20
-24.031438076
 30
0.0
 11
5.0551366664
 21
-24.3945674761
 31
0.0
  0
LINE
  5
1AD
330
1F
100
AcDbEntity
  8
SK3
  6
SLD-Dashed
370
    18
100
AcDbLine
 10
5.0551366664
 20
-24.3945674761
 30
0.0
 11
5.2955514698
 21
-24.7566637116
 31
0.0
  0
LINE
  5
1AE
330
1F
100
AcDbEntity
  8
SK3
  6
SLD-Dashed
370
    18
100
AcDbLine
 10
5.2955514698
 20
-24.7566637116
 30
0.0
 11
5.4942179889
 21
-25.098206081
 31
0.0
  0
LINE
  5
1AF
330
1F
100
AcDbEntity
  8
SK3
  6
SLD-Dashed
370
    18
100
AcDbLine
 10
5.4942179889
 20
-25.098206081
 30
0.0
 11
5.6404260603
 21
-25.4007819466
 31
0.0
  0
LINE
  5
1B0
330
1F
100
AcDbEntity
  8
SK3
  6
SLD-Dashed
370
    18
100
AcDbLine
 10
5.6404260603
 20
-25.4007819466
 30
0.0
 11
5.7262935689
 21
-25.6480793652
 31
0.0
  0
LINE
  5
1B1
330
1F
100
AcDbEntity
  8
SK3
  6
SLD-Dashed
370
    18
100
AcDbLine
 10
5.7262935689
 20
-25.6480793652
 30
0.0
 11
5.7471913753
 21
-25.8267664689
 31
0.0
  0
LINE
  5
1B2
330
1F
100
AcDbEntity
  8
SK3
  6
SLD-Dashed
370
    18
100
AcDbLine
 10
5.7471913753
 20
-25.8267664689
 30
0.0
 11
5.7019928732
 21
-25.9272101898
 31
0.0
  0
LINE
  5
1B3
330
1F
100
AcDbEntity
  8
SK3
  6
SLD-Dashed
370
    18
100
AcDbLine
 10
11.115
 20
-22.9279822832
 30
0.0
 11
10.7046616862
 21
-22.9457118495
 31
0.0
  0
LINE
  5
1B4
330
1F
100
AcDbEntity
  8
SK3
  6
SLD-Dashed
370
    18
100
AcDbLine
 10
10.7046616862
 20
-22.9457118495
 30
0.0
 11
10.3201064377
 21
-22.9977865347
 31
0.0
  0
LINE
  5
1B5
330
1F
100
AcDbEntity
  8
SK3
  6
SLD-Dashed
370
    18
100
AcDbLine
 10
10.3201064377
 20
-22.9977865347
 30
0.0
 11
9.9854972752
 21
-23.0809342948
 31
0.0
  0
LINE
  5
1B6
330
1F
100
AcDbEntity
  8
SK3
  6
SLD-Dashed
370
    18
100
AcDbLine
 10
9.9854972752
 20
-23.0809342948
 30
0.0
 11
9.7218589229
 21
-23.1899306502
 31
0.0
  0
LINE
  5
1B7
330
1F
100
AcDbEntity
  8
SK3
  6
SLD-Dashed
370
    18
100
AcDbLine
 10
9.7218589229
 20
-23.1899306502
 30
0.0
 11
9.5457567481
 21
-23.3179269591
 31
0.0
  0
LINE
  5
1B8
330
1F
100
AcDbEntity
  8
SK3
  6
SLD-Dashed
370
    18
100
AcDbLine
 10
9.5457567481
 20
-23.3179269591
 30
0.0
 11
9.4682558981
 21
-23.4568807425
 31
0.0
  0
LINE
  5
1B9
330
1F
100
AcDbEntity
  8
SK3
  6
SLD-Dashed
370
    18
100
AcDbLine
 10
9.4682558981
 20
-23.4568807425
 30
0.0
 11
9.4942260363
 21
-23.5980610234
 31
0.0
  0
LINE
  5
1BA
330
1F
100
AcDbEntity
  8
SK3
  6
SLD-Dashed
370
    18
100
AcDbLine
 10
9.4942260363
 20
-23.5980610234
 30
0.0
 11
9.6220353634
 21
-23.7325969253
 31
0.0
  0
LINE
  5
1BB
330
1F
100
AcDbEntity
  8
SK3
  6
SLD-Dashed
370
    18
100
AcDbLine
 10
9.6220353634
 20
-23.7325969253
 30
0.0
 11
9.8436531494
 21
-23.8520350628
 31
0.0
  0
LINE
  5
1BC
330
1F
100
AcDbEntity
  8
SK3
  6
SLD-Dashed
370
    18
100
AcDbLine
 10
9.8436531494
 20
-23.8520350628
 30
0.0
 11
10.1451543337
 21
-23.9488706985
 31
0.0
  0
LINE
  5
1BD
330
1F
100
AcDbEntity
  8
SK3
  6
SLD-Dashed
370
    18
100
AcDbLine
 10
10.1451543337
 20
-23.9488706985
 30
0.0
 11
10.5075944881
 21
-24.0170192931
 31
0.0
  0
LINE
  5
1BE
330
1F
100
AcDbEntity
  8
SK3
  6
SLD-Dashed
370
    18
100
AcDbLine
 10
10.5075944881
 20
-24.0170192931
 30
0.0
 11
10.9082001646
 21
-24.05219882
 31
0.0
  0
LINE
  5
1BF
330
1F
100
AcDbEntity
  8
SK3
  6
SLD-Dashed
370
    18
100
AcDbLine
 10
10.9082001646
 20
-24.05219882
 30
0.0
 11
11.3217998354
 21
-24.05219882
 31
0.0
  0
LINE
  5
1C0
330
1F
100
AcDbEntity
  8
SK3
  6
SLD-Dashed
370
    18
100
AcDbLine
 10
11.3217998354
 20
-24.05219882
 30
0.0
 11
11.7224055119
 21
-24.0170192931
 31
0.0
  0
LINE
  5
1C1
330
1F
100
AcDbEntity
  8
SK3
  6
SLD-Dashed
370
    18
100
AcDbLine
 10
11.7224055119
 20
-24.0170192931
 30
0.0
 11
12.0848456663
 21
-23.9488706985
 31
0.0
  0
LINE
  5
1C2
330
1F
100
AcDbEntity
  8
SK3
  6
SLD-Dashed
370
    18
100
AcDbLine
 10
12.0848456663
 20
-23.9488706985
 30
0.0
 11
12.3863468506
 21
-23.8520350628
 31
0.0
  0
LINE
  5
1C3
330
1F
100
AcDbEntity
  8
SK3
  6
SLD-Dashed
370
    18
100
AcDbLine
 10
12.3863468506
 20
-23.8520350628
 30
0.0
 11
12.6079646366
 21
-23.7325969253
 31
0.0
  0
LINE
  5
1C4
330
1F
100
AcDbEntity
  8
SK3
  6
SLD-Dashed
370
    18
100
AcDbLine
 10
12.6079646366
 20
-23.7325969253
 30
0.0
 11
12.7357739637
 21
-23.5980610234
 31
0.0
  0
LINE
  5
1C5
330
1F
100
AcDbEntity
  8
SK3
  6
SLD-Dashed
370
    18
100
AcDbLine
 10
12.7357739637
 20
-23.5980610234
 30
0.0
 11
12.7617441019
 21
-23.4568807425
 31
0.0
  0
LINE
  5
1C6
330
1F
100
AcDbEntity
  8
SK3
  6
SLD-Dashed
370
    18
100
AcDbLine
 10
12.7617441019
 20
-23.4568807425
 30
0.0
 11
12.6842432519
 21
-23.3179269591
 31
0.0
  0
LINE
  5
1C7
330
1F
100
AcDbEntity
  8
SK3
  6
SLD-Dashed
370
    18
100
AcDbLine
 10
12.6842432519
 20
-23.3179269591
 30
0.0
 11
12.5081410771
 21
-23.1899306502
 31
0.0
  0
LINE
  5
1C8
330
1F
100
AcDbEntity
  8
SK3
  6
SLD-Dashed
370
    18
100
AcDbLine
 10
12.5081410771
 20
-23.1899306502
 30
0.0
 11
12.2445027248
 21
-23.0809342948
 31
0.0
  0
LINE
  5
1C9
330
1F
100
AcDbEntity
  8
SK3
  6
SLD-Dashed
370
    18
100
AcDbLine
 10
12.2445027248
 20
-23.0809342948
 30
0.0
 11
11.9098935623
 21
-22.9977865347
 31
0.0
  0
LINE
  5
1CA
330
1F
100
AcDbEntity
  8
SK3
  6
SLD-Dashed
370
    18
100
AcDbLine
 10
11.9098935623
 20
-22.9977865347
 30
0.0
 11
11.5253383138
 21
-22.9457118495
 31
0.0
  0
LINE
  5
1CB
330
1F
100
AcDbEntity
  8
SK3
  6
SLD-Dashed
370
    18
100
AcDbLine
 10
11.5253383138
 20
-22.9457118495
 30
0.0
 11
11.115
 21
-22.9279822832
 31
0.0
  0
LINE
  5
1CC
330
1F
100
AcDbEntity
  8
SK3
  6
SLD-Dashed
370
    18
100
AcDbLine
 10
5.7322709434
 20
-25.9670001189
 30
0.0
 11
5.6206215613
 21
-25.9842159046
 31
0.0
  0
LINE
  5
1CD
330
1F
100
AcDbEntity
  8
SK3
  6
SLD-Dashed
370
    18
100
AcDbLine
 10
5.6206215613
 20
-25.9842159046
 30
0.0
 11
5.4496992821
 21
-25.9147001675
 31
0.0
  0
LINE
  5
1CE
330
1F
100
AcDbEntity
  8
SK3
  6
SLD-Dashed
370
    18
100
AcDbLine
 10
5.4496992821
 20
-25.9147001675
 30
0.0
 11
5.2287185702
 21
-25.7622005192
 31
0.0
  0
LINE
  5
1CF
330
1F
100
AcDbEntity
  8
SK3
  6
SLD-Dashed
370
    18
100
AcDbLine
 10
5.2287185702
 20
-25.7622005192
 30
0.0
 11
4.9695925529
 21
-25.534938255
 31
0.0
  0
LINE
  5
1D0
330
1F
100
AcDbEntity
  8
SK3
  6
SLD-Dashed
370
    18
100
AcDbLine
 10
4.9695925529
 20
-25.534938255
 30
0.0
 11
4.686290781
 21
-25.2451651425
 31
0.0
  0
LINE
  5
1D1
330
1F
100
AcDbEntity
  8
SK3
  6
SLD-Dashed
370
    18
100
AcDbLine
 10
4.686290781
 20
-25.2451651425
 30
0.0
 11
4.3940861263
 21
-24.9085029252
 31
0.0
  0
LINE
  5
1D2
330
1F
100
AcDbEntity
  8
SK3
  6
SLD-Dashed
370
    18
100
AcDbLine
 10
4.3940861263
 20
-24.9085029252
 30
0.0
 11
4.1087314173
 21
-24.5431011504
 31
0.0
  0
LINE
  5
1D3
330
1F
100
AcDbEntity
  8
SK3
  6
SLD-Dashed
370
    18
100
AcDbLine
 10
4.1087314173
 20
-24.5431011504
 30
0.0
 11
3.8456102003
 21
-24.1686587222
 31
0.0
  0
LINE
  5
1D4
330
1F
100
AcDbEntity
  8
SK3
  6
SLD-Dashed
370
    18
100
AcDbLine
 10
3.8456102003
 20
-24.1686587222
 30
0.0
 11
3.6189074082
 21
-23.805361929
 31
0.0
  0
LINE
  5
1D5
330
1F
100
AcDbEntity
  8
SK3
  6
SLD-Dashed
370
    18
100
AcDbLine
 10
3.6189074082
 20
-23.805361929
 30
0.0
 11
3.4408446471
 21
-23.472796195
 31
0.0
  0
LINE
  5
1D6
330
1F
100
AcDbEntity
  8
SK3
  6
SLD-Dashed
370
    18
100
AcDbLine
 10
3.4408446471
 20
-23.472796195
 30
0.0
 11
3.3210213267
 21
-23.1888902248
 31
0.0
  0
LINE
  5
1D7
330
1F
100
AcDbEntity
  8
SK3
  6
SLD-Dashed
370
    18
100
AcDbLine
 10
3.3210213267
 20
-23.1888902248
 30
0.0
 11
3.2658971532
 21
-22.9689494629
 31
0.0
  0
LINE
  5
1D8
330
1F
100
AcDbEntity
  8
SK3
  6
SLD-Dashed
370
    18
100
AcDbLine
 10
3.2658971532
 20
-22.9689494629
 30
0.0
 11
3.2784438849
 21
-22.8248309726
 31
0.0
  0
LINE
  5
1D9
330
1F
100
AcDbEntity
  8
SK3
  6
SLD-Dashed
370
    18
100
AcDbLine
 10
3.2784438849
 20
-22.8248309726
 30
0.0
 11
3.3579851244
 21
-22.7643042191
 31
0.0
  0
LINE
  5
1DA
330
1F
100
AcDbEntity
  8
SK3
  6
SLD-Dashed
370
    18
100
AcDbLine
 10
3.3579851244
 20
-22.7643042191
 30
0.0
 11
3.5002327829
 21
-22.7906322152
 31
0.0
  0
LINE
  5
1DB
330
1F
100
AcDbEntity
  8
SK3
  6
SLD-Dashed
370
    18
100
AcDbLine
 10
3.5002327829
 20
-22.7906322152
 30
0.0
 11
3.6975182522
 21
-22.9023956121
 31
0.0
  0
LINE
  5
1DC
330
1F
100
AcDbEntity
  8
SK3
  6
SLD-Dashed
370
    18
100
AcDbLine
 10
3.6975182522
 20
-22.9023956121
 30
0.0
 11
3.9392058217
 21
-23.0935692159
 31
0.0
  0
LINE
  5
1DD
330
1F
100
AcDbEntity
  8
SK3
  6
SLD-Dashed
370
    18
100
AcDbLine
 10
3.9392058217
 20
-23.0935692159
 30
0.0
 11
4.2122660518
 21
-23.3538468081
 31
0.0
  0
LINE
  5
1DE
330
1F
100
AcDbEntity
  8
SK3
  6
SLD-Dashed
370
    18
100
AcDbLine
 10
4.2122660518
 20
-23.3538468081
 30
0.0
 11
4.501978195
 21
-23.6691967566
 31
0.0
  0
LINE
  5
1DF
330
1F
100
AcDbEntity
  8
SK3
  6
SLD-Dashed
370
    18
100
AcDbLine
 10
4.501978195
 20
-23.6691967566
 30
0.0
 11
4.7927237946
 21
-24.0226184638
 31
0.0
  0
LINE
  5
1E0
330
1F
100
AcDbEntity
  8
SK3
  6
SLD-Dashed
370
    18
100
AcDbLine
 10
4.7927237946
 20
-24.0226184638
 30
0.0
 11
5.0688286801
 21
-24.3950588741
 31
0.0
  0
LINE
  5
1E1
330
1F
100
AcDbEntity
  8
SK3
  6
SLD-Dashed
370
    18
100
AcDbLine
 10
5.0688286801
 20
-24.3950588741
 30
0.0
 11
5.3154079656
 21
-24.7664396286
 31
0.0
  0
LINE
  5
1E2
330
1F
100
AcDbEntity
  8
SK3
  6
SLD-Dashed
370
    18
100
AcDbLine
 10
5.3154079656
 20
-24.7664396286
 30
0.0
 11
5.519168498
 21
-25.1167394946
 31
0.0
  0
LINE
  5
1E3
330
1F
100
AcDbEntity
  8
SK3
  6
SLD-Dashed
370
    18
100
AcDbLine
 10
5.519168498
 20
-25.1167394946
 30
0.0
 11
5.6691254942
 21
-25.4270737157
 31
0.0
  0
LINE
  5
1E4
330
1F
100
AcDbEntity
  8
SK3
  6
SLD-Dashed
370
    18
100
AcDbLine
 10
5.6691254942
 20
-25.4270737157
 30
0.0
 11
5.7571947339
 21
-25.6807120937
 31
0.0
  0
LINE
  5
1E5
330
1F
100
AcDbEntity
  8
SK3
  6
SLD-Dashed
370
    18
100
AcDbLine
 10
5.7571947339
 20
-25.6807120937
 30
0.0
 11
5.7786283815
 21
-25.863980918
 31
0.0
  0
LINE
  5
1E6
330
1F
100
AcDbEntity
  8
SK3
  6
SLD-Dashed
370
    18
100
AcDbLine
 10
5.7786283815
 20
-25.863980918
 30
0.0
 11
5.7322709434
 21
-25.9670001189
 31
0.0
  0
LINE
  5
1E7
330
1F
100
AcDbEntity
  8
1
  6
SLD-Dashed
370
    18
100
AcDbLine
 10
3.2
 20
-22.8742979511
 30
0.0
 11
3.2
 21
-27.8871582268
 31
0.0
  0
LINE
  5
1E8
330
1F
100
AcDbEntity
  8
SK3
  6
SLD-Dashed
370
    18
100
AcDbLine
 10
9.115
 20
27.3466468125
 30
0.0
 11
9.115
 21
23.230614392
 31
0.0
  0
LINE
  5
1E9
330
1F
100
AcDbEntity
  8
SK3
  6
SLD-Dashed
370
    18
100
AcDbLine
 10
13.115
 20
23.2104077334
 30
0.0
 11
13.115
 21
27.3466468125
 31
0.0
  0
LINE
  5
1EA
330
1F
100
AcDbEntity
  8
SK3
  6
SLD-Dashed
370
    18
100
AcDbLine
 10
3.2
 20
22.8675293454
 30
0.0
 11
3.3100253255
 21
22.7838057852
 31
0.0
  0
LINE
  5
1EB
330
1F
100
AcDbEntity
  8
SK3
  6
SLD-Dashed
370
    18
100
AcDbLine
 10
5.7322709434
 20
25.9670001189
 30
0.0
 11
3.2
 21
27.8939268324
 31
0.0
  0
LINE
  5
1EC
330
1F
100
AcDbEntity
  8
SK3
  6
SLD-Dashed
370
    18
100
AcDbLine
 10
12.6773076344
 20
15.718620262
 30
0.0
 11
13.9872030677
 21
14.7218578465
 31
0.0
  0
LINE
  5
1ED
330
1F
100
AcDbEntity
  8
SK3
  6
SLD-Dashed
370
    18
100
AcDbLine
 10
3.3403033958
 20
22.8235957143
 30
0.0
 11
9.5636972046
 21
18.0879161418
 31
0.0
  0
LINE
  5
1EE
330
1F
100
AcDbEntity
  8
SK3
  6
SLD-Dashed
370
    18
100
AcDbLine
 10
9.5541511667
 20
22.9959177308
 30
0.0
 11
5.7019928732
 21
25.9272101898
 31
0.0
  0
LINE
  5
1EF
330
1F
100
AcDbEntity
  8
SK3
  6
SLD-Dashed
370
    18
100
AcDbLine
 10
16.3488925452
 20
17.8254723219
 30
0.0
 11
12.6670873806
 21
20.6271348944
 31
0.0
  0
LINE
  5
1F0
330
1F
100
AcDbEntity
  8
SK3
  6
SLD-Dashed
370
    18
100
AcDbLine
 10
9.465
 20
23.2104077334
 30
0.0
 11
9.465
 21
22.9667378435
 31
0.0
  0
LINE
  5
1F1
330
1F
100
AcDbEntity
  8
SK3
  6
SLD-Dashed
370
    18
100
AcDbLine
 10
12.765
 20
20.454307559
 30
0.0
 11
12.765
 21
23.2104077334
 31
0.0
  0
LINE
  5
1F2
330
1F
100
AcDbEntity
  8
SK3
  6
SLD-Dashed
370
    18
100
AcDbLine
 10
-68.25
 20
-9.25
 30
0.0
 11
-66.9509618943
 21
-8.5
 31
0.0
  0
LINE
  5
1F3
330
1F
100
AcDbEntity
  8
SK3
  6
SLD-Dashed
370
    18
100
AcDbLine
 10
-66.9509618943
 20
8.5
 30
0.0
 11
-68.25
 21
9.25
 31
0.0
  0
LINE
  5
1F4
330
1F
100
AcDbEntity
  8
SK3
  6
SLD-Dashed
370
    18
100
AcDbLine
 10
-57.75
 20
8.8
 30
0.0
 11
-59.75
 21
8.8
 31
0.0
  0
LINE
  5
1F5
330
1F
100
AcDbEntity
  8
SK3
  6
SLD-Dashed
370
    18
100
AcDbLine
 10
-59.75
 20
-8.8
 30
0.0
 11
-57.75
 21
-8.8
 31
0.0
  0
LINE
  5
1F6
330
1F
100
AcDbEntity
  8
SK3
  6
SLD-Dashed
370
    18
100
AcDbLine
 10
-59.75
 20
8.8
 30
0.0
 11
-60.2696152423
 21
8.5
 31
0.0
  0
LINE
  5
1F7
330
1F
100
AcDbEntity
  8
SK3
  6
SLD-Dashed
370
    18
100
AcDbLine
 10
-60.2696152423
 20
-8.5
 30
0.0
 11
-59.75
 21
-8.8
 31
0.0
  0
LINE
  5
1F8
330
1F
100
AcDbEntity
  8
SK3
  6
SLD-Dashed
370
    18
100
AcDbLine
 10
-57.75
 20
-8.8
 30
0.0
 11
-56.7107695155
 21
-7.0
 31
0.0
  0
LINE
  5
1F9
330
1F
100
AcDbEntity
  8
SK3
  6
SLD-Dashed
370
    18
100
AcDbLine
 10
-56.7107695155
 20
7.0
 30
0.0
 11
-57.75
 21
8.8
 31
0.0
  0
LINE
  5
1FA
330
1F
100
AcDbEntity
  8
SK3
  6
SLD-Dashed
370
    18
100
AcDbLine
 10
-66.9509618943
 20
-8.5
 30
0.0
 11
-60.2696152423
 21
-8.5
 31
0.0
  0
LINE
  5
1FB
330
1F
100
AcDbEntity
  8
SK3
  6
SLD-Dashed
370
    18
100
AcDbLine
 10
-60.2696152423
 20
8.5
 30
0.0
 11
-66.9509618943
 21
8.5
 31
0.0
  0
LINE
  5
1FC
330
1F
100
AcDbEntity
  8
SK3
  6
SLD-Dashed
370
    18
100
AcDbLine
 10
9.465
 20
18.2613425767
 30
0.0
 11
9.465
 21
6.5744936338
 31
0.0
  0
LINE
  5
1FD
330
1F
100
AcDbEntity
  8
SK3
  6
SLD-Dashed
370
    18
100
AcDbLine
 10
12.765
 20
5.6332749121
 30
0.0
 11
12.765
 21
15.7500776376
 31
0.0
  0
LINE
  5
1FE
330
1F
100
AcDbEntity
  8
SK3
  6
SLD-Dashed
370
    18
100
AcDbLine
 10
14.1920377033
 20
14.7367975886
 30
0.0
 11
16.0786127932
 21
15.5807724054
 31
0.0
  0
LINE
  5
1FF
330
1F
100
AcDbEntity
  8
SK3
  6
SLD-Dashed
370
    18
100
AcDbLine
 10
16.0786127932
 20
15.5807724054
 30
0.0
 11
16.3891004984
 21
17.6240678921
 31
0.0
  0
LINE
  5
200
330
1F
100
AcDbEntity
  8
SK3
  6
SLD-Dashed
370
    18
100
AcDbLine
 10
-56.7107695155
 20
-7.0
 30
0.0
 11
-11.25
 21
-7.0
 31
0.0
  0
LINE
  5
201
330
1F
100
AcDbEntity
  8
SK3
  6
SLD-Dashed
370
    18
100
AcDbLine
 10
-11.25
 20
7.0
 30
0.0
 11
-56.7107695155
 21
7.0
 31
0.0
  0
LINE
  5
202
330
1F
100
AcDbEntity
  8
SK3
  6
SLD-Dashed
370
    18
100
AcDbLine
 10
-11.249969957
 20
-6.99995
 30
0.0
 11
9.75
 21
-6.99995
 31
0.0
  0
LINE
  5
203
330
1F
100
AcDbEntity
  8
SK3
  6
SLD-Dashed
370
    18
100
AcDbLine
 10
9.75
 20
6.99995
 30
0.0
 11
-11.249969957
 21
6.99995
 31
0.0
  0
LINE
  5
204
330
1F
100
AcDbEntity
  8
SK3
  6
SLD-Dashed
370
    18
100
AcDbLine
 10
9.75
 20
-6.99995
 30
0.0
 11
10.350830576
 21
-6.0
 31
0.0
  0
LINE
  5
205
330
1F
100
AcDbEntity
  8
SK3
  6
SLD-Dashed
370
    18
100
AcDbLine
 10
50.0
 20
6.5773502692
 30
0.0
 11
49.0
 21
6.0
 31
0.0
  0
LINE
  5
206
330
1F
100
AcDbEntity
  8
SK3
  6
SLD-Dashed
370
    18
100
AcDbLine
 10
49.0
 20
-6.0
 30
0.0
 11
50.0
 21
-6.5773502692
 31
0.0
  0
LINE
  5
207
330
1F
100
AcDbEntity
  8
SK3
  6
SLD-Dashed
370
    18
100
AcDbLine
 10
49.0
 20
6.0
 30
0.0
 11
10.350830576
 21
6.0
 31
0.0
  0
LINE
  5
208
330
1F
100
AcDbEntity
  8
SK3
  6
SLD-Dashed
370
    18
100
AcDbLine
 10
32.61
 20
-6.0
 30
0.0
 11
49.0
 21
-6.0
 31
0.0
  0
LINE
  5
209
330
1F
100
AcDbEntity
  8
SK3
  6
SLD-Dashed
370
    18
100
AcDbLine
 10
10.350830576
 20
-6.0
 30
0.0
 11
22.3950065282
 21
-6.0
 31
0.0
  0
LINE
  5
20A
330
1F
100
AcDbEntity
  8
SK3
  6
SLD-Dashed
370
    18
100
AcDbLine
 10
32.61
 20
-19.4
 30
0.0
 11
32.61
 21
-6.0
 31
0.0
  0
LINE
  5
20B
330
1F
100
AcDbEntity
  8
SK3
  6
SLD-Dashed
370
    18
100
AcDbLine
 10
22.39
 20
-5.9957428851
 30
0.0
 11
22.39
 21
-19.4
 31
0.0
  0
LINE
  5
20C
330
1F
100
AcDbEntity
  8
SK3
  6
SLD-Dashed
370
    18
100
AcDbLine
 10
10.350830576
 20
6.0
 30
0.0
 11
9.75
 21
6.99995
 31
0.0
  0
LINE
  5
20D
330
1F
100
AcDbEntity
  8
SK3
  6
SLD-Dashed
370
    18
100
AcDbLine
 10
9.465
 20
-6.5744936338
 30
0.0
 11
9.465
 21
-18.259206264
 31
0.0
  0
LINE
  5
20E
330
1F
100
AcDbEntity
  8
SK3
  6
SLD-Dashed
370
    18
100
AcDbLine
 10
12.765
 20
-15.7542792276
 30
0.0
 11
12.765
 21
-5.635356188
 31
0.0
  0
LINE
  5
20F
330
1F
100
AcDbEntity
  8
SK3
  6
SLD-Dashed
370
    18
100
AcDbLine
 10
16.3891004984
 20
-17.6240678921
 30
0.0
 11
16.0786127932
 21
-15.5807724054
 31
0.0
  0
LINE
  5
210
330
1F
100
AcDbEntity
  8
SK3
  6
SLD-Dashed
370
    18
100
AcDbLine
 10
16.0786127932
 20
-15.5807724054
 30
0.0
 11
14.1920377033
 21
-14.7367975886
 31
0.0
  0
LINE
  5
211
330
1F
100
AcDbEntity
  8
SK3
  6
SLD-Dashed
370
    18
100
AcDbLine
 10
12.6773076344
 20
-20.6193578118
 30
0.0
 11
16.3488925452
 21
-17.8254723219
 31
0.0
  0
LINE
  5
212
330
1F
100
AcDbEntity
  8
SK3
  6
SLD-Dashed
370
    18
100
AcDbLine
 10
5.7019928732
 20
-25.9272101898
 30
0.0
 11
9.5594085835
 21
-22.9919171096
 31
0.0
  0
LINE
  5
213
330
1F
100
AcDbEntity
  8
SK3
  6
SLD-Dashed
370
    18
100
AcDbLine
 10
9.5588677739
 20
-18.0915910878
 30
0.0
 11
3.3403033958
 21
-22.8235957143
 31
0.0
  0
LINE
  5
214
330
1F
100
AcDbEntity
  8
SK3
  6
SLD-Dashed
370
    18
100
AcDbLine
 10
13.9872030677
 20
-14.7218578465
 30
0.0
 11
12.6651816959
 21
-15.7278474716
 31
0.0
  0
LINE
  5
215
330
1F
100
AcDbEntity
  8
SK3
  6
SLD-Dashed
370
    18
100
AcDbLine
 10
9.465
 20
-22.9638453577
 30
0.0
 11
9.465
 21
-23.4923155196
 31
0.0
  0
LINE
  5
216
330
1F
100
AcDbEntity
  8
SK3
  6
SLD-Dashed
370
    18
100
AcDbLine
 10
12.765
 20
-23.4923155196
 30
0.0
 11
12.765
 21
-20.4547737958
 31
0.0
  0
LINE
  5
217
330
1F
100
AcDbEntity
  8
SK3
  6
SLD-Dashed
370
    18
100
AcDbLine
 10
3.2
 20
-27.8939268324
 30
0.0
 11
5.7322709434
 21
-25.9670001189
 31
0.0
  0
LINE
  5
218
330
1F
100
AcDbEntity
  8
SK3
  6
SLD-Dashed
370
    18
100
AcDbLine
 10
3.3100253255
 20
-22.7838057852
 30
0.0
 11
3.2
 21
-22.8675293454
 31
0.0
  0
LINE
  5
219
330
1F
100
AcDbEntity
  8
SK3
  6
SLD-Dashed
370
    18
100
AcDbLine
 10
9.8021669195
 20
-23.8341593579
 30
0.0
 11
11.115
 21
-24.4239455979
 31
0.0
  0
LINE
  5
21A
330
1F
100
AcDbEntity
  8
SK3
  6
SLD-Dashed
370
    18
100
AcDbLine
 10
11.115
 20
-24.4239455979
 30
0.0
 11
12.4278330805
 21
-23.8341593579
 31
0.0
  0
LINE
  5
21B
330
1F
100
AcDbEntity
  8
SK3
  6
SLD-Solid
370
    18
100
AcDbLine
 10
-35.2500006557
 20
8.00000038
 30
0.0
 11
-57.2881214321
 21
8.00000038
 31
0.0
  0
LINE
  5
21C
330
1F
100
AcDbEntity
  8
SK3
  6
SLD-Solid
370
    18
100
AcDbLine
 10
-57.2881214321
 20
-8.00000038
 30
0.0
 11
-35.2500006557
 21
-8.00000038
 31
0.0
  0
LINE
  5
21D
330
1F
100
AcDbEntity
  8
SK3
  6
SLD-Solid
370
    18
100
AcDbLine
 10
-35.2500006557
 20
8.00000038
 30
0.0
 11
-35.2500006557
 21
7.9254871234
 31
0.0
  0
LINE
  5
21E
330
1F
100
AcDbEntity
  8
SK3
  6
SLD-Solid
370
    18
100
AcDbLine
 10
-35.2500599344
 20
7.9254871234
 30
0.0
 11
-35.2500006557
 21
7.703338284
 31
0.0
  0
LINE
  5
21F
330
1F
100
AcDbEntity
  8
SK3
  6
SLD-Solid
370
    18
100
AcDbLine
 10
-35.2500006557
 20
7.703338284
 30
0.0
 11
-35.2500006557
 21
7.337690331
 31
0.0
  0
LINE
  5
220
330
1F
100
AcDbEntity
  8
SK3
  6
SLD-Solid
370
    18
100
AcDbLine
 10
-35.2500006557
 20
7.337690331
 30
0.0
 11
-35.2500006557
 21
6.8353554234
 31
0.0
  0
LINE
  5
221
330
1F
100
AcDbEntity
  8
SK3
  6
SLD-Solid
370
    18
100
AcDbLine
 10
-35.2500006557
 20
6.8353554234
 30
0.0
 11
-35.2500006557
 21
6.2056900933
 31
0.0
  0
LINE
  5
222
330
1F
100
AcDbEntity
  8
SK3
  6
SLD-Solid
370
    18
100
AcDbLine
 10
-35.2500006557
 20
6.2056900933
 30
0.0
 11
-35.2500006557
 21
5.46042528
 31
0.0
  0
LINE
  5
223
330
1F
100
AcDbEntity
  8
SK3
  6
SLD-Solid
370
    18
100
AcDbLine
 10
-35.2500006557
 20
5.46042528
 30
0.0
 11
-35.2500006557
 21
4.6134423465
 31
0.0
  0
LINE
  5
224
330
1F
100
AcDbEntity
  8
SK3
  6
SLD-Solid
370
    18
100
AcDbLine
 10
-35.2500006557
 20
4.6134423465
 30
0.0
 11
-35.2500006557
 21
3.6805202253
 31
0.0
  0
LINE
  5
225
330
1F
100
AcDbEntity
  8
SK3
  6
SLD-Solid
370
    18
100
AcDbLine
 10
-35.2500006557
 20
3.6805202253
 30
0.0
 11
-35.2500006557
 21
2.6790369302
 31
0.0
  0
LINE
  5
226
330
1F
100
AcDbEntity
  8
SK3
  6
SLD-Solid
370
    18
100
AcDbLine
 10
-35.2500006557
 20
2.6790369302
 30
0.0
 11
-35.2500006557
 21
1.6276481329
 31
0.0
  0
LINE
  5
227
330
1F
100
AcDbEntity
  8
SK3
  6
SLD-Solid
370
    18
100
AcDbLine
 10
-35.2500006557
 20
1.6276481329
 30
0.0
 11
-35.2500006557
 21
0.5459393142
 31
0.0
  0
LINE
  5
228
330
1F
100
AcDbEntity
  8
SK3
  6
SLD-Solid
370
    18
100
AcDbLine
 10
-35.2500006557
 20
0.5459393142
 30
0.0
 11
-35.2500006557
 21
-0.5459393142
 31
0.0
  0
LINE
  5
229
330
1F
100
AcDbEntity
  8
SK3
  6
SLD-Solid
370
    18
100
AcDbLine
 10
-35.2500006557
 20
-0.5459393142
 30
0.0
 11
-35.2500006557
 21
-1.6276481329
 31
0.0
  0
LINE
  5
22A
330
1F
100
AcDbEntity
  8
SK3
  6
SLD-Solid
370
    18
100
AcDbLine
 10
-35.2500006557
 20
-1.6276481329
 30
0.0
 11
-35.2500006557
 21
-2.6790369302
 31
0.0
  0
LINE
  5
22B
330
1F
100
AcDbEntity
  8
SK3
  6
SLD-Solid
370
    18
100
AcDbLine
 10
-35.2500006557
 20
-2.6790369302
 30
0.0
 11
-35.2500006557
 21
-3.6805202253
 31
0.0
  0
LINE
  5
22C
330
1F
100
AcDbEntity
  8
SK3
  6
SLD-Solid
370
    18
100
AcDbLine
 10
-35.2500006557
 20
-3.6805202253
 30
0.0
 11
-35.2500006557
 21
-4.6134423465
 31
0.0
  0
LINE
  5
22D
330
1F
100
AcDbEntity
  8
SK3
  6
SLD-Solid
370
    18
100
AcDbLine
 10
-35.2500006557
 20
-4.6134423465
 30
0.0
 11
-35.2500006557
 21
-5.46042528
 31
0.0
  0
LINE
  5
22E
330
1F
100
AcDbEntity
  8
SK3
  6
SLD-Solid
370
    18
100
AcDbLine
 10
-35.2500006557
 20
-5.46042528
 30
0.0
 11
-35.2500006557
 21
-6.2056900933
 31
0.0
  0
LINE
  5
22F
330
1F
100
AcDbEntity
  8
SK3
  6
SLD-Solid
370
    18
100
AcDbLine
 10
-35.2500006557
 20
-6.2056900933
 30
0.0
 11
-35.2500006557
 21
-6.8353554234
 31
0.0
  0
LINE
  5
230
330
1F
100
AcDbEntity
  8
SK3
  6
SLD-Solid
370
    18
100
AcDbLine
 10
-35.2500006557
 20
-6.8353554234
 30
0.0
 11
-35.2500006557
 21
-7.337690331
 31
0.0
  0
LINE
  5
231
330
1F
100
AcDbEntity
  8
SK3
  6
SLD-Solid
370
    18
100
AcDbLine
 10
-35.2500006557
 20
-7.337690331
 30
0.0
 11
-35.2500006557
 21
-7.703338284
 31
0.0
  0
LINE
  5
232
330
1F
100
AcDbEntity
  8
SK3
  6
SLD-Solid
370
    18
100
AcDbLine
 10
-35.2500006557
 20
-7.703338284
 30
0.0
 11
-35.2500006557
 21
-7.9254871234
 31
0.0
  0
LINE
  5
233
330
1F
100
AcDbEntity
  8
SK3
  6
SLD-Solid
370
    18
100
AcDbLine
 10
-35.2500006557
 20
-7.9254871234
 30
0.0
 11
-35.2500006557
 21
-8.00000038
 31
0.0
  0
LINE
  5
234
330
1F
100
AcDbEntity
  8
SK3
  6
SLD-Solid
370
    18
100
AcDbLine
 10
21.5000007302
 20
-6.0000000522
 30
0.0
 11
21.5000007302
 21
-19.4000005722
 31
0.0
  0
LINE
  5
235
330
1F
100
AcDbEntity
  8
SK3
  6
SLD-Solid
370
    18
100
AcDbLine
 10
33.5000008345
 20
-19.4000005722
 30
0.0
 11
33.5000008345
 21
-6.0000000522
 31
0.0
  0
LINE
  5
236
330
1F
100
AcDbEntity
  8
SK3
  6
SLD-Solid
370
    18
100
AcDbLine
 10
21.5000007302
 20
-6.0000000522
 30
0.0
 11
21.5138439089
 21
-5.9861564077
 31
0.0
  0
LINE
  5
237
330
1F
100
AcDbEntity
  8
SK3
  6
SLD-Solid
370
    18
100
AcDbLine
 10
30.6445024908
 20
-3.1445031054
 30
0.0
 11
31.3077680767
 21
-3.8077661302
 31
0.0
  0
LINE
  5
238
330
1F
100
AcDbEntity
  8
SK3
  6
SLD-Solid
370
    18
100
AcDbLine
 10
24.3554789107
 20
-3.1445031054
 30
0.0
 11
30.6445024908
 21
-3.1445031054
 31
0.0
  0
LINE
  5
239
330
1F
100
AcDbEntity
  8
SK3
  6
SLD-Solid
370
    18
100
AcDbLine
 10
21.5137678663
 20
-5.9861564077
 30
0.0
 11
21.6242112219
 21
-5.8757890947
 31
0.0
  0
LINE
  5
23A
330
1F
100
AcDbEntity
  8
SK3
  6
SLD-Solid
370
    18
100
AcDbLine
 10
21.6242112219
 20
-5.8757890947
 30
0.0
 11
21.8429099768
 21
-5.6570898741
 31
0.0
  0
LINE
  5
23B
330
1F
100
AcDbEntity
  8
SK3
  6
SLD-Solid
370
    18
100
AcDbLine
 10
21.8429099768
 20
-5.6570898741
 30
0.0
 11
22.1659094095
 21
-5.3340904415
 31
0.0
  0
LINE
  5
23C
330
1F
100
AcDbEntity
  8
SK3
  6
SLD-Solid
370
    18
100
AcDbLine
 10
22.1659094095
 20
-5.3340904415
 30
0.0
 11
22.5872546434
 21
-4.9127461389
 31
0.0
  0
LINE
  5
23D
330
1F
100
AcDbEntity
  8
SK3
  6
SLD-Solid
370
    18
100
AcDbLine
 10
22.5872546434
 20
-4.9127461389
 30
0.0
 11
23.099174723
 21
-4.400825128
 31
0.0
  0
LINE
  5
23E
330
1F
100
AcDbEntity
  8
SK3
  6
SLD-Solid
370
    18
100
AcDbLine
 10
23.099174723
 20
-4.400825128
 30
0.0
 11
23.692233488
 21
-3.8077661302
 31
0.0
  0
LINE
  5
23F
330
1F
100
AcDbEntity
  8
SK3
  6
SLD-Solid
370
    18
100
AcDbLine
 10
23.692233488
 20
-3.8077661302
 30
0.0
 11
24.3554972112
 21
-3.1445031054
 31
0.0
  0
LINE
  5
240
330
1F
100
AcDbEntity
  8
SK3
  6
SLD-Solid
370
    18
100
AcDbLine
 10
31.3077680767
 20
-3.8077661302
 30
0.0
 11
31.9008268416
 21
-4.400825128
 31
0.0
  0
LINE
  5
241
330
1F
100
AcDbEntity
  8
SK3
  6
SLD-Solid
370
    18
100
AcDbLine
 10
31.9008268416
 20
-4.400825128
 30
0.0
 11
32.4127450585
 21
-4.9127461389
 31
0.0
  0
LINE
  5
242
330
1F
100
AcDbEntity
  8
SK3
  6
SLD-Solid
370
    18
100
AcDbLine
 10
32.4127450585
 20
-4.9127461389
 30
0.0
 11
32.8340902925
 21
-5.3340904415
 31
0.0
  0
LINE
  5
243
330
1F
100
AcDbEntity
  8
SK3
  6
SLD-Solid
370
    18
100
AcDbLine
 10
32.8340902925
 20
-5.3340904415
 30
0.0
 11
33.1570915878
 21
-5.6570898741
 31
0.0
  0
LINE
  5
244
330
1F
100
AcDbEntity
  8
SK3
  6
SLD-Solid
370
    18
100
AcDbLine
 10
33.1570915878
 20
-5.6570898741
 30
0.0
 11
33.37578848
 21
-5.8757890947
 31
0.0
  0
LINE
  5
245
330
1F
100
AcDbEntity
  8
SK3
  6
SLD-Solid
370
    18
100
AcDbLine
 10
33.37578848
 20
-5.8757890947
 30
0.0
 11
33.4861576557
 21
-5.9861564077
 31
0.0
  0
LINE
  5
246
330
1F
100
AcDbEntity
  8
SK3
  6
SLD-Solid
370
    18
100
AcDbLine
 10
33.4861576557
 20
-5.9861564077
 30
0.0
 11
33.5000008345
 21
-6.0000000522
 31
0.0
  0
LINE
  5
247
330
1F
100
AcDbEntity
  8
4
  6
SLD-Center
370
    18
100
AcDbLine
 10
52.0
 20
0.0
 30
0.0
 11
0.4457723732
 21
0.0
 31
0.0
  0
LINE
  5
248
330
1F
100
AcDbEntity
  8
4
  6
SLD-Center
370
    18
100
AcDbLine
 10
27.5
 20
-6.0
 30
0.0
 11
27.5
 21
-19.4
 31
0.0
  0
LINE
  5
249
330
1F
100
AcDbEntity
  8
SK4
  6
SLD-Center
370
    18
100
AcDbLine
 10
52.2416921673
 20
0.0
 30
0.0
 11
-68.9509618943
 21
0.0
 31
0.0
  0
ARC
  5
24A
330
1F
100
AcDbEntity
  8
1
  6
SLD-Solid
370
    25
100
AcDbCircle
 10
3.95
 20
31.0
 30
0.0
 40
0.7500000000000009
100
AcDbArc
 50
90.0
 51
180.0
  0
ARC
  5
24B
330
1F
100
AcDbEntity
  8
1
  6
SLD-Solid
370
    25
100
AcDbCircle
 10
18.3
 20
31.0
 30
0.0
 40
0.75
100
AcDbArc
 50
360.0
 51
90.0
  0
ARC
  5
24C
330
1F
100
AcDbEntity
  8
1
  6
SLD-Solid
370
    25
100
AcDbCircle
 10
21.05
 20
23.0
 30
0.0
 40
2.000000000000004
100
AcDbArc
 50
180.0
 51
270.0
  0
ARC
  5
24D
330
1F
100
AcDbEntity
  8
1
  6
SLD-Solid
370
    25
100
AcDbCircle
 10
21.05
 20
-23.0
 30
0.0
 40
2.000000000000004
100
AcDbArc
 50
109.1717989741
 51
180.0
  0
ARC
  5
24E
330
1F
100
AcDbEntity
  8
1
  6
SLD-Solid
370
    25
100
AcDbCircle
 10
2.45
 20
-22.79
 30
0.0
 40
0.750000000000013
100
AcDbArc
 50
0.0
 51
115.0
  0
ARC
  5
24F
330
1F
100
AcDbEntity
  8
1
  6
SLD-Solid
370
    25
100
AcDbCircle
 10
2.45
 20
22.79
 30
0.0
 40
0.7500000000000004
100
AcDbArc
 50
245.0
 51
0.0
  0
ARC
  5
250
330
1F
100
AcDbEntity
  8
1
  6
SLD-Solid
370
    25
100
AcDbCircle
 10
3.95
 20
-31.0
 30
0.0
 40
0.7500000000000009
100
AcDbArc
 50
180.0
 51
270.0
  0
ARC
  5
251
330
1F
100
AcDbEntity
  8
1
  6
SLD-Solid
370
    25
100
AcDbCircle
 10
18.3
 20
-31.0
 30
0.0
 40
0.75
100
AcDbArc
 50
270.0
 51
0.0
  0
ARC
  5
252
330
1F
100
AcDbEntity
  8
1
  6
SLD-Solid
370
    25
100
AcDbCircle
 10
12.28
 20
-28.75
 30
0.0
 40
0.75
100
AcDbArc
 50
0.0
 51
90.0
  0
ARC
  5
253
330
1F
100
AcDbEntity
  8
1
  6
SLD-Solid
370
    25
100
AcDbCircle
 10
9.95
 20
-28.75
 30
0.0
 40
0.7500000000000142
100
AcDbArc
 50
90.0
 51
180.0
  0
ARC
  5
254
330
1F
100
AcDbEntity
  8
SK1
  6
SLD-Solid
370
    25
100
AcDbCircle
 10
-67.25
 20
-11.4070377962
 30
0.0
 40
1.0
100
AcDbArc
 50
180.0
 51
261.7027777778
  0
ARC
  5
255
330
1F
100
AcDbEntity
  8
1
  6
SLD-Solid
370
    25
100
AcDbCircle
 10
-67.25
 20
11.4070377962
 30
0.0
 40
1.000000000000009
100
AcDbArc
 50
98.2972222222
 51
180.0
  0
ARC
  5
256
330
1F
100
AcDbEntity
  8
1
  6
SLD-Solid
370
    25
100
AcDbCircle
 10
12.28
 20
28.75
 30
0.0
 40
0.75
100
AcDbArc
 50
270.0
 51
0.0
  0
ARC
  5
257
330
1F
100
AcDbEntity
  8
1
  6
SLD-Solid
370
    25
100
AcDbCircle
 10
9.95
 20
28.75
 30
0.0
 40
0.7500000000000018
100
AcDbArc
 50
180.0
 51
270.0
  0
CIRCLE
  5
258
330
1F
100
AcDbEntity
  8
1
  6
SLD-Solid
370
    25
100
AcDbCircle
 10
11.1
 20
0.0
 30
0.0
 40
4.999999999999993
  0
ARC
  5
259
330
1F
100
AcDbEntity
  8
SK3
  6
SLD-Dashed
370
    18
100
AcDbCircle
 10
29.0
 20
24.45
 30
0.0
 40
8.000000000000039
100
AcDbArc
 50
205.6032941893
 51
334.4524975829
  0
SPLINE
  5
25A
330
1F
100
AcDbEntity
  8
1
  6
SLD-Solid
370
    25
100
AcDbSpline
210
0.0
220
0.0
230
1.0
 70
    24
 71
     3
 72
    18
 73
    14
 74
     0
 42
0.000000001
 43
0.00000001
 40
0.0
 40
0.0
 40
0.0
 40
0.0
 40
0.0503985907721767
 40
0.1007611985112129
 40
0.1867133625924686
 40
0.250707802088887
 40
0.3759053866292146
 40
0.5002769903873882
 40
0.6254727404757954
 40
0.7499722576385894
 40
0.8750533663912197
 40
0.9372999447731115
 40
1.0
 40
1.0
 40
1.0
 40
1.0
 10
18.30000000000001
 20
-8.094999999999999
 30
0.0
 10
18.30672586936916
 20
-8.094999999999999
 30
0.0
 10
18.320172806045
 20
-8.094999999999997
 30
0.0
 10
18.3449095325843
 20
-8.094999999999997
 30
0.0
 10
18.37097379942361
 20
-8.094999999999997
 30
0.0
 10
18.40534068018866
 20
-8.094999999999997
 30
0.0
 10
18.4419720223766
 20
-8.094999999999999
 30
0.0
 10
18.47986487117882
 20
-8.094999999999999
 30
0.0
 10
18.51053614991211
 20
-8.094999999999999
 30
0.0
 10
18.53314513148852
 20
-8.094999999999999
 30
0.0
 10
18.54454926815964
 20
-8.094999999999999
 30
0.0
 10
18.54932787138489
 20
-8.094999999999999
 30
0.0
 10
18.54977541569454
 20
-8.094999999999999
 30
0.0
 10
18.54999999999998
 20
-8.094999999999999
 30
0.0
  0
SPLINE
  5
25B
330
1F
100
AcDbEntity
  8
1
  6
SLD-Solid
370
    25
100
AcDbSpline
210
0.0
220
0.0
230
1.0
 70
     8
 71
     3
 72
    15
 73
    11
 74
     0
 42
0.000000001
 43
0.00000001
 40
0.0
 40
0.0
 40
0.0
 40
0.0
 40
0.0701435325383619
 40
0.1230076382658076
 40
0.2464580449108382
 40
0.4936501266417946
 40
0.6221640882791771
 40
0.7451781028260629
 40
0.8734188463590339
 40
1.0
 40
1.0
 40
1.0
 40
1.0
 10
19.04999999999998
 20
-8.594999999999999
 30
0.0
 10
19.049144647715
 20
-8.600068931336667
 30
0.0
 10
19.04764465390721
 20
-8.608958094024784
 30
0.0
 10
19.03267384616041
 20
-8.626522361201253
 30
0.0
 10
18.98572299610649
 20
-8.65589054779112
 30
0.0
 10
18.87530842138224
 20
-8.686676393428922
 30
0.0
 10
18.72430920317458
 20
-8.709663478514928
 30
0.0
 10
18.59259636522159
 20
-8.722605848112561
 30
0.0
 10
18.44997512465275
 20
-8.730953584814676
 30
0.0
 10
18.34977418050395
 20
-8.73200013357309
 30
0.0
 10
18.30000000000006
 20
-8.732520000000022
 30
0.0
  0
SPLINE
  5
25C
330
1F
100
AcDbEntity
  8
1
  6
SLD-Solid
370
    25
100
AcDbSpline
210
0.0
220
0.0
230
1.0
 70
     8
 71
     3
 72
     8
 73
     4
 74
     0
 42
0.000000001
 43
0.00000001
 40
0.0
 40
0.0
 40
0.0
 40
0.0
 40
0.0008783072046589
 40
0.0008783072046589
 40
0.0008783072046589
 40
0.0008783072046589
 10
14.63683664205678
 20
-8.732520000000022
 30
0.0
 10
14.51427081432996
 20
-8.520229759105504
 30
0.0
 10
14.39228083356647
 20
-8.307726875209427
 30
0.0
 10
14.27090830787685
 20
-8.094999999999999
 30
0.0
  0
SPLINE
  5
25D
330
1F
100
AcDbEntity
  8
1
  6
SLD-Solid
370
    25
100
AcDbSpline
210
0.0
220
0.0
230
1.0
 70
     8
 71
     3
 72
     8
 73
     4
 74
     0
 42
0.000000001
 43
0.00000001
 40
0.0
 40
0.0
 40
0.0
 40
0.0
 40
0.0008783072046589
 40
0.0008783072046589
 40
0.0008783072046589
 40
0.0008783072046589
 10
7.593163357943217
 20
8.732519999999994
 30
0.0
 10
7.715729185670026
 20
8.52022975910547
 30
0.0
 10
7.837719166433485
 20
8.307726875209392
 30
0.0
 10
7.959091692123152
 20
8.094999999999963
 30
0.0
  0
SPLINE
  5
25E
330
1F
100
AcDbEntity
  8
1
  6
SLD-Solid
370
    25
100
AcDbSpline
210
0.0
220
0.0
230
1.0
 70
     8
 71
     3
 72
    15
 73
    11
 74
     0
 42
0.000000001
 43
0.00000001
 40
0.0
 40
0.0
 40
0.0
 40
0.0
 40
0.0701435317584967
 40
0.1230076382662367
 40
0.2464580449112068
 40
0.4936501266420016
 40
0.6221640881379922
 40
0.7451781028261539
 40
0.8734188462348811
 40
1.0
 40
1.0
 40
1.0
 40
1.0
 10
3.199999999999994
 20
8.59500000000002
 30
0.0
 10
3.200855352267412
 20
8.600068931280646
 30
0.0
 10
3.202355346061045
 20
8.608958093969388
 30
0.0
 10
3.217326153752961
 20
8.62652236114663
 30
0.0
 10
3.264277003893479
 20
8.65589054779184
 30
0.0
 10
3.374691578586955
 20
8.686676393418129
 30
0.0
 10
3.525690796777975
 20
8.709663478512708
 30
0.0
 10
3.657403634682338
 20
8.722605848105253
 30
0.0
 10
3.800024875297514
 20
8.730953584808624
 30
0.0
 10
3.90022581944692
 20
8.732000133570741
 30
0.0
 10
3.949999999999898
 20
8.732519999999994
 30
0.0
  0
SPLINE
  5
25F
330
1F
100
AcDbEntity
  8
1
  6
SLD-Solid
370
    25
100
AcDbSpline
210
0.0
220
0.0
230
1.0
 70
    24
 71
     3
 72
    18
 73
    14
 74
     0
 42
0.000000001
 43
0.00000001
 40
0.0
 40
0.0
 40
0.0
 40
0.0
 40
0.0503985907721798
 40
0.1007611985112149
 40
0.1867133625924612
 40
0.2507078020888837
 40
0.3759053866292191
 40
0.5002769903873768
 40
0.6254727404758004
 40
0.7499722576385829
 40
0.8750533663912293
 40
0.9372999447731251
 40
1.0
 40
1.0
 40
1.0
 40
1.0
 10
3.949999999999967
 20
8.094999999999963
 30
0.0
 10
3.943274130630808
 20
8.094999999999963
 30
0.0
 10
3.92982719395496
 20
8.094999999999963
 30
0.0
 10
3.905090467415703
 20
8.094999999999963
 30
0.0
 10
3.879026200576396
 20
8.09499999999997
 30
0.0
 10
3.844659319811317
 20
8.09499999999997
 30
0.0
 10
3.808027977623405
 20
8.094999999999978
 30
0.0
 10
3.770135128821184
 20
8.094999999999978
 30
0.0
 10
3.739463850087929
 20
8.094999999999985
 30
0.0
 10
3.716854868511518
 20
8.094999999999985
 30
0.0
 10
3.705450731840365
 20
8.094999999999985
 30
0.0
 10
3.700672128615079
 20
8.094999999999992
 30
0.0
 10
3.700224584305495
 20
8.094999999999992
 30
0.0
 10
3.700000000000023
 20
8.094999999999992
 30
0.0
  0
SPLINE
  5
260
330
1F
100
AcDbEntity
  8
1
  6
SLD-Solid
370
    25
100
AcDbSpline
210
0.0
220
0.0
230
1.0
 70
    24
 71
     3
 72
     8
 73
     4
 74
     0
 42
0.000000001
 43
0.00000001
 40
0.0
 40
0.0
 40
0.0
 40
0.0
 40
0.2499999999999996
 40
0.2499999999999996
 40
0.2499999999999996
 40
0.2499999999999996
 10
18.29999999999998
 20
-18.35000000000001
 30
0.0
 10
18.41009345940825
 20
-18.35000000000001
 30
0.0
 10
18.51914645498264
 20
-18.35000000000001
 30
0.0
 10
18.61478964588867
 20
-18.35000000000001
 30
0.0
  0
SPLINE
  5
261
330
1F
100
AcDbEntity
  8
1
  6
SLD-Solid
370
    25
100
AcDbSpline
210
0.0
220
0.0
230
1.0
 70
    24
 71
     3
 72
     8
 73
     4
 74
     0
 42
0.000000001
 43
0.00000001
 40
0.2499999999999996
 40
0.2499999999999996
 40
0.2499999999999996
 40
0.2499999999999996
 40
0.4999999999999991
 40
0.4999999999999991
 40
0.4999999999999991
 40
0.4999999999999991
 10
18.61478964588867
 20
-18.35000000000001
 30
0.0
 10
18.71043283679473
 20
-18.35000000000001
 30
0.0
 10
18.79290518035347
 20
-18.35000000000001
 30
0.0
 10
18.85782919697516
 20
-18.35000000000001
 30
0.0
  0
SPLINE
  5
262
330
1F
100
AcDbEntity
  8
1
  6
SLD-Solid
370
    25
100
AcDbSpline
210
0.0
220
0.0
230
1.0
 70
    24
 71
     2
 72
     6
 73
     3
 74
     0
 42
0.000000001
 43
0.00000001
 40
0.4999999999999991
 40
0.4999999999999991
 40
0.4999999999999991
 40
1.0
 40
1.0
 40
1.0
 10
18.85782919697516
 20
-18.35000000000001
 30
0.0
 10
18.98767723021848
 20
-18.35000000000001
 30
0.0
 10
19.04999999999998
 20
-18.35000000000001
 30
0.0
  0
SPLINE
  5
263
330
1F
100
AcDbEntity
  8
1
  6
SLD-Solid
370
    25
100
AcDbSpline
210
0.0
220
0.0
230
1.0
 70
     8
 71
     3
 72
     8
 73
     4
 74
     0
 42
0.000000001
 43
0.00000001
 40
0.0
 40
0.0
 40
0.0
 40
0.0
 40
0.0008783072046589
 40
0.0008783072046589
 40
0.0008783072046589
 40
0.0008783072046589
 10
14.2709083078737
 20
8.094999999992934
 30
0.0
 10
14.39228083356332
 20
8.30772687520235
 30
0.0
 10
14.51427081432681
 20
8.520229759098427
 30
0.0
 10
14.63683664205363
 20
8.732519999992936
 30
0.0
  0
SPLINE
  5
264
330
1F
100
AcDbEntity
  8
1
  6
SLD-Solid
370
    25
100
AcDbSpline
210
0.0
220
0.0
230
1.0
 70
     8
 71
     3
 72
    17
 73
    13
 74
     0
 42
0.000000001
 43
0.00000001
 40
0.0
 40
0.0
 40
0.0
 40
0.0
 40
0.0630096892532792
 40
0.1264306799664213
 40
0.1902686728771463
 40
0.2545292253591724
 40
0.3775638368193145
 40
0.5060541142148836
 40
0.7530801336068137
 40
0.8766168954597358
 40
0.9296269325062025
 40
1.0
 40
1.0
 40
1.0
 40
1.0
 10
18.29999999999683
 20
8.732519999992936
 30
0.0
 10
18.32475416474072
 20
8.732391978119987
 30
0.0
 10
18.37442407928336
 20
8.732135098699676
 30
0.0
 10
18.44843090931139
 20
8.730043004151886
 30
0.0
 10
18.52143218660493
 20
8.726684778834718
 30
0.0
 10
18.6141744860259
 20
8.720522494880937
 30
0.0
 10
18.72385267704536
 20
8.709704769506512
 30
0.0
 10
18.87491226457109
 20
8.68676675424978
 30
0.0
 10
18.9854814883226
 20
8.655981996491716
 30
0.0
 10
19.03257258939284
 20
8.626607912865895
 30
0.0
 10
19.04762809452212
 20
8.609006381148754
 30
0.0
 10
19.04913851381909
 20
8.600087177325536
 30
0.0
 10
19.04999999999683
 20
8.594999999992934
 30
0.0
  0
SPLINE
  5
265
330
1F
100
AcDbEntity
  8
1
  6
SLD-Solid
370
    25
100
AcDbSpline
210
0.0
220
0.0
230
1.0
 70
    24
 71
     3
 72
    18
 73
    14
 74
     0
 42
0.000000001
 43
0.00000001
 40
0.0
 40
0.0
 40
0.0
 40
0.0
 40
0.0502617221452385
 40
0.1003354213518343
 40
0.1864287239590559
 40
0.2507033761673368
 40
0.3754040368259516
 40
0.5003115117971194
 40
0.6254321409840755
 40
0.7499589778058467
 40
0.8750959321922386
 40
0.9373335260982067
 40
1.0
 40
1.0
 40
1.0
 40
1.0
 10
18.54999999999998
 20
8.094999999999992
 30
0.0
 10
18.54985585338434
 20
8.094999999999985
 30
0.0
 10
18.5495680993879
 20
8.094999999999978
 30
0.0
 10
18.54670424339201
 20
8.094999999999901
 30
0.0
 10
18.54109212159202
 20
8.094999999999741
 30
0.0
 10
18.5293674684398
 20
8.09499999999941
 30
0.0
 10
18.51041383753827
 20
8.094999999998874
 30
0.0
 10
18.47965032418386
 20
8.094999999998006
 30
0.0
 10
18.4417227034796
 20
8.094999999996931
 30
0.0
 10
18.39795184457532
 20
8.094999999995697
 30
0.0
 10
18.35803612823353
 20
8.094999999994572
 30
0.0
 10
18.32503585238425
 20
8.094999999993641
 30
0.0
 10
18.3083643656181
 20
8.09499999999317
 30
0.0
 10
18.29999999999998
 20
8.094999999992934
 30
0.0
  0
SPLINE
  5
266
330
1F
100
AcDbEntity
  8
1
  6
SLD-Solid
370
    25
100
AcDbSpline
210
0.0
220
0.0
230
1.0
 70
    24
 71
     2
 72
     6
 73
     3
 74
     0
 42
0.000000001
 43
0.00000001
 40
0.0
 40
0.0
 40
0.0
 40
0.5000000000000032
 40
0.5000000000000032
 40
0.5000000000000032
 10
3.199999999999994
 20
-18.35000000000001
 30
0.0
 10
3.262453391497278
 20
-18.35000000000001
 30
0.0
 10
3.391824966518506
 20
-18.35000000000001
 30
0.0
  0
SPLINE
  5
267
330
1F
100
AcDbEntity
  8
1
  6
SLD-Solid
370
    25
100
AcDbSpline
210
0.0
220
0.0
230
1.0
 70
    24
 71
     3
 72
     8
 73
     4
 74
     0
 42
0.000000001
 43
0.00000001
 40
0.5000000000000032
 40
0.5000000000000032
 40
0.5000000000000032
 40
0.5000000000000032
 40
0.7500000000000016
 40
0.7500000000000016
 40
0.7500000000000016
 40
0.7500000000000016
 10
3.391824966518506
 20
-18.35000000000001
 30
0.0
 10
3.456510754029099
 20
-18.35000000000001
 30
0.0
 10
3.538937009729404
 20
-18.35000000000001
 30
0.0
 10
3.63440883323693
 20
-18.35000000000001
 30
0.0
  0
SPLINE
  5
268
330
1F
100
AcDbEntity
  8
1
  6
SLD-Solid
370
    25
100
AcDbSpline
210
0.0
220
0.0
230
1.0
 70
    24
 71
     3
 72
     8
 73
     4
 74
     0
 42
0.000000001
 43
0.00000001
 40
0.7500000000000016
 40
0.7500000000000016
 40
0.7500000000000016
 40
0.7500000000000016
 40
1.0
 40
1.0
 40
1.0
 40
1.0
 10
3.63440883323693
 20
-18.35000000000001
 30
0.0
 10
3.729880656744427
 20
-18.35000000000001
 30
0.0
 10
3.838711986975829
 20
-18.35000000000001
 30
0.0
 10
3.949999999999995
 20
-18.35000000000001
 30
0.0
  0
SPLINE
  5
269
330
1F
100
AcDbEntity
  8
1
  6
SLD-Solid
370
    25
100
AcDbSpline
210
0.0
220
0.0
230
1.0
 70
     8
 71
     3
 72
    17
 73
    13
 74
     0
 42
0.000000001
 43
0.00000001
 40
0.0
 40
0.0
 40
0.0
 40
0.0
 40
0.0630096892551791
 40
0.1264306799689548
 40
0.1902686728790542
 40
0.25452922535919
 40
0.3775638368184449
 40
0.5060541142149001
 40
0.7530801336068497
 40
0.876616895459772
 40
0.9296269324372894
 40
1.0
 40
1.0
 40
1.0
 40
1.0
 10
3.949999999999995
 20
-8.732520000000049
 30
0.0
 10
3.925245835255373
 20
-8.732391978127081
 30
0.0
 10
3.875575920711722
 20
-8.732135098706777
 30
0.0
 10
3.801569090683021
 20
-8.73004300415887
 30
0.0
 10
3.728567813390274
 20
-8.726684778841674
 30
0.0
 10
3.635825513970611
 20
-8.720522494888018
 30
0.0
 10
3.52614732295177
 20
-8.709704769513806
 30
0.0
 10
3.375087735425927
 20
-8.686766754256864
 30
0.0
 10
3.264518511674225
 20
-8.655981996498811
 30
0.0
 10
3.217427410611692
 20
-8.626607912877816
 30
0.0
 10
3.202371905477522
 20
-8.609006381160755
 30
0.0
 10
3.20086148617929
 20
-8.600087177337585
 30
0.0
 10
3.199999999999994
 20
-8.59500000000004
 30
0.0
  0
SPLINE
  5
26A
330
1F
100
AcDbEntity
  8
1
  6
SLD-Solid
370
    25
100
AcDbSpline
210
0.0
220
0.0
230
1.0
 70
    24
 71
     3
 72
    18
 73
    14
 74
     0
 42
0.000000001
 43
0.00000001
 40
0.0
 40
0.0
 40
0.0
 40
0.0
 40
0.0502617221452593
 40
0.1003354213518503
 40
0.1864287239590571
 40
0.2507033761673361
 40
0.3754040368259496
 40
0.5003115117971217
 40
0.6254321409840763
 40
0.7499589778058474
 40
0.8750959321922346
 40
0.9373335260982119
 40
1.0
 40
1.0
 40
1.0
 40
1.0
 10
3.700000000000023
 20
-8.095000000000011
 30
0.0
 10
3.700144146615653
 20
-8.095000000000011
 30
0.0
 10
3.700431900612131
 20
-8.094999999999999
 30
0.0
 10
3.703295756608021
 20
-8.095000000000011
 30
0.0
 10
3.708907878407983
 20
-8.094999999999995
 30
0.0
 10
3.7206325315602
 20
-8.095000000000008
 30
0.0
 10
3.739586162461714
 20
-8.095000000000008
 30
0.0
 10
3.770349675816131
 20
-8.095000000000004
 30
0.0
 10
3.808277296520377
 20
-8.094999999999992
 30
0.0
 10
3.852048155424684
 20
-8.095
 30
0.0
 10
3.891963871766477
 20
-8.095
 30
0.0
 10
3.924964147615756
 20
-8.094999999999999
 30
0.0
 10
3.941635634381865
 20
-8.094999999999999
 30
0.0
 10
3.949999999999995
 20
-8.094999999999999
 30
0.0
  0
SPLINE
  5
26B
330
1F
100
AcDbEntity
  8
1
  6
SLD-Solid
370
    25
100
AcDbSpline
210
0.0
220
0.0
230
1.0
 70
     8
 71
     3
 72
     8
 73
     4
 74
     0
 42
0.000000001
 43
0.00000001
 40
0.0
 40
0.0
 40
0.0
 40
0.0
 40
0.0008783072046589
 40
0.0008783072046589
 40
0.0008783072046589
 40
0.0008783072046589
 10
7.959091692123138
 20
-8.094999999999999
 30
0.0
 10
7.837719166433485
 20
-8.307726875209442
 30
0.0
 10
7.715729185670026
 20
-8.520229759105533
 30
0.0
 10
7.593163357943217
 20
-8.732520000000049
 30
0.0
  0
SPLINE
  5
26C
330
1F
100
AcDbEntity
  8
1
  6
SLD-Solid
370
    25
100
AcDbSpline
210
0.0
220
0.0
230
1.0
 70
    24
 71
     3
 72
     8
 73
     4
 74
     0
 42
0.000000001
 43
0.00000001
 40
0.0
 40
0.0
 40
0.0
 40
0.0
 40
1.0
 40
1.0
 40
1.0
 40
1.0
 10
13.02999999999685
 20
8.094999999992934
 30
0.0
 10
13.4427180098146
 20
8.094999999992934
 30
0.0
 10
13.856418886234
 20
8.094999999992934
 30
0.0
 10
14.2709083078737
 20
8.094999999992934
 30
0.0
  0
SPLINE
  5
26D
330
1F
100
AcDbEntity
  8
1
  6
SLD-Solid
370
    25
100
AcDbSpline
210
0.0
220
0.0
230
1.0
 70
     8
 71
     3
 72
     9
 73
     5
 74
     0
 42
0.000000001
 43
0.00000001
 40
0.0
 40
0.0
 40
0.0
 40
0.0
 40
0.5549482632672378
 40
1.0
 40
1.0
 40
1.0
 40
1.0
 10
13.02999999999685
 20
27.01726268082102
 30
0.0
 10
13.0571500091663
 20
27.09737051094022
 30
0.0
 10
13.10607350522265
 20
27.24172239997503
 30
0.0
 10
13.10748201276951
 20
27.31440022370288
 30
0.0
 10
13.10810887149945
 20
27.34674561537491
 30
0.0
  0
SPLINE
  5
26E
330
1F
100
AcDbEntity
  8
1
  6
SLD-Solid
370
    25
100
AcDbSpline
210
0.0
220
0.0
230
1.0
 70
     8
 71
     3
 72
     8
 73
     4
 74
     0
 42
0.000000001
 43
0.00000001
 40
0.0
 40
0.0
 40
0.0
 40
0.0
 40
1.0
 40
1.0
 40
1.0
 40
1.0
 10
13.11238376628522
 20
27.38885610116811
 30
0.0
 10
13.10369243773719
 20
27.43220912960294
 30
0.0
 10
13.07354924829486
 20
27.43601780818719
 30
0.0
 10
13.02999999999674
 20
27.41186263126707
 30
0.0
  0
SPLINE
  5
26F
330
1F
100
AcDbEntity
  8
1
  6
SLD-Solid
370
    25
100
AcDbSpline
210
0.0
220
0.0
230
1.0
 70
    24
 71
     3
 72
     8
 73
     4
 74
     0
 42
0.000000001
 43
0.00000001
 40
0.0
 40
0.0
 40
0.0
 40
0.0
 40
1.0
 40
1.0
 40
1.0
 40
1.0
 10
13.03
 20
-18.35000000000001
 30
0.0
 10
13.5532681533943
 20
-18.35000000000001
 30
0.0
 10
14.0902128519339
 20
-18.35000000000001
 30
0.0
 10
14.63683664205678
 20
-18.35000000000001
 30
0.0
  0
SPLINE
  5
270
330
1F
100
AcDbEntity
  8
1
  6
SLD-Solid
370
    25
100
AcDbSpline
210
0.0
220
0.0
230
1.0
 70
    24
 71
     3
 72
     8
 73
     4
 74
     0
 42
0.000000001
 43
0.00000001
 40
0.0
 40
0.0
 40
0.0
 40
0.0
 40
1.0
 40
1.0
 40
1.0
 40
1.0
 10
14.27090830787685
 20
-8.094999999999999
 30
0.0
 10
13.85641888623715
 20
-8.094999999999999
 30
0.0
 10
13.44271800981775
 20
-8.094999999999999
 30
0.0
 10
13.03
 20
-8.094999999999999
 30
0.0
  0
SPLINE
  5
271
330
1F
100
AcDbEntity
  8
1
  6
SLD-Solid
370
    25
100
AcDbSpline
210
0.0
220
0.0
230
1.0
 70
     8
 71
     3
 72
    14
 73
    10
 74
     0
 42
0.000000001
 43
0.00000001
 40
0.0
 40
0.0
 40
0.0
 40
0.0
 40
0.25
 40
0.25
 40
0.5
 40
0.5
 40
0.75
 40
0.75
 40
1.0
 40
1.0
 40
1.0
 40
1.0
 10
9.199999999999973
 20
27.41186263126165
 30
0.0
 10
9.17385098662682
 20
27.42636653360208
 30
0.0
 10
9.152634041266982
 20
27.43095735096775
 30
0.0
 10
9.122930435167959
 20
27.41447268826339
 30
0.0
 10
9.115069084731338
 20
27.39329444381265
 30
0.0
 10
9.11493183342098
 20
27.32424384477567
 30
0.0
 10
9.122870891055726
 20
27.27570924655765
 30
0.0
 10
9.152219475897583
 20
27.15977821327369
 30
0.0
 10
9.173774255136392
 20
27.09136204738279
 30
0.0
 10
9.2
 20
27.01726268082809
 30
0.0
  0
SPLINE
  5
272
330
1F
100
AcDbEntity
  8
1
  6
SLD-Solid
370
    25
100
AcDbSpline
210
0.0
220
0.0
230
1.0
 70
    24
 71
     3
 72
     8
 73
     4
 74
     0
 42
0.000000001
 43
0.00000001
 40
0.0
 40
0.0
 40
0.0
 40
0.0
 40
1.0
 40
1.0
 40
1.0
 40
1.0
 10
7.959091692123152
 20
8.094999999999963
 30
0.0
 10
8.373581113762851
 20
8.09499999999997
 30
0.0
 10
8.78728199018225
 20
8.094999999999985
 30
0.0
 10
9.2
 20
8.094999999999992
 30
0.0
  0
SPLINE
  5
273
330
1F
100
AcDbEntity
  8
1
  6
SLD-Solid
370
    25
100
AcDbSpline
210
0.0
220
0.0
230
1.0
 70
    24
 71
     3
 72
     8
 73
     4
 74
     0
 42
0.000000001
 43
0.00000001
 40
0.0
 40
0.0
 40
0.0
 40
0.0
 40
1.0
 40
1.0
 40
1.0
 40
1.0
 10
7.593163357943217
 20
-18.35000000000001
 30
0.0
 10
8.139818051543331
 20
-18.35000000000001
 30
0.0
 10
8.676973665110694
 20
-18.35000000000001
 30
0.0
 10
9.199999999999985
 20
-18.35000000000001
 30
0.0
  0
SPLINE
  5
274
330
1F
100
AcDbEntity
  8
1
  6
SLD-Solid
370
    25
100
AcDbSpline
210
0.0
220
0.0
230
1.0
 70
    24
 71
     3
 72
     8
 73
     4
 74
     0
 42
0.000000001
 43
0.00000001
 40
0.0
 40
0.0
 40
0.0
 40
0.0
 40
1.0
 40
1.0
 40
1.0
 40
1.0
 10
9.200000000000014
 20
-8.094999999999999
 30
0.0
 10
8.787281990182235
 20
-8.094999999999999
 30
0.0
 10
8.373581113762837
 20
-8.094999999999999
 30
0.0
 10
7.959091692123138
 20
-8.094999999999999
 30
0.0
  0
SPLINE
  5
275
330
1F
100
AcDbEntity
  8
1
  6
SLD-Solid
370
    25
100
AcDbSpline
210
0.0
220
0.0
230
1.0
 70
    24
 71
     3
 72
     8
 73
     4
 74
     0
 42
0.000000001
 43
0.00000001
 40
0.0
 40
0.0
 40
0.0
 40
0.0
 40
0.25
 40
0.25
 40
0.25
 40
0.25
 10
12.28
 20
-18.35000000000001
 30
0.0
 10
12.39351868075161
 20
-18.35000000000001
 30
0.0
 10
12.50715208952621
 20
-18.35000000000001
 30
0.0
 10
12.60448354500665
 20
-18.35000000000001
 30
0.0
  0
SPLINE
  5
276
330
1F
100
AcDbEntity
  8
1
  6
SLD-Solid
370
    25
100
AcDbSpline
210
0.0
220
0.0
230
1.0
 70
    24
 71
     3
 72
     8
 73
     4
 74
     0
 42
0.000000001
 43
0.00000001
 40
0.25
 40
0.25
 40
0.25
 40
0.25
 40
0.5
 40
0.5
 40
0.5
 40
0.5
 10
12.60448354500665
 20
-18.35000000000001
 30
0.0
 10
12.70181500048705
 20
-18.35000000000001
 30
0.0
 10
12.78100032850088
 20
-18.35000000000001
 30
0.0
 10
12.84409901342838
 20
-18.35000000000001
 30
0.0
  0
SPLINE
  5
277
330
1F
100
AcDbEntity
  8
1
  6
SLD-Solid
370
    25
100
AcDbSpline
210
0.0
220
0.0
230
1.0
 70
    24
 71
     2
 72
     6
 73
     3
 74
     0
 42
0.000000001
 43
0.00000001
 40
0.5
 40
0.5
 40
0.5
 40
1.0
 40
1.0
 40
1.0
 10
12.84409901342838
 20
-18.35000000000001
 30
0.0
 10
12.97029638328343
 20
-18.35000000000001
 30
0.0
 10
13.03
 20
-18.35000000000001
 30
0.0
  0
SPLINE
  5
278
330
1F
100
AcDbEntity
  8
1
  6
SLD-Solid
370
    25
100
AcDbSpline
210
0.0
220
0.0
230
1.0
 70
    24
 71
     2
 72
     6
 73
     3
 74
     0
 42
0.000000001
 43
0.00000001
 40
0.0
 40
0.0
 40
0.0
 40
0.5000000000000047
 40
0.5000000000000047
 40
0.5000000000000047
 10
13.03000000000003
 20
-8.094999999999999
 30
0.0
 10
12.95349719051725
 20
-8.094999999999999
 30
0.0
 10
12.81634843037009
 20
-8.094999999999999
 30
0.0
  0
SPLINE
  5
279
330
1F
100
AcDbEntity
  8
1
  6
SLD-Solid
370
    25
100
AcDbSpline
210
0.0
220
0.0
230
1.0
 70
    24
 71
     3
 72
     8
 73
     4
 74
     0
 42
0.000000001
 43
0.00000001
 40
0.5000000000000047
 40
0.5000000000000047
 40
0.5000000000000047
 40
0.5000000000000047
 40
0.7500000000000023
 40
0.7500000000000023
 40
0.7500000000000023
 40
0.7500000000000023
 10
12.81634843037009
 20
-8.094999999999999
 30
0.0
 10
12.74777405029651
 20
-8.094999999999999
 30
0.0
 10
12.66546509018093
 20
-8.094999999999999
 30
0.0
 10
12.57309648684345
 20
-8.094999999999999
 30
0.0
  0
SPLINE
  5
27A
330
1F
100
AcDbEntity
  8
1
  6
SLD-Solid
370
    25
100
AcDbSpline
210
0.0
220
0.0
230
1.0
 70
    24
 71
     3
 72
     8
 73
     4
 74
     0
 42
0.000000001
 43
0.00000001
 40
0.7500000000000023
 40
0.7500000000000023
 40
0.7500000000000023
 40
0.7500000000000023
 40
1.0
 40
1.0
 40
1.0
 40
1.0
 10
12.57309648684345
 20
-8.094999999999999
 30
0.0
 10
12.48072788350595
 20
-8.094999999999999
 30
0.0
 10
12.37983045260058
 20
-8.094999999999999
 30
0.0
 10
12.28
 20
-8.094999999999999
 30
0.0
  0
SPLINE
  5
27B
330
1F
100
AcDbEntity
  8
1
  6
SLD-Solid
370
    25
100
AcDbSpline
210
0.0
220
0.0
230
1.0
 70
     8
 71
     3
 72
    16
 73
    12
 74
     0
 42
0.000000001
 43
0.00000001
 40
0.0
 40
0.0
 40
0.0
 40
0.0
 40
0.1249999999999979
 40
0.1249999999999979
 40
0.2499999999999958
 40
0.2499999999999958
 40
0.4999999999999972
 40
0.4999999999999972
 40
0.7499999999999986
 40
0.7499999999999986
 40
1.0
 40
1.0
 40
1.0
 40
1.0
 10
9.199999999999998
 20
26.81342395599223
 30
0.0
 10
9.199999999999998
 20
26.75008219873891
 30
0.0
 10
9.209563827901444
 20
26.67853228546582
 30
0.0
 10
9.236165608094936
 20
26.55137620786218
 30
0.0
 10
9.25360698667937
 20
26.49121349319727
 30
0.0
 10
9.31382727824238
 20
26.32086774534962
 30
0.0
 10
9.36494708970933
 20
26.21821216600433
 30
0.0
 10
9.492010964480707
 20
26.02727557642674
 30
0.0
 10
9.566115913432393
 20
25.9424115688936
 30
0.0
 10
9.739483002625732
 20
25.79997779741085
 30
0.0
 10
9.839659725882834
 20
25.74236666909598
 30
0.0
 10
9.949999999996843
 20
25.71100064078867
 30
0.0
  0
SPLINE
  5
27C
330
1F
100
AcDbEntity
  8
1
  6
SLD-Solid
370
    25
100
AcDbSpline
210
0.0
220
0.0
230
1.0
 70
    24
 71
     2
 72
     6
 73
     3
 74
     0
 42
0.000000001
 43
0.00000001
 40
0.0
 40
0.0
 40
0.0
 40
0.25
 40
0.25
 40
0.25
 10
9.199999999999985
 20
8.094999999999992
 30
0.0
 10
9.218706918939432
 20
8.094999999999992
 30
0.0
 10
9.254984916689635
 20
8.094999999999992
 30
0.0
  0
SPLINE
  5
27D
330
1F
100
AcDbEntity
  8
1
  6
SLD-Solid
370
    25
100
AcDbSpline
210
0.0
220
0.0
230
1.0
 70
    24
 71
     3
 72
     8
 73
     4
 74
     0
 42
0.000000001
 43
0.00000001
 40
0.25
 40
0.25
 40
0.25
 40
0.25
 40
0.5
 40
0.5
 40
0.5
 40
0.5
 10
9.254984916689635
 20
8.094999999999992
 30
0.0
 10
9.291262914439866
 20
8.094999999999992
 30
0.0
 10
9.345503941425276
 20
8.094999999999992
 30
0.0
 10
9.413757757814889
 20
8.094999999999992
 30
0.0
  0
SPLINE
  5
27E
330
1F
100
AcDbEntity
  8
1
  6
SLD-Solid
370
    25
100
AcDbSpline
210
0.0
220
0.0
230
1.0
 70
    24
 71
     3
 72
     8
 73
     4
 74
     0
 42
0.000000001
 43
0.00000001
 40
0.5
 40
0.5
 40
0.5
 40
0.5
 40
0.75
 40
0.75
 40
0.75
 40
0.75
 10
9.413757757814889
 20
8.094999999999992
 30
0.0
 10
9.482011574204503
 20
8.094999999999992
 30
0.0
 10
9.565219805752243
 20
8.094999999999992
 30
0.0
 10
9.657354312945413
 20
8.094999999999992
 30
0.0
  0
SPLINE
  5
27F
330
1F
100
AcDbEntity
  8
1
  6
SLD-Solid
370
    25
100
AcDbSpline
210
0.0
220
0.0
230
1.0
 70
    24
 71
     3
 72
     8
 73
     4
 74
     0
 42
0.000000001
 43
0.00000001
 40
0.75
 40
0.75
 40
0.75
 40
0.75
 40
1.0
 40
1.0
 40
1.0
 40
1.0
 10
9.657354312945413
 20
8.094999999999992
 30
0.0
 10
9.749488820138568
 20
8.094999999999992
 30
0.0
 10
9.849028188255545
 20
8.094999999999992
 30
0.0
 10
9.949999999999987
 20
8.094999999999992
 30
0.0
  0
SPLINE
  5
280
330
1F
100
AcDbEntity
  8
1
  6
SLD-Solid
370
    25
100
AcDbSpline
210
0.0
220
0.0
230
1.0
 70
     8
 71
     3
 72
    16
 73
    12
 74
     0
 42
0.000000001
 43
0.00000001
 40
0.0
 40
0.0
 40
0.0
 40
0.0
 40
0.2500000000000017
 40
0.2500000000000017
 40
0.5000000000000034
 40
0.5000000000000034
 40
0.7500000000000051
 40
0.7500000000000051
 40
0.8750000000000026
 40
0.8750000000000026
 40
1.0
 40
1.0
 40
1.0
 40
1.0
 10
12.27999999999686
 20
25.71100064078868
 30
0.0
 10
12.39043372689847
 20
25.74239323457943
 30
0.0
 10
12.48882901746027
 20
25.7987325018882
 30
0.0
 10
12.66410334854888
 20
25.94245138604112
 30
0.0
 10
12.73788841341349
 20
26.0272574559526
 30
0.0
 10
12.86422126911939
 20
26.2168303701315
 30
0.0
 10
12.91628240591213
 20
26.32104193278873
 30
0.0
 10
12.97661386675242
 20
26.49190672933527
 30
0.0
 10
12.99395951695431
 20
26.55178250641628
 30
0.0
 10
13.02063019805656
 20
26.67965382866437
 30
0.0
 10
13.02999999999685
 20
26.74911867245211
 30
0.0
 10
13.02999999999685
 20
26.81342395598517
 30
0.0
  0
SPLINE
  5
281
330
1F
100
AcDbEntity
  8
1
  6
SLD-Solid
370
    25
100
AcDbSpline
210
0.0
220
0.0
230
1.0
 70
    24
 71
     3
 72
     8
 73
     4
 74
     0
 42
0.000000001
 43
0.00000001
 40
0.0
 40
0.0
 40
0.0
 40
0.0
 40
0.5
 40
0.5
 40
0.5
 40
0.5
 10
12.27999999999685
 20
8.094999999999992
 30
0.0
 10
12.482224773725
 20
8.094999999997329
 30
0.0
 10
12.6783308446093
 20
8.09499999999475
 30
0.0
 10
12.81596325226633
 20
8.094999999992934
 30
0.0
  0
SPLINE
  5
282
330
1F
100
AcDbEntity
  8
1
  6
SLD-Solid
370
    25
100
AcDbSpline
210
0.0
220
0.0
230
1.0
 70
    24
 71
     2
 72
     6
 73
     3
 74
     0
 42
0.000000001
 43
0.00000001
 40
0.5
 40
0.5
 40
0.5
 40
1.0
 40
1.0
 40
1.0
 10
12.81596325226633
 20
8.094999999992934
 30
0.0
 10
12.95359565992338
 20
8.094999999992934
 30
0.0
 10
13.02999999999685
 20
8.094999999992934
 30
0.0
  0
SPLINE
  5
283
330
1F
100
AcDbEntity
  8
1
  6
SLD-Solid
370
    25
100
AcDbSpline
210
0.0
220
0.0
230
1.0
 70
    24
 71
     2
 72
     6
 73
     3
 74
     0
 42
0.000000001
 43
0.00000001
 40
0.0
 40
0.0
 40
0.0
 40
0.25
 40
0.25
 40
0.25
 10
9.199999999999985
 20
-18.35000000000001
 30
0.0
 10
9.215049552321581
 20
-18.35000000000001
 30
0.0
 10
9.245719510034458
 20
-18.35000000000001
 30
0.0
  0
SPLINE
  5
284
330
1F
100
AcDbEntity
  8
1
  6
SLD-Solid
370
    25
100
AcDbSpline
210
0.0
220
0.0
230
1.0
 70
    24
 71
     3
 72
     8
 73
     4
 74
     0
 42
0.000000001
 43
0.00000001
 40
0.25
 40
0.25
 40
0.25
 40
0.25
 40
0.5
 40
0.5
 40
0.5
 40
0.5
 10
9.245719510034458
 20
-18.35000000000001
 30
0.0
 10
9.276389467747379
 20
-18.35000000000001
 30
0.0
 10
9.322582428043013
 20
-18.35000000000001
 30
0.0
 10
9.385647257598121
 20
-18.35000000000001
 30
0.0
  0
SPLINE
  5
285
330
1F
100
AcDbEntity
  8
1
  6
SLD-Solid
370
    25
100
AcDbSpline
210
0.0
220
0.0
230
1.0
 70
    24
 71
     3
 72
     8
 73
     4
 74
     0
 42
0.000000001
 43
0.00000001
 40
0.5
 40
0.5
 40
0.5
 40
0.5
 40
0.75
 40
0.75
 40
0.75
 40
0.75
 10
9.385647257598121
 20
-18.35000000000001
 30
0.0
 10
9.448712087153242
 20
-18.35000000000001
 30
0.0
 10
9.528898807595997
 20
-18.35000000000001
 30
0.0
 10
9.625947673410003
 20
-18.35000000000001
 30
0.0
  0
SPLINE
  5
286
330
1F
100
AcDbEntity
  8
1
  6
SLD-Solid
370
    25
100
AcDbSpline
210
0.0
220
0.0
230
1.0
 70
    24
 71
     3
 72
     8
 73
     4
 74
     0
 42
0.000000001
 43
0.00000001
 40
0.75
 40
0.75
 40
0.75
 40
0.75
 40
1.0
 40
1.0
 40
1.0
 40
1.0
 10
9.625947673410003
 20
-18.35000000000001
 30
0.0
 10
9.722996539223969
 20
-18.35000000000001
 30
0.0
 10
9.836191071280641
 20
-18.35000000000001
 30
0.0
 10
9.949999999999987
 20
-18.35000000000001
 30
0.0
  0
SPLINE
  5
287
330
1F
100
AcDbEntity
  8
1
  6
SLD-Solid
370
    25
100
AcDbSpline
210
0.0
220
0.0
230
1.0
 70
    24
 71
     3
 72
     8
 73
     4
 74
     0
 42
0.000000001
 43
0.00000001
 40
0.0
 40
0.0
 40
0.0
 40
0.0
 40
0.2500000000000009
 40
0.2500000000000009
 40
0.2500000000000009
 40
0.2500000000000009
 10
9.949999999999987
 20
-8.094999999999999
 30
0.0
 10
9.850219275687632
 20
-8.095000000000011
 30
0.0
 10
9.748489574720285
 20
-8.094999999999999
 30
0.0
 10
9.656770208427368
 20
-8.094999999999999
 30
0.0
  0
SPLINE
  5
288
330
1F
100
AcDbEntity
  8
1
  6
SLD-Solid
370
    25
100
AcDbSpline
210
0.0
220
0.0
230
1.0
 70
    24
 71
     3
 72
     8
 73
     4
 74
     0
 42
0.000000001
 43
0.00000001
 40
0.2500000000000009
 40
0.2500000000000009
 40
0.2500000000000009
 40
0.2500000000000009
 40
0.5000000000000018
 40
0.5000000000000018
 40
0.5000000000000018
 40
0.5000000000000018
 10
9.656770208427368
 20
-8.094999999999999
 30
0.0
 10
9.565050842134465
 20
-8.094999999999999
 30
0.0
 10
9.481946114451523
 20
-8.094999999999999
 30
0.0
 10
9.413655347818725
 20
-8.094999999999999
 30
0.0
  0
SPLINE
  5
289
330
1F
100
AcDbEntity
  8
1
  6
SLD-Solid
370
    25
100
AcDbSpline
210
0.0
220
0.0
230
1.0
 70
    24
 71
     2
 72
     6
 73
     3
 74
     0
 42
0.000000001
 43
0.00000001
 40
0.5000000000000018
 40
0.5000000000000018
 40
0.5000000000000018
 40
1.0
 40
1.0
 40
1.0
 10
9.41365534781903
 20
-8.094999999999999
 30
0.0
 10
9.27707381455345
 20
-8.095000000000004
 30
0.0
 10
9.200000000000014
 20
-8.094999999999999
 30
0.0
  0
SPLINE
  5
28A
330
1F
100
AcDbEntity
  8
1
  6
SLD-Solid
370
    25
100
AcDbSpline
210
0.0
220
0.0
230
1.0
 70
     8
 71
     3
 72
    12
 73
     8
 74
     0
 42
0.000000001
 43
0.00000001
 40
0.0
 40
0.0
 40
0.0
 40
0.0
 40
0.25
 40
0.25
 40
0.5
 40
0.5
 40
1.0
 40
1.0
 40
1.0
 40
1.0
 10
9.949999999996843
 20
25.71100064078867
 30
0.0
 10
10.11987070991422
 20
25.66271211206651
 30
0.0
 10
10.30396582361804
 20
25.62527590633428
 30
0.0
 10
10.70032541250138
 20
25.57346530882963
 30
0.0
 10
10.90572162653108
 20
25.56022125844616
 30
0.0
 10
11.52828854875022
 20
25.55999751387887
 30
0.0
 10
11.94025576621637
 20
25.61442278343421
 30
0.0
 10
12.27999999999686
 20
25.71100064078868
 30
0.0
  0
SPLINE
  5
28B
330
1F
100
AcDbEntity
  8
1
  6
SLD-Solid
370
    25
100
AcDbSpline
210
0.0
220
0.0
230
1.0
 70
     8
 71
     3
 72
    10
 73
     6
 74
     0
 42
0.000000001
 43
0.00000001
 40
0.0
 40
0.0
 40
0.0
 40
0.0
 40
0.130851870296786
 40
0.516094797930427
 40
1.0
 40
1.0
 40
1.0
 40
1.0
 10
20.39289274951951
 20
-21.10501424441247
 30
0.0
 10
20.38869718855217
 20
-21.10804980518887
 30
0.0
 10
20.37214941445675
 20
-21.12002240536611
 30
0.0
 10
20.53827845385381
 20
-20.99262288357924
 30
0.0
 10
20.86698820558182
 20
-20.85648243236876
 30
0.0
 10
21.05
 20
-20.78068514269921
 30
0.0
  0
SPLINE
  5
28C
330
1F
100
AcDbEntity
  8
1
  6
SLD-Solid
370
    25
100
AcDbSpline
210
0.0
220
0.0
230
1.0
 70
     8
 71
     3
 72
    27
 73
    23
 74
     0
 42
0.000000001
 43
0.00000001
 40
0.0
 40
0.0
 40
0.0
 40
0.0
 40
0.0470916094975116
 40
0.0956494172611381
 40
0.14272618490478
 40
0.191104594657414
 40
0.239557169747478
 40
0.2892059463256701
 40
0.3418291569447983
 40
0.3957869163866148
 40
0.4520781774755929
 40
0.5098961744610963
 40
0.5680536237677877
 40
0.627901514914069
 40
0.685877636110918
 40
0.7456769186136004
 40
0.8011442409012285
 40
0.8297294672953011
 40
0.8585787309188531
 40
0.9094391017228749
 40
0.9620514433933108
 40
0.9999999999999999
 40
0.9999999999999999
 40
0.9999999999999999
 40
0.9999999999999999
 10
36.21785979332947
 20
20.99999999999999
 30
0.0
 10
36.20128169892229
 20
20.99507729026626
 30
0.0
 10
36.16760935078496
 20
20.98507860212623
 30
0.0
 10
35.89788683404394
 20
20.90681510015471
 30
0.0
 10
35.47513696664302
 20
20.79037678542405
 30
0.0
 10
34.9018302304471
 20
20.64407223915302
 30
0.0
 10
34.18662667841593
 20
20.48062917851756
 30
0.0
 10
33.33414180156954
 20
20.31300900711469
 30
0.0
 10
32.34938785527687
 20
20.15649535884215
 30
0.0
 10
31.24093556827766
 20
20.02817315015023
 30
0.0
 10
30.03977758573917
 20
19.94619838946691
 30
0.0
 10
28.7806758290377
 20
19.92452682083271
 30
0.0
 10
27.50156075027026
 20
19.96947417452061
 30
0.0
 10
26.26285650067592
 20
20.07785520062892
 30
0.0
 10
25.09228589851181
 20
20.23843973813043
 30
0.0
 10
24.06383703479184
 20
20.42670083448759
 30
0.0
 10
23.33258364864582
 20
20.58918139484853
 30
0.0
 10
22.846160037111
 20
20.70821879219215
 30
0.0
 10
22.44058332521558
 20
20.81327944170127
 30
0.0
 10
22.06277506510283
 20
20.91789982969483
 30
0.0
 10
21.81442633907821
 20
20.99043259876657
 30
0.0
 10
21.80067564223968
 20
20.99452589192323
 30
0.0
 10
21.79491356271877
 20
20.99624114177189
 30
0.0
  0
SPLINE
  5
28D
330
1F
100
AcDbEntity
  8
1
  6
SLD-Solid
370
    25
100
AcDbSpline
210
0.0
220
0.0
230
1.0
 70
     8
 71
     2
 72
     6
 73
     3
 74
     0
 42
0.000000001
 43
0.00000001
 40
0.0
 40
0.0
 40
0.0
 40
0.0625000000000004
 40
0.0625000000000004
 40
0.0625000000000004
 10
34.62500000000001
 20
-21.0
 30
0.0
 10
34.59014543333657
 20
-20.98810204666148
 30
0.0
 10
34.5221082962305
 20
-20.96531373302079
 30
0.0
  0
SPLINE
  5
28E
330
1F
100
AcDbEntity
  8
1
  6
SLD-Solid
370
    25
100
AcDbSpline
210
0.0
220
0.0
230
1.0
 70
     8
 71
     3
 72
     8
 73
     4
 74
     0
 42
0.000000001
 43
0.00000001
 40
0.0625000000000004
 40
0.0625000000000004
 40
0.0625000000000004
 40
0.0625000000000004
 40
0.1250000000000009
 40
0.1250000000000009
 40
0.1250000000000009
 40
0.1250000000000009
 10
34.5221082962305
 20
-20.96531373302079
 30
0.0
 10
34.45407115912449
 20
-20.94252541938007
 30
0.0
 10
34.35227398191743
 20
-20.90865078661679
 30
0.0
 10
34.21719192466135
 20
-20.86516336750651
 30
0.0
  0
SPLINE
  5
28F
330
1F
100
AcDbEntity
  8
1
  6
SLD-Solid
370
    25
100
AcDbSpline
210
0.0
220
0.0
230
1.0
 70
     8
 71
     3
 72
     8
 73
     4
 74
     0
 42
0.000000001
 43
0.00000001
 40
0.1250000000000009
 40
0.1250000000000009
 40
0.1250000000000009
 40
0.1250000000000009
 40
0.1875000000000013
 40
0.1875000000000013
 40
0.1875000000000013
 40
0.1875000000000013
 10
34.21719192466135
 20
-20.86516336750651
 30
0.0
 10
34.08210986740529
 20
-20.82167594839623
 30
0.0
 10
33.91682761894042
 20
-20.76958714514492
 30
0.0
 10
33.72264958024181
 20
-20.71124677073989
 30
0.0
  0
SPLINE
  5
290
330
1F
100
AcDbEntity
  8
1
  6
SLD-Solid
370
    25
100
AcDbSpline
210
0.0
220
0.0
230
1.0
 70
     8
 71
     3
 72
     8
 73
     4
 74
     0
 42
0.000000001
 43
0.00000001
 40
0.1875000000000013
 40
0.1875000000000013
 40
0.1875000000000013
 40
0.1875000000000013
 40
0.2500000000000018
 40
0.2500000000000018
 40
0.2500000000000018
 40
0.2500000000000018
 10
33.72264958024181
 20
-20.71124677073989
 30
0.0
 10
33.52847154154322
 20
-20.65290639633487
 30
0.0
 10
33.30365208806803
 20
-20.58781937688777
 30
0.0
 10
33.05252782756302
 20
-20.51986696535486
 30
0.0
  0
SPLINE
  5
291
330
1F
100
AcDbEntity
  8
1
  6
SLD-Solid
370
    25
100
AcDbSpline
210
0.0
220
0.0
230
1.0
 70
     8
 71
     3
 72
     8
 73
     4
 74
     0
 42
0.000000001
 43
0.00000001
 40
0.2500000000000018
 40
0.2500000000000018
 40
0.2500000000000018
 40
0.2500000000000018
 40
0.3125000000000022
 40
0.3125000000000022
 40
0.3125000000000022
 40
0.3125000000000022
 10
33.05252782756302
 20
-20.51986696535486
 30
0.0
 10
32.801403567058
 20
-20.45191455382195
 30
0.0
 10
32.52728919215449
 20
-20.38197032112487
 30
0.0
 10
32.23051638531789
 20
-20.31285701893659
 30
0.0
  0
SPLINE
  5
292
330
1F
100
AcDbEntity
  8
1
  6
SLD-Solid
370
    25
100
AcDbSpline
210
0.0
220
0.0
230
1.0
 70
     8
 71
     3
 72
     8
 73
     4
 74
     0
 42
0.000000001
 43
0.00000001
 40
0.3125000000000022
 40
0.3125000000000022
 40
0.3125000000000022
 40
0.3125000000000022
 40
0.3437500000000021
 40
0.3437500000000021
 40
0.3437500000000021
 40
0.3437500000000021
 10
32.2305163853179
 20
-20.31285701893659
 30
0.0
 10
32.08212998189957
 20
-20.27830036784242
 30
0.0
 10
31.92804553671395
 20
-20.24395022684101
 30
0.0
 10
31.76810038700791
 20
-20.21017209015245
 30
0.0
  0
SPLINE
  5
293
330
1F
100
AcDbEntity
  8
1
  6
SLD-Solid
370
    25
100
AcDbSpline
210
0.0
220
0.0
230
1.0
 70
     8
 71
     3
 72
     8
 73
     4
 74
     0
 42
0.000000001
 43
0.00000001
 40
0.3437500000000021
 40
0.3437500000000021
 40
0.3437500000000021
 40
0.3437500000000021
 40
0.3750000000000019
 40
0.3750000000000019
 40
0.3750000000000019
 40
0.3750000000000019
 10
31.76810038700791
 20
-20.21017209015245
 30
0.0
 10
31.60815523730185
 20
-20.1763939534639
 30
0.0
 10
31.44151974695201
 20
-20.14303896167996
 30
0.0
 10
31.27136555582758
 20
-20.11113057875373
 30
0.0
  0
SPLINE
  5
294
330
1F
100
AcDbEntity
  8
1
  6
SLD-Solid
370
    25
100
AcDbSpline
210
0.0
220
0.0
230
1.0
 70
     8
 71
     3
 72
     8
 73
     4
 74
     0
 42
0.000000001
 43
0.00000001
 40
0.3750000000000019
 40
0.3750000000000019
 40
0.3750000000000019
 40
0.3750000000000019
 40
0.4375000000000028
 40
0.4375000000000028
 40
0.4375000000000028
 40
0.4375000000000028
 10
31.27136555582758
 20
-20.11113057875373
 30
0.0
 10
30.93105717357869
 20
-20.04731381290124
 30
0.0
 10
30.57638187437417
 20
-19.98911615962301
 30
0.0
 10
30.20726484409256
 20
-19.93899841857809
 30
0.0
  0
SPLINE
  5
295
330
1F
100
AcDbEntity
  8
1
  6
SLD-Solid
370
    25
100
AcDbSpline
210
0.0
220
0.0
230
1.0
 70
     8
 71
     3
 72
     8
 73
     4
 74
     0
 42
0.000000001
 43
0.00000001
 40
0.4375000000000028
 40
0.4375000000000028
 40
0.4375000000000028
 40
0.4375000000000028
 40
0.4687500000000033
 40
0.4687500000000033
 40
0.4687500000000033
 40
0.4687500000000033
 10
30.20726484409256
 20
-19.93899841857809
 30
0.0
 10
30.02270632895176
 20
-19.91393954805564
 30
0.0
 10
29.83451820405256
 20
-19.89090081509612
 30
0.0
 10
29.64257189481552
 20
-19.87020355518418
 30
0.0
  0
SPLINE
  5
296
330
1F
100
AcDbEntity
  8
1
  6
SLD-Solid
370
    25
100
AcDbSpline
210
0.0
220
0.0
230
1.0
 70
     8
 71
     3
 72
     8
 73
     4
 74
     0
 42
0.000000001
 43
0.00000001
 40
0.4687500000000033
 40
0.4687500000000033
 40
0.4687500000000033
 40
0.4687500000000033
 40
0.5000000000000038
 40
0.5000000000000038
 40
0.5000000000000038
 40
0.5000000000000038
 10
29.64257189481552
 20
-19.87020355518418
 30
0.0
 10
29.45062558557848
 20
-19.84950629527222
 30
0.0
 10
29.25387673243378
 20
-19.83107541569386
 30
0.0
 10
29.05601859341756
 20
-19.81553857110781
 30
0.0
  0
SPLINE
  5
297
330
1F
100
AcDbEntity
  8
1
  6
SLD-Solid
370
    25
100
AcDbSpline
210
0.0
220
0.0
230
1.0
 70
     8
 71
     3
 72
     8
 73
     4
 74
     0
 42
0.000000001
 43
0.00000001
 40
0.5000000000000038
 40
0.5000000000000038
 40
0.5000000000000038
 40
0.5000000000000038
 40
0.5625000000000048
 40
0.5625000000000048
 40
0.5625000000000048
 40
0.5625000000000048
 10
29.05601859341755
 20
-19.81553857110781
 30
0.0
 10
28.66030231538505
 20
-19.78446488193569
 30
0.0
 10
28.26159811253737
 20
-19.76494731659536
 30
0.0
 10
27.85995423945707
 20
-19.75762997058361
 30
0.0
  0
SPLINE
  5
298
330
1F
100
AcDbEntity
  8
1
  6
SLD-Solid
370
    25
100
AcDbSpline
210
0.0
220
0.0
230
1.0
 70
     8
 71
     3
 72
     8
 73
     4
 74
     0
 42
0.000000001
 43
0.00000001
 40
0.5625000000000048
 40
0.5625000000000048
 40
0.5625000000000048
 40
0.5625000000000048
 40
0.593750000000005
 40
0.593750000000005
 40
0.593750000000005
 40
0.593750000000005
 10
27.85995423945707
 20
-19.75762997058361
 30
0.0
 10
27.65913230291693
 20
-19.75397129757772
 30
0.0
 10
27.45757193296575
 20
-19.75336048514946
 30
0.0
 10
27.2552579040206
 20
-19.75586681706334
 30
0.0
  0
SPLINE
  5
299
330
1F
100
AcDbEntity
  8
1
  6
SLD-Solid
370
    25
100
AcDbSpline
210
0.0
220
0.0
230
1.0
 70
     8
 71
     3
 72
     8
 73
     4
 74
     0
 42
0.000000001
 43
0.00000001
 40
0.593750000000005
 40
0.593750000000005
 40
0.593750000000005
 40
0.593750000000005
 40
0.6250000000000052
 40
0.6250000000000052
 40
0.6250000000000052
 40
0.6250000000000052
 10
27.2552579040206
 20
-19.75586681706334
 30
0.0
 10
27.05294387507541
 20
-19.75837314897723
 30
0.0
 10
26.84881012650263
 20
-19.76405443301937
 30
0.0
 10
26.6471885960186
 20
-19.77275049887498
 30
0.0
  0
SPLINE
  5
29A
330
1F
100
AcDbEntity
  8
1
  6
SLD-Solid
370
    25
100
AcDbSpline
210
0.0
220
0.0
230
1.0
 70
     8
 71
     3
 72
     8
 73
     4
 74
     0
 42
0.000000001
 43
0.00000001
 40
0.6250000000000052
 40
0.6250000000000052
 40
0.6250000000000052
 40
0.6250000000000052
 40
0.6875000000000051
 40
0.6875000000000051
 40
0.6875000000000051
 40
0.6875000000000051
 10
26.6471885960186
 20
-19.77275049887498
 30
0.0
 10
26.24394553505059
 20
-19.79014263058622
 30
0.0
 10
25.85027858249944
 20
-19.81942560366507
 30
0.0
 10
25.46573184059674
 20
-19.85881723427562
 30
0.0
  0
SPLINE
  5
29B
330
1F
100
AcDbEntity
  8
1
  6
SLD-Solid
370
    25
100
AcDbSpline
210
0.0
220
0.0
230
1.0
 70
     8
 71
     3
 72
     8
 73
     4
 74
     0
 42
0.000000001
 43
0.00000001
 40
0.6875000000000051
 40
0.6875000000000051
 40
0.6875000000000051
 40
0.6875000000000051
 40
0.7187500000000048
 40
0.7187500000000048
 40
0.7187500000000048
 40
0.7187500000000048
 10
25.46573184059674
 20
-19.85881723427562
 30
0.0
 10
25.27345846964539
 20
-19.87851304958089
 30
0.0
 10
25.08347706481332
 20
-19.90073710983516
 30
0.0
 10
24.89580114786889
 20
-19.9252660374069
 30
0.0
  0
SPLINE
  5
29C
330
1F
100
AcDbEntity
  8
1
  6
SLD-Solid
370
    25
100
AcDbSpline
210
0.0
220
0.0
230
1.0
 70
     8
 71
     3
 72
     8
 73
     4
 74
     0
 42
0.000000001
 43
0.00000001
 40
0.7187500000000048
 40
0.7187500000000048
 40
0.7187500000000048
 40
0.7187500000000048
 40
0.7500000000000044
 40
0.7500000000000044
 40
0.7500000000000044
 40
0.7500000000000044
 10
24.8958011478689
 20
-19.9252660374069
 30
0.0
 10
24.70812523092452
 20
-19.94979496497865
 30
0.0
 10
24.52249480864564
 20
-19.97669496078763
 30
0.0
 10
24.34255828575958
 20
-20.00509468057638
 30
0.0
  0
SPLINE
  5
29D
330
1F
100
AcDbEntity
  8
1
  6
SLD-Solid
370
    25
100
AcDbSpline
210
0.0
220
0.0
230
1.0
 70
     8
 71
     3
 72
     8
 73
     4
 74
     0
 42
0.000000001
 43
0.00000001
 40
0.7500000000000044
 40
0.7500000000000044
 40
0.7500000000000044
 40
0.7500000000000044
 40
0.8125000000000033
 40
0.8125000000000033
 40
0.8125000000000033
 40
0.8125000000000033
 10
24.34255828575957
 20
-20.00509468057638
 30
0.0
 10
23.98268523998744
 20
-20.06189412015388
 30
0.0
 10
23.64194861351808
 20
-20.12509455498628
 30
0.0
 10
23.31951891218774
 20
-20.19184976978474
 30
0.0
  0
SPLINE
  5
29E
330
1F
100
AcDbEntity
  8
1
  6
SLD-Solid
370
    25
100
AcDbSpline
210
0.0
220
0.0
230
1.0
 70
     8
 71
     3
 72
     8
 73
     4
 74
     0
 42
0.000000001
 43
0.00000001
 40
0.8125000000000033
 40
0.8125000000000033
 40
0.8125000000000033
 40
0.8125000000000033
 40
0.8750000000000022
 40
0.8750000000000022
 40
0.8750000000000022
 40
0.8750000000000022
 10
23.31951891218774
 20
-20.19184976978474
 30
0.0
 10
22.99708921085739
 20
-20.2586049845832
 30
0.0
 10
22.69067561409672
 20
-20.32955958683917
 30
0.0
 10
22.41170386324541
 20
-20.39914538835665
 30
0.0
  0
SPLINE
  5
29F
330
1F
100
AcDbEntity
  8
1
  6
SLD-Solid
370
    25
100
AcDbSpline
210
0.0
220
0.0
230
1.0
 70
     8
 71
     3
 72
     8
 73
     4
 74
     0
 42
0.000000001
 43
0.00000001
 40
0.8750000000000022
 40
0.8750000000000022
 40
0.8750000000000022
 40
0.8750000000000022
 40
0.9375000000000011
 40
0.9375000000000011
 40
0.9375000000000011
 40
0.9375000000000011
 10
22.41170386324542
 20
-20.39914538835664
 30
0.0
 10
22.13273211239412
 20
-20.4687311898741
 30
0.0
 10
21.87968803740396
 20
-20.53715428437114
 30
0.0
 10
21.65221377804904
 20
-20.60172271189085
 30
0.0
  0
SPLINE
  5
2A0
330
1F
100
AcDbEntity
  8
1
  6
SLD-Solid
370
    25
100
AcDbSpline
210
0.0
220
0.0
230
1.0
 70
     8
 71
     3
 72
     8
 73
     4
 74
     0
 42
0.000000001
 43
0.00000001
 40
0.9375000000000011
 40
0.9375000000000011
 40
0.9375000000000011
 40
0.9375000000000011
 40
1.0
 40
1.0
 40
1.0
 40
1.0
 10
21.65221377804903
 20
-20.60172271189086
 30
0.0
 10
21.42473951869414
 20
-20.66629113941058
 30
0.0
 10
21.22196489057794
 20
-20.72730992736773
 30
0.0
 10
21.04999999999999
 20
-20.78068514269921
 30
0.0
  0
SPLINE
  5
2A1
330
1F
100
AcDbEntity
  8
1
  6
SLD-Solid
370
    25
100
AcDbSpline
210
0.0
220
0.0
230
1.0
 70
     8
 71
     3
 72
    12
 73
     8
 74
     0
 42
0.000000001
 43
0.00000001
 40
0.0
 40
0.0
 40
0.0
 40
0.0
 40
0.25
 40
0.25
 40
0.5
 40
0.5
 40
1.0
 40
1.0
 40
1.0
 40
1.0
 10
3.949999999999995
 20
-25.91022964004758
 30
0.0
 10
3.840647431218688
 20
-25.91022964004758
 30
0.0
 10
3.731411799312467
 20
-25.87992796563979
 30
0.0
 10
3.538605968889011
 20
-25.7704701494163
 30
0.0
 10
3.456827742746013
 20
-25.69343095107759
 30
0.0
 10
3.262709090922647
 20
-25.42763934306025
 30
0.0
 10
3.200000000003686
 20
-25.20425093593309
 30
0.0
 10
3.199999999999994
 20
-24.98554582155403
 30
0.0
  0
SPLINE
  5
2A2
330
1F
100
AcDbEntity
  8
1
  6
SLD-Solid
370
    25
100
AcDbSpline
210
0.0
220
0.0
230
1.0
 70
     8
 71
     3
 72
    12
 73
     8
 74
     0
 42
0.000000001
 43
0.00000001
 40
0.0
 40
0.0
 40
0.0
 40
0.0
 40
0.5000000000000023
 40
0.5000000000000023
 40
0.7500000000000011
 40
0.7500000000000011
 40
1.0
 40
1.0
 40
1.0
 40
1.0
 10
19.05000000000001
 20
-24.98554582153447
 30
0.0
 10
19.05
 20
-25.20557810036766
 30
0.0
 10
18.98853102466323
 20
-25.42532674379457
 30
0.0
 10
18.79383121800843
 20
-25.69283297454336
 30
0.0
 10
18.71149076980416
 20
-25.77032859015181
 30
0.0
 10
18.51931186109923
 20
-25.87960340703114
 30
0.0
 10
18.40982431419733
 20
-25.91022964004753
 30
0.0
 10
18.29999999999998
 20
-25.91022964004753
 30
0.0
  0
SPLINE
  5
2A3
330
1F
100
AcDbEntity
  8
1
  6
SLD-Solid
370
    25
100
AcDbSpline
210
0.0
220
0.0
230
1.0
 70
     8
 71
     3
 72
     8
 73
     4
 74
     0
 42
0.000000001
 43
0.00000001
 40
0.0
 40
0.0
 40
0.0
 40
0.0
 40
1.0
 40
1.0
 40
1.0
 40
1.0
 10
14.63683664205676
 20
-25.91022964004753
 30
0.0
 10
14.09016847106474
 20
-24.74996546403976
 30
0.0
 10
13.55303211683956
 20
-23.58413672808591
 30
0.0
 10
13.02999999999988
 20
-22.41333264622106
 30
0.0
  0
SPLINE
  5
2A4
330
1F
100
AcDbEntity
  8
1
  6
SLD-Solid
370
    25
100
AcDbSpline
210
0.0
220
0.0
230
1.0
 70
     8
 71
     3
 72
     8
 73
     4
 74
     0
 42
0.000000001
 43
0.00000001
 40
0.0
 40
0.0
 40
0.0
 40
0.0
 40
1.0
 40
1.0
 40
1.0
 40
1.0
 10
9.199999999999985
 20
-22.41333264622108
 30
0.0
 10
8.67696788316033
 20
-23.58413672808592
 30
0.0
 10
8.139831528935188
 20
-24.74996546403979
 30
0.0
 10
7.593163357943217
 20
-25.91022964004758
 30
0.0
  0
SPLINE
  5
2A5
330
1F
100
AcDbEntity
  8
1
  6
SLD-Solid
370
    25
100
AcDbSpline
210
0.0
220
0.0
230
1.0
 70
     8
 71
     3
 72
    14
 73
    10
 74
     0
 42
0.000000001
 43
0.00000001
 40
0.0
 40
0.0
 40
0.0
 40
0.0
 40
0.25
 40
0.25
 40
0.5
 40
0.5
 40
0.75
 40
0.75
 40
1.0
 40
1.0
 40
1.0
 40
1.0
 10
13.02999999999988
 20
-22.13232929449572
 30
0.0
 10
13.02999999999985
 20
-22.01777408914422
 30
0.0
 10
13.01492864850312
 20
-21.90563883030909
 30
0.0
 10
12.95345971831149
 20
-21.68639823941055
 30
0.0
 10
12.90719806346116
 20
-21.58103168145686
 30
0.0
 10
12.78074687769229
 20
-21.39134178492617
 30
0.0
 10
12.69960171970475
 20
-21.30659206817998
 30
0.0
 10
12.50672306519951
 20
-21.18490042323582
 30
0.0
 10
12.39370933271973
 20
-21.14893614345652
 30
0.0
 10
12.28
 20
-21.14893614345648
 30
0.0
  0
SPLINE
  5
2A6
330
1F
100
AcDbEntity
  8
1
  6
SLD-Solid
370
    25
100
AcDbSpline
210
0.0
220
0.0
230
1.0
 70
     8
 71
     3
 72
    14
 73
    10
 74
     0
 42
0.000000001
 43
0.00000001
 40
0.0
 40
0.0
 40
0.0
 40
0.0
 40
0.1249999999999982
 40
0.1249999999999982
 40
0.2499999999999964
 40
0.2499999999999964
 40
0.4999999999999969
 40
0.4999999999999969
 40
1.0
 40
1.0
 40
1.0
 40
1.0
 10
9.949999999999987
 20
-21.14893614345648
 30
0.0
 10
9.893223661227301
 20
-21.1489361434565
 30
0.0
 10
9.835184734431262
 20
-21.15782630300204
 30
0.0
 10
9.725709414661429
 20
-21.19144609061743
 30
0.0
 10
9.67452622739967
 20
-21.21560556432991
 30
0.0
 10
9.530077159662309
 20
-21.30690106897559
 30
0.0
 10
9.448993190155075
 20
-21.39170378208912
 30
0.0
 10
9.259877421569973
 20
-21.67548088616529
 30
0.0
 10
9.199999999999985
 20
-21.90492065088523
 30
0.0
 10
9.199999999999985
 20
-22.13232929449588
 30
0.0
  0
SPLINE
  5
2A7
330
1F
100
AcDbEntity
  8
1
  6
SLD-Solid
370
    25
100
AcDbSpline
210
0.0
220
0.0
230
1.0
 70
     8
 71
     3
 72
    16
 73
    12
 74
     0
 42
0.000000001
 43
0.00000001
 40
0.0
 40
0.0
 40
0.0
 40
0.0
 40
0.2500000000000011
 40
0.2500000000000011
 40
0.5000000000000021
 40
0.5000000000000021
 40
0.7500000000000031
 40
0.7500000000000031
 40
0.8750000000000016
 40
0.8750000000000016
 40
1.0
 40
1.0
 40
1.0
 40
1.0
 10
9.949999999999894
 20
26.82301853349019
 30
0.0
 10
9.839566273098294
 20
26.80027599034486
 30
0.0
 10
9.741170982536495
 20
26.79683942016774
 30
0.0
 10
9.565896651447877
 20
26.81222120094813
 30
0.0
 10
9.492111586583254
 20
26.83083008839228
 30
0.0
 10
9.365778730877368
 20
26.88495833898958
 30
0.0
 10
9.313717594084673
 20
26.91972746121534
 30
0.0
 10
9.253386133244351
 20
26.99319708569396
 30
0.0
 10
9.236040483042483
 20
27.02133912772178
 30
0.0
 10
9.209369801940246
 20
27.09589126404211
 30
0.0
 10
9.19999999999996
 20
27.14371862289293
 30
0.0
 10
9.199999999999973
 20
27.20802390642598
 30
0.0
  0
SPLINE
  5
2A8
330
1F
100
AcDbEntity
  8
1
  6
SLD-Solid
370
    25
100
AcDbSpline
210
0.0
220
0.0
230
1.0
 70
     8
 71
     3
 72
    12
 73
     8
 74
     0
 42
0.000000001
 43
0.00000001
 40
0.0
 40
0.0
 40
0.0
 40
0.0
 40
0.25
 40
0.25
 40
0.5
 40
0.5
 40
1.0
 40
1.0
 40
1.0
 40
1.0
 10
12.27999999999991
 20
26.82301853349012
 30
0.0
 10
12.11012929008256
 20
26.85800143280735
 30
0.0
 10
11.92603417637874
 20
26.88390423639618
 30
0.0
 10
11.52967458749536
 20
26.91937262947672
 30
0.0
 10
11.32427837346571
 20
26.92817666438654
 30
0.0
 10
10.70171145124655
 20
26.92832683986095
 30
0.0
 10
10.28974423378042
 20
26.89298491162408
 30
0.0
 10
9.949999999999893
 20
26.82301853349019
 30
0.0
  0
SPLINE
  5
2A9
330
1F
100
AcDbEntity
  8
1
  6
SLD-Solid
370
    25
100
AcDbSpline
210
0.0
220
0.0
230
1.0
 70
     8
 71
     3
 72
    16
 73
    12
 74
     0
 42
0.000000001
 43
0.00000001
 40
0.0
 40
0.0
 40
0.0
 40
0.0
 40
0.1250000000000009
 40
0.1250000000000009
 40
0.2500000000000018
 40
0.2500000000000018
 40
0.5000000000000012
 40
0.5000000000000012
 40
0.7500000000000007
 40
0.7500000000000007
 40
1.0
 40
1.0
 40
1.0
 40
1.0
 10
13.02999999999674
 20
27.20802390643122
 30
0.0
 10
13.02999999999674
 20
27.14468214917789
 30
0.0
 10
13.0204361720953
 20
27.09517885573592
 30
0.0
 10
12.99383439190182
 20
27.02116147442295
 30
0.0
 10
12.97639301331741
 20
26.99288151408816
 30
0.0
 10
12.91617272175436
 20
26.91968778271919
 30
0.0
 10
12.86505291028742
 20
26.8853831151977
 30
0.0
 10
12.73798903551603
 20
26.83080524750169
 30
0.0
 10
12.66388408656436
 20
26.81227314493874
 30
0.0
 10
12.49051699737102
 20
26.79691696881303
 30
0.0
 10
12.39034027411392
 20
26.80029523586117
 30
0.0
 10
12.27999999999991
 20
26.82301853349012
 30
0.0
  0
SPLINE
  5
2AA
330
1F
100
AcDbEntity
  8
SK3
  6
SLD-Dashed
370
    18
100
AcDbSpline
210
0.0
220
0.0
230
1.0
 70
     8
 71
     3
 72
     8
 73
     4
 74
     0
 42
0.000000001
 43
0.00000001
 40
0.0
 40
0.0
 40
0.0
 40
0.0
 40
1.0
 40
1.0
 40
1.0
 40
1.0
 10
9.128576702935307
 20
23.28997611937698
 30
0.0
 10
9.110727234552348
 20
23.27357610829826
 30
0.0
 10
9.11071768412329
 20
23.21873966459206
 30
0.0
 10
9.128576702935904
 20
23.13083934744692
 30
0.0
  0
SPLINE
  5
2AB
330
1F
100
AcDbEntity
  8
SK3
  6
SLD-Dashed
370
    18
100
AcDbSpline
210
0.0
220
0.0
230
1.0
 70
     8
 71
     3
 72
    34
 73
    30
 74
     0
 42
0.000000001
 43
0.00000001
 40
0.5000000000000022
 40
0.5000000000000022
 40
0.5000000000000022
 40
0.5000000000000022
 40
0.5625000000000021
 40
0.5625000000000021
 40
0.5937500000000018
 40
0.5937500000000018
 40
0.6250000000000014
 40
0.6250000000000014
 40
0.6562500000000012
 40
0.6562500000000012
 40
0.6875000000000009
 40
0.6875000000000009
 40
0.7500000000000007
 40
0.7500000000000007
 40
0.7812500000000006
 40
0.7812500000000006
 40
0.8125000000000006
 40
0.8125000000000006
 40
0.8437500000000004
 40
0.8437500000000004
 40
0.8750000000000003
 40
0.8750000000000003
 40
0.9062500000000003
 40
0.9062500000000003
 40
0.9375000000000002
 40
0.9375000000000002
 40
0.9687500000000002
 40
0.9687500000000002
 40
1.0
 40
1.0
 40
1.0
 40
1.0
 10
10.44989457346451
 20
20.83939046133177
 30
0.0
 10
10.59263203931582
 20
20.61623535383182
 30
0.0
 10
10.74572898252594
 20
20.40034020612856
 30
0.0
 10
11.02346457422351
 20
20.11974774983988
 30
0.0
 10
11.12372720463398
 20
20.03506133841343
 30
0.0
 10
11.34651412887493
 20
19.90202523848852
 30
0.0
 10
11.4678847494719
 20
19.85636932238473
 30
0.0
 10
11.71475803299396
 20
19.81834705508891
 30
0.0
 10
11.83869929941915
 20
19.82541361136526
 30
0.0
 10
12.06754486308015
 20
19.87113904737418
 30
0.0
 10
12.17335137945201
 20
19.90901688262058
 30
0.0
 10
12.45826053814744
 20
20.04338706304559
 30
0.0
 10
12.60079742123003
 20
20.15748101913769
 30
0.0
 10
12.72395241472731
 20
20.3163795690515
 30
0.0
 10
12.75035560308828
 20
20.3686983002106
 30
0.0
 10
12.77026974501039
 20
20.46407068698104
 30
0.0
 10
12.76437513382363
 20
20.50809579026946
 30
0.0
 10
12.72033810945414
 20
20.58670273274055
 30
0.0
 10
12.68302095968713
 20
20.62036391382855
 30
0.0
 10
12.57844952904387
 20
20.6788030396501
 30
0.0
 10
12.51125932456629
 20
20.70315217179684
 30
0.0
 10
12.35309446794182
 20
20.74506697422294
 30
0.0
 10
12.25993473983127
 20
20.76306355348387
 30
0.0
 10
12.05554915126637
 20
20.80054797821101
 30
0.0
 10
11.94432147845091
 20
20.81988880904708
 30
0.0
 10
11.70236550523705
 20
20.87856381245233
 30
0.0
 10
11.57681201416268
 20
20.91779460819586
 30
0.0
 10
11.33321027169285
 20
21.02911527108172
 30
0.0
 10
11.21910590689124
 20
21.09953242026531
 30
0.0
 10
11.11500000000001
 20
21.17875161027494
 30
0.0
  0
SPLINE
  5
2AC
330
1F
100
AcDbEntity
  8
SK3
  6
SLD-Dashed
370
    18
100
AcDbSpline
210
0.0
220
0.0
230
1.0
 70
     8
 71
     3
 72
    32
 73
    28
 74
     0
 42
0.000000001
 43
0.00000001
 40
0.0
 40
0.0
 40
0.0
 40
0.0
 40
0.0312500000000004
 40
0.0312500000000004
 40
0.0625000000000007
 40
0.0625000000000007
 40
0.1250000000000009
 40
0.1250000000000009
 40
0.1875000000000011
 40
0.1875000000000011
 40
0.2187500000000011
 40
0.2187500000000011
 40
0.2500000000000012
 40
0.2500000000000012
 40
0.2812500000000014
 40
0.2812500000000014
 40
0.3125000000000016
 40
0.3125000000000016
 40
0.3437500000000018
 40
0.3437500000000018
 40
0.375000000000002
 40
0.375000000000002
 40
0.4062500000000022
 40
0.4062500000000022
 40
0.4375000000000024
 40
0.4375000000000024
 40
0.5000000000000022
 40
0.5000000000000022
 40
0.5000000000000022
 40
0.5000000000000022
 10
11.11500000000001
 20
21.17875161027494
 30
0.0
 10
11.01089409310876
 20
21.25797080028456
 30
0.0
 10
10.91907857642198
 20
21.34285059862821
 30
0.0
 10
10.74762137377525
 20
21.51739232411443
 30
0.0
 10
10.66818813797002
 20
21.60711674781945
 30
0.0
 10
10.44047236553636
 20
21.87810823988762
 30
0.0
 10
10.30542057236915
 20
22.05723493175803
 30
0.0
 10
10.0525870356363
 20
22.39465868829962
 30
0.0
 10
9.93481360775797
 20
22.55444913615407
 30
0.0
 10
9.770188160048153
 20
22.76413869711338
 30
0.0
 10
9.717965925809105
 20
22.82813217252615
 30
0.0
 10
9.623196888300587
 20
22.93456489587036
 30
0.0
 10
9.579891013149599
 20
22.97806553251083
 30
0.0
 10
9.508588627253484
 20
23.02840087322287
 30
0.0
 10
9.48189227676846
 20
23.03332613058727
 30
0.0
 10
9.459811777617261
 20
22.98326804514633
 30
0.0
 10
9.465063840888229
 20
22.92678738490278
 30
0.0
 10
9.505124926315833
 20
22.76846886513447
 30
0.0
 10
9.538244242074112
 20
22.67034415658176
 30
0.0
 10
9.619247903804625
 20
22.45687868614512
 30
0.0
 10
9.665743567469118
 20
22.34495490160375
 30
0.0
 10
9.766569607309581
 20
22.11524263911087
 30
0.0
 10
9.821244160784545
 20
21.99690704152572
 30
0.0
 10
9.934291731587845
 20
21.76239601491103
 30
0.0
 10
9.993038231873266
 20
21.64535767447226
 30
0.0
 10
10.17595206270196
 20
21.29563855276317
 30
0.0
 10
10.30715710761319
 20
21.06254556883173
 30
0.0
 10
10.44989457346451
 20
20.83939046133177
 30
0.0
  0
SPLINE
  5
2AD
330
1F
100
AcDbEntity
  8
SK3
  6
SLD-Dashed
370
    18
100
AcDbSpline
210
0.0
220
0.0
230
1.0
 70
     8
 71
     3
 72
    34
 73
    30
 74
     0
 42
0.000000001
 43
0.00000001
 40
0.5000000000000022
 40
0.5000000000000022
 40
0.5000000000000022
 40
0.5000000000000022
 40
0.5625000000000021
 40
0.5625000000000021
 40
0.5937500000000018
 40
0.5937500000000018
 40
0.6250000000000014
 40
0.6250000000000014
 40
0.6562500000000012
 40
0.6562500000000012
 40
0.6875000000000009
 40
0.6875000000000009
 40
0.7500000000000007
 40
0.7500000000000007
 40
0.7812500000000006
 40
0.7812500000000006
 40
0.8125000000000006
 40
0.8125000000000006
 40
0.8437500000000004
 40
0.8437500000000004
 40
0.8750000000000003
 40
0.8750000000000003
 40
0.9062500000000003
 40
0.9062500000000003
 40
0.9375000000000002
 40
0.9375000000000002
 40
0.9687500000000002
 40
0.9687500000000002
 40
1.0
 40
1.0
 40
1.0
 40
1.0
 10
10.44989457346451
 20
20.83939046133177
 30
0.0
 10
10.59263203931582
 20
20.61623535383182
 30
0.0
 10
10.74572898252594
 20
20.40034020612856
 30
0.0
 10
11.02346457422351
 20
20.11974774983988
 30
0.0
 10
11.12372720463398
 20
20.03506133841343
 30
0.0
 10
11.34651412887493
 20
19.90202523848852
 30
0.0
 10
11.4678847494719
 20
19.85636932238473
 30
0.0
 10
11.71475803299396
 20
19.81834705508891
 30
0.0
 10
11.83869929941915
 20
19.82541361136526
 30
0.0
 10
12.06754486308015
 20
19.87113904737418
 30
0.0
 10
12.17335137945201
 20
19.90901688262058
 30
0.0
 10
12.45826053814744
 20
20.04338706304559
 30
0.0
 10
12.60079742123003
 20
20.15748101913769
 30
0.0
 10
12.72395241472731
 20
20.3163795690515
 30
0.0
 10
12.75035560308828
 20
20.3686983002106
 30
0.0
 10
12.77026974501039
 20
20.46407068698104
 30
0.0
 10
12.76437513382363
 20
20.50809579026946
 30
0.0
 10
12.72033810945414
 20
20.58670273274055
 30
0.0
 10
12.68302095968713
 20
20.62036391382855
 30
0.0
 10
12.57844952904387
 20
20.6788030396501
 30
0.0
 10
12.51125932456629
 20
20.70315217179684
 30
0.0
 10
12.35309446794182
 20
20.74506697422294
 30
0.0
 10
12.25993473983127
 20
20.76306355348387
 30
0.0
 10
12.05554915126637
 20
20.80054797821101
 30
0.0
 10
11.94432147845091
 20
20.81988880904708
 30
0.0
 10
11.70236550523705
 20
20.87856381245233
 30
0.0
 10
11.57681201416268
 20
20.91779460819586
 30
0.0
 10
11.33321027169285
 20
21.02911527108172
 30
0.0
 10
11.21910590689124
 20
21.09953242026531
 30
0.0
 10
11.11500000000001
 20
21.17875161027494
 30
0.0
  0
SPLINE
  5
2AE
330
1F
100
AcDbEntity
  8
SK3
  6
SLD-Dashed
370
    18
100
AcDbSpline
210
0.0
220
0.0
230
1.0
 70
     8
 71
     3
 72
    32
 73
    28
 74
     0
 42
0.000000001
 43
0.00000001
 40
0.0
 40
0.0
 40
0.0
 40
0.0
 40
0.0312500000000004
 40
0.0312500000000004
 40
0.0625000000000007
 40
0.0625000000000007
 40
0.1250000000000009
 40
0.1250000000000009
 40
0.1875000000000011
 40
0.1875000000000011
 40
0.2187500000000011
 40
0.2187500000000011
 40
0.2500000000000012
 40
0.2500000000000012
 40
0.2812500000000014
 40
0.2812500000000014
 40
0.3125000000000016
 40
0.3125000000000016
 40
0.3437500000000018
 40
0.3437500000000018
 40
0.375000000000002
 40
0.375000000000002
 40
0.4062500000000022
 40
0.4062500000000022
 40
0.4375000000000024
 40
0.4375000000000024
 40
0.5000000000000022
 40
0.5000000000000022
 40
0.5000000000000022
 40
0.5000000000000022
 10
11.11500000000001
 20
21.17875161027494
 30
0.0
 10
11.01089409310876
 20
21.25797080028456
 30
0.0
 10
10.91907857642198
 20
21.34285059862821
 30
0.0
 10
10.74762137377525
 20
21.51739232411443
 30
0.0
 10
10.66818813797002
 20
21.60711674781945
 30
0.0
 10
10.44047236553636
 20
21.87810823988762
 30
0.0
 10
10.30542057236915
 20
22.05723493175803
 30
0.0
 10
10.0525870356363
 20
22.39465868829962
 30
0.0
 10
9.93481360775797
 20
22.55444913615407
 30
0.0
 10
9.770188160048153
 20
22.76413869711338
 30
0.0
 10
9.717965925809105
 20
22.82813217252615
 30
0.0
 10
9.623196888300587
 20
22.93456489587036
 30
0.0
 10
9.579891013149599
 20
22.97806553251083
 30
0.0
 10
9.508588627253484
 20
23.02840087322287
 30
0.0
 10
9.48189227676846
 20
23.03332613058727
 30
0.0
 10
9.459811777617261
 20
22.98326804514633
 30
0.0
 10
9.465063840888229
 20
22.92678738490278
 30
0.0
 10
9.505124926315833
 20
22.76846886513447
 30
0.0
 10
9.538244242074112
 20
22.67034415658176
 30
0.0
 10
9.619247903804625
 20
22.45687868614512
 30
0.0
 10
9.665743567469118
 20
22.34495490160375
 30
0.0
 10
9.766569607309581
 20
22.11524263911087
 30
0.0
 10
9.821244160784545
 20
21.99690704152572
 30
0.0
 10
9.934291731587845
 20
21.76239601491103
 30
0.0
 10
9.993038231873266
 20
21.64535767447226
 30
0.0
 10
10.17595206270196
 20
21.29563855276317
 30
0.0
 10
10.30715710761319
 20
21.06254556883173
 30
0.0
 10
10.44989457346451
 20
20.83939046133177
 30
0.0
  0
SPLINE
  5
2AF
330
1F
100
AcDbEntity
  8
SK3
  6
SLD-Dashed
370
    18
100
AcDbSpline
210
0.0
220
0.0
230
1.0
 70
     8
 71
     3
 72
    38
 73
    34
 74
     0
 42
0.000000001
 43
0.00000001
 40
0.4999999999999983
 40
0.4999999999999983
 40
0.4999999999999983
 40
0.4999999999999983
 40
0.5312499999999981
 40
0.5312499999999981
 40
0.5624999999999979
 40
0.5624999999999979
 40
0.5937499999999978
 40
0.5937499999999978
 40
0.6249999999999976
 40
0.6249999999999976
 40
0.6562499999999973
 40
0.6562499999999973
 40
0.6874999999999971
 40
0.6874999999999971
 40
0.7187499999999969
 40
0.7187499999999969
 40
0.7499999999999967
 40
0.7499999999999967
 40
0.8124999999999972
 40
0.8124999999999972
 40
0.8437499999999977
 40
0.8437499999999977
 40
0.8749999999999981
 40
0.8749999999999981
 40
0.9062499999999986
 40
0.9062499999999986
 40
0.9374999999999991
 40
0.9374999999999991
 40
0.9687499999999996
 40
0.9687499999999996
 40
0.9843749999999998
 40
0.9843749999999998
 40
1.0
 40
1.0
 40
1.0
 40
1.0
 10
9.56216591730219
 20
18.47093598961303
 30
0.0
 10
9.606669608828778
 20
18.52416098688804
 30
0.0
 10
9.666912210336983
 20
18.57938849438463
 30
0.0
 10
9.811812632231549
 20
18.68375239917333
 30
0.0
 10
9.897567425050546
 20
18.73401424472704
 30
0.0
 10
10.09207138823538
 20
18.81993222754759
 30
0.0
 10
10.19846038260036
 20
18.85489400372536
 30
0.0
 10
10.42991716747883
 20
18.89353738847551
 30
0.0
 10
10.55509168137395
 20
18.89577731622842
 30
0.0
 10
10.80142802631483
 20
18.84685379350589
 30
0.0
 10
10.92088750473036
 20
18.7956916519712
 30
0.0
 10
11.13971660654368
 20
18.65451476066452
 30
0.0
 10
11.23726506040233
 20
18.56770093185929
 30
0.0
 10
11.41790338683529
 20
18.37844427042387
 30
0.0
 10
11.50153843453279
 20
18.27510513220279
 30
0.0
 10
11.65792087602185
 20
18.06321384263405
 30
0.0
 10
11.73120965691783
 20
17.95392511395889
 30
0.0
 10
11.94219226675071
 20
17.619741552961
 30
0.0
 10
12.07203185085186
 20
17.38734632762718
 30
0.0
 10
12.25447266366209
 20
17.03574839840394
 30
0.0
 10
12.3128811159902
 20
16.91845212228915
 30
0.0
 10
12.4247898608672
 20
16.68436964494052
 30
0.0
 10
12.47864510461583
 20
16.56677083259166
 30
0.0
 10
12.57771343290431
 20
16.33866118066523
 30
0.0
 10
12.62343468736296
 20
16.22711687706208
 30
0.0
 10
12.70112312343485
 20
16.01827980161889
 30
0.0
 10
12.73250492214958
 20
15.92212850952397
 30
0.0
 10
12.7672598594827
 20
15.77300891717612
 30
0.0
 10
12.7696372439699
 20
15.72182794413953
 30
0.0
 10
12.74922628849655
 20
15.69153457680417
 30
0.0
 10
12.73857436485565
 20
15.68875344160837
 30
0.0
 10
12.71187670664378
 20
15.69536171497651
 30
0.0
 10
12.69586259956385
 20
15.70450089689615
 30
0.0
 10
12.67730763443391
 20
15.7186202619941
 30
0.0
  0
SPLINE
  5
2B0
330
1F
100
AcDbEntity
  8
SK3
  6
SLD-Dashed
370
    18
100
AcDbSpline
210
0.0
220
0.0
230
1.0
 70
     8
 71
     3
 72
    32
 73
    28
 74
     0
 42
0.000000001
 43
0.00000001
 40
0.0
 40
0.0
 40
0.0
 40
0.0
 40
0.03125
 40
0.03125
 40
0.0625
 40
0.0625
 40
0.1250000000000001
 40
0.1250000000000001
 40
0.1875000000000001
 40
0.1875000000000001
 40
0.2187499999999999
 40
0.2187499999999999
 40
0.2499999999999997
 40
0.2499999999999997
 40
0.2812499999999995
 40
0.2812499999999995
 40
0.3124999999999993
 40
0.3124999999999993
 40
0.3437499999999991
 40
0.3437499999999991
 40
0.3749999999999989
 40
0.3749999999999989
 40
0.4374999999999987
 40
0.4374999999999987
 40
0.4687499999999986
 40
0.4687499999999986
 40
0.4999999999999983
 40
0.4999999999999983
 40
0.4999999999999983
 40
0.4999999999999983
 10
12.67730763443391
 20
15.71862026199411
 30
0.0
 10
12.640197704174
 20
15.74685899219001
 30
0.0
 10
12.59620302127297
 20
15.79224259566822
 30
0.0
 10
12.49971880657835
 20
15.9022963991526
 30
0.0
 10
12.44665882244544
 20
15.96790322450678
 30
0.0
 10
12.28056941339611
 20
16.18069042781309
 30
0.0
 10
12.16116169070407
 20
16.34294467859647
 30
0.0
 10
11.90308945990523
 20
16.68678550781622
 30
0.0
 10
11.76485718622874
 20
16.86913497916117
 30
0.0
 10
11.53444141192583
 20
17.13967173638346
 30
0.0
 10
11.45348400885542
 20
17.22963068267213
 30
0.0
 10
11.27594996715917
 20
17.40558287635432
 30
0.0
 10
11.18041818036963
 20
17.49045861876101
 30
0.0
 10
10.96802844471276
 20
17.64380301353632
 30
0.0
 10
10.85203519791082
 20
17.71043612197693
 30
0.0
 10
10.60633681320568
 20
17.8142110669719
 30
0.0
 10
10.48187270231063
 20
17.84965901655795
 30
0.0
 10
10.24397755356145
 20
17.90370925451104
 30
0.0
 10
10.13459384449089
 20
17.92220535972609
 30
0.0
 10
9.934042005980901
 20
17.95947433583485
 30
0.0
 10
9.845027015680587
 20
17.97770297449699
 30
0.0
 10
9.616531880722908
 20
18.04313350928849
 30
0.0
 10
9.516243573240754
 20
18.10241425150425
 30
0.0
 10
9.462270080515284
 20
18.22319269411325
 30
0.0
 10
9.460111331805908
 20
18.26770507956403
 30
0.0
 10
9.487789440891763
 20
18.36543324740018
 30
0.0
 10
9.517662225775616
 20
18.41771099233802
 30
0.0
 10
9.56216591730219
 20
18.47093598961303
 30
0.0
  0
SPLINE
  5
2B1
330
1F
100
AcDbEntity
  8
SK3
  6
SLD-Dashed
370
    18
100
AcDbSpline
210
0.0
220
0.0
230
1.0
 70
     8
 71
     3
 72
    10
 73
     6
 74
     0
 42
0.000000001
 43
0.00000001
 40
0.0
 40
0.0
 40
0.0
 40
0.0
 40
0.5000000000000001
 40
0.5000000000000001
 40
1.0
 40
1.0
 40
1.0
 40
1.0
 10
9.749999999999995
 20
6.836913248291762
 30
0.0
 10
9.83940499945905
 20
6.724348891719558
 30
0.0
 10
9.937796493980438
 20
6.587325790431557
 30
0.0
 10
10.14059110303494
 20
6.291763972871823
 30
0.0
 10
10.24464982814095
 20
6.133636243346777
 30
0.0
 10
10.35083057599661
 20
5.968289616231045
 30
0.0
  0
SPLINE
  5
2B2
330
1F
100
AcDbEntity
  8
SK3
  6
SLD-Dashed
370
    18
100
AcDbSpline
210
0.0
220
0.0
230
1.0
 70
     8
 71
     3
 72
    14
 73
    10
 74
     0
 42
0.000000001
 43
0.00000001
 40
0.0
 40
0.0
 40
0.0
 40
0.0
 40
0.2500000000000001
 40
0.2500000000000001
 40
0.5000000000000002
 40
0.5000000000000002
 40
0.7500000000000003
 40
0.7500000000000003
 40
1.0
 40
1.0
 40
1.0
 40
1.0
 10
9.749999999999995
 20
6.202827826382505
 30
0.0
 10
9.657396412158139
 20
6.266586066850058
 30
0.0
 10
9.586905731303553
 20
6.331389372893251
 30
0.0
 10
9.489825547593547
 20
6.45958136315139
 30
0.0
 10
9.465159620902593
 20
6.52104071818773
 30
0.0
 10
9.464841922223938
 20
6.63347016015959
 30
0.0
 10
9.489580197290001
 20
6.68425917482219
 30
0.0
 10
9.585490092803017
 20
6.770847583915156
 30
0.0
 10
9.657387251826439
 20
6.807391249349641
 30
0.0
 10
9.749999999999995
 20
6.836913248291762
 30
0.0
  0
SPLINE
  5
2B3
330
1F
100
AcDbEntity
  8
SK3
  6
SLD-Dashed
370
    18
100
AcDbSpline
210
0.0
220
0.0
230
1.0
 70
     8
 71
     3
 72
    12
 73
     8
 74
     0
 42
0.000000001
 43
0.00000001
 40
0.0
 40
0.0
 40
0.0
 40
0.0
 40
0.5000000000000009
 40
0.5000000000000009
 40
0.7500000000000004
 40
0.7500000000000004
 40
1.0
 40
1.0
 40
1.0
 40
1.0
 10
10.35083057599661
 20
4.967965161088701
 30
0.0
 10
10.24447896338475
 20
5.171592968386241
 30
0.0
 10
10.14064108424523
 20
5.376283757417283
 30
0.0
 10
9.989572412149675
 20
5.68526179142937
 30
0.0
 10
9.940006992064527
 20
5.788582038840105
 30
0.0
 10
9.842865324292237
 20
5.996039426540492
 30
0.0
 10
9.795042162621767
 20
6.100748135334816
 30
0.0
 10
9.749999999999995
 20
6.202827826382505
 30
0.0
  0
SPLINE
  5
2B4
330
1F
100
AcDbEntity
  8
SK3
  6
SLD-Dashed
370
    18
100
AcDbSpline
210
0.0
220
0.0
230
1.0
 70
     8
 71
     3
 72
    34
 73
    30
 74
     0
 42
0.000000001
 43
0.00000001
 40
0.0
 40
0.0
 40
0.0
 40
0.0
 40
0.1249999999999999
 40
0.1249999999999999
 40
0.1874999999999998
 40
0.1874999999999998
 40
0.2499999999999998
 40
0.2499999999999998
 40
0.3124999999999997
 40
0.3124999999999997
 40
0.3749999999999997
 40
0.3749999999999997
 40
0.4374999999999996
 40
0.4374999999999996
 40
0.4999999999999996
 40
0.4999999999999996
 40
0.5624999999999996
 40
0.5624999999999996
 40
0.6249999999999997
 40
0.6249999999999997
 40
0.7499999999999997
 40
0.7499999999999997
 40
0.8124999999999997
 40
0.8124999999999997
 40
0.8749999999999998
 40
0.8749999999999998
 40
0.9374999999999998
 40
0.9374999999999998
 40
1.0
 40
1.0
 40
1.0
 40
1.0
 10
10.35083057599662
 20
5.968289616231047
 30
0.0
 10
10.59906252064423
 20
5.982022195265592
 30
0.0
 10
10.88533850220889
 20
5.985733090134865
 30
0.0
 10
11.31208657867935
 20
5.984691461584084
 30
0.0
 10
11.45109677848237
 20
5.983099349368734
 30
0.0
 10
11.72277668362268
 20
5.976179723339116
 30
0.0
 10
11.8525921940717
 20
5.970849973469083
 30
0.0
 10
12.09217947623723
 20
5.954111477786627
 30
0.0
 10
12.20386229083591
 20
5.942459310582772
 30
0.0
 10
12.39815458902019
 20
5.910522122014379
 30
0.0
 10
12.48341943286423
 20
5.889812436243383
 30
0.0
 10
12.62159042701129
 20
5.837338366879101
 30
0.0
 10
12.67447791582191
 20
5.805927547072306
 30
0.0
 10
12.74688280192854
 20
5.729956945320698
 30
0.0
 10
12.76498912823104
 20
5.686527469326637
 30
0.0
 10
12.76501086201134
 20
5.589870772720849
 30
0.0
 10
12.74639431234985
 20
5.536017447527596
 30
0.0
 10
12.67464536702921
 20
5.42493188842802
 30
0.0
 10
12.62055343644364
 20
5.366135234039455
 30
0.0
 10
12.41311394888676
 20
5.193519290168556
 30
0.0
 10
12.21241295878372
 20
5.081189786023642
 30
0.0
 10
11.85168573889939
 20
4.956401945126372
 30
0.0
 10
11.72114033220828
 20
4.922084937138436
 30
0.0
 10
11.45182881676181
 20
4.874004319339028
 30
0.0
 10
11.30924413397065
 20
4.859735837423218
 30
0.0
 10
11.02694378192308
 20
4.854185894957105
 30
0.0
 10
10.88489220563658
 20
4.862602363336848
 30
0.0
 10
10.60796038932595
 20
4.900901289506265
 30
0.0
 10
10.47616320712701
 20
4.930098936112001
 30
0.0
 10
10.35083057599662
 20
4.967965161088703
 30
0.0
  0
SPLINE
  5
2B5
330
1F
100
AcDbEntity
  8
SK3
  6
SLD-Dashed
370
    18
100
AcDbSpline
210
0.0
220
0.0
230
1.0
 70
     8
 71
     3
 72
    14
 73
    10
 74
     0
 42
0.000000001
 43
0.00000001
 40
0.0
 40
0.0
 40
0.0
 40
0.0
 40
0.25
 40
0.25
 40
0.5
 40
0.5
 40
0.75
 40
0.75
 40
1.0
 40
1.0
 40
1.0
 40
1.0
 10
9.749999999999995
 20
-6.202827826382515
 30
0.0
 10
9.657396412158139
 20
-6.266586066850068
 30
0.0
 10
9.586905731303553
 20
-6.331389372893255
 30
0.0
 10
9.489825547593547
 20
-6.459581363151386
 30
0.0
 10
9.465159620902593
 20
-6.521040718187733
 30
0.0
 10
9.464841922223938
 20
-6.633470160159603
 30
0.0
 10
9.489580197290001
 20
-6.684259174822203
 30
0.0
 10
9.585490092803017
 20
-6.770847583915156
 30
0.0
 10
9.657387251826439
 20
-6.807391249349662
 30
0.0
 10
9.749999999999995
 20
-6.836913248291779
 30
0.0
  0
SPLINE
  5
2B6
330
1F
100
AcDbEntity
  8
SK3
  6
SLD-Dashed
370
    18
100
AcDbSpline
210
0.0
220
0.0
230
1.0
 70
     8
 71
     3
 72
    10
 73
     6
 74
     0
 42
0.000000001
 43
0.00000001
 40
0.0
 40
0.0
 40
0.0
 40
0.0
 40
0.5
 40
0.5
 40
1.0
 40
1.0
 40
1.0
 40
1.0
 10
9.749999999999995
 20
-6.836913248291776
 30
0.0
 10
9.839397774414005
 20
-6.724357988331046
 30
0.0
 10
9.937844996605424
 20
-6.587255969087415
 30
0.0
 10
10.14058225856533
 20
-6.291775994499049
 30
0.0
 10
10.24463577796496
 20
-6.133658122540794
 30
0.0
 10
10.35083057599642
 20
-5.968289616231058
 30
0.0
  0
SPLINE
  5
2B7
330
1F
100
AcDbEntity
  8
SK3
  6
SLD-Dashed
370
    18
100
AcDbSpline
210
0.0
220
0.0
230
1.0
 70
     8
 71
     3
 72
    34
 73
    30
 74
     0
 42
0.000000001
 43
0.00000001
 40
0.0
 40
0.0
 40
0.0
 40
0.0
 40
0.0624999999999999
 40
0.0624999999999999
 40
0.1249999999999998
 40
0.1249999999999998
 40
0.1874999999999997
 40
0.1874999999999997
 40
0.2499999999999996
 40
0.2499999999999996
 40
0.3124999999999994
 40
0.3124999999999994
 40
0.3749999999999994
 40
0.3749999999999994
 40
0.4374999999999993
 40
0.4374999999999993
 40
0.4999999999999992
 40
0.4999999999999992
 40
0.5624999999999993
 40
0.5624999999999993
 40
0.6249999999999994
 40
0.6249999999999994
 40
0.7499999999999993
 40
0.7499999999999993
 40
0.8749999999999992
 40
0.8749999999999992
 40
0.9374999999999996
 40
0.9374999999999996
 40
1.0
 40
1.0
 40
1.0
 40
1.0
 10
10.35083057599642
 20
-5.968289616231061
 30
0.0
 10
10.47671281985374
 20
-5.975253618649353
 30
0.0
 10
10.60845376560907
 20
-5.979348400504195
 30
0.0
 10
10.88364638366864
 20
-5.984435772516485
 30
0.0
 10
11.02718219734053
 20
-5.985375694388211
 30
0.0
 10
11.3089684762251
 20
-5.984710109897616
 30
0.0
 10
11.45139456474477
 20
-5.983087276658031
 30
0.0
 10
11.72158599020132
 20
-5.976214523385051
 30
0.0
 10
11.85123479476392
 20
-5.970935106318198
 30
0.0
 10
12.09261799685822
 20
-5.95409050449966
 30
0.0
 10
12.20180427062448
 20
-5.942742050351755
 30
0.0
 10
12.39777753527733
 20
-5.910638965944514
 30
0.0
 10
12.48252717986142
 20
-5.890035813088171
 30
0.0
 10
12.62040107403351
 20
-5.837903802082954
 30
0.0
 10
12.67466006171566
 20
-5.805663646139742
 30
0.0
 10
12.74637412789359
 20
-5.73056312399406
 30
0.0
 10
12.76495910920213
 20
-5.686894604042466
 30
0.0
 10
12.76504075454486
 20
-5.589741146918088
 30
0.0
 10
12.74703706032024
 20
-5.5372057093288
 30
0.0
 10
12.67483758102986
 20
-5.425038575918258
 30
0.0
 10
12.62143674221153
 20
-5.367008471991629
 30
0.0
 10
12.41449638991191
 20
-5.194396352878345
 30
0.0
 10
12.2120360408494
 20
-5.081091462469621
 30
0.0
 10
11.73236579867919
 20
-4.915093081974662
 30
0.0
 10
11.4537933705284
 20
-4.862681539141656
 30
0.0
 10
11.02671926491163
 20
-4.85412979672924
 30
0.0
 10
10.8848612096652
 20
-4.86265908920027
 30
0.0
 10
10.60996269722039
 20
-4.900572311215556
 30
0.0
 10
10.47504936602216
 20
-4.930435456278279
 30
0.0
 10
10.35083057599662
 20
-4.967965161088699
 30
0.0
  0
SPLINE
  5
2B8
330
1F
100
AcDbEntity
  8
SK3
  6
SLD-Dashed
370
    18
100
AcDbSpline
210
0.0
220
0.0
230
1.0
 70
     8
 71
     2
 72
     6
 73
     3
 74
     0
 42
0.000000001
 43
0.00000001
 40
0.0
 40
0.0
 40
0.0
 40
0.0312499999999999
 40
0.0312499999999999
 40
0.0312499999999999
 10
32.61000000000001
 20
-5.999999999999985
 30
0.0
 10
32.57175156025347
 20
-5.967330739878891
 30
0.0
 10
32.49834988899531
 20
-5.90520123389706
 30
0.0
  0
SPLINE
  5
2B9
330
1F
100
AcDbEntity
  8
SK3
  6
SLD-Dashed
370
    18
100
AcDbSpline
210
0.0
220
0.0
230
1.0
 70
     8
 71
     3
 72
     8
 73
     4
 74
     0
 42
0.000000001
 43
0.00000001
 40
0.0312499999999999
 40
0.0312499999999999
 40
0.0312499999999999
 40
0.0312499999999999
 40
0.0468749999999998
 40
0.0468749999999998
 40
0.0468749999999998
 40
0.0468749999999998
 10
32.49834988899531
 20
-5.90520123389706
 30
0.0
 10
32.46164905336622
 20
-5.874136480906129
 30
0.0
 10
32.41565909502657
 20
-5.835302206914507
 30
0.0
 10
32.36189607099607
 20
-5.790158322979337
 30
0.0
  0
SPLINE
  5
2BA
330
1F
100
AcDbEntity
  8
SK3
  6
SLD-Dashed
370
    18
100
AcDbSpline
210
0.0
220
0.0
230
1.0
 70
     8
 71
     3
 72
     8
 73
     4
 74
     0
 42
0.000000001
 43
0.00000001
 40
0.0468749999999998
 40
0.0468749999999998
 40
0.0468749999999998
 40
0.0468749999999998
 40
0.0624999999999998
 40
0.0624999999999998
 40
0.0624999999999998
 40
0.0624999999999998
 10
32.36189607099607
 20
-5.790158322979337
 30
0.0
 10
32.30813304696554
 20
-5.745014439044155
 30
0.0
 10
32.24679416735012
 20
-5.693724752301833
 30
0.0
 10
32.17845402254625
 20
-5.637005591719698
 30
0.0
  0
SPLINE
  5
2BB
330
1F
100
AcDbEntity
  8
SK3
  6
SLD-Dashed
370
    18
100
AcDbSpline
210
0.0
220
0.0
230
1.0
 70
     8
 71
     3
 72
     8
 73
     4
 74
     0
 42
0.000000001
 43
0.00000001
 40
0.0624999999999998
 40
0.0624999999999998
 40
0.0624999999999998
 40
0.0624999999999998
 40
0.0937499999999999
 40
0.0937499999999999
 40
0.0937499999999999
 40
0.0937499999999999
 10
32.17845402254625
 20
-5.637005591719698
 30
0.0
 10
32.04177373293851
 20
-5.52356727055546
 30
0.0
 10
31.8751525402453
 20
-5.386767166814237
 30
0.0
 10
31.68820287306458
 20
-5.237264868798049
 30
0.0
  0
SPLINE
  5
2BC
330
1F
100
AcDbEntity
  8
SK3
  6
SLD-Dashed
370
    18
100
AcDbSpline
210
0.0
220
0.0
230
1.0
 70
     8
 71
     3
 72
     8
 73
     4
 74
     0
 42
0.000000001
 43
0.00000001
 40
0.0937499999999999
 40
0.0937499999999999
 40
0.0937499999999999
 40
0.0937499999999999
 40
0.125
 40
0.125
 40
0.125
 40
0.125
 10
31.68820287306458
 20
-5.237264868798049
 30
0.0
 10
31.50125320588385
 20
-5.087762570781876
 30
0.0
 10
31.29461407901346
 20
-4.925926799864696
 30
0.0
 10
31.06901944666
 20
-4.756658471094754
 30
0.0
  0
SPLINE
  5
2BD
330
1F
100
AcDbEntity
  8
SK3
  6
SLD-Dashed
370
    18
100
AcDbSpline
210
0.0
220
0.0
230
1.0
 70
     8
 71
     3
 72
     8
 73
     4
 74
     0
 42
0.000000001
 43
0.00000001
 40
0.125
 40
0.125
 40
0.125
 40
0.125
 40
0.1562500000000001
 40
0.1562500000000001
 40
0.1562500000000001
 40
0.1562500000000001
 10
31.06901944666
 20
-4.756658471094754
 30
0.0
 10
30.84342481430656
 20
-4.587390142324808
 30
0.0
 10
30.59694466328787
 20
-4.409266511208643
 30
0.0
 10
30.33671579850548
 20
-4.2349564958203
 30
0.0
  0
SPLINE
  5
2BE
330
1F
100
AcDbEntity
  8
SK3
  6
SLD-Dashed
370
    18
100
AcDbSpline
210
0.0
220
0.0
230
1.0
 70
     8
 71
     3
 72
     8
 73
     4
 74
     0
 42
0.000000001
 43
0.00000001
 40
0.1562500000000001
 40
0.1562500000000001
 40
0.1562500000000001
 40
0.1562500000000001
 40
0.1875000000000002
 40
0.1875000000000002
 40
0.1875000000000002
 40
0.1875000000000002
 10
30.33671579850548
 20
-4.2349564958203
 30
0.0
 10
30.07648693372309
 20
-4.06064648043197
 30
0.0
 10
29.80157934916176
 20
-3.888842559247395
 30
0.0
 10
29.50605730191661
 20
-3.729901593684859
 30
0.0
  0
SPLINE
  5
2BF
330
1F
100
AcDbEntity
  8
SK3
  6
SLD-Dashed
370
    18
100
AcDbSpline
210
0.0
220
0.0
230
1.0
 70
     8
 71
     3
 72
     8
 73
     4
 74
     0
 42
0.000000001
 43
0.00000001
 40
0.1875000000000002
 40
0.1875000000000002
 40
0.1875000000000002
 40
0.1875000000000002
 40
0.2187500000000004
 40
0.2187500000000004
 40
0.2187500000000004
 40
0.2187500000000004
 10
29.50605730191661
 20
-3.72990159368486
 30
0.0
 10
29.21053525467145
 20
-3.570960628122315
 30
0.0
 10
28.89194800005543
 20
-3.424052878627887
 30
0.0
 10
28.55622742362739
 20
-3.317154860783904
 30
0.0
  0
SPLINE
  5
2C0
330
1F
100
AcDbEntity
  8
SK3
  6
SLD-Dashed
370
    18
100
AcDbSpline
210
0.0
220
0.0
230
1.0
 70
     8
 71
     3
 72
     8
 73
     4
 74
     0
 42
0.000000001
 43
0.00000001
 40
0.2187500000000004
 40
0.2187500000000004
 40
0.2187500000000004
 40
0.2187500000000004
 40
0.2343750000000004
 40
0.2343750000000004
 40
0.2343750000000004
 40
0.2343750000000004
 10
28.55622742362738
 20
-3.317154860783903
 30
0.0
 10
28.38836713541335
 20
-3.263705851861923
 30
0.0
 10
28.21380198917164
 20
-3.219768932692762
 30
0.0
 10
28.03663085193904
 20
-3.189964368335921
 30
0.0
  0
SPLINE
  5
2C1
330
1F
100
AcDbEntity
  8
SK3
  6
SLD-Dashed
370
    18
100
AcDbSpline
210
0.0
220
0.0
230
1.0
 70
     8
 71
     3
 72
     8
 73
     4
 74
     0
 42
0.000000001
 43
0.00000001
 40
0.2343750000000004
 40
0.2343750000000004
 40
0.2343750000000004
 40
0.2343750000000004
 40
0.2500000000000005
 40
0.2500000000000005
 40
0.2500000000000005
 40
0.2500000000000005
 10
28.03663085193904
 20
-3.189964368335921
 30
0.0
 10
27.85945971470648
 20
-3.16015980397907
 30
0.0
 10
27.6816388027859
 20
-3.144682708450617
 30
0.0
 10
27.50313572288308
 20
-3.144504703885488
 30
0.0
  0
SPLINE
  5
2C2
330
1F
100
AcDbEntity
  8
SK3
  6
SLD-Dashed
370
    18
100
AcDbSpline
210
0.0
220
0.0
230
1.0
 70
     8
 71
     3
 72
     8
 73
     4
 74
     0
 42
0.000000001
 43
0.00000001
 40
0.2500000000000005
 40
0.2500000000000005
 40
0.2500000000000005
 40
0.2500000000000005
 40
0.2656250000000006
 40
0.2656250000000006
 40
0.2656250000000006
 40
0.2656250000000006
 10
27.50313572288308
 20
-3.144504703885488
 30
0.0
 10
27.32463264298031
 20
-3.144326699320372
 30
0.0
 10
27.14388985899112
 20
-3.159748469849687
 30
0.0
 10
26.96615694237545
 20
-3.189496576291289
 30
0.0
  0
SPLINE
  5
2C3
330
1F
100
AcDbEntity
  8
SK3
  6
SLD-Dashed
370
    18
100
AcDbSpline
210
0.0
220
0.0
230
1.0
 70
     8
 71
     3
 72
     8
 73
     4
 74
     0
 42
0.000000001
 43
0.00000001
 40
0.2656250000000006
 40
0.2656250000000006
 40
0.2656250000000006
 40
0.2656250000000006
 40
0.2812500000000006
 40
0.2812500000000006
 40
0.2812500000000006
 40
0.2812500000000006
 10
26.96615694237545
 20
-3.189496576291289
 30
0.0
 10
26.78842402575976
 20
-3.219244682732908
 30
0.0
 10
26.61585058080044
 20
-3.262529925339975
 30
0.0
 10
26.44739238861806
 20
-3.316004038528789
 30
0.0
  0
SPLINE
  5
2C4
330
1F
100
AcDbEntity
  8
SK3
  6
SLD-Dashed
370
    18
100
AcDbSpline
210
0.0
220
0.0
230
1.0
 70
     8
 71
     3
 72
     8
 73
     4
 74
     0
 42
0.000000001
 43
0.00000001
 40
0.2812500000000006
 40
0.2812500000000006
 40
0.2812500000000006
 40
0.2812500000000006
 40
0.2968750000000007
 40
0.2968750000000007
 40
0.2968750000000007
 40
0.2968750000000007
 10
26.44739238861806
 20
-3.316004038528789
 30
0.0
 10
26.27893419643568
 20
-3.369478151717585
 30
0.0
 10
26.11381522862687
 20
-3.433545288800872
 30
0.0
 10
25.95556923318225
 20
-3.503307921592581
 30
0.0
  0
SPLINE
  5
2C5
330
1F
100
AcDbEntity
  8
SK3
  6
SLD-Dashed
370
    18
100
AcDbSpline
210
0.0
220
0.0
230
1.0
 70
     8
 71
     3
 72
     8
 73
     4
 74
     0
 42
0.000000001
 43
0.00000001
 40
0.2968750000000007
 40
0.2968750000000007
 40
0.2968750000000007
 40
0.2968750000000007
 40
0.3125000000000007
 40
0.3125000000000007
 40
0.3125000000000007
 40
0.3125000000000007
 10
25.95556923318225
 20
-3.503307921592581
 30
0.0
 10
25.79732323773763
 20
-3.573070554384286
 30
0.0
 10
25.64506558192196
 20
-3.648722775869643
 30
0.0
 10
25.49744560201922
 20
-3.72801879245158
 30
0.0
  0
SPLINE
  5
2C6
330
1F
100
AcDbEntity
  8
SK3
  6
SLD-Dashed
370
    18
100
AcDbSpline
210
0.0
220
0.0
230
1.0
 70
     8
 71
     3
 72
     8
 73
     4
 74
     0
 42
0.000000001
 43
0.00000001
 40
0.3125000000000007
 40
0.3125000000000007
 40
0.3125000000000007
 40
0.3125000000000007
 40
0.3437500000000007
 40
0.3437500000000007
 40
0.3437500000000007
 40
0.3437500000000007
 10
25.49744560201922
 20
-3.72801879245158
 30
0.0
 10
25.20220564221376
 20
-3.886610825615477
 30
0.0
 10
24.92385270614912
 20
-4.060374679972057
 30
0.0
 10
24.66198116175454
 20
-4.235829426008097
 30
0.0
  0
SPLINE
  5
2C7
330
1F
100
AcDbEntity
  8
SK3
  6
SLD-Dashed
370
    18
100
AcDbSpline
210
0.0
220
0.0
230
1.0
 70
     8
 71
     3
 72
     8
 73
     4
 74
     0
 42
0.000000001
 43
0.00000001
 40
0.3437500000000007
 40
0.3437500000000007
 40
0.3437500000000007
 40
0.3437500000000007
 40
0.3750000000000006
 40
0.3750000000000006
 40
0.3750000000000006
 40
0.3750000000000006
 10
24.66198116175454
 20
-4.235829426008097
 30
0.0
 10
24.40010961735996
 20
-4.411284172044148
 30
0.0
 10
24.157320492265
 20
-4.586836347452078
 30
0.0
 10
23.93124152400811
 20
-4.756462662521812
 30
0.0
  0
SPLINE
  5
2C8
330
1F
100
AcDbEntity
  8
SK3
  6
SLD-Dashed
370
    18
100
AcDbSpline
210
0.0
220
0.0
230
1.0
 70
     8
 71
     3
 72
     8
 73
     4
 74
     0
 42
0.000000001
 43
0.00000001
 40
0.3750000000000006
 40
0.3750000000000006
 40
0.3750000000000006
 40
0.3750000000000006
 40
0.4062500000000006
 40
0.4062500000000006
 40
0.4062500000000006
 40
0.4062500000000006
 10
23.93124152400811
 20
-4.756462662521812
 30
0.0
 10
23.70516255575117
 20
-4.926088977591548
 30
0.0
 10
23.49443522408748
 20
-5.091162593057818
 30
0.0
 10
23.30802186096924
 20
-5.240284411948623
 30
0.0
  0
SPLINE
  5
2C9
330
1F
100
AcDbEntity
  8
SK3
  6
SLD-Dashed
370
    18
100
AcDbSpline
210
0.0
220
0.0
230
1.0
 70
     8
 71
     3
 72
     8
 73
     4
 74
     0
 42
0.000000001
 43
0.00000001
 40
0.4062500000000006
 40
0.4062500000000006
 40
0.4062500000000006
 40
0.4062500000000006
 40
0.4375000000000005
 40
0.4375000000000005
 40
0.4375000000000005
 40
0.4375000000000005
 10
23.30802186096924
 20
-5.240284411948623
 30
0.0
 10
23.12160849785099
 20
-5.389406230839427
 30
0.0
 10
22.95805722109211
 20
-5.523699311789996
 30
0.0
 10
22.82045409135586
 20
-5.637911839600548
 30
0.0
  0
SPLINE
  5
2CA
330
1F
100
AcDbEntity
  8
SK3
  6
SLD-Dashed
370
    18
100
AcDbSpline
210
0.0
220
0.0
230
1.0
 70
     8
 71
     3
 72
     8
 73
     4
 74
     0
 42
0.000000001
 43
0.00000001
 40
0.4375000000000005
 40
0.4375000000000005
 40
0.4375000000000005
 40
0.4375000000000005
 40
0.4531250000000004
 40
0.4531250000000004
 40
0.4531250000000004
 40
0.4531250000000004
 10
22.82045409135586
 20
-5.637911839600548
 30
0.0
 10
22.75165252648774
 20
-5.695018103505832
 30
0.0
 10
22.68975785862119
 20
-5.746780974485489
 30
0.0
 10
22.63644445437854
 20
-5.791551825318039
 30
0.0
  0
SPLINE
  5
2CB
330
1F
100
AcDbEntity
  8
SK3
  6
SLD-Dashed
370
    18
100
AcDbSpline
210
0.0
220
0.0
230
1.0
 70
     8
 71
     3
 72
     8
 73
     4
 74
     0
 42
0.000000001
 43
0.00000001
 40
0.4531250000000004
 40
0.4531250000000004
 40
0.4531250000000004
 40
0.4531250000000004
 40
0.4687500000000003
 40
0.4687500000000003
 40
0.4687500000000003
 40
0.4687500000000003
 10
22.63644445437854
 20
-5.791551825318039
 30
0.0
 10
22.58313105013588
 20
-5.836322676150588
 30
0.0
 10
22.53795604067702
 20
-5.874470141075546
 30
0.0
 10
22.50130709049312
 20
-5.905491580178092
 30
0.0
  0
SPLINE
  5
2CC
330
1F
100
AcDbEntity
  8
SK3
  6
SLD-Dashed
370
    18
100
AcDbSpline
210
0.0
220
0.0
230
1.0
 70
     8
 71
     3
 72
     8
 73
     4
 74
     0
 42
0.000000001
 43
0.00000001
 40
0.4687500000000003
 40
0.4687500000000003
 40
0.4687500000000003
 40
0.4687500000000003
 40
0.5000000000000001
 40
0.5000000000000001
 40
0.5000000000000001
 40
0.5000000000000001
 10
22.50130709049312
 20
-5.905491580178092
 30
0.0
 10
22.42800919012539
 20
-5.967534458383172
 30
0.0
 10
22.38959559006591
 20
-6.000344422398725
 30
0.0
 10
22.39000332445641
 20
-5.999997168671542
 30
0.0
  0
SPLINE
  5
2CD
330
1F
100
AcDbEntity
  8
SK3
  6
SLD-Dashed
370
    18
100
AcDbSpline
210
0.0
220
0.0
230
1.0
 70
     8
 71
     3
 72
     8
 73
     4
 74
     0
 42
0.000000001
 43
0.00000001
 40
0.5000000000000001
 40
0.5000000000000001
 40
0.5000000000000001
 40
0.5000000000000001
 40
0.515625
 40
0.515625
 40
0.515625
 40
0.515625
 10
22.39000332445641
 20
-5.999997168671542
 30
0.0
 10
22.39020719165169
 20
-5.99982354180794
 30
0.0
 10
22.39976123306957
 20
-5.991680552941077
 30
0.0
 10
22.41872932448942
 20
-5.975551161006294
 30
0.0
  0
SPLINE
  5
2CE
330
1F
100
AcDbEntity
  8
SK3
  6
SLD-Dashed
370
    18
100
AcDbSpline
210
0.0
220
0.0
230
1.0
 70
     8
 71
     3
 72
     8
 73
     4
 74
     0
 42
0.000000001
 43
0.00000001
 40
0.515625
 40
0.515625
 40
0.515625
 40
0.515625
 40
0.53125
 40
0.53125
 40
0.53125
 40
0.53125
 10
22.41872932448942
 20
-5.975551161006294
 30
0.0
 10
22.43769741590927
 20
-5.959421769071525
 30
0.0
 10
22.46638582835686
 20
-5.935046741967924
 30
0.0
 10
22.5035476116056
 20
-5.903595215586178
 30
0.0
  0
SPLINE
  5
2CF
330
1F
100
AcDbEntity
  8
SK3
  6
SLD-Dashed
370
    18
100
AcDbSpline
210
0.0
220
0.0
230
1.0
 70
     8
 71
     3
 72
     8
 73
     4
 74
     0
 42
0.000000001
 43
0.00000001
 40
0.53125
 40
0.53125
 40
0.53125
 40
0.53125
 40
0.5624999999999997
 40
0.5624999999999997
 40
0.5624999999999997
 40
0.5624999999999997
 10
22.5035476116056
 20
-5.903595215586178
 30
0.0
 10
22.5778711781031
 20
-5.840692162822677
 30
0.0
 10
22.68629745306436
 20
-5.749229907679763
 30
0.0
 10
22.82494378807727
 20
-5.634185884814003
 30
0.0
  0
SPLINE
  5
2D0
330
1F
100
AcDbEntity
  8
SK3
  6
SLD-Dashed
370
    18
100
AcDbSpline
210
0.0
220
0.0
230
1.0
 70
     8
 71
     3
 72
     8
 73
     4
 74
     0
 42
0.000000001
 43
0.00000001
 40
0.5624999999999997
 40
0.5624999999999997
 40
0.5624999999999997
 40
0.5624999999999997
 40
0.5937499999999993
 40
0.5937499999999993
 40
0.5937499999999993
 40
0.5937499999999993
 10
22.82494378807727
 20
-5.634185884814003
 30
0.0
 10
22.96359012309017
 20
-5.51914186194824
 30
0.0
 10
23.12787068897249
 20
-5.38431586515999
 30
0.0
 10
23.31443435385205
 20
-5.235156136947024
 30
0.0
  0
SPLINE
  5
2D1
330
1F
100
AcDbEntity
  8
SK3
  6
SLD-Dashed
370
    18
100
AcDbSpline
210
0.0
220
0.0
230
1.0
 70
     8
 71
     3
 72
     8
 73
     4
 74
     0
 42
0.000000001
 43
0.00000001
 40
0.5937499999999993
 40
0.5937499999999993
 40
0.5937499999999993
 40
0.5937499999999993
 40
0.624999999999999
 40
0.624999999999999
 40
0.624999999999999
 40
0.624999999999999
 10
23.31443435385205
 20
-5.235156136947024
 30
0.0
 10
23.50099801873159
 20
-5.085996408734063
 30
0.0
 10
23.7121270376747
 20
-4.920714153780565
 30
0.0
 10
23.93852771590423
 20
-4.750998298292942
 30
0.0
  0
SPLINE
  5
2D2
330
1F
100
AcDbEntity
  8
SK3
  6
SLD-Dashed
370
    18
100
AcDbSpline
210
0.0
220
0.0
230
1.0
 70
     8
 71
     3
 72
     8
 73
     4
 74
     0
 42
0.000000001
 43
0.00000001
 40
0.624999999999999
 40
0.624999999999999
 40
0.624999999999999
 40
0.624999999999999
 40
0.6562499999999987
 40
0.6562499999999987
 40
0.6562499999999987
 40
0.6562499999999987
 10
23.93852771590423
 20
-4.750998298292942
 30
0.0
 10
24.16492839413374
 20
-4.581282442805333
 30
0.0
 10
24.40703991242686
 20
-4.406478488919063
 30
0.0
 10
24.66682460469508
 20
-4.232585831446444
 30
0.0
  0
SPLINE
  5
2D3
330
1F
100
AcDbEntity
  8
SK3
  6
SLD-Dashed
370
    18
100
AcDbSpline
210
0.0
220
0.0
230
1.0
 70
     8
 71
     3
 72
     8
 73
     4
 74
     0
 42
0.000000001
 43
0.00000001
 40
0.6562499999999987
 40
0.6562499999999987
 40
0.6562499999999987
 40
0.6562499999999987
 40
0.6874999999999983
 40
0.6874999999999983
 40
0.6874999999999983
 40
0.6874999999999983
 10
24.66682460469508
 20
-4.232585831446444
 30
0.0
 10
24.9266092969633
 20
-4.05869317397382
 30
0.0
 10
25.20659870964567
 20
-3.883918254166289
 30
0.0
 10
25.50337292430394
 20
-3.724838208486729
 30
0.0
  0
SPLINE
  5
2D4
330
1F
100
AcDbEntity
  8
SK3
  6
SLD-Dashed
370
    18
100
AcDbSpline
210
0.0
220
0.0
230
1.0
 70
     8
 71
     3
 72
     8
 73
     4
 74
     0
 42
0.000000001
 43
0.00000001
 40
0.6874999999999983
 40
0.6874999999999983
 40
0.6874999999999983
 40
0.6874999999999983
 40
0.7031249999999983
 40
0.7031249999999983
 40
0.7031249999999983
 40
0.7031249999999983
 10
25.50337292430394
 20
-3.724838208486729
 30
0.0
 10
25.65176003163305
 20
-3.645298185646937
 30
0.0
 10
25.80436295511257
 20
-3.569726571908433
 30
0.0
 10
25.96232651569694
 20
-3.500334233230974
 30
0.0
  0
SPLINE
  5
2D5
330
1F
100
AcDbEntity
  8
SK3
  6
SLD-Dashed
370
    18
100
AcDbSpline
210
0.0
220
0.0
230
1.0
 70
     8
 71
     3
 72
     8
 73
     4
 74
     0
 42
0.000000001
 43
0.00000001
 40
0.7031249999999983
 40
0.7031249999999983
 40
0.7031249999999983
 40
0.7031249999999983
 40
0.7187499999999984
 40
0.7187499999999984
 40
0.7187499999999984
 40
0.7187499999999984
 10
25.96232651569694
 20
-3.500334233230974
 30
0.0
 10
26.12029007628132
 20
-3.430941894553511
 30
0.0
 10
26.28464917201712
 20
-3.367380766230995
 30
0.0
 10
26.45368346148538
 20
-3.314012416809731
 30
0.0
  0
SPLINE
  5
2D6
330
1F
100
AcDbEntity
  8
SK3
  6
SLD-Dashed
370
    18
100
AcDbSpline
210
0.0
220
0.0
230
1.0
 70
     8
 71
     3
 72
     8
 73
     4
 74
     0
 42
0.000000001
 43
0.00000001
 40
0.7187499999999984
 40
0.7187499999999984
 40
0.7187499999999984
 40
0.7187499999999984
 40
0.7343749999999984
 40
0.7343749999999984
 40
0.7343749999999984
 40
0.7343749999999984
 10
26.45368346148538
 20
-3.314012416809731
 30
0.0
 10
26.62271775095365
 20
-3.26064406738847
 30
0.0
 10
26.79498145617913
 20
-3.217882918841907
 30
0.0
 10
26.9711471354858
 20
-3.188665136433243
 30
0.0
  0
SPLINE
  5
2D7
330
1F
100
AcDbEntity
  8
SK3
  6
SLD-Dashed
370
    18
100
AcDbSpline
210
0.0
220
0.0
230
1.0
 70
     8
 71
     3
 72
     8
 73
     4
 74
     0
 42
0.000000001
 43
0.00000001
 40
0.7343749999999984
 40
0.7343749999999984
 40
0.7343749999999984
 40
0.7343749999999984
 40
0.7499999999999986
 40
0.7499999999999986
 40
0.7499999999999986
 40
0.7499999999999986
 10
26.9711471354858
 20
-3.188665136433243
 30
0.0
 10
27.14731281479252
 20
-3.159447354024566
 30
0.0
 10
27.32961684505102
 20
-3.143961050305663
 30
0.0
 10
27.5097269337462
 20
-3.144518184593621
 30
0.0
  0
SPLINE
  5
2D8
330
1F
100
AcDbEntity
  8
SK3
  6
SLD-Dashed
370
    18
100
AcDbSpline
210
0.0
220
0.0
230
1.0
 70
     8
 71
     3
 72
     8
 73
     4
 74
     0
 42
0.000000001
 43
0.00000001
 40
0.7499999999999986
 40
0.7499999999999986
 40
0.7499999999999986
 40
0.7499999999999986
 40
0.7656249999999986
 40
0.7656249999999986
 40
0.7656249999999986
 40
0.7656249999999986
 10
27.5097269337462
 20
-3.144518184593621
 30
0.0
 10
27.68983702244143
 20
-3.145075318881595
 30
0.0
 10
27.86780554297073
 20
-3.161185983279281
 30
0.0
 10
28.04382803440558
 20
-3.191182998670768
 30
0.0
  0
SPLINE
  5
2D9
330
1F
100
AcDbEntity
  8
SK3
  6
SLD-Dashed
370
    18
100
AcDbSpline
210
0.0
220
0.0
230
1.0
 70
     8
 71
     3
 72
     8
 73
     4
 74
     0
 42
0.000000001
 43
0.00000001
 40
0.7656249999999986
 40
0.7656249999999986
 40
0.7656249999999986
 40
0.7656249999999986
 40
0.7812499999999987
 40
0.7812499999999987
 40
0.7812499999999987
 40
0.7812499999999987
 10
28.04382803440558
 20
-3.191182998670768
 30
0.0
 10
28.21985052584043
 20
-3.221180014062255
 30
0.0
 10
28.39506759979847
 20
-3.265543011070137
 30
0.0
 10
28.56288471122798
 20
-3.319280631305845
 30
0.0
  0
SPLINE
  5
2DA
330
1F
100
AcDbEntity
  8
SK3
  6
SLD-Dashed
370
    18
100
AcDbSpline
210
0.0
220
0.0
230
1.0
 70
     8
 71
     3
 72
     8
 73
     4
 74
     0
 42
0.000000001
 43
0.00000001
 40
0.7812499999999987
 40
0.7812499999999987
 40
0.7812499999999987
 40
0.7812499999999987
 40
0.812499999999999
 40
0.812499999999999
 40
0.812499999999999
 40
0.812499999999999
 10
28.56288471122798
 20
-3.319280631305845
 30
0.0
 10
28.89851893408704
 20
-3.426755871777275
 30
0.0
 10
29.21116530777897
 20
-3.571134244772126
 30
0.0
 10
29.50898535928274
 20
-3.73147721067842
 30
0.0
  0
SPLINE
  5
2DB
330
1F
100
AcDbEntity
  8
SK3
  6
SLD-Dashed
370
    18
100
AcDbSpline
210
0.0
220
0.0
230
1.0
 70
     8
 71
     3
 72
     8
 73
     4
 74
     0
 42
0.000000001
 43
0.00000001
 40
0.812499999999999
 40
0.812499999999999
 40
0.812499999999999
 40
0.812499999999999
 40
0.8437499999999993
 40
0.8437499999999993
 40
0.8437499999999993
 40
0.8437499999999993
 10
29.50898535928274
 20
-3.73147721067842
 30
0.0
 10
29.80680541078655
 20
-3.891820176584702
 30
0.0
 10
30.08165939201106
 20
-4.0639841211745
 30
0.0
 10
30.34051710619036
 20
-4.237503679120534
 30
0.0
  0
SPLINE
  5
2DC
330
1F
100
AcDbEntity
  8
SK3
  6
SLD-Dashed
370
    18
100
AcDbSpline
210
0.0
220
0.0
230
1.0
 70
     8
 71
     3
 72
     8
 73
     4
 74
     0
 42
0.000000001
 43
0.00000001
 40
0.8437499999999993
 40
0.8437499999999993
 40
0.8437499999999993
 40
0.8437499999999993
 40
0.8749999999999997
 40
0.8749999999999997
 40
0.8749999999999997
 40
0.8749999999999997
 10
30.34051710619036
 20
-4.237503679120534
 30
0.0
 10
30.59937482036969
 20
-4.411023237066558
 30
0.0
 10
30.84222081359553
 20
-4.586470613537855
 30
0.0
 10
31.06979294776097
 20
-4.757238872485161
 30
0.0
  0
SPLINE
  5
2DD
330
1F
100
AcDbEntity
  8
SK3
  6
SLD-Dashed
370
    18
100
AcDbSpline
210
0.0
220
0.0
230
1.0
 70
     8
 71
     3
 72
     8
 73
     4
 74
     0
 42
0.000000001
 43
0.00000001
 40
0.8749999999999997
 40
0.8749999999999997
 40
0.8749999999999997
 40
0.8749999999999997
 40
0.9062499999999998
 40
0.9062499999999998
 40
0.9062499999999998
 40
0.9062499999999998
 10
31.06979294776097
 20
-4.757238872485161
 30
0.0
 10
31.29736508192642
 20
-4.928007131432468
 30
0.0
 10
31.50342463327232
 20
-5.089498757074991
 30
0.0
 10
31.68822555496093
 20
-5.237283007364354
 30
0.0
  0
SPLINE
  5
2DE
330
1F
100
AcDbEntity
  8
SK3
  6
SLD-Dashed
370
    18
100
AcDbSpline
210
0.0
220
0.0
230
1.0
 70
     8
 71
     3
 72
     8
 73
     4
 74
     0
 42
0.000000001
 43
0.00000001
 40
0.9062499999999998
 40
0.9062499999999998
 40
0.9062499999999998
 40
0.9062499999999998
 40
0.9374999999999999
 40
0.9374999999999999
 40
0.9374999999999999
 40
0.9374999999999999
 10
31.68822555496093
 20
-5.237283007364354
 30
0.0
 10
31.8730264766495
 20
-5.3850672576537
 30
0.0
 10
32.03663227953169
 20
-5.519324757396489
 30
0.0
 10
32.17527123043204
 20
-5.634364301152828
 30
0.0
  0
SPLINE
  5
2DF
330
1F
100
AcDbEntity
  8
SK3
  6
SLD-Dashed
370
    18
100
AcDbSpline
210
0.0
220
0.0
230
1.0
 70
     8
 71
     3
 72
     8
 73
     4
 74
     0
 42
0.000000001
 43
0.00000001
 40
0.9374999999999999
 40
0.9374999999999999
 40
0.9374999999999999
 40
0.9374999999999999
 40
0.96875
 40
0.96875
 40
0.96875
 40
0.96875
 10
32.17527123043204
 20
-5.634364301152828
 30
0.0
 10
32.31391018133238
 20
-5.749403844909167
 30
0.0
 10
32.42211242687767
 20
-5.840678803563703
 30
0.0
 10
32.49630767363519
 20
-5.903472738111517
 30
0.0
  0
SPLINE
  5
2E0
330
1F
100
AcDbEntity
  8
SK3
  6
SLD-Dashed
370
    18
100
AcDbSpline
210
0.0
220
0.0
230
1.0
 70
     8
 71
     2
 72
     6
 73
     3
 74
     0
 42
0.000000001
 43
0.00000001
 40
0.96875
 40
0.96875
 40
0.96875
 40
1.0
 40
1.0
 40
1.0
 10
32.49630767363519
 20
-5.903472738111517
 30
0.0
 10
32.57050292039269
 20
-5.966266672659343
 30
0.0
 10
32.61000000000001
 20
-5.999999999999985
 30
0.0
  0
SPLINE
  5
2E1
330
1F
100
AcDbEntity
  8
SK3
  6
SLD-Dashed
370
    18
100
AcDbSpline
210
0.0
220
0.0
230
1.0
 70
     8
 71
     3
 72
    12
 73
     8
 74
     0
 42
0.000000001
 43
0.00000001
 40
0.0
 40
0.0
 40
0.0
 40
0.0
 40
0.5
 40
0.5
 40
0.75
 40
0.75
 40
1.0
 40
1.0
 40
1.0
 40
1.0
 10
10.35083057599662
 20
-4.967965161088699
 30
0.0
 10
10.24450312960115
 20
-5.171546698155467
 30
0.0
 10
10.14066997996067
 20
-5.376225229394748
 30
0.0
 10
9.989574395317502
 20
-5.685257449406677
 30
0.0
 10
9.939994275110276
 20
-5.788608000151896
 30
0.0
 10
9.842810023049541
 20
-5.996158726878067
 30
0.0
 10
9.795011983066843
 20
-6.100816531687498
 30
0.0
 10
9.749999999999995
 20
-6.202827826382515
 30
0.0
  0
SPLINE
  5
2E2
330
1F
100
AcDbEntity
  8
SK3
  6
SLD-Dashed
370
    18
100
AcDbSpline
210
0.0
220
0.0
230
1.0
 70
     8
 71
     3
 72
    30
 73
    26
 74
     0
 42
0.000000001
 43
0.00000001
 40
0.5000000000000013
 40
0.5000000000000013
 40
0.5000000000000013
 40
0.5000000000000013
 40
0.5625000000000014
 40
0.5625000000000014
 40
0.6250000000000014
 40
0.6250000000000014
 40
0.6562500000000014
 40
0.6562500000000014
 40
0.6875000000000013
 40
0.6875000000000013
 40
0.7187500000000013
 40
0.7187500000000013
 40
0.7500000000000012
 40
0.7500000000000012
 40
0.7812500000000012
 40
0.7812500000000012
 40
0.8125000000000012
 40
0.8125000000000012
 40
0.8750000000000008
 40
0.8750000000000008
 40
0.9375000000000003
 40
0.9375000000000003
 40
0.9687500000000001
 40
0.9687500000000001
 40
1.0
 40
1.0
 40
1.0
 40
1.0
 10
11.76979658556572
 20
-17.89232296268974
 30
0.0
 10
11.91246294966132
 20
-17.67070440556974
 30
0.0
 10
12.04384136644407
 20
-17.43839527667697
 30
0.0
 10
12.28743240561783
 20
-16.9748303196765
 30
0.0
 10
12.4007403709436
 20
-16.74140211064307
 30
0.0
 10
12.554475708453
 20
-16.393755585766
 30
0.0
 10
12.60138543677658
 20
-16.28170289315484
 30
0.0
 10
12.68295201157341
 20
-16.06989778885581
 30
0.0
 10
12.71817196931761
 20
-15.96819079433432
 30
0.0
 10
12.76213654526595
 20
-15.80428414547201
 30
0.0
 10
12.77026091463637
 20
-15.74311791179767
 30
0.0
 10
12.75239776164136
 20
-15.68353507622142
 30
0.0
 10
12.72724833739215
 20
-15.68523834432891
 30
0.0
 10
12.65908666407788
 20
-15.72953787216991
 30
0.0
 10
12.61568164729124
 20
-15.77187993935921
 30
0.0
 10
12.52100924552238
 20
-15.87679896563816
 30
0.0
 10
12.46941331137416
 20
-15.93961580200765
 30
0.0
 10
12.30490621332257
 20
-16.14822680602849
 30
0.0
 10
12.18517846713217
 20
-16.31053867976722
 30
0.0
 10
11.92983731616863
 20
-16.65147882946563
 30
0.0
 10
11.79267665531762
 20
-16.83353639743864
 30
0.0
 10
11.56451158979957
 20
-17.10544293868932
 30
0.0
 10
11.48485276967111
 20
-17.19558760882551
 30
0.0
 10
11.31258630900467
 20
-17.37124855765232
 30
0.0
 10
11.21906269051036
 20
-17.45771014988549
 30
0.0
 10
11.11500000000001
 20
-17.53689645447305
 30
0.0
  0
SPLINE
  5
2E3
330
1F
100
AcDbEntity
  8
SK3
  6
SLD-Dashed
370
    18
100
AcDbSpline
210
0.0
220
0.0
230
1.0
 70
     8
 71
     3
 72
    34
 73
    30
 74
     0
 42
0.000000001
 43
0.00000001
 40
0.0
 40
0.0
 40
0.0
 40
0.0
 40
0.0312500000000002
 40
0.0312500000000002
 40
0.0625000000000003
 40
0.0625000000000003
 40
0.0937500000000005
 40
0.0937500000000005
 40
0.1250000000000007
 40
0.1250000000000007
 40
0.1562500000000009
 40
0.1562500000000009
 40
0.1875000000000011
 40
0.1875000000000011
 40
0.2500000000000012
 40
0.2500000000000012
 40
0.3125000000000013
 40
0.3125000000000013
 40
0.3437500000000013
 40
0.3437500000000013
 40
0.3750000000000013
 40
0.3750000000000013
 40
0.4062500000000014
 40
0.4062500000000014
 40
0.4375000000000014
 40
0.4375000000000014
 40
0.4687500000000014
 40
0.4687500000000014
 40
0.5000000000000013
 40
0.5000000000000013
 40
0.5000000000000013
 40
0.5000000000000013
 10
11.11500000000001
 20
-17.53689645447305
 30
0.0
 10
11.01093730948964
 20
-17.61608275906062
 30
0.0
 10
10.89827240143049
 20
-17.68568655045027
 30
0.0
 10
10.65524603173765
 20
-17.79707922957898
 30
0.0
 10
10.53100003630444
 20
-17.8360813271216
 30
0.0
 10
10.29040472633827
 20
-17.89479374448361
 30
0.0
 10
10.17852991293558
 20
-17.91436206658055
 30
0.0
 10
9.971641719228334
 20
-17.95228558252374
 30
0.0
 10
9.880140211756066
 20
-17.96985838929501
 30
0.0
 10
9.720479632928742
 20
-18.01190468167747
 30
0.0
 10
9.653640231842244
 20
-18.03603027826316
 30
0.0
 10
9.549145986449417
 20
-18.09373421516216
 30
0.0
 10
9.510668589618174
 20
-18.12800625055017
 30
0.0
 10
9.44414422677005
 20
-18.24422870024208
 30
0.0
 10
9.463570934642743
 20
-18.34292442278662
 30
0.0
 10
9.625438460184737
 20
-18.55480157919676
 30
0.0
 10
9.767910053168183
 20
-18.66930111395116
 30
0.0
 10
10.04867356462023
 20
-18.80341694907244
 30
0.0
 10
10.15222938652334
 20
-18.84139332547926
 30
0.0
 10
10.38092358660671
 20
-18.88914098662087
 30
0.0
 10
10.5028594505292
 20
-18.89754920765959
 30
0.0
 10
10.7514230217297
 20
-18.86243703960253
 30
0.0
 10
10.87148365715396
 20
-18.81899219989534
 30
0.0
 10
11.09561189675423
 20
-18.6885774051725
 30
0.0
 10
11.19522385975344
 20
-18.60587995809753
 30
0.0
 10
11.38076798793608
 20
-18.42116017956387
 30
0.0
 10
11.46555694339853
 20
-18.32003566241222
 30
0.0
 10
11.62416091896933
 20
-18.11140665073931
 30
0.0
 10
11.69846340351793
 20
-18.00313224124974
 30
0.0
 10
11.76979658556572
 20
-17.89232296268974
 30
0.0
  0
SPLINE
  5
2E4
330
1F
100
AcDbEntity
  8
SK3
  6
SLD-Dashed
370
    18
100
AcDbSpline
210
0.0
220
0.0
230
1.0
 70
     8
 71
     3
 72
    30
 73
    26
 74
     0
 42
0.000000001
 43
0.00000001
 40
0.4999999999999938
 40
0.4999999999999938
 40
0.4999999999999938
 40
0.4999999999999938
 40
0.5312499999999936
 40
0.5312499999999936
 40
0.5624999999999933
 40
0.5624999999999933
 40
0.6249999999999937
 40
0.6249999999999937
 40
0.687499999999994
 40
0.687499999999994
 40
0.7187499999999947
 40
0.7187499999999947
 40
0.7499999999999952
 40
0.7499999999999952
 40
0.7812499999999959
 40
0.7812499999999959
 40
0.8124999999999966
 40
0.8124999999999966
 40
0.8437499999999972
 40
0.8437499999999972
 40
0.8749999999999979
 40
0.8749999999999979
 40
0.9374999999999989
 40
0.9374999999999989
 40
1.0
 40
1.0
 40
1.0
 40
1.0
 10
9.543420299935407
 20
-22.65998997114812
 30
0.0
 10
9.578561233735405
 20
-22.56022716883099
 30
0.0
 10
9.622627266506978
 20
-22.4490483994453
 30
0.0
 10
9.718027024244998
 20
-22.2236780839706
 30
0.0
 10
9.77016585958776
 20
-22.10744453751687
 30
0.0
 10
9.935727180931428
 20
-21.75463004044461
 30
0.0
 10
10.05462982796812
 20
-21.52064448601665
 30
0.0
 10
10.31081948707682
 20
-21.0588380163739
 30
0.0
 10
10.4484097443316
 20
-20.82955805298788
 30
0.0
 10
10.67777322328786
 20
-20.50643317375554
 30
0.0
 10
10.7587109791655
 20
-20.40152870512313
 30
0.0
 10
10.93364535127568
 20
-20.20556086715294
 30
0.0
 10
11.02698337642653
 20
-20.11488201047909
 30
0.0
 10
11.23604536410173
 20
-19.96052893895907
 30
0.0
 10
11.35057343779473
 20
-19.89926443941833
 30
0.0
 10
11.5948030246146
 20
-19.82807633767501
 30
0.0
 10
11.71945599477357
 20
-19.81958662546977
 30
0.0
 10
11.95950363931198
 20
-19.84303817835689
 30
0.0
 10
12.07031700587893
 20
-19.87318242107355
 30
0.0
 10
12.27422745067751
 20
-19.95206349756281
 30
0.0
 10
12.3650270117984
 20
-20.00025605676592
 30
0.0
 10
12.59959907667482
 20
-20.15399503516338
 30
0.0
 10
12.70444177032678
 20
-20.26792332503301
 30
0.0
 10
12.78609851062197
 20
-20.46801773808178
 30
0.0
 10
12.76320534245741
 20
-20.55399411581359
 30
0.0
 10
12.67730763443394
 20
-20.61935781184684
 30
0.0
  0
SPLINE
  5
2E5
330
1F
100
AcDbEntity
  8
SK3
  6
SLD-Dashed
370
    18
100
AcDbSpline
210
0.0
220
0.0
230
1.0
 70
     8
 71
     3
 72
    34
 73
    30
 74
     0
 42
0.000000001
 43
0.00000001
 40
0.0
 40
0.0
 40
0.0
 40
0.0
 40
0.0312499999999995
 40
0.0312499999999995
 40
0.0624999999999991
 40
0.0624999999999991
 40
0.0937499999999986
 40
0.0937499999999986
 40
0.1249999999999982
 40
0.1249999999999982
 40
0.1562499999999978
 40
0.1562499999999978
 40
0.1874999999999973
 40
0.1874999999999973
 40
0.2499999999999964
 40
0.2499999999999964
 40
0.3124999999999955
 40
0.3124999999999955
 40
0.3437499999999952
 40
0.3437499999999952
 40
0.3749999999999949
 40
0.3749999999999949
 40
0.4062499999999946
 40
0.4062499999999946
 40
0.4374999999999943
 40
0.4374999999999943
 40
0.4687499999999941
 40
0.4687499999999941
 40
0.4999999999999938
 40
0.4999999999999938
 40
0.4999999999999938
 40
0.4999999999999938
 10
12.67730763443394
 20
-20.61935781184684
 30
0.0
 10
12.6343587804222
 20
-20.65203965986345
 30
0.0
 10
12.57729529856068
 20
-20.6789316649347
 30
0.0
 10
12.43603808962704
 20
-20.72541543980048
 30
0.0
 10
12.35095491427453
 20
-20.74490836916305
 30
0.0
 10
12.16118186397773
 20
-20.78180696819737
 30
0.0
 10
12.05422579636496
 20
-20.7995483052324
 30
0.0
 10
11.82324491388439
 20
-20.84734178875049
 30
0.0
 10
11.69889439480557
 20
-20.87807405413515
 30
0.0
 10
11.45304455248938
 20
-20.96908417859751
 30
0.0
 10
11.33231684279028
 20
-21.03008950406163
 30
0.0
 10
11.11245426351673
 20
-21.17497279059742
 30
0.0
 10
11.0131539316873
 20
-21.25735513703286
 30
0.0
 10
10.73767466537663
 20
-21.51687030422062
 30
0.0
 10
10.58689176004737
 20
-21.69912075795287
 30
0.0
 10
10.30357248622243
 20
-22.05725573907562
 30
0.0
 10
10.17286476490373
 20
-22.23420714395773
 30
0.0
 10
9.99100500559362
 20
-22.47743384821167
 30
0.0
 10
9.932635222666283
 20
-22.55514665472535
 30
0.0
 10
9.82040480561043
 20
-22.70089934625719
 30
0.0
 10
9.766060353100583
 20
-22.76957377640454
 30
0.0
 10
9.665448853514308
 20
-22.88873427842829
 30
0.0
 10
9.619326797725675
 20
-22.93921098612154
 30
0.0
 10
9.53938853672938
 20
-23.01052916562901
 30
0.0
 10
9.505665766297314
 20
-23.03089302097996
 30
0.0
 10
9.46522449538012
 20
-23.01585114589004
 30
0.0
 10
9.459739461343583
 20
-22.97888962661066
 30
0.0
 10
9.481585255233766
 20
-22.84998128766082
 30
0.0
 10
9.508279366135408
 20
-22.75975277346525
 30
0.0
 10
9.543420299935407
 20
-22.65998997114812
 30
0.0
  0
ELLIPSE
  5
2E6
330
1F
100
AcDbEntity
  8
SK3
  6
SLD-Dashed
370
    18
100
AcDbEllipse
 10
6.0521267237
 20
23.2104077334
 30
0.0
 11
3.098580671678161
 21
0.0
 31
0.0
210
0.0
220
0.0
230
1.0
 40
0.2152402503
 41
6.163596669273415
 42
6.402773945087449
  0
INSERT
  5
2E7
330
1F
100
AcDbEntity
  8
81
100
AcDbBlockReference
  2
Block11
 10
-41.6264826505
 20
-130.2676275275
 30
0.0
  0
INSERT
  5
2E8
330
1F
100
AcDbEntity
  8
80
100
AcDbBlockReference
  2
Block12
 10
-61.7273641656
 20
-130.3356800267
 30
0.0
  0
DIMENSION
  5
2E9
330
1F
100
AcDbEntity
  8
SK2
100
AcDbDimension
  2
_D
 10
19.05
 20
39.0801382643
 30
0.0
 11
8.7349758279
 21
39.0801382643
 31
0.0
 70
   160
  1
<>
 71
     2
 42
-1.0
  3
SLDDIMSTYLE0
100
AcDbAlignedDimension
 13
0.0
 23
22.225
 33
0.0
 14
19.05
 24
31.0
 34
0.0
100
AcDbRotatedDimension
  0
DIMENSION
  5
2F5
330
1F
100
AcDbEntity
  8
SK2
100
AcDbDimension
  2
_D_1
 10
50.0
 20
39.0801382643
 30
0.0
 11
34.8382827598
 21
39.0801382643
 31
0.0
 70
   160
  1
<>
 71
     2
 42
-1.0
  3
SLDDIMSTYLE0
100
AcDbAlignedDimension
 13
19.05
 23
31.0
 33
0.0
 14
50.0
 24
13.4944465005
 34
0.0
100
AcDbRotatedDimension
  0
DIMENSION
  5
2FF
330
1F
100
AcDbEntity
  8
2
100
AcDbDimension
  2
_D_2
 10
50.0
 20
47.4671213579
 30
0.0
 11
25.320470485
 21
47.4671213579
 31
0.0
 70
   160
  1
<>
 71
     2
 42
-1.0
  3
SLDDIMSTYLE0
100
AcDbAlignedDimension
 13
0.0
 23
22.225
 33
0.0
 14
50.0
 24
13.4944465005
 34
0.0
100
AcDbRotatedDimension
  0
DIMENSION
  5
309
330
1F
100
AcDbEntity
  8
SK2
100
AcDbDimension
  2
_D_3
 10
37.0
 20
30.6931551706
 30
0.0
 11
42.848322793
 21
30.6931551706
 31
0.0
 70
   160
  1
<>
 71
     2
 42
-1.0
  3
SLDDIMSTYLE0
100
AcDbAlignedDimension
 13
50.0
 23
13.4944465005
 33
0.0
 14
37.0
 24
21.0
 34
0.0
 50
0.0
100
AcDbRotatedDimension
  0
DIMENSION
  5
313
330
1F
100
AcDbEntity
  8
SK2
100
AcDbDimension
  2
_D_4
 10
88.0923085764
 20
21.0
 30
0.0
 11
88.0923085764
 21
-0.3674728736
 31
0.0
 70
   160
  1
%%c<>
 71
     2
 42
-1.0
  3
SLDDIMSTYLE0
100
AcDbAlignedDimension
 13
37.0
 23
-21.0
 33
0.0
 14
37.0
 24
21.0
 34
0.0
 50
90.0
100
AcDbRotatedDimension
  0
DIMENSION
  5
31E
330
1F
100
AcDbEntity
  8
SK2
100
AcDbDimension
  2
_D_5
 10
77.6949448682
 20
13.4944465005
 30
0.0
 11
77.6949448682
 21
-0.3674728736
 31
0.0
 70
   160
  1
%%c<>
 71
     2
 42
-1.0
  3
SLDDIMSTYLE0
100
AcDbAlignedDimension
 13
50.0
 23
-13.4944465005
 33
0.0
 14
50.0
 24
13.4944465005
 34
0.0
 50
90.0
100
AcDbRotatedDimension
  0
DIMENSION
  5
329
330
1F
100
AcDbEntity
  8
SK2
100
AcDbDimension
  2
_D_6
 10
68.1003067229
 20
-6.0
 30
0.0
 11
68.1003067229
 21
-0.3674728736
 31
0.0
 70
   160
  1
%%c<>
 71
     2
 42
-1.0
  3
SLDDIMSTYLE1
100
AcDbAlignedDimension
 13
49.0
 23
6.0
 33
0.0
 14
49.0
 24
-6.0
 34
0.0
 50
90.0
100
AcDbRotatedDimension
  0
DIMENSION
  5
337
330
1F
100
AcDbEntity
  8
SK2
100
AcDbDimension
  2
_D_7
 10
50.0
 20
-31.2354122831
 30
0.0
 11
39.2725874013
 21
-31.2354122831
 31
0.0
 70
   160
  1
<>
 71
     2
 42
-1.0
  3
SLDDIMSTYLE0
100
AcDbAlignedDimension
 13
27.5
 23
-19.4
 33
0.0
 14
50.0
 24
-13.4944465005
 34
0.0
 50
0.0
100
AcDbRotatedDimension
  0
DIMENSION
  5
341
330
1F
100
AcDbEntity
  8
SK2
100
AcDbDimension
  2
_D_8
 10
10.350830576
 20
-40.2304415738
 30
0.0
 11
28.911862115
 21
-40.2304415738
 31
0.0
 70
   160
  1
<>
 71
     2
 42
-1.0
  3
SLDDIMSTYLE0
100
AcDbAlignedDimension
 13
50.0
 23
-13.4944465005
 33
0.0
 14
10.350830576
 24
-6.0
 34
0.0
100
AcDbRotatedDimension
  0
DIMENSION
  5
34B
330
1F
100
AcDbEntity
  8
SK2
100
AcDbDimension
  2
_D_9
 10
-86.65350941
 20
22.225
 30
0.0
 11
-86.65350941
 21
-0.8295784511
 31
0.0
 70
   160
  1
%%c<>
 71
     2
 42
-1.0
  3
SLDDIMSTYLE0
100
AcDbAlignedDimension
 13
0.0
 23
-22.225
 33
0.0
 14
0.0
 24
22.225
 34
0.0
 50
90.0
100
AcDbRotatedDimension
  0
DIMENSION
  5
356
330
1F
100
AcDbEntity
  8
SK2
100
AcDbDimension
  2
_D_10
 10
-75.9781534261
 20
8.00000038
 30
0.0
 11
-75.9781534261
 21
0.365643825
 31
0.0
 70
   160
  1
M<>
 71
     2
 42
-1.0
  3
SLDDIMSTYLE0
100
AcDbAlignedDimension
 13
-57.2881214321
 23
-8.00000038
 33
0.0
 14
-57.2881214321
 24
8.00000038
 34
0.0
 50
90.0
100
AcDbRotatedDimension
  0
DIMENSION
  5
361
330
1F
100
AcDbEntity
  8
SK2
100
AcDbDimension
  2
_D_11
 10
-97.7901896471
 20
-31.75
 30
0.0
 11
-97.7901896471
 21
-0.8295784511
 31
0.0
 70
   160
  1
%%c<>
 71
     2
 42
-1.0
  3
SLDDIMSTYLE0
100
AcDbAlignedDimension
 13
3.95
 23
31.75
 33
0.0
 14
3.95
 24
-31.75
 34
0.0
 50
90.0
100
AcDbRotatedDimension
  0
MTEXT
  5
36C
330
1F
100
AcDbEntity
  8
SK6
 62
     5
100
AcDbMText
 10
-67.4973957086
 20
-36.7443989071
 30
0.0
 40
3.5
 41
0.0
 71
     1
 72
     1
  1
A1B20-40 12 050
  7
SLDTEXTSTYLE0
 73
     1
 44
1.0
  0
INSERT
  5
372
330
1F
100
AcDbEntity
  8
SK6
 62
     5
100
AcDbBlockReference
  2
SW_NOTE_0
 10
-36.372246969
 20
26.70835387
 30
0.0
  0
ENDSEC
  0
SECTION
  2
OBJECTS
  0
DICTIONARY
  5
C
330
0
100
AcDbDictionary
281
     1
  3
ACAD_GROUP
350
D
  3
ACAD_LAYOUT
350
1A
  3
ACAD_MLINESTYLE
350
17
  3
ACAD_PLOTSETTINGS
350
19
  3
ACAD_PLOTSTYLENAME
350
E
  3
ACAD_SCALELIST
350
47
  0
DICTIONARY
  5
D
102
{ACAD_REACTORS
330
C
102
}
330
C
100
AcDbDictionary
281
     1
  0
DICTIONARY
  5
1A
102
{ACAD_REACTORS
330
C
102
}
330
C
100
AcDbDictionary
281
     1
  3
Layout1
350
1E
  3
Layout2
350
26
  3
Model
350
22
  0
DICTIONARY
  5
17
102
{ACAD_REACTORS
330
C
102
}
330
C
100
AcDbDictionary
281
     1
  3
Standard
350
18
  0
DICTIONARY
  5
19
102
{ACAD_REACTORS
330
C
102
}
330
C
100
AcDbDictionary
281
     1
  0
ACDBDICTIONARYWDFLT
  5
E
102
{ACAD_REACTORS
330
C
102
}
330
C
100
AcDbDictionary
281
     1
  3
Normal
350
F
100
AcDbDictionaryWithDefault
340
F
  0
DICTIONARY
  5
47
102
{ACAD_REACTORS
330
C
102
}
330
C
100
AcDbDictionary
281
     1
  3
A0
350
48
  3
A1
350
49
  3
A2
350
4A
  3
A3
350
4B
  3
A4
350
4C
  3
A5
350
4D
  3
A6
350
4E
  3
A7
350
4F
  3
A8
350
50
  3
A9
350
51
  3
B0
350
52
  3
B1
350
53
  3
B2
350
54
  3
B3
350
55
  3
B4
350
56
  3
B5
350
57
  3
B6
350
58
  3
B7
350
59
  3
B8
350
5A
  3
B9
350
5B
  3
C0
350
5C
  3
C1
350
5D
  3
C2
350
5E
  3
C3
350
5F
  3
C4
350
60
  3
C5
350
61
  3
C6
350
62
  3
C7
350
63
  3
C8
350
64
  3
C9
350
65
  3
D0
350
66
  3
D1
350
67
  3
D2
350
68
  0
LAYOUT
  5
1E
102
{ACAD_REACTORS
330
1A
102
}
330
1A
100
AcDbPlotSettings
  1

  2
none_device
  4

  6

 40
0.0
 41
0.0
 42
0.0
 43
0.0
 44
0.0
 45
0.0
 46
0.0
 47
0.0
 48
0.0
 49
0.0
140
0.0
141
0.0
142
1.0
143
1.0
 70
   688
 72
     1
 73
     0
 74
     5
  7

 75
    16
147
1.0
148
0.0
149
0.0
100
AcDbLayout
  1
Layout1
 70
     1
 71
     1
 10
0.0
 20
0.0
 11
420.0
 21
297.0
 12
0.0
 22
0.0
 32
0.0
 14
1.0000000000E+20
 24
1.0000000000E+20
 34
1.0000000000E+20
 15
-1.0000000000E+20
 25
-1.0000000000E+20
 35
-1.0000000000E+20
146
0.0
 13
0.0
 23
0.0
 33
0.0
 16
1.0
 26
0.0
 36
0.0
 17
0.0
 27
1.0
 37
0.0
 76
     0
330
1B
  0
LAYOUT
  5
26
102
{ACAD_REACTORS
330
1A
102
}
330
1A
100
AcDbPlotSettings
  1

  2
none_device
  4

  6

 40
0.0
 41
0.0
 42
0.0
 43
0.0
 44
0.0
 45
0.0
 46
0.0
 47
0.0
 48
0.0
 49
0.0
140
0.0
141
0.0
142
1.0
143
1.0
 70
   688
 72
     1
 73
     0
 74
     5
  7

 75
    16
147
1.0
148
0.0
149
0.0
100
AcDbLayout
  1
Layout2
 70
     1
 71
     2
 10
0.0
 20
0.0
 11
0.0
 21
0.0
 12
0.0
 22
0.0
 32
0.0
 14
0.0
 24
0.0
 34
0.0
 15
0.0
 25
0.0
 35
0.0
146
0.0
 13
0.0
 23
0.0
 33
0.0
 16
1.0
 26
0.0
 36
0.0
 17
0.0
 27
1.0
 37
0.0
 76
     0
330
23
  0
LAYOUT
  5
22
102
{ACAD_REACTORS
330
1A
102
}
330
1A
100
AcDbPlotSettings
  1

  2
none_device
  4
Letter_(8.50_x_11.00_Inches)
  6

 40
6.35
 41
6.35
 42
6.35000508
 43
6.35000508
 44
215.9
 45
279.4
 46
0.0
 47
0.0
 48
0.0
 49
0.0
140
0.0
141
0.0
142
1.0
143
1.0
 70
  1712
 72
     1
 73
     0
 74
     0
  7

 75
     0
147
1.0
148
0.0
149
0.0
100
AcDbLayout
  1
Model
 70
     1
 71
     0
 10
0.0
 20
0.0
 11
297.0
 21
210.0
 12
0.0
 22
0.0
 32
0.0
 14
0.0
 24
0.0
 34
0.0
 15
297.0
 25
210.0
 35
0.0
146
0.0
 13
0.0
 23
0.0
 33
0.0
 16
1.0
 26
0.0
 36
0.0
 17
0.0
 27
1.0
 37
0.0
 76
     0
330
1F
331
29
  0
MLINESTYLE
  5
18
102
{ACAD_REACTORS
330
17
102
}
330
17
100
AcDbMlineStyle
  2
Standard
 70
     0
  3

 62
   256
 51
90.0
 52
90.0
 71
     2
 49
0.5
 62
   256
  6
BYLAYER
 49
-0.5
 62
   256
  6
BYLAYER
  0
ACDBPLACEHOLDER
  5
F
102
{ACAD_REACTORS
330
E
102
}
330
E
  0
SCALE
  5
48
102
{ACAD_REACTORS
330
47
102
}
330
47
100
AcDbScale
 70
     0
300
1:1
140
1.0
141
1.0
290
     1
  0
SCALE
  5
49
102
{ACAD_REACTORS
330
47
102
}
330
47
100
AcDbScale
 70
     0
300
1:2
140
1.0
141
2.0
290
     0
  0
SCALE
  5
4A
102
{ACAD_REACTORS
330
47
102
}
330
47
100
AcDbScale
 70
     0
300
1:4
140
1.0
141
4.0
290
     0
  0
SCALE
  5
4B
102
{ACAD_REACTORS
330
47
102
}
330
47
100
AcDbScale
 70
     0
300
1:5
140
1.0
141
5.0
290
     0
  0
SCALE
  5
4C
102
{ACAD_REACTORS
330
47
102
}
330
47
100
AcDbScale
 70
     0
300
1:8
140
1.0
141
8.0
290
     0
  0
SCALE
  5
4D
102
{ACAD_REACTORS
330
47
102
}
330
47
100
AcDbScale
 70
     0
300
1:10
140
1.0
141
10.0
290
     0
  0
SCALE
  5
4E
102
{ACAD_REACTORS
330
47
102
}
330
47
100
AcDbScale
 70
     0
300
1:16
140
1.0
141
16.0
290
     0
  0
SCALE
  5
4F
102
{ACAD_REACTORS
330
47
102
}
330
47
100
AcDbScale
 70
     0
300
1:20
140
1.0
141
20.0
290
     0
  0
SCALE
  5
50
102
{ACAD_REACTORS
330
47
102
}
330
47
100
AcDbScale
 70
     0
300
1:30
140
1.0
141
30.0
290
     0
  0
SCALE
  5
51
102
{ACAD_REACTORS
330
47
102
}
330
47
100
AcDbScale
 70
     0
300
1:40
140
1.0
141
40.0
290
     0
  0
SCALE
  5
52
102
{ACAD_REACTORS
330
47
102
}
330
47
100
AcDbScale
 70
     0
300
1:50
140
1.0
141
50.0
290
     0
  0
SCALE
  5
53
102
{ACAD_REACTORS
330
47
102
}
330
47
100
AcDbScale
 70
     0
300
1:100
140
1.0
141
100.0
290
     0
  0
SCALE
  5
54
102
{ACAD_REACTORS
330
47
102
}
330
47
100
AcDbScale
 70
     0
300
2:1
140
2.0
141
1.0
290
     0
  0
SCALE
  5
55
102
{ACAD_REACTORS
330
47
102
}
330
47
100
AcDbScale
 70
     0
300
4:1
140
4.0
141
1.0
290
     0
  0
SCALE
  5
56
102
{ACAD_REACTORS
330
47
102
}
330
47
100
AcDbScale
 70
     0
300
8:1
140
8.0
141
1.0
290
     0
  0
SCALE
  5
57
102
{ACAD_REACTORS
330
47
102
}
330
47
100
AcDbScale
 70
     0
300
10:1
140
10.0
141
1.0
290
     0
  0
SCALE
  5
58
102
{ACAD_REACTORS
330
47
102
}
330
47
100
AcDbScale
 70
     0
300
100:1
140
100.0
141
1.0
290
     0
  0
SCALE
  5
59
102
{ACAD_REACTORS
330
47
102
}
330
47
100
AcDbScale
 70
     0
300
1/128" = 1'-0"
140
0.0078125
141
12.0
290
     0
  0
SCALE
  5
5A
102
{ACAD_REACTORS
330
47
102
}
330
47
100
AcDbScale
 70
     0
300
1/64" = 1'-0"
140
0.015625
141
12.0
290
     0
  0
SCALE
  5
5B
102
{ACAD_REACTORS
330
47
102
}
330
47
100
AcDbScale
 70
     0
300
1/32" = 1'-0"
140
0.03125
141
12.0
290
     0
  0
SCALE
  5
5C
102
{ACAD_REACTORS
330
47
102
}
330
47
100
AcDbScale
 70
     0
300
1/16" = 1'-0"
140
0.0625
141
12.0
290
     0
  0
SCALE
  5
5D
102
{ACAD_REACTORS
330
47
102
}
330
47
100
AcDbScale
 70
     0
300
3/32" = 1'-0"
140
0.09375
141
12.0
290
     0
  0
SCALE
  5
5E
102
{ACAD_REACTORS
330
47
102
}
330
47
100
AcDbScale
 70
     0
300
1/8" = 1'-0"
140
0.125
141
12.0
290
     0
  0
SCALE
  5
5F
102
{ACAD_REACTORS
330
47
102
}
330
47
100
AcDbScale
 70
     0
300
3/16" = 1'-0"
140
0.1875
141
12.0
290
     0
  0
SCALE
  5
60
102
{ACAD_REACTORS
330
47
102
}
330
47
100
AcDbScale
 70
     0
300
1/4" = 1'-0"
140
0.25
141
12.0
290
     0
  0
SCALE
  5
61
102
{ACAD_REACTORS
330
47
102
}
330
47
100
AcDbScale
 70
     0
300
3/8" = 1'-0"
140
0.375
141
12.0
290
     0
  0
SCALE
  5
62
102
{ACAD_REACTORS
330
47
102
}
330
47
100
AcDbScale
 70
     0
300
1/2" = 1'-0"
140
0.5
141
12.0
290
     0
  0
SCALE
  5
63
102
{ACAD_REACTORS
330
47
102
}
330
47
100
AcDbScale
 70
     0
300
3/4" = 1'-0"
140
0.75
141
12.0
290
     0
  0
SCALE
  5
64
102
{ACAD_REACTORS
330
47
102
}
330
47
100
AcDbScale
 70
     0
300
1" = 1'-0"
140
1.0
141
12.0
290
     0
  0
SCALE
  5
65
102
{ACAD_REACTORS
330
47
102
}
330
47
100
AcDbScale
 70
     0
300
1-1/2" = 1'-0"
140
1.5
141
12.0
290
     0
  0
SCALE
  5
66
102
{ACAD_REACTORS
330
47
102
}
330
47
100
AcDbScale
 70
     0
300
3" = 1'-0"
140
3.0
141
12.0
290
     0
  0
SCALE
  5
67
102
{ACAD_REACTORS
330
47
102
}
330
47
100
AcDbScale
 70
     0
300
6" = 1'-0"
140
6.0
141
12.0
290
     0
  0
SCALE
  5
68
102
{ACAD_REACTORS
330
47
102
}
330
47
100
AcDbScale
 70
     0
300
1'-0" = 1'-0"
140
12.0
141
12.0
290
     0
  0
ENDSEC
  0
EOF
