  0
SECTION
  2
HEADER
  9
$ACADVER
  1
AC1015
  9
$ACADMAINTVER
 70
     6
  9
$DWGCODEPAGE
  3
ANSI_1250
  9
$INSBASE
 10
0.0
 20
0.0
 30
0.0
  9
$EXTMIN
 10
0.0
 20
0.0
 30
0.0
  9
$EXTMAX
 10
297.0
 20
210.0
 30
0.0
  9
$LIMMIN
 10
0.0
 20
0.0
  9
$LIMMAX
 10
297.0
 20
210.0
  9
$ORTHOMODE
 70
     0
  9
$REGENMODE
 70
     1
  9
$FILLMODE
 70
     1
  9
$QTEXTMODE
 70
     0
  9
$MIRRTEXT
 70
     1
  9
$LTSCALE
 40
1.0
  9
$ATTMODE
 70
     1
  9
$TEXTSIZE
 40
3.5
  9
$TRACEWID
 40
1.0
  9
$TEXTSTYLE
  7
Standard
  9
$CLAYER
  8
0
  9
$CELTYPE
  6
ByLayer
  9
$CECOLOR
 62
   256
  9
$CELTSCALE
 40
1.0
  9
$DISPSILH
 70
     0
  9
$DIMSCALE
 40
1.0
  9
$DIMASZ
 40
3.302
  9
$DIMEXO
 40
1.0
  9
$DIMDLI
 40
3.75
  9
$DIMRND
 40
0.0
  9
$DIMDLE
 40
0.0
  9
$DIMEXE
 40
1.0
  9
$DIMTP
 40
0.0
  9
$DIMTM
 40
0.0
  9
$DIMTXT
 40
3.5
  9
$DIMCEN
 40
2.5
  9
$DIMTSZ
 40
0.0
  9
$DIMTOL
 70
     0
  9
$DIMLIM
 70
     0
  9
$DIMTIH
 70
     1
  9
$DIMTOH
 70
     1
  9
$DIMSE1
 70
     0
  9
$DIMSE2
 70
     0
  9
$DIMTAD
 70
     1
  9
$DIMZIN
 70
     0
  9
$DIMBLK
  1

  9
$DIMASO
 70
     1
  9
$DIMSHO
 70
     1
  9
$DIMPOST
  1

  9
$DIMAPOST
  1

  9
$DIMALT
 70
     0
  9
$DIMALTD
 70
     3
  9
$DIMALTF
 40
0.0393700787
  9
$DIMLFAC
 40
1.0
  9
$DIMTOFL
 70
     1
  9
$DIMTVP
 40
0.0
  9
$DIMTIX
 70
     0
  9
$DIMSOXD
 70
     0
  9
$DIMSAH
 70
     0
  9
$DIMBLK1
  1

  9
$DIMBLK2
  1

  9
$DIMSTYLE
  2
ISO-25
  9
$DIMCLRD
 70
     0
  9
$DIMCLRE
 70
     0
  9
$DIMCLRT
 70
     0
  9
$DIMTFAC
 40
1.0
  9
$DIMGAP
 40
1.524
  9
$DIMJUST
 70
     0
  9
$DIMSD1
 70
     0
  9
$DIMSD2
 70
     0
  9
$DIMTOLJ
 70
     0
  9
$DIMTZIN
 70
     0
  9
$DIMALTZ
 70
     0
  9
$DIMALTTZ
 70
     0
  9
$DIMUPT
 70
     0
  9
$DIMDEC
 70
     2
  9
$DIMTDEC
 70
     2
  9
$DIMALTU
 70
     2
  9
$DIMALTTD
 70
     3
  9
$DIMTXSTY
  7
Standard
  9
$DIMAUNIT
 70
     0
  9
$DIMADEC
 70
     2
  9
$DIMALTRND
 40
0.0
  9
$DIMAZIN
 70
     0
  9
$DIMDSEP
 70
    44
  9
$DIMATFIT
 70
     3
  9
$DIMFRAC
 70
     0
  9
$DIMLDRBLK
  1

  9
$DIMLUNIT
 70
     2
  9
$DIMLWD
 70
    -2
  9
$DIMLWE
 70
    -2
  9
$DIMTMOVE
 70
     0
  9
$LUNITS
 70
     2
  9
$LUPREC
 70
     2
  9
$SKETCHINC
 40
1.0
  9
$FILLETRAD
 40
10.0
  9
$AUNITS
 70
     0
  9
$AUPREC
 70
     2
  9
$MENU
  1
.
  9
$ELEVATION
 40
0.0
  9
$PELEVATION
 40
0.0
  9
$THICKNESS
 40
0.0
  9
$LIMCHECK
 70
     0
  9
$CHAMFERA
 40
0.0
  9
$CHAMFERB
 40
0.0
  9
$CHAMFERC
 40
0.0
  9
$CHAMFERD
 40
0.0
  9
$SKPOLY
 70
     0
  9
$TDCREATE
 40
2459290.519500058
  9
$TDUCREATE
 40
2459290.477833391
  9
$TDUPDATE
 40
2459290.519501342
  9
$TDUUPDATE
 40
2459290.477834676
  9
$TDINDWG
 40
0.0000000116
  9
$TDUSRTIMER
 40
0.0000000116
  9
$USRTIMER
 70
     1
  9
$ANGBASE
 50
0.0
  9
$ANGDIR
 70
     0
  9
$PDMODE
 70
     0
  9
$PDSIZE
 40
-1.0
  9
$PLINEWID
 40
0.0
  9
$SPLFRAME
 70
     0
  9
$SPLINETYPE
 70
     6
  9
$SPLINESEGS
 70
     8
  9
$HANDSEED
  5
37E
  9
$SURFTAB1
 70
     6
  9
$SURFTAB2
 70
     6
  9
$SURFTYPE
 70
     6
  9
$SURFU
 70
     6
  9
$SURFV
 70
     6
  9
$UCSBASE
  2

  9
$UCSNAME
  2

  9
$UCSORG
 10
0.0
 20
0.0
 30
0.0
  9
$UCSXDIR
 10
1.0
 20
0.0
 30
0.0
  9
$UCSYDIR
 10
0.0
 20
1.0
 30
0.0
  9
$UCSORTHOREF
  2

  9
$UCSORTHOVIEW
 70
     0
  9
$UCSORGTOP
 10
0.0
 20
0.0
 30
0.0
  9
$UCSORGBOTTOM
 10
0.0
 20
0.0
 30
0.0
  9
$UCSORGLEFT
 10
0.0
 20
0.0
 30
0.0
  9
$UCSORGRIGHT
 10
0.0
 20
0.0
 30
0.0
  9
$UCSORGFRONT
 10
0.0
 20
0.0
 30
0.0
  9
$UCSORGBACK
 10
0.0
 20
0.0
 30
0.0
  9
$PUCSBASE
  2

  9
$PUCSNAME
  2

  9
$PUCSORG
 10
0.0
 20
0.0
 30
0.0
  9
$PUCSXDIR
 10
1.0
 20
0.0
 30
0.0
  9
$PUCSYDIR
 10
0.0
 20
1.0
 30
0.0
  9
$PUCSORTHOREF
  2

  9
$PUCSORTHOVIEW
 70
     0
  9
$PUCSORGTOP
 10
0.0
 20
0.0
 30
0.0
  9
$PUCSORGBOTTOM
 10
0.0
 20
0.0
 30
0.0
  9
$PUCSORGLEFT
 10
0.0
 20
0.0
 30
0.0
  9
$PUCSORGRIGHT
 10
0.0
 20
0.0
 30
0.0
  9
$PUCSORGFRONT
 10
0.0
 20
0.0
 30
0.0
  9
$PUCSORGBACK
 10
0.0
 20
0.0
 30
0.0
  9
$USERI1
 70
     0
  9
$USERI2
 70
     0
  9
$USERI3
 70
     0
  9
$USERI4
 70
     0
  9
$USERI5
 70
     0
  9
$USERR1
 40
0.0
  9
$USERR2
 40
0.0
  9
$USERR3
 40
0.0
  9
$USERR4
 40
0.0
  9
$USERR5
 40
0.0
  9
$WORLDVIEW
 70
     1
  9
$SHADEDGE
 70
     3
  9
$SHADEDIF
 70
    70
  9
$TILEMODE
 70
     1
  9
$MAXACTVP
 70
    64
  9
$PINSBASE
 10
0.0
 20
0.0
 30
0.0
  9
$PLIMCHECK
 70
     0
  9
$PEXTMIN
 10
1.0000000000E+20
 20
1.0000000000E+20
 30
1.0000000000E+20
  9
$PEXTMAX
 10
-1.0000000000E+20
 20
-1.0000000000E+20
 30
-1.0000000000E+20
  9
$PLIMMIN
 10
0.0
 20
0.0
  9
$PLIMMAX
 10
420.0
 20
297.0
  9
$UNITMODE
 70
     0
  9
$VISRETAIN
 70
     1
  9
$PLINEGEN
 70
     0
  9
$PSLTSCALE
 70
     1
  9
$TREEDEPTH
 70
  3020
  9
$CMLSTYLE
  2
Standard
  9
$CMLJUST
 70
     0
  9
$CMLSCALE
 40
20.0
  9
$PROXYGRAPHICS
 70
     1
  9
$MEASUREMENT
 70
     1
  9
$CELWEIGHT
370
    -1
  9
$ENDCAPS
280
     0
  9
$JOINSTYLE
280
     0
  9
$LWDISPLAY
290
     1
  9
$INSUNITS
 70
     4
  9
$HYPERLINKBASE
  1

  9
$STYLESHEET
  1

  9
$XEDIT
290
     1
  9
$CEPSNTYPE
380
     0
  9
$PSTYLEMODE
290
     1
  9
$FINGERPRINTGUID
  2
{191B8639-73A2-40BB-9801-62A7664F6285}
  9
$VERSIONGUID
  2
{FAEB1C32-E019-11D5-929B-00C0DF256EC4}
  9
$EXTNAMES
290
     1
  9
$PSVPSCALE
 40
0.0
  9
$OLESTARTUP
290
     0
  0
ENDSEC
  0
SECTION
  2
CLASSES
  0
CLASS
  1
ACDBDICTIONARYWDFLT
  2
AcDbDictionaryWithDefault
  3
ObjectDBX Classes
 90
        0
280
     0
281
     0
  0
CLASS
  1
VISUALSTYLE
  2
AcDbVisualStyle
  3
ObjectDBX Classes
 90
     4095
280
     0
281
     0
  0
CLASS
  1
MATERIAL
  2
AcDbMaterial
  3
ObjectDBX Classes
 90
     1153
280
     0
281
     0
  0
CLASS
  1
SCALE
  2
AcDbScale
  3
ObjectDBX Classes
 90
     1153
280
     0
281
     0
  0
CLASS
  1
TABLESTYLE
  2
AcDbTableStyle
  3
ObjectDBX Classes
 90
     4095
280
     0
281
     0
  0
CLASS
  1
MLEADERSTYLE
  2
AcDbMLeaderStyle
  3
ACDB_MLEADERSTYLE_CLASS
 90
     4095
280
     0
281
     0
  0
CLASS
  1
SUN
  2
AcDbSun
  3
SCENEOE
 90
     1153
280
     0
281
     0
  0
CLASS
  1
ACDBPLACEHOLDER
  2
AcDbPlaceHolder
  3
ObjectDBX Classes
 90
        0
280
     0
281
     0
  0
CLASS
  1
LAYOUT
  2
AcDbLayout
  3
ObjectDBX Classes
 90
        0
280
     0
281
     0
  0
ENDSEC
  0
SECTION
  2
TABLES
  0
TABLE
  2
VPORT
  5
8
330
0
100
AcDbSymbolTable
 70
     1
  0
VPORT
  5
29
330
8
100
AcDbSymbolTableRecord
100
AcDbViewportTableRecord
  2
*Active
 70
     0
 10
0.0
 20
0.0
 11
1.0
 21
1.0
 12
148.5
 22
105.0
 13
0.0
 23
0.0
 14
10.0
 24
10.0
 15
10.0
 25
10.0
 16
0.0
 26
0.0
 36
1.0
 17
0.0
 27
0.0
 37
0.0
 40
210.0
 41
1.4142857143
 42
50.0
 43
0.0
 44
0.0
 50
0.0
 51
0.0
 71
     0
 72
  2000
 73
     1
 74
     3
 75
     0
 76
     0
 77
     0
 78
     0
281
     0
 65
     1
110
0.0
120
0.0
130
0.0
111
1.0
121
0.0
131
0.0
112
0.0
122
1.0
132
0.0
 79
     0
146
0.0
  0
ENDTAB
  0
TABLE
  2
LTYPE
  5
5
330
0
100
AcDbSymbolTable
 70
     8
  0
LTYPE
  5
14
330
5
100
AcDbSymbolTableRecord
100
AcDbLinetypeTableRecord
  2
ByBlock
 70
     0
  3

 72
    65
 73
     0
 40
0.0
  0
LTYPE
  5
15
330
5
100
AcDbSymbolTableRecord
100
AcDbLinetypeTableRecord
  2
ByLayer
 70
     0
  3

 72
    65
 73
     0
 40
0.0
  0
LTYPE
  5
16
330
5
100
AcDbSymbolTableRecord
100
AcDbLinetypeTableRecord
  2
Continuous
 70
     0
  3
Solid line
 72
    65
 73
     0
 40
0.0
  0
LTYPE
  5
6E
330
5
100
AcDbSymbolTableRecord
100
AcDbLinetypeTableRecord
  2
SLD-Solid
 70
     0
  3
SolidWorks Line Style
 72
    65
 73
     0
 40
0.0
  0
LTYPE
  5
6F
330
5
100
AcDbSymbolTableRecord
100
AcDbLinetypeTableRecord
  2
SLD-Dashed
 70
     0
  3
SolidWorks Line Style
 72
    65
 73
     2
 40
1.905
 49
1.27
 74
     0
 49
-0.635
 74
     0
  0
LTYPE
  5
70
330
5
100
AcDbSymbolTableRecord
100
AcDbLinetypeTableRecord
  2
SLD-Phantom
 70
     0
  3
SolidWorks Line Style
 72
    65
 73
     6
 40
12.7
 49
6.35
 74
     0
 49
-1.27
 74
     0
 49
1.27
 74
     0
 49
-1.27
 74
     0
 49
1.27
 74
     0
 49
-1.27
 74
     0
  0
LTYPE
  5
71
330
5
100
AcDbSymbolTableRecord
100
AcDbLinetypeTableRecord
  2
SLD-Chain
 70
     0
  3
SolidWorks Line Style
 72
    65
 73
     4
 40
10.16
 49
6.35
 74
     0
 49
-1.27
 74
     0
 49
1.27
 74
     0
 49
-1.27
 74
     0
  0
LTYPE
  5
72
330
5
100
AcDbSymbolTableRecord
100
AcDbLinetypeTableRecord
  2
SLD-Center
 70
     0
  3
SolidWorks Line Style
 72
    65
 73
     4
 40
19.05
 49
15.24
 74
     0
 49
-1.27
 74
     0
 49
1.27
 74
     0
 49
-1.27
 74
     0
  0
LTYPE
  5
73
330
5
100
AcDbSymbolTableRecord
100
AcDbLinetypeTableRecord
  2
SLD-Stitch
 70
     0
  3
SolidWorks Line Style
 72
    65
 73
     2
 40
0.635
 49
0.0
 74
     0
 49
-0.635
 74
     0
  0
LTYPE
  5
74
330
5
100
AcDbSymbolTableRecord
100
AcDbLinetypeTableRecord
  2
SLD-Thin-Thick-Chain
 70
     0
  3
SolidWorks Line Style
 72
    65
 73
     4
 40
10.16
 49
6.35
 74
     0
 49
-1.27
 74
     0
 49
1.27
 74
     0
 49
-1.27
 74
     0
  0
ENDTAB
  0
TABLE
  2
LAYER
  5
2
330
0
100
AcDbSymbolTable
 70
    12
  0
LAYER
  5
10
330
2
100
AcDbSymbolTableRecord
100
AcDbLayerTableRecord
  2
0
 70
     0
 62
     7
  6
Continuous
370
    -3
390
F
  0
LAYER
  5
75
330
2
100
AcDbSymbolTableRecord
100
AcDbLayerTableRecord
  2
SLD-0
 70
     0
 62
   179
  6
SLD-Solid
370
    -3
390
F
  0
LAYER
  5
76
330
2
100
AcDbSymbolTableRecord
100
AcDbLayerTableRecord
  2
80
 70
     0
 62
    -6
  6
SLD-Solid
290
     0
370
    -3
390
F
  0
LAYER
  5
77
330
2
100
AcDbSymbolTableRecord
100
AcDbLayerTableRecord
  2
81
 70
     0
 62
    -3
  6
SLD-Solid
290
     0
370
    -3
390
F
  0
LAYER
  5
78
330
2
100
AcDbSymbolTableRecord
100
AcDbLayerTableRecord
  2
1
 70
     0
 62
     4
  6
SLD-Solid
290
     0
370
    -3
390
F
  0
LAYER
  5
79
330
2
100
AcDbSymbolTableRecord
100
AcDbLayerTableRecord
  2
4
 70
     0
 62
    -2
  6
SLD-Chain
290
     0
370
    -3
390
F
  0
LAYER
  5
7A
330
2
100
AcDbSymbolTableRecord
100
AcDbLayerTableRecord
  2
2
 70
     0
 62
     7
  6
SLD-Solid
290
     0
370
    -3
390
F
  0
LAYER
  5
7B
330
2
100
AcDbSymbolTableRecord
100
AcDbLayerTableRecord
  2
SK3
 70
     0
 62
     1
  6
SLD-Dashed
290
     0
370
    -3
390
F
  0
LAYER
  5
7C
330
2
100
AcDbSymbolTableRecord
100
AcDbLayerTableRecord
  2
SK4
 70
     0
 62
     2
  6
SLD-Chain
290
     0
370
    -3
390
F
  0
LAYER
  5
7D
330
2
100
AcDbSymbolTableRecord
100
AcDbLayerTableRecord
  2
SK2
 70
     0
 62
     7
  6
SLD-Solid
290
     0
370
    -3
390
F
  0
LAYER
  5
7E
330
2
100
AcDbSymbolTableRecord
100
AcDbLayerTableRecord
  2
SK6
 70
     0
 62
     5
  6
SLD-Solid
290
     0
370
    -3
390
F
  0
LAYER
  5
7F
330
2
100
AcDbSymbolTableRecord
100
AcDbLayerTableRecord
  2
SK1
 70
     0
 62
     4
  6
SLD-Solid
370
    -3
390
F
  0
ENDTAB
  0
TABLE
  2
STYLE
  5
3
330
0
100
AcDbSymbolTable
 70
     2
  0
STYLE
  5
11
330
3
100
AcDbSymbolTableRecord
100
AcDbTextStyleTableRecord
  2
Standard
 70
     0
 40
0.0
 41
1.0
 50
0.0
 71
     0
 42
3.5
  3
txt
  4

  0
STYLE
  5
317
330
3
100
AcDbSymbolTableRecord
100
AcDbTextStyleTableRecord
  2
SLDTEXTSTYLE0
 70
     0
 40
0.0
 41
0.75
 50
0.0
 71
     0
 42
3.5
  3
TXT
  4

  0
ENDTAB
  0
TABLE
  2
VIEW
  5
6
330
0
100
AcDbSymbolTable
 70
     0
  0
ENDTAB
  0
TABLE
  2
UCS
  5
7
330
0
100
AcDbSymbolTable
 70
     0
  0
ENDTAB
  0
TABLE
  2
APPID
  5
9
330
0
100
AcDbSymbolTable
 70
     1
  0
APPID
  5
12
330
9
100
AcDbSymbolTableRecord
100
AcDbRegAppTableRecord
  2
ACAD
 70
     0
  0
ENDTAB
  0
TABLE
  2
DIMSTYLE
  5
A
330
0
100
AcDbSymbolTable
 70
     2
100
AcDbDimStyleTable
  0
DIMSTYLE
105
27
330
A
100
AcDbSymbolTableRecord
100
AcDbDimStyleTableRecord
  2
ISO-25
 70
     0
 41
2.5
 42
0.625
 43
3.75
 44
1.25
 73
     0
 74
     0
 77
     1
 78
     8
140
2.5
141
2.5
143
0.0393700787
147
0.625
171
     3
172
     1
178
     0
271
     2
272
     2
274
     3
278
    44
283
     0
284
     8
340
11
  0
DIMSTYLE
105
318
102
{ACAD_REACTORS
330
316
330
322
330
32C
330
336
330
340
330
34B
330
356
330
361
330
36C
102
}
330
A
100
AcDbSymbolTableRecord
100
AcDbDimStyleTableRecord
  2
SLDDIMSTYLE0
 70
     0
 41
3.302
 44
0.0
 45
0.000000001
 73
     0
 74
     0
 77
     1
 78
    12
 79
     3
140
3.5
147
0.875
173
     1
178
     0
271
     2
272
     2
276
     2
284
    12
340
317
  0
ENDTAB
  0
TABLE
  2
BLOCK_RECORD
  5
1
330
0
100
AcDbSymbolTable
 70
    13
  0
BLOCK_RECORD
  5
1F
330
1
100
AcDbSymbolTableRecord
100
AcDbBlockTableRecord
  2
*Model_Space
340
22
  0
BLOCK_RECORD
  5
1B
330
1
100
AcDbSymbolTableRecord
100
AcDbBlockTableRecord
  2
*Paper_Space
340
1E
  0
BLOCK_RECORD
  5
23
330
1
100
AcDbSymbolTableRecord
100
AcDbBlockTableRecord
  2
*Paper_Space0
340
26
  0
BLOCK_RECORD
  5
80
330
1
100
AcDbSymbolTableRecord
100
AcDbBlockTableRecord
  2
Block11
340
0
102
{BLKREFS
331
315
102
}
  0
BLOCK_RECORD
  5
89
330
1
100
AcDbSymbolTableRecord
100
AcDbBlockTableRecord
  2
Block12
340
0
102
{BLKREFS
331
314
102
}
  0
BLOCK_RECORD
  5
319
330
1
100
AcDbSymbolTableRecord
100
AcDbBlockTableRecord
  2
_D
340
0
  0
BLOCK_RECORD
  5
323
330
1
100
AcDbSymbolTableRecord
100
AcDbBlockTableRecord
  2
_D_1
340
0
  0
BLOCK_RECORD
  5
32D
330
1
100
AcDbSymbolTableRecord
100
AcDbBlockTableRecord
  2
_D_2
340
0
  0
BLOCK_RECORD
  5
337
330
1
100
AcDbSymbolTableRecord
100
AcDbBlockTableRecord
  2
_D_3
340
0
  0
BLOCK_RECORD
  5
341
330
1
100
AcDbSymbolTableRecord
100
AcDbBlockTableRecord
  2
_D_4
340
0
  0
BLOCK_RECORD
  5
34C
330
1
100
AcDbSymbolTableRecord
100
AcDbBlockTableRecord
  2
_D_5
340
0
  0
BLOCK_RECORD
  5
357
330
1
100
AcDbSymbolTableRecord
100
AcDbBlockTableRecord
  2
_D_6
340
0
  0
BLOCK_RECORD
  5
362
330
1
100
AcDbSymbolTableRecord
100
AcDbBlockTableRecord
  2
_D_7
340
0
  0
BLOCK_RECORD
  5
36D
330
1
100
AcDbSymbolTableRecord
100
AcDbBlockTableRecord
  2
_D_8
340
0
  0
BLOCK_RECORD
  5
378
330
1
100
AcDbSymbolTableRecord
100
AcDbBlockTableRecord
  2
SW_NOTE_0
340
0
102
{BLKREFS
331
37D
102
}
  0
ENDTAB
  0
ENDSEC
  0
SECTION
  2
BLOCKS
  0
BLOCK
  5
20
330
1F
100
AcDbEntity
  8
0
100
AcDbBlockBegin
  2
*Model_Space
 70
     0
 10
0.0
 20
0.0
 30
0.0
  3
*Model_Space
  1

  0
ENDBLK
  5
21
330
1F
100
AcDbEntity
  8
0
100
AcDbBlockEnd
  0
BLOCK
  5
1C
330
1B
100
AcDbEntity
 67
     1
  8
0
100
AcDbBlockBegin
  2
*Paper_Space
 70
     0
 10
0.0
 20
0.0
 30
0.0
  3
*Paper_Space
  1

  0
ENDBLK
  5
1D
330
1B
100
AcDbEntity
 67
     1
  8
0
100
AcDbBlockEnd
  0
BLOCK
  5
24
330
23
100
AcDbEntity
  8
0
100
AcDbBlockBegin
  2
*Paper_Space0
 70
     0
 10
0.0
 20
0.0
 30
0.0
  3
*Paper_Space0
  1

  0
ENDBLK
  5
25
330
23
100
AcDbEntity
  8
0
100
AcDbBlockEnd
  0
BLOCK
  5
81
330
80
100
AcDbEntity
  8
0
100
AcDbBlockBegin
  2
Block11
 70
     0
 10
0.0
 20
0.0
 30
0.0
  3
Block11
  1

  0
CIRCLE
  5
83
330
80
100
AcDbEntity
  8
81
370
    18
100
AcDbCircle
 10
91.6264826505
 20
130.2676275275
 30
0.0
 40
2.499999999999981
  0
LINE
  5
84
330
80
100
AcDbEntity
  8
81
370
    18
100
AcDbLine
 10
91.6264826505
 20
130.2676275275
 30
0.0
 11
95.1620165565
 21
133.8031614334
 31
0.0
  0
LINE
  5
85
330
80
100
AcDbEntity
  8
81
370
    18
100
AcDbLine
 10
91.6264826505
 20
130.2676275275
 30
0.0
 11
88.0909487446
 21
126.7320936216
 31
0.0
  0
LINE
  5
86
330
80
100
AcDbEntity
  8
81
370
    18
100
AcDbLine
 10
91.6264826505
 20
130.2676275275
 30
0.0
 11
88.0909487446
 21
133.8031614334
 31
0.0
  0
LINE
  5
87
330
80
100
AcDbEntity
  8
81
100
AcDbLine
 10
91.6264826505
 20
130.2676275275
 30
0.0
 11
101.6264826505
 21
130.2676275275
 31
0.0
  0
LINE
  5
88
330
80
100
AcDbEntity
  8
81
370
    18
100
AcDbLine
 10
91.6264826505
 20
130.2676275275
 30
0.0
 11
95.1620165565
 21
126.7320936216
 31
0.0
  0
ENDBLK
  5
82
330
80
100
AcDbEntity
  8
0
100
AcDbBlockEnd
  0
BLOCK
  5
8A
330
89
100
AcDbEntity
  8
0
100
AcDbBlockBegin
  2
Block12
 70
     0
 10
0.0
 20
0.0
 30
0.0
  3
Block12
  1

  0
CIRCLE
  5
8C
330
89
100
AcDbEntity
  8
80
370
    18
100
AcDbCircle
 10
61.7273641656
 20
130.3356800267
 30
0.0
 40
2.500000000000004
  0
LINE
  5
8D
330
89
100
AcDbEntity
  8
80
370
    18
100
AcDbLine
 10
61.7273641656
 20
130.3356800267
 30
0.0
 11
65.2628980715
 21
133.8712139326
 31
0.0
  0
LINE
  5
8E
330
89
100
AcDbEntity
  8
80
370
    18
100
AcDbLine
 10
61.7273641656
 20
130.3356800267
 30
0.0
 11
58.1918302597
 21
126.8001461208
 31
0.0
  0
LINE
  5
8F
330
89
100
AcDbEntity
  8
80
370
    18
100
AcDbLine
 10
61.7273641656
 20
130.3356800267
 30
0.0
 11
58.1918302597
 21
133.8712139326
 31
0.0
  0
LINE
  5
90
330
89
100
AcDbEntity
  8
80
370
    18
100
AcDbLine
 10
61.7273641656
 20
130.3356800267
 30
0.0
 11
51.7273641656
 21
130.3356800267
 31
0.0
  0
LINE
  5
91
330
89
100
AcDbEntity
  8
80
370
    18
100
AcDbLine
 10
61.7273641656
 20
130.3356800267
 30
0.0
 11
65.2628980715
 21
126.8001461208
 31
0.0
  0
ENDBLK
  5
8B
330
89
100
AcDbEntity
  8
0
100
AcDbBlockEnd
  0
BLOCK
  5
31A
330
319
100
AcDbEntity
  8
0
100
AcDbBlockBegin
  2
_D
 70
     0
 10
0.0
 20
0.0
 30
0.0
  3
_D
  1

  0
SOLID
  5
31C
330
319
100
AcDbEntity
  8
SK2
100
AcDbTrace
 10
0.0
 20
41.747518911
 30
0.0
 11
3.302
 21
41.239518911
 31
0.0
 12
3.302
 22
42.255518911
 32
0.0
 13
3.302
 23
42.255518911
 33
0.0
  0
SOLID
  5
31D
330
319
100
AcDbEntity
  8
SK2
100
AcDbTrace
 10
19.05
 20
41.747518911
 30
0.0
 11
15.748
 21
42.255518911
 31
0.0
 12
15.748
 22
41.239518911
 32
0.0
 13
15.748
 23
41.239518911
 33
0.0
  0
LINE
  5
31E
330
319
100
AcDbEntity
  8
SK2
100
AcDbLine
 10
0.0
 20
23.225
 30
0.0
 11
0.0
 21
42.747518911
 31
0.0
  0
LINE
  5
31F
330
319
100
AcDbEntity
  8
SK2
100
AcDbLine
 10
19.05
 20
30.8288189921
 30
0.0
 11
19.05
 21
42.747518911
 31
0.0
  0
LINE
  5
320
330
319
100
AcDbEntity
  8
SK2
100
AcDbLine
 10
0.0
 20
41.747518911
 30
0.0
 11
19.05
 21
41.747518911
 31
0.0
  0
MTEXT
  5
321
330
319
100
AcDbEntity
  8
SK2
100
AcDbMText
 10
3.2989849214
 20
46.2592558256
 30
0.0
 40
3.5
 41
0.0
 71
     1
 72
     1
  1
19,05
  7
SLDTEXTSTYLE0
 73
     1
 44
1.0
  0
ENDBLK
  5
31B
330
319
100
AcDbEntity
  8
0
100
AcDbBlockEnd
  0
BLOCK
  5
324
330
323
100
AcDbEntity
  8
0
100
AcDbBlockBegin
  2
_D_1
 70
     0
 10
0.0
 20
0.0
 30
0.0
  3
_D_1
  1

  0
SOLID
  5
326
330
323
100
AcDbEntity
  8
SK2
100
AcDbTrace
 10
19.05
 20
41.747518911
 30
0.0
 11
22.352
 21
41.239518911
 31
0.0
 12
22.352
 22
42.255518911
 32
0.0
 13
22.352
 23
42.255518911
 33
0.0
  0
SOLID
  5
327
330
323
100
AcDbEntity
  8
SK2
100
AcDbTrace
 10
100.0
 20
41.747518911
 30
0.0
 11
96.698
 21
42.255518911
 31
0.0
 12
96.698
 22
41.239518911
 32
0.0
 13
96.698
 23
41.239518911
 33
0.0
  0
LINE
  5
328
330
323
100
AcDbEntity
  8
SK2
100
AcDbLine
 10
19.05
 20
30.8288189921
 30
0.0
 11
19.05
 21
42.747518911
 31
0.0
  0
LINE
  5
329
330
323
100
AcDbEntity
  8
SK2
100
AcDbLine
 10
100.0
 20
30.0
 30
0.0
 11
100.0
 21
42.747518911
 31
0.0
  0
LINE
  5
32A
330
323
100
AcDbEntity
  8
SK2
100
AcDbLine
 10
19.05
 20
41.747518911
 30
0.0
 11
100.0
 21
41.747518911
 31
0.0
  0
MTEXT
  5
32B
330
323
100
AcDbEntity
  8
SK2
100
AcDbMText
 10
53.8861538039
 20
46.2592558256
 30
0.0
 40
3.5
 41
0.0
 71
     1
 72
     1
  1
80,95
  7
SLDTEXTSTYLE0
 73
     1
 44
1.0
  0
ENDBLK
  5
325
330
323
100
AcDbEntity
  8
0
100
AcDbBlockEnd
  0
BLOCK
  5
32E
330
32D
100
AcDbEntity
  8
0
100
AcDbBlockBegin
  2
_D_2
 70
     0
 10
0.0
 20
0.0
 30
0.0
  3
_D_2
  1

  0
SOLID
  5
330
330
32D
100
AcDbEntity
  8
SK2
100
AcDbTrace
 10
100.0
 20
41.7475189111
 30
0.0
 11
103.302
 21
41.2395189111
 31
0.0
 12
103.302
 22
42.2555189111
 32
0.0
 13
103.302
 23
42.2555189111
 33
0.0
  0
SOLID
  5
331
330
32D
100
AcDbEntity
  8
SK2
100
AcDbTrace
 10
121.0
 20
41.7475189111
 30
0.0
 11
117.698
 21
42.2555189111
 31
0.0
 12
117.698
 22
41.2395189111
 32
0.0
 13
117.698
 23
41.2395189111
 33
0.0
  0
LINE
  5
332
330
32D
100
AcDbEntity
  8
SK2
100
AcDbLine
 10
100.0
 20
30.0
 30
0.0
 11
100.0
 21
42.7475189111
 31
0.0
  0
LINE
  5
333
330
32D
100
AcDbEntity
  8
SK2
100
AcDbLine
 10
121.0
 20
13.9710190579
 30
0.0
 11
121.0
 21
42.7475189111
 31
0.0
  0
LINE
  5
334
330
32D
100
AcDbEntity
  8
SK2
100
AcDbLine
 10
100.0
 20
41.7475189111
 30
0.0
 11
121.0
 21
41.7475189111
 31
0.0
  0
MTEXT
  5
335
330
32D
100
AcDbEntity
  8
SK2
100
AcDbMText
 10
107.9743986967
 20
46.2592558256
 30
0.0
 40
3.5
 41
0.0
 71
     1
 72
     1
  1
21
  7
SLDTEXTSTYLE0
 73
     1
 44
1.0
  0
ENDBLK
  5
32F
330
32D
100
AcDbEntity
  8
0
100
AcDbBlockEnd
  0
BLOCK
  5
338
330
337
100
AcDbEntity
  8
0
100
AcDbBlockBegin
  2
_D_3
 70
     0
 10
0.0
 20
0.0
 30
0.0
  3
_D_3
  1

  0
SOLID
  5
33A
330
337
100
AcDbEntity
  8
2
100
AcDbTrace
 10
100.0
 20
52.1613765517
 30
0.0
 11
96.698
 21
52.6693765517
 31
0.0
 12
96.698
 22
51.6533765517
 32
0.0
 13
96.698
 23
51.6533765517
 33
0.0
  0
SOLID
  5
33B
330
337
100
AcDbEntity
  8
2
100
AcDbTrace
 10
0.0
 20
52.1613765517
 30
0.0
 11
3.302
 21
51.6533765517
 31
0.0
 12
3.302
 22
52.6693765517
 32
0.0
 13
3.302
 23
52.6693765517
 33
0.0
  0
LINE
  5
33C
330
337
100
AcDbEntity
  8
2
100
AcDbLine
 10
100.0
 20
30.0
 30
0.0
 11
100.0
 21
53.1613765517
 31
0.0
  0
LINE
  5
33D
330
337
100
AcDbEntity
  8
2
100
AcDbLine
 10
0.0
 20
23.225
 30
0.0
 11
0.0
 21
53.1613765517
 31
0.0
  0
LINE
  5
33E
330
337
100
AcDbEntity
  8
2
100
AcDbLine
 10
100.0
 20
52.1613765517
 30
0.0
 11
0.0
 21
52.1613765517
 31
0.0
  0
MTEXT
  5
33F
330
337
100
AcDbEntity
  8
2
100
AcDbMText
 10
42.5116088055
 20
56.6731134663
 30
0.0
 40
3.5
 41
0.0
 71
     1
 72
     1
  1
100
  7
SLDTEXTSTYLE0
 73
     1
 44
1.0
  0
ENDBLK
  5
339
330
337
100
AcDbEntity
  8
0
100
AcDbBlockEnd
  0
BLOCK
  5
342
330
341
100
AcDbEntity
  8
0
100
AcDbBlockBegin
  2
_D_4
 70
     0
 10
0.0
 20
0.0
 30
0.0
  3
_D_4
  1

  0
SOLID
  5
344
330
341
100
AcDbEntity
  8
SK2
100
AcDbTrace
 10
158.7080638978
 20
30.0
 30
0.0
 11
158.2000638978
 21
26.698
 31
0.0
 12
159.2160638978
 22
26.698
 32
0.0
 13
159.2160638978
 23
26.698
 33
0.0
  0
SOLID
  5
345
330
341
100
AcDbEntity
  8
SK2
100
AcDbTrace
 10
158.7080638978
 20
-30.0
 30
0.0
 11
159.2160638978
 21
-26.698
 31
0.0
 12
158.2000638978
 22
-26.698
 32
0.0
 13
158.2000638978
 23
-26.698
 33
0.0
  0
LINE
  5
346
330
341
100
AcDbEntity
  8
SK2
100
AcDbLine
 10
100.0
 20
30.0
 30
0.0
 11
159.7080638978
 21
30.0
 31
0.0
  0
LINE
  5
347
330
341
100
AcDbEntity
  8
SK2
100
AcDbLine
 10
100.0
 20
-30.0
 30
0.0
 11
159.7080638978
 21
-30.0
 31
0.0
  0
LINE
  5
348
330
341
100
AcDbEntity
  8
SK2
100
AcDbLine
 10
158.7080638978
 20
30.0
 30
0.0
 11
158.7080638978
 21
-30.0
 31
0.0
  0
MTEXT
  5
349
330
341
100
AcDbEntity
  8
SK2
100
AcDbMText
 10
154.1963268086
 20
-5.6282727266
 30
0.0
 40
3.5
 41
0.0
 71
     1
 72
     1
  1
%%c
  7
SLDTEXTSTYLE0
 11
-1.237326553584439E-14
 21
1.0
 31
0.0
 73
     1
 44
1.0
  0
MTEXT
  5
34A
330
341
100
AcDbEntity
  8
SK2
100
AcDbMText
 10
154.142854632
 20
-0.3498353283
 30
0.0
 40
3.5
 41
0.0
 71
     1
 72
     1
  1
60
  7
SLDTEXTSTYLE0
 11
-1.237326553584439E-14
 21
1.0
 31
0.0
 73
     1
 44
1.0
  0
ENDBLK
  5
343
330
341
100
AcDbEntity
  8
0
100
AcDbBlockEnd
  0
BLOCK
  5
34D
330
34C
100
AcDbEntity
  8
0
100
AcDbBlockBegin
  2
_D_5
 70
     0
 10
0.0
 20
0.0
 30
0.0
  3
_D_5
  1

  0
SOLID
  5
34F
330
34C
100
AcDbEntity
  8
SK2
100
AcDbTrace
 10
147.1719465017
 20
13.5
 30
0.0
 11
146.6639465017
 21
10.198
 31
0.0
 12
147.6799465017
 22
10.198
 32
0.0
 13
147.6799465017
 23
10.198
 33
0.0
  0
SOLID
  5
350
330
34C
100
AcDbEntity
  8
SK2
100
AcDbTrace
 10
147.1719465017
 20
-13.5
 30
0.0
 11
147.6799465017
 21
-10.198
 31
0.0
 12
146.6639465017
 22
-10.198
 32
0.0
 13
146.6639465017
 23
-10.198
 33
0.0
  0
LINE
  5
351
330
34C
100
AcDbEntity
  8
SK2
100
AcDbLine
 10
119.0
 20
13.5
 30
0.0
 11
148.1719465017
 21
13.5
 31
0.0
  0
LINE
  5
352
330
34C
100
AcDbEntity
  8
SK2
100
AcDbLine
 10
119.0
 20
-13.5
 30
0.0
 11
148.1719465017
 21
-13.5
 31
0.0
  0
LINE
  5
353
330
34C
100
AcDbEntity
  8
SK2
100
AcDbLine
 10
147.1719465017
 20
13.5
 30
0.0
 11
147.1719465017
 21
-13.5
 31
0.0
  0
MTEXT
  5
354
330
34C
100
AcDbEntity
  8
SK2
100
AcDbMText
 10
142.6602094125
 20
-5.6282727266
 30
0.0
 40
3.5
 41
0.0
 71
     1
 72
     1
  1
%%c
  7
SLDTEXTSTYLE0
 11
-7.044195017643634E-15
 21
1.0
 31
0.0
 73
     1
 44
1.0
  0
MTEXT
  5
355
330
34C
100
AcDbEntity
  8
SK2
100
AcDbMText
 10
142.6067372359
 20
-0.3498353283
 30
0.0
 40
3.5
 41
0.0
 71
     1
 72
     1
  1
27
  7
SLDTEXTSTYLE0
 11
-7.044195017643634E-15
 21
1.0
 31
0.0
 73
     1
 44
1.0
  0
ENDBLK
  5
34E
330
34C
100
AcDbEntity
  8
0
100
AcDbBlockEnd
  0
BLOCK
  5
358
330
357
100
AcDbEntity
  8
0
100
AcDbBlockBegin
  2
_D_6
 70
     0
 10
0.0
 20
0.0
 30
0.0
  3
_D_6
  1

  0
SOLID
  5
35A
330
357
100
AcDbEntity
  8
SK2
100
AcDbTrace
 10
-96.8716267048
 20
30.5753609371
 30
0.0
 11
-97.3796267048
 21
27.2733609371
 31
0.0
 12
-96.3636267048
 22
27.2733609371
 32
0.0
 13
-96.3636267048
 23
27.2733609371
 33
0.0
  0
SOLID
  5
35B
330
357
100
AcDbEntity
  8
SK2
100
AcDbTrace
 10
-96.8716267048
 20
-30.5579089831
 30
0.0
 11
-96.3636267048
 21
-27.2559089831
 31
0.0
 12
-97.3796267048
 22
-27.2559089831
 32
0.0
 13
-97.3796267048
 23
-27.2559089831
 33
0.0
  0
LINE
  5
35C
330
357
100
AcDbEntity
  8
SK2
100
AcDbLine
 10
2.95
 20
30.5753609371
 30
0.0
 11
-97.8716267048
 21
30.5753609371
 31
0.0
  0
LINE
  5
35D
330
357
100
AcDbEntity
  8
SK2
100
AcDbLine
 10
2.95
 20
-30.5579089831
 30
0.0
 11
-97.8716267048
 21
-30.5579089831
 31
0.0
  0
LINE
  5
35E
330
357
100
AcDbEntity
  8
SK2
100
AcDbLine
 10
-96.8716267048
 20
30.5753609371
 30
0.0
 11
-96.8716267048
 21
-30.5579089831
 31
0.0
  0
MTEXT
  5
35F
330
357
100
AcDbEntity
  8
SK2
100
AcDbMText
 10
-101.383363794
 20
-8.3002266692
 30
0.0
 40
3.5
 41
0.0
 71
     1
 72
     1
  1
%%c
  7
SLDTEXTSTYLE0
 11
-7.044195017643634E-15
 21
1.0
 31
0.0
 73
     1
 44
1.0
  0
MTEXT
  5
360
330
357
100
AcDbEntity
  8
SK2
100
AcDbMText
 10
-101.4368359707
 20
-3.0217892709
 30
0.0
 40
3.5
 41
0.0
 71
     1
 72
     1
  1
63,5
  7
SLDTEXTSTYLE0
 11
-7.044195017643634E-15
 21
1.0
 31
0.0
 73
     1
 44
1.0
  0
ENDBLK
  5
359
330
357
100
AcDbEntity
  8
0
100
AcDbBlockEnd
  0
BLOCK
  5
363
330
362
100
AcDbEntity
  8
0
100
AcDbBlockBegin
  2
_D_7
 70
     0
 10
0.0
 20
0.0
 30
0.0
  3
_D_7
  1

  0
SOLID
  5
365
330
362
100
AcDbEntity
  8
SK2
100
AcDbTrace
 10
-85.2088497494
 20
-22.225
 30
0.0
 11
-84.7008497494
 21
-18.923
 31
0.0
 12
-85.7168497494
 22
-18.923
 32
0.0
 13
-85.7168497494
 23
-18.923
 33
0.0
  0
SOLID
  5
366
330
362
100
AcDbEntity
  8
SK2
100
AcDbTrace
 10
-85.2088497494
 20
22.225
 30
0.0
 11
-85.7168497494
 21
18.923
 31
0.0
 12
-84.7008497494
 22
18.923
 32
0.0
 13
-84.7008497494
 23
18.923
 33
0.0
  0
LINE
  5
367
330
362
100
AcDbEntity
  8
SK2
100
AcDbLine
 10
-1.0
 20
-22.225
 30
0.0
 11
-86.2088497494
 21
-22.225
 31
0.0
  0
LINE
  5
368
330
362
100
AcDbEntity
  8
SK2
100
AcDbLine
 10
-1.0
 20
22.225
 30
0.0
 11
-86.2088497494
 21
22.225
 31
0.0
  0
LINE
  5
369
330
362
100
AcDbEntity
  8
SK2
100
AcDbLine
 10
-85.2088497494
 20
-22.225
 30
0.0
 11
-85.2088497494
 21
22.225
 31
0.0
  0
MTEXT
  5
36A
330
362
100
AcDbEntity
  8
SK2
100
AcDbMText
 10
-89.7205868386
 20
-9.5932819168
 30
0.0
 40
3.5
 41
0.0
 71
     1
 72
     1
  1
%%c
  7
SLDTEXTSTYLE0
 11
-5.489882783168415E-15
 21
1.0
 31
0.0
 73
     1
 44
1.0
  0
MTEXT
  5
36B
330
362
100
AcDbEntity
  8
SK2
100
AcDbMText
 10
-89.7740590153
 20
-4.3148445184
 30
0.0
 40
3.5
 41
0.0
 71
     1
 72
     1
  1
44,45
  7
SLDTEXTSTYLE0
 11
-5.489882783168415E-15
 21
1.0
 31
0.0
 73
     1
 44
1.0
  0
ENDBLK
  5
364
330
362
100
AcDbEntity
  8
0
100
AcDbBlockEnd
  0
BLOCK
  5
36E
330
36D
100
AcDbEntity
  8
0
100
AcDbBlockBegin
  2
_D_8
 70
     0
 10
0.0
 20
0.0
 30
0.0
  3
_D_8
  1

  0
SOLID
  5
370
330
36D
100
AcDbEntity
  8
SK2
100
AcDbTrace
 10
-75.0459173765
 20
-8.0
 30
0.0
 11
-74.5379173765
 21
-4.698
 31
0.0
 12
-75.5539173765
 22
-4.698
 32
0.0
 13
-75.5539173765
 23
-4.698
 33
0.0
  0
SOLID
  5
371
330
36D
100
AcDbEntity
  8
SK2
100
AcDbTrace
 10
-75.0459173765
 20
8.0
 30
0.0
 11
-75.5539173765
 21
4.698
 31
0.0
 12
-74.5379173765
 22
4.698
 32
0.0
 13
-74.5379173765
 23
4.698
 33
0.0
  0
LINE
  5
372
330
36D
100
AcDbEntity
  8
SK2
100
AcDbLine
 10
-60.2881197846
 20
-8.0
 30
0.0
 11
-76.0459173765
 21
-8.0
 31
0.0
  0
LINE
  5
373
330
36D
100
AcDbEntity
  8
SK2
100
AcDbLine
 10
-60.2881197846
 20
8.0
 30
0.0
 11
-76.0459173765
 21
8.0
 31
0.0
  0
LINE
  5
374
330
36D
100
AcDbEntity
  8
SK2
100
AcDbLine
 10
-75.0459173765
 20
-8.0
 30
0.0
 11
-75.0459173765
 21
8.0
 31
0.0
  0
MTEXT
  5
375
330
36D
100
AcDbEntity
  8
SK2
100
AcDbMText
 10
-79.5576542911
 20
-4.5224953506
 30
0.0
 40
3.5
 41
0.0
 71
     1
 72
     1
  1
M
  7
SLDTEXTSTYLE0
 11
-7.044195017643634E-15
 21
1.0
 31
0.0
 73
     1
 44
1.0
  0
MTEXT
  5
376
330
36D
100
AcDbEntity
  8
SK2
100
AcDbMText
 10
-79.5576542911
 20
-0.2349954162
 30
0.0
 40
3.5
 41
0.0
 71
     1
 72
     1
  1
16
  7
SLDTEXTSTYLE0
 11
-7.044195017643634E-15
 21
1.0
 31
0.0
 73
     1
 44
1.0
  0
ENDBLK
  5
36F
330
36D
100
AcDbEntity
  8
0
100
AcDbBlockEnd
  0
BLOCK
  5
379
330
378
100
AcDbEntity
  8
0
100
AcDbBlockBegin
  2
SW_NOTE_0
 70
     0
 10
0.0
 20
0.0
 30
0.0
  3
SW_NOTE_0
  1

  0
MTEXT
  5
37B
330
378
100
AcDbEntity
  8
SK6
 62
     0
100
AcDbMText
 10
0.0
 20
4.5117370892
 30
0.0
 40
3.5
 41
0.0
 71
     1
 72
     1
  1
TAPER ISO 40
  7
SLDTEXTSTYLE0
 73
     1
 44
1.0
  0
MTEXT
  5
37C
330
378
100
AcDbEntity
  8
SK6
 62
     0
100
AcDbMText
 10
0.0
 20
-0.0139574413
 30
0.0
 40
3.5
 41
0.0
 71
     1
 72
     1
  1
DIN 69871-AD/B
  7
SLDTEXTSTYLE0
 73
     1
 44
1.0
  0
ENDBLK
  5
37A
330
378
100
AcDbEntity
  8
0
100
AcDbBlockEnd
  0
ENDSEC
  0
SECTION
  2
ENTITIES
  0
LINE
  5
92
330
1F
100
AcDbEntity
  8
SK1
  6
SLD-Solid
370
    25
100
AcDbLine
 10
129.4052655701
 20
-8.0
 30
0.0
 11
136.1052655701
 21
-8.0
 31
0.0
  0
LINE
  5
93
330
1F
100
AcDbEntity
  8
SK1
  6
SLD-Solid
370
    25
100
AcDbLine
 10
136.1052655701
 20
8.0
 30
0.0
 11
129.4052655701
 21
8.0
 31
0.0
  0
LINE
  5
94
330
1F
100
AcDbEntity
  8
SK1
  6
SLD-Solid
370
    25
100
AcDbLine
 10
136.1052655701
 20
-8.0
 30
0.0
 11
137.1052655701
 21
-7.0
 31
0.0
  0
LINE
  5
95
330
1F
100
AcDbEntity
  8
SK1
  6
SLD-Solid
370
    25
100
AcDbLine
 10
137.1052655701
 20
7.0
 30
0.0
 11
136.1052655701
 21
8.0
 31
0.0
  0
LINE
  5
96
330
1F
100
AcDbEntity
  8
SK1
  6
SLD-Solid
370
    25
100
AcDbLine
 10
121.0
 20
-5.22
 30
0.0
 11
124.1052655701
 21
-5.22
 31
0.0
  0
LINE
  5
97
330
1F
100
AcDbEntity
  8
SK1
  6
SLD-Solid
370
    25
100
AcDbLine
 10
124.1052655701
 20
5.22
 30
0.0
 11
121.0
 21
5.22
 31
0.0
  0
LINE
  5
98
330
1F
100
AcDbEntity
  8
SK1
  6
SLD-Solid
370
    25
100
AcDbLine
 10
128.1052655701
 20
-17.0
 30
0.0
 11
129.1052655701
 21
-16.0
 31
0.0
  0
LINE
  5
99
330
1F
100
AcDbEntity
  8
SK1
  6
SLD-Solid
370
    25
100
AcDbLine
 10
129.1052655701
 20
16.0
 30
0.0
 11
128.1052655701
 21
17.0
 31
0.0
  0
LINE
  5
9A
330
1F
100
AcDbEntity
  8
SK1
  6
SLD-Solid
370
    25
100
AcDbLine
 10
124.4052655701
 20
-17.0
 30
0.0
 11
128.1052655701
 21
-17.0
 31
0.0
  0
LINE
  5
9B
330
1F
100
AcDbEntity
  8
SK1
  6
SLD-Solid
370
    25
100
AcDbLine
 10
128.1052655701
 20
17.0
 30
0.0
 11
124.4052655701
 21
17.0
 31
0.0
  0
LINE
  5
9C
330
1F
100
AcDbEntity
  8
SK1
  6
SLD-Solid
370
    25
100
AcDbLine
 10
124.4052655701
 20
17.0
 30
0.0
 11
124.1052655701
 21
16.7
 31
0.0
  0
LINE
  5
9D
330
1F
100
AcDbEntity
  8
SK1
  6
SLD-Solid
370
    25
100
AcDbLine
 10
124.1052655701
 20
-16.7
 30
0.0
 11
124.4052655701
 21
-17.0
 31
0.0
  0
LINE
  5
9E
330
1F
100
AcDbEntity
  8
1
  6
SLD-Solid
370
    25
100
AcDbLine
 10
99.0
 20
30.0
 30
0.0
 11
36.05
 21
30.0
 31
0.0
  0
LINE
  5
9F
330
1F
100
AcDbEntity
  8
1
  6
SLD-Solid
370
    25
100
AcDbLine
 10
36.05
 20
-30.0
 30
0.0
 11
99.0
 21
-30.0
 31
0.0
  0
LINE
  5
A0
330
1F
100
AcDbEntity
  8
1
  6
SLD-Solid
370
    25
100
AcDbLine
 10
34.05
 20
24.0
 30
0.0
 11
28.1875873845
 21
24.0
 31
0.0
  0
LINE
  5
A1
330
1F
100
AcDbEntity
  8
1
  6
SLD-Solid
370
    25
100
AcDbLine
 10
20.05
 20
-24.0
 30
0.0
 11
34.05
 21
-24.0
 31
0.0
  0
LINE
  5
A2
330
1F
100
AcDbEntity
  8
SK1
  6
SLD-Solid
370
    25
100
AcDbLine
 10
0.0
 20
22.225
 30
0.0
 11
-67.3943082273
 21
12.3965705826
 31
0.0
  0
LINE
  5
A3
330
1F
100
AcDbEntity
  8
SK1
  6
SLD-Solid
370
    25
100
AcDbLine
 10
-67.3943082273
 20
-12.3965705827
 30
0.0
 11
0.0
 21
-22.225
 31
0.0
  0
LINE
  5
A4
330
1F
100
AcDbEntity
  8
1
  6
SLD-Solid
370
    25
100
AcDbLine
 10
1.8869952227
 20
22.225
 30
0.0
 11
0.0
 21
22.225
 31
0.0
  0
LINE
  5
A5
330
1F
100
AcDbEntity
  8
1
  6
SLD-Solid
370
    25
100
AcDbLine
 10
0.0
 20
-22.225
 30
0.0
 11
1.8869952227
 21
-22.225
 31
0.0
  0
LINE
  5
A6
330
1F
100
AcDbEntity
  8
1
  6
SLD-Solid
370
    25
100
AcDbLine
 10
1.8869952227
 20
-22.225
 30
0.0
 11
2.1330363037
 21
-22.1102691597
 31
0.0
  0
LINE
  5
A7
330
1F
100
AcDbEntity
  8
1
  6
SLD-Solid
370
    25
100
AcDbLine
 10
2.1330363037
 20
22.1102691597
 30
0.0
 11
1.8869952227
 21
22.225
 31
0.0
  0
LINE
  5
A8
330
1F
100
AcDbEntity
  8
SK1
  6
SLD-Solid
370
    25
100
AcDbLine
 10
101.2705031451
 20
13.5
 30
0.0
 11
100.6870454874
 21
13.2933868071
 31
0.0
  0
LINE
  5
A9
330
1F
100
AcDbEntity
  8
SK1
  6
SLD-Solid
370
    25
100
AcDbLine
 10
100.6870454874
 20
-13.2933868071
 30
0.0
 11
101.2705031451
 21
-13.5
 31
0.0
  0
LINE
  5
AA
330
1F
100
AcDbEntity
  8
SK1
  6
SLD-Solid
370
    25
100
AcDbLine
 10
118.0
 20
13.5
 30
0.0
 11
101.2705031451
 21
13.5
 31
0.0
  0
LINE
  5
AB
330
1F
100
AcDbEntity
  8
SK1
  6
SLD-Solid
370
    25
100
AcDbLine
 10
101.2705031451
 20
-13.5
 30
0.0
 11
118.0
 21
-13.5
 31
0.0
  0
LINE
  5
AC
330
1F
100
AcDbEntity
  8
SK1
  6
SLD-Solid
370
    25
100
AcDbLine
 10
118.0
 20
-13.5
 30
0.0
 11
121.0
 21
-12.9710190579
 31
0.0
  0
LINE
  5
AD
330
1F
100
AcDbEntity
  8
SK1
  6
SLD-Solid
370
    25
100
AcDbLine
 10
121.0
 20
12.9710190579
 30
0.0
 11
118.0
 21
13.5
 31
0.0
  0
LINE
  5
AE
330
1F
100
AcDbEntity
  8
1
  6
SLD-Solid
370
    25
100
AcDbLine
 10
19.05
 20
-24.60301957
 30
0.0
 11
19.1655624567
 21
-24.533333048
 31
0.0
  0
LINE
  5
AF
330
1F
100
AcDbEntity
  8
SK1
  6
SLD-Solid
370
    25
100
AcDbLine
 10
136.1052655701
 20
-8.0
 30
0.0
 11
136.1052655701
 21
8.0
 31
0.0
  0
LINE
  5
B0
330
1F
100
AcDbEntity
  8
SK1
  6
SLD-Solid
370
    25
100
AcDbLine
 10
137.1052655701
 20
7.0
 30
0.0
 11
137.1052655701
 21
-7.0
 31
0.0
  0
LINE
  5
B1
330
1F
100
AcDbEntity
  8
SK1
  6
SLD-Solid
370
    25
100
AcDbLine
 10
129.1052655701
 20
-16.0
 30
0.0
 11
129.1052655701
 21
16.0
 31
0.0
  0
LINE
  5
B2
330
1F
100
AcDbEntity
  8
SK1
  6
SLD-Solid
370
    25
100
AcDbLine
 10
128.1052655701
 20
-17.0
 30
0.0
 11
128.1052655701
 21
17.0
 31
0.0
  0
LINE
  5
B3
330
1F
100
AcDbEntity
  8
SK1
  6
SLD-Solid
370
    25
100
AcDbLine
 10
124.4052655701
 20
-15.7118180765
 30
0.0
 11
124.4052655701
 21
-17.0
 31
0.0
  0
LINE
  5
B4
330
1F
100
AcDbEntity
  8
SK1
  6
SLD-Solid
370
    25
100
AcDbLine
 10
124.4052655701
 20
17.0
 30
0.0
 11
124.4052655701
 21
-15.7118180765
 31
0.0
  0
LINE
  5
B5
330
1F
100
AcDbEntity
  8
SK1
  6
SLD-Solid
370
    25
100
AcDbLine
 10
124.1052655701
 20
-15.4345506987
 30
0.0
 11
124.1052655701
 21
16.7
 31
0.0
  0
LINE
  5
B6
330
1F
100
AcDbEntity
  8
SK1
  6
SLD-Solid
370
    25
100
AcDbLine
 10
124.1052655701
 20
-16.7
 30
0.0
 11
124.1052655701
 21
-15.4345506987
 31
0.0
  0
LINE
  5
B7
330
1F
100
AcDbEntity
  8
SK1
  6
SLD-Solid
370
    25
100
AcDbLine
 10
100.0
 20
-26.312968944
 30
0.0
 11
105.1452994616
 21
-26.312968944
 31
0.0
  0
LINE
  5
B8
330
1F
100
AcDbEntity
  8
SK1
  6
SLD-Solid
370
    25
100
AcDbLine
 10
100.0
 20
-21.6146505105
 30
0.0
 11
100.0296155741
 21
-21.6146505105
 31
0.0
  0
LINE
  5
B9
330
1F
100
AcDbEntity
  8
SK1
  6
SLD-Solid
370
    25
100
AcDbLine
 10
100.0296155741
 20
-20.3853494895
 30
0.0
 11
100.0
 21
-20.3853494895
 31
0.0
  0
LINE
  5
BA
330
1F
100
AcDbEntity
  8
SK1
  6
SLD-Solid
370
    25
100
AcDbLine
 10
105.1452994616
 20
-15.687031056
 30
0.0
 11
100.0
 21
-15.687031056
 31
0.0
  0
LINE
  5
BB
330
1F
100
AcDbEntity
  8
SK1
  6
SLD-Solid
370
    25
100
AcDbLine
 10
106.3
 20
-20.5228847099
 30
0.0
 11
106.3
 21
-21.4771152901
 31
0.0
  0
LINE
  5
BC
330
1F
100
AcDbEntity
  8
SK1
  6
SLD-Solid
370
    25
100
AcDbLine
 10
106.3
 20
-15.019
 30
0.0
 11
106.3
 21
-20.5228847099
 31
0.0
  0
LINE
  5
BD
330
1F
100
AcDbEntity
  8
SK1
  6
SLD-Solid
370
    25
100
AcDbLine
 10
105.1452994616
 20
-15.019
 30
0.0
 11
105.1452994616
 21
-15.687031056
 31
0.0
  0
LINE
  5
BE
330
1F
100
AcDbEntity
  8
SK1
  6
SLD-Solid
370
    25
100
AcDbLine
 10
105.1452994616
 20
-26.312968944
 30
0.0
 11
105.1452994616
 21
-26.981
 31
0.0
  0
LINE
  5
BF
330
1F
100
AcDbEntity
  8
SK1
  6
SLD-Solid
370
    25
100
AcDbLine
 10
106.3
 20
-21.4771152901
 30
0.0
 11
106.3
 21
-26.981
 31
0.0
  0
LINE
  5
C0
330
1F
100
AcDbEntity
  8
SK1
  6
SLD-Solid
370
    25
100
AcDbLine
 10
105.1452994616
 20
-26.981
 30
0.0
 11
100.0
 21
-26.981
 31
0.0
  0
LINE
  5
C1
330
1F
100
AcDbEntity
  8
SK1
  6
SLD-Solid
370
    25
100
AcDbLine
 10
100.0
 20
-15.019
 30
0.0
 11
105.1452994616
 21
-15.019
 31
0.0
  0
LINE
  5
C2
330
1F
100
AcDbEntity
  8
SK1
  6
SLD-Solid
370
    25
100
AcDbLine
 10
105.1452994616
 20
15.687031056
 30
0.0
 11
105.1452994616
 21
15.019
 31
0.0
  0
LINE
  5
C3
330
1F
100
AcDbEntity
  8
SK1
  6
SLD-Solid
370
    25
100
AcDbLine
 10
106.3
 20
20.5228847099
 30
0.0
 11
106.3
 21
15.019
 31
0.0
  0
LINE
  5
C4
330
1F
100
AcDbEntity
  8
SK1
  6
SLD-Solid
370
    25
100
AcDbLine
 10
100.0
 20
15.687031056
 30
0.0
 11
105.1452994616
 21
15.687031056
 31
0.0
  0
LINE
  5
C5
330
1F
100
AcDbEntity
  8
SK1
  6
SLD-Solid
370
    25
100
AcDbLine
 10
100.0
 20
20.3853494895
 30
0.0
 11
100.0296155741
 21
20.3853494895
 31
0.0
  0
LINE
  5
C6
330
1F
100
AcDbEntity
  8
SK1
  6
SLD-Solid
370
    25
100
AcDbLine
 10
100.0296155741
 20
21.6146505105
 30
0.0
 11
100.0
 21
21.6146505105
 31
0.0
  0
LINE
  5
C7
330
1F
100
AcDbEntity
  8
SK1
  6
SLD-Solid
370
    25
100
AcDbLine
 10
105.1452994616
 20
26.312968944
 30
0.0
 11
100.0
 21
26.312968944
 31
0.0
  0
LINE
  5
C8
330
1F
100
AcDbEntity
  8
SK1
  6
SLD-Solid
370
    25
100
AcDbLine
 10
106.3
 20
21.4771152901
 30
0.0
 11
106.3
 21
20.5228847099
 31
0.0
  0
LINE
  5
C9
330
1F
100
AcDbEntity
  8
SK1
  6
SLD-Solid
370
    25
100
AcDbLine
 10
106.3
 20
26.981
 30
0.0
 11
106.3
 21
21.4771152901
 31
0.0
  0
LINE
  5
CA
330
1F
100
AcDbEntity
  8
SK1
  6
SLD-Solid
370
    25
100
AcDbLine
 10
105.1452994616
 20
26.981
 30
0.0
 11
105.1452994616
 21
26.312968944
 31
0.0
  0
LINE
  5
CB
330
1F
100
AcDbEntity
  8
SK1
  6
SLD-Solid
370
    25
100
AcDbLine
 10
105.1452994616
 20
15.019
 30
0.0
 11
100.0
 21
15.019
 31
0.0
  0
LINE
  5
CC
330
1F
100
AcDbEntity
  8
SK1
  6
SLD-Solid
370
    25
100
AcDbLine
 10
100.0
 20
26.981
 30
0.0
 11
105.1452994616
 21
26.981
 31
0.0
  0
LINE
  5
CD
330
1F
100
AcDbEntity
  8
1
  6
SLD-Solid
370
    25
100
AcDbLine
 10
3.95
 20
-30.5579089831
 30
0.0
 11
7.5931633579
 21
-30.5579089831
 31
0.0
  0
LINE
  5
CE
330
1F
100
AcDbEntity
  8
1
  6
SLD-Solid
370
    25
100
AcDbLine
 10
7.5931633579
 20
30.5753609371
 30
0.0
 11
3.95
 21
30.5753609371
 31
0.0
  0
LINE
  5
CF
330
1F
100
AcDbEntity
  8
1
  6
SLD-Solid
370
    25
100
AcDbLine
 10
7.5931633579
 20
30.5753609371
 30
0.0
 11
7.5931633579
 21
-30.5579089831
 31
0.0
  0
LINE
  5
D0
330
1F
100
AcDbEntity
  8
1
  6
SLD-Solid
370
    25
100
AcDbLine
 10
3.2
 20
29.8288211426
 30
0.0
 11
3.2
 21
-29.804866641
 31
0.0
  0
LINE
  5
D1
330
1F
100
AcDbEntity
  8
1
  6
SLD-Solid
370
    25
100
AcDbLine
 10
18.3
 20
30.5753585477
 30
0.0
 11
14.6368366421
 21
30.5753585477
 31
0.0
  0
LINE
  5
D2
330
1F
100
AcDbEntity
  8
1
  6
SLD-Solid
370
    25
100
AcDbLine
 10
14.6368366421
 20
-30.5578859972
 30
0.0
 11
18.3
 21
-30.5578859972
 31
0.0
  0
LINE
  5
D3
330
1F
100
AcDbEntity
  8
1
  6
SLD-Solid
370
    25
100
AcDbLine
 10
14.6368366421
 20
30.5753585477
 30
0.0
 11
14.6368366421
 21
-30.5578859972
 31
0.0
  0
LINE
  5
D4
330
1F
100
AcDbEntity
  8
1
  6
SLD-Solid
370
    25
100
AcDbLine
 10
19.05
 20
29.8288189921
 30
0.0
 11
19.05
 21
-29.8048528797
 31
0.0
  0
LINE
  5
D5
330
1F
100
AcDbEntity
  8
1
  6
SLD-Solid
370
    25
100
AcDbLine
 10
13.03
 20
27.8127840266
 30
0.0
 11
13.03
 21
14.4271385169
 31
0.0
  0
LINE
  5
D6
330
1F
100
AcDbEntity
  8
1
  6
SLD-Solid
370
    25
100
AcDbLine
 10
13.03
 20
-10.4473679721
 30
0.0
 11
13.03
 21
-27.8127840266
 31
0.0
  0
LINE
  5
D7
330
1F
100
AcDbEntity
  8
1
  6
SLD-Solid
370
    25
100
AcDbLine
 10
13.03
 20
2.0013803193
 30
0.0
 11
13.03
 21
-9.3632135186
 31
0.0
  0
LINE
  5
D8
330
1F
100
AcDbEntity
  8
1
  6
SLD-Solid
370
    25
100
AcDbLine
 10
13.03
 20
13.358298959
 30
0.0
 11
13.03
 21
3.2145852486
 31
0.0
  0
LINE
  5
D9
330
1F
100
AcDbEntity
  8
1
  6
SLD-Solid
370
    25
100
AcDbLine
 10
9.2
 20
-10.4473679721
 30
0.0
 11
9.2
 21
-27.8127840266
 31
0.0
  0
LINE
  5
DA
330
1F
100
AcDbEntity
  8
1
  6
SLD-Solid
370
    25
100
AcDbLine
 10
9.2
 20
27.8127840266
 30
0.0
 11
9.2
 21
14.3694120127
 31
0.0
  0
LINE
  5
DB
330
1F
100
AcDbEntity
  8
1
  6
SLD-Solid
370
    25
100
AcDbLine
 10
9.2
 20
13.417294268
 30
0.0
 11
9.2
 21
3.1484607785
 31
0.0
  0
LINE
  5
DC
330
1F
100
AcDbEntity
  8
1
  6
SLD-Solid
370
    25
100
AcDbLine
 10
9.2
 20
2.0677429732
 30
0.0
 11
9.2
 21
-9.3632135186
 31
0.0
  0
LINE
  5
DD
330
1F
100
AcDbEntity
  8
1
  6
SLD-Solid
370
    25
100
AcDbLine
 10
100.0
 20
29.0
 30
0.0
 11
100.0
 21
-29.0
 31
0.0
  0
LINE
  5
DE
330
1F
100
AcDbEntity
  8
1
  6
SLD-Solid
370
    25
100
AcDbLine
 10
35.05
 20
0.0
 30
0.0
 11
35.05
 21
29.0
 31
0.0
  0
LINE
  5
DF
330
1F
100
AcDbEntity
  8
1
  6
SLD-Solid
370
    25
100
AcDbLine
 10
35.05
 20
-29.0
 30
0.0
 11
35.05
 21
0.0
 31
0.0
  0
LINE
  5
E0
330
1F
100
AcDbEntity
  8
1
  6
SLD-Solid
370
    25
100
AcDbLine
 10
9.2
 20
3.1484607785
 30
0.0
 11
9.2
 21
3.1289268349
 31
0.0
  0
LINE
  5
E1
330
1F
100
AcDbEntity
  8
1
  6
SLD-Solid
370
    25
100
AcDbLine
 10
13.03
 20
3.1950504063
 30
0.0
 11
13.03
 21
3.2145852486
 31
0.0
  0
LINE
  5
E2
330
1F
100
AcDbEntity
  8
1
  6
SLD-Solid
370
    25
100
AcDbLine
 10
9.2
 20
-10.3731767437
 30
0.0
 11
9.2
 21
-10.4473679721
 31
0.0
  0
LINE
  5
E3
330
1F
100
AcDbEntity
  8
1
  6
SLD-Solid
370
    25
100
AcDbLine
 10
13.03
 20
-10.4473679721
 30
0.0
 11
13.03
 21
-10.3731767437
 31
0.0
  0
LINE
  5
E4
330
1F
100
AcDbEntity
  8
1
  6
SLD-Solid
370
    25
100
AcDbLine
 10
12.28
 20
-26.8043088887
 30
0.0
 11
9.95
 21
-26.8043088887
 31
0.0
  0
LINE
  5
E5
330
1F
100
AcDbEntity
  8
1
  6
SLD-Solid
370
    25
100
AcDbLine
 10
9.2
 20
14.3694120127
 30
0.0
 11
9.2
 21
14.265354737
 31
0.0
  0
LINE
  5
E6
330
1F
100
AcDbEntity
  8
1
  6
SLD-Solid
370
    25
100
AcDbLine
 10
13.03
 20
14.3230764537
 30
0.0
 11
13.03
 21
14.4271385169
 31
0.0
  0
LINE
  5
E7
330
1F
100
AcDbEntity
  8
1
  6
SLD-Solid
370
    25
100
AcDbLine
 10
22.0395593008
 20
22.6762760322
 30
0.0
 11
19.4112370764
 21
22.6762760322
 31
0.0
  0
LINE
  5
E8
330
1F
100
AcDbEntity
  8
1
  6
SLD-Solid
370
    25
100
AcDbLine
 10
12.28
 20
26.8043088887
 30
0.0
 11
9.95
 21
26.8043088887
 31
0.0
  0
LINE
  5
E9
330
1F
100
AcDbEntity
  8
1
  6
SLD-Solid
370
    25
100
AcDbLine
 10
0.0
 20
0.0
 30
0.0
 11
0.0
 21
-22.225
 31
0.0
  0
LINE
  5
EA
330
1F
100
AcDbEntity
  8
1
  6
SLD-Solid
370
    25
100
AcDbLine
 10
0.0
 20
22.225
 30
0.0
 11
0.0
 21
0.0
 31
0.0
  0
LINE
  5
EB
330
1F
100
AcDbEntity
  8
1
  6
SLD-Solid
370
    25
100
AcDbLine
 10
1.8869952227
 20
0.0
 30
0.0
 11
1.8869952227
 21
-22.225
 31
0.0
  0
LINE
  5
EC
330
1F
100
AcDbEntity
  8
1
  6
SLD-Solid
370
    25
100
AcDbLine
 10
1.8869952227
 20
22.225
 30
0.0
 11
1.8869952227
 21
0.0
 31
0.0
  0
LINE
  5
ED
330
1F
100
AcDbEntity
  8
SK1
  6
SLD-Solid
370
    25
100
AcDbLine
 10
101.2705031451
 20
0.0
 30
0.0
 11
101.2705031451
 21
-13.5
 31
0.0
  0
LINE
  5
EE
330
1F
100
AcDbEntity
  8
SK1
  6
SLD-Solid
370
    25
100
AcDbLine
 10
101.2705031451
 20
13.5
 30
0.0
 11
101.2705031451
 21
0.0
 31
0.0
  0
LINE
  5
EF
330
1F
100
AcDbEntity
  8
SK1
  6
SLD-Solid
370
    25
100
AcDbLine
 10
118.0
 20
0.0
 30
0.0
 11
118.0
 21
-13.5
 31
0.0
  0
LINE
  5
F0
330
1F
100
AcDbEntity
  8
SK1
  6
SLD-Solid
370
    25
100
AcDbLine
 10
118.0
 20
13.5
 30
0.0
 11
118.0
 21
0.0
 31
0.0
  0
LINE
  5
F1
330
1F
100
AcDbEntity
  8
SK1
  6
SLD-Solid
370
    25
100
AcDbLine
 10
121.0
 20
0.0
 30
0.0
 11
121.0
 21
-12.9710190579
 31
0.0
  0
LINE
  5
F2
330
1F
100
AcDbEntity
  8
SK1
  6
SLD-Solid
370
    25
100
AcDbLine
 10
121.0
 20
12.9710190579
 30
0.0
 11
121.0
 21
0.0
 31
0.0
  0
LINE
  5
F3
330
1F
100
AcDbEntity
  8
SK1
  6
SLD-Solid
370
    25
100
AcDbLine
 10
-68.25
 20
0.0
 30
0.0
 11
-68.25
 21
-11.4070377962
 31
0.0
  0
LINE
  5
F4
330
1F
100
AcDbEntity
  8
SK1
  6
SLD-Solid
370
    25
100
AcDbLine
 10
-68.25
 20
11.4070377961
 30
0.0
 11
-68.25
 21
0.0
 31
0.0
  0
LINE
  5
F5
330
1F
100
AcDbEntity
  8
SK1
  6
SLD-Solid
370
    25
100
AcDbLine
 10
129.4052655701
 20
0.2594577689
 30
0.0
 11
129.4052655701
 21
-8.0
 31
0.0
  0
LINE
  5
F6
330
1F
100
AcDbEntity
  8
SK1
  6
SLD-Solid
370
    25
100
AcDbLine
 10
129.4052655701
 20
8.0
 30
0.0
 11
129.4052655701
 21
0.2594577689
 31
0.0
  0
LINE
  5
F7
330
1F
100
AcDbEntity
  8
SK1
  6
SLD-Solid
370
    25
100
AcDbLine
 10
100.0296155741
 20
-18.2367723397
 30
0.0
 11
100.0296155741
 21
-20.3853494895
 31
0.0
  0
LINE
  5
F8
330
1F
100
AcDbEntity
  8
SK1
  6
SLD-Solid
370
    25
100
AcDbLine
 10
100.0296155741
 20
-21.6146505105
 30
0.0
 11
100.0296155741
 21
-23.7746731258
 31
0.0
  0
LINE
  5
F9
330
1F
100
AcDbEntity
  8
SK1
  6
SLD-Solid
370
    25
100
AcDbLine
 10
100.0296155741
 20
20.3853494895
 30
0.0
 11
100.0296155741
 21
18.2253268742
 31
0.0
  0
LINE
  5
FA
330
1F
100
AcDbEntity
  8
SK1
  6
SLD-Solid
370
    25
100
AcDbLine
 10
100.0296155741
 20
23.7632276603
 30
0.0
 11
100.0296155741
 21
21.6146505105
 31
0.0
  0
LINE
  5
FB
330
1F
100
AcDbEntity
  8
1
  6
SLD-Solid
370
    25
100
AcDbLine
 10
36.05
 20
0.0
 30
0.0
 11
36.05
 21
-30.0
 31
0.0
  0
LINE
  5
FC
330
1F
100
AcDbEntity
  8
1
  6
SLD-Solid
370
    25
100
AcDbLine
 10
36.05
 20
30.0
 30
0.0
 11
36.05
 21
0.0
 31
0.0
  0
LINE
  5
FD
330
1F
100
AcDbEntity
  8
1
  6
SLD-Solid
370
    25
100
AcDbLine
 10
34.05
 20
0.0
 30
0.0
 11
34.05
 21
24.0
 31
0.0
  0
LINE
  5
FE
330
1F
100
AcDbEntity
  8
1
  6
SLD-Solid
370
    25
100
AcDbLine
 10
34.05
 20
-24.0
 30
0.0
 11
34.05
 21
0.0
 31
0.0
  0
LINE
  5
FF
330
1F
100
AcDbEntity
  8
SK1
  6
SLD-Solid
370
    25
100
AcDbLine
 10
100.6870454874
 20
0.0
 30
0.0
 11
100.6870454874
 21
-13.2933868071
 31
0.0
  0
LINE
  5
100
330
1F
100
AcDbEntity
  8
SK1
  6
SLD-Solid
370
    25
100
AcDbLine
 10
100.6870454874
 20
13.2933868071
 30
0.0
 11
100.6870454874
 21
0.0
 31
0.0
  0
LINE
  5
101
330
1F
100
AcDbEntity
  8
SK3
  6
SLD-Dashed
370
    18
100
AcDbLine
 10
3.3100253255
 20
-8.8686354442
 30
0.0
 11
3.4555990574
 21
-9.4188935706
 31
0.0
  0
LINE
  5
102
330
1F
100
AcDbEntity
  8
SK3
  6
SLD-Dashed
370
    18
100
AcDbLine
 10
3.4555990574
 20
-9.4188935706
 30
0.0
 11
3.6874972385
 21
-9.9245730561
 31
0.0
  0
LINE
  5
103
330
1F
100
AcDbEntity
  8
SK3
  6
SLD-Dashed
370
    18
100
AcDbLine
 10
3.6874972385
 20
-9.9245730561
 30
0.0
 11
3.9869328573
 21
-10.3447067562
 31
0.0
  0
LINE
  5
104
330
1F
100
AcDbEntity
  8
SK3
  6
SLD-Dashed
370
    18
100
AcDbLine
 10
3.9869328573
 20
-10.3447067562
 30
0.0
 11
4.3296474207
 21
-10.6452579372
 31
0.0
  0
LINE
  5
105
330
1F
100
AcDbEntity
  8
SK3
  6
SLD-Dashed
370
    18
100
AcDbLine
 10
4.3296474207
 20
-10.6452579372
 30
0.0
 11
4.687876233
 21
-10.8018777297
 31
0.0
  0
LINE
  5
106
330
1F
100
AcDbEntity
  8
SK3
  6
SLD-Dashed
370
    18
100
AcDbLine
 10
4.687876233
 20
-10.8018777297
 30
0.0
 11
5.0325977264
 21
-10.8018777297
 31
0.0
  0
LINE
  5
107
330
1F
100
AcDbEntity
  8
SK3
  6
SLD-Dashed
370
    18
100
AcDbLine
 10
5.0325977264
 20
-10.8018777297
 30
0.0
 11
5.3358846155
 21
-10.6452579372
 31
0.0
  0
LINE
  5
108
330
1F
100
AcDbEntity
  8
SK3
  6
SLD-Dashed
370
    18
100
AcDbLine
 10
5.3358846155
 20
-10.6452579372
 30
0.0
 11
5.5731664004
 21
-10.3447067562
 31
0.0
  0
LINE
  5
109
330
1F
100
AcDbEntity
  8
SK3
  6
SLD-Dashed
370
    18
100
AcDbLine
 10
5.5731664004
 20
-10.3447067562
 30
0.0
 11
5.725219922
 21
-9.9245730561
 31
0.0
  0
LINE
  5
10A
330
1F
100
AcDbEntity
  8
SK3
  6
SLD-Dashed
370
    18
100
AcDbLine
 10
5.725219922
 20
-9.9245730561
 30
0.0
 11
5.7797267082
 21
-9.4188935706
 31
0.0
  0
LINE
  5
10B
330
1F
100
AcDbEntity
  8
SK3
  6
SLD-Dashed
370
    18
100
AcDbLine
 10
5.7797267082
 20
-9.4188935706
 30
0.0
 11
5.7322709434
 21
-8.8686354442
 31
0.0
  0
LINE
  5
10C
330
1F
100
AcDbEntity
  8
SK3
  6
SLD-Dashed
370
    18
100
AcDbLine
 10
5.7322709434
 20
-8.8686354442
 30
0.0
 11
5.5866972115
 21
-8.3183773178
 31
0.0
  0
LINE
  5
10D
330
1F
100
AcDbEntity
  8
SK3
  6
SLD-Dashed
370
    18
100
AcDbLine
 10
5.5866972115
 20
-8.3183773178
 30
0.0
 11
5.3547990304
 21
-7.8126978323
 31
0.0
  0
LINE
  5
10E
330
1F
100
AcDbEntity
  8
SK3
  6
SLD-Dashed
370
    18
100
AcDbLine
 10
5.3547990304
 20
-7.8126978323
 30
0.0
 11
5.0553634117
 21
-7.3925641322
 31
0.0
  0
LINE
  5
10F
330
1F
100
AcDbEntity
  8
SK3
  6
SLD-Dashed
370
    18
100
AcDbLine
 10
5.0553634117
 20
-7.3925641322
 30
0.0
 11
4.7126488483
 21
-7.0920129513
 31
0.0
  0
LINE
  5
110
330
1F
100
AcDbEntity
  8
SK3
  6
SLD-Dashed
370
    18
100
AcDbLine
 10
4.7126488483
 20
-7.0920129513
 30
0.0
 11
4.3544200359
 21
-6.9353931587
 31
0.0
  0
LINE
  5
111
330
1F
100
AcDbEntity
  8
SK3
  6
SLD-Dashed
370
    18
100
AcDbLine
 10
4.3544200359
 20
-6.9353931587
 30
0.0
 11
4.0096985426
 21
-6.9353931587
 31
0.0
  0
LINE
  5
112
330
1F
100
AcDbEntity
  8
SK3
  6
SLD-Dashed
370
    18
100
AcDbLine
 10
4.0096985426
 20
-6.9353931587
 30
0.0
 11
3.7064116534
 21
-7.0920129513
 31
0.0
  0
LINE
  5
113
330
1F
100
AcDbEntity
  8
SK3
  6
SLD-Dashed
370
    18
100
AcDbLine
 10
3.7064116534
 20
-7.0920129513
 30
0.0
 11
3.4691298685
 21
-7.3925641322
 31
0.0
  0
LINE
  5
114
330
1F
100
AcDbEntity
  8
SK3
  6
SLD-Dashed
370
    18
100
AcDbLine
 10
3.4691298685
 20
-7.3925641322
 30
0.0
 11
3.317076347
 21
-7.8126978323
 31
0.0
  0
LINE
  5
115
330
1F
100
AcDbEntity
  8
SK3
  6
SLD-Dashed
370
    18
100
AcDbLine
 10
3.317076347
 20
-7.8126978323
 30
0.0
 11
3.2625695608
 21
-8.3183773178
 31
0.0
  0
LINE
  5
116
330
1F
100
AcDbEntity
  8
SK3
  6
SLD-Dashed
370
    18
100
AcDbLine
 10
3.2625695608
 20
-8.3183773178
 30
0.0
 11
3.3100253255
 21
-8.8686354442
 31
0.0
  0
LINE
  5
117
330
1F
100
AcDbEntity
  8
SK3
  6
SLD-Dashed
370
    18
100
AcDbLine
 10
3.2
 20
-7.1668508159
 30
0.0
 11
3.2
 21
-11.3022369236
 31
0.0
  0
LINE
  5
118
330
1F
100
AcDbEntity
  8
SK3
  6
SLD-Dashed
370
    18
100
AcDbLine
 10
3.3403033958
 20
-8.8686354442
 30
0.0
 11
3.4822377844
 21
-9.4051371175
 31
0.0
  0
LINE
  5
119
330
1F
100
AcDbEntity
  8
SK3
  6
SLD-Dashed
370
    18
100
AcDbLine
 10
3.4822377844
 20
-9.4051371175
 30
0.0
 11
3.7083385109
 21
-9.8981746158
 31
0.0
  0
LINE
  5
11A
330
1F
100
AcDbEntity
  8
SK3
  6
SLD-Dashed
370
    18
100
AcDbLine
 10
3.7083385109
 20
-9.8981746158
 30
0.0
 11
4.0002882392
 21
-10.3078049734
 31
0.0
  0
LINE
  5
11B
330
1F
100
AcDbEntity
  8
SK3
  6
SLD-Dashed
370
    18
100
AcDbLine
 10
4.0002882392
 20
-10.3078049734
 30
0.0
 11
4.3344349385
 21
-10.6008423748
 31
0.0
  0
LINE
  5
11C
330
1F
100
AcDbEntity
  8
SK3
  6
SLD-Dashed
370
    18
100
AcDbLine
 10
4.3344349385
 20
-10.6008423748
 30
0.0
 11
4.6837080306
 21
-10.7535466726
 31
0.0
  0
LINE
  5
11D
330
1F
100
AcDbEntity
  8
SK3
  6
SLD-Dashed
370
    18
100
AcDbLine
 10
4.6837080306
 20
-10.7535466726
 30
0.0
 11
5.0198114866
 21
-10.7535466726
 31
0.0
  0
LINE
  5
11E
330
1F
100
AcDbEntity
  8
SK3
  6
SLD-Dashed
370
    18
100
AcDbLine
 10
5.0198114866
 20
-10.7535466726
 30
0.0
 11
5.3155162035
 21
-10.6008423748
 31
0.0
  0
LINE
  5
11F
330
1F
100
AcDbEntity
  8
SK3
  6
SLD-Dashed
370
    18
100
AcDbLine
 10
5.3155162035
 20
-10.6008423748
 30
0.0
 11
5.5468659438
 21
-10.3078049734
 31
0.0
  0
LINE
  5
120
330
1F
100
AcDbEntity
  8
SK3
  6
SLD-Dashed
370
    18
100
AcDbLine
 10
5.5468659438
 20
-10.3078049734
 30
0.0
 11
5.6951181273
 21
-9.8981746158
 31
0.0
  0
LINE
  5
121
330
1F
100
AcDbEntity
  8
SK3
  6
SLD-Dashed
370
    18
100
AcDbLine
 10
5.6951181273
 20
-9.8981746158
 30
0.0
 11
5.7482622438
 21
-9.4051371175
 31
0.0
  0
LINE
  5
122
330
1F
100
AcDbEntity
  8
SK3
  6
SLD-Dashed
370
    18
100
AcDbLine
 10
5.7482622438
 20
-9.4051371175
 30
0.0
 11
5.7019928732
 21
-8.8686354442
 31
0.0
  0
LINE
  5
123
330
1F
100
AcDbEntity
  8
SK3
  6
SLD-Dashed
370
    18
100
AcDbLine
 10
5.7019928732
 20
-8.8686354442
 30
0.0
 11
5.5600584846
 21
-8.332133771
 31
0.0
  0
LINE
  5
124
330
1F
100
AcDbEntity
  8
SK3
  6
SLD-Dashed
370
    18
100
AcDbLine
 10
5.5600584846
 20
-8.332133771
 30
0.0
 11
5.333957758
 21
-7.8390962726
 31
0.0
  0
LINE
  5
125
330
1F
100
AcDbEntity
  8
SK3
  6
SLD-Dashed
370
    18
100
AcDbLine
 10
5.333957758
 20
-7.8390962726
 30
0.0
 11
5.0420080298
 21
-7.429465915
 31
0.0
  0
LINE
  5
126
330
1F
100
AcDbEntity
  8
SK3
  6
SLD-Dashed
370
    18
100
AcDbLine
 10
5.0420080298
 20
-7.429465915
 30
0.0
 11
4.7078613304
 21
-7.1364285136
 31
0.0
  0
LINE
  5
127
330
1F
100
AcDbEntity
  8
SK3
  6
SLD-Dashed
370
    18
100
AcDbLine
 10
4.7078613304
 20
-7.1364285136
 30
0.0
 11
4.3585882384
 21
-6.9837242159
 31
0.0
  0
LINE
  5
128
330
1F
100
AcDbEntity
  8
SK3
  6
SLD-Dashed
370
    18
100
AcDbLine
 10
4.3585882384
 20
-6.9837242159
 30
0.0
 11
4.0224847824
 21
-6.9837242159
 31
0.0
  0
LINE
  5
129
330
1F
100
AcDbEntity
  8
SK3
  6
SLD-Dashed
370
    18
100
AcDbLine
 10
4.0224847824
 20
-6.9837242159
 30
0.0
 11
3.7267800654
 21
-7.1364285136
 31
0.0
  0
LINE
  5
12A
330
1F
100
AcDbEntity
  8
SK3
  6
SLD-Dashed
370
    18
100
AcDbLine
 10
3.7267800654
 20
-7.1364285136
 30
0.0
 11
3.4954303252
 21
-7.429465915
 31
0.0
  0
LINE
  5
12B
330
1F
100
AcDbEntity
  8
SK3
  6
SLD-Dashed
370
    18
100
AcDbLine
 10
3.4954303252
 20
-7.429465915
 30
0.0
 11
3.3471781417
 21
-7.8390962726
 31
0.0
  0
LINE
  5
12C
330
1F
100
AcDbEntity
  8
SK3
  6
SLD-Dashed
370
    18
100
AcDbLine
 10
3.3471781417
 20
-7.8390962726
 30
0.0
 11
3.2940340251
 21
-8.332133771
 31
0.0
  0
LINE
  5
12D
330
1F
100
AcDbEntity
  8
SK3
  6
SLD-Dashed
370
    18
100
AcDbLine
 10
3.2940340251
 20
-8.332133771
 30
0.0
 11
3.3403033958
 21
-8.8686354442
 31
0.0
  0
LINE
  5
12E
330
1F
100
AcDbEntity
  8
SK3
  6
SLD-Dashed
370
    18
100
AcDbLine
 10
13.9872030677
 20
-5.9198440145
 30
0.0
 11
14.1291374563
 21
-6.4563456877
 31
0.0
  0
LINE
  5
12F
330
1F
100
AcDbEntity
  8
SK3
  6
SLD-Dashed
370
    18
100
AcDbLine
 10
14.1291374563
 20
-6.4563456877
 30
0.0
 11
14.3552381829
 21
-6.9493831861
 31
0.0
  0
LINE
  5
130
330
1F
100
AcDbEntity
  8
SK3
  6
SLD-Dashed
370
    18
100
AcDbLine
 10
14.3552381829
 20
-6.9493831861
 30
0.0
 11
14.6471879112
 21
-7.3590135437
 31
0.0
  0
LINE
  5
131
330
1F
100
AcDbEntity
  8
SK3
  6
SLD-Dashed
370
    18
100
AcDbLine
 10
14.6471879112
 20
-7.3590135437
 30
0.0
 11
14.9813346105
 21
-7.6520509451
 31
0.0
  0
LINE
  5
132
330
1F
100
AcDbEntity
  8
SK3
  6
SLD-Dashed
370
    18
100
AcDbLine
 10
14.9813346105
 20
-7.6520509451
 30
0.0
 11
15.3306077025
 21
-7.8047552428
 31
0.0
  0
LINE
  5
133
330
1F
100
AcDbEntity
  8
SK3
  6
SLD-Dashed
370
    18
100
AcDbLine
 10
15.3306077025
 20
-7.8047552428
 30
0.0
 11
15.6667111586
 21
-7.8047552428
 31
0.0
  0
LINE
  5
134
330
1F
100
AcDbEntity
  8
SK3
  6
SLD-Dashed
370
    18
100
AcDbLine
 10
15.6667111586
 20
-7.8047552428
 30
0.0
 11
15.9624158755
 21
-7.6520509451
 31
0.0
  0
LINE
  5
135
330
1F
100
AcDbEntity
  8
SK3
  6
SLD-Dashed
370
    18
100
AcDbLine
 10
15.9624158755
 20
-7.6520509451
 30
0.0
 11
16.1937656157
 21
-7.3590135437
 31
0.0
  0
LINE
  5
136
330
1F
100
AcDbEntity
  8
SK3
  6
SLD-Dashed
370
    18
100
AcDbLine
 10
16.1937656157
 20
-7.3590135437
 30
0.0
 11
16.3420177992
 21
-6.9493831861
 31
0.0
  0
LINE
  5
137
330
1F
100
AcDbEntity
  8
SK3
  6
SLD-Dashed
370
    18
100
AcDbLine
 10
16.3420177992
 20
-6.9493831861
 30
0.0
 11
16.3951619158
 21
-6.4563456877
 31
0.0
  0
LINE
  5
138
330
1F
100
AcDbEntity
  8
SK3
  6
SLD-Dashed
370
    18
100
AcDbLine
 10
16.3951619158
 20
-6.4563456877
 30
0.0
 11
16.3488925452
 21
-5.9198440145
 31
0.0
  0
LINE
  5
139
330
1F
100
AcDbEntity
  8
SK3
  6
SLD-Dashed
370
    18
100
AcDbLine
 10
16.3488925452
 20
-5.9198440145
 30
0.0
 11
16.2069581565
 21
-5.3833423412
 31
0.0
  0
LINE
  5
13A
330
1F
100
AcDbEntity
  8
SK3
  6
SLD-Dashed
370
    18
100
AcDbLine
 10
16.2069581565
 20
-5.3833423412
 30
0.0
 11
15.98085743
 21
-4.8903048429
 31
0.0
  0
LINE
  5
13B
330
1F
100
AcDbEntity
  8
SK3
  6
SLD-Dashed
370
    18
100
AcDbLine
 10
15.98085743
 20
-4.8903048429
 30
0.0
 11
15.6889077017
 21
-4.4806744853
 31
0.0
  0
LINE
  5
13C
330
1F
100
AcDbEntity
  8
SK3
  6
SLD-Dashed
370
    18
100
AcDbLine
 10
15.6889077017
 20
-4.4806744853
 30
0.0
 11
15.3547610024
 21
-4.1876370839
 31
0.0
  0
LINE
  5
13D
330
1F
100
AcDbEntity
  8
SK3
  6
SLD-Dashed
370
    18
100
AcDbLine
 10
15.3547610024
 20
-4.1876370839
 30
0.0
 11
15.0054879103
 21
-4.0349327861
 31
0.0
  0
LINE
  5
13E
330
1F
100
AcDbEntity
  8
SK3
  6
SLD-Dashed
370
    18
100
AcDbLine
 10
15.0054879103
 20
-4.0349327861
 30
0.0
 11
14.6693844543
 21
-4.0349327861
 31
0.0
  0
LINE
  5
13F
330
1F
100
AcDbEntity
  8
SK3
  6
SLD-Dashed
370
    18
100
AcDbLine
 10
14.6693844543
 20
-4.0349327861
 30
0.0
 11
14.3736797374
 21
-4.1876370839
 31
0.0
  0
LINE
  5
140
330
1F
100
AcDbEntity
  8
SK3
  6
SLD-Dashed
370
    18
100
AcDbLine
 10
14.3736797374
 20
-4.1876370839
 30
0.0
 11
14.1423299972
 21
-4.4806744853
 31
0.0
  0
LINE
  5
141
330
1F
100
AcDbEntity
  8
SK3
  6
SLD-Dashed
370
    18
100
AcDbLine
 10
14.1423299972
 20
-4.4806744853
 30
0.0
 11
13.9940778136
 21
-4.8903048429
 31
0.0
  0
LINE
  5
142
330
1F
100
AcDbEntity
  8
SK3
  6
SLD-Dashed
370
    18
100
AcDbLine
 10
13.9940778136
 20
-4.8903048429
 30
0.0
 11
13.9409336971
 21
-5.3833423412
 31
0.0
  0
LINE
  5
143
330
1F
100
AcDbEntity
  8
SK3
  6
SLD-Dashed
370
    18
100
AcDbLine
 10
13.9409336971
 20
-5.3833423412
 30
0.0
 11
13.9872030677
 21
-5.9198440145
 31
0.0
  0
LINE
  5
144
330
1F
100
AcDbEntity
  8
SK3
  6
SLD-Dashed
370
    18
100
AcDbLine
 10
10.1492970604
 20
-7.9394482622
 30
0.0
 11
9.9959639476
 21
-7.8196308379
 31
0.0
  0
LINE
  5
145
330
1F
100
AcDbEntity
  8
SK3
  6
SLD-Dashed
370
    18
100
AcDbLine
 10
9.9959639476
 20
-7.8196308379
 30
0.0
 11
9.8335697323
 21
-7.6479456875
 31
0.0
  0
LINE
  5
146
330
1F
100
AcDbEntity
  8
SK3
  6
SLD-Dashed
370
    18
100
AcDbLine
 10
9.8335697323
 20
-7.6479456875
 30
0.0
 11
9.6952184234
 21
-7.451236105
 31
0.0
  0
LINE
  5
147
330
1F
100
AcDbEntity
  8
SK3
  6
SLD-Dashed
370
    18
100
AcDbLine
 10
9.6952184234
 20
-7.451236105
 30
0.0
 11
9.5753254966
 21
-7.208740602
 31
0.0
  0
LINE
  5
148
330
1F
100
AcDbEntity
  8
SK3
  6
SLD-Dashed
370
    18
100
AcDbLine
 10
9.5753254966
 20
-7.208740602
 30
0.0
 11
9.4964044976
 21
-6.9452148642
 31
0.0
  0
LINE
  5
149
330
1F
100
AcDbEntity
  8
SK3
  6
SLD-Dashed
370
    18
100
AcDbLine
 10
9.4964044976
 20
-6.9452148642
 30
0.0
 11
9.4657786481
 21
-6.6888858809
 31
0.0
  0
LINE
  5
14A
330
1F
100
AcDbEntity
  8
SK3
  6
SLD-Dashed
370
    18
100
AcDbLine
 10
9.4657786481
 20
-6.6888858809
 30
0.0
 11
9.4809355955
 21
-6.4277271394
 31
0.0
  0
LINE
  5
14B
330
1F
100
AcDbEntity
  8
SK3
  6
SLD-Dashed
370
    18
100
AcDbLine
 10
9.4809355955
 20
-6.4277271394
 30
0.0
 11
9.5383674078
 21
-6.1908004838
 31
0.0
  0
LINE
  5
14C
330
1F
100
AcDbEntity
  8
SK3
  6
SLD-Dashed
370
    18
100
AcDbLine
 10
9.5383674078
 20
-6.1908004838
 30
0.0
 11
9.6391793638
 21
-5.9633821804
 31
0.0
  0
LINE
  5
14D
330
1F
100
AcDbEntity
  8
SK3
  6
SLD-Dashed
370
    18
100
AcDbLine
 10
9.6391793638
 20
-5.9633821804
 30
0.0
 11
9.7778460646
 21
-5.7590111298
 31
0.0
  0
LINE
  5
14E
330
1F
100
AcDbEntity
  8
SK3
  6
SLD-Dashed
370
    18
100
AcDbLine
 10
9.7778460646
 20
-5.7590111298
 30
0.0
 11
9.9568785493
 21
-5.5739441608
 31
0.0
  0
LINE
  5
14F
330
1F
100
AcDbEntity
  8
SK3
  6
SLD-Dashed
370
    18
100
AcDbLine
 10
9.9568785493
 20
-5.5739441608
 30
0.0
 11
10.1692341495
 21
-5.4154131213
 31
0.0
  0
LINE
  5
150
330
1F
100
AcDbEntity
  8
SK3
  6
SLD-Dashed
370
    18
100
AcDbLine
 10
10.1692341495
 20
-5.4154131213
 30
0.0
 11
10.2898823627
 21
-5.3442189121
 31
0.0
  0
LINE
  5
151
330
1F
100
AcDbEntity
  8
SK3
  6
SLD-Dashed
370
    18
100
AcDbLine
 10
10.2898823627
 20
-5.3442189121
 30
0.0
 11
10.418116344
 21
-5.2793059694
 31
0.0
  0
LINE
  5
152
330
1F
100
AcDbEntity
  8
SK3
  6
SLD-Dashed
370
    18
100
AcDbLine
 10
10.418116344
 20
-5.2793059694
 30
0.0
 11
10.5770234644
 21
-5.2106092747
 31
0.0
  0
LINE
  5
153
330
1F
100
AcDbEntity
  8
SK3
  6
SLD-Dashed
370
    18
100
AcDbLine
 10
10.5770234644
 20
-5.2106092747
 30
0.0
 11
10.7415575901
 21
-5.1495605021
 31
0.0
  0
LINE
  5
154
330
1F
100
AcDbEntity
  8
SK3
  6
SLD-Dashed
370
    18
100
AcDbLine
 10
10.7415575901
 20
-5.1495605021
 30
0.0
 11
10.8969273656
 21
-5.0985685639
 31
0.0
  0
LINE
  5
155
330
1F
100
AcDbEntity
  8
SK3
  6
SLD-Dashed
370
    18
100
AcDbLine
 10
10.8969273656
 20
-5.0985685639
 30
0.0
 11
11.0468744202
 21
-5.0537390144
 31
0.0
  0
LINE
  5
156
330
1F
100
AcDbEntity
  8
SK3
  6
SLD-Dashed
370
    18
100
AcDbLine
 10
11.0468744202
 20
-5.0537390144
 30
0.0
 11
11.2561534558
 21
-4.9969205373
 31
0.0
  0
LINE
  5
157
330
1F
100
AcDbEntity
  8
SK3
  6
SLD-Dashed
370
    18
100
AcDbLine
 10
11.2561534558
 20
-4.9969205373
 30
0.0
 11
11.4457331326
 21
-4.9517939818
 31
0.0
  0
LINE
  5
158
330
1F
100
AcDbEntity
  8
SK3
  6
SLD-Dashed
370
    18
100
AcDbLine
 10
11.4457331326
 20
-4.9517939818
 30
0.0
 11
11.633006727
 21
-4.9157840335
 31
0.0
  0
LINE
  5
159
330
1F
100
AcDbEntity
  8
SK3
  6
SLD-Dashed
370
    18
100
AcDbLine
 10
11.633006727
 20
-4.9157840335
 30
0.0
 11
11.8057795062
 21
-4.8938085449
 31
0.0
  0
LINE
  5
15A
330
1F
100
AcDbEntity
  8
SK3
  6
SLD-Dashed
370
    18
100
AcDbLine
 10
11.8057795062
 20
-4.8938085449
 30
0.0
 11
11.969401451
 21
-4.8872264006
 31
0.0
  0
LINE
  5
15B
330
1F
100
AcDbEntity
  8
SK3
  6
SLD-Dashed
370
    18
100
AcDbLine
 10
11.969401451
 20
-4.8872264006
 30
0.0
 11
12.1240802497
 21
-4.8986710743
 31
0.0
  0
LINE
  5
15C
330
1F
100
AcDbEntity
  8
SK3
  6
SLD-Dashed
370
    18
100
AcDbLine
 10
12.1240802497
 20
-4.8986710743
 30
0.0
 11
12.3002958385
 21
-4.9417171181
 31
0.0
  0
LINE
  5
15D
330
1F
100
AcDbEntity
  8
SK3
  6
SLD-Dashed
370
    18
100
AcDbLine
 10
12.3002958385
 20
-4.9417171181
 30
0.0
 11
12.464319685
 21
-5.0267503515
 31
0.0
  0
LINE
  5
15E
330
1F
100
AcDbEntity
  8
SK3
  6
SLD-Dashed
370
    18
100
AcDbLine
 10
12.464319685
 20
-5.0267503515
 30
0.0
 11
12.5636462894
 21
-5.1142821188
 31
0.0
  0
LINE
  5
15F
330
1F
100
AcDbEntity
  8
SK3
  6
SLD-Dashed
370
    18
100
AcDbLine
 10
12.5636462894
 20
-5.1142821188
 30
0.0
 11
12.6521936056
 21
-5.2365779754
 31
0.0
  0
LINE
  5
160
330
1F
100
AcDbEntity
  8
SK3
  6
SLD-Dashed
370
    18
100
AcDbLine
 10
12.6521936056
 20
-5.2365779754
 30
0.0
 11
12.6982581742
 21
-5.3338785964
 31
0.0
  0
LINE
  5
161
330
1F
100
AcDbEntity
  8
SK3
  6
SLD-Dashed
370
    18
100
AcDbLine
 10
12.6982581742
 20
-5.3338785964
 30
0.0
 11
12.7349981669
 21
-5.4523307937
 31
0.0
  0
LINE
  5
162
330
1F
100
AcDbEntity
  8
SK3
  6
SLD-Dashed
370
    18
100
AcDbLine
 10
12.7349981669
 20
-5.4523307937
 30
0.0
 11
12.7546878238
 21
-5.5608237571
 31
0.0
  0
LINE
  5
163
330
1F
100
AcDbEntity
  8
SK3
  6
SLD-Dashed
370
    18
100
AcDbLine
 10
12.7546878238
 20
-5.5608237571
 30
0.0
 11
12.7643511479
 21
-5.6841505103
 31
0.0
  0
LINE
  5
164
330
1F
100
AcDbEntity
  8
SK3
  6
SLD-Dashed
370
    18
100
AcDbLine
 10
12.7643511479
 20
-5.6841505103
 30
0.0
 11
12.7625673419
 21
-5.8129503743
 31
0.0
  0
LINE
  5
165
330
1F
100
AcDbEntity
  8
SK3
  6
SLD-Dashed
370
    18
100
AcDbLine
 10
12.7625673419
 20
-5.8129503743
 30
0.0
 11
12.7493276647
 21
-5.9505709352
 31
0.0
  0
LINE
  5
166
330
1F
100
AcDbEntity
  8
SK3
  6
SLD-Dashed
370
    18
100
AcDbLine
 10
12.7493276647
 20
-5.9505709352
 30
0.0
 11
12.7199361939
 21
-6.1162944579
 31
0.0
  0
LINE
  5
167
330
1F
100
AcDbEntity
  8
SK3
  6
SLD-Dashed
370
    18
100
AcDbLine
 10
12.7199361939
 20
-6.1162944579
 30
0.0
 11
12.6773076344
 21
-6.2826358644
 31
0.0
  0
LINE
  5
168
330
1F
100
AcDbEntity
  8
SK3
  6
SLD-Dashed
370
    18
100
AcDbLine
 10
-66.9509618943
 20
-8.5
 30
0.0
 11
-66.9509618943
 21
8.5
 31
0.0
  0
LINE
  5
169
330
1F
100
AcDbEntity
  8
SK3
  6
SLD-Dashed
370
    18
100
AcDbLine
 10
-61.75
 20
8.8
 30
0.0
 11
-61.75
 21
-8.8
 31
0.0
  0
LINE
  5
16A
330
1F
100
AcDbEntity
  8
SK3
  6
SLD-Dashed
370
    18
100
AcDbLine
 10
-59.75
 20
8.8
 30
0.0
 11
-59.75
 21
-8.8
 31
0.0
  0
LINE
  5
16B
330
1F
100
AcDbEntity
  8
SK3
  6
SLD-Dashed
370
    18
100
AcDbLine
 10
-62.2696152423
 20
8.5
 30
0.0
 11
-62.2696152423
 21
-8.5
 31
0.0
  0
LINE
  5
16C
330
1F
100
AcDbEntity
  8
SK3
  6
SLD-Dashed
370
    18
100
AcDbLine
 10
-58.7107695155
 20
-7.0
 30
0.0
 11
-58.7107695155
 21
7.0
 31
0.0
  0
LINE
  5
16D
330
1F
100
AcDbEntity
  8
SK1
  6
SLD-Dashed
370
    18
100
AcDbLine
 10
121.0
 20
8.6393977616
 30
0.0
 11
121.0
 21
5.1491844715
 31
0.0
  0
LINE
  5
16E
330
1F
100
AcDbEntity
  8
SK3
  6
SLD-Dashed
370
    18
100
AcDbLine
 10
84.0
 20
8.6442911166
 30
0.0
 11
84.0
 21
5.1442911166
 31
0.0
  0
LINE
  5
16F
330
1F
100
AcDbEntity
  8
SK1
  6
SLD-Dashed
370
    18
100
AcDbLine
 10
121.0
 20
-5.1491844715
 30
0.0
 11
121.0
 21
-8.6393977616
 31
0.0
  0
LINE
  5
170
330
1F
100
AcDbEntity
  8
SK3
  6
SLD-Dashed
370
    18
100
AcDbLine
 10
84.0
 20
-5.1442911166
 30
0.0
 11
84.0
 21
-8.6442911166
 31
0.0
  0
LINE
  5
171
330
1F
100
AcDbEntity
  8
SK3
  6
SLD-Dashed
370
    18
100
AcDbLine
 10
3.6297355237
 20
23.0999999882
 30
0.0
 11
3.6297355237
 21
29.8288211426
 31
0.0
  0
LINE
  5
172
330
1F
100
AcDbEntity
  8
SK3
  6
SLD-Dashed
370
    18
100
AcDbLine
 10
18.6202614216
 20
29.8288189921
 30
0.0
 11
18.6202614216
 21
23.5320726343
 31
0.0
  0
LINE
  5
173
330
1F
100
AcDbEntity
  8
SK3
  6
SLD-Dashed
370
    18
100
AcDbLine
 10
3.95
 20
30.1615241263
 30
0.0
 11
7.8939986992
 21
30.1615241263
 31
0.0
  0
LINE
  5
174
330
1F
100
AcDbEntity
  8
SK3
  6
SLD-Dashed
370
    18
100
AcDbLine
 10
14.335998346
 20
30.1615188275
 30
0.0
 11
18.3
 21
30.1615188275
 31
0.0
  0
LINE
  5
175
330
1F
100
AcDbEntity
  8
1
  6
SLD-Dashed
370
    18
100
AcDbLine
 10
13.03
 20
27.8127840266
 30
0.0
 11
13.03
 21
27.5868351755
 31
0.0
  0
LINE
  5
176
330
1F
100
AcDbEntity
  8
1
  6
SLD-Dashed
370
    18
100
AcDbLine
 10
9.2
 20
27.5868351755
 30
0.0
 11
9.2
 21
27.8127840266
 31
0.0
  0
LINE
  5
177
330
1F
100
AcDbEntity
  8
SK3
  6
SLD-Dashed
370
    18
100
AcDbLine
 10
3.6238671166
 20
22.577078289
 30
0.0
 11
22.9058927148
 21
22.6
 31
0.0
  0
LINE
  5
178
330
1F
100
AcDbEntity
  8
SK3
  6
SLD-Dashed
370
    18
100
AcDbLine
 10
18.6791983211
 20
23.0999999882
 30
0.0
 11
3.6297355237
 21
23.0999999882
 31
0.0
  0
LINE
  5
179
330
1F
100
AcDbEntity
  8
SK3
  6
SLD-Dashed
370
    18
100
AcDbLine
 10
3.5452899484
 20
-29.804866641
 30
0.0
 11
3.5452899484
 21
-25.722664467
 31
0.0
  0
LINE
  5
17A
330
1F
100
AcDbEntity
  8
SK3
  6
SLD-Dashed
370
    18
100
AcDbLine
 10
18.7045903243
 20
-25.7224789849
 30
0.0
 11
18.7045903243
 21
-29.8048528797
 31
0.0
  0
LINE
  5
17B
330
1F
100
AcDbEntity
  8
SK3
  6
SLD-Dashed
370
    18
100
AcDbLine
 10
7.8582756891
 20
-30.225583351
 30
0.0
 11
3.95
 21
-30.225583351
 31
0.0
  0
LINE
  5
17C
330
1F
100
AcDbEntity
  8
SK3
  6
SLD-Dashed
370
    18
100
AcDbLine
 10
18.3
 20
-30.2254453833
 30
0.0
 11
14.3716473669
 21
-30.2254453833
 31
0.0
  0
LINE
  5
17D
330
1F
100
AcDbEntity
  8
1
  6
SLD-Dashed
370
    18
100
AcDbLine
 10
13.03
 20
-27.8127840266
 30
0.0
 11
13.03
 21
-27.5868351755
 31
0.0
  0
LINE
  5
17E
330
1F
100
AcDbEntity
  8
1
  6
SLD-Dashed
370
    18
100
AcDbLine
 10
9.2
 20
-27.5868351755
 30
0.0
 11
9.2
 21
-27.8127840266
 31
0.0
  0
LINE
  5
17F
330
1F
100
AcDbEntity
  8
SK3
  6
SLD-Dashed
370
    18
100
AcDbLine
 10
18.55
 20
-24.8
 30
0.0
 11
3.7
 21
-24.8
 31
0.0
  0
LINE
  5
180
330
1F
100
AcDbEntity
  8
SK3
  6
SLD-Dashed
370
    18
100
AcDbLine
 10
3.7
 20
-25.3
 30
0.0
 11
18.55
 21
-25.3
 31
0.0
  0
LINE
  5
181
330
1F
100
AcDbEntity
  8
SK3
  6
SLD-Dashed
370
    18
100
AcDbLine
 10
22.9058927148
 20
22.6
 30
0.0
 11
28.2
 21
22.6
 31
0.0
  0
LINE
  5
182
330
1F
100
AcDbEntity
  8
SK3
  6
SLD-Dashed
370
    18
100
AcDbLine
 10
119.0
 20
6.5
 30
0.0
 11
119.0
 21
-6.5
 31
0.0
  0
LINE
  5
183
330
1F
100
AcDbEntity
  8
SK1
  6
SLD-Dashed
370
    18
100
AcDbLine
 10
121.0
 20
7.6547005384
 30
0.0
 11
121.0
 21
-7.6547005384
 31
0.0
  0
LINE
  5
184
330
1F
100
AcDbEntity
  8
SK3
  6
SLD-Dashed
370
    18
100
AcDbLine
 10
23.75
 20
7.0
 30
0.0
 11
23.75
 21
-7.0
 31
0.0
  0
LINE
  5
185
330
1F
100
AcDbEntity
  8
SK3
  6
SLD-Dashed
370
    18
100
AcDbLine
 10
24.8916351762
 20
-5.1
 30
0.0
 11
24.8916351762
 21
5.1
 31
0.0
  0
LINE
  5
186
330
1F
100
AcDbEntity
  8
SK3
  6
SLD-Dashed
370
    18
100
AcDbLine
 10
115.5
 20
6.5
 30
0.0
 11
115.5
 21
-6.5
 31
0.0
  0
LINE
  5
187
330
1F
100
AcDbEntity
  8
SK3
  6
SLD-Dashed
370
    18
100
AcDbLine
 10
114.6587951334
 20
5.1
 30
0.0
 11
114.6587951334
 21
-5.1
 31
0.0
  0
LINE
  5
188
330
1F
100
AcDbEntity
  8
SK3
  6
SLD-Dashed
370
    18
100
AcDbLine
 10
6.2
 20
-20.2
 30
0.0
 11
16.0
 21
-20.2
 31
0.0
  0
LINE
  5
189
330
1F
100
AcDbEntity
  8
SK3
  6
SLD-Dashed
370
    18
100
AcDbLine
 10
16.0949653327
 20
-24.8
 30
0.0
 11
6.1050346673
 21
-24.8
 31
0.0
  0
LINE
  5
18A
330
1F
100
AcDbEntity
  8
SK1
  6
SLD-Dashed
370
    18
100
AcDbLine
 10
121.0
 20
8.6393977616
 30
0.0
 11
121.0
 21
5.1491844715
 31
0.0
  0
LINE
  5
18B
330
1F
100
AcDbEntity
  8
SK3
  6
SLD-Dashed
370
    18
100
AcDbLine
 10
84.0
 20
8.6393977616
 30
0.0
 11
84.0
 21
5.1491844715
 31
0.0
  0
LINE
  5
18C
330
1F
100
AcDbEntity
  8
SK1
  6
SLD-Dashed
370
    18
100
AcDbLine
 10
121.0
 20
-5.1491844715
 30
0.0
 11
121.0
 21
-8.6393977616
 31
0.0
  0
LINE
  5
18D
330
1F
100
AcDbEntity
  8
SK3
  6
SLD-Dashed
370
    18
100
AcDbLine
 10
84.0
 20
-5.1491844715
 30
0.0
 11
84.0
 21
-8.6393977616
 31
0.0
  0
LINE
  5
18E
330
1F
100
AcDbEntity
  8
SK3
  6
SLD-Dashed
370
    18
100
AcDbLine
 10
3.6297355237
 20
23.0999999882
 30
0.0
 11
18.6791983211
 21
23.0999999882
 31
0.0
  0
LINE
  5
18F
330
1F
100
AcDbEntity
  8
SK3
  6
SLD-Dashed
370
    18
100
AcDbLine
 10
22.9058927148
 20
22.6
 30
0.0
 11
3.6238671166
 21
22.577078289
 31
0.0
  0
LINE
  5
190
330
1F
100
AcDbEntity
  8
SK3
  6
SLD-Dashed
370
    18
100
AcDbLine
 10
3.6297355237
 20
29.8288211426
 30
0.0
 11
3.6297355237
 21
23.0999999882
 31
0.0
  0
LINE
  5
191
330
1F
100
AcDbEntity
  8
SK3
  6
SLD-Dashed
370
    18
100
AcDbLine
 10
7.8939986992
 20
30.1615241263
 30
0.0
 11
3.95
 21
30.1615241263
 31
0.0
  0
LINE
  5
192
330
1F
100
AcDbEntity
  8
1
  6
SLD-Dashed
370
    18
100
AcDbLine
 10
9.95
 20
26.8043088887
 30
0.0
 11
12.28
 21
26.8043088887
 31
0.0
  0
LINE
  5
193
330
1F
100
AcDbEntity
  8
SK3
  6
SLD-Dashed
370
    18
100
AcDbLine
 10
18.3
 20
30.1615188275
 30
0.0
 11
14.335998346
 21
30.1615188275
 31
0.0
  0
LINE
  5
194
330
1F
100
AcDbEntity
  8
SK3
  6
SLD-Dashed
370
    18
100
AcDbLine
 10
18.6202614216
 20
23.5320726343
 30
0.0
 11
18.6202614216
 21
29.8288189921
 31
0.0
  0
LINE
  5
195
330
1F
100
AcDbEntity
  8
SK3
  6
SLD-Dashed
370
    18
100
AcDbLine
 10
3.95
 20
-30.2254453833
 30
0.0
 11
7.8583526331
 21
-30.2254453833
 31
0.0
  0
LINE
  5
196
330
1F
100
AcDbEntity
  8
SK3
  6
SLD-Dashed
370
    18
100
AcDbLine
 10
3.5454096757
 20
-25.7224789849
 30
0.0
 11
3.5454096757
 21
-29.8048528797
 31
0.0
  0
LINE
  5
197
330
1F
100
AcDbEntity
  8
SK3
  6
SLD-Dashed
370
    18
100
AcDbLine
 10
18.7047100516
 20
-29.804866641
 30
0.0
 11
18.7047100516
 21
-25.722664467
 31
0.0
  0
LINE
  5
198
330
1F
100
AcDbEntity
  8
SK3
  6
SLD-Dashed
370
    18
100
AcDbLine
 10
14.3717243109
 20
-30.225583351
 30
0.0
 11
18.3
 21
-30.225583351
 31
0.0
  0
LINE
  5
199
330
1F
100
AcDbEntity
  8
1
  6
SLD-Dashed
370
    18
100
AcDbLine
 10
9.95
 20
-26.8043088887
 30
0.0
 11
12.28
 21
-26.8043088887
 31
0.0
  0
LINE
  5
19A
330
1F
100
AcDbEntity
  8
SK3
  6
SLD-Dashed
370
    18
100
AcDbLine
 10
5.7019928732
 20
8.8686354442
 30
0.0
 11
5.5600584846
 21
8.332133771
 31
0.0
  0
LINE
  5
19B
330
1F
100
AcDbEntity
  8
SK3
  6
SLD-Dashed
370
    18
100
AcDbLine
 10
5.5600584846
 20
8.332133771
 30
0.0
 11
5.333957758
 21
7.8390962726
 31
0.0
  0
LINE
  5
19C
330
1F
100
AcDbEntity
  8
SK3
  6
SLD-Dashed
370
    18
100
AcDbLine
 10
5.333957758
 20
7.8390962726
 30
0.0
 11
5.0420080298
 21
7.429465915
 31
0.0
  0
LINE
  5
19D
330
1F
100
AcDbEntity
  8
SK3
  6
SLD-Dashed
370
    18
100
AcDbLine
 10
5.0420080298
 20
7.429465915
 30
0.0
 11
4.7078613304
 21
7.1364285136
 31
0.0
  0
LINE
  5
19E
330
1F
100
AcDbEntity
  8
SK3
  6
SLD-Dashed
370
    18
100
AcDbLine
 10
4.7078613304
 20
7.1364285136
 30
0.0
 11
4.3585882384
 21
6.9837242159
 31
0.0
  0
LINE
  5
19F
330
1F
100
AcDbEntity
  8
SK3
  6
SLD-Dashed
370
    18
100
AcDbLine
 10
4.3585882384
 20
6.9837242159
 30
0.0
 11
4.0224847824
 21
6.9837242159
 31
0.0
  0
LINE
  5
1A0
330
1F
100
AcDbEntity
  8
SK3
  6
SLD-Dashed
370
    18
100
AcDbLine
 10
4.0224847824
 20
6.9837242159
 30
0.0
 11
3.7267800654
 21
7.1364285136
 31
0.0
  0
LINE
  5
1A1
330
1F
100
AcDbEntity
  8
SK3
  6
SLD-Dashed
370
    18
100
AcDbLine
 10
3.7267800654
 20
7.1364285136
 30
0.0
 11
3.4954303252
 21
7.429465915
 31
0.0
  0
LINE
  5
1A2
330
1F
100
AcDbEntity
  8
SK3
  6
SLD-Dashed
370
    18
100
AcDbLine
 10
3.4954303252
 20
7.429465915
 30
0.0
 11
3.3471781417
 21
7.8390962726
 31
0.0
  0
LINE
  5
1A3
330
1F
100
AcDbEntity
  8
SK3
  6
SLD-Dashed
370
    18
100
AcDbLine
 10
3.3471781417
 20
7.8390962726
 30
0.0
 11
3.2940340251
 21
8.332133771
 31
0.0
  0
LINE
  5
1A4
330
1F
100
AcDbEntity
  8
SK3
  6
SLD-Dashed
370
    18
100
AcDbLine
 10
3.2940340251
 20
8.332133771
 30
0.0
 11
3.3403033958
 21
8.8686354442
 31
0.0
  0
LINE
  5
1A5
330
1F
100
AcDbEntity
  8
SK3
  6
SLD-Dashed
370
    18
100
AcDbLine
 10
3.3403033958
 20
8.8686354442
 30
0.0
 11
3.4822377844
 21
9.4051371175
 31
0.0
  0
LINE
  5
1A6
330
1F
100
AcDbEntity
  8
SK3
  6
SLD-Dashed
370
    18
100
AcDbLine
 10
3.4822377844
 20
9.4051371175
 30
0.0
 11
3.7083385109
 21
9.8981746158
 31
0.0
  0
LINE
  5
1A7
330
1F
100
AcDbEntity
  8
SK3
  6
SLD-Dashed
370
    18
100
AcDbLine
 10
3.7083385109
 20
9.8981746158
 30
0.0
 11
4.0002882392
 21
10.3078049734
 31
0.0
  0
LINE
  5
1A8
330
1F
100
AcDbEntity
  8
SK3
  6
SLD-Dashed
370
    18
100
AcDbLine
 10
4.0002882392
 20
10.3078049734
 30
0.0
 11
4.3344349385
 21
10.6008423748
 31
0.0
  0
LINE
  5
1A9
330
1F
100
AcDbEntity
  8
SK3
  6
SLD-Dashed
370
    18
100
AcDbLine
 10
4.3344349385
 20
10.6008423748
 30
0.0
 11
4.6837080306
 21
10.7535466726
 31
0.0
  0
LINE
  5
1AA
330
1F
100
AcDbEntity
  8
SK3
  6
SLD-Dashed
370
    18
100
AcDbLine
 10
4.6837080306
 20
10.7535466726
 30
0.0
 11
5.0198114866
 21
10.7535466726
 31
0.0
  0
LINE
  5
1AB
330
1F
100
AcDbEntity
  8
SK3
  6
SLD-Dashed
370
    18
100
AcDbLine
 10
5.0198114866
 20
10.7535466726
 30
0.0
 11
5.3155162035
 21
10.6008423748
 31
0.0
  0
LINE
  5
1AC
330
1F
100
AcDbEntity
  8
SK3
  6
SLD-Dashed
370
    18
100
AcDbLine
 10
5.3155162035
 20
10.6008423748
 30
0.0
 11
5.5468659438
 21
10.3078049734
 31
0.0
  0
LINE
  5
1AD
330
1F
100
AcDbEntity
  8
SK3
  6
SLD-Dashed
370
    18
100
AcDbLine
 10
5.5468659438
 20
10.3078049734
 30
0.0
 11
5.6951181273
 21
9.8981746158
 31
0.0
  0
LINE
  5
1AE
330
1F
100
AcDbEntity
  8
SK3
  6
SLD-Dashed
370
    18
100
AcDbLine
 10
5.6951181273
 20
9.8981746158
 30
0.0
 11
5.7482622438
 21
9.4051371175
 31
0.0
  0
LINE
  5
1AF
330
1F
100
AcDbEntity
  8
SK3
  6
SLD-Dashed
370
    18
100
AcDbLine
 10
5.7482622438
 20
9.4051371175
 30
0.0
 11
5.7019928732
 21
8.8686354442
 31
0.0
  0
LINE
  5
1B0
330
1F
100
AcDbEntity
  8
SK3
  6
SLD-Dashed
370
    18
100
AcDbLine
 10
16.3488925452
 20
5.9198440145
 30
0.0
 11
16.2069581565
 21
5.3833423412
 31
0.0
  0
LINE
  5
1B1
330
1F
100
AcDbEntity
  8
SK3
  6
SLD-Dashed
370
    18
100
AcDbLine
 10
16.2069581565
 20
5.3833423412
 30
0.0
 11
15.98085743
 21
4.8903048429
 31
0.0
  0
LINE
  5
1B2
330
1F
100
AcDbEntity
  8
SK3
  6
SLD-Dashed
370
    18
100
AcDbLine
 10
15.98085743
 20
4.8903048429
 30
0.0
 11
15.6889077017
 21
4.4806744853
 31
0.0
  0
LINE
  5
1B3
330
1F
100
AcDbEntity
  8
SK3
  6
SLD-Dashed
370
    18
100
AcDbLine
 10
15.6889077017
 20
4.4806744853
 30
0.0
 11
15.3547610024
 21
4.1876370839
 31
0.0
  0
LINE
  5
1B4
330
1F
100
AcDbEntity
  8
SK3
  6
SLD-Dashed
370
    18
100
AcDbLine
 10
15.3547610024
 20
4.1876370839
 30
0.0
 11
15.0054879103
 21
4.0349327861
 31
0.0
  0
LINE
  5
1B5
330
1F
100
AcDbEntity
  8
SK3
  6
SLD-Dashed
370
    18
100
AcDbLine
 10
15.0054879103
 20
4.0349327861
 30
0.0
 11
14.6693844543
 21
4.0349327861
 31
0.0
  0
LINE
  5
1B6
330
1F
100
AcDbEntity
  8
SK3
  6
SLD-Dashed
370
    18
100
AcDbLine
 10
14.6693844543
 20
4.0349327861
 30
0.0
 11
14.3736797374
 21
4.1876370839
 31
0.0
  0
LINE
  5
1B7
330
1F
100
AcDbEntity
  8
SK3
  6
SLD-Dashed
370
    18
100
AcDbLine
 10
14.3736797374
 20
4.1876370839
 30
0.0
 11
14.1423299972
 21
4.4806744853
 31
0.0
  0
LINE
  5
1B8
330
1F
100
AcDbEntity
  8
SK3
  6
SLD-Dashed
370
    18
100
AcDbLine
 10
14.1423299972
 20
4.4806744853
 30
0.0
 11
13.9940778136
 21
4.8903048429
 31
0.0
  0
LINE
  5
1B9
330
1F
100
AcDbEntity
  8
SK3
  6
SLD-Dashed
370
    18
100
AcDbLine
 10
13.9940778136
 20
4.8903048429
 30
0.0
 11
13.9409336971
 21
5.3833423412
 31
0.0
  0
LINE
  5
1BA
330
1F
100
AcDbEntity
  8
SK3
  6
SLD-Dashed
370
    18
100
AcDbLine
 10
13.9409336971
 20
5.3833423412
 30
0.0
 11
13.9872030677
 21
5.9198440145
 31
0.0
  0
LINE
  5
1BB
330
1F
100
AcDbEntity
  8
SK3
  6
SLD-Dashed
370
    18
100
AcDbLine
 10
13.9872030677
 20
5.9198440145
 30
0.0
 11
14.1291374563
 21
6.4563456877
 31
0.0
  0
LINE
  5
1BC
330
1F
100
AcDbEntity
  8
SK3
  6
SLD-Dashed
370
    18
100
AcDbLine
 10
14.1291374563
 20
6.4563456877
 30
0.0
 11
14.3552381829
 21
6.9493831861
 31
0.0
  0
LINE
  5
1BD
330
1F
100
AcDbEntity
  8
SK3
  6
SLD-Dashed
370
    18
100
AcDbLine
 10
14.3552381829
 20
6.9493831861
 30
0.0
 11
14.6471879112
 21
7.3590135437
 31
0.0
  0
LINE
  5
1BE
330
1F
100
AcDbEntity
  8
SK3
  6
SLD-Dashed
370
    18
100
AcDbLine
 10
14.6471879112
 20
7.3590135437
 30
0.0
 11
14.9813346105
 21
7.6520509451
 31
0.0
  0
LINE
  5
1BF
330
1F
100
AcDbEntity
  8
SK3
  6
SLD-Dashed
370
    18
100
AcDbLine
 10
14.9813346105
 20
7.6520509451
 30
0.0
 11
15.3306077025
 21
7.8047552428
 31
0.0
  0
LINE
  5
1C0
330
1F
100
AcDbEntity
  8
SK3
  6
SLD-Dashed
370
    18
100
AcDbLine
 10
15.3306077025
 20
7.8047552428
 30
0.0
 11
15.6667111586
 21
7.8047552428
 31
0.0
  0
LINE
  5
1C1
330
1F
100
AcDbEntity
  8
SK3
  6
SLD-Dashed
370
    18
100
AcDbLine
 10
15.6667111586
 20
7.8047552428
 30
0.0
 11
15.9624158755
 21
7.6520509451
 31
0.0
  0
LINE
  5
1C2
330
1F
100
AcDbEntity
  8
SK3
  6
SLD-Dashed
370
    18
100
AcDbLine
 10
15.9624158755
 20
7.6520509451
 30
0.0
 11
16.1937656157
 21
7.3590135437
 31
0.0
  0
LINE
  5
1C3
330
1F
100
AcDbEntity
  8
SK3
  6
SLD-Dashed
370
    18
100
AcDbLine
 10
16.1937656157
 20
7.3590135437
 30
0.0
 11
16.3420177992
 21
6.9493831861
 31
0.0
  0
LINE
  5
1C4
330
1F
100
AcDbEntity
  8
SK3
  6
SLD-Dashed
370
    18
100
AcDbLine
 10
16.3420177992
 20
6.9493831861
 30
0.0
 11
16.3951619158
 21
6.4563456877
 31
0.0
  0
LINE
  5
1C5
330
1F
100
AcDbEntity
  8
SK3
  6
SLD-Dashed
370
    18
100
AcDbLine
 10
16.3951619158
 20
6.4563456877
 30
0.0
 11
16.3488925452
 21
5.9198440145
 31
0.0
  0
LINE
  5
1C6
330
1F
100
AcDbEntity
  8
SK3
  6
SLD-Dashed
370
    18
100
AcDbLine
 10
7.5931633579
 20
-25.91022964
 30
0.0
 11
3.95
 21
-25.91022964
 31
0.0
  0
LINE
  5
1C7
330
1F
100
AcDbEntity
  8
SK3
  6
SLD-Dashed
370
    18
100
AcDbLine
 10
18.3
 20
-25.91022964
 30
0.0
 11
14.6368366421
 21
-25.91022964
 31
0.0
  0
LINE
  5
1C8
330
1F
100
AcDbEntity
  8
SK3
  6
SLD-Dashed
370
    18
100
AcDbLine
 10
9.2
 20
-22.1323292945
 30
0.0
 11
9.2
 21
-22.4133326462
 31
0.0
  0
LINE
  5
1C9
330
1F
100
AcDbEntity
  8
SK3
  6
SLD-Dashed
370
    18
100
AcDbLine
 10
13.03
 20
-22.4133326462
 30
0.0
 11
13.03
 21
-22.1323292945
 31
0.0
  0
LINE
  5
1CA
330
1F
100
AcDbEntity
  8
SK3
  6
SLD-Dashed
370
    18
100
AcDbLine
 10
12.28
 20
-21.1489361435
 30
0.0
 11
9.95
 21
-21.1489361435
 31
0.0
  0
LINE
  5
1CB
330
1F
100
AcDbEntity
  8
SK3
  6
SLD-Dashed
370
    18
100
AcDbLine
 10
19.05
 20
-18.85
 30
0.0
 11
19.05
 21
-24.9855458215
 31
0.0
  0
LINE
  5
1CC
330
1F
100
AcDbEntity
  8
SK3
  6
SLD-Dashed
370
    18
100
AcDbLine
 10
3.2
 20
-18.85
 30
0.0
 11
3.2
 21
-24.9855458215
 31
0.0
  0
LINE
  5
1CD
330
1F
100
AcDbEntity
  8
SK3
  6
SLD-Dashed
370
    18
100
AcDbLine
 10
19.05
 20
-18.35
 30
0.0
 11
3.2
 21
-18.35
 31
0.0
  0
LINE
  5
1CE
330
1F
100
AcDbEntity
  8
SK3
  6
SLD-Dashed
370
    18
100
AcDbLine
 10
19.05
 20
-18.85
 30
0.0
 11
19.05
 21
-18.35
 31
0.0
  0
LINE
  5
1CF
330
1F
100
AcDbEntity
  8
SK3
  6
SLD-Dashed
370
    18
100
AcDbLine
 10
3.2
 20
-18.35
 30
0.0
 11
3.2
 21
-18.85
 31
0.0
  0
LINE
  5
1D0
330
1F
100
AcDbEntity
  8
SK3
  6
SLD-Dashed
370
    18
100
AcDbLine
 10
3.95
 20
-18.35
 30
0.0
 11
7.5931633579
 21
-18.35
 31
0.0
  0
LINE
  5
1D1
330
1F
100
AcDbEntity
  8
SK3
  6
SLD-Dashed
370
    18
100
AcDbLine
 10
14.6368366421
 20
-18.35
 30
0.0
 11
18.3
 21
-18.35
 31
0.0
  0
LINE
  5
1D2
330
1F
100
AcDbEntity
  8
SK3
  6
SLD-Dashed
370
    18
100
AcDbLine
 10
9.95
 20
-18.35
 30
0.0
 11
12.28
 21
-18.35
 31
0.0
  0
LINE
  5
1D3
330
1F
100
AcDbEntity
  8
SK3
  6
SLD-Dashed
370
    18
100
AcDbLine
 10
5.7322709434
 20
8.8686354442
 30
0.0
 11
5.5866972115
 21
8.3183773178
 31
0.0
  0
LINE
  5
1D4
330
1F
100
AcDbEntity
  8
SK3
  6
SLD-Dashed
370
    18
100
AcDbLine
 10
5.5866972115
 20
8.3183773178
 30
0.0
 11
5.3547990304
 21
7.8126978323
 31
0.0
  0
LINE
  5
1D5
330
1F
100
AcDbEntity
  8
SK3
  6
SLD-Dashed
370
    18
100
AcDbLine
 10
5.3547990304
 20
7.8126978323
 30
0.0
 11
5.0553634117
 21
7.3925641322
 31
0.0
  0
LINE
  5
1D6
330
1F
100
AcDbEntity
  8
SK3
  6
SLD-Dashed
370
    18
100
AcDbLine
 10
5.0553634117
 20
7.3925641322
 30
0.0
 11
4.7126488483
 21
7.0920129513
 31
0.0
  0
LINE
  5
1D7
330
1F
100
AcDbEntity
  8
SK3
  6
SLD-Dashed
370
    18
100
AcDbLine
 10
4.7126488483
 20
7.0920129513
 30
0.0
 11
4.3544200359
 21
6.9353931587
 31
0.0
  0
LINE
  5
1D8
330
1F
100
AcDbEntity
  8
SK3
  6
SLD-Dashed
370
    18
100
AcDbLine
 10
4.3544200359
 20
6.9353931587
 30
0.0
 11
4.0096985426
 21
6.9353931587
 31
0.0
  0
LINE
  5
1D9
330
1F
100
AcDbEntity
  8
SK3
  6
SLD-Dashed
370
    18
100
AcDbLine
 10
4.0096985426
 20
6.9353931587
 30
0.0
 11
3.7064116534
 21
7.0920129513
 31
0.0
  0
LINE
  5
1DA
330
1F
100
AcDbEntity
  8
SK3
  6
SLD-Dashed
370
    18
100
AcDbLine
 10
3.7064116534
 20
7.0920129513
 30
0.0
 11
3.4691298685
 21
7.3925641322
 31
0.0
  0
LINE
  5
1DB
330
1F
100
AcDbEntity
  8
SK3
  6
SLD-Dashed
370
    18
100
AcDbLine
 10
3.4691298685
 20
7.3925641322
 30
0.0
 11
3.317076347
 21
7.8126978323
 31
0.0
  0
LINE
  5
1DC
330
1F
100
AcDbEntity
  8
SK3
  6
SLD-Dashed
370
    18
100
AcDbLine
 10
3.317076347
 20
7.8126978323
 30
0.0
 11
3.2625695608
 21
8.3183773178
 31
0.0
  0
LINE
  5
1DD
330
1F
100
AcDbEntity
  8
SK3
  6
SLD-Dashed
370
    18
100
AcDbLine
 10
3.2625695608
 20
8.3183773178
 30
0.0
 11
3.3100253255
 21
8.8686354442
 31
0.0
  0
LINE
  5
1DE
330
1F
100
AcDbEntity
  8
SK3
  6
SLD-Dashed
370
    18
100
AcDbLine
 10
3.3100253255
 20
8.8686354442
 30
0.0
 11
3.4555990574
 21
9.4188935706
 31
0.0
  0
LINE
  5
1DF
330
1F
100
AcDbEntity
  8
SK3
  6
SLD-Dashed
370
    18
100
AcDbLine
 10
3.4555990574
 20
9.4188935706
 30
0.0
 11
3.6874972385
 21
9.9245730561
 31
0.0
  0
LINE
  5
1E0
330
1F
100
AcDbEntity
  8
SK3
  6
SLD-Dashed
370
    18
100
AcDbLine
 10
3.6874972385
 20
9.9245730561
 30
0.0
 11
3.9869328573
 21
10.3447067562
 31
0.0
  0
LINE
  5
1E1
330
1F
100
AcDbEntity
  8
SK3
  6
SLD-Dashed
370
    18
100
AcDbLine
 10
3.9869328573
 20
10.3447067562
 30
0.0
 11
4.3296474207
 21
10.6452579372
 31
0.0
  0
LINE
  5
1E2
330
1F
100
AcDbEntity
  8
SK3
  6
SLD-Dashed
370
    18
100
AcDbLine
 10
4.3296474207
 20
10.6452579372
 30
0.0
 11
4.687876233
 21
10.8018777297
 31
0.0
  0
LINE
  5
1E3
330
1F
100
AcDbEntity
  8
SK3
  6
SLD-Dashed
370
    18
100
AcDbLine
 10
4.687876233
 20
10.8018777297
 30
0.0
 11
5.0325977264
 21
10.8018777297
 31
0.0
  0
LINE
  5
1E4
330
1F
100
AcDbEntity
  8
SK3
  6
SLD-Dashed
370
    18
100
AcDbLine
 10
5.0325977264
 20
10.8018777297
 30
0.0
 11
5.3358846155
 21
10.6452579372
 31
0.0
  0
LINE
  5
1E5
330
1F
100
AcDbEntity
  8
SK3
  6
SLD-Dashed
370
    18
100
AcDbLine
 10
5.3358846155
 20
10.6452579372
 30
0.0
 11
5.5731664004
 21
10.3447067562
 31
0.0
  0
LINE
  5
1E6
330
1F
100
AcDbEntity
  8
SK3
  6
SLD-Dashed
370
    18
100
AcDbLine
 10
5.5731664004
 20
10.3447067562
 30
0.0
 11
5.725219922
 21
9.9245730561
 31
0.0
  0
LINE
  5
1E7
330
1F
100
AcDbEntity
  8
SK3
  6
SLD-Dashed
370
    18
100
AcDbLine
 10
5.725219922
 20
9.9245730561
 30
0.0
 11
5.7797267082
 21
9.4188935706
 31
0.0
  0
LINE
  5
1E8
330
1F
100
AcDbEntity
  8
SK3
  6
SLD-Dashed
370
    18
100
AcDbLine
 10
5.7797267082
 20
9.4188935706
 30
0.0
 11
5.7322709434
 21
8.8686354442
 31
0.0
  0
LINE
  5
1E9
330
1F
100
AcDbEntity
  8
SK3
  6
SLD-Dashed
370
    18
100
AcDbLine
 10
3.2
 20
7.1668508159
 30
0.0
 11
3.2
 21
11.3022369236
 31
0.0
  0
LINE
  5
1EA
330
1F
100
AcDbEntity
  8
SK3
  6
SLD-Dashed
370
    18
100
AcDbLine
 10
3.2
 20
-11.3098348849
 30
0.0
 11
5.0549767861
 21
-10.7960759675
 31
0.0
  0
LINE
  5
1EB
330
1F
100
AcDbEntity
  8
SK3
  6
SLD-Dashed
370
    18
100
AcDbLine
 10
3.9873194828
 20
-6.941194921
 30
0.0
 11
3.2
 21
-7.1592528547
 31
0.0
  0
LINE
  5
1EC
330
1F
100
AcDbEntity
  8
SK3
  6
SLD-Dashed
370
    18
100
AcDbLine
 10
5.0416310698
 20
-10.7478899544
 30
0.0
 11
15.6885307418
 21
-7.7990985247
 31
0.0
  0
LINE
  5
1ED
330
1F
100
AcDbEntity
  8
SK3
  6
SLD-Dashed
370
    18
100
AcDbLine
 10
14.6475648711
 20
-4.0405895043
 30
0.0
 11
4.0006651991
 21
-6.989380934
 31
0.0
  0
LINE
  5
1EE
330
1F
100
AcDbEntity
  8
SK3
  6
SLD-Dashed
370
    18
100
AcDbLine
 10
-61.75
 20
-8.8
 30
0.0
 11
-59.75
 21
-8.8
 31
0.0
  0
LINE
  5
1EF
330
1F
100
AcDbEntity
  8
SK3
  6
SLD-Dashed
370
    18
100
AcDbLine
 10
-59.75
 20
8.8
 30
0.0
 11
-61.75
 21
8.8
 31
0.0
  0
LINE
  5
1F0
330
1F
100
AcDbEntity
  8
SK3
  6
SLD-Dashed
370
    18
100
AcDbLine
 10
-61.75
 20
8.8
 30
0.0
 11
-62.2696152423
 21
8.5
 31
0.0
  0
LINE
  5
1F1
330
1F
100
AcDbEntity
  8
SK3
  6
SLD-Dashed
370
    18
100
AcDbLine
 10
-62.2696152423
 20
-8.5
 30
0.0
 11
-61.75
 21
-8.8
 31
0.0
  0
LINE
  5
1F2
330
1F
100
AcDbEntity
  8
SK3
  6
SLD-Dashed
370
    18
100
AcDbLine
 10
-59.75
 20
-8.8
 30
0.0
 11
-58.7107695155
 21
-7.0
 31
0.0
  0
LINE
  5
1F3
330
1F
100
AcDbEntity
  8
SK3
  6
SLD-Dashed
370
    18
100
AcDbLine
 10
-58.7107695155
 20
7.0
 30
0.0
 11
-59.75
 21
8.8
 31
0.0
  0
LINE
  5
1F4
330
1F
100
AcDbEntity
  8
SK3
  6
SLD-Dashed
370
    18
100
AcDbLine
 10
121.0
 20
8.6442911166
 30
0.0
 11
88.5614479684
 21
8.6442911166
 31
0.0
  0
LINE
  5
1F5
330
1F
100
AcDbEntity
  8
SK3
  6
SLD-Dashed
370
    18
100
AcDbLine
 10
88.5627916361
 20
5.1442911166
 30
0.0
 11
121.0
 21
5.1442911166
 31
0.0
  0
LINE
  5
1F6
330
1F
100
AcDbEntity
  8
SK3
  6
SLD-Dashed
370
    18
100
AcDbLine
 10
85.4383122547
 20
8.6442911166
 30
0.0
 11
84.0
 21
8.6442911166
 31
0.0
  0
LINE
  5
1F7
330
1F
100
AcDbEntity
  8
SK3
  6
SLD-Dashed
370
    18
100
AcDbLine
 10
84.0
 20
5.1442911166
 30
0.0
 11
85.4323803979
 21
5.1442911166
 31
0.0
  0
LINE
  5
1F8
330
1F
100
AcDbEntity
  8
SK3
  6
SLD-Dashed
370
    18
100
AcDbLine
 10
84.0
 20
8.6442911166
 30
0.0
 11
82.9484939167
 21
6.8942911166
 31
0.0
  0
LINE
  5
1F9
330
1F
100
AcDbEntity
  8
SK3
  6
SLD-Dashed
370
    18
100
AcDbLine
 10
82.9484939167
 20
6.8942911166
 30
0.0
 11
84.0
 21
5.1442911166
 31
0.0
  0
LINE
  5
1FA
330
1F
100
AcDbEntity
  8
SK3
  6
SLD-Dashed
370
    18
100
AcDbLine
 10
121.0
 20
-5.1442911166
 30
0.0
 11
88.5699223562
 21
-5.1442911166
 31
0.0
  0
LINE
  5
1FB
330
1F
100
AcDbEntity
  8
SK3
  6
SLD-Dashed
370
    18
100
AcDbLine
 10
88.5708887123
 20
-8.6442911166
 30
0.0
 11
121.0
 21
-8.6442911166
 31
0.0
  0
LINE
  5
1FC
330
1F
100
AcDbEntity
  8
SK3
  6
SLD-Dashed
370
    18
100
AcDbLine
 10
85.4309358309
 20
-5.1442911166
 30
0.0
 11
84.0
 21
-5.1442911166
 31
0.0
  0
LINE
  5
1FD
330
1F
100
AcDbEntity
  8
SK3
  6
SLD-Dashed
370
    18
100
AcDbLine
 10
84.0
 20
-8.6442911166
 30
0.0
 11
85.4293614276
 21
-8.6442911166
 31
0.0
  0
LINE
  5
1FE
330
1F
100
AcDbEntity
  8
SK3
  6
SLD-Dashed
370
    18
100
AcDbLine
 10
84.0
 20
-5.1442911166
 30
0.0
 11
82.9484939167
 21
-6.8942911166
 31
0.0
  0
LINE
  5
1FF
330
1F
100
AcDbEntity
  8
SK3
  6
SLD-Dashed
370
    18
100
AcDbLine
 10
82.9484939167
 20
-6.8942911166
 30
0.0
 11
84.0
 21
-8.6442911166
 31
0.0
  0
LINE
  5
200
330
1F
100
AcDbEntity
  8
SK3
  6
SLD-Dashed
370
    18
100
AcDbLine
 10
-66.9509618943
 20
-8.5
 30
0.0
 11
-62.2696152423
 21
-8.5
 31
0.0
  0
LINE
  5
201
330
1F
100
AcDbEntity
  8
SK3
  6
SLD-Dashed
370
    18
100
AcDbLine
 10
-62.2696152423
 20
8.5
 30
0.0
 11
-66.9509618943
 21
8.5
 31
0.0
  0
LINE
  5
202
330
1F
100
AcDbEntity
  8
SK3
  6
SLD-Dashed
370
    18
100
AcDbLine
 10
28.2
 20
22.6
 30
0.0
 11
28.2
 21
24.0
 31
0.0
  0
LINE
  5
203
330
1F
100
AcDbEntity
  8
SK3
  6
SLD-Dashed
370
    18
100
AcDbLine
 10
121.0
 20
7.6547005384
 30
0.0
 11
119.0
 21
6.5
 31
0.0
  0
LINE
  5
204
330
1F
100
AcDbEntity
  8
SK3
  6
SLD-Dashed
370
    18
100
AcDbLine
 10
119.0
 20
-6.5
 30
0.0
 11
121.0
 21
-7.6547005384
 31
0.0
  0
LINE
  5
205
330
1F
100
AcDbEntity
  8
SK3
  6
SLD-Dashed
370
    18
100
AcDbLine
 10
-58.7107695155
 20
-7.0
 30
0.0
 11
23.75
 21
-7.0
 31
0.0
  0
LINE
  5
206
330
1F
100
AcDbEntity
  8
SK3
  6
SLD-Dashed
370
    18
100
AcDbLine
 10
23.75
 20
7.0
 30
0.0
 11
-58.7107695155
 21
7.0
 31
0.0
  0
LINE
  5
207
330
1F
100
AcDbEntity
  8
SK3
  6
SLD-Dashed
370
    18
100
AcDbLine
 10
23.75
 20
-7.0
 30
0.0
 11
24.8916351762
 21
-5.1
 31
0.0
  0
LINE
  5
208
330
1F
100
AcDbEntity
  8
SK3
  6
SLD-Dashed
370
    18
100
AcDbLine
 10
24.8916351762
 20
5.1
 30
0.0
 11
23.75
 21
7.0
 31
0.0
  0
LINE
  5
209
330
1F
100
AcDbEntity
  8
SK3
  6
SLD-Dashed
370
    18
100
AcDbLine
 10
115.5
 20
6.5
 30
0.0
 11
114.6587951334
 21
5.1
 31
0.0
  0
LINE
  5
20A
330
1F
100
AcDbEntity
  8
SK3
  6
SLD-Dashed
370
    18
100
AcDbLine
 10
114.6587951334
 20
-5.1
 30
0.0
 11
115.5
 21
-6.5
 31
0.0
  0
LINE
  5
20B
330
1F
100
AcDbEntity
  8
SK3
  6
SLD-Dashed
370
    18
100
AcDbLine
 10
119.0
 20
6.5
 30
0.0
 11
115.5
 21
6.5
 31
0.0
  0
LINE
  5
20C
330
1F
100
AcDbEntity
  8
SK3
  6
SLD-Dashed
370
    18
100
AcDbLine
 10
115.5
 20
-6.5
 30
0.0
 11
119.0
 21
-6.5
 31
0.0
  0
LINE
  5
20D
330
1F
100
AcDbEntity
  8
SK3
  6
SLD-Dashed
370
    18
100
AcDbLine
 10
114.6587951334
 20
5.1
 30
0.0
 11
24.8916351762
 21
5.1
 31
0.0
  0
LINE
  5
20E
330
1F
100
AcDbEntity
  8
SK3
  6
SLD-Dashed
370
    18
100
AcDbLine
 10
24.8916351762
 20
-5.1
 30
0.0
 11
114.6587951334
 21
-5.1
 31
0.0
  0
LINE
  5
20F
330
1F
100
AcDbEntity
  8
SK3
  6
SLD-Dashed
370
    18
100
AcDbLine
 10
16.1
 20
-24.8
 30
0.0
 11
16.1
 21
-20.3
 31
0.0
  0
LINE
  5
210
330
1F
100
AcDbEntity
  8
SK3
  6
SLD-Dashed
370
    18
100
AcDbLine
 10
6.1
 20
-20.3
 30
0.0
 11
6.1
 21
-24.8
 31
0.0
  0
LINE
  5
211
330
1F
100
AcDbEntity
  8
SK3
  6
SLD-Dashed
370
    18
100
AcDbLine
 10
121.0
 20
8.6442911166
 30
0.0
 11
88.5676196021
 21
8.6442911166
 31
0.0
  0
LINE
  5
212
330
1F
100
AcDbEntity
  8
SK3
  6
SLD-Dashed
370
    18
100
AcDbLine
 10
88.5616877453
 20
5.1442911166
 30
0.0
 11
88.5627916361
 21
5.1442911166
 31
0.0
  0
LINE
  5
213
330
1F
100
AcDbEntity
  8
SK3
  6
SLD-Dashed
370
    18
100
AcDbLine
 10
85.4372083639
 20
8.6442911166
 30
0.0
 11
84.0
 21
8.6442911166
 31
0.0
  0
LINE
  5
214
330
1F
100
AcDbEntity
  8
SK3
  6
SLD-Dashed
370
    18
100
AcDbLine
 10
85.4323803979
 20
5.1442911166
 30
0.0
 11
85.4385520316
 21
5.1442911166
 31
0.0
  0
LINE
  5
215
330
1F
100
AcDbEntity
  8
SK3
  6
SLD-Dashed
370
    18
100
AcDbLine
 10
84.0
 20
8.6442911166
 30
0.0
 11
82.9484939167
 21
6.8942911166
 31
0.0
  0
LINE
  5
216
330
1F
100
AcDbEntity
  8
SK3
  6
SLD-Dashed
370
    18
100
AcDbLine
 10
82.9484939167
 20
6.8942911166
 30
0.0
 11
84.0
 21
5.1442911166
 31
0.0
  0
LINE
  5
217
330
1F
100
AcDbEntity
  8
SK3
  6
SLD-Dashed
370
    18
100
AcDbLine
 10
121.0
 20
-5.1442911166
 30
0.0
 11
88.5706385724
 21
-5.1442911166
 31
0.0
  0
LINE
  5
218
330
1F
100
AcDbEntity
  8
SK3
  6
SLD-Dashed
370
    18
100
AcDbLine
 10
88.5690641691
 20
-8.6442911166
 30
0.0
 11
88.5708887123
 21
-8.6442911166
 31
0.0
  0
LINE
  5
219
330
1F
100
AcDbEntity
  8
SK3
  6
SLD-Dashed
370
    18
100
AcDbLine
 10
85.4291112877
 20
-5.1442911166
 30
0.0
 11
84.0
 21
-5.1442911166
 31
0.0
  0
LINE
  5
21A
330
1F
100
AcDbEntity
  8
SK3
  6
SLD-Dashed
370
    18
100
AcDbLine
 10
85.4293614276
 20
-8.6442911166
 30
0.0
 11
85.4300776438
 21
-8.6442911166
 31
0.0
  0
LINE
  5
21B
330
1F
100
AcDbEntity
  8
SK3
  6
SLD-Dashed
370
    18
100
AcDbLine
 10
84.0
 20
-5.1442911166
 30
0.0
 11
82.9484939167
 21
-6.8942911166
 31
0.0
  0
LINE
  5
21C
330
1F
100
AcDbEntity
  8
SK3
  6
SLD-Dashed
370
    18
100
AcDbLine
 10
82.9484939167
 20
-6.8942911166
 30
0.0
 11
84.0
 21
-8.6442911166
 31
0.0
  0
LINE
  5
21D
330
1F
100
AcDbEntity
  8
SK3
  6
SLD-Dashed
370
    18
100
AcDbLine
 10
4.0006651991
 20
6.989380934
 30
0.0
 11
14.6475648711
 21
4.0405895043
 31
0.0
  0
LINE
  5
21E
330
1F
100
AcDbEntity
  8
SK3
  6
SLD-Dashed
370
    18
100
AcDbLine
 10
15.6885307418
 20
7.7990985247
 30
0.0
 11
5.0416310698
 21
10.7478899544
 31
0.0
  0
LINE
  5
21F
330
1F
100
AcDbEntity
  8
SK3
  6
SLD-Dashed
370
    18
100
AcDbLine
 10
3.2
 20
7.1592528547
 30
0.0
 11
3.9873194828
 21
6.941194921
 31
0.0
  0
LINE
  5
220
330
1F
100
AcDbEntity
  8
SK3
  6
SLD-Dashed
370
    18
100
AcDbLine
 10
5.0549767861
 20
10.7960759675
 30
0.0
 11
3.2
 21
11.3098348849
 31
0.0
  0
LINE
  5
221
330
1F
100
AcDbEntity
  8
SK3
  6
SLD-Dashed
370
    18
100
AcDbLine
 10
88.5627916361
 20
5.1442911166
 30
0.0
 11
121.0
 21
5.1442911166
 31
0.0
  0
LINE
  5
222
330
1F
100
AcDbEntity
  8
SK3
  6
SLD-Dashed
370
    18
100
AcDbLine
 10
84.0
 20
5.1442911166
 30
0.0
 11
85.4323803979
 21
5.1442911166
 31
0.0
  0
LINE
  5
223
330
1F
100
AcDbEntity
  8
SK3
  6
SLD-Dashed
370
    18
100
AcDbLine
 10
88.5708887123
 20
-8.6442911166
 30
0.0
 11
121.0
 21
-8.6442911166
 31
0.0
  0
LINE
  5
224
330
1F
100
AcDbEntity
  8
SK3
  6
SLD-Dashed
370
    18
100
AcDbLine
 10
84.0
 20
-8.6442911166
 30
0.0
 11
85.4293614276
 21
-8.6442911166
 31
0.0
  0
LINE
  5
225
330
1F
100
AcDbEntity
  8
SK3
  6
SLD-Solid
370
    18
100
AcDbLine
 10
-35.25
 20
8.0
 30
0.0
 11
-59.2881197846
 21
8.0
 31
0.0
  0
LINE
  5
226
330
1F
100
AcDbEntity
  8
SK3
  6
SLD-Solid
370
    18
100
AcDbLine
 10
-59.2881197846
 20
-8.0
 30
0.0
 11
-35.25
 21
-8.0
 31
0.0
  0
LINE
  5
227
330
1F
100
AcDbEntity
  8
SK3
  6
SLD-Solid
370
    18
100
AcDbLine
 10
-35.25
 20
8.0
 30
0.0
 11
-35.25
 21
7.9711799083
 31
0.0
  0
LINE
  5
228
330
1F
100
AcDbEntity
  8
SK3
  6
SLD-Solid
370
    18
100
AcDbLine
 10
-35.25
 20
8.0
 30
0.0
 11
-35.25
 21
7.9711799083
 31
0.0
  0
LINE
  5
229
330
1F
100
AcDbEntity
  8
SK3
  6
SLD-Solid
370
    18
100
AcDbLine
 10
-35.25
 20
7.9711799083
 30
0.0
 11
-35.25
 21
7.7418635755
 31
0.0
  0
LINE
  5
22A
330
1F
100
AcDbEntity
  8
SK3
  6
SLD-Solid
370
    18
100
AcDbLine
 10
-35.25
 20
7.7418635755
 30
0.0
 11
-35.25
 21
7.2898279231
 31
0.0
  0
LINE
  5
22B
330
1F
100
AcDbEntity
  8
SK3
  6
SLD-Solid
370
    18
100
AcDbLine
 10
-35.25
 20
7.2898279231
 30
0.0
 11
-35.25
 21
6.6280771939
 31
0.0
  0
LINE
  5
22C
330
1F
100
AcDbEntity
  8
SK3
  6
SLD-Solid
370
    18
100
AcDbLine
 10
-35.25
 20
6.6280771939
 30
0.0
 11
-35.25
 21
5.7756487516
 31
0.0
  0
LINE
  5
22D
330
1F
100
AcDbEntity
  8
SK3
  6
SLD-Solid
370
    18
100
AcDbLine
 10
-35.25
 20
5.7756487516
 30
0.0
 11
-35.25
 21
4.7570654104
 31
0.0
  0
LINE
  5
22E
330
1F
100
AcDbEntity
  8
SK3
  6
SLD-Solid
370
    18
100
AcDbLine
 10
-35.25
 20
4.7570654104
 30
0.0
 11
-35.25
 21
3.6016299585
 31
0.0
  0
LINE
  5
22F
330
1F
100
AcDbEntity
  8
SK3
  6
SLD-Solid
370
    18
100
AcDbLine
 10
-35.25
 20
3.6016299585
 30
0.0
 11
-35.25
 21
2.3425821702
 31
0.0
  0
LINE
  5
230
330
1F
100
AcDbEntity
  8
SK3
  6
SLD-Solid
370
    18
100
AcDbLine
 10
-35.25
 20
2.3425821702
 30
0.0
 11
-35.25
 21
1.016142558
 31
0.0
  0
LINE
  5
231
330
1F
100
AcDbEntity
  8
SK3
  6
SLD-Solid
370
    18
100
AcDbLine
 10
-35.25
 20
1.016142558
 30
0.0
 11
-35.25
 21
-0.3395296256
 31
0.0
  0
LINE
  5
232
330
1F
100
AcDbEntity
  8
SK3
  6
SLD-Solid
370
    18
100
AcDbLine
 10
-35.25
 20
-0.3395296256
 30
0.0
 11
-35.25
 21
-1.68543416
 31
0.0
  0
LINE
  5
233
330
1F
100
AcDbEntity
  8
SK3
  6
SLD-Solid
370
    18
100
AcDbLine
 10
-35.25
 20
-1.68543416
 30
0.0
 11
-35.25
 21
-2.9828518222
 31
0.0
  0
LINE
  5
234
330
1F
100
AcDbEntity
  8
SK3
  6
SLD-Solid
370
    18
100
AcDbLine
 10
-35.25
 20
-2.9828518222
 30
0.0
 11
-35.25
 21
-4.1944582685
 31
0.0
  0
LINE
  5
235
330
1F
100
AcDbEntity
  8
SK3
  6
SLD-Solid
370
    18
100
AcDbLine
 10
-35.25
 20
-4.1944582685
 30
0.0
 11
-35.25
 21
-5.2853977871
 31
0.0
  0
LINE
  5
236
330
1F
100
AcDbEntity
  8
SK3
  6
SLD-Solid
370
    18
100
AcDbLine
 10
-35.25
 20
-5.2853977871
 30
0.0
 11
-35.25
 21
-6.2242860345
 31
0.0
  0
LINE
  5
237
330
1F
100
AcDbEntity
  8
SK3
  6
SLD-Solid
370
    18
100
AcDbLine
 10
-35.25
 20
-6.2242860345
 30
0.0
 11
-35.25
 21
-6.9841129053
 31
0.0
  0
LINE
  5
238
330
1F
100
AcDbEntity
  8
SK3
  6
SLD-Solid
370
    18
100
AcDbLine
 10
-35.25
 20
-6.9841129053
 30
0.0
 11
-35.25
 21
-7.5430195637
 31
0.0
  0
LINE
  5
239
330
1F
100
AcDbEntity
  8
SK3
  6
SLD-Solid
370
    18
100
AcDbLine
 10
-35.25
 20
-7.5430195637
 30
0.0
 11
-35.25
 21
-7.8849272828
 31
0.0
  0
LINE
  5
23A
330
1F
100
AcDbEntity
  8
SK3
  6
SLD-Solid
370
    18
100
AcDbLine
 10
-35.25
 20
-7.8849272828
 30
0.0
 11
-35.25
 21
-8.0
 31
0.0
  0
LINE
  5
23B
330
1F
100
AcDbEntity
  8
SK3
  6
SLD-Solid
370
    18
100
AcDbLine
 10
-35.25
 20
7.9711799083
 30
0.0
 11
-35.25
 21
7.7418635755
 31
0.0
  0
LINE
  5
23C
330
1F
100
AcDbEntity
  8
SK3
  6
SLD-Solid
370
    18
100
AcDbLine
 10
-35.25
 20
7.7418635755
 30
0.0
 11
-35.25
 21
7.2898279231
 31
0.0
  0
LINE
  5
23D
330
1F
100
AcDbEntity
  8
SK3
  6
SLD-Solid
370
    18
100
AcDbLine
 10
-35.25
 20
7.2898279231
 30
0.0
 11
-35.25
 21
6.6280771939
 31
0.0
  0
LINE
  5
23E
330
1F
100
AcDbEntity
  8
SK3
  6
SLD-Solid
370
    18
100
AcDbLine
 10
-35.25
 20
6.6280771939
 30
0.0
 11
-35.25
 21
5.7756487516
 31
0.0
  0
LINE
  5
23F
330
1F
100
AcDbEntity
  8
SK3
  6
SLD-Solid
370
    18
100
AcDbLine
 10
-35.25
 20
5.7756487516
 30
0.0
 11
-35.25
 21
4.7570654104
 31
0.0
  0
LINE
  5
240
330
1F
100
AcDbEntity
  8
SK3
  6
SLD-Solid
370
    18
100
AcDbLine
 10
-35.25
 20
4.7570654104
 30
0.0
 11
-35.25
 21
3.6016299585
 31
0.0
  0
LINE
  5
241
330
1F
100
AcDbEntity
  8
SK3
  6
SLD-Solid
370
    18
100
AcDbLine
 10
-35.25
 20
3.6016299585
 30
0.0
 11
-35.25
 21
2.3425821702
 31
0.0
  0
LINE
  5
242
330
1F
100
AcDbEntity
  8
SK3
  6
SLD-Solid
370
    18
100
AcDbLine
 10
-35.25
 20
2.3425821702
 30
0.0
 11
-35.25
 21
1.016142558
 31
0.0
  0
LINE
  5
243
330
1F
100
AcDbEntity
  8
SK3
  6
SLD-Solid
370
    18
100
AcDbLine
 10
-35.25
 20
1.016142558
 30
0.0
 11
-35.25
 21
-0.3395296256
 31
0.0
  0
LINE
  5
244
330
1F
100
AcDbEntity
  8
SK3
  6
SLD-Solid
370
    18
100
AcDbLine
 10
-35.25
 20
-0.3395296256
 30
0.0
 11
-35.25
 21
-1.68543416
 31
0.0
  0
LINE
  5
245
330
1F
100
AcDbEntity
  8
SK3
  6
SLD-Solid
370
    18
100
AcDbLine
 10
-35.25
 20
-1.68543416
 30
0.0
 11
-35.25
 21
-2.9828518222
 31
0.0
  0
LINE
  5
246
330
1F
100
AcDbEntity
  8
SK3
  6
SLD-Solid
370
    18
100
AcDbLine
 10
-35.25
 20
-2.9828518222
 30
0.0
 11
-35.25
 21
-4.1944582685
 31
0.0
  0
LINE
  5
247
330
1F
100
AcDbEntity
  8
SK3
  6
SLD-Solid
370
    18
100
AcDbLine
 10
-35.25
 20
-4.1944582685
 30
0.0
 11
-35.25
 21
-5.2853977871
 31
0.0
  0
LINE
  5
248
330
1F
100
AcDbEntity
  8
SK3
  6
SLD-Solid
370
    18
100
AcDbLine
 10
-35.25
 20
-5.2853977871
 30
0.0
 11
-35.25
 21
-6.2242860345
 31
0.0
  0
LINE
  5
249
330
1F
100
AcDbEntity
  8
SK3
  6
SLD-Solid
370
    18
100
AcDbLine
 10
-35.25
 20
-6.2242860345
 30
0.0
 11
-35.25
 21
-6.9841129053
 31
0.0
  0
LINE
  5
24A
330
1F
100
AcDbEntity
  8
SK3
  6
SLD-Solid
370
    18
100
AcDbLine
 10
-35.25
 20
-6.9841129053
 30
0.0
 11
-35.25
 21
-7.5430195637
 31
0.0
  0
LINE
  5
24B
330
1F
100
AcDbEntity
  8
SK3
  6
SLD-Solid
370
    18
100
AcDbLine
 10
-35.25
 20
-7.5430195637
 30
0.0
 11
-35.25
 21
-7.8849272828
 31
0.0
  0
LINE
  5
24C
330
1F
100
AcDbEntity
  8
SK3
  6
SLD-Solid
370
    18
100
AcDbLine
 10
-35.25
 20
-7.8849272828
 30
0.0
 11
-35.25
 21
-8.0
 31
0.0
  0
LINE
  5
24D
330
1F
100
AcDbEntity
  8
SK3
  6
SLD-Solid
370
    18
100
AcDbLine
 10
89.0
 20
-6.0
 30
0.0
 11
115.1995696905
 21
-6.0
 31
0.0
  0
LINE
  5
24E
330
1F
100
AcDbEntity
  8
SK3
  6
SLD-Solid
370
    18
100
AcDbLine
 10
115.1995696905
 20
6.0
 30
0.0
 11
89.0
 21
6.0
 31
0.0
  0
LINE
  5
24F
330
1F
100
AcDbEntity
  8
SK3
  6
SLD-Solid
370
    18
100
AcDbLine
 10
89.0
 20
5.6574326061
 30
0.0
 11
89.0
 21
5.8847116824
 31
0.0
  0
LINE
  5
250
330
1F
100
AcDbEntity
  8
SK3
  6
SLD-Solid
370
    18
100
AcDbLine
 10
89.0
 20
5.8847116824
 30
0.0
 11
89.0
 21
6.0
 31
0.0
  0
LINE
  5
251
330
1F
100
AcDbEntity
  8
SK3
  6
SLD-Solid
370
    18
100
AcDbLine
 10
89.0
 20
-6.0
 30
0.0
 11
89.0
 21
-5.8847116824
 31
0.0
  0
LINE
  5
252
330
1F
100
AcDbEntity
  8
SK3
  6
SLD-Solid
370
    18
100
AcDbLine
 10
89.0
 20
-5.8847116824
 30
0.0
 11
89.0
 21
-5.6600332833
 31
0.0
  0
LINE
  5
253
330
1F
100
AcDbEntity
  8
SK3
  6
SLD-Solid
370
    18
100
AcDbLine
 10
89.0
 20
-6.0
 30
0.0
 11
89.0
 21
-5.8847116824
 31
0.0
  0
LINE
  5
254
330
1F
100
AcDbEntity
  8
SK3
  6
SLD-Solid
370
    18
100
AcDbLine
 10
89.0
 20
5.1
 30
0.0
 11
89.0
 21
5.0020049301
 31
0.0
  0
LINE
  5
255
330
1F
100
AcDbEntity
  8
SK3
  6
SLD-Solid
370
    18
100
AcDbLine
 10
89.0
 20
5.6609953536
 30
0.0
 11
89.0
 21
5.8847116824
 31
0.0
  0
LINE
  5
256
330
1F
100
AcDbEntity
  8
SK3
  6
SLD-Solid
370
    18
100
AcDbLine
 10
89.0
 20
5.8847116824
 30
0.0
 11
89.0
 21
6.0
 31
0.0
  0
LINE
  5
257
330
1F
100
AcDbEntity
  8
SK3
  6
SLD-Solid
370
    18
100
AcDbLine
 10
88.9999843782
 20
-4.2426406871
 30
0.0
 11
89.0
 21
-3.3334213981
 31
0.0
  0
LINE
  5
258
330
1F
100
AcDbEntity
  8
SK3
  6
SLD-Solid
370
    18
100
AcDbLine
 10
89.0
 20
-3.3334213981
 30
0.0
 11
89.0
 21
-2.2961005942
 31
0.0
  0
LINE
  5
259
330
1F
100
AcDbEntity
  8
SK3
  6
SLD-Solid
370
    18
100
AcDbLine
 10
89.0
 20
-2.2961005942
 30
0.0
 11
89.0
 21
-1.1705419321
 31
0.0
  0
LINE
  5
25A
330
1F
100
AcDbEntity
  8
SK3
  6
SLD-Solid
370
    18
100
AcDbLine
 10
89.0
 20
-1.1705419321
 30
0.0
 11
89.0
 21
0.0
 31
0.0
  0
LINE
  5
25B
330
1F
100
AcDbEntity
  8
SK3
  6
SLD-Solid
370
    18
100
AcDbLine
 10
89.0
 20
0.0
 30
0.0
 11
89.0
 21
1.1705419321
 31
0.0
  0
LINE
  5
25C
330
1F
100
AcDbEntity
  8
SK3
  6
SLD-Solid
370
    18
100
AcDbLine
 10
89.0
 20
1.1705419321
 30
0.0
 11
89.0
 21
2.2961005942
 31
0.0
  0
LINE
  5
25D
330
1F
100
AcDbEntity
  8
SK3
  6
SLD-Solid
370
    18
100
AcDbLine
 10
89.0
 20
2.2961005942
 30
0.0
 11
89.0
 21
3.3334213981
 31
0.0
  0
LINE
  5
25E
330
1F
100
AcDbEntity
  8
SK3
  6
SLD-Solid
370
    18
100
AcDbLine
 10
89.0
 20
3.3334213981
 30
0.0
 11
89.0
 21
4.2426406871
 31
0.0
  0
LINE
  5
25F
330
1F
100
AcDbEntity
  8
SK3
  6
SLD-Solid
370
    18
100
AcDbLine
 10
88.9999843782
 20
-4.2426406871
 30
0.0
 11
89.0
 21
-3.3334213981
 31
0.0
  0
LINE
  5
260
330
1F
100
AcDbEntity
  8
SK3
  6
SLD-Solid
370
    18
100
AcDbLine
 10
89.0
 20
-3.3334213981
 30
0.0
 11
89.0
 21
-2.2961005942
 31
0.0
  0
LINE
  5
261
330
1F
100
AcDbEntity
  8
SK3
  6
SLD-Solid
370
    18
100
AcDbLine
 10
89.0
 20
-2.2961005942
 30
0.0
 11
89.0
 21
-1.1705419321
 31
0.0
  0
LINE
  5
262
330
1F
100
AcDbEntity
  8
SK3
  6
SLD-Solid
370
    18
100
AcDbLine
 10
89.0
 20
-1.1705419321
 30
0.0
 11
89.0
 21
0.0
 31
0.0
  0
LINE
  5
263
330
1F
100
AcDbEntity
  8
SK3
  6
SLD-Solid
370
    18
100
AcDbLine
 10
89.0
 20
0.0
 30
0.0
 11
89.0
 21
1.1705419321
 31
0.0
  0
LINE
  5
264
330
1F
100
AcDbEntity
  8
SK3
  6
SLD-Solid
370
    18
100
AcDbLine
 10
89.0
 20
1.1705419321
 30
0.0
 11
89.0
 21
2.2961005942
 31
0.0
  0
LINE
  5
265
330
1F
100
AcDbEntity
  8
SK3
  6
SLD-Solid
370
    18
100
AcDbLine
 10
89.0
 20
2.2961005942
 30
0.0
 11
89.0
 21
3.3334213981
 31
0.0
  0
LINE
  5
266
330
1F
100
AcDbEntity
  8
SK3
  6
SLD-Solid
370
    18
100
AcDbLine
 10
89.0
 20
3.3334213981
 30
0.0
 11
89.0
 21
4.2426406871
 31
0.0
  0
LINE
  5
267
330
1F
100
AcDbEntity
  8
SK3
  6
SLD-Solid
370
    18
100
AcDbLine
 10
88.9999843782
 20
-5.8847116824
 30
0.0
 11
89.0
 21
-5.5432771951
 31
0.0
  0
LINE
  5
268
330
1F
100
AcDbEntity
  8
SK3
  6
SLD-Solid
370
    18
100
AcDbLine
 10
89.0
 20
-5.5432771951
 30
0.0
 11
89.0
 21
-4.9888176738
 31
0.0
  0
LINE
  5
269
330
1F
100
AcDbEntity
  8
SK3
  6
SLD-Solid
370
    18
100
AcDbLine
 10
89.0
 20
-4.9888176738
 30
0.0
 11
89.0
 21
-4.2426406871
 31
0.0
  0
LINE
  5
26A
330
1F
100
AcDbEntity
  8
SK3
  6
SLD-Solid
370
    18
100
AcDbLine
 10
88.9999843782
 20
5.0020049301
 30
0.0
 11
89.0
 21
4.7117856158
 31
0.0
  0
LINE
  5
26B
330
1F
100
AcDbEntity
  8
SK3
  6
SLD-Solid
370
    18
100
AcDbLine
 10
89.0
 20
4.7117856158
 30
0.0
 11
89.0
 21
4.2404950227
 31
0.0
  0
LINE
  5
26C
330
1F
100
AcDbEntity
  8
SK3
  6
SLD-Solid
370
    18
100
AcDbLine
 10
89.0
 20
4.2404950227
 30
0.0
 11
89.0
 21
3.6062445841
 31
0.0
  0
LINE
  5
26D
330
1F
100
AcDbEntity
  8
4
  6
SLD-Center
370
    18
100
AcDbLine
 10
120.0785780629
 20
0.0
 30
0.0
 11
0.3742477922
 21
0.0
 31
0.0
  0
LINE
  5
26E
330
1F
100
AcDbEntity
  8
SK4
  6
SLD-Center
370
    18
100
AcDbLine
 10
121.7971452868
 20
0.0
 30
0.0
 11
-68.9509618943
 21
0.0
 31
0.0
  0
ARC
  5
26F
330
1F
100
AcDbEntity
  8
SK1
  6
SLD-Solid
370
    25
100
AcDbCircle
 10
129.4052655701
 20
7.7
 30
0.0
 40
0.3000000000000114
100
AcDbArc
 50
90.0
 51
180.0
  0
ARC
  5
270
330
1F
100
AcDbEntity
  8
SK1
  6
SLD-Solid
370
    25
100
AcDbCircle
 10
129.4052655701
 20
-7.7
 30
0.0
 40
0.2999999999999945
100
AcDbArc
 50
180.0
 51
270.0
  0
ARC
  5
271
330
1F
100
AcDbEntity
  8
1
  6
SLD-Solid
370
    25
100
AcDbCircle
 10
99.0
 20
-29.0
 30
0.0
 40
0.9999999999996874
100
AcDbArc
 50
270.0
 51
0.0000000006
  0
ARC
  5
272
330
1F
100
AcDbEntity
  8
1
  6
SLD-Solid
370
    25
100
AcDbCircle
 10
99.0
 20
29.0
 30
0.0
 40
1.000000000000437
100
AcDbArc
 50
0.0000000006
 51
90.0
  0
ARC
  5
273
330
1F
100
AcDbEntity
  8
1
  6
SLD-Solid
370
    25
100
AcDbCircle
 10
36.05
 20
29.0
 30
0.0
 40
1.000000000000767
100
AcDbArc
 50
90.0
 51
180.0
  0
ARC
  5
274
330
1F
100
AcDbEntity
  8
1
  6
SLD-Solid
370
    25
100
AcDbCircle
 10
36.05
 20
-29.0
 30
0.0
 40
1.000000000000291
100
AcDbArc
 50
180.0
 51
270.0
  0
ARC
  5
275
330
1F
100
AcDbEntity
  8
1
  6
SLD-Solid
370
    25
100
AcDbCircle
 10
20.05
 20
-25.0
 30
0.0
 40
1.000000000000014
100
AcDbArc
 50
90.0
 51
151.7744881084
  0
ARC
  5
276
330
1F
100
AcDbEntity
  8
1
  6
SLD-Solid
370
    25
100
AcDbCircle
 10
34.05
 20
25.0
 30
0.0
 40
1.0
100
AcDbArc
 50
270.0
 51
0.0
  0
ARC
  5
277
330
1F
100
AcDbEntity
  8
1
  6
SLD-Solid
370
    25
100
AcDbCircle
 10
34.05
 20
-25.0
 30
0.0
 40
1.0
100
AcDbArc
 50
0.0
 51
90.0
  0
ARC
  5
278
330
1F
100
AcDbEntity
  8
1
  6
SLD-Solid
370
    25
100
AcDbCircle
 10
2.45
 20
22.79
 30
0.0
 40
0.7500000000017255
100
AcDbArc
 50
245.0000000001
 51
345.3053202452
  0
ARC
  5
279
330
1F
100
AcDbEntity
  8
1
  6
SLD-Solid
370
    25
100
AcDbCircle
 10
2.45
 20
-22.79
 30
0.0
 40
0.74999999999888
100
AcDbArc
 50
359.9999999997
 51
115.0000000001
  0
ARC
  5
27A
330
1F
100
AcDbEntity
  8
SK1
  6
SLD-Solid
370
    25
100
AcDbCircle
 10
100.42
 20
14.0475
 30
0.0
 40
0.8000000000000012
100
AcDbArc
 50
238.3317567465
 51
289.5
  0
ARC
  5
27B
330
1F
100
AcDbEntity
  8
SK1
  6
SLD-Solid
370
    25
100
AcDbCircle
 10
100.42
 20
-14.0475
 30
0.0
 40
0.8000000000000073
100
AcDbArc
 50
70.5
 51
121.6682432535
  0
ARC
  5
27C
330
1F
100
AcDbEntity
  8
SK1
  6
SLD-Solid
370
    25
100
AcDbCircle
 10
-67.25
 20
11.4070377961
 30
0.0
 40
1.000000000000924
100
AcDbArc
 50
98.2972222218
 51
180.0000000001
  0
ARC
  5
27D
330
1F
100
AcDbEntity
  8
SK1
  6
SLD-Solid
370
    25
100
AcDbCircle
 10
-67.25
 20
-11.4070377962
 30
0.0
 40
1.000000000004713
100
AcDbArc
 50
180.0000000004
 51
261.7027777778
  0
ARC
  5
27E
330
1F
100
AcDbEntity
  8
1
  6
SLD-Solid
370
    25
100
AcDbCircle
 10
11.1221879896
 20
1.2176662935
 30
0.0
 40
1.998932886934556
100
AcDbArc
 50
89.9193988044
 51
156.8948275113
  0
ARC
  5
27F
330
1F
100
AcDbEntity
  8
1
  6
SLD-Solid
370
    25
100
AcDbCircle
 10
11.1274641848
 20
1.217223768
 30
0.0
 40
1.999374953050659
100
AcDbArc
 50
21.7473008796
 51
90.0706157803
  0
ARC
  5
280
330
1F
100
AcDbEntity
  8
SK3
  6
SLD-Dashed
370
    18
100
AcDbCircle
 10
6.2
 20
-20.3
 30
0.0
 40
0.1000000000000032
100
AcDbArc
 50
90.0000000002
 51
180.0
  0
ARC
  5
281
330
1F
100
AcDbEntity
  8
SK3
  6
SLD-Dashed
370
    18
100
AcDbCircle
 10
16.0
 20
-20.3
 30
0.0
 40
0.0999999999999854
100
AcDbArc
 50
0.0000000001
 51
90.0
  0
SPLINE
  5
282
330
1F
100
AcDbEntity
  8
SK1
  6
SLD-Solid
370
    25
100
AcDbSpline
210
0.0
220
0.0
230
1.0
 70
     8
 71
     3
 72
    25
 73
    21
 74
     0
 42
0.000000001
 43
0.00000001
 40
0.0
 40
0.0
 40
0.0
 40
0.0
 40
0.0035491458757803
 40
0.0082156567964478
 40
0.017148657110607
 40
0.0311033111287485
 40
0.0453981007436698
 40
0.1106454792225621
 40
0.1766573010764437
 40
0.4371167132643476
 40
0.7031649021658519
 40
0.7681970690245822
 40
0.8338933625694468
 40
0.8825622048886864
 40
0.9068719052323502
 40
0.9316387500543045
 40
0.954461996018537
 40
0.9774925076685995
 40
0.9950060381752635
 40
1.0
 40
1.0
 40
1.0
 40
1.0
 10
100.0296155740811
 20
-21.6146505104529
 30
0.0
 10
100.0323777363168
 20
-21.61488808386096
 30
0.0
 10
100.0387716625569
 20
-21.61543802507301
 30
0.0
 10
100.0509765520422
 20
-21.62142803185879
 30
0.0
 10
100.0667393539807
 20
-21.63623040893527
 30
0.0
 10
100.0827888128827
 20
-21.66042593199903
 30
0.0
 10
100.1156628437385
 20
-21.72517269214293
 30
0.0
 10
100.1507684011688
 20
-21.83318162058984
 30
0.0
 10
100.228206046933
 20
-22.12699873149093
 30
0.0
 10
100.3048551843216
 20
-22.58140444974157
 30
0.0
 10
100.3273719446578
 20
-23.04350686663068
 30
0.0
 10
100.2879711807549
 20
-23.34933524323634
 30
0.0
 10
100.2560276567267
 20
-23.48522580812074
 30
0.0
 10
100.2169451339873
 20
-23.58603700965826
 30
0.0
 10
100.179364263356
 20
-23.65212499687621
 30
0.0
 10
100.145136980362
 20
-23.69653666227311
 30
0.0
 10
100.1033151242673
 20
-23.73275415690673
 30
0.0
 10
100.0570491894615
 20
-23.75264522510232
 30
0.0
 10
100.0208525136149
 20
-23.75357871257285
 30
0.0
 10
100.0037865872965
 20
-23.74982314513728
 30
0.0
 10
100.0
 20
-23.74898985993042
 30
0.0
  0
SPLINE
  5
283
330
1F
100
AcDbEntity
  8
SK1
  6
SLD-Solid
370
    25
100
AcDbSpline
210
0.0
220
0.0
230
1.0
 70
     8
 71
     3
 72
    25
 73
    21
 74
     0
 42
0.000000001
 43
0.00000001
 40
0.0
 40
0.0
 40
0.0
 40
0.0
 40
0.0150795431071694
 40
0.0344063796737805
 40
0.0588581764529421
 40
0.0788927810763213
 40
0.0994325864868899
 40
0.1408823274261671
 40
0.183261749158764
 40
0.3098301255263212
 40
0.4398094558165125
 40
0.5785401401457927
 40
0.7180704342498334
 40
0.8315187750808531
 40
0.9457023372201918
 40
0.9642171909938501
 40
0.9820789651954827
 40
0.9889456829073904
 40
0.9958772784075255
 40
1.0
 40
1.0
 40
1.0
 40
1.0
 10
99.99999999999945
 20
-18.25101014006978
 30
0.0
 10
100.0116400872437
 20
-18.24910249978089
 30
0.0
 10
100.038198800483
 20
-18.2447499145869
 30
0.0
 10
100.0838186830515
 20
-18.25653263401662
 30
0.0
 10
100.1255160116926
 20
-18.28456585867989
 30
0.0
 10
100.1600369890357
 20
-18.32172022801967
 30
0.0
 10
100.1963313378331
 20
-18.37423560520946
 30
0.0
 10
100.2314881179238
 20
-18.44772893982255
 30
0.0
 10
100.2822490979997
 20
-18.60325707329156
 30
0.0
 10
100.3149874971065
 20
-18.83478992741064
 30
0.0
 10
100.3180306530764
 20
-19.14196380136347
 30
0.0
 10
100.2918356469579
 20
-19.45818084090544
 30
0.0
 10
100.246274236029
 20
-19.75924751679024
 30
0.0
 10
100.1863192632449
 20
-20.03752126609226
 30
0.0
 10
100.1372567396296
 20
-20.22368532284593
 30
0.0
 10
100.0884638211314
 20
-20.32980678348376
 30
0.0
 10
100.0708140562613
 20
-20.3588397756135
 30
0.0
 10
100.05359642269
 20
-20.37635022083333
 30
0.0
 10
100.0414362450711
 20
-20.3841323416954
 30
0.0
 10
100.0328265651407
 20
-20.38501886103431
 30
0.0
 10
100.0296155740811
 20
-20.38534948954712
 30
0.0
  0
SPLINE
  5
284
330
1F
100
AcDbEntity
  8
SK1
  6
SLD-Solid
370
    25
100
AcDbSpline
210
0.0
220
0.0
230
1.0
 70
     8
 71
     3
 72
    10
 73
     6
 74
     0
 42
0.000000001
 43
0.00000001
 40
0.0
 40
0.0
 40
0.0
 40
0.0
 40
0.3293498629994395
 40
0.664519187055604
 40
1.0
 40
1.0
 40
1.0
 40
1.0
 10
106.3
 20
-20.52288470994948
 30
0.0
 10
106.249145762819
 20
-19.97650170906938
 30
0.0
 10
106.146538717405
 20
-18.87408137022608
 30
0.0
 10
105.7173583338828
 20
-17.25981191434364
 30
0.0
 10
105.3360447870966
 20
-16.21145364827153
 30
0.0
 10
105.1452994616207
 20
-15.6870310559914
 30
0.0
  0
SPLINE
  5
285
330
1F
100
AcDbEntity
  8
SK1
  6
SLD-Solid
370
    25
100
AcDbSpline
210
0.0
220
0.0
230
1.0
 70
     8
 71
     3
 72
    11
 73
     7
 74
     0
 42
0.000000001
 43
0.00000001
 40
0.0
 40
0.0
 40
0.0
 40
0.0
 40
0.4411195250947094
 40
0.6644303869025145
 40
0.8892451342285179
 40
1.0
 40
1.0
 40
1.0
 40
1.0
 10
105.1452994616207
 20
-26.3129689440087
 30
0.0
 10
105.395373657959
 20
-25.62196868402479
 30
0.0
 10
105.7720445726996
 20
-24.58115878110271
 30
0.0
 10
106.1114566767375
 20
-23.13927927299032
 30
0.0
 10
106.254135554143
 20
-22.21852277282025
 30
0.0
 10
106.2886187946549
 20
-21.66109463719327
 30
0.0
 10
106.3
 20
-21.47711529005053
 30
0.0
  0
SPLINE
  5
286
330
1F
100
AcDbEntity
  8
SK1
  6
SLD-Solid
370
    25
100
AcDbSpline
210
0.0
220
0.0
230
1.0
 70
    24
 71
     3
 72
    11
 73
     7
 74
     0
 42
0.000000001
 43
0.00000001
 40
0.0
 40
0.0
 40
0.0
 40
0.0
 40
0.4411195250947165
 40
0.664430386902513
 40
0.889245134228519
 40
1.0
 40
1.0
 40
1.0
 40
1.0
 10
105.1452994616207
 20
-15.019
 30
0.0
 10
105.395373657959
 20
-15.01899999999999
 30
0.0
 10
105.7720445726996
 20
-15.01899999999996
 30
0.0
 10
106.1114566767376
 20
-15.01899999999999
 30
0.0
 10
106.254135554143
 20
-15.019
 30
0.0
 10
106.2886187946548
 20
-15.019
 30
0.0
 10
106.3
 20
-15.019
 30
0.0
  0
SPLINE
  5
287
330
1F
100
AcDbEntity
  8
SK1
  6
SLD-Solid
370
    25
100
AcDbSpline
210
0.0
220
0.0
230
1.0
 70
    24
 71
     3
 72
    10
 73
     6
 74
     0
 42
0.000000001
 43
0.00000001
 40
0.0
 40
0.0
 40
0.0
 40
0.0
 40
0.3293498629994392
 40
0.6645191870556046
 40
1.0
 40
1.0
 40
1.0
 40
1.0
 10
106.3
 20
-26.98100000000008
 30
0.0
 10
106.2491457628189
 20
-26.98100000000008
 30
0.0
 10
106.146538717405
 20
-26.98100000000008
 30
0.0
 10
105.7173583338829
 20
-26.98100000000009
 30
0.0
 10
105.3360447870965
 20
-26.98100000000008
 30
0.0
 10
105.1452994616207
 20
-26.98100000000008
 30
0.0
  0
SPLINE
  5
288
330
1F
100
AcDbEntity
  8
SK1
  6
SLD-Solid
370
    25
100
AcDbSpline
210
0.0
220
0.0
230
1.0
 70
     8
 71
     3
 72
    25
 73
    21
 74
     0
 42
0.000000001
 43
0.00000001
 40
0.0
 40
0.0
 40
0.0
 40
0.0
 40
0.0035491458757803
 40
0.0082156567964478
 40
0.017148657110607
 40
0.0311033111287485
 40
0.0453981007436698
 40
0.1106454792225621
 40
0.1766573010764437
 40
0.4371167132643476
 40
0.7031649021658519
 40
0.7681970690245822
 40
0.8338933625694468
 40
0.8825622048886864
 40
0.9068719052323502
 40
0.9316387500543045
 40
0.954461996018537
 40
0.9774925076685995
 40
0.9950060381752635
 40
1.0
 40
1.0
 40
1.0
 40
1.0
 10
100.0296155740811
 20
20.38534948954711
 30
0.0
 10
100.0323777363168
 20
20.38511191613905
 30
0.0
 10
100.0387716625569
 20
20.38456197492701
 30
0.0
 10
100.0509765520422
 20
20.37857196814122
 30
0.0
 10
100.0667393539807
 20
20.36376959106472
 30
0.0
 10
100.0827888128827
 20
20.33957406800098
 30
0.0
 10
100.1156628437385
 20
20.27482730785708
 30
0.0
 10
100.1507684011688
 20
20.16681837941019
 30
0.0
 10
100.228206046933
 20
19.87300126850906
 30
0.0
 10
100.3048551843216
 20
19.41859555025846
 30
0.0
 10
100.3273719446578
 20
18.95649313336931
 30
0.0
 10
100.2879711807549
 20
18.65066475676368
 30
0.0
 10
100.2560276567267
 20
18.51477419187926
 30
0.0
 10
100.2169451339873
 20
18.41396299034176
 30
0.0
 10
100.179364263356
 20
18.34787500312381
 30
0.0
 10
100.145136980362
 20
18.30346333772688
 30
0.0
 10
100.1033151242673
 20
18.26724584309328
 30
0.0
 10
100.0570491894615
 20
18.24735477489767
 30
0.0
 10
100.0208525136149
 20
18.24642128742716
 30
0.0
 10
100.0037865872965
 20
18.25017685486273
 30
0.0
 10
100.0
 20
18.25101014006959
 30
0.0
  0
SPLINE
  5
289
330
1F
100
AcDbEntity
  8
SK1
  6
SLD-Solid
370
    25
100
AcDbSpline
210
0.0
220
0.0
230
1.0
 70
     8
 71
     3
 72
    11
 73
     7
 74
     0
 42
0.000000001
 43
0.00000001
 40
0.0
 40
0.0
 40
0.0
 40
0.0
 40
0.4411195250947098
 40
0.6644303869025143
 40
0.8892451342285178
 40
1.0
 40
1.0
 40
1.0
 40
1.0
 10
105.1452994616207
 20
15.68703105599131
 30
0.0
 10
105.395373657959
 20
16.37803131597523
 30
0.0
 10
105.7720445726996
 20
17.41884121889729
 30
0.0
 10
106.1114566767375
 20
18.86072072700969
 30
0.0
 10
106.254135554143
 20
19.78147722717975
 30
0.0
 10
106.2886187946548
 20
20.33890536280675
 30
0.0
 10
106.3
 20
20.52288470994948
 30
0.0
  0
SPLINE
  5
28A
330
1F
100
AcDbEntity
  8
SK1
  6
SLD-Solid
370
    25
100
AcDbSpline
210
0.0
220
0.0
230
1.0
 70
    24
 71
     3
 72
    10
 73
     6
 74
     0
 42
0.000000001
 43
0.00000001
 40
0.0
 40
0.0
 40
0.0
 40
0.0
 40
0.3293498629994393
 40
0.6645191870556046
 40
1.0
 40
1.0
 40
1.0
 40
1.0
 10
106.3
 20
15.01899999999993
 30
0.0
 10
106.249145762819
 20
15.01899999999993
 30
0.0
 10
106.146538717405
 20
15.01899999999993
 30
0.0
 10
105.7173583338828
 20
15.01899999999992
 30
0.0
 10
105.3360447870965
 20
15.01899999999993
 30
0.0
 10
105.1452994616207
 20
15.01899999999993
 30
0.0
  0
SPLINE
  5
28B
330
1F
100
AcDbEntity
  8
SK1
  6
SLD-Solid
370
    25
100
AcDbSpline
210
0.0
220
0.0
230
1.0
 70
     8
 71
     3
 72
    25
 73
    21
 74
     0
 42
0.000000001
 43
0.00000001
 40
0.0
 40
0.0
 40
0.0
 40
0.0
 40
0.0150795431071694
 40
0.0344063796737805
 40
0.0588581764529421
 40
0.0788927810763213
 40
0.0994325864868899
 40
0.1408823274261671
 40
0.183261749158764
 40
0.3098301255263212
 40
0.4398094558165125
 40
0.5785401401457927
 40
0.7180704342498334
 40
0.8315187750808531
 40
0.9457023372201918
 40
0.9642171909938501
 40
0.9820789651954827
 40
0.9889456829073904
 40
0.9958772784075255
 40
1.0
 40
1.0
 40
1.0
 40
1.0
 10
99.99999999999945
 20
23.74898985993024
 30
0.0
 10
100.0116400872437
 20
23.75089750021912
 30
0.0
 10
100.038198800483
 20
23.7552500854131
 30
0.0
 10
100.0838186830515
 20
23.7434673659834
 30
0.0
 10
100.1255160116926
 20
23.71543414132012
 30
0.0
 10
100.1600369890357
 20
23.67827977198034
 30
0.0
 10
100.1963313378331
 20
23.62576439479054
 30
0.0
 10
100.2314881179238
 20
23.55227106017745
 30
0.0
 10
100.2822490979997
 20
23.39674292670847
 30
0.0
 10
100.3149874971065
 20
23.16521007258936
 30
0.0
 10
100.3180306530764
 20
22.85803619863654
 30
0.0
 10
100.2918356469579
 20
22.54181915909456
 30
0.0
 10
100.246274236029
 20
22.24075248320976
 30
0.0
 10
100.1863192632449
 20
21.96247873390777
 30
0.0
 10
100.1372567396296
 20
21.77631467715407
 30
0.0
 10
100.0884638211314
 20
21.67019321651625
 30
0.0
 10
100.0708140562613
 20
21.6411602243865
 30
0.0
 10
100.05359642269
 20
21.62364977916668
 30
0.0
 10
100.0414362450711
 20
21.61586765830459
 30
0.0
 10
100.0328265651407
 20
21.61498113896571
 30
0.0
 10
100.0296155740811
 20
21.61465051045289
 30
0.0
  0
SPLINE
  5
28C
330
1F
100
AcDbEntity
  8
SK1
  6
SLD-Solid
370
    25
100
AcDbSpline
210
0.0
220
0.0
230
1.0
 70
     8
 71
     3
 72
    10
 73
     6
 74
     0
 42
0.000000001
 43
0.00000001
 40
0.0
 40
0.0
 40
0.0
 40
0.0
 40
0.3293498629994395
 40
0.664519187055604
 40
1.0
 40
1.0
 40
1.0
 40
1.0
 10
106.3
 20
21.47711529005052
 30
0.0
 10
106.249145762819
 20
22.02349829093061
 30
0.0
 10
106.146538717405
 20
23.12591862977393
 30
0.0
 10
105.7173583338828
 20
24.74018808565637
 30
0.0
 10
105.3360447870966
 20
25.78854635172849
 30
0.0
 10
105.1452994616207
 20
26.31296894400861
 30
0.0
  0
SPLINE
  5
28D
330
1F
100
AcDbEntity
  8
SK1
  6
SLD-Solid
370
    25
100
AcDbSpline
210
0.0
220
0.0
230
1.0
 70
    24
 71
     3
 72
    11
 73
     7
 74
     0
 42
0.000000001
 43
0.00000001
 40
0.0
 40
0.0
 40
0.0
 40
0.0
 40
0.4411195250947164
 40
0.6644303869025129
 40
0.8892451342285189
 40
1.0
 40
1.0
 40
1.0
 40
1.0
 10
105.1452994616207
 20
26.981
 30
0.0
 10
105.395373657959
 20
26.98100000000002
 30
0.0
 10
105.7720445726996
 20
26.98100000000005
 30
0.0
 10
106.1114566767376
 20
26.98100000000001
 30
0.0
 10
106.254135554143
 20
26.98100000000001
 30
0.0
 10
106.2886187946549
 20
26.981
 30
0.0
 10
106.3
 20
26.98099999999999
 30
0.0
  0
SPLINE
  5
28E
330
1F
100
AcDbEntity
  8
1
  6
SLD-Solid
370
    25
100
AcDbSpline
210
0.0
220
0.0
230
1.0
 70
     8
 71
     3
 72
    16
 73
    12
 74
     0
 42
0.000000001
 43
0.00000001
 40
0.0
 40
0.0
 40
0.0
 40
0.0
 40
0.0695972538514209
 40
0.1233277380955364
 40
0.2470395666591751
 40
0.370625424680656
 40
0.4955039232053496
 40
0.6236892954682479
 40
0.7463896467418834
 40
0.8740291783573816
 40
1.0
 40
1.0
 40
1.0
 40
1.0
 10
3.200000000000008
 20
-29.80486664099095
 30
0.0
 10
3.200840330888856
 20
-29.83211893791851
 30
0.0
 10
3.202329414179339
 20
-29.8804105579465
 30
0.0
 10
3.217237154378465
 20
-29.9761083927772
 30
0.0
 10
3.250688715694235
 20
-30.08991375049755
 30
0.0
 10
3.318652551605755
 20
-30.22007276301185
 30
0.0
 10
3.411627066946377
 20
-30.33622625363214
 30
0.0
 10
3.525709306105856
 20
-30.43184487736561
 30
0.0
 10
3.657379122715364
 20
-30.50320172902775
 30
0.0
 10
3.800029806174429
 20
-30.54921379636125
 30
0.0
 10
3.900229701082919
 20
-30.55502332938702
 30
0.0
 10
3.949999999999995
 20
-30.55790898306484
 30
0.0
  0
SPLINE
  5
28F
330
1F
100
AcDbEntity
  8
1
  6
SLD-Solid
370
    25
100
AcDbSpline
210
0.0
220
0.0
230
1.0
 70
     8
 71
     3
 72
    17
 73
    13
 74
     0
 42
0.000000001
 43
0.00000001
 40
0.0
 40
0.0
 40
0.0
 40
0.0
 40
0.0628888396364699
 40
0.1261871279224337
 40
0.1899037537176327
 40
0.2540473816737335
 40
0.3769828768332607
 40
0.5053904312544246
 40
0.7526209933055819
 40
0.8763638664990054
 40
0.9298286844372045
 40
1.0
 40
1.0
 40
1.0
 40
1.0
 10
3.949999999999995
 20
30.57536093714895
 30
0.0
 10
3.925260594275559
 20
30.57465594167371
 30
0.0
 10
3.875620712653988
 20
30.57324136072846
 30
0.0
 10
3.801660986852085
 20
30.56178759446425
 30
0.0
 10
3.728709257318205
 20
30.5434544928118
 30
0.0
 10
3.635989250577523
 20
30.50982007129829
 30
0.0
 10
3.526318847105317
 20
30.45067100764159
 30
0.0
 10
3.375178249314672
 20
30.32567342248064
 30
0.0
 10
3.264574196495132
 20
30.15826957713118
 30
0.0
 10
3.217412270245274
 20
29.99927682973191
 30
0.0
 10
3.202361189093741
 20
29.9041533195447
 30
0.0
 10
3.200854909064632
 20
29.85609645106923
 30
0.0
 10
3.199999999999967
 20
29.82882114257113
 30
0.0
  0
SPLINE
  5
290
330
1F
100
AcDbEntity
  8
1
  6
SLD-Solid
370
    25
100
AcDbSpline
210
0.0
220
0.0
230
1.0
 70
     8
 71
     3
 72
    15
 73
    11
 74
     0
 42
0.000000001
 43
0.00000001
 40
0.0
 40
0.0
 40
0.0
 40
0.0
 40
0.0699469676120508
 40
0.1232495019638594
 40
0.2469139614485993
 40
0.4943135207059527
 40
0.6227252920265773
 40
0.7456587922637132
 40
0.8736576760301554
 40
1.0
 40
1.0
 40
1.0
 40
1.0
 10
19.04999999999936
 20
29.82881899210961
 30
0.0
 10
19.04915108738922
 20
29.85599822585958
 30
0.0
 10
19.04765526762772
 20
29.90388918007543
 30
0.0
 10
19.03268955479598
 20
29.99880913237733
 30
0.0
 10
18.98567033920762
 20
30.15776624446882
 30
0.0
 10
18.87522355738071
 20
30.32517365985871
 30
0.0
 10
18.72414541618503
 20
30.4504336649185
 30
0.0
 10
18.59246616520915
 20
30.52119023007645
 30
0.0
 10
18.44989099600787
 20
30.56674492949648
 30
0.0
 10
18.34974624642356
 20
30.57249983579832
 30
0.0
 10
18.29999999999944
 20
30.57535854769512
 30
0.0
  0
SPLINE
  5
291
330
1F
100
AcDbEntity
  8
1
  6
SLD-Solid
370
    25
100
AcDbSpline
210
0.0
220
0.0
230
1.0
 70
     8
 71
     3
 72
    18
 73
    14
 74
     0
 42
0.000000001
 43
0.00000001
 40
0.0
 40
0.0
 40
0.0
 40
0.0
 40
0.0627055099636326
 40
0.1258180762754149
 40
0.1893520056299307
 40
0.2533212411767536
 40
0.3760225542121581
 40
0.5042029356617558
 40
0.6287444288251028
 40
0.7524971402266436
 40
0.8762905010543084
 40
0.9301814060611104
 40
1.0
 40
1.0
 40
1.0
 40
1.0
 10
18.29999999999966
 20
-30.55788599722715
 30
0.0
 10
18.32475189245137
 20
-30.55717415240521
 30
0.0
 10
18.37441635565814
 20
-30.5557458417806
 30
0.0
 10
18.44840700847964
 20
-30.5441822483782
 30
0.0
 10
18.52137928816245
 20
-30.52567922368214
 30
0.0
 10
18.61414871620947
 20
-30.49171694931929
 30
0.0
 10
18.72382630655656
 20
-30.43205957986777
 30
0.0
 10
18.83789059747515
 20
-30.33670428094263
 30
0.0
 10
18.93096567504027
 20
-30.22062761503344
 30
0.0
 10
18.99906840573243
 20
-30.09053185714682
 30
0.0
 10
19.03266225195434
 20
-29.97655781390377
 30
0.0
 10
19.04765434478805
 20
-29.88065720374609
 30
0.0
 10
19.04915376446693
 20
-29.83220059569275
 30
0.0
 10
19.04999999999936
 20
-29.80485287971166
 30
0.0
  0
SPLINE
  5
292
330
1F
100
AcDbEntity
  8
1
  6
SLD-Solid
370
    25
100
AcDbSpline
210
0.0
220
0.0
230
1.0
 70
     8
 71
     3
 72
    14
 73
    10
 74
     0
 42
0.000000001
 43
0.00000001
 40
0.0
 40
0.0
 40
0.0
 40
0.0
 40
0.25
 40
0.25
 40
0.5
 40
0.5
 40
0.75
 40
0.75
 40
1.0
 40
1.0
 40
1.0
 40
1.0
 10
13.02999999999846
 20
14.42713851694012
 30
0.0
 10
13.05898396534984
 20
14.37259992179866
 30
0.0
 10
13.08269469317808
 20
14.30877340141278
 30
0.0
 10
13.11608120471378
 20
14.15631998185873
 30
0.0
 10
13.12492217037856
 20
14.07065992868135
 30
0.0
 10
13.12507680424303
 20
13.88130260930858
 30
0.0
 10
13.1161309749294
 20
13.77846352230187
 30
0.0
 10
13.08312123359775
 20
13.56986701759828
 30
0.0
 10
13.05904915811869
 20
13.46307736876837
 30
0.0
 10
13.02999999999818
 20
13.35829895897686
 30
0.0
  0
SPLINE
  5
293
330
1F
100
AcDbEntity
  8
1
  6
SLD-Solid
370
    25
100
AcDbSpline
210
0.0
220
0.0
230
1.0
 70
     8
 71
     3
 72
     8
 73
     4
 74
     0
 42
0.000000001
 43
0.00000001
 40
0.0
 40
0.0
 40
0.0
 40
0.0
 40
1.0
 40
1.0
 40
1.0
 40
1.0
 10
14.33599834604346
 20
30.16151882747537
 30
0.0
 10
13.8997193642318
 20
29.37911880556078
 30
0.0
 10
13.46431130537736
 20
28.59624790492148
 30
0.0
 10
13.02999999999999
 20
27.81278402659762
 30
0.0
  0
SPLINE
  5
294
330
1F
100
AcDbEntity
  8
1
  6
SLD-Solid
370
    25
100
AcDbSpline
210
0.0
220
0.0
230
1.0
 70
     8
 71
     3
 72
     8
 73
     4
 74
     0
 42
0.000000001
 43
0.00000001
 40
0.0
 40
0.0
 40
0.0
 40
0.0
 40
0.0006888740319127
 40
0.0006888740319127
 40
0.0006888740319127
 40
0.0006888740319127
 10
14.63683664205619
 20
30.57535854769512
 30
0.0
 10
14.53628146897008
 20
30.43750151565605
 30
0.0
 10
14.43599688551465
 20
30.29955630279795
 30
0.0
 10
14.33599834604346
 20
30.16151882747537
 30
0.0
  0
SPLINE
  5
295
330
1F
100
AcDbEntity
  8
1
  6
SLD-Solid
370
    25
100
AcDbSpline
210
0.0
220
0.0
230
1.0
 70
     8
 71
     3
 72
     8
 73
     4
 74
     0
 42
0.000000001
 43
0.00000001
 40
0.0
 40
0.0
 40
0.0
 40
0.0
 40
0.0006744388085558
 40
0.0006744388085558
 40
0.0006744388085558
 40
0.0006744388085558
 10
14.37164736689955
 20
-30.22544538331278
 30
0.0
 10
14.45959193074418
 20
-30.33636220150213
 30
0.0
 10
14.54799612919976
 20
-30.44717457304273
 30
0.0
 10
14.63683664205673
 20
-30.55788599722682
 30
0.0
  0
SPLINE
  5
296
330
1F
100
AcDbEntity
  8
1
  6
SLD-Solid
370
    25
100
AcDbSpline
210
0.0
220
0.0
230
1.0
 70
     8
 71
     3
 72
     8
 73
     4
 74
     0
 42
0.000000001
 43
0.00000001
 40
0.0
 40
0.0
 40
0.0
 40
0.0
 40
1.0
 40
1.0
 40
1.0
 40
1.0
 10
14.37164736689955
 20
-30.22544538331278
 30
0.0
 10
13.92344569040367
 20
-29.42177793480443
 30
0.0
 10
13.47614903267275
 20
-28.61760224597262
 30
0.0
 10
13.02999999999999
 20
-27.81278402659764
 30
0.0
  0
SPLINE
  5
297
330
1F
100
AcDbEntity
  8
1
  6
SLD-Solid
370
    25
100
AcDbSpline
210
0.0
220
0.0
230
1.0
 70
     8
 71
     3
 72
    14
 73
    10
 74
     0
 42
0.000000001
 43
0.00000001
 40
0.0
 40
0.0
 40
0.0
 40
0.0
 40
0.25
 40
0.25
 40
0.5
 40
0.5
 40
0.75
 40
0.75
 40
1.0
 40
1.0
 40
1.0
 40
1.0
 10
13.02999999999682
 20
-9.363213518605786
 30
0.0
 10
13.05614901336999
 20
-9.460869309271695
 30
0.0
 10
13.07736595872982
 20
-9.559903720027533
 30
0.0
 10
13.10706956482881
 20
-9.761533736286562
 30
0.0
 10
13.11493091526547
 20
-9.861116747162692
 30
0.0
 10
13.11506816657582
 20
-10.05155434096815
 30
0.0
 10
13.10712910894109
 20
-10.14309682494241
 30
0.0
 10
13.07778052409925
 20
-10.30714399288453
 30
0.0
 10
13.05622574486043
 20
-10.38169006413899
 30
0.0
 10
13.02999999999681
 20
-10.44736797213993
 30
0.0
  0
SPLINE
  5
298
330
1F
100
AcDbEntity
  8
1
  6
SLD-Solid
370
    25
100
AcDbSpline
210
0.0
220
0.0
230
1.0
 70
     8
 71
     3
 72
    14
 73
    10
 74
     0
 42
0.000000001
 43
0.00000001
 40
0.0
 40
0.0
 40
0.0
 40
0.0
 40
0.25
 40
0.25
 40
0.5
 40
0.5
 40
0.75
 40
0.75
 40
1.0
 40
1.0
 40
1.0
 40
1.0
 10
13.02999999999818
 20
3.214585248603699
 30
0.0
 10
13.05898396534948
 20
3.128994446379048
 30
0.0
 10
13.08269469317763
 20
3.037155548097213
 30
0.0
 10
13.11608120471315
 20
2.83679935897424
 30
0.0
 10
13.12492217037783
 20
2.732333355669914
 30
0.0
 10
13.12507680424212
 20
2.517273494460986
 30
0.0
 10
13.11613097492839
 20
2.407866052235266
 30
0.0
 10
13.08312123359656
 20
2.198098128211583
 30
0.0
 10
13.05904915811741
 20
2.096571778495357
 30
0.0
 10
13.02999999999682
 20
2.001380319269303
 30
0.0
  0
SPLINE
  5
299
330
1F
100
AcDbEntity
  8
1
  6
SLD-Solid
370
    25
100
AcDbSpline
210
0.0
220
0.0
230
1.0
 70
     8
 71
     3
 72
    14
 73
    10
 74
     0
 42
0.000000001
 43
0.00000001
 40
0.0
 40
0.0
 40
0.0
 40
0.0
 40
0.25
 40
0.25
 40
0.5
 40
0.5
 40
0.75
 40
0.75
 40
1.0
 40
1.0
 40
1.0
 40
1.0
 10
9.200000000000006
 20
-10.44736797213991
 30
0.0
 10
9.173850986626839
 20
-10.38188222507844
 30
0.0
 10
9.152634041267016
 20
-10.30896838556235
 30
0.0
 10
9.122930435167989
 20
-10.14391469510491
 30
0.0
 10
9.11506908473134
 20
-10.05401656986635
 30
0.0
 10
9.114931833421007
 20
-9.863748039868337
 30
0.0
 10
9.12287089105575
 20
-9.762424990334889
 30
0.0
 10
9.152219475897589
 20
-9.562238537150318
 30
0.0
 10
9.173774255136394
 20
-9.461155869772565
 30
0.0
 10
9.199999999999985
 20
-9.3632135186058
 30
0.0
  0
SPLINE
  5
29A
330
1F
100
AcDbEntity
  8
1
  6
SLD-Solid
370
    25
100
AcDbSpline
210
0.0
220
0.0
230
1.0
 70
     8
 71
     3
 72
     8
 73
     4
 74
     0
 42
0.000000001
 43
0.00000001
 40
0.0
 40
0.0
 40
0.0
 40
0.0
 40
1.0
 40
1.0
 40
1.0
 40
1.0
 10
9.2
 20
-27.81278402659764
 30
0.0
 10
8.75382543679533
 20
-28.61764830107018
 30
0.0
 10
8.30650311790479
 20
-29.42186997179667
 30
0.0
 10
7.858275689112889
 20
-30.22558335104452
 30
0.0
  0
SPLINE
  5
29B
330
1F
100
AcDbEntity
  8
1
  6
SLD-Solid
370
    25
100
AcDbSpline
210
0.0
220
0.0
230
1.0
 70
     8
 71
     3
 72
     8
 73
     4
 74
     0
 42
0.000000001
 43
0.00000001
 40
0.0
 40
0.0
 40
0.0
 40
0.0
 40
0.0006742886233641
 40
0.0006742886233641
 40
0.0006742886233641
 40
0.0006742886233641
 10
7.593163357943218
 20
-30.55790898306484
 30
0.0
 10
7.6819781331383
 20
-30.44723584359264
 30
0.0
 10
7.770356680011862
 20
-30.3364617983647
 30
0.0
 10
7.858275689112896
 20
-30.22558335104451
 30
0.0
  0
SPLINE
  5
29C
330
1F
100
AcDbEntity
  8
1
  6
SLD-Solid
370
    25
100
AcDbSpline
210
0.0
220
0.0
230
1.0
 70
     8
 71
     3
 72
     8
 73
     4
 74
     0
 42
0.000000001
 43
0.00000001
 40
0.0
 40
0.0
 40
0.0
 40
0.0
 40
0.0006888652761856
 40
0.0006888652761856
 40
0.0006888652761856
 40
0.0006888652761856
 10
7.893998699232185
 20
30.16152412632417
 30
0.0
 10
7.794001131871911
 20
30.29956062861511
 30
0.0
 10
7.693717533619665
 20
30.43750487173244
 30
0.0
 10
7.593163357943217
 20
30.57536093714895
 30
0.0
  0
SPLINE
  5
29D
330
1F
100
AcDbEntity
  8
1
  6
SLD-Solid
370
    25
100
AcDbSpline
210
0.0
220
0.0
230
1.0
 70
     8
 71
     3
 72
     8
 73
     4
 74
     0
 42
0.000000001
 43
0.00000001
 40
0.0
 40
0.0
 40
0.0
 40
0.0
 40
1.0
 40
1.0
 40
1.0
 40
1.0
 10
9.199999999999985
 20
27.81278402659763
 30
0.0
 10
8.76568771415659
 20
28.59624967360609
 30
0.0
 10
8.330278669909042
 20
29.3791223402661
 30
0.0
 10
7.893998699232199
 20
30.16152412632415
 30
0.0
  0
SPLINE
  5
29E
330
1F
100
AcDbEntity
  8
1
  6
SLD-Solid
370
    25
100
AcDbSpline
210
0.0
220
0.0
230
1.0
 70
     8
 71
     3
 72
    14
 73
    10
 74
     0
 42
0.000000001
 43
0.00000001
 40
0.0
 40
0.0
 40
0.0
 40
0.0
 40
0.25
 40
0.25
 40
0.5
 40
0.5
 40
0.75
 40
0.75
 40
1.0
 40
1.0
 40
1.0
 40
1.0
 10
9.199999999999985
 20
13.41729426795302
 30
0.0
 10
9.17672165655517
 20
13.5098489539985
 30
0.0
 10
9.157998161454087
 20
13.60195448368409
 30
0.0
 10
9.13194105728389
 20
13.78503354407853
 30
0.0
 10
9.12504858009676
 20
13.87428030755417
 30
0.0
 10
9.124951943139365
 20
14.04013897762223
 30
0.0
 10
9.131884147769679
 20
14.11851740705917
 30
0.0
 10
9.157695257709944
 20
14.25601877221026
 30
0.0
 10
9.176643624390273
 20
14.31685635888578
 30
0.0
 10
9.199999999999985
 20
14.36941201270361
 30
0.0
  0
SPLINE
  5
29F
330
1F
100
AcDbEntity
  8
1
  6
SLD-Solid
370
    25
100
AcDbSpline
210
0.0
220
0.0
230
1.0
 70
     8
 71
     3
 72
    14
 73
    10
 74
     0
 42
0.000000001
 43
0.00000001
 40
0.0
 40
0.0
 40
0.0
 40
0.0
 40
0.25
 40
0.25
 40
0.5
 40
0.5
 40
0.75
 40
0.75
 40
1.0
 40
1.0
 40
1.0
 40
1.0
 10
9.199999999999985
 20
2.067742973228579
 30
0.0
 10
9.176721656555198
 20
2.153769180031136
 30
0.0
 10
9.157998161454115
 20
2.242999523078472
 30
0.0
 10
9.13194105728389
 20
2.429488303733677
 30
0.0
 10
9.125048580096774
 20
2.525148049204305
 30
0.0
 10
9.124951943139365
 20
2.713329732078849
 30
0.0
 10
9.131884147769679
 20
2.807968374750051
 30
0.0
 10
9.157695257709944
 20
2.985158779631722
 30
0.0
 10
9.176643624390273
 20
3.069713180480167
 30
0.0
 10
9.199999999999985
 20
3.148460778470849
 30
0.0
  0
SPLINE
  5
2A0
330
1F
100
AcDbEntity
  8
1
  6
SLD-Solid
370
    25
100
AcDbSpline
210
0.0
220
0.0
230
1.0
 70
     8
 71
     3
 72
    34
 73
    30
 74
     0
 42
0.000000001
 43
0.00000001
 40
0.500000000000013
 40
0.500000000000013
 40
0.500000000000013
 40
0.500000000000013
 40
0.5312500000000138
 40
0.5312500000000138
 40
0.5625000000000147
 40
0.5625000000000147
 40
0.6250000000000141
 40
0.6250000000000141
 40
0.656250000000013
 40
0.656250000000013
 40
0.6875000000000118
 40
0.6875000000000118
 40
0.7187500000000105
 40
0.7187500000000105
 40
0.7500000000000093
 40
0.7500000000000093
 40
0.7812500000000082
 40
0.7812500000000082
 40
0.812500000000007
 40
0.812500000000007
 40
0.8437500000000058
 40
0.8437500000000058
 40
0.8750000000000047
 40
0.8750000000000047
 40
0.9062500000000034
 40
0.9062500000000034
 40
0.9375000000000022
 40
0.9375000000000022
 40
1.0
 40
1.0
 40
1.0
 40
1.0
 10
87.00090817542284
 20
-22.90718500268853
 30
0.0
 10
86.8377256403678
 20
-22.90722341425834
 30
0.0
 10
86.67549567255833
 20
-22.89701776052729
 30
0.0
 10
86.35298270187786
 20
-22.85555052888176
 30
0.0
 10
86.1950428447521
 20
-22.82439355824932
 30
0.0
 10
85.74362970786076
 20
-22.70258089289028
 30
0.0
 10
85.46464465476966
 20
-22.58067542032409
 30
0.0
 10
85.11858945847958
 20
-22.350879806319
 30
0.0
 10
85.0129496871536
 20
-22.26492923074569
 30
0.0
 10
84.8312369684231
 20
-22.08176888450302
 30
0.0
 10
84.75434116786518
 20
-21.98436691082368
 30
0.0
 10
84.62863812681442
 20
-21.77737227771748
 30
0.0
 10
84.58034155618144
 20
-21.66777451231858
 30
0.0
 10
84.51650790105964
 20
-21.44548115859703
 30
0.0
 10
84.5001620349588
 20
-21.33163475002459
 30
0.0
 10
84.49984033894714
 20
-21.09821719925065
 30
0.0
 10
84.51593513253114
 20
-20.9820800349723
 30
0.0
 10
84.57918744294787
 20
-20.75241560384532
 30
0.0
 10
84.62707741407938
 20
-20.63747306067705
 30
0.0
 10
84.75239335886012
 20
-20.41635940995711
 30
0.0
 10
84.82908100842354
 20
-20.31074162901487
 30
0.0
 10
85.01017412101919
 20
-20.10969994139013
 30
0.0
 10
85.11562504416412
 20
-20.01379783618269
 30
0.0
 10
85.34604776264482
 20
-19.84098137860203
 30
0.0
 10
85.47174910244331
 20
-19.76298115399234
 30
0.0
 10
85.74461355067584
 20
-19.62469794366923
 30
0.0
 10
85.89017291917722
 20
-19.56550773951465
 30
0.0
 10
86.34119957923042
 20
-19.42272520426407
 30
0.0
 10
86.66952241916773
 20
-19.37165120364362
 30
0.0
 10
87.00000000000003
 20
-19.37165120364363
 30
0.0
  0
SPLINE
  5
2A1
330
1F
100
AcDbEntity
  8
1
  6
SLD-Solid
370
    25
100
AcDbSpline
210
0.0
220
0.0
230
1.0
 70
     8
 71
     3
 72
    38
 73
    34
 74
     0
 42
0.000000001
 43
0.00000001
 40
0.0
 40
0.0
 40
0.0
 40
0.0
 40
0.0312500000000008
 40
0.0312500000000008
 40
0.0625000000000016
 40
0.0625000000000016
 40
0.0937500000000024
 40
0.0937500000000024
 40
0.1250000000000032
 40
0.1250000000000032
 40
0.1562500000000041
 40
0.1562500000000041
 40
0.1875000000000049
 40
0.1875000000000049
 40
0.2187500000000057
 40
0.2187500000000057
 40
0.2500000000000065
 40
0.2500000000000065
 40
0.2812500000000073
 40
0.2812500000000073
 40
0.3125000000000081
 40
0.3125000000000081
 40
0.3437500000000089
 40
0.3437500000000089
 40
0.3750000000000098
 40
0.3750000000000098
 40
0.4062500000000105
 40
0.4062500000000105
 40
0.4375000000000114
 40
0.4375000000000114
 40
0.4687500000000122
 40
0.4687500000000122
 40
0.500000000000013
 40
0.500000000000013
 40
0.500000000000013
 40
0.500000000000013
 10
87.00000000000003
 20
-19.37165120364363
 30
0.0
 10
87.16523879041621
 20
-19.37165120364362
 30
0.0
 10
87.3277019478472
 20
-19.38408925907273
 30
0.0
 10
87.64730844363345
 20
-19.43270630666744
 30
0.0
 10
87.8061129223543
 20
-19.46947757558462
 30
0.0
 10
88.10883217762361
 20
-19.5650770126793
 30
0.0
 10
88.25239674357113
 20
-19.62343649940906
 30
0.0
 10
88.52409858819176
 20
-19.76062972815694
 30
0.0
 10
88.65268643687243
 20
-19.84014900559725
 30
0.0
 10
88.88319211099879
 20
-20.01279496783182
 30
0.0
 10
88.98665267212952
 20
-20.10653993928949
 30
0.0
 10
89.16941424633617
 20
-20.30871755137053
 30
0.0
 10
89.24703650257801
 20
-20.41563253745851
 30
0.0
 10
89.37174106848079
 20
-20.6351131220854
 30
0.0
 10
89.4197668749568
 20
-20.74930053392038
 30
0.0
 10
89.48401332259301
 20
-20.98122273209566
 30
0.0
 10
89.49991126441891
 20
-21.09689932078424
 30
0.0
 10
89.50008800184806
 20
-21.32759213124756
 30
0.0
 10
89.48384776437746
 20
-21.44378918325049
 30
0.0
 10
89.42004980858611
 20
-21.66685977282782
 30
0.0
 10
89.37284598145304
 20
-21.77437731446453
 30
0.0
 10
89.24764013455405
 20
-21.98164038572715
 30
0.0
 10
89.16939484222655
 20
-22.08097859514618
 30
0.0
 10
88.98849505894962
 20
-22.2636246699437
 30
0.0
 10
88.88521563508917
 20
-22.34812283615953
 30
0.0
 10
88.65193572198594
 20
-22.5034863214395
 30
0.0
 10
88.52564430732832
 20
-22.57186574792465
 30
0.0
 10
88.25501047344828
 20
-22.69102979195251
 30
0.0
 10
88.10889376818184
 20
-22.74227181341069
 30
0.0
 10
87.80608416875127
 20
-22.82419325150531
 30
0.0
 10
87.65025649036923
 20
-22.8549420359501
 30
0.0
 10
87.32983017256751
 20
-22.89651993653623
 30
0.0
 10
87.16409071047784
 20
-22.90714659111872
 30
0.0
 10
87.00090817542284
 20
-22.90718500268853
 30
0.0
  0
SPLINE
  5
2A2
330
1F
100
AcDbEntity
  8
1
  6
SLD-Solid
370
    25
100
AcDbSpline
210
0.0
220
0.0
230
1.0
 70
     8
 71
     3
 72
    16
 73
    12
 74
     0
 42
0.000000001
 43
0.00000001
 40
0.0
 40
0.0
 40
0.0
 40
0.0
 40
0.2499999999999999
 40
0.2499999999999999
 40
0.4999999999999999
 40
0.4999999999999999
 40
0.7499999999999998
 40
0.7499999999999998
 40
0.8749999999999998
 40
0.8749999999999998
 40
1.0
 40
1.0
 40
1.0
 40
1.0
 10
9.949999999999987
 20
0.9054008904063604
 30
0.0
 10
9.83883913421095
 20
0.9861970079488511
 30
0.0
 10
9.739902813026848
 20
1.077582915139236
 30
0.0
 10
9.564313202336361
 20
1.275638626964372
 30
0.0
 10
9.490552685972279
 20
1.378863517988126
 30
0.0
 10
9.364593468858457
 20
1.591886989652486
 30
0.0
 10
9.31293060165915
 20
1.701806363805902
 30
0.0
 10
9.253207465811972
 20
1.85926344577543
 30
0.0
 10
9.236054165735572
 20
1.911186894414447
 30
0.0
 10
9.20953644406243
 20
2.002134201095664
 30
0.0
 10
9.199999999999985
 20
2.041975631651628
 30
0.0
 10
9.199999999999985
 20
2.048209029687713
 30
0.0
  0
SPLINE
  5
2A3
330
1F
100
AcDbEntity
  8
1
  6
SLD-Solid
370
    25
100
AcDbSpline
210
0.0
220
0.0
230
1.0
 70
     8
 71
     3
 72
    16
 73
    12
 74
     0
 42
0.000000001
 43
0.00000001
 40
0.0
 40
0.0
 40
0.0
 40
0.0
 40
0.1250000000000001
 40
0.1250000000000001
 40
0.2500000000000001
 40
0.2500000000000001
 40
0.5000000000000002
 40
0.5000000000000002
 40
0.7500000000000003
 40
0.7500000000000003
 40
1.0
 40
1.0
 40
1.0
 40
1.0
 10
9.199999999999985
 20
3.128926834929942
 30
0.0
 10
9.200000000000014
 20
3.122758841137171
 30
0.0
 10
9.20974059879262
 20
3.15186436302678
 30
0.0
 10
9.236148153136089
 20
3.223230078663181
 30
0.0
 10
9.253138927932934
 20
3.266409877942994
 30
0.0
 10
9.313077912922894
 20
3.401099695481906
 30
0.0
 10
9.363919208305706
 20
3.496230545378967
 30
0.0
 10
9.48979619693652
 20
3.685998293247678
 30
0.0
 10
9.564771729411436
 20
3.780672656692518
 30
0.0
 10
9.738486282096785
 20
3.96153344046951
 30
0.0
 10
9.839055979137829
 20
4.049347322177826
 30
0.0
 10
9.949999999997894
 20
4.129145905168786
 30
0.0
  0
SPLINE
  5
2A4
330
1F
100
AcDbEntity
  8
1
  6
SLD-Solid
370
    25
100
AcDbSpline
210
0.0
220
0.0
230
1.0
 70
     8
 71
     3
 72
    12
 73
     8
 74
     0
 42
0.000000001
 43
0.00000001
 40
0.0
 40
0.0
 40
0.0
 40
0.0
 40
0.2499999999999994
 40
0.2499999999999994
 40
0.4999999999999989
 40
0.4999999999999989
 40
1.0
 40
1.0
 40
1.0
 40
1.0
 10
9.94999999999789
 20
4.129145905168781
 30
0.0
 10
10.11911991650748
 20
4.250788600181902
 30
0.0
 10
10.30264352006671
 20
4.343579516047705
 30
0.0
 10
10.69821493773962
 20
4.472289156780343
 30
0.0
 10
10.90341251166552
 20
4.505429302446295
 30
0.0
 10
11.52597695073751
 20
4.509761882422191
 30
0.0
 10
11.93875839455148
 20
4.382483242957639
 30
0.0
 10
12.27999999999789
 20
4.143345644057571
 30
0.0
  0
SPLINE
  5
2A5
330
1F
100
AcDbEntity
  8
1
  6
SLD-Solid
370
    25
100
AcDbSpline
210
0.0
220
0.0
230
1.0
 70
     8
 71
     3
 72
    16
 73
    12
 74
     0
 42
0.000000001
 43
0.00000001
 40
0.0
 40
0.0
 40
0.0
 40
0.0
 40
0.2499999999999998
 40
0.2499999999999998
 40
0.4999999999999996
 40
0.4999999999999996
 40
0.7499999999999993
 40
0.7499999999999993
 40
0.8749999999999997
 40
0.8749999999999997
 40
1.0
 40
1.0
 40
1.0
 40
1.0
 10
12.27999999999789
 20
4.143345644057571
 30
0.0
 10
12.38979819034808
 20
4.066400526039009
 30
0.0
 10
12.48771954023686
 20
3.983543451476203
 30
0.0
 10
12.66275471320967
 20
3.807554568916363
 30
0.0
 10
12.73657924490651
 20
3.717841617628913
 30
0.0
 10
12.86327216837221
 20
3.536143002403652
 30
0.0
 10
12.91569421217517
 20
3.443736979682421
 30
0.0
 10
12.97654294892653
 20
3.31749752226039
 30
0.0
 10
12.99405091255869
 20
3.276981346068901
 30
0.0
 10
13.02079232696096
 20
3.212531499625318
 30
0.0
 10
13.02999999999818
 20
3.188977324699617
 30
0.0
 10
13.02999999999818
 20
3.195050406326679
 30
0.0
  0
SPLINE
  5
2A6
330
1F
100
AcDbEntity
  8
1
  6
SLD-Solid
370
    25
100
AcDbSpline
210
0.0
220
0.0
230
1.0
 70
     8
 71
     3
 72
    16
 73
    12
 74
     0
 42
0.000000001
 43
0.00000001
 40
0.0
 40
0.0
 40
0.0
 40
0.0
 40
0.1250000000000012
 40
0.1250000000000012
 40
0.2500000000000024
 40
0.2500000000000024
 40
0.5000000000000016
 40
0.5000000000000016
 40
0.7500000000000008
 40
0.7500000000000008
 40
1.0
 40
1.0
 40
1.0
 40
1.0
 10
13.03000000000922
 20
1.981845476997819
 30
0.0
 10
13.03000000000923
 20
1.975764242686764
 30
0.0
 10
13.02061001209714
 20
1.94029386638863
 30
0.0
 10
12.99367374322183
 20
1.855886406705525
 30
0.0
 10
12.97620432943322
 20
1.807073600353322
 30
0.0
 10
12.91552372851897
 20
1.6578363178259
 30
0.0
 10
12.86283705778758
 20
1.551667070126855
 30
0.0
 10
12.73668103372018
 20
1.347587653460394
 30
0.0
 10
12.66225212910545
 20
1.247197996381927
 30
0.0
 10
12.48732587518241
 20
1.056312613050059
 30
0.0
 10
12.39001303066255
 20
0.9689654219741384
 30
0.0
 10
12.27999999999999
 20
0.8910510240565245
 30
0.0
  0
SPLINE
  5
2A7
330
1F
100
AcDbEntity
  8
1
  6
SLD-Solid
370
    25
100
AcDbSpline
210
0.0
220
0.0
230
1.0
 70
     8
 71
     3
 72
    12
 73
     8
 74
     0
 42
0.000000001
 43
0.00000001
 40
0.0
 40
0.0
 40
0.0
 40
0.0
 40
0.25
 40
0.25
 40
0.5
 40
0.5
 40
1.0
 40
1.0
 40
1.0
 40
1.0
 10
12.27999999999999
 20
0.8910510240565245
 30
0.0
 10
12.10938073841264
 20
0.7702135472608534
 30
0.0
 10
11.92471490210968
 20
0.6785718055678722
 30
0.0
 10
11.52756570958262
 20
0.5531521405084048
 30
0.0
 10
11.32197072606905
 20
0.5221047567557264
 30
0.0
 10
10.6993957285697
 20
0.5253980539293817
 30
0.0
 10
10.28824237865357
 20
0.6595529403246904
 30
0.0
 10
9.949999999999987
 20
0.9054008904063604
 30
0.0
  0
SPLINE
  5
2A8
330
1F
100
AcDbEntity
  8
1
  6
SLD-Solid
370
    25
100
AcDbSpline
210
0.0
220
0.0
230
1.0
 70
     8
 71
     3
 72
    16
 73
    12
 74
     0
 42
0.000000001
 43
0.00000001
 40
0.0
 40
0.0
 40
0.0
 40
0.0
 40
0.2499999999999993
 40
0.2499999999999993
 40
0.4999999999999986
 40
0.4999999999999986
 40
0.7499999999999978
 40
0.7499999999999978
 40
0.8749999999999989
 40
0.8749999999999989
 40
1.0
 40
1.0
 40
1.0
 40
1.0
 10
12.27999999999684
 20
-8.032787607796788
 30
0.0
 10
12.39043372689844
 20
-8.108729321442226
 30
0.0
 10
12.48882901746023
 20
-8.200473206837158
 30
0.0
 10
12.66410334854888
 20
-8.405728806778155
 30
0.0
 10
12.7378884134135
 20
-8.515486421936085
 30
0.0
 10
12.86422126911942
 20
-8.745901984341414
 30
0.0
 10
12.9162824059121
 20
-8.866590169077739
 30
0.0
 10
12.97661386675239
 20
-9.044850915317964
 30
0.0
 10
12.99395951695431
 20
-9.104462708685073
 30
0.0
 10
13.02063019805654
 20
-9.214547395183216
 30
0.0
 10
13.02999999999682
 20
-9.265617081058195
 30
0.0
 10
13.02999999999682
 20
-9.289022290170278
 30
0.0
  0
SPLINE
  5
2A9
330
1F
100
AcDbEntity
  8
1
  6
SLD-Solid
370
    25
100
AcDbSpline
210
0.0
220
0.0
230
1.0
 70
     8
 71
     3
 72
    16
 73
    12
 74
     0
 42
0.000000001
 43
0.00000001
 40
0.0
 40
0.0
 40
0.0
 40
0.0
 40
0.1249999999999991
 40
0.1249999999999991
 40
0.2499999999999982
 40
0.2499999999999982
 40
0.4999999999999988
 40
0.4999999999999988
 40
0.7499999999999993
 40
0.7499999999999993
 40
1.0
 40
1.0
 40
1.0
 40
1.0
 10
9.199999999999985
 20
-9.289022290174795
 30
0.0
 10
9.199999999999985
 20
-9.265967775948452
 30
0.0
 10
9.209563827901404
 20
-9.213651598864427
 30
0.0
 10
9.236165608094925
 20
-9.10404233930049
 30
0.0
 10
9.253606986679333
 20
-9.0441485149351
 30
0.0
 10
9.313827278242371
 20
-8.866366468518489
 30
0.0
 10
9.364947089709307
 20
-8.74754544853239
 30
0.0
 10
9.492010964480672
 20
-8.515544216609864
 30
0.0
 10
9.566115913432371
 20
-8.405604957855441
 30
0.0
 10
9.739483002625725
 20
-8.202318123876465
 30
0.0
 10
9.839659725882827
 20
-8.108665056973333
 30
0.0
 10
9.949999999996836
 20
-8.032787607796788
 30
0.0
  0
SPLINE
  5
2AA
330
1F
100
AcDbEntity
  8
1
  6
SLD-Solid
370
    25
100
AcDbSpline
210
0.0
220
0.0
230
1.0
 70
     8
 71
     3
 72
    16
 73
    12
 74
     0
 42
0.000000001
 43
0.00000001
 40
0.0
 40
0.0
 40
0.0
 40
0.0
 40
0.1250000000000006
 40
0.1250000000000006
 40
0.2500000000000012
 40
0.2500000000000012
 40
0.5000000000000008
 40
0.5000000000000008
 40
0.7500000000000003
 40
0.7500000000000003
 40
1.0
 40
1.0
 40
1.0
 40
1.0
 10
13.02999999999997
 20
13.25423689575077
 30
0.0
 10
13.02999999999997
 20
13.22171486025361
 30
0.0
 10
13.02063230050279
 20
13.16522054528281
 30
0.0
 10
12.99361556231941
 20
13.04713227969972
 30
0.0
 10
12.9762138055608
 20
12.98560867824649
 30
0.0
 10
12.91546637159638
 20
12.80180430434869
 30
0.0
 10
12.8628040162321
 20
12.67859401980553
 30
0.0
 10
12.73666842354115
 20
12.44725763024152
 30
0.0
 10
12.6616803652899
 20
12.33600565164608
 30
0.0
 10
12.48724895776775
 20
12.13493244750437
 30
0.0
 10
12.39011238222307
 20
12.04699294675414
 30
0.0
 10
12.27999999999999
 20
11.9764663239689
 30
0.0
  0
SPLINE
  5
2AB
330
1F
100
AcDbEntity
  8
1
  6
SLD-Solid
370
    25
100
AcDbSpline
210
0.0
220
0.0
230
1.0
 70
     8
 71
     3
 72
    16
 73
    12
 74
     0
 42
0.000000001
 43
0.00000001
 40
0.0
 40
0.0
 40
0.0
 40
0.0
 40
0.2499999999999998
 40
0.2499999999999998
 40
0.4999999999999996
 40
0.4999999999999996
 40
0.7499999999999993
 40
0.7499999999999993
 40
0.8749999999999997
 40
0.8749999999999997
 40
1.0
 40
1.0
 40
1.0
 40
1.0
 10
9.949999999999987
 20
11.98944236018545
 30
0.0
 10
9.83884561823302
 20
12.06249067460921
 30
0.0
 10
9.739914737404543
 20
12.1544250669141
 30
0.0
 10
9.564332004720566
 20
12.3630546454497
 30
0.0
 10
9.49057364234708
 20
12.47615080652714
 30
0.0
 10
9.364616596655884
 20
12.7158397615857
 30
0.0
 10
9.312953250259964
 20
12.84224965040105
 30
0.0
 10
9.253227496010389
 20
13.03264456797213
 30
0.0
 10
9.236066342376212
 20
13.097051995342
 30
0.0
 10
9.209729158719593
 20
13.21897391871756
 30
0.0
 10
9.19999999999993
 20
13.28057692835785
 30
0.0
 10
9.199999999999958
 20
13.31323699229152
 30
0.0
  0
SPLINE
  5
2AC
330
1F
100
AcDbEntity
  8
1
  6
SLD-Solid
370
    25
100
AcDbSpline
210
0.0
220
0.0
230
1.0
 70
     8
 71
     3
 72
    12
 73
     8
 74
     0
 42
0.000000001
 43
0.00000001
 40
0.0
 40
0.0
 40
0.0
 40
0.0
 40
0.2500000000000002
 40
0.2500000000000002
 40
0.5000000000000001
 40
0.5000000000000001
 40
1.0
 40
1.0
 40
1.0
 40
1.0
 10
9.949999999996836
 20
-8.032787607796788
 30
0.0
 10
10.11987070991419
 20
-7.915972997159029
 30
0.0
 10
10.30396582361801
 20
-7.82686284067894
 30
0.0
 10
10.70032541250136
 20
-7.703990274779797
 30
0.0
 10
10.90572162653106
 20
-7.672893949801005
 30
0.0
 10
11.52828854875021
 20
-7.672366892885377
 30
0.0
 10
11.94025576621635
 20
-7.799156451461439
 30
0.0
 10
12.27999999999684
 20
-8.032787607796788
 30
0.0
  0
SPLINE
  5
2AD
330
1F
100
AcDbEntity
  8
1
  6
SLD-Solid
370
    25
100
AcDbSpline
210
0.0
220
0.0
230
1.0
 70
     8
 71
     3
 72
    12
 73
     8
 74
     0
 42
0.000000001
 43
0.00000001
 40
0.0
 40
0.0
 40
0.0
 40
0.0
 40
0.25
 40
0.25
 40
0.5
 40
0.5
 40
1.0
 40
1.0
 40
1.0
 40
1.0
 10
12.27999999999999
 20
11.9764663239689
 30
0.0
 10
12.10938073841186
 20
11.86718524168747
 30
0.0
 10
11.92471490211827
 20
11.78401387014914
 30
0.0
 10
11.52756570959018
 20
11.67009676386631
 30
0.0
 10
11.32197072607555
 20
11.64183419046648
 30
0.0
 10
10.69939572857358
 20
11.64482979934795
 30
0.0
 10
10.2882423786551
 20
11.76715660559204
 30
0.0
 10
9.949999999999987
 20
11.98944236018545
 30
0.0
  0
SPLINE
  5
2AE
330
1F
100
AcDbEntity
  8
1
  6
SLD-Solid
370
    25
100
AcDbSpline
210
0.0
220
0.0
230
1.0
 70
     8
 71
     3
 72
    16
 73
    12
 74
     0
 42
0.000000001
 43
0.00000001
 40
0.0
 40
0.0
 40
0.0
 40
0.0
 40
0.2499999999999996
 40
0.2499999999999996
 40
0.4999999999999991
 40
0.4999999999999991
 40
0.7499999999999987
 40
0.7499999999999987
 40
0.8749999999999993
 40
0.8749999999999993
 40
1.0
 40
1.0
 40
1.0
 40
1.0
 10
9.950000000000005
 20
-11.08803165800864
 30
0.0
 10
9.839566273098388
 20
-11.01523830532304
 30
0.0
 10
9.741170982536591
 20
-10.94274942699642
 30
0.0
 10
9.56589665144796
 20
-10.7954017333431
 30
0.0
 10
9.49211158658334
 20
-10.72328408444049
 30
0.0
 10
9.36577873087744
 20
-10.5815684920697
 30
0.0
 10
9.313717594084745
 20
-10.51146513976872
 30
0.0
 10
9.253386133244438
 20
-10.42213484998831
 30
0.0
 10
9.236040483042544
 20
-10.39455892286184
 30
0.0
 10
9.209369801940309
 20
-10.3581503499998
 30
0.0
 10
9.200000000000006
 20
-10.34977153459678
 30
0.0
 10
9.200000000000006
 20
-10.37317674370885
 30
0.0
  0
SPLINE
  5
2AF
330
1F
100
AcDbEntity
  8
1
  6
SLD-Solid
370
    25
100
AcDbSpline
210
0.0
220
0.0
230
1.0
 70
     8
 71
     3
 72
    16
 73
    12
 74
     0
 42
0.000000001
 43
0.00000001
 40
0.0
 40
0.0
 40
0.0
 40
0.0
 40
0.1249999999999985
 40
0.1249999999999985
 40
0.249999999999997
 40
0.249999999999997
 40
0.499999999999998
 40
0.499999999999998
 40
0.749999999999999
 40
0.749999999999999
 40
1.0
 40
1.0
 40
1.0
 40
1.0
 10
13.02999999999681
 20
-10.37317674370893
 30
0.0
 10
13.02999999999682
 20
-10.35012222948261
 30
0.0
 10
13.02043617209539
 20
-10.35837864255988
 30
0.0
 10
12.9938343919019
 20
-10.3947667511538
 30
0.0
 10
12.97639301331751
 20
-10.42247007438042
 30
0.0
 10
12.91617272175442
 20
-10.51161099949348
 30
0.0
 10
12.86505291028752
 20
-10.58058256634234
 30
0.0
 10
12.73798903551613
 20
-10.72322384373522
 30
0.0
 10
12.66388408656445
 20
-10.79552999607577
 30
0.0
 10
12.49051699737111
 20
-10.94138598585885
 30
0.0
 10
12.39034027411401
 20
-11.01529990554179
 30
0.0
 10
12.28
 20
-11.08803165800864
 30
0.0
  0
SPLINE
  5
2B0
330
1F
100
AcDbEntity
  8
1
  6
SLD-Solid
370
    25
100
AcDbSpline
210
0.0
220
0.0
230
1.0
 70
     8
 71
     3
 72
    12
 73
     8
 74
     0
 42
0.000000001
 43
0.00000001
 40
0.0
 40
0.0
 40
0.0
 40
0.0
 40
0.25
 40
0.25
 40
0.5
 40
0.5
 40
1.0
 40
1.0
 40
1.0
 40
1.0
 10
12.28
 20
-11.08803165800864
 30
0.0
 10
12.11012929008266
 20
-11.20000341559483
 30
0.0
 10
11.92603417637884
 20
-11.28491575699489
 30
0.0
 10
11.52967458749547
 20
-11.40184024692136
 30
0.0
 10
11.32427837346579
 20
-11.43132053842806
 30
0.0
 10
10.70171145124664
 20
-11.43182081838369
 30
0.0
 10
10.28974423378051
 20
-11.3119770280179
 30
0.0
 10
9.950000000000001
 20
-11.08803165800864
 30
0.0
  0
SPLINE
  5
2B1
330
1F
100
AcDbEntity
  8
1
  6
SLD-Solid
370
    25
100
AcDbSpline
210
0.0
220
0.0
230
1.0
 70
     8
 71
     3
 72
    12
 73
     8
 74
     0
 42
0.000000001
 43
0.00000001
 40
0.0
 40
0.0
 40
0.0
 40
0.0
 40
0.2499999999999984
 40
0.2499999999999984
 40
0.4999999999999969
 40
0.4999999999999969
 40
1.0
 40
1.0
 40
1.0
 40
1.0
 10
9.949999999999987
 20
-26.80430888868439
 30
0.0
 10
9.850219275687632
 20
-26.80430888868439
 30
0.0
 10
9.748489574720256
 20
-26.82597317527053
 30
0.0
 10
9.565050842134465
 20
-26.90735539054019
 30
0.0
 10
9.481946114451494
 20
-26.96711648327169
 30
0.0
 10
9.27707381455313
 20
-27.18590763033133
 30
0.0
 10
9.199999999999708
 20
-27.38705398234563
 30
0.0
 10
9.199999999999958
 20
-27.58683517549747
 30
0.0
  0
SPLINE
  5
2B2
330
1F
100
AcDbEntity
  8
1
  6
SLD-Solid
370
    25
100
AcDbSpline
210
0.0
220
0.0
230
1.0
 70
     8
 71
     3
 72
    14
 73
    10
 74
     0
 42
0.000000001
 43
0.00000001
 40
0.0
 40
0.0
 40
0.0
 40
0.0
 40
0.25
 40
0.25
 40
0.5
 40
0.5
 40
0.75
 40
0.75
 40
1.0
 40
1.0
 40
1.0
 40
1.0
 10
13.02999999999999
 20
-27.5868351754964
 30
0.0
 10
13.02999999999999
 20
-27.48633204917054
 30
0.0
 10
13.01129308106055
 20
-27.38625032826132
 30
0.0
 10
12.93873708556012
 20
-27.19964761855489
 30
0.0
 10
12.88449605857471
 20
-27.11279998838252
 30
0.0
 10
12.7479884257955
 20
-26.96707505027713
 30
0.0
 10
12.66478019424777
 20
-26.9071847047812
 30
0.0
 10
12.48051117986143
 20
-26.82562619640964
 30
0.0
 10
12.38097181174445
 20
-26.8043088886844
 30
0.0
 10
12.27999999999999
 20
-26.8043088886844
 30
0.0
  0
SPLINE
  5
2B3
330
1F
100
AcDbEntity
  8
1
  6
SLD-Solid
370
    25
100
AcDbSpline
210
0.0
220
0.0
230
1.0
 70
     8
 71
     3
 72
    33
 73
    29
 74
     0
 42
0.000000001
 43
0.00000001
 40
0.0
 40
0.0
 40
0.0
 40
0.0
 40
0.0173623762701164
 40
0.0511124757256717
 40
0.0855710230899668
 40
0.1131144006676739
 40
0.1410570977070354
 40
0.1691622926460795
 40
0.1975681051189934
 40
0.2247260760179078
 40
0.2519459518849097
 40
0.3067288214944559
 40
0.3624773604389822
 40
0.4184585237465258
 40
0.4655472553675957
 40
0.5127677787346614
 40
0.5605096842023028
 40
0.6085349396122686
 40
0.6384164759768851
 40
0.688726763786292
 40
0.7223369195834081
 40
0.7566387011014176
 40
0.7902916176410809
 40
0.8246815191487696
 40
0.8690771048161132
 40
0.9144072500050708
 40
0.9601322648257626
 40
1.0
 40
1.0
 40
1.0
 40
1.0
 10
9.482713136236457
 20
-8.539759875734857
 30
0.0
 10
9.485126217189304
 20
-8.566387380229141
 30
0.0
 10
9.492229999511908
 20
-8.644775134066844
 30
0.0
 10
9.52784641967616
 20
-8.745549569068825
 30
0.0
 10
9.572872083102341
 20
-8.844703927778266
 30
0.0
 10
9.623295092655665
 20
-8.921003749355574
 30
0.0
 10
9.67426535264733
 20
-8.981238417418194
 30
0.0
 10
9.729454058025166
 20
-9.032157205003895
 30
0.0
 10
9.787075313372902
 20
-9.074058100695295
 30
0.0
 10
9.846539317798358
 20
-9.10819430301393
 30
0.0
 10
9.927731280075028
 20
-9.144810347372312
 30
0.0
 10
10.0350138094991
 20
-9.176757216459775
 30
0.0
 10
10.17173874526506
 20
-9.196290197251653
 30
0.0
 10
10.30916242179515
 20
-9.199345152431944
 30
0.0
 10
10.44624811908307
 20
-9.190357986056112
 30
0.0
 10
10.58323076486187
 20
-9.17243910375795
 30
0.0
 10
10.73069869638914
 20
-9.145372150007415
 30
0.0
 10
10.87172512413941
 20
-9.113657415785635
 30
0.0
 10
11.0282811977961
 20
-9.074302141077608
 30
0.0
 10
11.18158149278037
 20
-9.032300806087276
 30
0.0
 10
11.3578824477909
 20
-8.979205471843683
 30
0.0
 10
11.51917781101437
 20
-8.925700487504809
 30
0.0
 10
11.68573684799154
 20
-8.86273410498431
 30
0.0
 10
11.86567401989091
 20
-8.782642036902145
 30
0.0
 10
12.05360043918068
 20
-8.679383152537294
 30
0.0
 10
12.23786130828378
 20
-8.546760498773093
 30
0.0
 10
12.395863014458
 20
-8.40100881964507
 30
0.0
 10
12.47718611332414
 20
-8.290286311027497
 30
0.0
 10
12.51506511323165
 20
-8.23871353586075
 30
0.0
  0
SPLINE
  5
2B4
330
1F
100
AcDbEntity
  8
1
  6
SLD-Solid
370
    25
100
AcDbSpline
210
0.0
220
0.0
230
1.0
 70
     8
 71
     3
 72
    18
 73
    14
 74
     0
 42
0.000000001
 43
0.00000001
 40
0.0
 40
0.0
 40
0.0
 40
0.0
 40
0.0660310422104147
 40
0.1884166688081108
 40
0.3115282267503543
 40
0.4136679491489905
 40
0.5173079670907211
 40
0.6032455916227829
 40
0.6915415001123605
 40
0.7775649526557198
 40
0.8661092008741554
 40
0.9796372492746374
 40
1.0
 40
1.0
 40
1.0
 40
1.0
 10
11.71787487589408
 20
-7.78298557365744
 30
0.0
 10
11.69404253011441
 20
-7.805935416866798
 30
0.0
 10
11.62603798177818
 20
-7.871421783012607
 30
0.0
 10
11.49832247445529
 20
-7.959341150131021
 30
0.0
 10
11.34702544488539
 20
-8.048811335384595
 30
0.0
 10
11.18859374168176
 20
-8.116395676324599
 30
0.0
 10
11.03359211619
 20
-8.158984209375133
 30
0.0
 10
10.87206026715609
 20
-8.177635664266488
 30
0.0
 10
10.71105168198165
 20
-8.171174439650896
 30
0.0
 10
10.54407254225348
 20
-8.138190539384125
 30
0.0
 10
10.36548254284207
 20
-8.071558236319758
 30
0.0
 10
10.23047980212372
 20
-8.004302064589394
 30
0.0
 10
10.16001385707482
 20
-7.948009503159593
 30
0.0
 10
10.14929706037911
 20
-7.939448262181327
 30
0.0
  0
SPLINE
  5
2B5
330
1F
100
AcDbEntity
  8
1
  6
SLD-Solid
370
    25
100
AcDbSpline
210
0.0
220
0.0
230
1.0
 70
     8
 71
     3
 72
    16
 73
    12
 74
     0
 42
0.000000001
 43
0.00000001
 40
0.0
 40
0.0
 40
0.0
 40
0.0
 40
0.1249999999999998
 40
0.1249999999999998
 40
0.2499999999999996
 40
0.2499999999999996
 40
0.4999999999999997
 40
0.4999999999999997
 40
0.7499999999999998
 40
0.7499999999999998
 40
1.0
 40
1.0
 40
1.0
 40
1.0
 10
9.199999999999985
 20
14.26535473703918
 30
0.0
 10
9.200000000001179
 20
14.23253824476477
 30
0.0
 10
9.209727271595858
 20
14.23245441136527
 30
0.0
 10
9.236153532651322
 20
14.25286869500705
 30
0.0
 10
9.253093968942098
 20
14.27242684068915
 30
0.0
 10
9.313101280437053
 20
14.33929382209753
 30
0.0
 10
9.363949492048274
 20
14.39399195112771
 30
0.0
 10
9.489587017955353
 20
14.50884403533466
 30
0.0
 10
9.564790355593129
 20
14.56998140421708
 30
0.0
 10
9.738478788322846
 20
14.69545148601957
 30
0.0
 10
9.839054875039235
 20
14.76114121960002
 30
0.0
 10
9.949999999998473
 20
14.8295777019137
 30
0.0
  0
SPLINE
  5
2B6
330
1F
100
AcDbEntity
  8
1
  6
SLD-Solid
370
    25
100
AcDbSpline
210
0.0
220
0.0
230
1.0
 70
     8
 71
     3
 72
    12
 73
     8
 74
     0
 42
0.000000001
 43
0.00000001
 40
0.0
 40
0.0
 40
0.0
 40
0.0
 40
0.25
 40
0.25
 40
0.5
 40
0.5
 40
1.0
 40
1.0
 40
1.0
 40
1.0
 10
9.949999999998473
 20
14.8295777019137
 30
0.0
 10
10.11911991650809
 20
14.93389929494779
 30
0.0
 10
10.30264352006736
 20
15.01316922924015
 30
0.0
 10
10.69821493774033
 20
15.12302212126949
 30
0.0
 10
10.90341251166625
 20
15.15123673005753
 30
0.0
 10
11.52597695073834
 20
15.15492821636435
 30
0.0
 10
11.93875839455201
 20
15.04679003658383
 30
0.0
 10
12.27999999999847
 20
14.84175400946484
 30
0.0
  0
SPLINE
  5
2B7
330
1F
100
AcDbEntity
  8
1
  6
SLD-Solid
370
    25
100
AcDbSpline
210
0.0
220
0.0
230
1.0
 70
     8
 71
     3
 72
    16
 73
    12
 74
     0
 42
0.000000001
 43
0.00000001
 40
0.0
 40
0.0
 40
0.0
 40
0.0
 40
0.2499999999999998
 40
0.2499999999999998
 40
0.4999999999999996
 40
0.4999999999999996
 40
0.7499999999999993
 40
0.7499999999999993
 40
0.8749999999999997
 40
0.8749999999999997
 40
1.0
 40
1.0
 40
1.0
 40
1.0
 10
12.27999999999847
 20
14.84175400946484
 30
0.0
 10
12.3898019473008
 20
14.77577918492566
 30
0.0
 10
12.48772649260083
 20
14.71390797499328
 30
0.0
 10
12.66276572822356
 20
14.59252964411471
 30
0.0
 10
12.73659155903502
 20
14.53541337993101
 30
0.0
 10
12.86328586416531
 20
14.42717476030362
 30
0.0
 10
12.91570770854668
 20
14.37541508243272
 30
0.0
 10
12.97655493867739
 20
14.31659247224885
 30
0.0
 10
12.99405038404701
 20
14.29983429832768
 30
0.0
 10
13.02080668460755
 20
14.28641213808363
 30
0.0
 10
13.02999999999846
 20
14.290791625713
 30
0.0
 10
13.02999999999846
 20
14.32307645371234
 30
0.0
  0
SPLINE
  5
2B8
330
1F
100
AcDbEntity
  8
1
  6
SLD-Solid
370
    25
100
AcDbSpline
210
0.0
220
0.0
230
1.0
 70
     8
 71
     3
 72
    20
 73
    16
 74
     0
 42
0.000000001
 43
0.00000001
 40
0.0
 40
0.0
 40
0.0
 40
0.0
 40
0.0403102680637169
 40
0.0808132435733866
 40
0.1215655402221319
 40
0.1816457811887719
 40
0.2431536215998072
 40
0.3666141839358562
 40
0.4907214402370133
 40
0.6170256157838042
 40
0.7438284845506336
 40
0.8080764793341798
 40
0.8719153098998664
 40
0.9357361146701623
 40
1.0
 40
1.0
 40
1.0
 40
1.0
 10
20.05
 20
22.40841568757297
 30
0.0
 10
20.0274876007667
 20
22.4089143799046
 30
0.0
 10
19.98235517942461
 20
22.40991414861865
 30
0.0
 10
19.91486816737806
 20
22.41799831265298
 30
0.0
 10
19.83735438873288
 20
22.43292957562661
 30
0.0
 10
19.75025542150761
 20
22.45853135277805
 30
0.0
 10
19.624009212986
 20
22.511342836539
 30
0.0
 10
19.47703852879726
 20
22.60357906071889
 30
0.0
 10
19.32626070516465
 20
22.74842065295754
 30
0.0
 10
19.20505549929386
 20
22.92050193245834
 30
0.0
 10
19.13111051793143
 20
23.08112458646306
 30
0.0
 10
19.08923802886575
 20
23.21608917829014
 30
0.0
 10
19.06678431459638
 20
23.32005109051136
 30
0.0
 10
19.05264320387036
 20
23.42555022925068
 30
0.0
 10
19.05088309752255
 20
23.49648518859642
 30
0.0
 10
19.05
 20
23.53207536014393
 30
0.0
  0
SPLINE
  5
2B9
330
1F
100
AcDbEntity
  8
1
  6
SLD-Solid
370
    25
100
AcDbSpline
210
0.0
220
0.0
230
1.0
 70
     8
 71
     3
 72
    10
 73
     6
 74
     0
 42
0.000000001
 43
0.00000001
 40
0.0
 40
0.0
 40
0.0
 40
0.0
 40
0.445313161559823
 40
0.8854861078483054
 40
1.0
 40
1.0
 40
1.0
 40
1.0
 10
19.05
 20
23.53207536014393
 30
0.0
 10
19.06459591544632
 20
23.39101782157476
 30
0.0
 10
19.09361926681949
 20
23.11053096065929
 30
0.0
 10
19.25379710777397
 20
22.81989250981576
 30
0.0
 10
19.38429588706092
 20
22.70085174031806
 30
0.0
 10
19.41123707639798
 20
22.67627603219732
 30
0.0
  0
SPLINE
  5
2BA
330
1F
100
AcDbEntity
  8
1
  6
SLD-Solid
370
    25
100
AcDbSpline
210
0.0
220
0.0
230
1.0
 70
     8
 71
     3
 72
    12
 73
     8
 74
     0
 42
0.000000001
 43
0.00000001
 40
0.0
 40
0.0
 40
0.0
 40
0.0
 40
0.2500000000000012
 40
0.2500000000000012
 40
0.5000000000000024
 40
0.5000000000000024
 40
1.0
 40
1.0
 40
1.0
 40
1.0
 10
9.949999999999987
 20
26.8043088886844
 30
0.0
 10
9.850203104901285
 20
26.80430888868441
 30
0.0
 10
9.749501667275991
 20
26.82572174190437
 30
0.0
 10
9.566443787491982
 20
26.90654241362413
 30
0.0
 10
9.48326792266993
 20
26.96588196572588
 30
0.0
 10
9.276316509628943
 20
27.18636461126023
 30
0.0
 10
9.199999999999985
 20
27.38652349465743
 30
0.0
 10
9.199999999999973
 20
27.58683517549638
 30
0.0
  0
SPLINE
  5
2BB
330
1F
100
AcDbEntity
  8
1
  6
SLD-Solid
370
    25
100
AcDbSpline
210
0.0
220
0.0
230
1.0
 70
     8
 71
     3
 72
    10
 73
     6
 74
     0
 42
0.000000001
 43
0.00000001
 40
0.0
 40
0.0
 40
0.0
 40
0.0
 40
0.5
 40
0.5
 40
1.0
 40
1.0
 40
1.0
 40
1.0
 10
13.02999999999997
 20
27.5868351754964
 30
0.0
 10
13.02999999999997
 20
27.38707634764943
 30
0.0
 10
12.95316556404608
 20
27.18603271636413
 30
0.0
 10
12.67905512633462
 20
26.89356078711211
 30
0.0
 10
12.48157512974546
 20
26.8043088886844
 30
0.0
 10
12.27999999999999
 20
26.8043088886844
 30
0.0
  0
SPLINE
  5
2BC
330
1F
100
AcDbEntity
  8
SK3
  6
SLD-Dashed
370
    18
100
AcDbSpline
210
0.0
220
0.0
230
1.0
 70
     8
 71
     3
 72
    10
 73
     6
 74
     0
 42
0.000000001
 43
0.00000001
 40
0.0
 40
0.0
 40
0.0
 40
0.0
 40
0.5
 40
0.5
 40
1.0
 40
1.0
 40
1.0
 40
1.0
 10
9.13815023860191
 20
-8.152513349923936
 30
0.0
 10
9.123100104871199
 20
-8.2556201082636
 30
0.0
 10
9.114984999226953
 20
-8.356863420605277
 30
0.0
 10
9.115015042334331
 20
-8.55268133330402
 30
0.0
 10
9.123102863559062
 20
-8.641600333137987
 30
0.0
 10
9.13815023860191
 20
-8.722760521764442
 30
0.0
  0
SPLINE
  5
2BD
330
1F
100
AcDbEntity
  8
SK3
  6
SLD-Dashed
370
    18
100
AcDbSpline
210
0.0
220
0.0
230
1.0
 70
     8
 71
     3
 72
    28
 73
    24
 74
     0
 42
0.000000001
 43
0.00000001
 40
0.0
 40
0.0
 40
0.0
 40
0.0
 40
0.026386579849003
 40
0.1063469877854308
 40
0.1611692889798669
 40
0.2162286201705654
 40
0.2659795535768054
 40
0.3158221966696423
 40
0.3659201466652462
 40
0.4161011513648583
 40
0.4673665499037936
 40
0.5187453511268661
 40
0.5705495110752028
 40
0.6225470582603951
 40
0.6665802307288629
 40
0.7108459368855644
 40
0.7561450167609439
 40
0.8020077549923917
 40
0.8395546029256361
 40
0.8778409091599042
 40
0.9154560788223887
 40
0.9543955547816281
 40
1.0
 40
1.0
 40
1.0
 40
1.0
 10
11.11500000000047
 20
-5.949256181891196
 30
0.0
 10
11.08867204928973
 20
-5.95721041165366
 30
0.0
 10
10.98256135708667
 20
-5.989268692045868
 30
0.0
 10
10.83883204522223
 20
-6.059098571708999
 30
0.0
 10
10.68479334933062
 20
-6.156930545364998
 30
0.0
 10
10.56386482146988
 20
-6.249146148557427
 30
0.0
 10
10.45280941469977
 20
-6.346134431090743
 30
0.0
 10
10.34998280641754
 20
-6.446662208597996
 30
0.0
 10
10.2508554084321
 20
-6.553938750436767
 30
0.0
 10
10.15438034862717
 20
-6.668793174347099
 30
0.0
 10
10.06049089995988
 20
-6.791497807777827
 30
0.0
 10
9.969005352182952
 20
-6.922900343190461
 30
0.0
 10
9.880649827860868
 20
-7.062917098052266
 30
0.0
 10
9.800243168276893
 20
-7.204629191520449
 30
0.0
 10
9.727851220258293
 20
-7.347098723674419
 30
0.0
 10
9.663047658014762
 20
-7.49033481945902
 30
0.0
 10
9.60272472090455
 20
-7.643808737986573
 30
0.0
 10
9.552206422009837
 20
-7.797942960993693
 30
0.0
 10
9.512572807905087
 20
-7.950008699623423
 30
0.0
 10
9.484260295575128
 20
-8.095912562994354
 30
0.0
 10
9.467472594478291
 20
-8.243628585899783
 30
0.0
 10
9.461014331853992
 20
-8.399105221493596
 30
0.0
 10
9.475109798882581
 20
-8.490473990312848
 30
0.0
 10
9.482713136236457
 20
-8.539759875734857
 30
0.0
  0
SPLINE
  5
2BE
330
1F
100
AcDbEntity
  8
SK3
  6
SLD-Dashed
370
    18
100
AcDbSpline
210
0.0
220
0.0
230
1.0
 70
     8
 71
     3
 72
    33
 73
    29
 74
     0
 42
0.000000001
 43
0.00000001
 40
0.0
 40
0.0
 40
0.0
 40
0.0
 40
0.0096190079271146
 40
0.0480745186023068
 40
0.0870906763156386
 40
0.1263954561358394
 40
0.1662985172053764
 40
0.2040648487343603
 40
0.2423989176471869
 40
0.281023054196498
 40
0.3202431521837416
 40
0.3570402407001836
 40
0.3943500831013138
 40
0.4319179742002018
 40
0.4700107749325646
 40
0.5074810604345389
 40
0.5454550624396922
 40
0.5836834548135001
 40
0.6224354361436044
 40
0.6609776652575762
 40
0.7001684868263949
 40
0.7397168668312625
 40
0.7800727386456633
 40
0.8285244944289125
 40
0.8779828291261226
 40
0.9264732171715914
 40
0.9759734258582708
 40
1.0
 40
1.0
 40
1.0
 40
1.0
 10
12.51506511323165
 20
-8.23871353586075
 30
0.0
 10
12.5216906099053
 20
-8.23044261001294
 30
0.0
 10
12.5548039585478
 20
-8.18910562583106
 30
0.0
 10
12.60059992725195
 20
-8.105320042682363
 30
0.0
 10
12.6571435093176
 20
-7.990989305076877
 30
0.0
 10
12.70181615195398
 20
-7.869275445696541
 30
0.0
 10
12.73496841185073
 20
-7.744839877043785
 30
0.0
 10
12.75630660233614
 20
-7.618073658191816
 30
0.0
 10
12.7661801054153
 20
-7.490366011666378
 30
0.0
 10
12.76455066595671
 20
-7.359570312138002
 30
0.0
 10
12.75135993329875
 20
-7.230030225095403
 30
0.0
 10
12.72725869998474
 20
-7.102524730609044
 30
0.0
 10
12.69307546721296
 20
-6.978293721826772
 30
0.0
 10
12.64810839775274
 20
-6.854996822161324
 30
0.0
 10
12.59291199296746
 20
-6.734848560403874
 30
0.0
 10
12.52773326964537
 20
-6.618522712083616
 30
0.0
 10
12.45312303179504
 20
-6.507192317514717
 30
0.0
 10
12.36858490178444
 20
-6.400771574655108
 30
0.0
 10
12.27489622135274
 20
-6.301045942343719
 30
0.0
 10
12.17212210349164
 20
-6.208861005613113
 30
0.0
 10
12.06083682726337
 20
-6.125705085742665
 30
0.0
 10
11.94058572287437
 20
-6.052626617819426
 30
0.0
 10
11.80432944695593
 20
-5.988103780226011
 30
0.0
 10
11.65183763079844
 20
-5.938031910419451
 30
0.0
 10
11.48886756194674
 20
-5.910471299020368
 30
0.0
 10
11.33012799066839
 20
-5.908857811279769
 30
0.0
 10
11.20672629162211
 20
-5.925675202279646
 30
0.0
 10
11.13759141678859
 20
-5.94344838426569
 30
0.0
 10
11.11500000000047
 20
-5.949256181891196
 30
0.0
  0
SPLINE
  5
2BF
330
1F
100
AcDbEntity
  8
SK3
  6
SLD-Dashed
370
    18
100
AcDbSpline
210
0.0
220
0.0
230
1.0
 70
     8
 71
     3
 72
    15
 73
    11
 74
     0
 42
0.000000001
 43
0.00000001
 40
0.0
 40
0.0
 40
0.0
 40
0.0
 40
0.0748242954353862
 40
0.1505793637679615
 40
0.3067280458941077
 40
0.437056880508518
 40
0.5683995098452416
 40
0.7020720415194783
 40
0.8363053150574279
 40
1.0
 40
1.0
 40
1.0
 40
1.0
 10
12.67730763443389
 20
-6.282635864365896
 30
0.0
 10
12.66146945313699
 20
-6.333265111437111
 30
0.0
 10
12.6295960723179
 20
-6.435153405442078
 30
0.0
 10
12.55314523970519
 20
-6.630128152790841
 30
0.0
 10
12.45186425821311
 20
-6.843379252244642
 30
0.0
 10
12.32383619874944
 20
-7.066100083093826
 30
0.0
 10
12.19522751480307
 20
-7.260039680463477
 30
0.0
 10
12.057732005945
 20
-7.439458486839738
 30
0.0
 10
11.90313354284846
 20
-7.620203535865056
 30
0.0
 10
11.78356892178209
 20
-7.725261900933884
 30
0.0
 10
11.71787487589408
 20
-7.78298557365744
 30
0.0
  0
SPLINE
  5
2C0
330
1F
100
AcDbEntity
  8
1
  6
SLD-Dashed
370
    18
100
AcDbSpline
210
0.0
220
0.0
230
1.0
 70
     8
 71
     3
 72
    22
 73
    18
 74
     0
 42
0.000000001
 43
0.00000001
 40
0.0
 40
0.0
 40
0.0
 40
0.0
 40
0.0287145586978669
 40
0.115269444215102
 40
0.1755540667825159
 40
0.2672630980159729
 40
0.3606154682523328
 40
0.4231429465512858
 40
0.5182971487194243
 40
0.6152522874170281
 40
0.678434787889637
 40
0.774732649462481
 40
0.807315456211289
 40
0.8398983623227475
 40
0.8731530414834984
 40
0.933589160269747
 40
1.0
 40
1.0
 40
1.0
 40
1.0
 10
22.03955930082503
 20
22.67627603219742
 30
0.0
 10
22.13972763266854
 20
22.68523187435215
 30
0.0
 10
22.54183542965908
 20
22.72118349591508
 30
0.0
 10
23.13829167091649
 20
22.79261485587436
 30
0.0
 10
23.91432693294046
 20
22.90860583304925
 30
0.0
 10
24.67003172046056
 20
23.04549838628625
 30
0.0
 10
25.36998945938968
 20
23.19626681510391
 30
0.0
 10
26.01802309749653
 20
23.35218328420773
 30
0.0
 10
26.60800995270575
 20
23.50836155830597
 30
0.0
 10
27.10786889245981
 20
23.65285580994141
 30
0.0
 10
27.52589827407152
 20
23.78025696938992
 30
0.0
 10
27.77376797526626
 20
23.85934263373178
 30
0.0
 10
27.93435026385178
 20
23.91165547247354
 30
0.0
 10
28.017656805852
 20
23.9390780692857
 30
0.0
 10
28.10388838904078
 20
23.96770149953733
 30
0.0
 10
28.18520264353461
 20
23.99499686305847
 30
0.0
 10
28.18676789544665
 20
23.99553644509999
 30
0.0
 10
28.1875873844993
 20
23.9958189437653
 30
0.0
  0
SPLINE
  5
2C1
330
1F
100
AcDbEntity
  8
SK3
  6
SLD-Dashed
370
    18
100
AcDbSpline
210
0.0
220
0.0
230
1.0
 70
    24
 71
     2
 72
     6
 73
     3
 74
     0
 42
0.000000001
 43
0.00000001
 40
0.0
 40
0.0
 40
0.0
 40
0.2499999999999999
 40
0.2499999999999999
 40
0.2499999999999999
 10
3.199999999999994
 20
22.6
 30
0.0
 10
3.192575886898821
 20
22.6
 30
0.0
 10
3.186463932143571
 20
22.6
 30
0.0
  0
SPLINE
  5
2C2
330
1F
100
AcDbEntity
  8
SK3
  6
SLD-Dashed
370
    18
100
AcDbSpline
210
0.0
220
0.0
230
1.0
 70
    24
 71
     3
 72
     8
 73
     4
 74
     0
 42
0.000000001
 43
0.00000001
 40
0.2499999999999999
 40
0.2499999999999999
 40
0.2499999999999999
 40
0.2499999999999999
 40
0.4999999999999999
 40
0.4999999999999999
 40
0.4999999999999999
 40
0.4999999999999999
 10
3.186463932143571
 20
22.6
 30
0.0
 10
3.180351977388307
 20
22.6
 30
0.0
 10
3.175622110806353
 20
22.6
 30
0.0
 10
3.1755356464295
 20
22.6
 30
0.0
  0
SPLINE
  5
2C3
330
1F
100
AcDbEntity
  8
SK3
  6
SLD-Dashed
370
    18
100
AcDbSpline
210
0.0
220
0.0
230
1.0
 70
    24
 71
     3
 72
     8
 73
     4
 74
     0
 42
0.000000001
 43
0.00000001
 40
0.4999999999999999
 40
0.4999999999999999
 40
0.4999999999999999
 40
0.4999999999999999
 40
0.5624999999999999
 40
0.5624999999999999
 40
0.5624999999999999
 40
0.5624999999999999
 10
3.1755356464295
 20
22.6
 30
0.0
 10
3.17551403033528
 20
22.6
 30
0.0
 10
3.175756782063152
 20
22.59999999999999
 30
0.0
 10
3.176252872171381
 20
22.6
 30
0.0
  0
SPLINE
  5
2C4
330
1F
100
AcDbEntity
  8
SK3
  6
SLD-Dashed
370
    18
100
AcDbSpline
210
0.0
220
0.0
230
1.0
 70
    24
 71
     3
 72
     8
 73
     4
 74
     0
 42
0.000000001
 43
0.00000001
 40
0.5624999999999999
 40
0.5624999999999999
 40
0.5624999999999999
 40
0.5624999999999999
 40
0.6249999999999998
 40
0.6249999999999998
 40
0.6249999999999998
 40
0.6249999999999998
 10
3.176252872171381
 20
22.6
 30
0.0
 10
3.176748962279596
 20
22.6
 30
0.0
 10
3.177497902177598
 20
22.6
 30
0.0
 10
3.178460899892682
 20
22.6
 30
0.0
  0
SPLINE
  5
2C5
330
1F
100
AcDbEntity
  8
SK3
  6
SLD-Dashed
370
    18
100
AcDbSpline
210
0.0
220
0.0
230
1.0
 70
    24
 71
     3
 72
     8
 73
     4
 74
     0
 42
0.000000001
 43
0.00000001
 40
0.6249999999999998
 40
0.6249999999999998
 40
0.6249999999999998
 40
0.6249999999999998
 40
0.7499999999999999
 40
0.7499999999999999
 40
0.7499999999999999
 40
0.7499999999999999
 10
3.178460899892682
 20
22.6
 30
0.0
 10
3.180386895322865
 20
22.6
 30
0.0
 10
3.183192270314536
 20
22.59999999999999
 30
0.0
 10
3.186270690980625
 20
22.59999999999999
 30
0.0
  0
SPLINE
  5
2C6
330
1F
100
AcDbEntity
  8
SK3
  6
SLD-Dashed
370
    18
100
AcDbSpline
210
0.0
220
0.0
230
1.0
 70
    24
 71
     2
 72
     6
 73
     3
 74
     0
 42
0.000000001
 43
0.00000001
 40
0.7499999999999999
 40
0.7499999999999999
 40
0.7499999999999999
 40
1.0
 40
1.0
 40
1.0
 10
3.186270690980625
 20
22.59999999999999
 30
0.0
 10
3.192427532312761
 20
22.6
 30
0.0
 10
3.199999999999994
 20
22.6
 30
0.0
  0
SPLINE
  5
2C7
330
1F
100
AcDbEntity
  8
SK3
  6
SLD-Dashed
370
    18
100
AcDbSpline
210
0.0
220
0.0
230
1.0
 70
     8
 71
     3
 72
    30
 73
    26
 74
     0
 42
0.000000001
 43
0.00000001
 40
0.5000000000000017
 40
0.5000000000000017
 40
0.5000000000000017
 40
0.5000000000000017
 40
0.5625000000000014
 40
0.5625000000000014
 40
0.5937500000000012
 40
0.5937500000000012
 40
0.6250000000000011
 40
0.6250000000000011
 40
0.6562500000000009
 40
0.6562500000000009
 40
0.6875000000000008
 40
0.6875000000000008
 40
0.7500000000000002
 40
0.7500000000000002
 40
0.78125
 40
0.78125
 40
0.8124999999999999
 40
0.8124999999999999
 40
0.8749999999999998
 40
0.8749999999999998
 40
0.9374999999999997
 40
0.9374999999999997
 40
0.9687499999999998
 40
0.9687499999999998
 40
1.0
 40
1.0
 40
1.0
 40
1.0
 10
11.1143036841071
 20
-3.877172552155864
 30
0.0
 10
11.33009126887197
 20
-3.877250570353364
 30
0.0
 10
11.54795128911971
 20
-3.840163879053005
 30
0.0
 10
11.84605317565859
 20
-3.733503950163406
 30
0.0
 10
11.94253393061905
 20
-3.688844576862364
 30
0.0
 10
12.12179675468215
 20
-3.584396341963808
 30
0.0
 10
12.20462098377893
 20
-3.524896024259275
 30
0.0
 10
12.35687870501914
 20
-3.39085534748642
 30
0.0
 10
12.42631806940207
 20
-3.315889249412177
 30
0.0
 10
12.54572006888067
 20
-3.156394907283581
 30
0.0
 10
12.5965879016931
 20
-3.071195911952113
 30
0.0
 10
12.72179440427297
 20
-2.797870601497675
 30
0.0
 10
12.7648746695358
 20
-2.599635773386622
 30
0.0
 10
12.76506225703517
 20
-2.292729329377904
 30
0.0
 10
12.75445301760235
 20
-2.190971671629367
 30
0.0
 10
12.71241496733702
 20
-1.988602412505144
 30
0.0
 10
12.6804512122969
 20
-1.887128696729745
 30
0.0
 10
12.55657935443361
 20
-1.597150549416181
 30
0.0
 10
12.4338679471566
 20
-1.416237039392042
 30
0.0
 10
12.13106882835609
 20
-1.113819439191387
 30
0.0
 10
11.94781800952532
 20
-0.9894109901842363
 30
0.0
 10
11.65004990845554
 20
-0.8634349448329581
 30
0.0
 10
11.54505220944867
 20
-0.8306714940699289
 30
0.0
 10
11.3323047047327
 20
-0.7872186525825775
 30
0.0
 10
11.22442130839525
 20
-0.7761870294391814
 30
0.0
 10
11.11499999999999
 20
-0.7761870294391814
 30
0.0
  0
SPLINE
  5
2C8
330
1F
100
AcDbEntity
  8
SK3
  6
SLD-Dashed
370
    18
100
AcDbSpline
210
0.0
220
0.0
230
1.0
 70
     8
 71
     3
 72
    32
 73
    28
 74
     0
 42
0.000000001
 43
0.00000001
 40
0.0
 40
0.0
 40
0.0
 40
0.0
 40
0.0312500000000002
 40
0.0312500000000002
 40
0.0625000000000003
 40
0.0625000000000003
 40
0.0937500000000005
 40
0.0937500000000005
 40
0.1250000000000007
 40
0.1250000000000007
 40
0.1875000000000008
 40
0.1875000000000008
 40
0.2500000000000009
 40
0.2500000000000009
 40
0.281250000000001
 40
0.281250000000001
 40
0.3125000000000011
 40
0.3125000000000011
 40
0.3750000000000013
 40
0.3750000000000013
 40
0.4062500000000014
 40
0.4062500000000014
 40
0.4375000000000015
 40
0.4375000000000015
 40
0.4687500000000016
 40
0.4687500000000016
 40
0.5000000000000017
 40
0.5000000000000017
 40
0.5000000000000017
 40
0.5000000000000017
 10
11.11499999999999
 20
-0.7761870294391814
 30
0.0
 10
11.00557869160475
 20
-0.7761870294391814
 30
0.0
 10
10.89806586933306
 20
-0.7872158517148453
 30
0.0
 10
10.68667557509279
 20
-0.8302464334251567
 30
0.0
 10
10.58167903828547
 20
-0.8627949969944211
 30
0.0
 10
10.38206695335692
 20
-0.9470624567166352
 30
0.0
 10
10.28745482523745
 20
-0.9984411012338781
 30
0.0
 10
10.10839779389289
 20
-1.119117661897574
 30
0.0
 10
10.02393255072596
 20
-1.188799965596045
 30
0.0
 10
9.79654330681945
 20
-1.415674410817785
 30
0.0
 10
9.673729911511012
 20
-1.596813358985795
 30
0.0
 10
9.508870539297929
 20
-1.981969919632957
 30
0.0
 10
9.465132936589724
 20
-2.190136880900962
 30
0.0
 10
9.46493399793709
 20
-2.494715483199069
 30
0.0
 10
9.47573993255485
 20
-2.596989968316688
 30
0.0
 10
9.518010878332554
 20
-2.792786270541935
 30
0.0
 10
9.54928231265674
 20
-2.887169215205685
 30
0.0
 10
9.673818187818428
 20
-3.160133943201981
 30
0.0
 10
9.795190608826637
 20
-3.321994093354218
 30
0.0
 10
10.02468579114225
 20
-3.52441175512774
 30
0.0
 10
10.10756261211378
 20
-3.583929339277786
 30
0.0
 10
10.2858915658829
 20
-3.688019764047507
 30
0.0
 10
10.38250767519573
 20
-3.732907718499729
 30
0.0
 10
10.58170943134508
 20
-3.804343127065277
 30
0.0
 10
10.68455576173691
 20
-3.831307682281061
 30
0.0
 10
10.89687217954247
 20
-3.867841494158395
 30
0.0
 10
11.00640989172467
 20
-3.877133543057111
 30
0.0
 10
11.1143036841071
 20
-3.877172552155864
 30
0.0
  0
SPLINE
  5
2C9
330
1F
100
AcDbEntity
  8
SK3
  6
SLD-Dashed
370
    18
100
AcDbSpline
210
0.0
220
0.0
230
1.0
 70
     8
 71
     3
 72
    34
 73
    30
 74
     0
 42
0.000000001
 43
0.00000001
 40
0.5000000000000014
 40
0.5000000000000014
 40
0.5000000000000014
 40
0.5000000000000014
 40
0.5312500000000011
 40
0.5312500000000011
 40
0.5625000000000009
 40
0.5625000000000009
 40
0.5937500000000006
 40
0.5937500000000006
 40
0.6250000000000002
 40
0.6250000000000002
 40
0.65625
 40
0.65625
 40
0.6874999999999997
 40
0.6874999999999997
 40
0.7187499999999993
 40
0.7187499999999993
 40
0.749999999999999
 40
0.749999999999999
 40
0.8124999999999983
 40
0.8124999999999983
 40
0.8437499999999986
 40
0.8437499999999986
 40
0.8749999999999989
 40
0.8749999999999989
 40
0.9062499999999991
 40
0.9062499999999991
 40
0.9374999999999993
 40
0.9374999999999993
 40
1.0
 40
1.0
 40
1.0
 40
1.0
 10
86.99736592227
 20
-4.731591341791034
 30
0.0
 10
87.12884666467605
 20
-4.73166158880188
 30
0.0
 10
87.26199923757927
 20
-4.72643131840051
 30
0.0
 10
87.52131808901339
 20
-4.705068742247773
 30
0.0
 10
87.64647298548003
 20
-4.689156671550434
 30
0.0
 10
87.8882655515545
 20
-4.645718782080404
 30
0.0
 10
88.00475021531048
 20
-4.618019827201791
 30
0.0
 10
88.22002320684277
 20
-4.55126295657237
 30
0.0
 10
88.32035373379694
 20
-4.511923556458793
 30
0.0
 10
88.50525962975244
 20
-4.419136576325297
 30
0.0
 10
88.58737354215063
 20
-4.366950463379295
 30
0.0
 10
88.73181233598712
 20
-4.249147524513716
 30
0.0
 10
88.79467791876705
 20
-4.182660523080341
 30
0.0
 10
88.89578724451322
 20
-4.037817421132229
 30
0.0
 10
88.9341537197382
 20
-3.959909911760658
 30
0.0
 10
88.98632506085372
 20
-3.791894391507226
 30
0.0
 10
88.99986134739576
 20
-3.700897825445377
 30
0.0
 10
89.00027403844166
 20
-3.421364451438376
 30
0.0
 10
88.94691457587528
 20
-3.218448397479048
 30
0.0
 10
88.79648294930095
 20
-2.923754675570503
 30
0.0
 10
88.73390017961708
 20
-2.825538105035035
 30
0.0
 10
88.58891181703693
 20
-2.638335797609939
 30
0.0
 10
88.50686722883324
 20
-2.54935303773841
 30
0.0
 10
88.32356800463361
 20
-2.382124325485374
 30
0.0
 10
88.2220063398375
 20
-2.304011865698511
 30
0.0
 10
88.00724462934856
 20
-2.166978890712538
 30
0.0
 10
87.89312394333326
 20
-2.107102017763547
 30
0.0
 10
87.52875663591855
 20
-1.957533173042886
 30
0.0
 10
87.2671118421878
 20
-1.903164920706642
 30
0.0
 10
87.00000000000003
 20
-1.903164920706642
 30
0.0
  0
SPLINE
  5
2CA
330
1F
100
AcDbEntity
  8
SK3
  6
SLD-Dashed
370
    18
100
AcDbSpline
210
0.0
220
0.0
230
1.0
 70
     8
 71
     3
 72
    34
 73
    30
 74
     0
 42
0.000000001
 43
0.00000001
 40
0.0
 40
0.0
 40
0.0
 40
0.0
 40
0.0312499999999999
 40
0.0312499999999999
 40
0.0624999999999998
 40
0.0624999999999998
 40
0.0937499999999998
 40
0.0937499999999998
 40
0.1249999999999997
 40
0.1249999999999997
 40
0.1874999999999996
 40
0.1874999999999996
 40
0.2187499999999995
 40
0.2187499999999995
 40
0.2499999999999994
 40
0.2499999999999994
 40
0.2812499999999993
 40
0.2812499999999993
 40
0.3124999999999992
 40
0.3124999999999992
 40
0.3437499999999991
 40
0.3437499999999991
 40
0.3749999999999989
 40
0.3749999999999989
 40
0.4062499999999988
 40
0.4062499999999988
 40
0.4374999999999987
 40
0.4374999999999987
 40
0.5000000000000014
 40
0.5000000000000014
 40
0.5000000000000014
 40
0.5000000000000014
 10
87.00000000000003
 20
-1.903164920706642
 30
0.0
 10
86.86644407890614
 20
-1.903164920706642
 30
0.0
 10
86.73541986698422
 20
-1.916561839094055
 30
0.0
 10
86.4781236485033
 20
-1.968241251331503
 30
0.0
 10
86.35050473828665
 20
-2.00720240941666
 30
0.0
 10
86.10913084518182
 20
-2.106070430664499
 30
0.0
 10
85.9948638451452
 20
-2.165744692809467
 30
0.0
 10
85.7785877514459
 20
-2.303523018498378
 30
0.0
 10
85.67738365968732
 20
-2.381396847102122
 30
0.0
 10
85.40363408590987
 20
-2.630726651605454
 30
0.0
 10
85.2550759320023
 20
-2.823596379499874
 30
0.0
 10
85.1045049935408
 20
-3.11730393476118
 30
0.0
 10
85.06529721992604
 20
-3.217980949023466
 30
0.0
 10
85.01324425022067
 20
-3.415163601708852
 30
0.0
 10
85.00015564448768
 20
-3.511227551724401
 30
0.0
 10
84.99984708858734
 20
-3.69795445613404
 30
0.0
 10
85.01308967726726
 20
-3.788948342540916
 30
0.0
 10
85.06466877568558
 20
-3.957143584049756
 30
0.0
 10
85.10285259945266
 20
-4.035524499813259
 30
0.0
 10
85.2044730498065
 20
-4.181781301418438
 30
0.0
 10
85.26623319342119
 20
-4.24727218529736
 30
0.0
 10
85.41056831405503
 20
-4.365545449599179
 30
0.0
 10
85.49417259391515
 20
-4.41873616622844
 30
0.0
 10
85.67732493726055
 20
-4.510872388202185
 30
0.0
 10
85.77688426837682
 20
-4.550153067812941
 30
0.0
 10
85.99256831541719
 20
-4.61733519826674
 30
0.0
 10
86.1089716634578
 20
-4.645086667261989
 30
0.0
 10
86.46897403920697
 20
-4.710162112598934
 30
0.0
 10
86.7344044374579
 20
-4.731450847769335
 30
0.0
 10
86.99736592227
 20
-4.731591341791034
 30
0.0
  0
SPLINE
  5
2CB
330
1F
100
AcDbEntity
  8
SK3
  6
SLD-Dashed
370
    18
100
AcDbSpline
210
0.0
220
0.0
230
1.0
 70
     8
 71
     3
 72
    32
 73
    28
 74
     0
 42
0.000000001
 43
0.00000001
 40
0.0
 40
0.0
 40
0.0
 40
0.0
 40
0.0625000000000023
 40
0.0625000000000023
 40
0.0937500000000027
 40
0.0937500000000027
 40
0.125000000000003
 40
0.125000000000003
 40
0.1562500000000034
 40
0.1562500000000034
 40
0.1875000000000035
 40
0.1875000000000035
 40
0.2500000000000041
 40
0.2500000000000041
 40
0.2812500000000044
 40
0.2812500000000044
 40
0.3125000000000047
 40
0.3125000000000047
 40
0.343750000000005
 40
0.343750000000005
 40
0.3750000000000053
 40
0.3750000000000053
 40
0.4062500000000056
 40
0.4062500000000056
 40
0.4375000000000059
 40
0.4375000000000059
 40
0.5000000000000054
 40
0.5000000000000054
 40
0.5000000000000054
 40
0.5000000000000054
 10
88.57122563624706
 20
-6.894291116568918
 30
0.0
 10
88.4497633012764
 20
-6.676182848518293
 30
0.0
 10
88.3194741544518
 20
-6.470430589673934
 30
0.0
 10
88.14146075436955
 20
-6.163106273242631
 30
0.0
 10
88.08656838323009
 20
-6.063083783998106
 30
0.0
 10
88.00118896440384
 20
-5.86459249117011
 30
0.0
 10
87.97248155209614
 20
-5.767794746375922
 30
0.0
 10
87.964898479401
 20
-5.587742648809037
 30
0.0
 10
87.98665820524363
 20
-5.508769972156897
 30
0.0
 10
88.0626661810518
 20
-5.376593399556026
 30
0.0
 10
88.11474488377854
 20
-5.323883729773312
 30
0.0
 10
88.28790316326729
 20
-5.195363417272798
 30
0.0
 10
88.41827862686719
 20
-5.151750217313234
 30
0.0
 10
88.60251341221792
 20
-5.141793102548659
 30
0.0
 10
88.66094412858972
 20
-5.148416009661528
 30
0.0
 10
88.76848467205647
 20
-5.182940581522455
 30
0.0
 10
88.8181765900968
 20
-5.211318602436489
 30
0.0
 10
88.90188554844653
 20
-5.29177838521036
 30
0.0
 10
88.93579629817711
 20
-5.343274555133941
 30
0.0
 10
88.98416949480476
 20
-5.472345754403987
 30
0.0
 10
88.99767549305685
 20
-5.548126916745527
 30
0.0
 10
89.00177162971193
 20
-5.719003325879736
 30
0.0
 10
88.99202491759462
 20
-5.815842714464607
 30
0.0
 10
88.95134284528
 20
-6.017995538086053
 30
0.0
 10
88.92006539291297
 20
-6.125877248372998
 30
0.0
 10
88.8024953275621
 20
-6.452820250388537
 30
0.0
 10
88.69193651681523
 20
-6.677399354760662
 30
0.0
 10
88.57219033101427
 20
-6.892558294613896
 30
0.0
  0
SPLINE
  5
2CC
330
1F
100
AcDbEntity
  8
SK3
  6
SLD-Dashed
370
    18
100
AcDbSpline
210
0.0
220
0.0
230
1.0
 70
     8
 71
     3
 72
    36
 73
    32
 74
     0
 42
0.000000001
 43
0.00000001
 40
0.0
 40
0.0
 40
0.0
 40
0.0
 40
0.0312500000000002
 40
0.0312500000000002
 40
0.0625000000000003
 40
0.0625000000000003
 40
0.1250000000000005
 40
0.1250000000000005
 40
0.1562500000000004
 40
0.1562500000000004
 40
0.1875000000000003
 40
0.1875000000000003
 40
0.2187500000000003
 40
0.2187500000000003
 40
0.2500000000000002
 40
0.2500000000000002
 40
0.2812500000000002
 40
0.2812500000000002
 40
0.3125000000000001
 40
0.3125000000000001
 40
0.3437500000000001
 40
0.3437500000000001
 40
0.3749999999999999
 40
0.3749999999999999
 40
0.4062499999999999
 40
0.4062499999999999
 40
0.4375
 40
0.4375
 40
0.4687500000000001
 40
0.4687500000000001
 40
0.5000000000000002
 40
0.5000000000000002
 40
0.5000000000000002
 40
0.5000000000000002
 10
85.42877436375295
 20
-6.894291116568894
 30
0.0
 10
85.3681642801775
 20
-7.003127821854648
 30
0.0
 10
85.31100396062139
 20
-7.112077174415478
 30
0.0
 10
85.20664714422492
 20
-7.331431446261858
 30
0.0
 10
85.15895593928133
 20
-7.44319346922182
 30
0.0
 10
85.04147940297266
 20
-7.769180950034213
 30
0.0
 10
84.99676702046276
 20
-7.979426617706608
 30
0.0
 10
85.00190534219524
 20
-8.237081873057038
 30
0.0
 10
85.01545630087688
 20
-8.314312448896803
 30
0.0
 10
85.06289918581437
 20
-8.442720467239047
 30
0.0
 10
85.09730535750627
 20
-8.495716675477633
 30
0.0
 10
85.18062817294685
 20
-8.576416926681704
 30
0.0
 10
85.23005954926252
 20
-8.605006129864655
 30
0.0
 10
85.3383406735916
 20
-8.640101444328003
 30
0.0
 10
85.39656985718278
 20
-8.64665847007647
 30
0.0
 10
85.51788162159833
 20
-8.64045759252299
 30
0.0
 10
85.5815586262075
 20
-8.62747975796867
 30
0.0
 10
85.70705706420283
 20
-8.5825127795993
 30
0.0
 10
85.7688080074534
 20
-8.550840320709103
 30
0.0
 10
85.88289799228997
 20
-8.466726374087
 30
0.0
 10
85.93617991729785
 20
-8.413349402534156
 30
0.0
 10
86.01263243597572
 20
-8.281676251883198
 30
0.0
 10
86.03476689406733
 20
-8.201387656979103
 30
0.0
 10
86.02801598565607
 20
-8.024299954197183
 30
0.0
 10
85.99944093820812
 20
-7.926003273836924
 30
0.0
 10
85.91519629397814
 20
-7.729067194123363
 30
0.0
 10
85.85965326552763
 20
-7.627524034969511
 30
0.0
 10
85.74232657941096
 20
-7.424724034787707
 30
0.0
 10
85.67983948781198
 20
-7.322372116876132
 30
0.0
 10
85.55394002182393
 20
-7.112472347758966
 30
0.0
 10
85.49056294638142
 20
-7.005117798757014
 30
0.0
 10
85.43059698695815
 20
-6.897562083799929
 30
0.0
  0
SPLINE
  5
2CD
330
1F
100
AcDbEntity
  8
SK3
  6
SLD-Dashed
370
    18
100
AcDbSpline
210
0.0
220
0.0
230
1.0
 70
     8
 71
     3
 72
    34
 73
    30
 74
     0
 42
0.000000001
 43
0.00000001
 40
0.5000000000000256
 40
0.5000000000000256
 40
0.5000000000000256
 40
0.5000000000000256
 40
0.5312500000000243
 40
0.5312500000000243
 40
0.562500000000023
 40
0.562500000000023
 40
0.5937500000000216
 40
0.5937500000000216
 40
0.6250000000000202
 40
0.6250000000000202
 40
0.6562500000000189
 40
0.6562500000000189
 40
0.6875000000000175
 40
0.6875000000000175
 40
0.7187500000000162
 40
0.7187500000000162
 40
0.7500000000000149
 40
0.7500000000000149
 40
0.8125000000000122
 40
0.8125000000000122
 40
0.8437500000000102
 40
0.8437500000000102
 40
0.8750000000000081
 40
0.8750000000000081
 40
0.9062500000000061
 40
0.9062500000000061
 40
0.9375000000000041
 40
0.9375000000000041
 40
1.0
 40
1.0
 40
1.0
 40
1.0
 10
87.00263407773001
 20
4.731591341791012
 30
0.0
 10
86.87115333532397
 20
4.73166158880186
 30
0.0
 10
86.73800076242077
 20
4.72643131840049
 30
0.0
 10
86.47868191098662
 20
4.705068742247735
 30
0.0
 10
86.35352701452001
 20
4.689156671550385
 30
0.0
 10
86.11173444844547
 20
4.645718782080365
 30
0.0
 10
85.99524978468956
 20
4.618019827201753
 30
0.0
 10
85.77997679315722
 20
4.551262956572335
 30
0.0
 10
85.67964626620308
 20
4.511923556458755
 30
0.0
 10
85.49474037024754
 20
4.419136576325262
 30
0.0
 10
85.41262645784941
 20
4.366950463379246
 30
0.0
 10
85.26818766401296
 20
4.249147524513678
 30
0.0
 10
85.20532208123299
 20
4.182660523080292
 30
0.0
 10
85.10421275548674
 20
4.037817421132163
 30
0.0
 10
85.06584628026187
 20
3.959909911760609
 30
0.0
 10
85.01367493914627
 20
3.791894391507157
 30
0.0
 10
85.00013865260425
 20
3.700897825445311
 30
0.0
 10
84.9997259615583
 20
3.421364451438327
 30
0.0
 10
85.05308542412484
 20
3.218448397479
 30
0.0
 10
85.20351705069903
 20
2.923754675570441
 30
0.0
 10
85.26609982038293
 20
2.825538105034969
 30
0.0
 10
85.41108818296308
 20
2.638335797609872
 30
0.0
 10
85.49313277116674
 20
2.549353037738331
 30
0.0
 10
85.67643199536643
 20
2.382124325485298
 30
0.0
 10
85.77799366016245
 20
2.304011865698445
 30
0.0
 10
85.99275537065148
 20
2.166978890712476
 30
0.0
 10
86.10687605666672
 20
2.107102017763485
 30
0.0
 10
86.47124336408143
 20
1.957533173042807
 30
0.0
 10
86.7328881578123
 20
1.903164920706545
 30
0.0
 10
87.0
 20
1.903164920706545
 30
0.0
  0
SPLINE
  5
2CE
330
1F
100
AcDbEntity
  8
SK3
  6
SLD-Dashed
370
    18
100
AcDbSpline
210
0.0
220
0.0
230
1.0
 70
     8
 71
     3
 72
    34
 73
    30
 74
     0
 42
0.000000001
 43
0.00000001
 40
0.0
 40
0.0
 40
0.0
 40
0.0
 40
0.0312500000000019
 40
0.0312500000000019
 40
0.0625000000000037
 40
0.0625000000000037
 40
0.0937500000000056
 40
0.0937500000000056
 40
0.1250000000000075
 40
0.1250000000000075
 40
0.1875000000000111
 40
0.1875000000000111
 40
0.2187500000000128
 40
0.2187500000000128
 40
0.2500000000000145
 40
0.2500000000000145
 40
0.2812500000000164
 40
0.2812500000000164
 40
0.3125000000000181
 40
0.3125000000000181
 40
0.3437500000000199
 40
0.3437500000000199
 40
0.3750000000000216
 40
0.3750000000000216
 40
0.4062500000000234
 40
0.4062500000000234
 40
0.4375000000000251
 40
0.4375000000000251
 40
0.5000000000000256
 40
0.5000000000000256
 40
0.5000000000000256
 40
0.5000000000000256
 10
87.0
 20
1.903164920706558
 30
0.0
 10
87.1335559210939
 20
1.903164920706545
 30
0.0
 10
87.26458013301574
 20
1.916561839093979
 30
0.0
 10
87.52187635149669
 20
1.968241251331437
 30
0.0
 10
87.64949526171345
 20
2.007202409416584
 30
0.0
 10
87.89086915481812
 20
2.106070430664422
 30
0.0
 10
88.00513615485481
 20
2.165744692809383
 30
0.0
 10
88.22141224855415
 20
2.303523018498316
 30
0.0
 10
88.32261634031266
 20
2.381396847102056
 30
0.0
 10
88.59636591409017
 20
2.630726651605388
 30
0.0
 10
88.74492406799777
 20
2.823596379499804
 30
0.0
 10
88.89549500645921
 20
3.117303934761131
 30
0.0
 10
88.93470278007395
 20
3.217980949023404
 30
0.0
 10
88.98675574977932
 20
3.415163601708786
 30
0.0
 10
88.99984435551237
 20
3.511227551724352
 30
0.0
 10
89.00015291141258
 20
3.697954456134002
 30
0.0
 10
88.98691032273278
 20
3.78894834254085
 30
0.0
 10
88.93533122431441
 20
3.957143584049722
 30
0.0
 10
88.89714740054733
 20
4.035524499813224
 30
0.0
 10
88.79552695019352
 20
4.1817813014184
 30
0.0
 10
88.7337668065788
 20
4.247272185297322
 30
0.0
 10
88.58943168594502
 20
4.365545449599127
 30
0.0
 10
88.50582740608482
 20
4.418736166228405
 30
0.0
 10
88.32267506273939
 20
4.51087238820215
 30
0.0
 10
88.22311573162322
 20
4.550153067812903
 30
0.0
 10
88.00743168458288
 20
4.617335198266688
 30
0.0
 10
87.89102833654228
 20
4.645086667261968
 30
0.0
 10
87.53102596079299
 20
4.710162112598913
 30
0.0
 10
87.26559556254213
 20
4.731450847769311
 30
0.0
 10
87.00263407773001
 20
4.731591341791012
 30
0.0
  0
SPLINE
  5
2CF
330
1F
100
AcDbEntity
  8
SK3
  6
SLD-Dashed
370
    18
100
AcDbSpline
210
0.0
220
0.0
230
1.0
 70
     8
 71
     3
 72
    36
 73
    32
 74
     0
 42
0.000000001
 43
0.00000001
 40
0.0
 40
0.0
 40
0.0
 40
0.0
 40
0.03125
 40
0.03125
 40
0.0624999999999999
 40
0.0624999999999999
 40
0.1249999999999998
 40
0.1249999999999998
 40
0.1562499999999998
 40
0.1562499999999998
 40
0.1874999999999998
 40
0.1874999999999998
 40
0.2187499999999998
 40
0.2187499999999998
 40
0.2499999999999997
 40
0.2499999999999997
 40
0.2812499999999997
 40
0.2812499999999997
 40
0.3124999999999996
 40
0.3124999999999996
 40
0.3437499999999996
 40
0.3437499999999996
 40
0.3749999999999995
 40
0.3749999999999995
 40
0.4062499999999995
 40
0.4062499999999995
 40
0.4374999999999994
 40
0.4374999999999994
 40
0.4687499999999994
 40
0.4687499999999994
 40
0.4999999999999993
 40
0.4999999999999993
 40
0.4999999999999993
 40
0.4999999999999993
 10
88.57122563624706
 20
6.894291116568821
 30
0.0
 10
88.63183571982056
 20
7.003127821855617
 30
0.0
 10
88.68899603937511
 20
7.112077174417399
 30
0.0
 10
88.79335285576754
 20
7.331431446265545
 30
0.0
 10
88.84104406070945
 20
7.443193469226311
 30
0.0
 10
88.9585205970126
 20
7.769180950040699
 30
0.0
 10
89.00323297951904
 20
7.979426617713857
 30
0.0
 10
88.99809465778199
 20
8.237081873064197
 30
0.0
 10
88.98454369909919
 20
8.314312448903717
 30
0.0
 10
88.93710081415945
 20
8.44272046724516
 30
0.0
 10
88.90269464246676
 20
8.495716675483148
 30
0.0
 10
88.81937182702465
 20
8.576416926685864
 30
0.0
 10
88.76994045070849
 20
8.605006129867949
 30
0.0
 10
88.66165932637887
 20
8.64010144432946
 30
0.0
 10
88.60343014278763
 20
8.646658470076957
 30
0.0
 10
88.48211837837216
 20
8.640457592521404
 30
0.0
 10
88.41844137376323
 20
8.627479757966023
 30
0.0
 10
88.29294293576856
 20
8.582512779594508
 30
0.0
 10
88.23119199251848
 20
8.550840320703253
 30
0.0
 10
88.1171020076835
 20
8.466726374079233
 30
0.0
 10
88.06382008267636
 20
8.413349402525535
 30
0.0
 10
87.98736756400083
 20
8.28167625187324
 30
0.0
 10
87.96523310591046
 20
8.201387656968782
 30
0.0
 10
87.97198401432463
 20
8.02429995418695
 30
0.0
 10
88.00055906177451
 20
7.926003273827191
 30
0.0
 10
88.08480370600775
 20
7.729067194115056
 30
0.0
 10
88.14034673446011
 20
7.627524034962134
 30
0.0
 10
88.25767342058013
 20
7.424724034782317
 30
0.0
 10
88.32016051218103
 20
7.322372116871819
 30
0.0
 10
88.44605997817249
 20
7.112472347756777
 30
0.0
 10
88.50943705361667
 20
7.005117798755893
 30
0.0
 10
88.56940301304189
 20
6.897562083799831
 30
0.0
  0
SPLINE
  5
2D0
330
1F
100
AcDbEntity
  8
SK3
  6
SLD-Dashed
370
    18
100
AcDbSpline
210
0.0
220
0.0
230
1.0
 70
     8
 71
     3
 72
    32
 73
    28
 74
     0
 42
0.000000001
 43
0.00000001
 40
0.0
 40
0.0
 40
0.0
 40
0.0
 40
0.062499999999999
 40
0.062499999999999
 40
0.0937499999999986
 40
0.0937499999999986
 40
0.1249999999999983
 40
0.1249999999999983
 40
0.1562499999999979
 40
0.1562499999999979
 40
0.1874999999999974
 40
0.1874999999999974
 40
0.2499999999999965
 40
0.2499999999999965
 40
0.2812499999999959
 40
0.2812499999999959
 40
0.3124999999999953
 40
0.3124999999999953
 40
0.3437499999999947
 40
0.3437499999999947
 40
0.3749999999999942
 40
0.3749999999999942
 40
0.4062499999999936
 40
0.4062499999999936
 40
0.437499999999993
 40
0.437499999999993
 40
0.4999999999999932
 40
0.4999999999999932
 40
0.4999999999999932
 40
0.4999999999999932
 10
85.42877436375295
 20
6.894291116568827
 30
0.0
 10
85.55023669872355
 20
6.676182848518189
 30
0.0
 10
85.68052584554809
 20
6.470430589673823
 30
0.0
 10
85.85853924563041
 20
6.163106273242514
 30
0.0
 10
85.91343161676993
 20
6.063083783998009
 30
0.0
 10
85.99881103559623
 20
5.864592491169995
 30
0.0
 10
86.0275184479039
 20
5.767794746375815
 30
0.0
 10
86.03510152059904
 20
5.58774264880893
 30
0.0
 10
86.01334179475637
 20
5.508769972156783
 30
0.0
 10
85.93733381894822
 20
5.376593399555915
 30
0.0
 10
85.88525511622147
 20
5.323883729773201
 30
0.0
 10
85.71209683673273
 20
5.19536341727269
 30
0.0
 10
85.58172137313288
 20
5.151750217313136
 30
0.0
 10
85.39748658778213
 20
5.141793102548552
 30
0.0
 10
85.3390558714103
 20
5.14841600966142
 30
0.0
 10
85.23151532794357
 20
5.182940581522348
 30
0.0
 10
85.18182340990319
 20
5.211318602436378
 30
0.0
 10
85.09811445155344
 20
5.291778385210256
 30
0.0
 10
85.0642037018229
 20
5.343274555133851
 30
0.0
 10
85.01583050519527
 20
5.472345754403876
 30
0.0
 10
85.00232450694317
 20
5.548126916745423
 30
0.0
 10
84.99822837028812
 20
5.719003325879643
 30
0.0
 10
85.00797508240538
 20
5.815842714464504
 30
0.0
 10
85.04865715471999
 20
6.017995538085935
 30
0.0
 10
85.07993460708704
 20
6.125877248372907
 30
0.0
 10
85.19750467243786
 20
6.452820250388417
 30
0.0
 10
85.30806348318478
 20
6.677399354760555
 30
0.0
 10
85.42780966898574
 20
6.892558294613785
 30
0.0
  0
SPLINE
  5
2D1
330
1F
100
AcDbEntity
  8
SK3
  6
SLD-Dashed
370
    18
100
AcDbSpline
210
0.0
220
0.0
230
1.0
 70
     8
 71
     3
 72
    10
 73
     6
 74
     0
 42
0.000000001
 43
0.00000001
 40
0.0
 40
0.0
 40
0.0
 40
0.0
 40
0.5
 40
0.5
 40
1.0
 40
1.0
 40
1.0
 40
1.0
 10
18.54999999999998
 20
-25.30000000000001
 30
0.0
 10
18.54999999999998
 20
-25.37685488672687
 30
0.0
 10
18.5684457688598
 20
-25.45145660760569
 30
0.0
 10
18.62566366171893
 20
-25.59247519580721
 30
0.0
 10
18.66325160725779
 20
-25.65842864116834
 30
0.0
 10
18.70459032431992
 20
-25.72247898491319
 30
0.0
  0
SPLINE
  5
2D2
330
1F
100
AcDbEntity
  8
SK3
  6
SLD-Dashed
370
    18
100
AcDbSpline
210
0.0
220
0.0
230
1.0
 70
     8
 71
     3
 72
    10
 73
     6
 74
     0
 42
0.000000001
 43
0.00000001
 40
0.0
 40
0.0
 40
0.0
 40
0.0
 40
0.5
 40
0.5
 40
1.0
 40
1.0
 40
1.0
 40
1.0
 10
3.545289948421931
 20
-25.72266446696798
 30
0.0
 10
3.586629693137513
 20
-25.65862892930114
 30
0.0
 10
3.624185185877731
 20
-25.59272978733737
 30
0.0
 10
3.681344410056949
 20
-25.45209092415753
 30
0.0
 10
3.699999999999993
 20
-25.37690471036053
 30
0.0
 10
3.699999999999993
 20
-25.30000000000001
 30
0.0
  0
SPLINE
  5
2D3
330
1F
100
AcDbEntity
  8
SK3
  6
SLD-Dashed
370
    18
100
AcDbSpline
210
0.0
220
0.0
230
1.0
 70
    24
 71
     3
 72
     8
 73
     4
 74
     0
 42
0.000000001
 43
0.00000001
 40
0.0
 40
0.0
 40
0.0
 40
0.0
 40
0.5
 40
0.5
 40
0.5
 40
0.5
 10
3.199999999999994
 20
22.6
 30
0.0
 10
3.297404612181282
 20
22.6
 30
0.0
 10
3.392458024076686
 20
22.6
 30
0.0
 10
3.474580131426333
 20
22.60000000000001
 30
0.0
  0
SPLINE
  5
2D4
330
1F
100
AcDbEntity
  8
SK3
  6
SLD-Dashed
370
    18
100
AcDbSpline
210
0.0
220
0.0
230
1.0
 70
    24
 71
     3
 72
     8
 73
     4
 74
     0
 42
0.000000001
 43
0.00000001
 40
0.5
 40
0.5
 40
0.5
 40
0.5
 40
0.75
 40
0.75
 40
0.75
 40
0.75
 10
3.474580131426333
 20
22.60000000000001
 30
0.0
 10
3.515641185101157
 20
22.60000000000001
 30
0.0
 10
3.553141821186712
 20
22.6
 30
0.0
 10
3.582035778873491
 20
22.60000000000001
 30
0.0
  0
SPLINE
  5
2D5
330
1F
100
AcDbEntity
  8
SK3
  6
SLD-Dashed
370
    18
100
AcDbSpline
210
0.0
220
0.0
230
1.0
 70
    24
 71
     2
 72
     6
 73
     3
 74
     0
 42
0.000000001
 43
0.00000001
 40
0.75
 40
0.75
 40
0.75
 40
1.0
 40
1.0
 40
1.0
 10
3.582035778873492
 20
22.60000000000001
 30
0.0
 10
3.607374968997835
 20
22.5861152517269
 30
0.0
 10
3.623867116599924
 20
22.57707828895047
 30
0.0
  0
SPLINE
  5
2D6
330
1F
100
AcDbEntity
  8
SK3
  6
SLD-Dashed
370
    18
100
AcDbSpline
210
0.0
220
0.0
230
1.0
 70
     8
 71
     3
 72
    32
 73
    28
 74
     0
 42
0.000000001
 43
0.00000001
 40
0.0
 40
0.0
 40
0.0
 40
0.0
 40
0.0314247042100731
 40
0.0627361020228391
 40
0.1252746117070713
 40
0.1539592720611233
 40
0.1970495132292579
 40
0.2505154778796657
 40
0.2789491152340473
 40
0.3216244705618287
 40
0.3752662880184966
 40
0.4040058917910522
 40
0.4468709414625707
 40
0.5002072395464257
 40
0.5286758290850119
 40
0.5715468433178892
 40
0.6253871654989189
 40
0.6539190971541645
 40
0.6965945969020281
 40
0.749971215206833
 40
0.778597683343181
 40
0.8217130856357608
 40
0.8751771545280747
 40
0.9000486762450085
 40
0.9373735729958378
 40
0.9685902180614491
 40
1.0
 40
1.0
 40
1.0
 40
1.0
 10
3.629735523668657
 20
29.82882114257109
 30
0.0
 10
3.629808199829052
 20
29.83419323187015
 30
0.0
 10
3.629953290105303
 20
29.84491804060943
 30
0.0
 10
3.631496860992398
 20
29.86628528746798
 30
0.0
 10
3.634394002772474
 20
29.88706310980155
 30
0.0
 10
3.639126275672544
 20
29.90953419569856
 30
0.0
 10
3.644652846769956
 20
29.93023160815014
 30
0.0
 10
3.651652038549917
 20
29.95044462502961
 30
0.0
 10
3.659848961430912
 20
29.97010326989919
 30
0.0
 10
3.669108746152546
 20
29.98932831257827
 30
0.0
 10
3.679783901492649
 20
30.00787912711378
 30
0.0
 10
3.69161624590497
 20
30.02572753383515
 30
0.0
 10
3.704389742261143
 20
30.04286242574865
 30
0.0
 10
3.718384829321893
 20
30.05896941224617
 30
0.0
 10
3.733369556456589
 20
30.0741307082925
 30
0.0
 10
3.749253471724362
 20
30.08849194624849
 30
0.0
 10
3.766212297795085
 20
30.10160583602285
 30
0.0
 10
3.783952921563915
 20
30.11353908097587
 30
0.0
 10
3.802288282235139
 20
30.12440318635153
 30
0.0
 10
3.821440714631627
 20
30.13381866711362
 30
0.0
 10
3.8412279710624
 20
30.14195042303675
 30
0.0
 10
3.861484110936758
 20
30.14891417798696
 30
0.0
 10
3.881620549286341
 20
30.15408652144014
 30
0.0
 10
3.901050989789101
 20
30.15776004896274
 30
0.0
 10
3.916884311220572
 20
30.15989729341236
 30
0.0
 10
3.933924186705337
 20
30.1612818422036
 30
0.0
 10
3.944630389764225
 20
30.16144319907838
 30
0.0
 10
3.949999999999995
 20
30.16152412632417
 30
0.0
  0
SPLINE
  5
2D7
330
1F
100
AcDbEntity
  8
SK3
  6
SLD-Dashed
370
    18
100
AcDbSpline
210
0.0
220
0.0
230
1.0
 70
     8
 71
     3
 72
    32
 73
    28
 74
     0
 42
0.000000001
 43
0.00000001
 40
0.0
 40
0.0
 40
0.0
 40
0.0
 40
0.0252069619805874
 40
0.0503565928962379
 40
0.1006490309396808
 40
0.1352066802269564
 40
0.186599384585253
 40
0.2121889141728458
 40
0.2505546444408253
 40
0.27903818849065
 40
0.3220317068360388
 40
0.3758145255415051
 40
0.4042958205195207
 40
0.4469103686213849
 40
0.5002459503880041
 40
0.5288558246776746
 40
0.5719893761750706
 40
0.6254951328276653
 40
0.6539175144736323
 40
0.6965367204728627
 40
0.7500346443241708
 40
0.7787727799701011
 40
0.8217726885774392
 40
0.8751571720188793
 40
0.9373534326371774
 40
0.9685881929332912
 40
1.0
 40
1.0
 40
1.0
 40
1.0
 10
18.29999999999986
 20
30.16151882748106
 30
0.0
 10
18.30430902334353
 20
30.16146650493252
 30
0.0
 10
18.3129172695282
 20
30.16136197883855
 30
0.0
 10
18.33009120300672
 20
30.1602444915308
 30
0.0
 10
18.34877123501706
 20
30.15790438581767
 30
0.0
 10
18.37162342989226
 20
30.15336639862265
 30
0.0
 10
18.3900399099699
 20
30.14833078717683
 30
0.0
 10
18.40869424501822
 20
30.14193458953037
 30
0.0
 10
18.42336204009491
 20
30.13602730574529
 30
0.0
 10
18.44037501659791
 20
30.12807150312572
 30
0.0
 10
18.45922456367678
 20
30.11788058118612
 30
0.0
 10
18.47723069578502
 20
30.10624150695177
 30
0.0
 10
18.49435732949328
 20
30.0934916374779
 30
0.0
 10
18.51068613125265
 20
30.07983729641958
 30
0.0
 10
18.52595416573763
 20
30.06495801131263
 30
0.0
 10
18.54027962291712
 20
30.04907978434331
 30
0.0
 10
18.55371963054517
 20
30.03239441179732
 30
0.0
 10
18.56586202957204
 20
30.01476806921988
 30
0.0
 10
18.57681720350998
 20
29.99650801854862
 30
0.0
 10
18.58676896247885
 20
29.97767283170701
 30
0.0
 10
18.59534797253594
 20
29.95810304290551
 30
0.0
 10
18.60271179006057
 20
29.93799727883849
 30
0.0
 10
18.60898030733882
 20
29.91753322021585
 30
0.0
 10
18.61504558276721
 20
29.89108445487321
 30
0.0
 10
18.6185058542118
 20
29.86619190629658
 30
0.0
 10
18.62004474499436
 20
29.8448981648681
 30
0.0
 10
18.62018906010311
 20
29.83418880501221
 30
0.0
 10
18.62026142158345
 20
29.82881899211166
 30
0.0
  0
SPLINE
  5
2D8
330
1F
100
AcDbEntity
  8
SK3
  6
SLD-Dashed
370
    18
100
AcDbSpline
210
0.0
220
0.0
230
1.0
 70
     8
 71
     3
 72
    11
 73
     7
 74
     0
 42
0.000000001
 43
0.00000001
 40
0.0
 40
0.0
 40
0.0
 40
0.0
 40
0.2502645845015656
 40
0.501078336221476
 40
0.7502337917713137
 40
1.0
 40
1.0
 40
1.0
 40
1.0
 10
18.62026142158345
 20
23.53207263426144
 30
0.0
 10
18.62097186260175
 20
23.49558105287616
 30
0.0
 10
18.62239430359211
 20
23.42251781493126
 30
0.0
 10
18.63402966464492
 20
23.31366181133476
 30
0.0
 10
18.65197470744831
 20
23.2057406182212
 30
0.0
 10
18.67011638055115
 20
23.13527561799862
 30
0.0
 10
18.67919832112575
 20
23.09999998818302
 30
0.0
  0
SPLINE
  5
2D9
330
1F
100
AcDbEntity
  8
SK3
  6
SLD-Dashed
370
    18
100
AcDbSpline
210
0.0
220
0.0
230
1.0
 70
     8
 71
     3
 72
     8
 73
     4
 74
     0
 42
0.000000001
 43
0.00000001
 40
0.0
 40
0.0
 40
0.0
 40
0.0
 40
1.0
 40
1.0
 40
1.0
 40
1.0
 10
22.90589271483123
 20
22.60000000000008
 30
0.0
 10
22.62006321713575
 20
22.60000000000186
 30
0.0
 10
22.33169086720421
 20
22.63123629572943
 30
0.0
 10
22.03955930082457
 20
22.67627603219732
 30
0.0
  0
SPLINE
  5
2DA
330
1F
100
AcDbEntity
  8
SK3
  6
SLD-Dashed
370
    18
100
AcDbSpline
210
0.0
220
0.0
230
1.0
 70
     8
 71
     3
 72
    40
 73
    36
 74
     0
 42
0.000000001
 43
0.00000001
 40
0.0
 40
0.0
 40
0.0
 40
0.0
 40
0.0126129321408283
 40
0.0314976481214804
 40
0.0629183966423004
 40
0.0880663439234771
 40
0.1258663547630659
 40
0.1545361786769469
 40
0.1972635113860118
 40
0.2185774264929213
 40
0.2505499734617904
 40
0.2790323571714433
 40
0.3220275474574914
 40
0.3436168158787494
 40
0.375813362012343
 40
0.4042898095193623
 40
0.4468993710703059
 40
0.4682109724152067
 40
0.5002437124730655
 40
0.5288533887103667
 40
0.5719828275690878
 40
0.593442063717643
 40
0.6254916984600154
 40
0.6539107272747688
 40
0.6965262692823422
 40
0.717882390643
 40
0.7500313093223339
 40
0.77878001027844
 40
0.8217645159398439
 40
0.8431483194674755
 40
0.8751517844219839
 40
0.9000181011005816
 40
0.9373587731716256
 40
0.9685909586700391
 40
1.0
 40
1.0
 40
1.0
 40
1.0
 10
3.94999999999994
 20
-30.22558335104477
 30
0.0
 10
3.947274292782424
 20
-30.22556627837426
 30
0.0
 10
3.940467519713262
 20
-30.22552364364334
 30
0.0
 10
3.926877983687127
 20
-30.22500642557807
 30
0.0
 10
3.91061438734247
 20
-30.22373406987439
 30
0.0
 10
3.890377115178118
 20
-30.22117674999664
 30
0.0
 10
3.870876244597143
 20
-30.21767179888228
 30
0.0
 10
3.84790898035918
 20
-30.21222395072516
 30
0.0
 10
3.828703260232283
 20
-30.20645116374014
 30
0.0
 10
3.809171858784169
 20
-30.19944068106972
 30
0.0
 10
3.792809364003003
 20
-30.19274469805127
 30
0.0
 10
3.772556053465645
 20
-30.18326482982705
 30
0.0
 10
3.754851422365618
 20
-30.1736832090008
 30
0.0
 10
3.73700024848618
 20
-30.16278063541472
 30
0.0
 10
3.722236988247696
 20
-30.15286142074787
 30
0.0
 10
3.704335276374648
 20
-30.13952115792135
 30
0.0
 10
3.689009802607793
 20
-30.12669393443842
 30
0.0
 10
3.673803788837152
 20
-30.11259236596241
 30
0.0
 10
3.661327331475034
 20
-30.10001076072562
 30
0.0
 10
3.646310110722667
 20
-30.08334809853187
 30
0.0
 10
3.633673399458304
 20
-30.0676427461584
 30
0.0
 10
3.621409205963627
 20
-30.05073652815438
 30
0.0
 10
3.611609822899639
 20
-30.03598122494392
 30
0.0
 10
3.600155064571675
 20
-30.01686876573008
 30
0.0
 10
3.590828263207932
 20
-29.9991967461773
 30
0.0
 10
3.582034289550173
 20
-29.98037575892739
 30
0.0
 10
3.575164227012775
 20
-29.96397331420787
 30
0.0
 10
3.567448245865412
 20
-29.9428859844985
 30
0.0
 10
3.561556458152329
 20
-29.92362807390468
 30
0.0
 10
3.556426937905297
 20
-29.90344122156742
 30
0.0
 10
3.552917337559969
 20
-29.88689138494672
 30
0.0
 10
3.549534767675402
 20
-29.86681106446738
 30
0.0
 10
3.547123069127536
 20
-29.84675380194974
 30
0.0
 10
3.545562744603561
 20
-29.82519288085007
 30
0.0
 10
3.545381051474714
 20
-29.81165479503151
 30
0.0
 10
3.545289948421932
 20
-29.80486664099091
 30
0.0
  0
SPLINE
  5
2DB
330
1F
100
AcDbEntity
  8
SK3
  6
SLD-Dashed
370
    18
100
AcDbSpline
210
0.0
220
0.0
230
1.0
 70
     8
 71
     3
 72
    40
 73
    36
 74
     0
 42
0.000000001
 43
0.00000001
 40
0.0
 40
0.0
 40
0.0
 40
0.0
 40
0.0314214559032091
 40
0.0627294388196716
 40
0.0877405063681813
 40
0.125275232017435
 40
0.1539551374834501
 40
0.197043083022503
 40
0.218475335544693
 40
0.2505176107708036
 40
0.2789492343756594
 40
0.3216198593784652
 40
0.3430128229232573
 40
0.3752634373756369
 40
0.4040010761832457
 40
0.4468656790907887
 40
0.4682159456822236
 40
0.5002096453491008
 40
0.5286754135732632
 40
0.5715400241808085
 40
0.5931009709519238
 40
0.625388377644885
 40
0.6539191342583819
 40
0.6965914244659098
 40
0.717923782155807
 40
0.749974649355465
 40
0.7785976314667962
 40
0.7958543395075212
 40
0.8217160692235971
 40
0.8431552865200941
 40
0.8751886732676741
 40
0.9000580147904904
 40
0.9373794060000419
 40
0.9685930788589321
 40
1.0
 40
1.0
 40
1.0
 40
1.0
 10
18.70459032431994
 20
-29.80485287971163
 30
0.0
 10
18.70449897688938
 20
-29.81164166153788
 30
0.0
 10
18.7043166119132
 20
-29.82519470871501
 30
0.0
 10
18.7029465400026
 20
-29.84411122909279
 30
0.0
 10
18.70070074861106
 20
-29.86426498751496
 30
0.0
 10
18.69759571488441
 20
-29.88373944820036
 30
0.0
 10
18.69273856620898
 20
-29.90685347692317
 30
0.0
 10
18.68754405974593
 20
-29.92632375171393
 30
0.0
 10
18.6812000360039
 20
-29.94619932772915
 30
0.0
 10
18.67514426349853
 20
-29.96283399088795
 30
0.0
 10
18.66657503933351
 20
-29.98340946481999
 30
0.0
 10
18.65790374577482
 20
-30.00143070205219
 30
0.0
 10
18.64797968719672
 20
-30.01972187740017
 30
0.0
 10
18.63885311413073
 20
-30.03501076615588
 30
0.0
 10
18.62646258128714
 20
-30.05372220608726
 30
0.0
 10
18.61445799836509
 20
-30.06984190817864
 30
0.0
 10
18.60122655345953
 20
-30.08587429129427
 30
0.0
 10
18.5894137125598
 20
-30.09903203572136
 30
0.0
 10
18.57372634584103
 20
-30.1149203635008
 30
0.0
 10
18.55883436166019
 20
-30.12839947493482
 30
0.0
 10
18.54264177666969
 20
-30.14160775845268
 30
0.0
 10
18.5283762525025
 20
-30.15226374744601
 30
0.0
 10
18.50982491954085
 20
-30.16475392275991
 30
0.0
 10
18.4926145408071
 20
-30.17496149667453
 30
0.0
 10
18.47423710957767
 20
-30.18460613543429
 30
0.0
 10
18.45819940052189
 20
-30.19215438168695
 30
0.0
 10
18.44262340689293
 20
-30.19856150286911
 30
0.0
 10
18.42807665565667
 20
-30.20391478589337
 30
0.0
 10
18.4148207434629
 20
-30.20826548809863
 30
0.0
 10
18.39833769169535
 20
-30.21297330119639
 30
0.0
 10
18.38186519021909
 20
-30.21689783095388
 30
0.0
 10
18.36185900476346
 20
-30.22068429077061
 30
0.0
 10
18.34185009490406
 20
-30.22338750379074
 30
0.0
 10
18.32031590832195
 20
-30.22513891976364
 30
0.0
 10
18.30678588740346
 20
-30.22534301884525
 30
0.0
 10
18.29999999999998
 20
-30.22544538331278
 30
0.0
  0
SPLINE
  5
2DC
330
1F
100
AcDbEntity
  8
SK3
  6
SLD-Dashed
370
    18
100
AcDbSpline
210
0.0
220
0.0
230
1.0
 70
     8
 71
     3
 72
     8
 73
     4
 74
     0
 42
0.000000001
 43
0.00000001
 40
0.0
 40
0.0
 40
0.0
 40
0.0
 40
1.0
 40
1.0
 40
1.0
 40
1.0
 10
22.03955930082503
 20
22.67627603219728
 30
0.0
 10
22.33169086720466
 20
22.63123629573069
 30
0.0
 10
22.62006321713669
 20
22.59999999999997
 30
0.0
 10
22.90589271483216
 20
22.59999999999999
 30
0.0
  0
SPLINE
  5
2DD
330
1F
100
AcDbEntity
  8
SK3
  6
SLD-Dashed
370
    18
100
AcDbSpline
210
0.0
220
0.0
230
1.0
 70
    24
 71
     3
 72
    18
 73
    14
 74
     0
 42
0.000000001
 43
0.00000001
 40
0.5000409715472073
 40
0.5000409715472073
 40
0.5000409715472073
 40
0.5000409715472073
 40
0.5625043371865777
 40
0.6249823526333205
 40
0.687482344457043
 40
0.7500013014464464
 40
0.7812642759204805
 40
0.8125268130199143
 40
0.8437867406337596
 40
0.875042043064588
 40
0.9375329726755528
 40
0.969745934538278
 40
1.0
 40
1.0
 40
1.0
 40
1.0
 10
18.72334368615081
 20
-24.80000000000001
 30
0.0
 10
18.72334020348281
 20
-24.80000000000001
 30
0.0
 10
18.71939081261821
 20
-24.80000000000001
 30
0.0
 10
18.70237062317408
 20
-24.80000000000001
 30
0.0
 10
18.67633576451769
 20
-24.80000000000001
 30
0.0
 10
18.6497846929163
 20
-24.80000000000001
 30
0.0
 10
18.62762004882856
 20
-24.80000000000001
 30
0.0
 10
18.61110878424617
 20
-24.80000000000001
 30
0.0
 10
18.59528734275963
 20
-24.80000000000001
 30
0.0
 10
18.57590677562398
 20
-24.80000000000001
 30
0.0
 10
18.56044645801991
 20
-24.80000000000001
 30
0.0
 10
18.55139548464982
 20
-24.80000000000001
 30
0.0
 10
18.55045533419286
 20
-24.80000000000001
 30
0.0
 10
18.54999999999998
 20
-24.80000000000001
 30
0.0
  0
SPLINE
  5
2DE
330
1F
100
AcDbEntity
  8
SK3
  6
SLD-Dashed
370
    18
100
AcDbSpline
210
0.0
220
0.0
230
1.0
 70
    24
 71
     3
 72
    17
 73
    13
 74
     0
 42
0.000000001
 43
0.00000001
 40
0.0
 40
0.0
 40
0.0
 40
0.0
 40
0.0302645882323465
 40
0.0625305683297138
 40
0.1250473743292612
 40
0.1875664582398014
 40
0.218827190782018
 40
0.2500880612942739
 40
0.3126040589822117
 40
0.3751016972689959
 40
0.4375781523357594
 40
0.5000409715472073
 40
0.5000409715472073
 40
0.5000409715472073
 40
0.5000409715472073
 10
18.54999999999998
 20
-24.80000000000001
 30
0.0
 10
18.55045630735012
 20
-24.80000000000001
 30
0.0
 10
18.55139909757471
 20
-24.80000000000001
 30
0.0
 10
18.56045667464716
 20
-24.80000000000001
 30
0.0
 10
18.57979035599477
 20
-24.80000000000001
 30
0.0
 10
18.60565067012027
 20
-24.80000000000001
 30
0.0
 10
18.62766948882037
 20
-24.80000000000001
 30
0.0
 10
18.64982252857547
 20
-24.80000000000001
 30
0.0
 10
18.6763759045013
 20
-24.80000000000001
 30
0.0
 10
18.70240434393579
 20
-24.80000000000001
 30
0.0
 10
18.71941167745285
 20
-24.80000000000001
 30
0.0
 10
18.7233471689067
 20
-24.80000000000001
 30
0.0
 10
18.72334368615081
 20
-24.80000000000001
 30
0.0
  0
SPLINE
  5
2DF
330
1F
100
AcDbEntity
  8
SK3
  6
SLD-Dashed
370
    18
100
AcDbSpline
210
0.0
220
0.0
230
1.0
 70
     8
 71
     3
 72
    34
 73
    30
 74
     0
 42
0.000000001
 43
0.00000001
 40
0.5000000000000128
 40
0.5000000000000128
 40
0.5000000000000128
 40
0.5000000000000128
 40
0.5312500000000122
 40
0.5312500000000122
 40
0.5625000000000118
 40
0.5625000000000118
 40
0.5937500000000112
 40
0.5937500000000112
 40
0.6250000000000108
 40
0.6250000000000108
 40
0.6562500000000102
 40
0.6562500000000102
 40
0.6875000000000098
 40
0.6875000000000098
 40
0.7187500000000092
 40
0.7187500000000092
 40
0.7500000000000088
 40
0.7500000000000088
 40
0.8125000000000077
 40
0.8125000000000077
 40
0.8437500000000063
 40
0.8437500000000063
 40
0.8750000000000051
 40
0.8750000000000051
 40
0.9062500000000038
 40
0.9062500000000038
 40
0.9375000000000026
 40
0.9375000000000026
 40
1.0
 40
1.0
 40
1.0
 40
1.0
 10
86.99736592226998
 20
-1.903166670128513
 30
0.0
 10
87.12884666467605
 20
-1.902992024285066
 30
0.0
 10
87.26199923757927
 20
-1.916150768322918
 30
0.0
 10
87.52131808901339
 20
-1.968023095704124
 30
0.0
 10
87.64647298548003
 20
-2.006168900025723
 30
0.0
 10
87.88826555155441
 20
-2.104804253036743
 30
0.0
 10
88.00475021531051
 20
-2.165571265246042
 30
0.0
 10
88.22002320684282
 20
-2.302566292079429
 30
0.0
 10
88.32035373379694
 20
-2.379447444372102
 30
0.0
 10
88.50525962975244
 20
-2.547637383859932
 30
0.0
 10
88.5873735421506
 20
-2.636637074178834
 30
0.0
 10
88.73181233598709
 20
-2.822562085315707
 30
0.0
 10
88.7946779187671
 20
-2.920670450536445
 30
0.0
 10
88.89578724451322
 20
-3.117851087780278
 30
0.0
 10
88.9341537197382
 20
-3.216491873041856
 30
0.0
 10
88.98632506085372
 20
-3.412952300027184
 30
0.0
 10
88.99986134739574
 20
-3.511514446852142
 30
0.0
 10
89.00027403844169
 20
-3.791276696547496
 30
0.0
 10
88.94691457587514
 20
-3.963719511712451
 30
0.0
 10
88.79648294930095
 20
-4.180493895554801
 30
0.0
 10
88.73390017961714
 20
-4.2471898074001
 30
0.0
 10
88.58891181703687
 20
-4.365944463931966
 30
0.0
 10
88.50686722883327
 20
-4.418135718523213
 30
0.0
 10
88.32356800463359
 20
-4.510499732429604
 30
0.0
 10
88.2220063398375
 20
-4.550531873513234
 30
0.0
 10
88.00724462934853
 20
-4.617360013724904
 30
0.0
 10
87.89312394333332
 20
-4.644684035924881
 30
0.0
 10
87.52875663591858
 20
-4.710619779157623
 30
0.0
 10
87.26711184218766
 20
-4.731592045452724
 30
0.0
 10
86.99999999999997
 20
-4.731592045452724
 30
0.0
  0
SPLINE
  5
2E0
330
1F
100
AcDbEntity
  8
SK3
  6
SLD-Dashed
370
    18
100
AcDbSpline
210
0.0
220
0.0
230
1.0
 70
     8
 71
     3
 72
    34
 73
    30
 74
     0
 42
0.000000001
 43
0.00000001
 40
0.0
 40
0.0
 40
0.0
 40
0.0
 40
0.0312500000000011
 40
0.0312500000000011
 40
0.0625000000000021
 40
0.0625000000000021
 40
0.0937500000000032
 40
0.0937500000000032
 40
0.1250000000000042
 40
0.1250000000000042
 40
0.1875000000000063
 40
0.1875000000000063
 40
0.2187500000000072
 40
0.2187500000000072
 40
0.2500000000000082
 40
0.2500000000000082
 40
0.2812500000000092
 40
0.2812500000000092
 40
0.3125000000000101
 40
0.3125000000000101
 40
0.343750000000011
 40
0.343750000000011
 40
0.375000000000012
 40
0.375000000000012
 40
0.4062500000000129
 40
0.4062500000000129
 40
0.4375000000000139
 40
0.4375000000000139
 40
0.5000000000000128
 40
0.5000000000000128
 40
0.5000000000000128
 40
0.5000000000000128
 10
86.99999999999997
 20
-4.731592045452724
 30
0.0
 10
86.86644407890611
 20
-4.731592045452724
 30
0.0
 10
86.73541986698424
 20
-4.726264031255863
 30
0.0
 10
86.47812364850327
 20
-4.704976870588365
 30
0.0
 10
86.35050473828665
 20
-4.68871589916061
 30
0.0
 10
86.10913084518182
 20
-4.645146460176504
 30
0.0
 10
85.9948638451452
 20
-4.617945781919031
 30
0.0
 10
85.77858775144587
 20
-4.550786198276539
 30
0.0
 10
85.67738365968732
 20
-4.510871389672571
 30
0.0
 10
85.40363408590984
 20
-4.373250945778322
 30
0.0
 10
85.25507593200227
 20
-4.253978595406265
 30
0.0
 10
85.10450499354083
 20
-4.038214181967984
 30
0.0
 10
85.06529721992604
 20
-3.958717204419853
 30
0.0
 10
85.0132442502207
 20
-3.789920957805164
 30
0.0
 10
85.00015564448768
 20
-3.701175296998496
 30
0.0
 10
84.99984708858743
 20
-3.514619515603213
 30
0.0
 10
85.01308967726723
 20
-3.416222920005235
 30
0.0
 10
85.06466877568558
 20
-3.219894910835817
 30
0.0
 10
85.10285259945269
 20
-3.120861852507002
 30
0.0
 10
85.2044730498065
 20
-2.921975673775119
 30
0.0
 10
85.26623319342124
 20
-2.825396288860429
 30
0.0
 10
85.41056831405503
 20
-2.638976720736819
 30
0.0
 10
85.49417259391512
 20
-2.548304607923824
 30
0.0
 10
85.67732493726055
 20
-2.381410501962232
 30
0.0
 10
85.77688426837679
 20
-2.30477279148833
 30
0.0
 10
85.99256831541713
 20
-2.167045506619413
 30
0.0
 10
86.10897166345777
 20
-2.106196177095752
 30
0.0
 10
86.46897403920691
 20
-1.958556306106415
 30
0.0
 10
86.7344044374579
 20
-1.9035159618154
 30
0.0
 10
86.99736592226998
 20
-1.903166670128513
 30
0.0
  0
SPLINE
  5
2E1
330
1F
100
AcDbEntity
  8
SK3
  6
SLD-Dashed
370
    18
100
AcDbSpline
210
0.0
220
0.0
230
1.0
 70
     8
 71
     3
 72
    34
 73
    30
 74
     0
 42
0.000000001
 43
0.00000001
 40
0.5000000000000255
 40
0.5000000000000255
 40
0.5000000000000255
 40
0.5000000000000255
 40
0.5312500000000243
 40
0.5312500000000243
 40
0.562500000000023
 40
0.562500000000023
 40
0.5937500000000215
 40
0.5937500000000215
 40
0.6250000000000202
 40
0.6250000000000202
 40
0.6562500000000189
 40
0.6562500000000189
 40
0.6875000000000175
 40
0.6875000000000175
 40
0.7187500000000162
 40
0.7187500000000162
 40
0.7500000000000148
 40
0.7500000000000148
 40
0.8125000000000121
 40
0.8125000000000121
 40
0.8437500000000101
 40
0.8437500000000101
 40
0.8750000000000081
 40
0.8750000000000081
 40
0.9062500000000061
 40
0.9062500000000061
 40
0.937500000000004
 40
0.937500000000004
 40
1.0
 40
1.0
 40
1.0
 40
1.0
 10
87.00263407773001
 20
1.903166670128575
 30
0.0
 10
86.87115333532397
 20
1.902992024285129
 30
0.0
 10
86.73800076242077
 20
1.91615076832298
 30
0.0
 10
86.47868191098665
 20
1.968023095704201
 30
0.0
 10
86.35352701452004
 20
2.006168900025772
 30
0.0
 10
86.11173444844547
 20
2.104804253036809
 30
0.0
 10
85.99524978468956
 20
2.165571265246101
 30
0.0
 10
85.77997679315722
 20
2.302566292079478
 30
0.0
 10
85.67964626620306
 20
2.379447444372164
 30
0.0
 10
85.49474037024754
 20
2.547637383859998
 30
0.0
 10
85.41262645784941
 20
2.636637074178882
 30
0.0
 10
85.26818766401293
 20
2.822562085315769
 30
0.0
 10
85.20532208123294
 20
2.920670450536483
 30
0.0
 10
85.10421275548674
 20
3.117851087780315
 30
0.0
 10
85.06584628026187
 20
3.216491873041918
 30
0.0
 10
85.0136749391463
 20
3.412952300027215
 30
0.0
 10
85.00013865260428
 20
3.511514446852194
 30
0.0
 10
84.9997259615583
 20
3.791276696547545
 30
0.0
 10
85.05308542412482
 20
3.963719511712503
 30
0.0
 10
85.20351705069903
 20
4.180493895554853
 30
0.0
 10
85.26609982038289
 20
4.247189807400138
 30
0.0
 10
85.41108818296306
 20
4.365944463932
 30
0.0
 10
85.49313277116677
 20
4.418135718523238
 30
0.0
 10
85.67643199536643
 20
4.510499732429639
 30
0.0
 10
85.77799366016248
 20
4.550531873513251
 30
0.0
 10
85.99275537065148
 20
4.617360013724911
 30
0.0
 10
86.10687605666675
 20
4.644684035924912
 30
0.0
 10
86.47124336408146
 20
4.71061977915764
 30
0.0
 10
86.73288815781235
 20
4.731592045452746
 30
0.0
 10
87.0
 20
4.731592045452746
 30
0.0
  0
SPLINE
  5
2E2
330
1F
100
AcDbEntity
  8
SK3
  6
SLD-Dashed
370
    18
100
AcDbSpline
210
0.0
220
0.0
230
1.0
 70
     8
 71
     3
 72
    34
 73
    30
 74
     0
 42
0.000000001
 43
0.00000001
 40
0.0
 40
0.0
 40
0.0
 40
0.0
 40
0.0312500000000018
 40
0.0312500000000018
 40
0.0625000000000035
 40
0.0625000000000035
 40
0.0937500000000052
 40
0.0937500000000052
 40
0.125000000000007
 40
0.125000000000007
 40
0.1875000000000105
 40
0.1875000000000105
 40
0.2187500000000124
 40
0.2187500000000124
 40
0.2500000000000142
 40
0.2500000000000142
 40
0.281250000000016
 40
0.281250000000016
 40
0.3125000000000178
 40
0.3125000000000178
 40
0.3437500000000196
 40
0.3437500000000196
 40
0.3750000000000214
 40
0.3750000000000214
 40
0.4062500000000232
 40
0.4062500000000232
 40
0.437500000000025
 40
0.437500000000025
 40
0.5000000000000255
 40
0.5000000000000255
 40
0.5000000000000255
 40
0.5000000000000255
 10
87.0
 20
4.731592045452746
 30
0.0
 10
87.13355592109387
 20
4.731592045452746
 30
0.0
 10
87.26458013301577
 20
4.726264031255894
 30
0.0
 10
87.52187635149666
 20
4.7049768705884
 30
0.0
 10
87.6494952617134
 20
4.688715899160631
 30
0.0
 10
87.89086915481812
 20
4.645146460176525
 30
0.0
 10
88.00513615485481
 20
4.617945781919048
 30
0.0
 10
88.22141224855415
 20
4.550786198276556
 30
0.0
 10
88.32261634031269
 20
4.510871389672606
 30
0.0
 10
88.59636591409017
 20
4.373250945778367
 30
0.0
 10
88.7449240679978
 20
4.253978595406299
 30
0.0
 10
88.89549500645921
 20
4.038214181968002
 30
0.0
 10
88.93470278007398
 20
3.958717204419912
 30
0.0
 10
88.98675574977932
 20
3.789920957805212
 30
0.0
 10
88.99984435551234
 20
3.701175296998545
 30
0.0
 10
89.00015291141256
 20
3.514619515603258
 30
0.0
 10
88.98691032273273
 20
3.416222920005284
 30
0.0
 10
88.93533122431438
 20
3.219894910835866
 30
0.0
 10
88.89714740054733
 20
3.120861852507054
 30
0.0
 10
88.79552695019352
 20
2.921975673775182
 30
0.0
 10
88.73376680657877
 20
2.825396288860492
 30
0.0
 10
88.58943168594502
 20
2.638976720736881
 30
0.0
 10
88.50582740608479
 20
2.548304607923886
 30
0.0
 10
88.32267506273939
 20
2.381410501962299
 30
0.0
 10
88.22311573162328
 20
2.304772791488392
 30
0.0
 10
88.00743168458288
 20
2.167045506619475
 30
0.0
 10
87.89102833654228
 20
2.106196177095801
 30
0.0
 10
87.53102596079302
 20
1.958556306106474
 30
0.0
 10
87.26559556254216
 20
1.903515961815462
 30
0.0
 10
87.00263407773001
 20
1.903166670128575
 30
0.0
  0
SPLINE
  5
2E3
330
1F
100
AcDbEntity
  8
SK3
  6
SLD-Dashed
370
    18
100
AcDbSpline
210
0.0
220
0.0
230
1.0
 70
     8
 71
     3
 72
    32
 73
    28
 74
     0
 42
0.000000001
 43
0.00000001
 40
0.0
 40
0.0
 40
0.0
 40
0.0
 40
0.0625000000000043
 40
0.0625000000000043
 40
0.0937500000000055
 40
0.0937500000000055
 40
0.1250000000000066
 40
0.1250000000000066
 40
0.1562500000000076
 40
0.1562500000000076
 40
0.1875000000000087
 40
0.1875000000000087
 40
0.2500000000000088
 40
0.2500000000000088
 40
0.2812500000000079
 40
0.2812500000000079
 40
0.3125000000000071
 40
0.3125000000000071
 40
0.3437500000000062
 40
0.3437500000000062
 40
0.3750000000000054
 40
0.3750000000000054
 40
0.4062500000000045
 40
0.4062500000000045
 40
0.4375000000000038
 40
0.4375000000000038
 40
0.5000000000000022
 40
0.5000000000000022
 40
0.5000000000000022
 40
0.5000000000000022
 10
88.57122563624709
 20
6.894291116568878
 30
0.0
 10
88.44976330127909
 20
7.112399384621
 30
0.0
 10
88.31947415445714
 20
7.31815164346694
 30
0.0
 10
88.14146075437844
 20
7.625475959900411
 30
0.0
 10
88.08656838324029
 20
7.725498449145586
 30
0.0
 10
88.00118896441646
 20
7.923989741974627
 30
0.0
 10
87.97248155210988
 20
8.020787486769175
 30
0.0
 10
87.96489847941702
 20
8.200839584336128
 30
0.0
 10
87.9866582052606
 20
8.27981226098803
 30
0.0
 10
88.06266618107018
 20
8.411988833587959
 30
0.0
 10
88.11474488379758
 20
8.464698503370053
 30
0.0
 10
88.28790316328795
 20
8.593218815868463
 30
0.0
 10
88.41827862688852
 20
8.636832015826453
 30
0.0
 10
88.60251341223918
 20
8.646789130588779
 30
0.0
 10
88.66094412861084
 20
8.6401662234752
 30
0.0
 10
88.76848467207725
 20
8.605641651612974
 30
0.0
 10
88.81817659011719
 20
8.577263630698313
 30
0.0
 10
88.90188554846587
 20
8.496803847923426
 30
0.0
 10
88.93579629819592
 20
8.445307677999429
 30
0.0
 10
88.98416949482205
 20
8.316236478728786
 30
0.0
 10
88.9976754930733
 20
8.240455316387065
 30
0.0
 10
89.0017716297261
 20
8.069578907252804
 30
0.0
 10
88.99202491760784
 20
7.972739518668054
 30
0.0
 10
88.95134284529067
 20
7.770586695047105
 30
0.0
 10
88.92006539292227
 20
7.662704984760516
 30
0.0
 10
88.80249532756756
 20
7.335761982746423
 30
0.0
 10
88.69193651681773
 20
7.111182878375626
 30
0.0
 10
88.57219033101418
 20
6.896023938523843
 30
0.0
  0
SPLINE
  5
2E4
330
1F
100
AcDbEntity
  8
SK3
  6
SLD-Dashed
370
    18
100
AcDbSpline
210
0.0
220
0.0
230
1.0
 70
     8
 71
     3
 72
    36
 73
    32
 74
     0
 42
0.000000001
 43
0.00000001
 40
0.0
 40
0.0
 40
0.0
 40
0.0
 40
0.03125
 40
0.03125
 40
0.0625000000000001
 40
0.0625000000000001
 40
0.1250000000000002
 40
0.1250000000000002
 40
0.1562500000000002
 40
0.1562500000000002
 40
0.1875000000000003
 40
0.1875000000000003
 40
0.2187500000000004
 40
0.2187500000000004
 40
0.2500000000000004
 40
0.2500000000000004
 40
0.2812500000000006
 40
0.2812500000000006
 40
0.3125000000000006
 40
0.3125000000000006
 40
0.3437500000000007
 40
0.3437500000000007
 40
0.3750000000000007
 40
0.3750000000000007
 40
0.4062500000000006
 40
0.4062500000000006
 40
0.4375000000000005
 40
0.4375000000000005
 40
0.4687500000000004
 40
0.4687500000000004
 40
0.5000000000000003
 40
0.5000000000000003
 40
0.5000000000000003
 40
0.5000000000000003
 10
85.42877436375294
 20
6.894291116568879
 30
0.0
 10
85.36816428017916
 20
6.785454411282144
 30
0.0
 10
85.31100396062483
 20
6.676505058720426
 30
0.0
 10
85.20664714423216
 20
6.45715078687236
 30
0.0
 10
85.15895593928997
 20
6.34538876391166
 30
0.0
 10
85.04147940298641
 20
6.019401283097384
 30
0.0
 10
84.99676702048004
 20
5.809155615424258
 30
0.0
 10
85.00190534221666
 20
5.551500360073907
 30
0.0
 10
85.0154563008994
 20
5.474269784234382
 30
0.0
 10
85.06289918583916
 20
5.345861765892892
 30
0.0
 10
85.09730535753147
 20
5.292865557654888
 30
0.0
 10
85.18062817297357
 20
5.212165306452097
 30
0.0
 10
85.23005954928999
 20
5.183576103269935
 30
0.0
 10
85.33834067361927
 20
5.148480788808324
 30
0.0
 10
85.39656985721051
 20
5.141923763060777
 30
0.0
 10
85.51788162162603
 20
5.148124640616198
 30
0.0
 10
85.5815586262351
 20
5.161102475171539
 30
0.0
 10
85.70705706423006
 20
5.206069453542902
 30
0.0
 10
85.76880800747989
 20
5.2377419124341
 30
0.0
 10
85.88289799231498
 20
5.321855859057996
 30
0.0
 10
85.93617991732202
 20
5.375232830611656
 30
0.0
 10
86.01263243599801
 20
5.506905981263873
 30
0.0
 10
86.03476689408855
 20
5.587194576168299
 30
0.0
 10
86.02801598567423
 20
5.764282278950133
 30
0.0
 10
85.99944093822454
 20
5.862578959309912
 30
0.0
 10
85.91519629399166
 20
6.059515039022132
 30
0.0
 10
85.85965326553914
 20
6.161058198175128
 30
0.0
 10
85.74232657941954
 20
6.36385819835505
 30
0.0
 10
85.67983948781844
 20
6.466210116265619
 30
0.0
 10
85.55394002182749
 20
6.676109885380764
 30
0.0
 10
85.4905629463832
 20
6.783464434381716
 30
0.0
 10
85.43059698695826
 20
6.891020149337831
 30
0.0
  0
SPLINE
  5
2E5
330
1F
100
AcDbEntity
  8
SK3
  6
SLD-Dashed
370
    18
100
AcDbSpline
210
0.0
220
0.0
230
1.0
 70
     8
 71
     3
 72
    32
 73
    28
 74
     0
 42
0.000000001
 43
0.00000001
 40
0.0
 40
0.0
 40
0.0
 40
0.0
 40
0.0624999999999989
 40
0.0624999999999989
 40
0.0937499999999983
 40
0.0937499999999983
 40
0.1249999999999976
 40
0.1249999999999976
 40
0.1562499999999969
 40
0.1562499999999969
 40
0.1874999999999963
 40
0.1874999999999963
 40
0.2499999999999953
 40
0.2499999999999953
 40
0.2812499999999948
 40
0.2812499999999948
 40
0.3124999999999944
 40
0.3124999999999944
 40
0.343749999999994
 40
0.343749999999994
 40
0.3749999999999938
 40
0.3749999999999938
 40
0.4062499999999936
 40
0.4062499999999936
 40
0.4374999999999931
 40
0.4374999999999931
 40
0.4999999999999934
 40
0.4999999999999934
 40
0.4999999999999934
 40
0.4999999999999934
 10
85.42877436375299
 20
-6.894291116568862
 30
0.0
 10
85.55023669871802
 20
-7.1123993846226
 30
0.0
 10
85.68052584553743
 20
-7.318151643470289
 30
0.0
 10
85.8585392456117
 20
-7.625475959906151
 30
0.0
 10
85.9134316167487
 20
-7.725498449152067
 30
0.0
 10
85.99881103556999
 20
-7.923989741982268
 30
0.0
 10
86.02751844787518
 20
-8.02078748677719
 30
0.0
 10
86.03510152056565
 20
-8.20083958434425
 30
0.0
 10
86.01334179472109
 20
-8.279812260995856
 30
0.0
 10
85.93733381890937
 20
-8.411988833594787
 30
0.0
 10
85.8852551161813
 20
-8.464698503376171
 30
0.0
 10
85.71209683668931
 20
-8.593218815872229
 30
0.0
 10
85.58172137308843
 20
-8.636832015828462
 30
0.0
 10
85.39748658773739
 20
-8.646789130588335
 30
0.0
 10
85.33905587136567
 20
-8.640166223473956
 30
0.0
 10
85.23151532789981
 20
-8.60564165161028
 30
0.0
 10
85.1818234098601
 20
-8.57726363069497
 30
0.0
 10
85.09811445151247
 20
-8.496803847918981
 30
0.0
 10
85.06420370178323
 20
-8.4453076779945
 30
0.0
 10
85.01583050515887
 20
-8.31623647872325
 30
0.0
 10
85.00232450690888
 20
-8.240455316381352
 30
0.0
 10
84.99822837025799
 20
-8.069578907247033
 30
0.0
 10
85.0079750823778
 20
-7.972739518662411
 30
0.0
 10
85.0486571546977
 20
-7.770586695042022
 30
0.0
 10
85.07993460706749
 20
-7.66270498475585
 30
0.0
 10
85.19750467242686
 20
-7.335761982743349
 30
0.0
 10
85.30806348317925
 20
-7.111182878374052
 30
0.0
 10
85.42780966898574
 20
-6.896023938523878
 30
0.0
  0
SPLINE
  5
2E6
330
1F
100
AcDbEntity
  8
SK3
  6
SLD-Dashed
370
    18
100
AcDbSpline
210
0.0
220
0.0
230
1.0
 70
     8
 71
     3
 72
    36
 73
    32
 74
     0
 42
0.000000001
 43
0.00000001
 40
0.0
 40
0.0
 40
0.0
 40
0.0
 40
0.0312500000000003
 40
0.0312500000000003
 40
0.0625000000000005
 40
0.0625000000000005
 40
0.125000000000001
 40
0.125000000000001
 40
0.1562500000000011
 40
0.1562500000000011
 40
0.1875000000000012
 40
0.1875000000000012
 40
0.2187500000000012
 40
0.2187500000000012
 40
0.2500000000000013
 40
0.2500000000000013
 40
0.2812500000000014
 40
0.2812500000000014
 40
0.3125000000000015
 40
0.3125000000000015
 40
0.3437500000000016
 40
0.3437500000000016
 40
0.3750000000000017
 40
0.3750000000000017
 40
0.4062500000000018
 40
0.4062500000000018
 40
0.4375000000000019
 40
0.4375000000000019
 40
0.468750000000002
 40
0.468750000000002
 40
0.5000000000000021
 40
0.5000000000000021
 40
0.5000000000000021
 40
0.5000000000000021
 10
88.57122563624704
 20
-6.894291116568867
 30
0.0
 10
88.63183571982297
 20
-6.785454411283553
 30
0.0
 10
88.68899603938048
 20
-6.676505058723174
 30
0.0
 10
88.7933528557784
 20
-6.457150786877566
 30
0.0
 10
88.84104406072287
 20
-6.345388763917982
 30
0.0
 10
88.95852059703388
 20
-6.01940128310648
 30
0.0
 10
89.0032329795455
 20
-5.809155615434412
 30
0.0
 10
88.9980946578148
 20
-5.551500360083934
 30
0.0
 10
88.9845436991339
 20
-5.474269784244086
 30
0.0
 10
88.93710081419745
 20
-5.345861765901496
 30
0.0
 10
88.90269464250576
 20
-5.292865557662671
 30
0.0
 10
88.81937182706558
 20
-5.212165306457904
 30
0.0
 10
88.76994045075045
 20
-5.183576103274603
 30
0.0
 10
88.66165932642144
 20
-5.148480788810466
 30
0.0
 10
88.60343014283036
 20
-5.141923763061532
 30
0.0
 10
88.48211837841474
 20
-5.148124640614089
 30
0.0
 10
88.41844137380558
 20
-5.16110247516793
 30
0.0
 10
88.29294293581009
 20
-5.20606945353636
 30
0.0
 10
88.23119199255892
 20
-5.237741912426116
 30
0.0
 10
88.11710200772193
 20
-5.321855859047315
 30
0.0
 10
88.06382008271332
 20
-5.375232830599717
 30
0.0
 10
87.98736756403484
 20
-5.50690598125015
 30
0.0
 10
87.96523310594254
 20
-5.587194576154054
 30
0.0
 10
87.97198401435205
 20
-5.764282278936069
 30
0.0
 10
88.00055906179965
 20
-5.862578959296497
 30
0.0
 10
88.08480370602827
 20
-6.059515039010723
 30
0.0
 10
88.14034673447789
 20
-6.16105819816501
 30
0.0
 10
88.25767342059319
 20
-6.3638581983477
 30
0.0
 10
88.32016051219118
 20
-6.466210116259737
 30
0.0
 10
88.44605997817791
 20
-6.676109885377842
 30
0.0
 10
88.50943705361902
 20
-6.783464434380287
 30
0.0
 10
88.56940301304184
 20
-6.891020149337845
 30
0.0
  0
SPLINE
  5
2E7
330
1F
100
AcDbEntity
  8
SK3
  6
SLD-Dashed
370
    18
100
AcDbSpline
210
0.0
220
0.0
230
1.0
 70
     8
 71
     3
 72
    30
 73
    26
 74
     0
 42
0.000000001
 43
0.00000001
 40
0.499999999999999
 40
0.499999999999999
 40
0.499999999999999
 40
0.499999999999999
 40
0.5624999999999992
 40
0.5624999999999992
 40
0.6249999999999996
 40
0.6249999999999996
 40
0.6562499999999994
 40
0.6562499999999994
 40
0.6874999999999994
 40
0.6874999999999994
 40
0.7187499999999994
 40
0.7187499999999994
 40
0.7499999999999993
 40
0.7499999999999993
 40
0.7812499999999993
 40
0.7812499999999993
 40
0.8124999999999993
 40
0.8124999999999993
 40
0.8749999999999996
 40
0.8749999999999996
 40
0.9374999999999999
 40
0.9374999999999999
 40
0.9687499999999999
 40
0.9687499999999999
 40
1.0
 40
1.0
 40
1.0
 40
1.0
 10
11.76979658556573
 20
4.897279110339457
 30
0.0
 10
11.91246294966133
 20
4.882256760898248
 30
0.0
 10
12.0438413664441
 20
4.882819793019737
 30
0.0
 10
12.28743240561786
 20
4.928163099538002
 30
0.0
 10
12.40074037094363
 20
4.971266772981778
 30
0.0
 10
12.55447570845303
 20
5.099404902456445
 30
0.0
 10
12.60138543677661
 20
5.151874520294801
 30
0.0
 10
12.68295201157342
 20
5.2869805567278
 30
0.0
 10
12.71817196931761
 20
5.371820149716412
 30
0.0
 10
12.76213654526595
 20
5.57870754814771
 30
0.0
 10
12.77026091463634
 20
5.701542481072325
 30
0.0
 10
12.75239776164135
 20
5.964368720094725
 30
0.0
 10
12.72724833739212
 20
6.099264719857805
 30
0.0
 10
12.65908666407785
 20
6.353110225917072
 30
0.0
 10
12.61568164729122
 20
6.474839021829201
 30
0.0
 10
12.52100924552235
 20
6.700456538059784
 30
0.0
 10
12.46941331137411
 20
6.805573231554563
 30
0.0
 10
12.30490621332254
 20
7.105283457732453
 30
0.0
 10
12.18517846713211
 20
7.27994899964142
 30
0.0
 10
11.92983731616859
 20
7.593144382902768
 30
0.0
 10
11.79267665531759
 20
7.73366357939878
 30
0.0
 10
11.56451158979956
 20
7.914219675260043
 30
0.0
 10
11.48485276967108
 20
7.969136937664184
 30
0.0
 10
11.31258630900464
 20
8.06507137412476
 30
0.0
 10
11.21906269051034
 20
8.106694499010088
 30
0.0
 10
11.11499999999999
 20
8.135515956841491
 30
0.0
  0
SPLINE
  5
2E8
330
1F
100
AcDbEntity
  8
SK3
  6
SLD-Dashed
370
    18
100
AcDbSpline
210
0.0
220
0.0
230
1.0
 70
     8
 71
     3
 72
    34
 73
    30
 74
     0
 42
0.000000001
 43
0.00000001
 40
0.0
 40
0.0
 40
0.0
 40
0.0
 40
0.0312499999999997
 40
0.0312499999999997
 40
0.0624999999999995
 40
0.0624999999999995
 40
0.0937499999999992
 40
0.0937499999999992
 40
0.1249999999999991
 40
0.1249999999999991
 40
0.1562499999999989
 40
0.1562499999999989
 40
0.1874999999999988
 40
0.1874999999999988
 40
0.2499999999999989
 40
0.2499999999999989
 40
0.3124999999999991
 40
0.3124999999999991
 40
0.3437499999999992
 40
0.3437499999999992
 40
0.3749999999999992
 40
0.3749999999999992
 40
0.4062499999999993
 40
0.4062499999999993
 40
0.4374999999999992
 40
0.4374999999999992
 40
0.4687499999999992
 40
0.4687499999999992
 40
0.499999999999999
 40
0.499999999999999
 40
0.499999999999999
 40
0.499999999999999
 10
11.11499999999999
 20
8.135515956841484
 30
0.0
 10
11.01093730948963
 20
8.164337414672893
 30
0.0
 10
10.89827240143047
 20
8.179464794190281
 30
0.0
 10
10.65524603173762
 20
8.165841760405156
 30
0.0
 10
10.53100003630442
 20
8.136838624998608
 30
0.0
 10
10.29040472633826
 20
8.03735736722213
 30
0.0
 10
10.17852991293554
 20
7.969631374308047
 30
0.0
 10
9.971641719228305
 20
7.804710470753768
 30
0.0
 10
9.880140211756025
 20
7.710255544057416
 30
0.0
 10
9.720479632928727
 20
7.501520767052225
 30
0.0
 10
9.653640231842203
 20
7.388447537981249
 30
0.0
 10
9.549145986449389
 20
7.153218751817361
 30
0.0
 10
9.51066858961816
 20
7.028363198412276
 30
0.0
 10
9.444144226770007
 20
6.655645231796154
 30
0.0
 10
9.463570934642702
 20
6.401824616238574
 30
0.0
 10
9.625438460184723
 20
5.944312211752699
 30
0.0
 10
9.767910053168169
 20
5.739855544595981
 30
0.0
 10
10.04867356462021
 20
5.493346099588237
 30
0.0
 10
10.15222938652333
 20
5.421392519446393
 30
0.0
 10
10.38092358660669
 20
5.292864116337579
 30
0.0
 10
10.50285945052919
 20
5.23840841989158
 30
0.0
 10
10.75142302172967
 20
5.143758254460659
 30
0.0
 10
10.87148365715394
 20
5.105486382977698
 30
0.0
 10
11.0956118967542
 20
5.038956888356635
 30
0.0
 10
11.19522385975343
 20
5.012076755424373
 30
0.0
 10
11.38076798793607
 20
4.965661035352474
 30
0.0
 10
11.4655569433985
 20
4.946630596353904
 30
0.0
 10
11.62416091896931
 20
4.916239958733741
 30
0.0
 10
11.69846340351795
 20
4.904790285060065
 30
0.0
 10
11.76979658556573
 20
4.897279110339457
 30
0.0
  0
SPLINE
  5
2E9
330
1F
100
AcDbEntity
  8
SK3
  6
SLD-Dashed
370
    18
100
AcDbSpline
210
0.0
220
0.0
230
1.0
 70
    24
 71
     2
 72
     6
 73
     3
 74
     0
 42
0.000000001
 43
0.00000001
 40
0.0
 40
0.0
 40
0.0
 40
0.2500000000000007
 40
0.2500000000000007
 40
0.2500000000000007
 10
3.623867116599922
 20
22.57707828895047
 30
0.0
 10
3.607327852827023
 20
22.58615947326913
 30
0.0
 10
3.582120554491614
 20
22.59999999999997
 30
0.0
  0
SPLINE
  5
2EA
330
1F
100
AcDbEntity
  8
SK3
  6
SLD-Dashed
370
    18
100
AcDbSpline
210
0.0
220
0.0
230
1.0
 70
    24
 71
     3
 72
     8
 73
     4
 74
     0
 42
0.000000001
 43
0.00000001
 40
0.2500000000000007
 40
0.2500000000000007
 40
0.2500000000000007
 40
0.2500000000000007
 40
0.5000000000000013
 40
0.5000000000000013
 40
0.5000000000000013
 40
0.5000000000000013
 10
3.582120554491613
 20
22.59999999999997
 30
0.0
 10
3.553363501972329
 20
22.59999999999998
 30
0.0
 10
3.515789127580632
 20
22.60000000000001
 30
0.0
 10
3.474580131426333
 20
22.60000000000001
 30
0.0
  0
SPLINE
  5
2EB
330
1F
100
AcDbEntity
  8
SK3
  6
SLD-Dashed
370
    18
100
AcDbSpline
210
0.0
220
0.0
230
1.0
 70
    24
 71
     3
 72
     8
 73
     4
 74
     0
 42
0.000000001
 43
0.00000001
 40
0.5000000000000013
 40
0.5000000000000013
 40
0.5000000000000013
 40
0.5000000000000013
 40
1.0
 40
1.0
 40
1.0
 40
1.0
 10
3.474580131426333
 20
22.60000000000001
 30
0.0
 10
3.392159920138027
 20
22.60000000000001
 30
0.0
 10
3.29744160167976
 20
22.60000000000001
 30
0.0
 10
3.199999999999994
 20
22.6
 30
0.0
  0
SPLINE
  5
2EC
330
1F
100
AcDbEntity
  8
SK3
  6
SLD-Dashed
370
    18
100
AcDbSpline
210
0.0
220
0.0
230
1.0
 70
     8
 71
     3
 72
    10
 73
     6
 74
     0
 42
0.000000001
 43
0.00000001
 40
0.0
 40
0.0
 40
0.0
 40
0.0
 40
0.5
 40
0.5
 40
1.0
 40
1.0
 40
1.0
 40
1.0
 10
18.70471005157803
 20
-25.72266446696799
 30
0.0
 10
18.66337030686245
 20
-25.65862892930117
 30
0.0
 10
18.62581481412223
 20
-25.59272978733739
 30
0.0
 10
18.56865558994301
 20
-25.45209092415754
 30
0.0
 10
18.54999999999998
 20
-25.37690471036053
 30
0.0
 10
18.54999999999998
 20
-25.30000000000001
 30
0.0
  0
SPLINE
  5
2ED
330
1F
100
AcDbEntity
  8
SK3
  6
SLD-Dashed
370
    18
100
AcDbSpline
210
0.0
220
0.0
230
1.0
 70
     8
 71
     3
 72
    10
 73
     6
 74
     0
 42
0.000000001
 43
0.00000001
 40
0.0
 40
0.0
 40
0.0
 40
0.0
 40
0.5
 40
0.5
 40
1.0
 40
1.0
 40
1.0
 40
1.0
 10
3.699999999999993
 20
-25.30000000000001
 30
0.0
 10
3.69999999999999
 20
-25.37685488672688
 30
0.0
 10
3.681554231140157
 20
-25.45145660760569
 30
0.0
 10
3.624336338281005
 20
-25.5924751958072
 30
0.0
 10
3.586748392742182
 20
-25.65842864116831
 30
0.0
 10
3.545409675680045
 20
-25.72247898491318
 30
0.0
  0
SPLINE
  5
2EE
330
1F
100
AcDbEntity
  8
SK3
  6
SLD-Dashed
370
    18
100
AcDbSpline
210
0.0
220
0.0
230
1.0
 70
     8
 71
     3
 72
    11
 73
     7
 74
     0
 42
0.000000001
 43
0.00000001
 40
0.0
 40
0.0
 40
0.0
 40
0.0
 40
0.2490066956928254
 40
0.4989237928416006
 40
0.7843802469702567
 40
1.0
 40
1.0
 40
1.0
 40
1.0
 10
18.67919832112575
 20
23.09999998818303
 30
0.0
 10
18.67014478262272
 20
23.13516830582563
 30
0.0
 10
18.65200460468088
 20
23.20563352113756
 30
0.0
 10
18.63320051414637
 20
23.3185337199364
 30
0.0
 10
18.62203930402364
 20
23.42757848010762
 30
0.0
 10
18.62079630191482
 20
23.50063530942179
 30
0.0
 10
18.62026142158345
 20
23.53207263426144
 30
0.0
  0
SPLINE
  5
2EF
330
1F
100
AcDbEntity
  8
SK3
  6
SLD-Dashed
370
    18
100
AcDbSpline
210
0.0
220
0.0
230
1.0
 70
     8
 71
     3
 72
    32
 73
    28
 74
     0
 42
0.000000001
 43
0.00000001
 40
0.0
 40
0.0
 40
0.0
 40
0.0
 40
0.0252069619806004
 40
0.0503565928962387
 40
0.1006490309396841
 40
0.1352066802269463
 40
0.1865993845852476
 40
0.2121889141728382
 40
0.2505546444408203
 40
0.2790381884906483
 40
0.322031706836037
 40
0.3758145255415033
 40
0.4042958205195109
 40
0.4469103686213524
 40
0.5002459503879955
 40
0.5288558246776569
 40
0.5719893761750887
 40
0.625495132827665
 40
0.6539175144736286
 40
0.6965367204728742
 40
0.7500346443241697
 40
0.7787727799701127
 40
0.8217726885774167
 40
0.8751571720188781
 40
0.9373534326371771
 40
0.9685881929332915
 40
1.0
 40
1.0
 40
1.0
 40
1.0
 10
3.949999999999996
 20
30.16152412632417
 30
0.0
 10
3.945690935721725
 20
30.16147180344041
 30
0.0
 10
3.937082607760948
 20
30.1613672766768
 30
0.0
 10
3.919908511100385
 20
30.16024977939862
 30
0.0
 10
3.901228301555247
 20
30.15790965215762
 30
0.0
 10
3.878375889430173
 20
30.15337162271313
 30
0.0
 10
3.859959234220071
 20
30.14833596412419
 30
0.0
 10
3.841304721728737
 20
30.14193970641896
 30
0.0
 10
3.826636787096648
 20
30.13603236706971
 30
0.0
 10
3.809623648683801
 20
30.12807648951459
 30
0.0
 10
3.790773922165052
 20
30.11788547147635
 30
0.0
 10
3.772767618574371
 20
30.10624628735532
 30
0.0
 10
3.755640821696579
 20
30.09349629740997
 30
0.0
 10
3.739311864312564
 20
30.07984182725839
 30
0.0
 10
3.724043684233407
 20
30.06496240138222
 30
0.0
 10
3.709718090376101
 20
30.04908402411904
 30
0.0
 10
3.696277954451035
 20
30.03239849357867
 30
0.0
 10
3.684135439418152
 20
30.01477198401959
 30
0.0
 10
3.673180160728214
 20
29.9965117603023
 30
0.0
 10
3.663228306517449
 20
29.97767639491363
 30
0.0
 10
3.65464921423104
 20
29.95810642053531
 30
0.0
 10
3.647285326000375
 20
29.93800046575446
 30
0.0
 10
3.64101674840726
 20
29.91753621297331
 30
0.0
 10
3.63495141436988
 20
29.89108719661412
 30
0.0
 10
3.631491109120434
 20
29.86619441170605
 30
0.0
 10
3.629952202919852
 20
29.84490046806007
 30
0.0
 10
3.629807886038075
 20
29.83419100647836
 30
0.0
 10
3.629735523668701
 20
29.82882114257114
 30
0.0
  0
SPLINE
  5
2F0
330
1F
100
AcDbEntity
  8
1
  6
SLD-Dashed
370
    18
100
AcDbSpline
210
0.0
220
0.0
230
1.0
 70
     8
 71
     3
 72
     8
 73
     4
 74
     0
 42
0.000000001
 43
0.00000001
 40
0.0
 40
0.0
 40
0.0
 40
0.0
 40
1.0
 40
1.0
 40
1.0
 40
1.0
 10
7.893998699232185
 20
30.16152412632417
 30
0.0
 10
8.330278668086667
 20
29.37912233928413
 30
0.0
 10
8.76568771201905
 20
28.59624967245399
 30
0.0
 10
9.199999999999985
 20
27.81278402659763
 30
0.0
  0
SPLINE
  5
2F1
330
1F
100
AcDbEntity
  8
1
  6
SLD-Dashed
370
    18
100
AcDbSpline
210
0.0
220
0.0
230
1.0
 70
     8
 71
     3
 72
    10
 73
     6
 74
     0
 42
0.000000001
 43
0.00000001
 40
0.0
 40
0.0
 40
0.0
 40
0.0
 40
0.5
 40
0.5
 40
1.0
 40
1.0
 40
1.0
 40
1.0
 10
9.199999999999964
 20
27.58683517549639
 30
0.0
 10
9.199999999999976
 20
27.38707634764942
 30
0.0
 10
9.2768344359539
 20
27.18603271636412
 30
0.0
 10
9.550944873665369
 20
26.8935607871121
 30
0.0
 10
9.748424870254526
 20
26.80430888868439
 30
0.0
 10
9.949999999999987
 20
26.8043088886844
 30
0.0
  0
SPLINE
  5
2F2
330
1F
100
AcDbEntity
  8
1
  6
SLD-Dashed
370
    18
100
AcDbSpline
210
0.0
220
0.0
230
1.0
 70
     8
 71
     3
 72
    12
 73
     8
 74
     0
 42
0.000000001
 43
0.00000001
 40
0.0
 40
0.0
 40
0.0
 40
0.0
 40
0.2500000000000016
 40
0.2500000000000016
 40
0.5000000000000031
 40
0.5000000000000031
 40
1.0
 40
1.0
 40
1.0
 40
1.0
 10
12.27999999999997
 20
26.80430888868438
 30
0.0
 10
12.37979689509869
 20
26.80430888868439
 30
0.0
 10
12.48049833272397
 20
26.82572174190437
 30
0.0
 10
12.66355621250799
 20
26.90654241362411
 30
0.0
 10
12.74673207733004
 20
26.96588196572588
 30
0.0
 10
12.95368349037104
 20
27.18636461126024
 30
0.0
 10
13.02999999999999
 20
27.38652349465745
 30
0.0
 10
13.02999999999997
 20
27.5868351754964
 30
0.0
  0
SPLINE
  5
2F3
330
1F
100
AcDbEntity
  8
1
  6
SLD-Dashed
370
    18
100
AcDbSpline
210
0.0
220
0.0
230
1.0
 70
     8
 71
     3
 72
     8
 73
     4
 74
     0
 42
0.000000001
 43
0.00000001
 40
0.0
 40
0.0
 40
0.0
 40
0.0
 40
1.0
 40
1.0
 40
1.0
 40
1.0
 10
13.02999999999997
 20
27.81278402659761
 30
0.0
 10
13.46431130323983
 20
28.59624790607358
 30
0.0
 10
13.89971936240944
 20
29.37911880654276
 30
0.0
 10
14.33599834604345
 20
30.16151882747537
 30
0.0
  0
SPLINE
  5
2F4
330
1F
100
AcDbEntity
  8
SK3
  6
SLD-Dashed
370
    18
100
AcDbSpline
210
0.0
220
0.0
230
1.0
 70
     8
 71
     3
 72
    32
 73
    28
 74
     0
 42
0.000000001
 43
0.00000001
 40
0.0
 40
0.0
 40
0.0
 40
0.0
 40
0.0314247042100601
 40
0.0627361020228328
 40
0.1252746117070658
 40
0.1539592720611189
 40
0.1970495132292662
 40
0.250515477879662
 40
0.2789491152340467
 40
0.321624470561841
 40
0.3752662880184944
 40
0.4040058917910616
 40
0.4468709414625855
 40
0.5002072395464235
 40
0.5286758290850125
 40
0.5715468433178863
 40
0.6253871654989183
 40
0.6539190971541633
 40
0.6965945969020221
 40
0.7499712152068337
 40
0.7785976833431899
 40
0.821713085635752
 40
0.8751771545280764
 40
0.9000486762450107
 40
0.9373735729958405
 40
0.9685902180614588
 40
1.0
 40
1.0
 40
1.0
 40
1.0
 10
18.62026142158344
 20
29.82881899211167
 30
0.0
 10
18.62018874631512
 20
29.83419103038294
 30
0.0
 10
18.62004365781988
 20
29.84491573725061
 30
0.0
 10
18.61850010239783
 20
29.86628278119549
 30
0.0
 10
18.6156029889185
 20
29.88706040626532
 30
0.0
 10
18.61087076181504
 20
29.90953127888282
 30
0.0
 10
18.6053442439928
 20
29.9302284949332
 30
0.0
 10
18.59834511945856
 20
29.95044132006814
 30
0.0
 10
18.5901482751799
 20
29.97009977850424
 30
0.0
 10
18.5808885791407
 20
29.98932463890863
 30
0.0
 10
18.57021352590258
 20
30.00787527762723
 30
0.0
 10
18.55838129455824
 20
30.02572351524742
 30
0.0
 10
18.54560792018344
 20
30.04285824487294
 30
0.0
 10
18.53161296666957
 20
30.05896507889262
 30
0.0
 10
18.51662838244702
 20
30.07412623148152
 30
0.0
 10
18.50074461860294
 20
30.08848733361379
 30
0.0
 10
18.48378595411985
 20
30.10160109945359
 30
0.0
 10
18.46604549932073
 20
30.11353423171659
 30
0.0
 10
18.44771031322863
 20
30.12439823458053
 30
0.0
 10
18.42855806311837
 20
30.13381362662234
 30
0.0
 10
18.40877099495595
 20
30.14194530604338
 30
0.0
 10
18.38851504776008
 20
30.14890899560416
 30
0.0
 10
18.36837880088468
 20
30.15408129068044
 30
0.0
 10
18.34894854509339
 20
30.15775478403709
 30
0.0
 10
18.33311537414596
 20
30.15989200877921
 30
0.0
 10
18.31607566057823
 20
30.16127654505819
 30
0.0
 10
18.30536955922571
 20
30.16143790080224
 30
0.0
 10
18.29999999999998
 20
30.16151882748093
 30
0.0
  0
SPLINE
  5
2F5
330
1F
100
AcDbEntity
  8
SK3
  6
SLD-Dashed
370
    18
100
AcDbSpline
210
0.0
220
0.0
230
1.0
 70
     8
 71
     3
 72
    40
 73
    36
 74
     0
 42
0.000000001
 43
0.00000001
 40
0.0
 40
0.0
 40
0.0
 40
0.0
 40
0.0314214559032037
 40
0.0627294388196667
 40
0.087740506368161
 40
0.1252752320174243
 40
0.153955137483459
 40
0.1970430830225085
 40
0.21847533554469
 40
0.2505176107708043
 40
0.2789492343756645
 40
0.3216198593784564
 40
0.3430128229232498
 40
0.3752634373756381
 40
0.4040010761832558
 40
0.4468656790907903
 40
0.4682159456822185
 40
0.5002096453491051
 40
0.5286754135732731
 40
0.5715400241808094
 40
0.5931009709519183
 40
0.6253883776448816
 40
0.6539191342583817
 40
0.6965914244659115
 40
0.7179237821558063
 40
0.7499746493554678
 40
0.7785976314667997
 40
0.7958543395075174
 40
0.8217160692236026
 40
0.8431552865200944
 40
0.8751886732676716
 40
0.9000580147904913
 40
0.9373794060000434
 40
0.9685930788589305
 40
1.0
 40
1.0
 40
1.0
 40
1.0
 10
3.545409675680045
 20
-29.80485287971165
 30
0.0
 10
3.545501023110595
 20
-29.8116416615379
 30
0.0
 10
3.545683388086771
 20
-29.82519470871503
 30
0.0
 10
3.547053459997375
 20
-29.84411122909278
 30
0.0
 10
3.549299251388923
 20
-29.86426498751497
 30
0.0
 10
3.552404285115545
 20
-29.88373944820037
 30
0.0
 10
3.557261433790975
 20
-29.90685347692318
 30
0.0
 10
3.562455940254042
 20
-29.92632375171396
 30
0.0
 10
3.56879996399607
 20
-29.94619932772916
 30
0.0
 10
3.574855736501426
 20
-29.96283399088797
 30
0.0
 10
3.583424960666446
 20
-29.98340946482
 30
0.0
 10
3.592096254225139
 20
-30.0014307020522
 30
0.0
 10
3.602020312803249
 20
-30.01972187740018
 30
0.0
 10
3.611146885869231
 20
-30.03501076615589
 30
0.0
 10
3.623537418712822
 20
-30.05372220608727
 30
0.0
 10
3.635542001634889
 20
-30.06984190817867
 30
0.0
 10
3.648773446540449
 20
-30.08587429129429
 30
0.0
 10
3.660586287440174
 20
-30.09903203572138
 30
0.0
 10
3.676273654158927
 20
-30.11492036350083
 30
0.0
 10
3.691165638339792
 20
-30.12839947493482
 30
0.0
 10
3.707358223330291
 20
-30.14160775845271
 30
0.0
 10
3.721623747497459
 20
-30.152263747446
 30
0.0
 10
3.740175080459123
 20
-30.16475392275994
 30
0.0
 10
3.757385459192879
 20
-30.17496149667456
 30
0.0
 10
3.775762890422306
 20
-30.18460613543429
 30
0.0
 10
3.791800599478062
 20
-30.19215438168699
 30
0.0
 10
3.80737659310705
 20
-30.19856150286914
 30
0.0
 10
3.821923344343308
 20
-30.20391478589337
 30
0.0
 10
3.835179256537077
 20
-30.20826548809865
 30
0.0
 10
3.851662308304638
 20
-30.2129733011964
 30
0.0
 10
3.86813480978089
 20
-30.2168978309539
 30
0.0
 10
3.888140995236516
 20
-30.22068429077066
 30
0.0
 10
3.908149905095915
 20
-30.22338750379076
 30
0.0
 10
3.929684091678029
 20
-30.22513891976368
 30
0.0
 10
3.943214112596488
 20
-30.22534301884527
 30
0.0
 10
3.949999999999995
 20
-30.2254453833128
 30
0.0
  0
SPLINE
  5
2F6
330
1F
100
AcDbEntity
  8
SK3
  6
SLD-Dashed
370
    18
100
AcDbSpline
210
0.0
220
0.0
230
1.0
 70
     8
 71
     3
 72
    40
 73
    36
 74
     0
 42
0.000000001
 43
0.00000001
 40
0.0
 40
0.0
 40
0.0
 40
0.0
 40
0.0126129321408179
 40
0.0314976481214707
 40
0.0629183966422969
 40
0.0880663439234755
 40
0.1258663547630625
 40
0.1545361786769482
 40
0.1972635113860101
 40
0.218577426492922
 40
0.2505499734617878
 40
0.2790323571714411
 40
0.3220275474574925
 40
0.3436168158787381
 40
0.3758133620123429
 40
0.4042898095193524
 40
0.4468993710703102
 40
0.4682109724152119
 40
0.5002437124730679
 40
0.5288533887103697
 40
0.571982827569091
 40
0.593442063717661
 40
0.6254916984600178
 40
0.6539107272747756
 40
0.6965262692823408
 40
0.7178823906430015
 40
0.7500313093223342
 40
0.778780010278441
 40
0.8217645159398393
 40
0.843148319467487
 40
0.8751517844219869
 40
0.9000181011005737
 40
0.9373587731716241
 40
0.9685909586700436
 40
1.0
 40
1.0
 40
1.0
 40
1.0
 10
18.30000000000004
 20
-30.22558335104454
 30
0.0
 10
18.30272570721755
 20
-30.22556627837402
 30
0.0
 10
18.30953248028669
 20
-30.22552364364309
 30
0.0
 10
18.32312201631285
 20
-30.22500642557784
 30
0.0
 10
18.33938561265751
 20
-30.22373406987416
 30
0.0
 10
18.35962288482185
 20
-30.22117674999641
 30
0.0
 10
18.37912375540282
 20
-30.21767179888207
 30
0.0
 10
18.4020910196408
 20
-30.21222395072498
 30
0.0
 10
18.42129673976767
 20
-30.20645116373992
 30
0.0
 10
18.44082814121581
 20
-30.19944068106951
 30
0.0
 10
18.45719063599696
 20
-30.19274469805108
 30
0.0
 10
18.47744394653429
 20
-30.18326482982682
 30
0.0
 10
18.49514857763437
 20
-30.1736832090006
 30
0.0
 10
18.51299975151379
 20
-30.16278063541456
 30
0.0
 10
18.52776301175227
 20
-30.15286142074767
 30
0.0
 10
18.54566472362536
 20
-30.13952115792123
 30
0.0
 10
18.5609901973922
 20
-30.12669393443824
 30
0.0
 10
18.57619621116286
 20
-30.11259236596225
 30
0.0
 10
18.58867266852493
 20
-30.10001076072544
 30
0.0
 10
18.60368988927734
 20
-30.08334809853173
 30
0.0
 10
18.61632660054171
 20
-30.06764274615825
 30
0.0
 10
18.62859079403635
 20
-30.05073652815424
 30
0.0
 10
18.63839017710038
 20
-30.03598122494378
 30
0.0
 10
18.64984493542832
 20
-30.01686876572994
 30
0.0
 10
18.65917173679208
 20
-29.99919674617717
 30
0.0
 10
18.66796571044986
 20
-29.98037575892726
 30
0.0
 10
18.67483577298724
 20
-29.96397331420775
 30
0.0
 10
18.68255175413462
 20
-29.94288598449839
 30
0.0
 10
18.6884435418477
 20
-29.92362807390455
 30
0.0
 10
18.69357306209474
 20
-29.90344122156729
 30
0.0
 10
18.69708266244009
 20
-29.88689138494659
 30
0.0
 10
18.70046523232465
 20
-29.86681106446726
 30
0.0
 10
18.70287693087251
 20
-29.84675380194962
 30
0.0
 10
18.7044372553965
 20
-29.82519288084993
 30
0.0
 10
18.70461894852536
 20
-29.81165479503139
 30
0.0
 10
18.70471005157814
 20
-29.80486664099078
 30
0.0
  0
SPLINE
  5
2F7
330
1F
100
AcDbEntity
  8
1
  6
SLD-Dashed
370
    18
100
AcDbSpline
210
0.0
220
0.0
230
1.0
 70
     8
 71
     3
 72
     8
 73
     4
 74
     0
 42
0.000000001
 43
0.00000001
 40
0.0
 40
0.0
 40
0.0
 40
0.0
 40
1.0
 40
1.0
 40
1.0
 40
1.0
 10
13.02999999999999
 20
-27.81278402659764
 30
0.0
 10
13.47617456320466
 20
-28.61764830107019
 30
0.0
 10
13.92349688209517
 20
-29.42186997179668
 30
0.0
 10
14.37172431088707
 20
-30.22558335104454
 30
0.0
  0
SPLINE
  5
2F8
330
1F
100
AcDbEntity
  8
1
  6
SLD-Dashed
370
    18
100
AcDbSpline
210
0.0
220
0.0
230
1.0
 70
     8
 71
     3
 72
    12
 73
     8
 74
     0
 42
0.000000001
 43
0.00000001
 40
0.0
 40
0.0
 40
0.0
 40
0.0
 40
0.2499999999999991
 40
0.2499999999999991
 40
0.4999999999999982
 40
0.4999999999999982
 40
1.0
 40
1.0
 40
1.0
 40
1.0
 10
12.27999999999999
 20
-26.80430888868439
 30
0.0
 10
12.37978072431227
 20
-26.8043088886844
 30
0.0
 10
12.48151042527953
 20
-26.8259731752705
 30
0.0
 10
12.66494915786522
 20
-26.90735539054003
 30
0.0
 10
12.74805388554813
 20
-26.96711648327142
 30
0.0
 10
12.95292618544644
 20
-27.1859076303307
 30
0.0
 10
13.03
 20
-27.38705398234475
 30
0.0
 10
13.03
 20
-27.5868351754964
 30
0.0
  0
SPLINE
  5
2F9
330
1F
100
AcDbEntity
  8
1
  6
SLD-Dashed
370
    18
100
AcDbSpline
210
0.0
220
0.0
230
1.0
 70
     8
 71
     3
 72
    14
 73
    10
 74
     0
 42
0.000000001
 43
0.00000001
 40
0.0
 40
0.0
 40
0.0
 40
0.0
 40
0.25
 40
0.25
 40
0.5
 40
0.5
 40
0.75
 40
0.75
 40
1.0
 40
1.0
 40
1.0
 40
1.0
 10
9.200000000000502
 20
-27.5868351754969
 30
0.0
 10
9.200000000000445
 20
-27.48633204917102
 30
0.0
 10
9.218706918939795
 20
-27.3862503282618
 30
0.0
 10
9.291262914440102
 20
-27.19964761855531
 30
0.0
 10
9.345503941425484
 20
-27.1127999883829
 30
0.0
 10
9.482011574204584
 20
-26.96707505027741
 30
0.0
 10
9.565219805752283
 20
-26.90718470478144
 30
0.0
 10
9.749488820138582
 20
-26.82562619640976
 30
0.0
 10
9.849028188255533
 20
-26.80430888868446
 30
0.0
 10
9.949999999999987
 20
-26.80430888868439
 30
0.0
  0
SPLINE
  5
2FA
330
1F
100
AcDbEntity
  8
1
  6
SLD-Dashed
370
    18
100
AcDbSpline
210
0.0
220
0.0
230
1.0
 70
     8
 71
     3
 72
     8
 73
     4
 74
     0
 42
0.000000001
 43
0.00000001
 40
0.0
 40
0.0
 40
0.0
 40
0.0
 40
1.0
 40
1.0
 40
1.0
 40
1.0
 10
7.858352633100363
 20
-30.22544538331282
 30
0.0
 10
8.3065543095963
 20
-29.42177793480446
 30
0.0
 10
8.75385096732724
 20
-28.61760224597264
 30
0.0
 10
9.2
 20
-27.81278402659765
 30
0.0
  0
SPLINE
  5
2FB
330
1F
100
AcDbEntity
  8
SK3
  6
SLD-Dashed
370
    18
100
AcDbSpline
210
0.0
220
0.0
230
1.0
 70
     8
 71
     3
 72
    12
 73
     8
 74
     0
 42
0.000000001
 43
0.00000001
 40
0.0
 40
0.0
 40
0.0
 40
0.0
 40
0.25
 40
0.25
 40
0.5
 40
0.5
 40
1.0
 40
1.0
 40
1.0
 40
1.0
 10
9.949999999999992
 20
-21.14893614345662
 30
0.0
 10
9.83593690180636
 20
-21.14893614345662
 30
0.0
 10
9.721259457052328
 20
-21.18584712701706
 30
0.0
 10
9.529550461759733
 20
-21.30745805589333
 30
0.0
 10
9.44896243167285
 20
-21.39173613325999
 30
0.0
 10
9.259830884989977
 20
-21.67557833508071
 30
0.0
 10
9.2
 20
-21.90610457426623
 30
0.0
 10
9.199999999999987
 20
-22.132329294496
 30
0.0
  0
SPLINE
  5
2FC
330
1F
100
AcDbEntity
  8
SK3
  6
SLD-Dashed
370
    18
100
AcDbSpline
210
0.0
220
0.0
230
1.0
 70
    24
 71
     3
 72
     8
 73
     4
 74
     0
 42
0.000000001
 43
0.00000001
 40
0.0
 40
0.0
 40
0.0
 40
0.0
 40
0.2499999999999994
 40
0.2499999999999994
 40
0.2499999999999994
 40
0.2499999999999994
 10
12.28
 20
-18.35
 30
0.0
 10
12.39387251328287
 20
-18.35
 30
0.0
 10
12.5077608099478
 20
-18.35
 30
0.0
 10
12.60403578072328
 20
-18.35
 30
0.0
  0
SPLINE
  5
2FD
330
1F
100
AcDbEntity
  8
SK3
  6
SLD-Dashed
370
    18
100
AcDbSpline
210
0.0
220
0.0
230
1.0
 70
    24
 71
     3
 72
     8
 73
     4
 74
     0
 42
0.000000001
 43
0.00000001
 40
0.2499999999999994
 40
0.2499999999999994
 40
0.2499999999999994
 40
0.2499999999999994
 40
0.4999999999999989
 40
0.4999999999999989
 40
0.4999999999999989
 40
0.4999999999999989
 10
12.60403578072328
 20
-18.35
 30
0.0
 10
12.70031075149873
 20
-18.35
 30
0.0
 10
12.78072688590698
 20
-18.35
 30
0.0
 10
12.8439936370323
 20
-18.35
 30
0.0
  0
SPLINE
  5
2FE
330
1F
100
AcDbEntity
  8
SK3
  6
SLD-Dashed
370
    18
100
AcDbSpline
210
0.0
220
0.0
230
1.0
 70
    24
 71
     2
 72
     6
 73
     3
 74
     0
 42
0.000000001
 43
0.00000001
 40
0.4999999999999989
 40
0.4999999999999989
 40
0.4999999999999989
 40
1.0
 40
1.0
 40
1.0
 10
12.8439936370323
 20
-18.35
 30
0.0
 10
12.97052713928296
 20
-18.35
 30
0.0
 10
13.02999999999999
 20
-18.35
 30
0.0
  0
SPLINE
  5
2FF
330
1F
100
AcDbEntity
  8
SK3
  6
SLD-Dashed
370
    18
100
AcDbSpline
210
0.0
220
0.0
230
1.0
 70
    24
 71
     2
 72
     6
 73
     3
 74
     0
 42
0.000000001
 43
0.00000001
 40
0.0
 40
0.0
 40
0.0
 40
0.25
 40
0.25
 40
0.25
 10
9.199999999999985
 20
-18.35
 30
0.0
 10
9.215166861193739
 20
-18.35
 30
0.0
 10
9.245806781973135
 20
-18.35
 30
0.0
  0
SPLINE
  5
300
330
1F
100
AcDbEntity
  8
SK3
  6
SLD-Dashed
370
    18
100
AcDbSpline
210
0.0
220
0.0
230
1.0
 70
    24
 71
     3
 72
     8
 73
     4
 74
     0
 42
0.000000001
 43
0.00000001
 40
0.25
 40
0.25
 40
0.25
 40
0.25
 40
0.5
 40
0.5
 40
0.5
 40
0.5
 10
9.245806781973135
 20
-18.35
 30
0.0
 10
9.276446702752516
 20
-18.35
 30
0.0
 10
9.322918752353221
 20
-18.35
 30
0.0
 10
9.385958982750742
 20
-18.35
 30
0.0
  0
SPLINE
  5
301
330
1F
100
AcDbEntity
  8
SK3
  6
SLD-Dashed
370
    18
100
AcDbSpline
210
0.0
220
0.0
230
1.0
 70
    24
 71
     3
 72
     8
 73
     4
 74
     0
 42
0.000000001
 43
0.00000001
 40
0.5
 40
0.5
 40
0.5
 40
0.5
 40
0.75
 40
0.75
 40
0.75
 40
0.75
 10
9.385958982750742
 20
-18.35
 30
0.0
 10
9.448999213148262
 20
-18.35
 30
0.0
 10
9.529064162572917
 20
-18.35
 30
0.0
 10
9.626398333053384
 20
-18.35
 30
0.0
  0
SPLINE
  5
302
330
1F
100
AcDbEntity
  8
SK3
  6
SLD-Dashed
370
    18
100
AcDbSpline
210
0.0
220
0.0
230
1.0
 70
    24
 71
     3
 72
     8
 73
     4
 74
     0
 42
0.000000001
 43
0.00000001
 40
0.75
 40
0.75
 40
0.75
 40
0.75
 40
1.0
 40
1.0
 40
1.0
 40
1.0
 10
9.626398333053384
 20
-18.35
 30
0.0
 10
9.723732503533853
 20
-18.35
 30
0.0
 10
9.836381831357071
 20
-18.35
 30
0.0
 10
9.949999999999987
 20
-18.35
 30
0.0
  0
SPLINE
  5
303
330
1F
100
AcDbEntity
  8
SK3
  6
SLD-Dashed
370
    18
100
AcDbSpline
210
0.0
220
0.0
230
1.0
 70
     8
 71
     3
 72
    14
 73
    10
 74
     0
 42
0.000000001
 43
0.00000001
 40
0.0
 40
0.0
 40
0.0
 40
0.0
 40
0.25
 40
0.25
 40
0.5
 40
0.5
 40
0.75
 40
0.75
 40
1.0
 40
1.0
 40
1.0
 40
1.0
 10
13.02999999999992
 20
-22.13232929449594
 30
0.0
 10
13.02999999999994
 20
-22.01826902485113
 30
0.0
 10
13.0150623793491
 20
-21.90620552728332
 30
0.0
 10
12.95346267662339
 20
-21.68631926902339
 30
0.0
 10
12.9076172337081
 20
-21.58180217631511
 30
0.0
 10
12.78106163491502
 20
-21.39167307641906
 30
0.0
 10
12.70088587990453
 20
-21.30757882093607
 30
0.0
 10
12.5069557339286
 20
-21.18487204837227
 30
0.0
 10
12.39354933538726
 20
-21.14893614345662
 30
0.0
 10
12.28
 20
-21.14893614345662
 30
0.0
  0
SPLINE
  5
304
330
1F
100
AcDbEntity
  8
SK3
  6
SLD-Dashed
370
    18
100
AcDbSpline
210
0.0
220
0.0
230
1.0
 70
    24
 71
     3
 72
     8
 73
     4
 74
     0
 42
0.000000001
 43
0.00000001
 40
0.0
 40
0.0
 40
0.0
 40
0.0
 40
0.2500000000000016
 40
0.2500000000000016
 40
0.2500000000000016
 40
0.2500000000000016
 10
18.29999999999998
 20
-18.35
 30
0.0
 10
18.41088345614662
 20
-18.35000000000002
 30
0.0
 10
18.52024195941293
 20
-18.35
 30
0.0
 10
18.61523568267816
 20
-18.35
 30
0.0
  0
SPLINE
  5
305
330
1F
100
AcDbEntity
  8
SK3
  6
SLD-Dashed
370
    18
100
AcDbSpline
210
0.0
220
0.0
230
1.0
 70
    24
 71
     3
 72
     8
 73
     4
 74
     0
 42
0.000000001
 43
0.00000001
 40
0.2500000000000016
 40
0.2500000000000016
 40
0.2500000000000016
 40
0.2500000000000016
 40
0.5000000000000032
 40
0.5000000000000032
 40
0.5000000000000032
 40
0.5000000000000032
 10
18.61523568267816
 20
-18.35
 30
0.0
 10
18.71022940594341
 20
-18.35
 30
0.0
 10
18.79255896697543
 20
-18.35
 30
0.0
 10
18.85764337275063
 20
-18.34999999999999
 30
0.0
  0
SPLINE
  5
306
330
1F
100
AcDbEntity
  8
SK3
  6
SLD-Dashed
370
    18
100
AcDbSpline
210
0.0
220
0.0
230
1.0
 70
    24
 71
     2
 72
     6
 73
     3
 74
     0
 42
0.000000001
 43
0.00000001
 40
0.5000000000000032
 40
0.5000000000000032
 40
0.5000000000000032
 40
1.0
 40
1.0
 40
1.0
 10
18.85764337275063
 20
-18.34999999999999
 30
0.0
 10
18.98781218430101
 20
-18.35
 30
0.0
 10
19.04999999999998
 20
-18.35
 30
0.0
  0
SPLINE
  5
307
330
1F
100
AcDbEntity
  8
SK3
  6
SLD-Dashed
370
    18
100
AcDbSpline
210
0.0
220
0.0
230
1.0
 70
    24
 71
     2
 72
     6
 73
     3
 74
     0
 42
0.000000001
 43
0.00000001
 40
0.0
 40
0.0
 40
0.0
 40
0.25
 40
0.25
 40
0.25
 10
3.199999999999981
 20
-18.35
 30
0.0
 10
3.215534372041307
 20
-18.35
 30
0.0
 10
3.247177760214756
 20
-18.35
 30
0.0
  0
SPLINE
  5
308
330
1F
100
AcDbEntity
  8
SK3
  6
SLD-Dashed
370
    18
100
AcDbSpline
210
0.0
220
0.0
230
1.0
 70
    24
 71
     3
 72
     8
 73
     4
 74
     0
 42
0.000000001
 43
0.00000001
 40
0.25
 40
0.25
 40
0.25
 40
0.25
 40
0.5
 40
0.5
 40
0.5
 40
0.5
 10
3.247177760214756
 20
-18.35
 30
0.0
 10
3.278821148388192
 20
-18.35
 30
0.0
 10
3.326877628883993
 20
-18.35
 30
0.0
 10
3.391635253097824
 20
-18.35
 30
0.0
  0
SPLINE
  5
309
330
1F
100
AcDbEntity
  8
SK3
  6
SLD-Dashed
370
    18
100
AcDbSpline
210
0.0
220
0.0
230
1.0
 70
    24
 71
     3
 72
     8
 73
     4
 74
     0
 42
0.000000001
 43
0.00000001
 40
0.5
 40
0.5
 40
0.5
 40
0.5
 40
0.75
 40
0.75
 40
0.75
 40
0.75
 10
3.391635253097824
 20
-18.35
 30
0.0
 10
3.456392877311643
 20
-18.35
 30
0.0
 10
3.537993436572323
 20
-18.35
 30
0.0
 10
3.634449963809447
 20
-18.35
 30
0.0
  0
SPLINE
  5
30A
330
1F
100
AcDbEntity
  8
SK3
  6
SLD-Dashed
370
    18
100
AcDbSpline
210
0.0
220
0.0
230
1.0
 70
    24
 71
     3
 72
     8
 73
     4
 74
     0
 42
0.000000001
 43
0.00000001
 40
0.75
 40
0.75
 40
0.75
 40
0.75
 40
1.0
 40
1.0
 40
1.0
 40
1.0
 10
3.634449963809447
 20
-18.35
 30
0.0
 10
3.730906491046571
 20
-18.35
 30
0.0
 10
3.839318178829626
 20
-18.35
 30
0.0
 10
3.949999999999995
 20
-18.35
 30
0.0
  0
SPLINE
  5
30B
330
1F
100
AcDbEntity
  8
SK3
  6
SLD-Dashed
370
    18
100
AcDbSpline
210
0.0
220
0.0
230
1.0
 70
     8
 71
     3
 72
    14
 73
    10
 74
     0
 42
0.000000001
 43
0.00000001
 40
0.0
 40
0.0
 40
0.0
 40
0.0
 40
0.25
 40
0.25
 40
0.5
 40
0.5
 40
0.75
 40
0.75
 40
1.0
 40
1.0
 40
1.0
 40
1.0
 10
19.05000000000003
 20
-24.98554582153458
 30
0.0
 10
19.05000000000001
 20
-25.09511951628438
 30
0.0
 10
19.03421225329059
 20
-25.20571872585109
 30
0.0
 10
18.97116178764258
 20
-25.41445574332475
 30
0.0
 10
18.92271483449101
 20
-25.515957960202
 30
0.0
 10
18.79360389711934
 20
-25.69293989561362
 30
0.0
 10
18.71142955262484
 20
-25.77032425271893
 30
0.0
 10
18.51974491589364
 20
-25.87939623808181
 30
0.0
 10
18.41038882700789
 20
-25.91022964004766
 30
0.0
 10
18.29999999999998
 20
-25.91022964004766
 30
0.0
  0
SPLINE
  5
30C
330
1F
100
AcDbEntity
  8
SK3
  6
SLD-Dashed
370
    18
100
AcDbSpline
210
0.0
220
0.0
230
1.0
 70
     8
 71
     3
 72
    12
 73
     8
 74
     0
 42
0.000000001
 43
0.00000001
 40
0.0
 40
0.0
 40
0.0
 40
0.0
 40
0.2500000000000001
 40
0.2500000000000001
 40
0.5000000000000001
 40
0.5000000000000001
 40
1.0
 40
1.0
 40
1.0
 40
1.0
 10
3.949999999999995
 20
-25.9102296400477
 30
0.0
 10
3.83915878082669
 20
-25.9102296400477
 30
0.0
 10
3.730471818891842
 20
-25.87938355290739
 30
0.0
 10
3.539648957222447
 20
-25.77107303496581
 30
0.0
 10
3.457372067223949
 20
-25.69414842786489
 30
0.0
 10
3.261852427533948
 20
-25.42652197982713
 30
0.0
 10
3.199999999999883
 20
-25.20459198571109
 30
0.0
 10
3.199999999999994
 20
-24.98554582153412
 30
0.0
  0
SPLINE
  5
30D
330
1F
100
AcDbEntity
  8
SK3
  6
SLD-Dashed
370
    18
100
AcDbSpline
210
0.0
220
0.0
230
1.0
 70
     8
 71
     3
 72
    30
 73
    26
 74
     0
 42
0.000000001
 43
0.00000001
 40
0.5000000000000012
 40
0.5000000000000012
 40
0.5000000000000012
 40
0.5000000000000012
 40
0.5312500000000012
 40
0.5312500000000012
 40
0.5625000000000012
 40
0.5625000000000012
 40
0.6250000000000014
 40
0.6250000000000014
 40
0.6875000000000016
 40
0.6875000000000016
 40
0.7187500000000013
 40
0.7187500000000013
 40
0.7500000000000011
 40
0.7500000000000011
 40
0.781250000000001
 40
0.781250000000001
 40
0.8125000000000008
 40
0.8125000000000008
 40
0.8437500000000006
 40
0.8437500000000006
 40
0.8750000000000003
 40
0.8750000000000003
 40
0.9375000000000002
 40
0.9375000000000002
 40
1.0
 40
1.0
 40
1.0
 40
1.0
 10
9.543420299935407
 20
8.779164202220969
 30
0.0
 10
9.578561233735405
 20
8.85978061808669
 30
0.0
 10
9.622627266507019
 20
8.923794183661835
 30
0.0
 10
9.718027024245027
 20
9.025758720035872
 30
0.0
 10
9.770165859587774
 20
9.064859097077951
 30
0.0
 10
9.935727180931456
 20
9.157211171430465
 30
0.0
 10
10.05462982796815
 20
9.184992456892159
 30
0.0
 10
10.31081948707686
 20
9.203606692695091
 30
0.0
 10
10.44840974433162
 20
9.193378534086472
 30
0.0
 10
10.67777322328792
 20
9.15573302892824
 30
0.0
 10
10.75871097916553
 20
9.139325882255612
 30
0.0
 10
10.93364535127572
 20
9.098739976864985
 30
0.0
 10
11.02698337642655
 20
9.07485143391961
 30
0.0
 10
11.23604536410176
 20
9.016444669949886
 30
0.0
 10
11.35057343779476
 20
8.982450275402128
 30
0.0
 10
11.59480302461463
 20
8.89882537410535
 30
0.0
 10
11.7194559947736
 20
8.850454838246355
 30
0.0
 10
11.95950363931203
 20
8.73414850032765
 30
0.0
 10
12.07031700587899
 20
8.668572650845501
 30
0.0
 10
12.27422745067754
 20
8.516171160077086
 30
0.0
 10
12.36502701179842
 20
8.430882284499667
 30
0.0
 10
12.59959907667485
 20
8.148150203280677
 30
0.0
 10
12.70444177032678
 20
7.922793662573077
 30
0.0
 10
12.78609851062197
 20
7.438758262361178
 30
0.0
 10
12.76320534245734
 20
7.182019426018011
 30
0.0
 10
12.67730763443388
 20
6.936735170769183
 30
0.0
  0
SPLINE
  5
30E
330
1F
100
AcDbEntity
  8
SK3
  6
SLD-Dashed
370
    18
100
AcDbSpline
210
0.0
220
0.0
230
1.0
 70
     8
 71
     3
 72
    34
 73
    30
 74
     0
 42
0.000000001
 43
0.00000001
 40
0.0
 40
0.0
 40
0.0
 40
0.0
 40
0.0312500000000001
 40
0.0312500000000001
 40
0.0625000000000003
 40
0.0625000000000003
 40
0.0937500000000004
 40
0.0937500000000004
 40
0.1250000000000005
 40
0.1250000000000005
 40
0.1562500000000007
 40
0.1562500000000007
 40
0.1875000000000008
 40
0.1875000000000008
 40
0.2500000000000008
 40
0.2500000000000008
 40
0.3125000000000008
 40
0.3125000000000008
 40
0.3437500000000008
 40
0.3437500000000008
 40
0.3750000000000009
 40
0.3750000000000009
 40
0.406250000000001
 40
0.406250000000001
 40
0.4375000000000011
 40
0.4375000000000011
 40
0.4687500000000012
 40
0.4687500000000012
 40
0.5000000000000012
 40
0.5000000000000012
 40
0.5000000000000012
 40
0.5000000000000012
 10
12.67730763443388
 20
6.936735170769183
 30
0.0
 10
12.63435878042213
 20
6.814093043144773
 30
0.0
 10
12.57729529856065
 20
6.697907968659752
 30
0.0
 10
12.43603808962698
 20
6.478825579697006
 30
0.0
 10
12.35095491427447
 20
6.375597900680027
 30
0.0
 10
12.16118186397767
 20
6.195677328194038
 30
0.0
 10
12.05422579636491
 20
6.116519150458847
 30
0.0
 10
11.82324491388434
 20
5.992288968745443
 30
0.0
 10
11.69889439480551
 20
5.947796516244614
 30
0.0
 10
11.45304455248933
 20
5.904797982531323
 30
0.0
 10
11.33231684279021
 20
5.906500158642455
 30
0.0
 10
11.11245426351667
 20
5.943973551987482
 30
0.0
 10
11.01315393168724
 20
5.97845341631293
 30
0.0
 10
10.73767466537658
 20
6.107558924087083
 30
0.0
 10
10.5868917600473
 20
6.222865001686742
 30
0.0
 10
10.30357248622241
 20
6.487130062003008
 30
0.0
 10
10.17286476490367
 20
6.637950132877893
 30
0.0
 10
9.991005005593564
 20
6.889595493159359
 30
0.0
 10
9.932635222666228
 20
6.978050688572289
 30
0.0
 10
9.820404805610403
 20
7.166770256680513
 30
0.0
 10
9.766060353100542
 20
7.267956566324049
 30
0.0
 10
9.665448853514281
 20
7.48265808595619
 30
0.0
 10
9.619326797725632
 20
7.59537577757232
 30
0.0
 10
9.539388536729351
 20
7.837768627707166
 30
0.0
 10
9.505665766297286
 20
7.968295848681403
 30
0.0
 10
9.465224495380092
 20
8.233656541530937
 30
0.0
 10
9.459739461343556
 20
8.365744160008528
 30
0.0
 10
9.481585255233766
 20
8.598717233607646
 30
0.0
 10
9.508279366135422
 20
8.698547786355245
 30
0.0
 10
9.543420299935407
 20
8.779164202220969
 30
0.0
  0
SPLINE
  5
30F
330
1F
100
AcDbEntity
  8
SK3
  6
SLD-Dashed
370
    18
100
AcDbSpline
210
0.0
220
0.0
230
1.0
 70
     8
 71
     3
 72
     8
 73
     4
 74
     0
 42
0.000000001
 43
0.00000001
 40
0.0
 40
0.0
 40
0.0
 40
0.0
 40
1.0
 40
1.0
 40
1.0
 40
1.0
 10
9.199999999999985
 20
-22.41333264622121
 30
0.0
 10
8.676711774190867
 20
-23.58471002639259
 30
0.0
 10
8.139792627971321
 20
-24.7500480285593
 30
0.0
 10
7.59316335794323
 20
-25.9102296400477
 30
0.0
  0
SPLINE
  5
310
330
1F
100
AcDbEntity
  8
SK3
  6
SLD-Dashed
370
    18
100
AcDbSpline
210
0.0
220
0.0
230
1.0
 70
     8
 71
     3
 72
     8
 73
     4
 74
     0
 42
0.000000001
 43
0.00000001
 40
0.0
 40
0.0
 40
0.0
 40
0.0
 40
1.0
 40
1.0
 40
1.0
 40
1.0
 10
14.63683664205671
 20
-25.91022964004765
 30
0.0
 10
14.09012227777952
 20
-24.7498674220889
 30
0.0
 10
13.55294133690065
 20
-23.58393351776748
 30
0.0
 10
13.02999999999993
 20
-22.41333264622117
 30
0.0
  0
SPLINE
  5
311
330
1F
100
AcDbEntity
  8
SK3
  6
SLD-Dashed
370
    18
100
AcDbSpline
210
0.0
220
0.0
230
1.0
 70
    24
 71
     3
 72
     8
 73
     4
 74
     0
 42
0.000000001
 43
0.00000001
 40
0.0
 40
0.0
 40
0.0
 40
0.0
 40
1.0
 40
1.0
 40
1.0
 40
1.0
 10
7.593163357943217
 20
-18.35
 30
0.0
 10
8.14047015127725
 20
-18.35
 30
0.0
 10
8.677299140454675
 20
-18.35
 30
0.0
 10
9.199999999999985
 20
-18.35
 30
0.0
  0
SPLINE
  5
312
330
1F
100
AcDbEntity
  8
SK3
  6
SLD-Dashed
370
    18
100
AcDbSpline
210
0.0
220
0.0
230
1.0
 70
    24
 71
     3
 72
     8
 73
     4
 74
     0
 42
0.000000001
 43
0.00000001
 40
0.0
 40
0.0
 40
0.0
 40
0.0
 40
1.0
 40
1.0
 40
1.0
 40
1.0
 10
13.02999999999999
 20
-18.35
 30
0.0
 10
13.55320414498341
 20
-18.35
 30
0.0
 10
14.09000628914509
 20
-18.35
 30
0.0
 10
14.63683664205673
 20
-18.35
 30
0.0
  0
ELLIPSE
  5
313
330
1F
100
AcDbEntity
  8
SK3
  6
SLD-Dashed
370
    18
100
AcDbEllipse
 10
6.0773103747
 20
-8.4376369358
 30
0.0
 11
3.098580671678216
 21
0.0
 31
0.0
210
0.0
220
0.0
230
1.0
 40
0.5913677276
 41
6.126949351778335
 42
6.439421262580867
  0
INSERT
  5
314
330
1F
100
AcDbEntity
  8
80
100
AcDbBlockReference
  2
Block12
 10
-61.7273641656
 20
-130.3356800267
 30
0.0
  0
INSERT
  5
315
330
1F
100
AcDbEntity
  8
81
100
AcDbBlockReference
  2
Block11
 10
8.3735173495
 20
-130.2676275275
 30
0.0
  0
DIMENSION
  5
316
330
1F
100
AcDbEntity
  8
SK2
100
AcDbDimension
  2
_D
 10
19.05
 20
41.747518911
 30
0.0
 11
9.117735165
 21
41.747518911
 31
0.0
 70
   160
  1
<>
 71
     2
 42
-1.0
  3
SLDDIMSTYLE0
100
AcDbAlignedDimension
 13
0.0
 23
22.225
 33
0.0
 14
19.05
 24
29.8288189921
 34
0.0
 50
0.0
100
AcDbRotatedDimension
  0
DIMENSION
  5
322
330
1F
100
AcDbEntity
  8
SK2
100
AcDbDimension
  2
_D_1
 10
100.0
 20
41.747518911
 30
0.0
 11
59.7049040476
 21
41.747518911
 31
0.0
 70
   160
  1
<>
 71
     2
 42
-1.0
  3
SLDDIMSTYLE0
100
AcDbAlignedDimension
 13
19.05
 23
29.8288189921
 33
0.0
 14
100.0
 24
29.0
 34
0.0
 50
0.0
100
AcDbRotatedDimension
  0
DIMENSION
  5
32C
330
1F
100
AcDbEntity
  8
SK2
100
AcDbDimension
  2
_D_2
 10
121.0
 20
41.7475189111
 30
0.0
 11
110.5605098902
 21
41.7475189111
 31
0.0
 70
   160
  1
<>
 71
     2
 42
-1.0
  3
SLDDIMSTYLE0
100
AcDbAlignedDimension
 13
100.0
 23
29.0
 33
0.0
 14
121.0
 24
12.9710190579
 34
0.0
 50
0.0
100
AcDbRotatedDimension
  0
DIMENSION
  5
336
330
1F
100
AcDbEntity
  8
2
100
AcDbDimension
  2
_D_3
 10
0.0
 20
52.1613765517
 30
0.0
 11
46.3907754793
 21
52.1613765517
 31
0.0
 70
   160
  1
<>
 71
     2
 42
-1.0
  3
SLDDIMSTYLE0
100
AcDbAlignedDimension
 13
100.0
 23
29.0
 33
0.0
 14
0.0
 24
22.225
 34
0.0
 50
0.0
100
AcDbRotatedDimension
  0
DIMENSION
  5
340
330
1F
100
AcDbEntity
  8
SK2
100
AcDbDimension
  2
_D_4
 10
158.7080638978
 20
-30.0
 30
0.0
 11
158.7080638978
 21
-0.4029426011
 31
0.0
 70
   160
  1
%%c<>
 71
     2
 42
-1.0
  3
SLDDIMSTYLE0
100
AcDbAlignedDimension
 13
99.0
 23
30.0
 33
0.0
 14
99.0
 24
-30.0
 34
0.0
 50
90.0
100
AcDbRotatedDimension
  0
DIMENSION
  5
34B
330
1F
100
AcDbEntity
  8
SK2
100
AcDbDimension
  2
_D_5
 10
147.1719465017
 20
-13.5
 30
0.0
 11
147.1719465017
 21
-0.4029426011
 31
0.0
 70
   160
  1
%%c<>
 71
     2
 42
-1.0
  3
SLDDIMSTYLE0
100
AcDbAlignedDimension
 13
118.0
 23
13.5
 33
0.0
 14
118.0
 24
-13.5
 34
0.0
 50
90.0
100
AcDbRotatedDimension
  0
DIMENSION
  5
356
330
1F
100
AcDbEntity
  8
SK2
100
AcDbDimension
  2
_D_6
 10
-96.8716267048
 20
-30.5579089831
 30
0.0
 11
-96.8716267048
 21
-1.1353129739
 31
0.0
 70
   160
  1
%%c<>
 71
     2
 42
-1.0
  3
SLDDIMSTYLE0
100
AcDbAlignedDimension
 13
3.95
 23
30.5753609371
 33
0.0
 14
3.95
 24
-30.5579089831
 34
0.0
 50
90.0
100
AcDbRotatedDimension
  0
DIMENSION
  5
361
330
1F
100
AcDbEntity
  8
SK2
100
AcDbDimension
  2
_D_7
 10
-85.2088497494
 20
22.225
 30
0.0
 11
-85.2088497494
 21
-1.1353129739
 31
0.0
 70
   160
  1
%%c<>
 71
     2
 42
-1.0
  3
SLDDIMSTYLE0
100
AcDbAlignedDimension
 13
0.0
 23
-22.225
 33
0.0
 14
0.0
 24
22.225
 34
0.0
 50
90.0
100
AcDbRotatedDimension
  0
DIMENSION
  5
36C
330
1F
100
AcDbEntity
  8
SK2
100
AcDbDimension
  2
_D_8
 10
-75.0459173765
 20
8.0
 30
0.0
 11
-75.0459173765
 21
0.2073660429
 31
0.0
 70
   160
  1
M<>
 71
     2
 42
-1.0
  3
SLDDIMSTYLE0
100
AcDbAlignedDimension
 13
-59.2881197846
 23
-8.0
 33
0.0
 14
-59.2881197846
 24
8.0
 34
0.0
 50
90.0
100
AcDbRotatedDimension
  0
MTEXT
  5
377
330
1F
100
AcDbEntity
  8
SK6
 62
     5
100
AcDbMText
 10
-68.2279037355
 20
-34.5942427927
 30
0.0
 40
3.5
 41
0.0
 71
     1
 72
     1
  1
A1B05-40 27 100
  7
SLDTEXTSTYLE0
 73
     1
 44
1.0
  0
INSERT
  5
37D
330
1F
100
AcDbEntity
  8
SK6
 62
     5
100
AcDbBlockReference
  2
SW_NOTE_0
 10
-38.3650667196
 20
36.715947651
 30
0.0
  0
ENDSEC
  0
SECTION
  2
OBJECTS
  0
DICTIONARY
  5
C
330
0
100
AcDbDictionary
281
     1
  3
ACAD_GROUP
350
D
  3
ACAD_LAYOUT
350
1A
  3
ACAD_MLINESTYLE
350
17
  3
ACAD_PLOTSETTINGS
350
19
  3
ACAD_PLOTSTYLENAME
350
E
  3
ACAD_SCALELIST
350
47
  0
DICTIONARY
  5
D
102
{ACAD_REACTORS
330
C
102
}
330
C
100
AcDbDictionary
281
     1
  0
DICTIONARY
  5
1A
102
{ACAD_REACTORS
330
C
102
}
330
C
100
AcDbDictionary
281
     1
  3
Layout1
350
1E
  3
Layout2
350
26
  3
Model
350
22
  0
DICTIONARY
  5
17
102
{ACAD_REACTORS
330
C
102
}
330
C
100
AcDbDictionary
281
     1
  3
Standard
350
18
  0
DICTIONARY
  5
19
102
{ACAD_REACTORS
330
C
102
}
330
C
100
AcDbDictionary
281
     1
  0
ACDBDICTIONARYWDFLT
  5
E
102
{ACAD_REACTORS
330
C
102
}
330
C
100
AcDbDictionary
281
     1
  3
Normal
350
F
100
AcDbDictionaryWithDefault
340
F
  0
DICTIONARY
  5
47
102
{ACAD_REACTORS
330
C
102
}
330
C
100
AcDbDictionary
281
     1
  3
A0
350
48
  3
A1
350
49
  3
A2
350
4A
  3
A3
350
4B
  3
A4
350
4C
  3
A5
350
4D
  3
A6
350
4E
  3
A7
350
4F
  3
A8
350
50
  3
A9
350
51
  3
B0
350
52
  3
B1
350
53
  3
B2
350
54
  3
B3
350
55
  3
B4
350
56
  3
B5
350
57
  3
B6
350
58
  3
B7
350
59
  3
B8
350
5A
  3
B9
350
5B
  3
C0
350
5C
  3
C1
350
5D
  3
C2
350
5E
  3
C3
350
5F
  3
C4
350
60
  3
C5
350
61
  3
C6
350
62
  3
C7
350
63
  3
C8
350
64
  3
C9
350
65
  3
D0
350
66
  3
D1
350
67
  3
D2
350
68
  0
LAYOUT
  5
1E
102
{ACAD_REACTORS
330
1A
102
}
330
1A
100
AcDbPlotSettings
  1

  2
none_device
  4

  6

 40
0.0
 41
0.0
 42
0.0
 43
0.0
 44
0.0
 45
0.0
 46
0.0
 47
0.0
 48
0.0
 49
0.0
140
0.0
141
0.0
142
1.0
143
1.0
 70
   688
 72
     1
 73
     0
 74
     5
  7

 75
    16
147
1.0
148
0.0
149
0.0
100
AcDbLayout
  1
Layout1
 70
     1
 71
     1
 10
0.0
 20
0.0
 11
420.0
 21
297.0
 12
0.0
 22
0.0
 32
0.0
 14
1.0000000000E+20
 24
1.0000000000E+20
 34
1.0000000000E+20
 15
-1.0000000000E+20
 25
-1.0000000000E+20
 35
-1.0000000000E+20
146
0.0
 13
0.0
 23
0.0
 33
0.0
 16
1.0
 26
0.0
 36
0.0
 17
0.0
 27
1.0
 37
0.0
 76
     0
330
1B
  0
LAYOUT
  5
26
102
{ACAD_REACTORS
330
1A
102
}
330
1A
100
AcDbPlotSettings
  1

  2
none_device
  4

  6

 40
0.0
 41
0.0
 42
0.0
 43
0.0
 44
0.0
 45
0.0
 46
0.0
 47
0.0
 48
0.0
 49
0.0
140
0.0
141
0.0
142
1.0
143
1.0
 70
   688
 72
     1
 73
     0
 74
     5
  7

 75
    16
147
1.0
148
0.0
149
0.0
100
AcDbLayout
  1
Layout2
 70
     1
 71
     2
 10
0.0
 20
0.0
 11
0.0
 21
0.0
 12
0.0
 22
0.0
 32
0.0
 14
0.0
 24
0.0
 34
0.0
 15
0.0
 25
0.0
 35
0.0
146
0.0
 13
0.0
 23
0.0
 33
0.0
 16
1.0
 26
0.0
 36
0.0
 17
0.0
 27
1.0
 37
0.0
 76
     0
330
23
  0
LAYOUT
  5
22
102
{ACAD_REACTORS
330
1A
102
}
330
1A
100
AcDbPlotSettings
  1

  2
none_device
  4
Letter_(8.50_x_11.00_Inches)
  6

 40
6.35
 41
6.35
 42
6.35000508
 43
6.35000508
 44
215.9
 45
279.4
 46
0.0
 47
0.0
 48
0.0
 49
0.0
140
0.0
141
0.0
142
1.0
143
1.0
 70
  1712
 72
     1
 73
     0
 74
     0
  7

 75
     0
147
1.0
148
0.0
149
0.0
100
AcDbLayout
  1
Model
 70
     1
 71
     0
 10
0.0
 20
0.0
 11
297.0
 21
210.0
 12
0.0
 22
0.0
 32
0.0
 14
0.0
 24
0.0
 34
0.0
 15
297.0
 25
210.0
 35
0.0
146
0.0
 13
0.0
 23
0.0
 33
0.0
 16
1.0
 26
0.0
 36
0.0
 17
0.0
 27
1.0
 37
0.0
 76
     0
330
1F
331
29
  0
MLINESTYLE
  5
18
102
{ACAD_REACTORS
330
17
102
}
330
17
100
AcDbMlineStyle
  2
Standard
 70
     0
  3

 62
   256
 51
90.0
 52
90.0
 71
     2
 49
0.5
 62
   256
  6
BYLAYER
 49
-0.5
 62
   256
  6
BYLAYER
  0
ACDBPLACEHOLDER
  5
F
102
{ACAD_REACTORS
330
E
102
}
330
E
  0
SCALE
  5
48
102
{ACAD_REACTORS
330
47
102
}
330
47
100
AcDbScale
 70
     0
300
1:1
140
1.0
141
1.0
290
     1
  0
SCALE
  5
49
102
{ACAD_REACTORS
330
47
102
}
330
47
100
AcDbScale
 70
     0
300
1:2
140
1.0
141
2.0
290
     0
  0
SCALE
  5
4A
102
{ACAD_REACTORS
330
47
102
}
330
47
100
AcDbScale
 70
     0
300
1:4
140
1.0
141
4.0
290
     0
  0
SCALE
  5
4B
102
{ACAD_REACTORS
330
47
102
}
330
47
100
AcDbScale
 70
     0
300
1:5
140
1.0
141
5.0
290
     0
  0
SCALE
  5
4C
102
{ACAD_REACTORS
330
47
102
}
330
47
100
AcDbScale
 70
     0
300
1:8
140
1.0
141
8.0
290
     0
  0
SCALE
  5
4D
102
{ACAD_REACTORS
330
47
102
}
330
47
100
AcDbScale
 70
     0
300
1:10
140
1.0
141
10.0
290
     0
  0
SCALE
  5
4E
102
{ACAD_REACTORS
330
47
102
}
330
47
100
AcDbScale
 70
     0
300
1:16
140
1.0
141
16.0
290
     0
  0
SCALE
  5
4F
102
{ACAD_REACTORS
330
47
102
}
330
47
100
AcDbScale
 70
     0
300
1:20
140
1.0
141
20.0
290
     0
  0
SCALE
  5
50
102
{ACAD_REACTORS
330
47
102
}
330
47
100
AcDbScale
 70
     0
300
1:30
140
1.0
141
30.0
290
     0
  0
SCALE
  5
51
102
{ACAD_REACTORS
330
47
102
}
330
47
100
AcDbScale
 70
     0
300
1:40
140
1.0
141
40.0
290
     0
  0
SCALE
  5
52
102
{ACAD_REACTORS
330
47
102
}
330
47
100
AcDbScale
 70
     0
300
1:50
140
1.0
141
50.0
290
     0
  0
SCALE
  5
53
102
{ACAD_REACTORS
330
47
102
}
330
47
100
AcDbScale
 70
     0
300
1:100
140
1.0
141
100.0
290
     0
  0
SCALE
  5
54
102
{ACAD_REACTORS
330
47
102
}
330
47
100
AcDbScale
 70
     0
300
2:1
140
2.0
141
1.0
290
     0
  0
SCALE
  5
55
102
{ACAD_REACTORS
330
47
102
}
330
47
100
AcDbScale
 70
     0
300
4:1
140
4.0
141
1.0
290
     0
  0
SCALE
  5
56
102
{ACAD_REACTORS
330
47
102
}
330
47
100
AcDbScale
 70
     0
300
8:1
140
8.0
141
1.0
290
     0
  0
SCALE
  5
57
102
{ACAD_REACTORS
330
47
102
}
330
47
100
AcDbScale
 70
     0
300
10:1
140
10.0
141
1.0
290
     0
  0
SCALE
  5
58
102
{ACAD_REACTORS
330
47
102
}
330
47
100
AcDbScale
 70
     0
300
100:1
140
100.0
141
1.0
290
     0
  0
SCALE
  5
59
102
{ACAD_REACTORS
330
47
102
}
330
47
100
AcDbScale
 70
     0
300
1/128" = 1'-0"
140
0.0078125
141
12.0
290
     0
  0
SCALE
  5
5A
102
{ACAD_REACTORS
330
47
102
}
330
47
100
AcDbScale
 70
     0
300
1/64" = 1'-0"
140
0.015625
141
12.0
290
     0
  0
SCALE
  5
5B
102
{ACAD_REACTORS
330
47
102
}
330
47
100
AcDbScale
 70
     0
300
1/32" = 1'-0"
140
0.03125
141
12.0
290
     0
  0
SCALE
  5
5C
102
{ACAD_REACTORS
330
47
102
}
330
47
100
AcDbScale
 70
     0
300
1/16" = 1'-0"
140
0.0625
141
12.0
290
     0
  0
SCALE
  5
5D
102
{ACAD_REACTORS
330
47
102
}
330
47
100
AcDbScale
 70
     0
300
3/32" = 1'-0"
140
0.09375
141
12.0
290
     0
  0
SCALE
  5
5E
102
{ACAD_REACTORS
330
47
102
}
330
47
100
AcDbScale
 70
     0
300
1/8" = 1'-0"
140
0.125
141
12.0
290
     0
  0
SCALE
  5
5F
102
{ACAD_REACTORS
330
47
102
}
330
47
100
AcDbScale
 70
     0
300
3/16" = 1'-0"
140
0.1875
141
12.0
290
     0
  0
SCALE
  5
60
102
{ACAD_REACTORS
330
47
102
}
330
47
100
AcDbScale
 70
     0
300
1/4" = 1'-0"
140
0.25
141
12.0
290
     0
  0
SCALE
  5
61
102
{ACAD_REACTORS
330
47
102
}
330
47
100
AcDbScale
 70
     0
300
3/8" = 1'-0"
140
0.375
141
12.0
290
     0
  0
SCALE
  5
62
102
{ACAD_REACTORS
330
47
102
}
330
47
100
AcDbScale
 70
     0
300
1/2" = 1'-0"
140
0.5
141
12.0
290
     0
  0
SCALE
  5
63
102
{ACAD_REACTORS
330
47
102
}
330
47
100
AcDbScale
 70
     0
300
3/4" = 1'-0"
140
0.75
141
12.0
290
     0
  0
SCALE
  5
64
102
{ACAD_REACTORS
330
47
102
}
330
47
100
AcDbScale
 70
     0
300
1" = 1'-0"
140
1.0
141
12.0
290
     0
  0
SCALE
  5
65
102
{ACAD_REACTORS
330
47
102
}
330
47
100
AcDbScale
 70
     0
300
1-1/2" = 1'-0"
140
1.5
141
12.0
290
     0
  0
SCALE
  5
66
102
{ACAD_REACTORS
330
47
102
}
330
47
100
AcDbScale
 70
     0
300
3" = 1'-0"
140
3.0
141
12.0
290
     0
  0
SCALE
  5
67
102
{ACAD_REACTORS
330
47
102
}
330
47
100
AcDbScale
 70
     0
300
6" = 1'-0"
140
6.0
141
12.0
290
     0
  0
SCALE
  5
68
102
{ACAD_REACTORS
330
47
102
}
330
47
100
AcDbScale
 70
     0
300
1'-0" = 1'-0"
140
12.0
141
12.0
290
     0
  0
ENDSEC
  0
EOF
