  0
SECTION
  2
HEADER
  9
$ACADVER
  1
AC1015
  9
$ACADMAINTVER
 70
     6
  9
$DWGCODEPAGE
  3
ANSI_1250
  9
$INSBASE
 10
0.0
 20
0.0
 30
0.0
  9
$EXTMIN
 10
0.0
 20
0.0
 30
0.0
  9
$EXTMAX
 10
297.0
 20
210.0
 30
0.0
  9
$LIMMIN
 10
0.0
 20
0.0
  9
$LIMMAX
 10
297.0
 20
210.0
  9
$ORTHOMODE
 70
     0
  9
$REGENMODE
 70
     1
  9
$FILLMODE
 70
     1
  9
$QTEXTMODE
 70
     0
  9
$MIRRTEXT
 70
     1
  9
$LTSCALE
 40
1.0
  9
$ATTMODE
 70
     1
  9
$TEXTSIZE
 40
3.5
  9
$TRACEWID
 40
1.0
  9
$TEXTSTYLE
  7
Standard
  9
$CLAYER
  8
0
  9
$CELTYPE
  6
ByLayer
  9
$CECOLOR
 62
   256
  9
$CELTSCALE
 40
1.0
  9
$DISPSILH
 70
     0
  9
$DIMSCALE
 40
1.0
  9
$DIMASZ
 40
3.302
  9
$DIMEXO
 40
1.0
  9
$DIMDLI
 40
3.75
  9
$DIMRND
 40
0.0
  9
$DIMDLE
 40
0.0
  9
$DIMEXE
 40
1.0
  9
$DIMTP
 40
0.0
  9
$DIMTM
 40
0.0
  9
$DIMTXT
 40
3.5
  9
$DIMCEN
 40
2.5
  9
$DIMTSZ
 40
0.0
  9
$DIMTOL
 70
     0
  9
$DIMLIM
 70
     0
  9
$DIMTIH
 70
     1
  9
$DIMTOH
 70
     1
  9
$DIMSE1
 70
     0
  9
$DIMSE2
 70
     0
  9
$DIMTAD
 70
     1
  9
$DIMZIN
 70
     0
  9
$DIMBLK
  1

  9
$DIMASO
 70
     1
  9
$DIMSHO
 70
     1
  9
$DIMPOST
  1

  9
$DIMAPOST
  1

  9
$DIMALT
 70
     0
  9
$DIMALTD
 70
     3
  9
$DIMALTF
 40
0.0393700787
  9
$DIMLFAC
 40
1.0
  9
$DIMTOFL
 70
     1
  9
$DIMTVP
 40
0.0
  9
$DIMTIX
 70
     0
  9
$DIMSOXD
 70
     0
  9
$DIMSAH
 70
     0
  9
$DIMBLK1
  1

  9
$DIMBLK2
  1

  9
$DIMSTYLE
  2
ISO-25
  9
$DIMCLRD
 70
     0
  9
$DIMCLRE
 70
     0
  9
$DIMCLRT
 70
     0
  9
$DIMTFAC
 40
1.0
  9
$DIMGAP
 40
1.524
  9
$DIMJUST
 70
     0
  9
$DIMSD1
 70
     0
  9
$DIMSD2
 70
     0
  9
$DIMTOLJ
 70
     0
  9
$DIMTZIN
 70
     0
  9
$DIMALTZ
 70
     0
  9
$DIMALTTZ
 70
     0
  9
$DIMUPT
 70
     0
  9
$DIMDEC
 70
     2
  9
$DIMTDEC
 70
     2
  9
$DIMALTU
 70
     2
  9
$DIMALTTD
 70
     3
  9
$DIMTXSTY
  7
Standard
  9
$DIMAUNIT
 70
     0
  9
$DIMADEC
 70
     2
  9
$DIMALTRND
 40
0.0
  9
$DIMAZIN
 70
     0
  9
$DIMDSEP
 70
    44
  9
$DIMATFIT
 70
     3
  9
$DIMFRAC
 70
     0
  9
$DIMLDRBLK
  1

  9
$DIMLUNIT
 70
     2
  9
$DIMLWD
 70
    -2
  9
$DIMLWE
 70
    -2
  9
$DIMTMOVE
 70
     0
  9
$LUNITS
 70
     2
  9
$LUPREC
 70
     2
  9
$SKETCHINC
 40
1.0
  9
$FILLETRAD
 40
10.0
  9
$AUNITS
 70
     0
  9
$AUPREC
 70
     2
  9
$MENU
  1
.
  9
$ELEVATION
 40
0.0
  9
$PELEVATION
 40
0.0
  9
$THICKNESS
 40
0.0
  9
$LIMCHECK
 70
     0
  9
$CHAMFERA
 40
0.0
  9
$CHAMFERB
 40
0.0
  9
$CHAMFERC
 40
0.0
  9
$CHAMFERD
 40
0.0
  9
$SKPOLY
 70
     0
  9
$TDCREATE
 40
2459290.519334514
  9
$TDUCREATE
 40
2459290.477667847
  9
$TDUPDATE
 40
2459290.519335729
  9
$TDUUPDATE
 40
2459290.477669063
  9
$TDINDWG
 40
0.0000000116
  9
$TDUSRTIMER
 40
0.0000000116
  9
$USRTIMER
 70
     1
  9
$ANGBASE
 50
0.0
  9
$ANGDIR
 70
     0
  9
$PDMODE
 70
     0
  9
$PDSIZE
 40
-1.0
  9
$PLINEWID
 40
0.0
  9
$SPLFRAME
 70
     0
  9
$SPLINETYPE
 70
     6
  9
$SPLINESEGS
 70
     8
  9
$HANDSEED
  5
35F
  9
$SURFTAB1
 70
     6
  9
$SURFTAB2
 70
     6
  9
$SURFTYPE
 70
     6
  9
$SURFU
 70
     6
  9
$SURFV
 70
     6
  9
$UCSBASE
  2

  9
$UCSNAME
  2

  9
$UCSORG
 10
0.0
 20
0.0
 30
0.0
  9
$UCSXDIR
 10
1.0
 20
0.0
 30
0.0
  9
$UCSYDIR
 10
0.0
 20
1.0
 30
0.0
  9
$UCSORTHOREF
  2

  9
$UCSORTHOVIEW
 70
     0
  9
$UCSORGTOP
 10
0.0
 20
0.0
 30
0.0
  9
$UCSORGBOTTOM
 10
0.0
 20
0.0
 30
0.0
  9
$UCSORGLEFT
 10
0.0
 20
0.0
 30
0.0
  9
$UCSORGRIGHT
 10
0.0
 20
0.0
 30
0.0
  9
$UCSORGFRONT
 10
0.0
 20
0.0
 30
0.0
  9
$UCSORGBACK
 10
0.0
 20
0.0
 30
0.0
  9
$PUCSBASE
  2

  9
$PUCSNAME
  2

  9
$PUCSORG
 10
0.0
 20
0.0
 30
0.0
  9
$PUCSXDIR
 10
1.0
 20
0.0
 30
0.0
  9
$PUCSYDIR
 10
0.0
 20
1.0
 30
0.0
  9
$PUCSORTHOREF
  2

  9
$PUCSORTHOVIEW
 70
     0
  9
$PUCSORGTOP
 10
0.0
 20
0.0
 30
0.0
  9
$PUCSORGBOTTOM
 10
0.0
 20
0.0
 30
0.0
  9
$PUCSORGLEFT
 10
0.0
 20
0.0
 30
0.0
  9
$PUCSORGRIGHT
 10
0.0
 20
0.0
 30
0.0
  9
$PUCSORGFRONT
 10
0.0
 20
0.0
 30
0.0
  9
$PUCSORGBACK
 10
0.0
 20
0.0
 30
0.0
  9
$USERI1
 70
     0
  9
$USERI2
 70
     0
  9
$USERI3
 70
     0
  9
$USERI4
 70
     0
  9
$USERI5
 70
     0
  9
$USERR1
 40
0.0
  9
$USERR2
 40
0.0
  9
$USERR3
 40
0.0
  9
$USERR4
 40
0.0
  9
$USERR5
 40
0.0
  9
$WORLDVIEW
 70
     1
  9
$SHADEDGE
 70
     3
  9
$SHADEDIF
 70
    70
  9
$TILEMODE
 70
     1
  9
$MAXACTVP
 70
    64
  9
$PINSBASE
 10
0.0
 20
0.0
 30
0.0
  9
$PLIMCHECK
 70
     0
  9
$PEXTMIN
 10
1.0000000000E+20
 20
1.0000000000E+20
 30
1.0000000000E+20
  9
$PEXTMAX
 10
-1.0000000000E+20
 20
-1.0000000000E+20
 30
-1.0000000000E+20
  9
$PLIMMIN
 10
0.0
 20
0.0
  9
$PLIMMAX
 10
420.0
 20
297.0
  9
$UNITMODE
 70
     0
  9
$VISRETAIN
 70
     1
  9
$PLINEGEN
 70
     0
  9
$PSLTSCALE
 70
     1
  9
$TREEDEPTH
 70
  3020
  9
$CMLSTYLE
  2
Standard
  9
$CMLJUST
 70
     0
  9
$CMLSCALE
 40
20.0
  9
$PROXYGRAPHICS
 70
     1
  9
$MEASUREMENT
 70
     1
  9
$CELWEIGHT
370
    -1
  9
$ENDCAPS
280
     0
  9
$JOINSTYLE
280
     0
  9
$LWDISPLAY
290
     1
  9
$INSUNITS
 70
     4
  9
$HYPERLINKBASE
  1

  9
$STYLESHEET
  1

  9
$XEDIT
290
     1
  9
$CEPSNTYPE
380
     0
  9
$PSTYLEMODE
290
     1
  9
$FINGERPRINTGUID
  2
{0B411A5E-D5AD-4DD3-824C-0E9C3B9E9FEF}
  9
$VERSIONGUID
  2
{FAEB1C32-E019-11D5-929B-00C0DF256EC4}
  9
$EXTNAMES
290
     1
  9
$PSVPSCALE
 40
0.0
  9
$OLESTARTUP
290
     0
  0
ENDSEC
  0
SECTION
  2
CLASSES
  0
CLASS
  1
ACDBDICTIONARYWDFLT
  2
AcDbDictionaryWithDefault
  3
ObjectDBX Classes
 90
        0
280
     0
281
     0
  0
CLASS
  1
VISUALSTYLE
  2
AcDbVisualStyle
  3
ObjectDBX Classes
 90
     4095
280
     0
281
     0
  0
CLASS
  1
MATERIAL
  2
AcDbMaterial
  3
ObjectDBX Classes
 90
     1153
280
     0
281
     0
  0
CLASS
  1
SCALE
  2
AcDbScale
  3
ObjectDBX Classes
 90
     1153
280
     0
281
     0
  0
CLASS
  1
TABLESTYLE
  2
AcDbTableStyle
  3
ObjectDBX Classes
 90
     4095
280
     0
281
     0
  0
CLASS
  1
MLEADERSTYLE
  2
AcDbMLeaderStyle
  3
ACDB_MLEADERSTYLE_CLASS
 90
     4095
280
     0
281
     0
  0
CLASS
  1
SUN
  2
AcDbSun
  3
SCENEOE
 90
     1153
280
     0
281
     0
  0
CLASS
  1
ACDBPLACEHOLDER
  2
AcDbPlaceHolder
  3
ObjectDBX Classes
 90
        0
280
     0
281
     0
  0
CLASS
  1
LAYOUT
  2
AcDbLayout
  3
ObjectDBX Classes
 90
        0
280
     0
281
     0
  0
ENDSEC
  0
SECTION
  2
TABLES
  0
TABLE
  2
VPORT
  5
8
330
0
100
AcDbSymbolTable
 70
     1
  0
VPORT
  5
29
330
8
100
AcDbSymbolTableRecord
100
AcDbViewportTableRecord
  2
*Active
 70
     0
 10
0.0
 20
0.0
 11
1.0
 21
1.0
 12
148.5
 22
105.0
 13
0.0
 23
0.0
 14
10.0
 24
10.0
 15
10.0
 25
10.0
 16
0.0
 26
0.0
 36
1.0
 17
0.0
 27
0.0
 37
0.0
 40
210.0
 41
1.4142857143
 42
50.0
 43
0.0
 44
0.0
 50
0.0
 51
0.0
 71
     0
 72
  2000
 73
     1
 74
     3
 75
     0
 76
     0
 77
     0
 78
     0
281
     0
 65
     1
110
0.0
120
0.0
130
0.0
111
1.0
121
0.0
131
0.0
112
0.0
122
1.0
132
0.0
 79
     0
146
0.0
  0
ENDTAB
  0
TABLE
  2
LTYPE
  5
5
330
0
100
AcDbSymbolTable
 70
     8
  0
LTYPE
  5
14
330
5
100
AcDbSymbolTableRecord
100
AcDbLinetypeTableRecord
  2
ByBlock
 70
     0
  3

 72
    65
 73
     0
 40
0.0
  0
LTYPE
  5
15
330
5
100
AcDbSymbolTableRecord
100
AcDbLinetypeTableRecord
  2
ByLayer
 70
     0
  3

 72
    65
 73
     0
 40
0.0
  0
LTYPE
  5
16
330
5
100
AcDbSymbolTableRecord
100
AcDbLinetypeTableRecord
  2
Continuous
 70
     0
  3
Solid line
 72
    65
 73
     0
 40
0.0
  0
LTYPE
  5
6E
330
5
100
AcDbSymbolTableRecord
100
AcDbLinetypeTableRecord
  2
SLD-Solid
 70
     0
  3
SolidWorks Line Style
 72
    65
 73
     0
 40
0.0
  0
LTYPE
  5
6F
330
5
100
AcDbSymbolTableRecord
100
AcDbLinetypeTableRecord
  2
SLD-Dashed
 70
     0
  3
SolidWorks Line Style
 72
    65
 73
     2
 40
1.905
 49
1.27
 74
     0
 49
-0.635
 74
     0
  0
LTYPE
  5
70
330
5
100
AcDbSymbolTableRecord
100
AcDbLinetypeTableRecord
  2
SLD-Phantom
 70
     0
  3
SolidWorks Line Style
 72
    65
 73
     6
 40
12.7
 49
6.35
 74
     0
 49
-1.27
 74
     0
 49
1.27
 74
     0
 49
-1.27
 74
     0
 49
1.27
 74
     0
 49
-1.27
 74
     0
  0
LTYPE
  5
71
330
5
100
AcDbSymbolTableRecord
100
AcDbLinetypeTableRecord
  2
SLD-Chain
 70
     0
  3
SolidWorks Line Style
 72
    65
 73
     4
 40
10.16
 49
6.35
 74
     0
 49
-1.27
 74
     0
 49
1.27
 74
     0
 49
-1.27
 74
     0
  0
LTYPE
  5
72
330
5
100
AcDbSymbolTableRecord
100
AcDbLinetypeTableRecord
  2
SLD-Center
 70
     0
  3
SolidWorks Line Style
 72
    65
 73
     4
 40
19.05
 49
15.24
 74
     0
 49
-1.27
 74
     0
 49
1.27
 74
     0
 49
-1.27
 74
     0
  0
LTYPE
  5
73
330
5
100
AcDbSymbolTableRecord
100
AcDbLinetypeTableRecord
  2
SLD-Stitch
 70
     0
  3
SolidWorks Line Style
 72
    65
 73
     2
 40
0.635
 49
0.0
 74
     0
 49
-0.635
 74
     0
  0
LTYPE
  5
74
330
5
100
AcDbSymbolTableRecord
100
AcDbLinetypeTableRecord
  2
SLD-Thin-Thick-Chain
 70
     0
  3
SolidWorks Line Style
 72
    65
 73
     4
 40
10.16
 49
6.35
 74
     0
 49
-1.27
 74
     0
 49
1.27
 74
     0
 49
-1.27
 74
     0
  0
ENDTAB
  0
TABLE
  2
LAYER
  5
2
330
0
100
AcDbSymbolTable
 70
    12
  0
LAYER
  5
10
330
2
100
AcDbSymbolTableRecord
100
AcDbLayerTableRecord
  2
0
 70
     0
 62
     7
  6
Continuous
370
    -3
390
F
  0
LAYER
  5
75
330
2
100
AcDbSymbolTableRecord
100
AcDbLayerTableRecord
  2
SLD-0
 70
     0
 62
   179
  6
SLD-Solid
370
    -3
390
F
  0
LAYER
  5
76
330
2
100
AcDbSymbolTableRecord
100
AcDbLayerTableRecord
  2
80
 70
     0
 62
    -6
  6
SLD-Solid
290
     0
370
    -3
390
F
  0
LAYER
  5
77
330
2
100
AcDbSymbolTableRecord
100
AcDbLayerTableRecord
  2
81
 70
     0
 62
    -3
  6
SLD-Solid
290
     0
370
    -3
390
F
  0
LAYER
  5
78
330
2
100
AcDbSymbolTableRecord
100
AcDbLayerTableRecord
  2
1
 70
     0
 62
     4
  6
SLD-Solid
290
     0
370
    -3
390
F
  0
LAYER
  5
79
330
2
100
AcDbSymbolTableRecord
100
AcDbLayerTableRecord
  2
4
 70
     0
 62
     2
  6
SLD-Chain
290
     0
370
    -3
390
F
  0
LAYER
  5
7A
330
2
100
AcDbSymbolTableRecord
100
AcDbLayerTableRecord
  2
2
 70
     0
 62
     7
  6
SLD-Solid
290
     0
370
    -3
390
F
  0
LAYER
  5
7B
330
2
100
AcDbSymbolTableRecord
100
AcDbLayerTableRecord
  2
SK3
 70
     0
 62
     1
  6
SLD-Dashed
290
     0
370
    -3
390
F
  0
LAYER
  5
7C
330
2
100
AcDbSymbolTableRecord
100
AcDbLayerTableRecord
  2
SK4
 70
     0
 62
     2
  6
SLD-Chain
290
     0
370
    -3
390
F
  0
LAYER
  5
7D
330
2
100
AcDbSymbolTableRecord
100
AcDbLayerTableRecord
  2
SK2
 70
     0
 62
     7
  6
SLD-Solid
290
     0
370
    -3
390
F
  0
LAYER
  5
7E
330
2
100
AcDbSymbolTableRecord
100
AcDbLayerTableRecord
  2
SK6
 70
     0
 62
     5
  6
SLD-Solid
290
     0
370
    -3
390
F
  0
LAYER
  5
7F
330
2
100
AcDbSymbolTableRecord
100
AcDbLayerTableRecord
  2
SK1
 70
     0
 62
     4
  6
SLD-Solid
370
    -3
390
F
  0
ENDTAB
  0
TABLE
  2
STYLE
  5
3
330
0
100
AcDbSymbolTable
 70
     2
  0
STYLE
  5
11
330
3
100
AcDbSymbolTableRecord
100
AcDbTextStyleTableRecord
  2
Standard
 70
     0
 40
0.0
 41
1.0
 50
0.0
 71
     0
 42
3.5
  3
txt
  4

  0
STYLE
  5
2F8
330
3
100
AcDbSymbolTableRecord
100
AcDbTextStyleTableRecord
  2
SLDTEXTSTYLE0
 70
     0
 40
0.0
 41
0.75
 50
0.0
 71
     0
 42
3.5
  3
TXT
  4

  0
ENDTAB
  0
TABLE
  2
VIEW
  5
6
330
0
100
AcDbSymbolTable
 70
     0
  0
ENDTAB
  0
TABLE
  2
UCS
  5
7
330
0
100
AcDbSymbolTable
 70
     0
  0
ENDTAB
  0
TABLE
  2
APPID
  5
9
330
0
100
AcDbSymbolTable
 70
     1
  0
APPID
  5
12
330
9
100
AcDbSymbolTableRecord
100
AcDbRegAppTableRecord
  2
ACAD
 70
     0
  0
ENDTAB
  0
TABLE
  2
DIMSTYLE
  5
A
330
0
100
AcDbSymbolTable
 70
     2
100
AcDbDimStyleTable
  0
DIMSTYLE
105
27
330
A
100
AcDbSymbolTableRecord
100
AcDbDimStyleTableRecord
  2
ISO-25
 70
     0
 41
2.5
 42
0.625
 43
3.75
 44
1.25
 73
     0
 74
     0
 77
     1
 78
     8
140
2.5
141
2.5
143
0.0393700787
147
0.625
171
     3
172
     1
178
     0
271
     2
272
     2
274
     3
278
    44
283
     0
284
     8
340
11
  0
DIMSTYLE
105
2F9
102
{ACAD_REACTORS
330
2F7
330
303
330
30D
330
317
330
321
330
32C
330
337
330
342
330
34D
102
}
330
A
100
AcDbSymbolTableRecord
100
AcDbDimStyleTableRecord
  2
SLDDIMSTYLE0
 70
     0
 41
3.302
 44
0.0
 45
0.000000001
 73
     0
 74
     0
 77
     1
 78
    12
 79
     3
140
3.5
147
0.875
173
     1
178
     0
271
     2
272
     2
276
     2
284
    12
340
2F8
  0
ENDTAB
  0
TABLE
  2
BLOCK_RECORD
  5
1
330
0
100
AcDbSymbolTable
 70
    13
  0
BLOCK_RECORD
  5
1F
330
1
100
AcDbSymbolTableRecord
100
AcDbBlockTableRecord
  2
*Model_Space
340
22
  0
BLOCK_RECORD
  5
1B
330
1
100
AcDbSymbolTableRecord
100
AcDbBlockTableRecord
  2
*Paper_Space
340
1E
  0
BLOCK_RECORD
  5
23
330
1
100
AcDbSymbolTableRecord
100
AcDbBlockTableRecord
  2
*Paper_Space0
340
26
  0
BLOCK_RECORD
  5
80
330
1
100
AcDbSymbolTableRecord
100
AcDbBlockTableRecord
  2
Block11
340
0
102
{BLKREFS
331
2F6
102
}
  0
BLOCK_RECORD
  5
89
330
1
100
AcDbSymbolTableRecord
100
AcDbBlockTableRecord
  2
Block12
340
0
102
{BLKREFS
331
2F5
102
}
  0
BLOCK_RECORD
  5
2FA
330
1
100
AcDbSymbolTableRecord
100
AcDbBlockTableRecord
  2
_D
340
0
  0
BLOCK_RECORD
  5
304
330
1
100
AcDbSymbolTableRecord
100
AcDbBlockTableRecord
  2
_D_1
340
0
  0
BLOCK_RECORD
  5
30E
330
1
100
AcDbSymbolTableRecord
100
AcDbBlockTableRecord
  2
_D_2
340
0
  0
BLOCK_RECORD
  5
318
330
1
100
AcDbSymbolTableRecord
100
AcDbBlockTableRecord
  2
_D_3
340
0
  0
BLOCK_RECORD
  5
322
330
1
100
AcDbSymbolTableRecord
100
AcDbBlockTableRecord
  2
_D_4
340
0
  0
BLOCK_RECORD
  5
32D
330
1
100
AcDbSymbolTableRecord
100
AcDbBlockTableRecord
  2
_D_5
340
0
  0
BLOCK_RECORD
  5
338
330
1
100
AcDbSymbolTableRecord
100
AcDbBlockTableRecord
  2
_D_6
340
0
  0
BLOCK_RECORD
  5
343
330
1
100
AcDbSymbolTableRecord
100
AcDbBlockTableRecord
  2
_D_7
340
0
  0
BLOCK_RECORD
  5
34E
330
1
100
AcDbSymbolTableRecord
100
AcDbBlockTableRecord
  2
_D_8
340
0
  0
BLOCK_RECORD
  5
359
330
1
100
AcDbSymbolTableRecord
100
AcDbBlockTableRecord
  2
SW_NOTE_0
340
0
102
{BLKREFS
331
35E
102
}
  0
ENDTAB
  0
ENDSEC
  0
SECTION
  2
BLOCKS
  0
BLOCK
  5
20
330
1F
100
AcDbEntity
  8
0
100
AcDbBlockBegin
  2
*Model_Space
 70
     0
 10
0.0
 20
0.0
 30
0.0
  3
*Model_Space
  1

  0
ENDBLK
  5
21
330
1F
100
AcDbEntity
  8
0
100
AcDbBlockEnd
  0
BLOCK
  5
1C
330
1B
100
AcDbEntity
 67
     1
  8
0
100
AcDbBlockBegin
  2
*Paper_Space
 70
     0
 10
0.0
 20
0.0
 30
0.0
  3
*Paper_Space
  1

  0
ENDBLK
  5
1D
330
1B
100
AcDbEntity
 67
     1
  8
0
100
AcDbBlockEnd
  0
BLOCK
  5
24
330
23
100
AcDbEntity
  8
0
100
AcDbBlockBegin
  2
*Paper_Space0
 70
     0
 10
0.0
 20
0.0
 30
0.0
  3
*Paper_Space0
  1

  0
ENDBLK
  5
25
330
23
100
AcDbEntity
  8
0
100
AcDbBlockEnd
  0
BLOCK
  5
81
330
80
100
AcDbEntity
  8
0
100
AcDbBlockBegin
  2
Block11
 70
     0
 10
0.0
 20
0.0
 30
0.0
  3
Block11
  1

  0
CIRCLE
  5
83
330
80
100
AcDbEntity
  8
81
370
    18
100
AcDbCircle
 10
91.6264826505
 20
130.2676275275
 30
0.0
 40
2.499999999999981
  0
LINE
  5
84
330
80
100
AcDbEntity
  8
81
370
    18
100
AcDbLine
 10
91.6264826505
 20
130.2676275275
 30
0.0
 11
95.1620165565
 21
133.8031614334
 31
0.0
  0
LINE
  5
85
330
80
100
AcDbEntity
  8
81
370
    18
100
AcDbLine
 10
91.6264826505
 20
130.2676275275
 30
0.0
 11
88.0909487446
 21
126.7320936216
 31
0.0
  0
LINE
  5
86
330
80
100
AcDbEntity
  8
81
370
    18
100
AcDbLine
 10
91.6264826505
 20
130.2676275275
 30
0.0
 11
88.0909487446
 21
133.8031614334
 31
0.0
  0
LINE
  5
87
330
80
100
AcDbEntity
  8
81
100
AcDbLine
 10
91.6264826505
 20
130.2676275275
 30
0.0
 11
101.6264826505
 21
130.2676275275
 31
0.0
  0
LINE
  5
88
330
80
100
AcDbEntity
  8
81
370
    18
100
AcDbLine
 10
91.6264826505
 20
130.2676275275
 30
0.0
 11
95.1620165565
 21
126.7320936216
 31
0.0
  0
ENDBLK
  5
82
330
80
100
AcDbEntity
  8
0
100
AcDbBlockEnd
  0
BLOCK
  5
8A
330
89
100
AcDbEntity
  8
0
100
AcDbBlockBegin
  2
Block12
 70
     0
 10
0.0
 20
0.0
 30
0.0
  3
Block12
  1

  0
CIRCLE
  5
8C
330
89
100
AcDbEntity
  8
80
370
    18
100
AcDbCircle
 10
61.7273641656
 20
130.3356800267
 30
0.0
 40
2.500000000000004
  0
LINE
  5
8D
330
89
100
AcDbEntity
  8
80
370
    18
100
AcDbLine
 10
61.7273641656
 20
130.3356800267
 30
0.0
 11
65.2628980715
 21
133.8712139326
 31
0.0
  0
LINE
  5
8E
330
89
100
AcDbEntity
  8
80
370
    18
100
AcDbLine
 10
61.7273641656
 20
130.3356800267
 30
0.0
 11
58.1918302597
 21
126.8001461208
 31
0.0
  0
LINE
  5
8F
330
89
100
AcDbEntity
  8
80
370
    18
100
AcDbLine
 10
61.7273641656
 20
130.3356800267
 30
0.0
 11
58.1918302597
 21
133.8712139326
 31
0.0
  0
LINE
  5
90
330
89
100
AcDbEntity
  8
80
370
    18
100
AcDbLine
 10
61.7273641656
 20
130.3356800267
 30
0.0
 11
51.7273641656
 21
130.3356800267
 31
0.0
  0
LINE
  5
91
330
89
100
AcDbEntity
  8
80
370
    18
100
AcDbLine
 10
61.7273641656
 20
130.3356800267
 30
0.0
 11
65.2628980715
 21
126.8001461208
 31
0.0
  0
ENDBLK
  5
8B
330
89
100
AcDbEntity
  8
0
100
AcDbBlockEnd
  0
BLOCK
  5
2FB
330
2FA
100
AcDbEntity
  8
0
100
AcDbBlockBegin
  2
_D
 70
     0
 10
0.0
 20
0.0
 30
0.0
  3
_D
  1

  0
SOLID
  5
2FD
330
2FA
100
AcDbEntity
  8
SK2
100
AcDbTrace
 10
0.0
 20
37.0104184437
 30
0.0
 11
3.302
 21
36.5024184437
 31
0.0
 12
3.302
 22
37.5184184437
 32
0.0
 13
3.302
 23
37.5184184437
 33
0.0
  0
SOLID
  5
2FE
330
2FA
100
AcDbEntity
  8
SK2
100
AcDbTrace
 10
19.05
 20
37.0104184437
 30
0.0
 11
15.748
 21
37.5184184437
 31
0.0
 12
15.748
 22
36.5024184437
 32
0.0
 13
15.748
 23
36.5024184437
 33
0.0
  0
LINE
  5
2FF
330
2FA
100
AcDbEntity
  8
SK2
100
AcDbLine
 10
0.0
 20
23.225
 30
0.0
 11
0.0
 21
38.0104184437
 31
0.0
  0
LINE
  5
300
330
2FA
100
AcDbEntity
  8
SK2
100
AcDbLine
 10
19.05
 20
19.35
 30
0.0
 11
19.05
 21
38.0104184437
 31
0.0
  0
LINE
  5
301
330
2FA
100
AcDbEntity
  8
SK2
100
AcDbLine
 10
0.0
 20
37.0104184437
 30
0.0
 11
19.05
 21
37.0104184437
 31
0.0
  0
MTEXT
  5
302
330
2FA
100
AcDbEntity
  8
SK2
100
AcDbMText
 10
3.8773137293
 20
41.5221553582
 30
0.0
 40
3.5
 41
0.0
 71
     1
 72
     1
  1
19,05
  7
SLDTEXTSTYLE0
 73
     1
 44
1.0
  0
ENDBLK
  5
2FC
330
2FA
100
AcDbEntity
  8
0
100
AcDbBlockEnd
  0
BLOCK
  5
305
330
304
100
AcDbEntity
  8
0
100
AcDbBlockBegin
  2
_D_1
 70
     0
 10
0.0
 20
0.0
 30
0.0
  3
_D_1
  1

  0
SOLID
  5
307
330
304
100
AcDbEntity
  8
SK2
100
AcDbTrace
 10
19.05
 20
37.0104184437
 30
0.0
 11
22.352
 21
36.5024184437
 31
0.0
 12
22.352
 22
37.5184184437
 32
0.0
 13
22.352
 23
37.5184184437
 33
0.0
  0
SOLID
  5
308
330
304
100
AcDbEntity
  8
SK2
100
AcDbTrace
 10
35.0
 20
37.0104184437
 30
0.0
 11
31.698
 21
37.5184184437
 31
0.0
 12
31.698
 22
36.5024184437
 32
0.0
 13
31.698
 23
36.5024184437
 33
0.0
  0
LINE
  5
309
330
304
100
AcDbEntity
  8
SK2
100
AcDbLine
 10
19.05
 20
19.35
 30
0.0
 11
19.05
 21
38.0104184437
 31
0.0
  0
LINE
  5
30A
330
304
100
AcDbEntity
  8
SK2
100
AcDbLine
 10
35.0
 20
24.2
 30
0.0
 11
35.0
 21
38.0104184437
 31
0.0
  0
LINE
  5
30B
330
304
100
AcDbEntity
  8
SK2
100
AcDbLine
 10
19.05
 20
37.0104184437
 30
0.0
 11
35.0
 21
37.0104184437
 31
0.0
  0
MTEXT
  5
30C
330
304
100
AcDbEntity
  8
SK2
100
AcDbMText
 10
20.9142188017
 20
41.5221553582
 30
0.0
 40
3.5
 41
0.0
 71
     1
 72
     1
  1
15,95
  7
SLDTEXTSTYLE0
 73
     1
 44
1.0
  0
ENDBLK
  5
306
330
304
100
AcDbEntity
  8
0
100
AcDbBlockEnd
  0
BLOCK
  5
30F
330
30E
100
AcDbEntity
  8
0
100
AcDbBlockBegin
  2
_D_2
 70
     0
 10
0.0
 20
0.0
 30
0.0
  3
_D_2
  1

  0
SOLID
  5
311
330
30E
100
AcDbEntity
  8
SK2
100
AcDbTrace
 10
35.0
 20
37.0104184437
 30
0.0
 11
38.302
 21
36.5024184437
 31
0.0
 12
38.302
 22
37.5184184437
 32
0.0
 13
38.302
 23
37.5184184437
 33
0.0
  0
SOLID
  5
312
330
30E
100
AcDbEntity
  8
SK2
100
AcDbTrace
 10
56.0
 20
37.0104184437
 30
0.0
 11
52.698
 21
37.5184184437
 31
0.0
 12
52.698
 22
36.5024184437
 32
0.0
 13
52.698
 23
36.5024184437
 33
0.0
  0
LINE
  5
313
330
30E
100
AcDbEntity
  8
SK2
100
AcDbLine
 10
35.0
 20
24.2
 30
0.0
 11
35.0
 21
38.0104184437
 31
0.0
  0
LINE
  5
314
330
30E
100
AcDbEntity
  8
SK2
100
AcDbLine
 10
56.0
 20
13.9710190579
 30
0.0
 11
56.0
 21
38.0104184437
 31
0.0
  0
LINE
  5
315
330
30E
100
AcDbEntity
  8
SK2
100
AcDbLine
 10
35.0
 20
37.0104184437
 30
0.0
 11
56.0
 21
37.0104184437
 31
0.0
  0
MTEXT
  5
316
330
30E
100
AcDbEntity
  8
SK2
100
AcDbMText
 10
43.65800225
 20
41.5221553582
 30
0.0
 40
3.5
 41
0.0
 71
     1
 72
     1
  1
21
  7
SLDTEXTSTYLE0
 73
     1
 44
1.0
  0
ENDBLK
  5
310
330
30E
100
AcDbEntity
  8
0
100
AcDbBlockEnd
  0
BLOCK
  5
319
330
318
100
AcDbEntity
  8
0
100
AcDbBlockBegin
  2
_D_3
 70
     0
 10
0.0
 20
0.0
 30
0.0
  3
_D_3
  1

  0
SOLID
  5
31B
330
318
100
AcDbEntity
  8
2
100
AcDbTrace
 10
35.0
 20
45.9883725689
 30
0.0
 11
31.698
 21
46.4963725689
 31
0.0
 12
31.698
 22
45.4803725689
 32
0.0
 13
31.698
 23
45.4803725689
 33
0.0
  0
SOLID
  5
31C
330
318
100
AcDbEntity
  8
2
100
AcDbTrace
 10
0.0
 20
45.9883725689
 30
0.0
 11
3.302
 21
45.4803725689
 31
0.0
 12
3.302
 22
46.4963725689
 32
0.0
 13
3.302
 23
46.4963725689
 33
0.0
  0
LINE
  5
31D
330
318
100
AcDbEntity
  8
2
100
AcDbLine
 10
35.0
 20
24.2
 30
0.0
 11
35.0
 21
46.9883725689
 31
0.0
  0
LINE
  5
31E
330
318
100
AcDbEntity
  8
2
100
AcDbLine
 10
0.0
 20
23.225
 30
0.0
 11
0.0
 21
46.9883725689
 31
0.0
  0
LINE
  5
31F
330
318
100
AcDbEntity
  8
2
100
AcDbLine
 10
35.0
 20
45.9883725689
 30
0.0
 11
0.0
 21
45.9883725689
 31
0.0
  0
MTEXT
  5
320
330
318
100
AcDbEntity
  8
2
100
AcDbMText
 10
14.8154409657
 20
50.5001094835
 30
0.0
 40
3.5
 41
0.0
 71
     1
 72
     1
  1
35
  7
SLDTEXTSTYLE0
 73
     1
 44
1.0
  0
ENDBLK
  5
31A
330
318
100
AcDbEntity
  8
0
100
AcDbBlockEnd
  0
BLOCK
  5
323
330
322
100
AcDbEntity
  8
0
100
AcDbBlockBegin
  2
_D_4
 70
     0
 10
0.0
 20
0.0
 30
0.0
  3
_D_4
  1

  0
SOLID
  5
325
330
322
100
AcDbEntity
  8
SK2
100
AcDbTrace
 10
90.5210896444
 20
24.0
 30
0.0
 11
90.0130896444
 21
20.698
 31
0.0
 12
91.0290896444
 22
20.698
 32
0.0
 13
91.0290896444
 23
20.698
 33
0.0
  0
SOLID
  5
326
330
322
100
AcDbEntity
  8
SK2
100
AcDbTrace
 10
90.5210896444
 20
-24.0
 30
0.0
 11
91.0290896444
 21
-20.698
 31
0.0
 12
90.0130896444
 22
-20.698
 32
0.0
 13
90.0130896444
 23
-20.698
 33
0.0
  0
LINE
  5
327
330
322
100
AcDbEntity
  8
SK2
100
AcDbLine
 10
35.2
 20
24.0
 30
0.0
 11
91.5210896444
 21
24.0
 31
0.0
  0
LINE
  5
328
330
322
100
AcDbEntity
  8
SK2
100
AcDbLine
 10
35.2
 20
-24.0
 30
0.0
 11
91.5210896444
 21
-24.0
 31
0.0
  0
LINE
  5
329
330
322
100
AcDbEntity
  8
SK2
100
AcDbLine
 10
90.5210896444
 20
24.0
 30
0.0
 11
90.5210896444
 21
-24.0
 31
0.0
  0
MTEXT
  5
32A
330
322
100
AcDbEntity
  8
SK2
100
AcDbMText
 10
86.0093525552
 20
-5.2114925512
 30
0.0
 40
3.5
 41
0.0
 71
     1
 72
     1
  1
%%c
  7
SLDTEXTSTYLE0
 11
-7.044195017643634E-15
 21
1.0
 31
0.0
 73
     1
 44
1.0
  0
MTEXT
  5
32B
330
322
100
AcDbEntity
  8
SK2
100
AcDbMText
 10
85.9558803785
 20
0.0669448471
 30
0.0
 40
3.5
 41
0.0
 71
     1
 72
     1
  1
48
  7
SLDTEXTSTYLE0
 11
-7.044195017643634E-15
 21
1.0
 31
0.0
 73
     1
 44
1.0
  0
ENDBLK
  5
324
330
322
100
AcDbEntity
  8
0
100
AcDbBlockEnd
  0
BLOCK
  5
32E
330
32D
100
AcDbEntity
  8
0
100
AcDbBlockBegin
  2
_D_5
 70
     0
 10
0.0
 20
0.0
 30
0.0
  3
_D_5
  1

  0
SOLID
  5
330
330
32D
100
AcDbEntity
  8
SK2
100
AcDbTrace
 10
81.2142373041
 20
13.5
 30
0.0
 11
80.7062373041
 21
10.198
 31
0.0
 12
81.7222373041
 22
10.198
 32
0.0
 13
81.7222373041
 23
10.198
 33
0.0
  0
SOLID
  5
331
330
32D
100
AcDbEntity
  8
SK2
100
AcDbTrace
 10
81.2142373041
 20
-13.5
 30
0.0
 11
81.7222373041
 21
-10.198
 31
0.0
 12
80.7062373041
 22
-10.198
 32
0.0
 13
80.7062373041
 23
-10.198
 33
0.0
  0
LINE
  5
332
330
32D
100
AcDbEntity
  8
SK2
100
AcDbLine
 10
54.0
 20
13.5
 30
0.0
 11
82.2142373041
 21
13.5
 31
0.0
  0
LINE
  5
333
330
32D
100
AcDbEntity
  8
SK2
100
AcDbLine
 10
54.0
 20
-13.5
 30
0.0
 11
82.2142373041
 21
-13.5
 31
0.0
  0
LINE
  5
334
330
32D
100
AcDbEntity
  8
SK2
100
AcDbLine
 10
81.2142373041
 20
13.5
 30
0.0
 11
81.2142373041
 21
-13.5
 31
0.0
  0
MTEXT
  5
335
330
32D
100
AcDbEntity
  8
SK2
100
AcDbMText
 10
76.7025002149
 20
-5.2114925512
 30
0.0
 40
3.5
 41
0.0
 71
     1
 72
     1
  1
%%c
  7
SLDTEXTSTYLE0
 11
-7.044195017643634E-15
 21
1.0
 31
0.0
 73
     1
 44
1.0
  0
MTEXT
  5
336
330
32D
100
AcDbEntity
  8
SK2
100
AcDbMText
 10
76.6490280382
 20
0.0669448471
 30
0.0
 40
3.5
 41
0.0
 71
     1
 72
     1
  1
27
  7
SLDTEXTSTYLE0
 11
-7.044195017643634E-15
 21
1.0
 31
0.0
 73
     1
 44
1.0
  0
ENDBLK
  5
32F
330
32D
100
AcDbEntity
  8
0
100
AcDbBlockEnd
  0
BLOCK
  5
339
330
338
100
AcDbEntity
  8
0
100
AcDbBlockBegin
  2
_D_6
 70
     0
 10
0.0
 20
0.0
 30
0.0
  3
_D_6
  1

  0
SOLID
  5
33B
330
338
100
AcDbEntity
  8
SK2
100
AcDbTrace
 10
-96.7369885576
 20
30.5578859972
 30
0.0
 11
-97.2449885576
 21
27.2558859972
 31
0.0
 12
-96.2289885576
 22
27.2558859972
 32
0.0
 13
-96.2289885576
 23
27.2558859972
 33
0.0
  0
SOLID
  5
33C
330
338
100
AcDbEntity
  8
SK2
100
AcDbTrace
 10
-96.7369885576
 20
-30.5753585477
 30
0.0
 11
-96.2289885576
 21
-27.2733585477
 31
0.0
 12
-97.2449885576
 22
-27.2733585477
 32
0.0
 13
-97.2449885576
 23
-27.2733585477
 33
0.0
  0
LINE
  5
33D
330
338
100
AcDbEntity
  8
SK2
100
AcDbLine
 10
2.95
 20
30.5578859972
 30
0.0
 11
-97.7369885576
 21
30.5578859972
 31
0.0
  0
LINE
  5
33E
330
338
100
AcDbEntity
  8
SK2
100
AcDbLine
 10
2.95
 20
-30.5753585477
 30
0.0
 11
-97.7369885576
 21
-30.5753585477
 31
0.0
  0
LINE
  5
33F
330
338
100
AcDbEntity
  8
SK2
100
AcDbLine
 10
-96.7369885576
 20
30.5578859972
 30
0.0
 11
-96.7369885576
 21
-30.5753585477
 31
0.0
  0
MTEXT
  5
340
330
338
100
AcDbEntity
  8
SK2
100
AcDbMText
 10
-101.2487256468
 20
-8.2798143664
 30
0.0
 40
3.5
 41
0.0
 71
     1
 72
     1
  1
%%c
  7
SLDTEXTSTYLE0
 11
-7.044195017643634E-15
 21
1.0
 31
0.0
 73
     1
 44
1.0
  0
MTEXT
  5
341
330
338
100
AcDbEntity
  8
SK2
100
AcDbMText
 10
-101.3021978235
 20
-3.001376968
 30
0.0
 40
3.5
 41
0.0
 71
     1
 72
     1
  1
63,5
  7
SLDTEXTSTYLE0
 11
-7.044195017643634E-15
 21
1.0
 31
0.0
 73
     1
 44
1.0
  0
ENDBLK
  5
33A
330
338
100
AcDbEntity
  8
0
100
AcDbBlockEnd
  0
BLOCK
  5
344
330
343
100
AcDbEntity
  8
0
100
AcDbBlockBegin
  2
_D_7
 70
     0
 10
0.0
 20
0.0
 30
0.0
  3
_D_7
  1

  0
SOLID
  5
346
330
343
100
AcDbEntity
  8
SK2
100
AcDbTrace
 10
-85.7395132524
 20
22.225
 30
0.0
 11
-86.2475132524
 21
18.923
 31
0.0
 12
-85.2315132524
 22
18.923
 32
0.0
 13
-85.2315132524
 23
18.923
 33
0.0
  0
SOLID
  5
347
330
343
100
AcDbEntity
  8
SK2
100
AcDbTrace
 10
-85.7395132524
 20
-22.225
 30
0.0
 11
-85.2315132524
 21
-18.923
 31
0.0
 12
-86.2475132524
 22
-18.923
 32
0.0
 13
-86.2475132524
 23
-18.923
 33
0.0
  0
LINE
  5
348
330
343
100
AcDbEntity
  8
SK2
100
AcDbLine
 10
-1.0
 20
22.225
 30
0.0
 11
-86.7395132524
 21
22.225
 31
0.0
  0
LINE
  5
349
330
343
100
AcDbEntity
  8
SK2
100
AcDbLine
 10
-1.0
 20
-22.225
 30
0.0
 11
-86.7395132524
 21
-22.225
 31
0.0
  0
LINE
  5
34A
330
343
100
AcDbEntity
  8
SK2
100
AcDbLine
 10
-85.7395132524
 20
22.225
 30
0.0
 11
-85.7395132524
 21
-22.225
 31
0.0
  0
MTEXT
  5
34B
330
343
100
AcDbEntity
  8
SK2
100
AcDbMText
 10
-90.2512503416
 20
-9.5728696139
 30
0.0
 40
3.5
 41
0.0
 71
     1
 72
     1
  1
%%c
  7
SLDTEXTSTYLE0
 11
-7.044195017643634E-15
 21
1.0
 31
0.0
 73
     1
 44
1.0
  0
MTEXT
  5
34C
330
343
100
AcDbEntity
  8
SK2
100
AcDbMText
 10
-90.3047225183
 20
-4.2944322155
 30
0.0
 40
3.5
 41
0.0
 71
     1
 72
     1
  1
44,45
  7
SLDTEXTSTYLE0
 11
-7.044195017643634E-15
 21
1.0
 31
0.0
 73
     1
 44
1.0
  0
ENDBLK
  5
345
330
343
100
AcDbEntity
  8
0
100
AcDbBlockEnd
  0
BLOCK
  5
34F
330
34E
100
AcDbEntity
  8
0
100
AcDbBlockBegin
  2
_D_8
 70
     0
 10
0.0
 20
0.0
 30
0.0
  3
_D_8
  1

  0
SOLID
  5
351
330
34E
100
AcDbEntity
  8
SK2
100
AcDbTrace
 10
-75.320547127
 20
-8.00000038
 30
0.0
 11
-74.812547127
 21
-4.69800038
 31
0.0
 12
-75.828547127
 22
-4.69800038
 32
0.0
 13
-75.828547127
 23
-4.69800038
 33
0.0
  0
SOLID
  5
352
330
34E
100
AcDbEntity
  8
SK2
100
AcDbTrace
 10
-75.320547127
 20
8.00000038
 30
0.0
 11
-75.828547127
 21
4.69800038
 31
0.0
 12
-74.812547127
 22
4.69800038
 32
0.0
 13
-74.812547127
 23
4.69800038
 33
0.0
  0
LINE
  5
353
330
34E
100
AcDbEntity
  8
SK2
100
AcDbLine
 10
-60.2881200492
 20
-8.00000038
 30
0.0
 11
-76.320547127
 21
-8.00000038
 31
0.0
  0
LINE
  5
354
330
34E
100
AcDbEntity
  8
SK2
100
AcDbLine
 10
-60.2881200492
 20
8.00000038
 30
0.0
 11
-76.320547127
 21
8.00000038
 31
0.0
  0
LINE
  5
355
330
34E
100
AcDbEntity
  8
SK2
100
AcDbLine
 10
-75.320547127
 20
-8.00000038
 30
0.0
 11
-75.320547127
 21
8.00000038
 31
0.0
  0
MTEXT
  5
356
330
34E
100
AcDbEntity
  8
SK2
100
AcDbMText
 10
-79.8322840416
 20
-4.5859734415
 30
0.0
 40
3.5
 41
0.0
 71
     1
 72
     1
  1
M
  7
SLDTEXTSTYLE0
 11
6.123233995736766E-17
 21
1.0
 31
0.0
 73
     1
 44
1.0
  0
MTEXT
  5
357
330
34E
100
AcDbEntity
  8
SK2
100
AcDbMText
 10
-79.8322840416
 20
-0.2984735071
 30
0.0
 40
3.5
 41
0.0
 71
     1
 72
     1
  1
16
  7
SLDTEXTSTYLE0
 11
6.123233995736766E-17
 21
1.0
 31
0.0
 73
     1
 44
1.0
  0
ENDBLK
  5
350
330
34E
100
AcDbEntity
  8
0
100
AcDbBlockEnd
  0
BLOCK
  5
35A
330
359
100
AcDbEntity
  8
0
100
AcDbBlockBegin
  2
SW_NOTE_0
 70
     0
 10
0.0
 20
0.0
 30
0.0
  3
SW_NOTE_0
  1

  0
MTEXT
  5
35C
330
359
100
AcDbEntity
  8
SK6
 62
     0
100
AcDbMText
 10
0.0
 20
4.5117370892
 30
0.0
 40
3.5
 41
0.0
 71
     1
 72
     1
  1
TAPER ISO 40
  7
SLDTEXTSTYLE0
 73
     1
 44
1.0
  0
MTEXT
  5
35D
330
359
100
AcDbEntity
  8
SK6
 62
     0
100
AcDbMText
 10
0.0
 20
-0.0139574413
 30
0.0
 40
3.5
 41
0.0
 71
     1
 72
     1
  1
DIN 69871-AD/B
  7
SLDTEXTSTYLE0
 73
     1
 44
1.0
  0
ENDBLK
  5
35B
330
359
100
AcDbEntity
  8
0
100
AcDbBlockEnd
  0
ENDSEC
  0
SECTION
  2
ENTITIES
  0
LINE
  5
92
330
1F
100
AcDbEntity
  8
SK1
  6
SLD-Solid
370
    25
100
AcDbLine
 10
64.7296597587
 20
9.0
 30
0.0
 11
64.4296597587
 21
8.7
 31
0.0
  0
LINE
  5
93
330
1F
100
AcDbEntity
  8
SK1
  6
SLD-Solid
370
    25
100
AcDbLine
 10
64.4296597587
 20
-8.7
 30
0.0
 11
64.7296597587
 21
-9.0
 31
0.0
  0
LINE
  5
94
330
1F
100
AcDbEntity
  8
SK1
  6
SLD-Solid
370
    25
100
AcDbLine
 10
71.4296597587
 20
-9.0
 30
0.0
 11
71.9296597587
 21
-8.5
 31
0.0
  0
LINE
  5
95
330
1F
100
AcDbEntity
  8
SK1
  6
SLD-Solid
370
    25
100
AcDbLine
 10
71.9296597587
 20
8.5
 30
0.0
 11
71.4296597587
 21
9.0
 31
0.0
  0
LINE
  5
96
330
1F
100
AcDbEntity
  8
SK1
  6
SLD-Solid
370
    25
100
AcDbLine
 10
64.7296597587
 20
-9.0
 30
0.0
 11
71.4296597587
 21
-9.0
 31
0.0
  0
LINE
  5
97
330
1F
100
AcDbEntity
  8
SK1
  6
SLD-Solid
370
    25
100
AcDbLine
 10
71.4296597587
 20
9.0
 30
0.0
 11
64.7296597587
 21
9.0
 31
0.0
  0
LINE
  5
98
330
1F
100
AcDbEntity
  8
SK1
  6
SLD-Solid
370
    25
100
AcDbLine
 10
56.0
 20
-6.0
 30
0.0
 11
59.4296597587
 21
-6.0
 31
0.0
  0
LINE
  5
99
330
1F
100
AcDbEntity
  8
SK1
  6
SLD-Solid
370
    25
100
AcDbLine
 10
59.4296597587
 20
6.0
 30
0.0
 11
56.0
 21
6.0
 31
0.0
  0
LINE
  5
9A
330
1F
100
AcDbEntity
  8
SK1
  6
SLD-Solid
370
    25
100
AcDbLine
 10
59.7296597587
 20
17.0
 30
0.0
 11
59.4296597587
 21
16.7
 31
0.0
  0
LINE
  5
9B
330
1F
100
AcDbEntity
  8
SK1
  6
SLD-Solid
370
    25
100
AcDbLine
 10
59.4296597587
 20
-16.7
 30
0.0
 11
59.7296597587
 21
-17.0
 31
0.0
  0
LINE
  5
9C
330
1F
100
AcDbEntity
  8
SK1
  6
SLD-Solid
370
    25
100
AcDbLine
 10
63.4296597587
 20
-17.0
 30
0.0
 11
64.4296597587
 21
-16.0
 31
0.0
  0
LINE
  5
9D
330
1F
100
AcDbEntity
  8
SK1
  6
SLD-Solid
370
    25
100
AcDbLine
 10
64.4296597587
 20
16.0
 30
0.0
 11
63.4296597587
 21
17.0
 31
0.0
  0
LINE
  5
9E
330
1F
100
AcDbEntity
  8
SK1
  6
SLD-Solid
370
    25
100
AcDbLine
 10
59.7296597587
 20
-17.0
 30
0.0
 11
63.4296597587
 21
-17.0
 31
0.0
  0
LINE
  5
9F
330
1F
100
AcDbEntity
  8
SK1
  6
SLD-Solid
370
    25
100
AcDbLine
 10
63.4296597587
 20
17.0
 30
0.0
 11
59.7296597587
 21
17.0
 31
0.0
  0
LINE
  5
A0
330
1F
100
AcDbEntity
  8
1
  6
SLD-Solid
370
    25
100
AcDbLine
 10
34.2
 20
24.0
 30
0.0
 11
21.05
 21
24.0
 31
0.0
  0
LINE
  5
A1
330
1F
100
AcDbEntity
  8
1
  6
SLD-Solid
370
    25
100
AcDbLine
 10
28.1780502267
 20
-24.0
 30
0.0
 11
34.2
 21
-24.0
 31
0.0
  0
LINE
  5
A2
330
1F
100
AcDbEntity
  8
1
  6
SLD-Solid
370
    25
100
AcDbLine
 10
1.8869952227
 20
22.225
 30
0.0
 11
0.0
 21
22.225
 31
0.0
  0
LINE
  5
A3
330
1F
100
AcDbEntity
  8
1
  6
SLD-Solid
370
    25
100
AcDbLine
 10
0.0
 20
-22.225
 30
0.0
 11
1.8869952227
 21
-22.225
 31
0.0
  0
LINE
  5
A4
330
1F
100
AcDbEntity
  8
1
  6
SLD-Solid
370
    25
100
AcDbLine
 10
1.8869952227
 20
-22.225
 30
0.0
 11
2.1330363037
 21
-22.1102691597
 31
0.0
  0
LINE
  5
A5
330
1F
100
AcDbEntity
  8
1
  6
SLD-Solid
370
    25
100
AcDbLine
 10
2.1330363037
 20
22.1102691597
 30
0.0
 11
1.8869952227
 21
22.225
 31
0.0
  0
LINE
  5
A6
330
1F
100
AcDbEntity
  8
SK1
  6
SLD-Solid
370
    25
100
AcDbLine
 10
0.0
 20
22.225
 30
0.0
 11
-67.3943082273
 21
12.3965705827
 31
0.0
  0
LINE
  5
A7
330
1F
100
AcDbEntity
  8
SK1
  6
SLD-Solid
370
    25
100
AcDbLine
 10
-67.3943082273
 20
-12.3965705827
 30
0.0
 11
0.0
 21
-22.225
 31
0.0
  0
LINE
  5
A8
330
1F
100
AcDbEntity
  8
SK1
  6
SLD-Solid
370
    25
100
AcDbLine
 10
53.0
 20
13.5
 30
0.0
 11
36.3439594644
 21
13.5
 31
0.0
  0
LINE
  5
A9
330
1F
100
AcDbEntity
  8
SK1
  6
SLD-Solid
370
    25
100
AcDbLine
 10
36.3439594644
 20
-13.5
 30
0.0
 11
53.0
 21
-13.5
 31
0.0
  0
LINE
  5
AA
330
1F
100
AcDbEntity
  8
SK1
  6
SLD-Solid
370
    25
100
AcDbLine
 10
53.0
 20
-13.5
 30
0.0
 11
56.0
 21
-12.9710190579
 31
0.0
  0
LINE
  5
AB
330
1F
100
AcDbEntity
  8
SK1
  6
SLD-Solid
370
    25
100
AcDbLine
 10
56.0
 20
12.9710190579
 30
0.0
 11
53.0
 21
13.5
 31
0.0
  0
LINE
  5
AC
330
1F
100
AcDbEntity
  8
SK1
  6
SLD-Solid
370
    25
100
AcDbLine
 10
36.3439594644
 20
13.5
 30
0.0
 11
35.6605646396
 21
13.2845264394
 31
0.0
  0
LINE
  5
AD
330
1F
100
AcDbEntity
  8
SK1
  6
SLD-Solid
370
    25
100
AcDbLine
 10
35.6605646396
 20
-13.2845264394
 30
0.0
 11
36.3439594644
 21
-13.5
 31
0.0
  0
LINE
  5
AE
330
1F
100
AcDbEntity
  8
SK1
  6
SLD-Solid
370
    25
100
AcDbLine
 10
64.7296597587
 20
9.0
 30
0.0
 11
64.7296597587
 21
-9.0
 31
0.0
  0
LINE
  5
AF
330
1F
100
AcDbEntity
  8
SK1
  6
SLD-Solid
370
    25
100
AcDbLine
 10
71.4296597587
 20
6.1399302353
 30
0.0
 11
71.4296597587
 21
9.0
 31
0.0
  0
LINE
  5
B0
330
1F
100
AcDbEntity
  8
SK1
  6
SLD-Solid
370
    25
100
AcDbLine
 10
71.4296597587
 20
-9.0
 30
0.0
 11
71.4296597587
 21
6.1399302353
 31
0.0
  0
LINE
  5
B1
330
1F
100
AcDbEntity
  8
SK1
  6
SLD-Solid
370
    25
100
AcDbLine
 10
71.9296597587
 20
5.798823
 30
0.0
 11
71.9296597587
 21
-8.5
 31
0.0
  0
LINE
  5
B2
330
1F
100
AcDbEntity
  8
SK1
  6
SLD-Solid
370
    25
100
AcDbLine
 10
71.9296597587
 20
8.5
 30
0.0
 11
71.9296597587
 21
5.798823
 31
0.0
  0
LINE
  5
B3
330
1F
100
AcDbEntity
  8
SK1
  6
SLD-Solid
370
    25
100
AcDbLine
 10
59.4296597587
 20
-16.7
 30
0.0
 11
59.4296597587
 21
16.7
 31
0.0
  0
LINE
  5
B4
330
1F
100
AcDbEntity
  8
SK1
  6
SLD-Solid
370
    25
100
AcDbLine
 10
59.7296597587
 20
17.0
 30
0.0
 11
59.7296597587
 21
-17.0
 31
0.0
  0
LINE
  5
B5
330
1F
100
AcDbEntity
  8
SK1
  6
SLD-Solid
370
    25
100
AcDbLine
 10
64.4296597587
 20
-14.8279555508
 30
0.0
 11
64.4296597587
 21
16.0
 31
0.0
  0
LINE
  5
B6
330
1F
100
AcDbEntity
  8
SK1
  6
SLD-Solid
370
    25
100
AcDbLine
 10
64.4296597587
 20
-16.0
 30
0.0
 11
64.4296597587
 21
-14.8279555508
 31
0.0
  0
LINE
  5
B7
330
1F
100
AcDbEntity
  8
SK1
  6
SLD-Solid
370
    25
100
AcDbLine
 10
63.4296597587
 20
-15.7547027727
 30
0.0
 11
63.4296597587
 21
17.0
 31
0.0
  0
LINE
  5
B8
330
1F
100
AcDbEntity
  8
SK1
  6
SLD-Solid
370
    25
100
AcDbLine
 10
63.4296597587
 20
-17.0
 30
0.0
 11
63.4296597587
 21
-15.7547027727
 31
0.0
  0
LINE
  5
B9
330
1F
100
AcDbEntity
  8
SK1
  6
SLD-Solid
370
    25
100
AcDbLine
 10
39.9287931107
 20
-21.3901716771
 30
0.0
 11
39.9287931107
 21
-22.3
 31
0.0
  0
LINE
  5
BA
330
1F
100
AcDbEntity
  8
SK1
  6
SLD-Solid
370
    25
100
AcDbLine
 10
39.9287931107
 20
-22.3
 30
0.0
 11
35.0
 21
-22.3
 31
0.0
  0
LINE
  5
BB
330
1F
100
AcDbEntity
  8
SK1
  6
SLD-Solid
370
    25
100
AcDbLine
 10
35.0
 20
-21.3901716771
 30
0.0
 11
39.9287931107
 21
-21.3901716771
 31
0.0
  0
LINE
  5
BC
330
1F
100
AcDbEntity
  8
SK1
  6
SLD-Solid
370
    25
100
AcDbLine
 10
39.9287931107
 20
-13.7
 30
0.0
 11
39.9287931107
 21
-14.6098283229
 31
0.0
  0
LINE
  5
BD
330
1F
100
AcDbEntity
  8
SK1
  6
SLD-Solid
370
    25
100
AcDbLine
 10
41.3
 20
-13.7
 30
0.0
 11
41.3
 21
-22.3
 31
0.0
  0
LINE
  5
BE
330
1F
100
AcDbEntity
  8
SK1
  6
SLD-Solid
370
    25
100
AcDbLine
 10
35.0
 20
-13.7
 30
0.0
 11
39.9287931107
 21
-13.7
 31
0.0
  0
LINE
  5
BF
330
1F
100
AcDbEntity
  8
SK1
  6
SLD-Solid
370
    25
100
AcDbLine
 10
39.9287931107
 20
-14.6098283229
 30
0.0
 11
35.0
 21
-14.6098283229
 31
0.0
  0
LINE
  5
C0
330
1F
100
AcDbEntity
  8
SK1
  6
SLD-Solid
370
    25
100
AcDbLine
 10
35.0
 20
22.3
 30
0.0
 11
39.9287931107
 21
22.3
 31
0.0
  0
LINE
  5
C1
330
1F
100
AcDbEntity
  8
SK1
  6
SLD-Solid
370
    25
100
AcDbLine
 10
39.9287931107
 20
22.3
 30
0.0
 11
39.9287931107
 21
21.3901716771
 31
0.0
  0
LINE
  5
C2
330
1F
100
AcDbEntity
  8
SK1
  6
SLD-Solid
370
    25
100
AcDbLine
 10
39.9287931107
 20
21.3901716771
 30
0.0
 11
35.0
 21
21.3901716771
 31
0.0
  0
LINE
  5
C3
330
1F
100
AcDbEntity
  8
SK1
  6
SLD-Solid
370
    25
100
AcDbLine
 10
39.9287931107
 20
14.6098283229
 30
0.0
 11
39.9287931107
 21
13.7
 31
0.0
  0
LINE
  5
C4
330
1F
100
AcDbEntity
  8
SK1
  6
SLD-Solid
370
    25
100
AcDbLine
 10
39.9287931107
 20
13.7
 30
0.0
 11
35.0
 21
13.7
 31
0.0
  0
LINE
  5
C5
330
1F
100
AcDbEntity
  8
SK1
  6
SLD-Solid
370
    25
100
AcDbLine
 10
35.0
 20
14.6098283229
 30
0.0
 11
39.9287931107
 21
14.6098283229
 31
0.0
  0
LINE
  5
C6
330
1F
100
AcDbEntity
  8
SK1
  6
SLD-Solid
370
    25
100
AcDbLine
 10
41.3
 20
22.3
 30
0.0
 11
41.3
 21
13.7
 31
0.0
  0
LINE
  5
C7
330
1F
100
AcDbEntity
  8
1
  6
SLD-Solid
370
    25
100
AcDbLine
 10
19.05
 20
18.35
 30
0.0
 11
19.05
 21
-29.8288211426
 31
0.0
  0
LINE
  5
C8
330
1F
100
AcDbEntity
  8
1
  6
SLD-Solid
370
    25
100
AcDbLine
 10
3.95
 20
18.35
 30
0.0
 11
7.5931633579
 21
18.35
 31
0.0
  0
LINE
  5
C9
330
1F
100
AcDbEntity
  8
1
  6
SLD-Solid
370
    25
100
AcDbLine
 10
7.5931633579
 20
18.35
 30
0.0
 11
7.5931633579
 21
-30.5753585477
 31
0.0
  0
LINE
  5
CA
330
1F
100
AcDbEntity
  8
1
  6
SLD-Solid
370
    25
100
AcDbLine
 10
3.95
 20
-30.5753585477
 30
0.0
 11
7.5931633579
 21
-30.5753585477
 31
0.0
  0
LINE
  5
CB
330
1F
100
AcDbEntity
  8
1
  6
SLD-Solid
370
    25
100
AcDbLine
 10
3.2
 20
18.35
 30
0.0
 11
3.2
 21
-29.8288189921
 31
0.0
  0
LINE
  5
CC
330
1F
100
AcDbEntity
  8
1
  6
SLD-Solid
370
    25
100
AcDbLine
 10
14.6368366421
 20
18.35
 30
0.0
 11
18.3
 21
18.35
 31
0.0
  0
LINE
  5
CD
330
1F
100
AcDbEntity
  8
1
  6
SLD-Solid
370
    25
100
AcDbLine
 10
14.6368366421
 20
-30.5753609371
 30
0.0
 11
18.3
 21
-30.5753609371
 31
0.0
  0
LINE
  5
CE
330
1F
100
AcDbEntity
  8
1
  6
SLD-Solid
370
    25
100
AcDbLine
 10
14.6368366421
 20
18.35
 30
0.0
 11
14.6368366421
 21
-30.5753609371
 31
0.0
  0
LINE
  5
CF
330
1F
100
AcDbEntity
  8
1
  6
SLD-Solid
370
    25
100
AcDbLine
 10
9.2
 20
18.35
 30
0.0
 11
9.2
 21
-27.8127840266
 31
0.0
  0
LINE
  5
D0
330
1F
100
AcDbEntity
  8
1
  6
SLD-Solid
370
    25
100
AcDbLine
 10
13.03
 20
18.35
 30
0.0
 11
13.03
 21
-27.8127840266
 31
0.0
  0
LINE
  5
D1
330
1F
100
AcDbEntity
  8
1
  6
SLD-Solid
370
    25
100
AcDbLine
 10
9.95
 20
18.35
 30
0.0
 11
12.28
 21
18.35
 31
0.0
  0
LINE
  5
D2
330
1F
100
AcDbEntity
  8
1
  6
SLD-Solid
370
    25
100
AcDbLine
 10
9.95
 20
-26.8043088887
 30
0.0
 11
12.28
 21
-26.8043088887
 31
0.0
  0
LINE
  5
D3
330
1F
100
AcDbEntity
  8
1
  6
SLD-Solid
370
    25
100
AcDbLine
 10
35.0
 20
0.0
 30
0.0
 11
35.0
 21
-23.2
 31
0.0
  0
LINE
  5
D4
330
1F
100
AcDbEntity
  8
1
  6
SLD-Solid
370
    25
100
AcDbLine
 10
35.0
 20
23.2
 30
0.0
 11
35.0
 21
0.0
 31
0.0
  0
LINE
  5
D5
330
1F
100
AcDbEntity
  8
1
  6
SLD-Solid
370
    25
100
AcDbLine
 10
0.0
 20
22.225
 30
0.0
 11
0.0
 21
-22.225
 31
0.0
  0
LINE
  5
D6
330
1F
100
AcDbEntity
  8
1
  6
SLD-Solid
370
    25
100
AcDbLine
 10
1.8869952227
 20
22.225
 30
0.0
 11
1.8869952227
 21
-22.225
 31
0.0
  0
LINE
  5
D7
330
1F
100
AcDbEntity
  8
1
  6
SLD-Solid
370
    25
100
AcDbLine
 10
19.05
 20
18.85
 30
0.0
 11
19.05
 21
18.35
 31
0.0
  0
LINE
  5
D8
330
1F
100
AcDbEntity
  8
1
  6
SLD-Solid
370
    25
100
AcDbLine
 10
3.2
 20
18.35
 30
0.0
 11
3.2
 21
18.85
 31
0.0
  0
LINE
  5
D9
330
1F
100
AcDbEntity
  8
1
  6
SLD-Solid
370
    25
100
AcDbLine
 10
3.2
 20
29.8048528797
 30
0.0
 11
3.2
 21
24.9855458215
 31
0.0
  0
LINE
  5
DA
330
1F
100
AcDbEntity
  8
1
  6
SLD-Solid
370
    25
100
AcDbLine
 10
19.05
 20
29.804866641
 30
0.0
 11
19.05
 21
24.9855458215
 31
0.0
  0
LINE
  5
DB
330
1F
100
AcDbEntity
  8
1
  6
SLD-Solid
370
    25
100
AcDbLine
 10
18.3
 20
25.91022964
 30
0.0
 11
14.6368366421
 21
25.91022964
 31
0.0
  0
LINE
  5
DC
330
1F
100
AcDbEntity
  8
1
  6
SLD-Solid
370
    25
100
AcDbLine
 10
14.6368366421
 20
30.5579089831
 30
0.0
 11
14.6368366421
 21
25.91022964
 31
0.0
  0
LINE
  5
DD
330
1F
100
AcDbEntity
  8
1
  6
SLD-Solid
370
    25
100
AcDbLine
 10
18.3
 20
30.5579089831
 30
0.0
 11
14.6368366421
 21
30.5579089831
 31
0.0
  0
LINE
  5
DE
330
1F
100
AcDbEntity
  8
1
  6
SLD-Solid
370
    25
100
AcDbLine
 10
7.5931633579
 20
25.91022964
 30
0.0
 11
3.95
 21
25.91022964
 31
0.0
  0
LINE
  5
DF
330
1F
100
AcDbEntity
  8
1
  6
SLD-Solid
370
    25
100
AcDbLine
 10
7.5931633579
 20
30.5578859972
 30
0.0
 11
3.95
 21
30.5578859972
 31
0.0
  0
LINE
  5
E0
330
1F
100
AcDbEntity
  8
1
  6
SLD-Solid
370
    25
100
AcDbLine
 10
7.5931633579
 20
30.5578859972
 30
0.0
 11
7.5931633579
 21
25.91022964
 31
0.0
  0
LINE
  5
E1
330
1F
100
AcDbEntity
  8
1
  6
SLD-Solid
370
    25
100
AcDbLine
 10
13.03
 20
27.8127840266
 30
0.0
 11
13.03
 21
22.4133326462
 31
0.0
  0
LINE
  5
E2
330
1F
100
AcDbEntity
  8
1
  6
SLD-Solid
370
    25
100
AcDbLine
 10
9.2
 20
27.8127840266
 30
0.0
 11
9.2
 21
22.4133326462
 31
0.0
  0
LINE
  5
E3
330
1F
100
AcDbEntity
  8
1
  6
SLD-Solid
370
    25
100
AcDbLine
 10
12.28
 20
21.1489361435
 30
0.0
 11
9.95
 21
21.1489361435
 31
0.0
  0
LINE
  5
E4
330
1F
100
AcDbEntity
  8
1
  6
SLD-Solid
370
    25
100
AcDbLine
 10
9.95
 20
26.8043088887
 30
0.0
 11
12.28
 21
26.8043088887
 31
0.0
  0
LINE
  5
E5
330
1F
100
AcDbEntity
  8
1
  6
SLD-Solid
370
    25
100
AcDbLine
 10
9.2
 20
22.1323292945
 30
0.0
 11
9.2
 21
22.4133326462
 31
0.0
  0
LINE
  5
E6
330
1F
100
AcDbEntity
  8
1
  6
SLD-Solid
370
    25
100
AcDbLine
 10
13.03
 20
22.4133326462
 30
0.0
 11
13.03
 21
22.1323292945
 31
0.0
  0
LINE
  5
E7
330
1F
100
AcDbEntity
  8
1
  6
SLD-Solid
370
    25
100
AcDbLine
 10
19.05
 20
18.85
 30
0.0
 11
19.05
 21
24.9855458215
 31
0.0
  0
LINE
  5
E8
330
1F
100
AcDbEntity
  8
1
  6
SLD-Solid
370
    25
100
AcDbLine
 10
3.2
 20
18.85
 30
0.0
 11
3.2
 21
24.9855458215
 31
0.0
  0
LINE
  5
E9
330
1F
100
AcDbEntity
  8
SK1
  6
SLD-Solid
370
    25
100
AcDbLine
 10
36.3439594644
 20
13.5
 30
0.0
 11
36.3439594644
 21
-13.5
 31
0.0
  0
LINE
  5
EA
330
1F
100
AcDbEntity
  8
SK1
  6
SLD-Solid
370
    25
100
AcDbLine
 10
53.0
 20
13.5
 30
0.0
 11
53.0
 21
-13.5
 31
0.0
  0
LINE
  5
EB
330
1F
100
AcDbEntity
  8
SK1
  6
SLD-Solid
370
    25
100
AcDbLine
 10
56.0
 20
12.9710190579
 30
0.0
 11
56.0
 21
-12.9710190579
 31
0.0
  0
LINE
  5
EC
330
1F
100
AcDbEntity
  8
SK1
  6
SLD-Solid
370
    25
100
AcDbLine
 10
-68.25
 20
11.4070377962
 30
0.0
 11
-68.25
 21
-11.4070377962
 31
0.0
  0
LINE
  5
ED
330
1F
100
AcDbEntity
  8
SK3
  6
SLD-Dashed
370
    18
100
AcDbLine
 10
5.7322709434
 20
-8.8686354442
 30
0.0
 11
5.6150941671
 21
-8.4012226946
 31
0.0
  0
LINE
  5
EE
330
1F
100
AcDbEntity
  8
SK3
  6
SLD-Dashed
370
    18
100
AcDbLine
 10
5.6150941671
 20
-8.4012226946
 30
0.0
 11
5.4343412237
 21
-7.960974275
 31
0.0
  0
LINE
  5
EF
330
1F
100
AcDbEntity
  8
SK3
  6
SLD-Dashed
370
    18
100
AcDbLine
 10
5.4343412237
 20
-7.960974275
 30
0.0
 11
5.2005168173
 21
-7.5734758234
 31
0.0
  0
LINE
  5
F0
330
1F
100
AcDbEntity
  8
SK3
  6
SLD-Dashed
370
    18
100
AcDbLine
 10
5.2005168173
 20
-7.5734758234
 30
0.0
 11
4.9272099725
 21
-7.2612473412
 31
0.0
  0
LINE
  5
F1
330
1F
100
AcDbEntity
  8
SK3
  6
SLD-Dashed
370
    18
100
AcDbLine
 10
4.9272099725
 20
-7.2612473412
 30
0.0
 11
4.6303042896
 21
-7.0424344129
 31
0.0
  0
LINE
  5
F2
330
1F
100
AcDbEntity
  8
SK3
  6
SLD-Dashed
370
    18
100
AcDbLine
 10
4.6303042896
 20
-7.0424344129
 30
0.0
 11
4.3270548477
 21
-6.9297536506
 31
0.0
  0
LINE
  5
F3
330
1F
100
AcDbEntity
  8
SK3
  6
SLD-Dashed
370
    18
100
AcDbLine
 10
4.3270548477
 20
-6.9297536506
 30
0.0
 11
4.0350854021
 21
-6.9297536506
 31
0.0
  0
LINE
  5
F4
330
1F
100
AcDbEntity
  8
SK3
  6
SLD-Dashed
370
    18
100
AcDbLine
 10
4.0350854021
 20
-6.9297536506
 30
0.0
 11
3.7713641558
 21
-7.0424344129
 31
0.0
  0
LINE
  5
F5
330
1F
100
AcDbEntity
  8
SK3
  6
SLD-Dashed
370
    18
100
AcDbLine
 10
3.7713641558
 20
-7.0424344129
 30
0.0
 11
3.551217629
 21
-7.2612473412
 31
0.0
  0
LINE
  5
F6
330
1F
100
AcDbEntity
  8
SK3
  6
SLD-Dashed
370
    18
100
AcDbLine
 10
3.551217629
 20
-7.2612473412
 30
0.0
 11
3.3874399376
 21
-7.5734758234
 31
0.0
  0
LINE
  5
F7
330
1F
100
AcDbEntity
  8
SK3
  6
SLD-Dashed
370
    18
100
AcDbLine
 10
3.3874399376
 20
-7.5734758234
 30
0.0
 11
3.2895492458
 21
-7.960974275
 31
0.0
  0
LINE
  5
F8
330
1F
100
AcDbEntity
  8
SK3
  6
SLD-Dashed
370
    18
100
AcDbLine
 10
3.2895492458
 20
-7.960974275
 30
0.0
 11
3.2632346046
 21
-8.4012226946
 31
0.0
  0
LINE
  5
F9
330
1F
100
AcDbEntity
  8
SK3
  6
SLD-Dashed
370
    18
100
AcDbLine
 10
3.2632346046
 20
-8.4012226946
 30
0.0
 11
3.3100253255
 21
-8.8686354442
 31
0.0
  0
LINE
  5
FA
330
1F
100
AcDbEntity
  8
SK3
  6
SLD-Dashed
370
    18
100
AcDbLine
 10
3.3100253255
 20
-8.8686354442
 30
0.0
 11
3.4272021018
 21
-9.3360481938
 31
0.0
  0
LINE
  5
FB
330
1F
100
AcDbEntity
  8
SK3
  6
SLD-Dashed
370
    18
100
AcDbLine
 10
3.4272021018
 20
-9.3360481938
 30
0.0
 11
3.6079550452
 21
-9.7762966134
 31
0.0
  0
LINE
  5
FC
330
1F
100
AcDbEntity
  8
SK3
  6
SLD-Dashed
370
    18
100
AcDbLine
 10
3.6079550452
 20
-9.7762966134
 30
0.0
 11
3.8417794516
 21
-10.1637950651
 31
0.0
  0
LINE
  5
FD
330
1F
100
AcDbEntity
  8
SK3
  6
SLD-Dashed
370
    18
100
AcDbLine
 10
3.8417794516
 20
-10.1637950651
 30
0.0
 11
4.1150862965
 21
-10.4760235473
 31
0.0
  0
LINE
  5
FE
330
1F
100
AcDbEntity
  8
SK3
  6
SLD-Dashed
370
    18
100
AcDbLine
 10
4.1150862965
 20
-10.4760235473
 30
0.0
 11
4.4119919794
 21
-10.6948364755
 31
0.0
  0
LINE
  5
FF
330
1F
100
AcDbEntity
  8
SK3
  6
SLD-Dashed
370
    18
100
AcDbLine
 10
4.4119919794
 20
-10.6948364755
 30
0.0
 11
4.7152414213
 21
-10.8075172378
 31
0.0
  0
LINE
  5
100
330
1F
100
AcDbEntity
  8
SK3
  6
SLD-Dashed
370
    18
100
AcDbLine
 10
4.7152414213
 20
-10.8075172378
 30
0.0
 11
5.0072108668
 21
-10.8075172378
 31
0.0
  0
LINE
  5
101
330
1F
100
AcDbEntity
  8
SK3
  6
SLD-Dashed
370
    18
100
AcDbLine
 10
5.0072108668
 20
-10.8075172378
 30
0.0
 11
5.2709321131
 21
-10.6948364755
 31
0.0
  0
LINE
  5
102
330
1F
100
AcDbEntity
  8
SK3
  6
SLD-Dashed
370
    18
100
AcDbLine
 10
5.2709321131
 20
-10.6948364755
 30
0.0
 11
5.4910786399
 21
-10.4760235473
 31
0.0
  0
LINE
  5
103
330
1F
100
AcDbEntity
  8
SK3
  6
SLD-Dashed
370
    18
100
AcDbLine
 10
5.4910786399
 20
-10.4760235473
 30
0.0
 11
5.6548563313
 21
-10.1637950651
 31
0.0
  0
LINE
  5
104
330
1F
100
AcDbEntity
  8
SK3
  6
SLD-Dashed
370
    18
100
AcDbLine
 10
5.6548563313
 20
-10.1637950651
 30
0.0
 11
5.7527470232
 21
-9.7762966134
 31
0.0
  0
LINE
  5
105
330
1F
100
AcDbEntity
  8
SK3
  6
SLD-Dashed
370
    18
100
AcDbLine
 10
5.7527470232
 20
-9.7762966134
 30
0.0
 11
5.7790616643
 21
-9.3360481938
 31
0.0
  0
LINE
  5
106
330
1F
100
AcDbEntity
  8
SK3
  6
SLD-Dashed
370
    18
100
AcDbLine
 10
5.7790616643
 20
-9.3360481938
 30
0.0
 11
5.7322709434
 21
-8.8686354442
 31
0.0
  0
LINE
  5
107
330
1F
100
AcDbEntity
  8
SK3
  6
SLD-Dashed
370
    18
100
AcDbLine
 10
3.2
 20
-7.1668508159
 30
0.0
 11
3.2
 21
-11.3022369236
 31
0.0
  0
LINE
  5
108
330
1F
100
AcDbEntity
  8
SK3
  6
SLD-Dashed
370
    18
100
AcDbLine
 10
5.7019928732
 20
-8.8686354442
 30
0.0
 11
5.5877455163
 21
-8.4129080133
 31
0.0
  0
LINE
  5
109
330
1F
100
AcDbEntity
  8
SK3
  6
SLD-Dashed
370
    18
100
AcDbLine
 10
5.5877455163
 20
-8.4129080133
 30
0.0
 11
5.4115113965
 21
-7.9836658042
 31
0.0
  0
LINE
  5
10A
330
1F
100
AcDbEntity
  8
SK3
  6
SLD-Dashed
370
    18
100
AcDbLine
 10
5.4115113965
 20
-7.9836658042
 30
0.0
 11
5.1835326003
 21
-7.6058548139
 31
0.0
  0
LINE
  5
10B
330
1F
100
AcDbEntity
  8
SK3
  6
SLD-Dashed
370
    18
100
AcDbLine
 10
5.1835326003
 20
-7.6058548139
 30
0.0
 11
4.9170584265
 21
-7.3014320437
 31
0.0
  0
LINE
  5
10C
330
1F
100
AcDbEntity
  8
SK3
  6
SLD-Dashed
370
    18
100
AcDbLine
 10
4.9170584265
 20
-7.3014320437
 30
0.0
 11
4.6275753857
 21
-7.0880894387
 31
0.0
  0
LINE
  5
10D
330
1F
100
AcDbEntity
  8
SK3
  6
SLD-Dashed
370
    18
100
AcDbLine
 10
4.6275753857
 20
-7.0880894387
 30
0.0
 11
4.3319071799
 21
-6.9782256954
 31
0.0
  0
LINE
  5
10E
330
1F
100
AcDbEntity
  8
SK3
  6
SLD-Dashed
370
    18
100
AcDbLine
 10
4.3319071799
 20
-6.9782256954
 30
0.0
 11
4.0472369705
 21
-6.9782256954
 31
0.0
  0
LINE
  5
10F
330
1F
100
AcDbEntity
  8
SK3
  6
SLD-Dashed
370
    18
100
AcDbLine
 10
4.0472369705
 20
-6.9782256954
 30
0.0
 11
3.7901087553
 21
-7.0880894387
 31
0.0
  0
LINE
  5
110
330
1F
100
AcDbEntity
  8
SK3
  6
SLD-Dashed
370
    18
100
AcDbLine
 10
3.7901087553
 20
-7.0880894387
 30
0.0
 11
3.5754658917
 21
-7.3014320437
 31
0.0
  0
LINE
  5
111
330
1F
100
AcDbEntity
  8
SK3
  6
SLD-Dashed
370
    18
100
AcDbLine
 10
3.5754658917
 20
-7.3014320437
 30
0.0
 11
3.4157826425
 21
-7.6058548139
 31
0.0
  0
LINE
  5
112
330
1F
100
AcDbEntity
  8
SK3
  6
SLD-Dashed
370
    18
100
AcDbLine
 10
3.4157826425
 20
-7.6058548139
 30
0.0
 11
3.320339218
 21
-7.9836658042
 31
0.0
  0
LINE
  5
113
330
1F
100
AcDbEntity
  8
SK3
  6
SLD-Dashed
370
    18
100
AcDbLine
 10
3.320339218
 20
-7.9836658042
 30
0.0
 11
3.2946824429
 21
-8.4129080133
 31
0.0
  0
LINE
  5
114
330
1F
100
AcDbEntity
  8
SK3
  6
SLD-Dashed
370
    18
100
AcDbLine
 10
3.2946824429
 20
-8.4129080133
 30
0.0
 11
3.3403033958
 21
-8.8686354442
 31
0.0
  0
LINE
  5
115
330
1F
100
AcDbEntity
  8
SK3
  6
SLD-Dashed
370
    18
100
AcDbLine
 10
3.3403033958
 20
-8.8686354442
 30
0.0
 11
3.4545507526
 21
-9.3243628751
 31
0.0
  0
LINE
  5
116
330
1F
100
AcDbEntity
  8
SK3
  6
SLD-Dashed
370
    18
100
AcDbLine
 10
3.4545507526
 20
-9.3243628751
 30
0.0
 11
3.6307848724
 21
-9.7536050842
 31
0.0
  0
LINE
  5
117
330
1F
100
AcDbEntity
  8
SK3
  6
SLD-Dashed
370
    18
100
AcDbLine
 10
3.6307848724
 20
-9.7536050842
 30
0.0
 11
3.8587636687
 21
-10.1314160745
 31
0.0
  0
LINE
  5
118
330
1F
100
AcDbEntity
  8
SK3
  6
SLD-Dashed
370
    18
100
AcDbLine
 10
3.8587636687
 20
-10.1314160745
 30
0.0
 11
4.1252378424
 21
-10.4358388447
 31
0.0
  0
LINE
  5
119
330
1F
100
AcDbEntity
  8
SK3
  6
SLD-Dashed
370
    18
100
AcDbLine
 10
4.1252378424
 20
-10.4358388447
 30
0.0
 11
4.4147208833
 21
-10.6491814497
 31
0.0
  0
LINE
  5
11A
330
1F
100
AcDbEntity
  8
SK3
  6
SLD-Dashed
370
    18
100
AcDbLine
 10
4.4147208833
 20
-10.6491814497
 30
0.0
 11
4.7103890891
 21
-10.759045193
 31
0.0
  0
LINE
  5
11B
330
1F
100
AcDbEntity
  8
SK3
  6
SLD-Dashed
370
    18
100
AcDbLine
 10
4.7103890891
 20
-10.759045193
 30
0.0
 11
4.9950592985
 21
-10.759045193
 31
0.0
  0
LINE
  5
11C
330
1F
100
AcDbEntity
  8
SK3
  6
SLD-Dashed
370
    18
100
AcDbLine
 10
4.9950592985
 20
-10.759045193
 30
0.0
 11
5.2521875137
 21
-10.6491814497
 31
0.0
  0
LINE
  5
11D
330
1F
100
AcDbEntity
  8
SK3
  6
SLD-Dashed
370
    18
100
AcDbLine
 10
5.2521875137
 20
-10.6491814497
 30
0.0
 11
5.4668303773
 21
-10.4358388447
 31
0.0
  0
LINE
  5
11E
330
1F
100
AcDbEntity
  8
SK3
  6
SLD-Dashed
370
    18
100
AcDbLine
 10
5.4668303773
 20
-10.4358388447
 30
0.0
 11
5.6265136264
 21
-10.1314160745
 31
0.0
  0
LINE
  5
11F
330
1F
100
AcDbEntity
  8
SK3
  6
SLD-Dashed
370
    18
100
AcDbLine
 10
5.6265136264
 20
-10.1314160745
 30
0.0
 11
5.721957051
 21
-9.7536050842
 31
0.0
  0
LINE
  5
120
330
1F
100
AcDbEntity
  8
SK3
  6
SLD-Dashed
370
    18
100
AcDbLine
 10
5.721957051
 20
-9.7536050842
 30
0.0
 11
5.7476138261
 21
-9.3243628751
 31
0.0
  0
LINE
  5
121
330
1F
100
AcDbEntity
  8
SK3
  6
SLD-Dashed
370
    18
100
AcDbLine
 10
5.7476138261
 20
-9.3243628751
 30
0.0
 11
5.7019928732
 21
-8.8686354442
 31
0.0
  0
LINE
  5
122
330
1F
100
AcDbEntity
  8
SK3
  6
SLD-Dashed
370
    18
100
AcDbLine
 10
16.3488925452
 20
-5.9198440145
 30
0.0
 11
16.2346451883
 21
-5.4641165836
 31
0.0
  0
LINE
  5
123
330
1F
100
AcDbEntity
  8
SK3
  6
SLD-Dashed
370
    18
100
AcDbLine
 10
16.2346451883
 20
-5.4641165836
 30
0.0
 11
16.0584110685
 21
-5.0348743745
 31
0.0
  0
LINE
  5
124
330
1F
100
AcDbEntity
  8
SK3
  6
SLD-Dashed
370
    18
100
AcDbLine
 10
16.0584110685
 20
-5.0348743745
 30
0.0
 11
15.8304322722
 21
-4.6570633842
 31
0.0
  0
LINE
  5
125
330
1F
100
AcDbEntity
  8
SK3
  6
SLD-Dashed
370
    18
100
AcDbLine
 10
15.8304322722
 20
-4.6570633842
 30
0.0
 11
15.5639580985
 21
-4.352640614
 31
0.0
  0
LINE
  5
126
330
1F
100
AcDbEntity
  8
SK3
  6
SLD-Dashed
370
    18
100
AcDbLine
 10
15.5639580985
 20
-4.352640614
 30
0.0
 11
15.2744750576
 21
-4.139298009
 31
0.0
  0
LINE
  5
127
330
1F
100
AcDbEntity
  8
SK3
  6
SLD-Dashed
370
    18
100
AcDbLine
 10
15.2744750576
 20
-4.139298009
 30
0.0
 11
14.9788068518
 21
-4.0294342657
 31
0.0
  0
LINE
  5
128
330
1F
100
AcDbEntity
  8
SK3
  6
SLD-Dashed
370
    18
100
AcDbLine
 10
14.9788068518
 20
-4.0294342657
 30
0.0
 11
14.6941366424
 21
-4.0294342657
 31
0.0
  0
LINE
  5
129
330
1F
100
AcDbEntity
  8
SK3
  6
SLD-Dashed
370
    18
100
AcDbLine
 10
14.6941366424
 20
-4.0294342657
 30
0.0
 11
14.4370084273
 21
-4.139298009
 31
0.0
  0
LINE
  5
12A
330
1F
100
AcDbEntity
  8
SK3
  6
SLD-Dashed
370
    18
100
AcDbLine
 10
14.4370084273
 20
-4.139298009
 30
0.0
 11
14.2223655636
 21
-4.352640614
 31
0.0
  0
LINE
  5
12B
330
1F
100
AcDbEntity
  8
SK3
  6
SLD-Dashed
370
    18
100
AcDbLine
 10
14.2223655636
 20
-4.352640614
 30
0.0
 11
14.0626823145
 21
-4.6570633842
 31
0.0
  0
LINE
  5
12C
330
1F
100
AcDbEntity
  8
SK3
  6
SLD-Dashed
370
    18
100
AcDbLine
 10
14.0626823145
 20
-4.6570633842
 30
0.0
 11
13.9672388899
 21
-5.0348743745
 31
0.0
  0
LINE
  5
12D
330
1F
100
AcDbEntity
  8
SK3
  6
SLD-Dashed
370
    18
100
AcDbLine
 10
13.9672388899
 20
-5.0348743745
 30
0.0
 11
13.9415821148
 21
-5.4641165836
 31
0.0
  0
LINE
  5
12E
330
1F
100
AcDbEntity
  8
SK3
  6
SLD-Dashed
370
    18
100
AcDbLine
 10
13.9415821148
 20
-5.4641165836
 30
0.0
 11
13.9872030677
 21
-5.9198440145
 31
0.0
  0
LINE
  5
12F
330
1F
100
AcDbEntity
  8
SK3
  6
SLD-Dashed
370
    18
100
AcDbLine
 10
13.9872030677
 20
-5.9198440145
 30
0.0
 11
14.1014504246
 21
-6.3755714454
 31
0.0
  0
LINE
  5
130
330
1F
100
AcDbEntity
  8
SK3
  6
SLD-Dashed
370
    18
100
AcDbLine
 10
14.1014504246
 20
-6.3755714454
 30
0.0
 11
14.2776845444
 21
-6.8048136545
 31
0.0
  0
LINE
  5
131
330
1F
100
AcDbEntity
  8
SK3
  6
SLD-Dashed
370
    18
100
AcDbLine
 10
14.2776845444
 20
-6.8048136545
 30
0.0
 11
14.5056633407
 21
-7.1826246448
 31
0.0
  0
LINE
  5
132
330
1F
100
AcDbEntity
  8
SK3
  6
SLD-Dashed
370
    18
100
AcDbLine
 10
14.5056633407
 20
-7.1826246448
 30
0.0
 11
14.7721375144
 21
-7.487047415
 31
0.0
  0
LINE
  5
133
330
1F
100
AcDbEntity
  8
SK3
  6
SLD-Dashed
370
    18
100
AcDbLine
 10
14.7721375144
 20
-7.487047415
 30
0.0
 11
15.0616205552
 21
-7.70039002
 31
0.0
  0
LINE
  5
134
330
1F
100
AcDbEntity
  8
SK3
  6
SLD-Dashed
370
    18
100
AcDbLine
 10
15.0616205552
 20
-7.70039002
 30
0.0
 11
15.3572887611
 21
-7.8102537633
 31
0.0
  0
LINE
  5
135
330
1F
100
AcDbEntity
  8
SK3
  6
SLD-Dashed
370
    18
100
AcDbLine
 10
15.3572887611
 20
-7.8102537633
 30
0.0
 11
15.6419589705
 21
-7.8102537633
 31
0.0
  0
LINE
  5
136
330
1F
100
AcDbEntity
  8
SK3
  6
SLD-Dashed
370
    18
100
AcDbLine
 10
15.6419589705
 20
-7.8102537633
 30
0.0
 11
15.8990871856
 21
-7.70039002
 31
0.0
  0
LINE
  5
137
330
1F
100
AcDbEntity
  8
SK3
  6
SLD-Dashed
370
    18
100
AcDbLine
 10
15.8990871856
 20
-7.70039002
 30
0.0
 11
16.1137300493
 21
-7.487047415
 31
0.0
  0
LINE
  5
138
330
1F
100
AcDbEntity
  8
SK3
  6
SLD-Dashed
370
    18
100
AcDbLine
 10
16.1137300493
 20
-7.487047415
 30
0.0
 11
16.2734132984
 21
-7.1826246448
 31
0.0
  0
LINE
  5
139
330
1F
100
AcDbEntity
  8
SK3
  6
SLD-Dashed
370
    18
100
AcDbLine
 10
16.2734132984
 20
-7.1826246448
 30
0.0
 11
16.3688567229
 21
-6.8048136545
 31
0.0
  0
LINE
  5
13A
330
1F
100
AcDbEntity
  8
SK3
  6
SLD-Dashed
370
    18
100
AcDbLine
 10
16.3688567229
 20
-6.8048136545
 30
0.0
 11
16.394513498
 21
-6.3755714454
 31
0.0
  0
LINE
  5
13B
330
1F
100
AcDbEntity
  8
SK3
  6
SLD-Dashed
370
    18
100
AcDbLine
 10
16.394513498
 20
-6.3755714454
 30
0.0
 11
16.3488925452
 21
-5.9198440145
 31
0.0
  0
LINE
  5
13C
330
1F
100
AcDbEntity
  8
SK3
  6
SLD-Dashed
370
    18
100
AcDbLine
 10
11.115
 20
-10.1009964074
 30
0.0
 11
10.6698353276
 21
-10.0434999276
 31
0.0
  0
LINE
  5
13D
330
1F
100
AcDbEntity
  8
SK3
  6
SLD-Dashed
370
    18
100
AcDbLine
 10
10.6698353276
 20
-10.0434999276
 30
0.0
 11
10.2576864824
 21
-9.8752747388
 31
0.0
  0
LINE
  5
13E
330
1F
100
AcDbEntity
  8
SK3
  6
SLD-Dashed
370
    18
100
AcDbLine
 10
10.2576864824
 20
-9.8752747388
 30
0.0
 11
9.9091206589
 21
-9.6087973339
 31
0.0
  0
LINE
  5
13F
330
1F
100
AcDbEntity
  8
SK3
  6
SLD-Dashed
370
    18
100
AcDbLine
 10
9.9091206589
 20
-9.6087973339
 30
0.0
 11
9.6499893896
 21
-9.2638311229
 31
0.0
  0
LINE
  5
140
330
1F
100
AcDbEntity
  8
SK3
  6
SLD-Dashed
370
    18
100
AcDbLine
 10
9.6499893896
 20
-9.2638311229
 30
0.0
 11
9.4995112553
 21
-8.8659606714
 31
0.0
  0
LINE
  5
141
330
1F
100
AcDbEntity
  8
SK3
  6
SLD-Dashed
370
    18
100
AcDbLine
 10
9.4995112553
 20
-8.8659606714
 30
0.0
 11
9.4688465308
 21
-8.4446942109
 31
0.0
  0
LINE
  5
142
330
1F
100
AcDbEntity
  8
SK3
  6
SLD-Dashed
370
    18
100
AcDbLine
 10
9.4688465308
 20
-8.4446942109
 30
0.0
 11
9.5602694785
 21
-8.0312751475
 31
0.0
  0
LINE
  5
143
330
1F
100
AcDbEntity
  8
SK3
  6
SLD-Dashed
370
    18
100
AcDbLine
 10
9.5602694785
 20
-8.0312751475
 30
0.0
 11
9.7669996765
 21
-7.6563648818
 31
0.0
  0
LINE
  5
144
330
1F
100
AcDbEntity
  8
SK3
  6
SLD-Dashed
370
    18
100
AcDbLine
 10
9.7669996765
 20
-7.6563648818
 30
0.0
 11
10.0737048919
 21
-7.3477687932
 31
0.0
  0
LINE
  5
145
330
1F
100
AcDbEntity
  8
SK3
  6
SLD-Dashed
370
    18
100
AcDbLine
 10
10.0737048919
 20
-7.3477687932
 30
0.0
 11
10.4576382018
 21
-7.1283740418
 31
0.0
  0
LINE
  5
146
330
1F
100
AcDbEntity
  8
SK3
  6
SLD-Dashed
370
    18
100
AcDbLine
 10
10.4576382018
 20
-7.1283740418
 30
0.0
 11
10.890325029
 21
-7.0144521327
 31
0.0
  0
LINE
  5
147
330
1F
100
AcDbEntity
  8
SK3
  6
SLD-Dashed
370
    18
100
AcDbLine
 10
10.890325029
 20
-7.0144521327
 30
0.0
 11
11.339674971
 21
-7.0144521327
 31
0.0
  0
LINE
  5
148
330
1F
100
AcDbEntity
  8
SK3
  6
SLD-Dashed
370
    18
100
AcDbLine
 10
11.339674971
 20
-7.0144521327
 30
0.0
 11
11.7723617982
 21
-7.1283740418
 31
0.0
  0
LINE
  5
149
330
1F
100
AcDbEntity
  8
SK3
  6
SLD-Dashed
370
    18
100
AcDbLine
 10
11.7723617982
 20
-7.1283740418
 30
0.0
 11
12.1562951081
 21
-7.3477687932
 31
0.0
  0
LINE
  5
14A
330
1F
100
AcDbEntity
  8
SK3
  6
SLD-Dashed
370
    18
100
AcDbLine
 10
12.1562951081
 20
-7.3477687932
 30
0.0
 11
12.4630003235
 21
-7.6563648818
 31
0.0
  0
LINE
  5
14B
330
1F
100
AcDbEntity
  8
SK3
  6
SLD-Dashed
370
    18
100
AcDbLine
 10
12.4630003235
 20
-7.6563648818
 30
0.0
 11
12.6697305215
 21
-8.0312751475
 31
0.0
  0
LINE
  5
14C
330
1F
100
AcDbEntity
  8
SK3
  6
SLD-Dashed
370
    18
100
AcDbLine
 10
12.6697305215
 20
-8.0312751475
 30
0.0
 11
12.7611534692
 21
-8.4446942109
 31
0.0
  0
LINE
  5
14D
330
1F
100
AcDbEntity
  8
SK3
  6
SLD-Dashed
370
    18
100
AcDbLine
 10
12.7611534692
 20
-8.4446942109
 30
0.0
 11
12.7304887447
 21
-8.8659606714
 31
0.0
  0
LINE
  5
14E
330
1F
100
AcDbEntity
  8
SK3
  6
SLD-Dashed
370
    18
100
AcDbLine
 10
12.7304887447
 20
-8.8659606714
 30
0.0
 11
12.5800106104
 21
-9.2638311229
 31
0.0
  0
LINE
  5
14F
330
1F
100
AcDbEntity
  8
SK3
  6
SLD-Dashed
370
    18
100
AcDbLine
 10
12.5800106104
 20
-9.2638311229
 30
0.0
 11
12.3208793411
 21
-9.6087973339
 31
0.0
  0
LINE
  5
150
330
1F
100
AcDbEntity
  8
SK3
  6
SLD-Dashed
370
    18
100
AcDbLine
 10
12.3208793411
 20
-9.6087973339
 30
0.0
 11
11.9723135176
 21
-9.8752747388
 31
0.0
  0
LINE
  5
151
330
1F
100
AcDbEntity
  8
SK3
  6
SLD-Dashed
370
    18
100
AcDbLine
 10
11.9723135176
 20
-9.8752747388
 30
0.0
 11
11.5601646724
 21
-10.0434999276
 31
0.0
  0
LINE
  5
152
330
1F
100
AcDbEntity
  8
SK3
  6
SLD-Dashed
370
    18
100
AcDbLine
 10
11.5601646724
 20
-10.0434999276
 30
0.0
 11
11.115
 21
-10.1009964074
 31
0.0
  0
LINE
  5
153
330
1F
100
AcDbEntity
  8
SK3
  6
SLD-Dashed
370
    18
100
AcDbLine
 10
-66.9509618943
 20
8.5
 30
0.0
 11
-66.9509618943
 21
-8.5
 31
0.0
  0
LINE
  5
154
330
1F
100
AcDbEntity
  8
SK3
  6
SLD-Dashed
370
    18
100
AcDbLine
 10
-62.2696152423
 20
-8.5
 30
0.0
 11
-62.2696152423
 21
8.5
 31
0.0
  0
LINE
  5
155
330
1F
100
AcDbEntity
  8
SK3
  6
SLD-Dashed
370
    18
100
AcDbLine
 10
-61.75
 20
-8.8
 30
0.0
 11
-61.75
 21
8.8
 31
0.0
  0
LINE
  5
156
330
1F
100
AcDbEntity
  8
SK3
  6
SLD-Dashed
370
    18
100
AcDbLine
 10
-59.75
 20
-8.8
 30
0.0
 11
-59.75
 21
8.8
 31
0.0
  0
LINE
  5
157
330
1F
100
AcDbEntity
  8
SK3
  6
SLD-Dashed
370
    18
100
AcDbLine
 10
-58.7107695155
 20
7.0
 30
0.0
 11
-58.7107695155
 21
-7.0
 31
0.0
  0
LINE
  5
158
330
1F
100
AcDbEntity
  8
SK1
  6
SLD-Dashed
370
    18
100
AcDbLine
 10
56.0
 20
5.1442911166
 30
0.0
 11
56.0
 21
8.6442911166
 31
0.0
  0
LINE
  5
159
330
1F
100
AcDbEntity
  8
SK3
  6
SLD-Dashed
370
    18
100
AcDbLine
 10
19.0
 20
5.1442911166
 30
0.0
 11
19.0
 21
8.6442911166
 31
0.0
  0
LINE
  5
15A
330
1F
100
AcDbEntity
  8
SK1
  6
SLD-Dashed
370
    18
100
AcDbLine
 10
56.0
 20
-8.6442911166
 30
0.0
 11
56.0
 21
-5.1442911166
 31
0.0
  0
LINE
  5
15B
330
1F
100
AcDbEntity
  8
SK3
  6
SLD-Dashed
370
    18
100
AcDbLine
 10
19.0
 20
-8.6442911166
 30
0.0
 11
19.0
 21
-5.1442911166
 31
0.0
  0
LINE
  5
15C
330
1F
100
AcDbEntity
  8
SK3
  6
SLD-Dashed
370
    18
100
AcDbLine
 10
18.6202644763
 20
-24.5918395155
 30
0.0
 11
18.6202644763
 21
-29.8288211426
 31
0.0
  0
LINE
  5
15D
330
1F
100
AcDbEntity
  8
SK3
  6
SLD-Dashed
370
    18
100
AcDbLine
 10
3.6297385784
 20
-29.8288189921
 30
0.0
 11
3.6297385784
 21
-23.0999999837
 31
0.0
  0
LINE
  5
15E
330
1F
100
AcDbEntity
  8
SK3
  6
SLD-Dashed
370
    18
100
AcDbLine
 10
18.3
 20
-30.1615241263
 30
0.0
 11
14.3360013008
 21
-30.1615241263
 31
0.0
  0
LINE
  5
15F
330
1F
100
AcDbEntity
  8
SK3
  6
SLD-Dashed
370
    18
100
AcDbLine
 10
7.894001654
 20
-30.1615188275
 30
0.0
 11
3.95
 21
-30.1615188275
 31
0.0
  0
LINE
  5
160
330
1F
100
AcDbEntity
  8
1
  6
SLD-Dashed
370
    18
100
AcDbLine
 10
13.03
 20
-27.5868351755
 30
0.0
 11
13.03
 21
-27.8127840266
 31
0.0
  0
LINE
  5
161
330
1F
100
AcDbEntity
  8
1
  6
SLD-Dashed
370
    18
100
AcDbLine
 10
9.2
 20
-27.8127840266
 30
0.0
 11
9.2
 21
-27.5868351755
 31
0.0
  0
LINE
  5
162
330
1F
100
AcDbEntity
  8
SK3
  6
SLD-Dashed
370
    18
100
AcDbLine
 10
19.7532983841
 20
-22.6
 30
0.0
 11
3.6238597242
 21
-22.622921711
 31
0.0
  0
LINE
  5
163
330
1F
100
AcDbEntity
  8
SK3
  6
SLD-Dashed
370
    18
100
AcDbLine
 10
3.6297385784
 20
-23.0999999837
 30
0.0
 11
19.0685832618
 21
-23.0999999837
 31
0.0
  0
LINE
  5
164
330
1F
100
AcDbEntity
  8
SK3
  6
SLD-Dashed
370
    18
100
AcDbLine
 10
18.7047100516
 20
29.804866641
 30
0.0
 11
18.7047100516
 21
25.3
 31
0.0
  0
LINE
  5
165
330
1F
100
AcDbEntity
  8
SK3
  6
SLD-Dashed
370
    18
100
AcDbLine
 10
3.5454096757
 20
25.7224789849
 30
0.0
 11
3.5454096757
 21
29.8048528797
 31
0.0
  0
LINE
  5
166
330
1F
100
AcDbEntity
  8
SK3
  6
SLD-Dashed
370
    18
100
AcDbLine
 10
14.3717243109
 20
30.225583351
 30
0.0
 11
18.3
 21
30.225583351
 31
0.0
  0
LINE
  5
167
330
1F
100
AcDbEntity
  8
SK3
  6
SLD-Dashed
370
    18
100
AcDbLine
 10
3.95
 20
30.2254453833
 30
0.0
 11
7.8583526331
 21
30.2254453833
 31
0.0
  0
LINE
  5
168
330
1F
100
AcDbEntity
  8
1
  6
SLD-Dashed
370
    18
100
AcDbLine
 10
9.2
 20
27.8127840266
 30
0.0
 11
9.2
 21
27.5868351755
 31
0.0
  0
LINE
  5
169
330
1F
100
AcDbEntity
  8
1
  6
SLD-Dashed
370
    18
100
AcDbLine
 10
13.03
 20
27.5868351755
 30
0.0
 11
13.03
 21
27.8127840266
 31
0.0
  0
LINE
  5
16A
330
1F
100
AcDbEntity
  8
SK3
  6
SLD-Dashed
370
    18
100
AcDbLine
 10
3.6999979853
 20
24.8
 30
0.0
 11
18.7047100516
 21
24.8
 31
0.0
  0
LINE
  5
16B
330
1F
100
AcDbEntity
  8
SK3
  6
SLD-Dashed
370
    18
100
AcDbLine
 10
18.7047100516
 20
25.3
 30
0.0
 11
3.7
 21
25.3
 31
0.0
  0
LINE
  5
16C
330
1F
100
AcDbEntity
  8
SK3
  6
SLD-Dashed
370
    18
100
AcDbLine
 10
54.0
 20
-6.5
 30
0.0
 11
54.0
 21
6.5
 31
0.0
  0
LINE
  5
16D
330
1F
100
AcDbEntity
  8
SK1
  6
SLD-Dashed
370
    18
100
AcDbLine
 10
56.0
 20
-7.6510700648
 30
0.0
 11
56.0
 21
7.6510700648
 31
0.0
  0
LINE
  5
16E
330
1F
100
AcDbEntity
  8
SK3
  6
SLD-Dashed
370
    18
100
AcDbLine
 10
23.75
 20
-4.2175146909
 30
0.0
 11
23.75
 21
4.2175146909
 31
0.0
  0
LINE
  5
16F
330
1F
100
AcDbEntity
  8
SK3
  6
SLD-Dashed
370
    18
100
AcDbLine
 10
23.75
 20
5.5868210847
 30
0.0
 11
23.75
 21
7.0
 31
0.0
  0
LINE
  5
170
330
1F
100
AcDbEntity
  8
SK3
  6
SLD-Dashed
370
    18
100
AcDbLine
 10
23.75
 20
4.2175146909
 30
0.0
 11
23.75
 21
-4.2175146909
 31
0.0
  0
LINE
  5
171
330
1F
100
AcDbEntity
  8
SK3
  6
SLD-Dashed
370
    18
100
AcDbLine
 10
23.75
 20
-5.5868210847
 30
0.0
 11
23.75
 21
-7.0
 31
0.0
  0
LINE
  5
172
330
1F
100
AcDbEntity
  8
SK3
  6
SLD-Dashed
370
    18
100
AcDbLine
 10
24.8916351762
 20
5.1
 30
0.0
 11
24.8916351762
 21
-5.1
 31
0.0
  0
LINE
  5
173
330
1F
100
AcDbEntity
  8
SK3
  6
SLD-Dashed
370
    18
100
AcDbLine
 10
24.9153040444
 20
-23.1
 30
0.0
 11
28.1842960126
 21
-23.1
 31
0.0
  0
LINE
  5
174
330
1F
100
AcDbEntity
  8
SK3
  6
SLD-Dashed
370
    18
100
AcDbLine
 10
24.6181882912
 20
-22.6
 30
0.0
 11
27.7
 21
-22.6
 31
0.0
  0
LINE
  5
175
330
1F
100
AcDbEntity
  8
SK3
  6
SLD-Dashed
370
    18
100
AcDbLine
 10
50.5
 20
-6.5
 30
0.0
 11
50.5
 21
6.5
 31
0.0
  0
LINE
  5
176
330
1F
100
AcDbEntity
  8
SK3
  6
SLD-Dashed
370
    18
100
AcDbLine
 10
49.6587951334
 20
-5.1
 30
0.0
 11
49.6587951334
 21
5.1
 31
0.0
  0
LINE
  5
177
330
1F
100
AcDbEntity
  8
SK3
  6
SLD-Dashed
370
    18
100
AcDbLine
 10
16.0963309053
 20
20.3
 30
0.0
 11
6.1036690947
 21
20.3
 31
0.0
  0
LINE
  5
178
330
1F
100
AcDbEntity
  8
SK3
  6
SLD-Dashed
370
    18
100
AcDbLine
 10
16.0963309053
 20
24.8
 30
0.0
 11
6.1036690947
 21
24.8
 31
0.0
  0
LINE
  5
179
330
1F
100
AcDbEntity
  8
SK3
  6
SLD-Dashed
370
    18
100
AcDbLine
 10
6.2
 20
20.2
 30
0.0
 11
16.0
 21
20.2
 31
0.0
  0
LINE
  5
17A
330
1F
100
AcDbEntity
  8
SK1
  6
SLD-Dashed
370
    18
100
AcDbLine
 10
56.0
 20
5.1442911166
 30
0.0
 11
56.0
 21
8.6442911166
 31
0.0
  0
LINE
  5
17B
330
1F
100
AcDbEntity
  8
SK3
  6
SLD-Dashed
370
    18
100
AcDbLine
 10
19.0
 20
5.1442911166
 30
0.0
 11
19.0
 21
8.6442911166
 31
0.0
  0
LINE
  5
17C
330
1F
100
AcDbEntity
  8
SK1
  6
SLD-Dashed
370
    18
100
AcDbLine
 10
56.0
 20
-8.6442911166
 30
0.0
 11
56.0
 21
-5.1442911166
 31
0.0
  0
LINE
  5
17D
330
1F
100
AcDbEntity
  8
SK3
  6
SLD-Dashed
370
    18
100
AcDbLine
 10
19.0
 20
-8.6442911166
 30
0.0
 11
19.0
 21
-5.1442911166
 31
0.0
  0
LINE
  5
17E
330
1F
100
AcDbEntity
  8
SK3
  6
SLD-Dashed
370
    18
100
AcDbLine
 10
19.0685832618
 20
-23.0999999837
 30
0.0
 11
3.6297385784
 21
-23.0999999837
 31
0.0
  0
LINE
  5
17F
330
1F
100
AcDbEntity
  8
SK3
  6
SLD-Dashed
370
    18
100
AcDbLine
 10
3.6238597242
 20
-22.622921711
 30
0.0
 11
19.7532983841
 21
-22.6
 31
0.0
  0
LINE
  5
180
330
1F
100
AcDbEntity
  8
SK3
  6
SLD-Dashed
370
    18
100
AcDbLine
 10
3.7
 20
25.3
 30
0.0
 11
18.7045903243
 21
25.3
 31
0.0
  0
LINE
  5
181
330
1F
100
AcDbEntity
  8
SK3
  6
SLD-Dashed
370
    18
100
AcDbLine
 10
18.7045883096
 20
24.8
 30
0.0
 11
3.6999979853
 21
24.8
 31
0.0
  0
LINE
  5
182
330
1F
100
AcDbEntity
  8
SK3
  6
SLD-Dashed
370
    18
100
AcDbLine
 10
18.6202644763
 20
-29.8288211426
 30
0.0
 11
18.6202644763
 21
-24.5918395155
 31
0.0
  0
LINE
  5
183
330
1F
100
AcDbEntity
  8
SK3
  6
SLD-Dashed
370
    18
100
AcDbLine
 10
14.3360013008
 20
-30.1615241263
 30
0.0
 11
18.3
 21
-30.1615241263
 31
0.0
  0
LINE
  5
184
330
1F
100
AcDbEntity
  8
1
  6
SLD-Dashed
370
    18
100
AcDbLine
 10
12.28
 20
-26.8043088887
 30
0.0
 11
9.95
 21
-26.8043088887
 31
0.0
  0
LINE
  5
185
330
1F
100
AcDbEntity
  8
SK3
  6
SLD-Dashed
370
    18
100
AcDbLine
 10
3.95
 20
-30.1615188275
 30
0.0
 11
7.894001654
 21
-30.1615188275
 31
0.0
  0
LINE
  5
186
330
1F
100
AcDbEntity
  8
SK3
  6
SLD-Dashed
370
    18
100
AcDbLine
 10
3.6297385784
 20
-23.0999999837
 30
0.0
 11
3.6297385784
 21
-29.8288189921
 31
0.0
  0
LINE
  5
187
330
1F
100
AcDbEntity
  8
SK3
  6
SLD-Dashed
370
    18
100
AcDbLine
 10
18.7045903243
 20
25.3
 30
0.0
 11
18.7045903243
 21
29.8048528797
 31
0.0
  0
LINE
  5
188
330
1F
100
AcDbEntity
  8
SK3
  6
SLD-Dashed
370
    18
100
AcDbLine
 10
18.3
 20
30.2254453833
 30
0.0
 11
14.3716473669
 21
30.2254453833
 31
0.0
  0
LINE
  5
189
330
1F
100
AcDbEntity
  8
SK3
  6
SLD-Dashed
370
    18
100
AcDbLine
 10
7.8582756891
 20
30.225583351
 30
0.0
 11
3.95
 21
30.225583351
 31
0.0
  0
LINE
  5
18A
330
1F
100
AcDbEntity
  8
1
  6
SLD-Dashed
370
    18
100
AcDbLine
 10
12.28
 20
26.8043088887
 30
0.0
 11
9.95
 21
26.8043088887
 31
0.0
  0
LINE
  5
18B
330
1F
100
AcDbEntity
  8
SK3
  6
SLD-Dashed
370
    18
100
AcDbLine
 10
3.5452899484
 20
29.804866641
 30
0.0
 11
3.5452899484
 21
25.722664467
 31
0.0
  0
LINE
  5
18C
330
1F
100
AcDbEntity
  8
SK3
  6
SLD-Dashed
370
    18
100
AcDbLine
 10
3.3403033958
 20
8.8686354442
 30
0.0
 11
3.4545507526
 21
9.3243628751
 31
0.0
  0
LINE
  5
18D
330
1F
100
AcDbEntity
  8
SK3
  6
SLD-Dashed
370
    18
100
AcDbLine
 10
3.4545507526
 20
9.3243628751
 30
0.0
 11
3.6307848724
 21
9.7536050842
 31
0.0
  0
LINE
  5
18E
330
1F
100
AcDbEntity
  8
SK3
  6
SLD-Dashed
370
    18
100
AcDbLine
 10
3.6307848724
 20
9.7536050842
 30
0.0
 11
3.8587636687
 21
10.1314160745
 31
0.0
  0
LINE
  5
18F
330
1F
100
AcDbEntity
  8
SK3
  6
SLD-Dashed
370
    18
100
AcDbLine
 10
3.8587636687
 20
10.1314160745
 30
0.0
 11
4.1252378424
 21
10.4358388447
 31
0.0
  0
LINE
  5
190
330
1F
100
AcDbEntity
  8
SK3
  6
SLD-Dashed
370
    18
100
AcDbLine
 10
4.1252378424
 20
10.4358388447
 30
0.0
 11
4.4147208833
 21
10.6491814497
 31
0.0
  0
LINE
  5
191
330
1F
100
AcDbEntity
  8
SK3
  6
SLD-Dashed
370
    18
100
AcDbLine
 10
4.4147208833
 20
10.6491814497
 30
0.0
 11
4.7103890891
 21
10.759045193
 31
0.0
  0
LINE
  5
192
330
1F
100
AcDbEntity
  8
SK3
  6
SLD-Dashed
370
    18
100
AcDbLine
 10
4.7103890891
 20
10.759045193
 30
0.0
 11
4.9950592985
 21
10.759045193
 31
0.0
  0
LINE
  5
193
330
1F
100
AcDbEntity
  8
SK3
  6
SLD-Dashed
370
    18
100
AcDbLine
 10
4.9950592985
 20
10.759045193
 30
0.0
 11
5.2521875137
 21
10.6491814497
 31
0.0
  0
LINE
  5
194
330
1F
100
AcDbEntity
  8
SK3
  6
SLD-Dashed
370
    18
100
AcDbLine
 10
5.2521875137
 20
10.6491814497
 30
0.0
 11
5.4668303773
 21
10.4358388447
 31
0.0
  0
LINE
  5
195
330
1F
100
AcDbEntity
  8
SK3
  6
SLD-Dashed
370
    18
100
AcDbLine
 10
5.4668303773
 20
10.4358388447
 30
0.0
 11
5.6265136264
 21
10.1314160745
 31
0.0
  0
LINE
  5
196
330
1F
100
AcDbEntity
  8
SK3
  6
SLD-Dashed
370
    18
100
AcDbLine
 10
5.6265136264
 20
10.1314160745
 30
0.0
 11
5.721957051
 21
9.7536050842
 31
0.0
  0
LINE
  5
197
330
1F
100
AcDbEntity
  8
SK3
  6
SLD-Dashed
370
    18
100
AcDbLine
 10
5.721957051
 20
9.7536050842
 30
0.0
 11
5.7476138261
 21
9.3243628751
 31
0.0
  0
LINE
  5
198
330
1F
100
AcDbEntity
  8
SK3
  6
SLD-Dashed
370
    18
100
AcDbLine
 10
5.7476138261
 20
9.3243628751
 30
0.0
 11
5.7019928732
 21
8.8686354442
 31
0.0
  0
LINE
  5
199
330
1F
100
AcDbEntity
  8
SK3
  6
SLD-Dashed
370
    18
100
AcDbLine
 10
5.7019928732
 20
8.8686354442
 30
0.0
 11
5.5877455163
 21
8.4129080133
 31
0.0
  0
LINE
  5
19A
330
1F
100
AcDbEntity
  8
SK3
  6
SLD-Dashed
370
    18
100
AcDbLine
 10
5.5877455163
 20
8.4129080133
 30
0.0
 11
5.4115113965
 21
7.9836658042
 31
0.0
  0
LINE
  5
19B
330
1F
100
AcDbEntity
  8
SK3
  6
SLD-Dashed
370
    18
100
AcDbLine
 10
5.4115113965
 20
7.9836658042
 30
0.0
 11
5.1835326003
 21
7.6058548139
 31
0.0
  0
LINE
  5
19C
330
1F
100
AcDbEntity
  8
SK3
  6
SLD-Dashed
370
    18
100
AcDbLine
 10
5.1835326003
 20
7.6058548139
 30
0.0
 11
4.9170584265
 21
7.3014320437
 31
0.0
  0
LINE
  5
19D
330
1F
100
AcDbEntity
  8
SK3
  6
SLD-Dashed
370
    18
100
AcDbLine
 10
4.9170584265
 20
7.3014320437
 30
0.0
 11
4.6275753857
 21
7.0880894387
 31
0.0
  0
LINE
  5
19E
330
1F
100
AcDbEntity
  8
SK3
  6
SLD-Dashed
370
    18
100
AcDbLine
 10
4.6275753857
 20
7.0880894387
 30
0.0
 11
4.3319071799
 21
6.9782256954
 31
0.0
  0
LINE
  5
19F
330
1F
100
AcDbEntity
  8
SK3
  6
SLD-Dashed
370
    18
100
AcDbLine
 10
4.3319071799
 20
6.9782256954
 30
0.0
 11
4.0472369705
 21
6.9782256954
 31
0.0
  0
LINE
  5
1A0
330
1F
100
AcDbEntity
  8
SK3
  6
SLD-Dashed
370
    18
100
AcDbLine
 10
4.0472369705
 20
6.9782256954
 30
0.0
 11
3.7901087553
 21
7.0880894387
 31
0.0
  0
LINE
  5
1A1
330
1F
100
AcDbEntity
  8
SK3
  6
SLD-Dashed
370
    18
100
AcDbLine
 10
3.7901087553
 20
7.0880894387
 30
0.0
 11
3.5754658917
 21
7.3014320437
 31
0.0
  0
LINE
  5
1A2
330
1F
100
AcDbEntity
  8
SK3
  6
SLD-Dashed
370
    18
100
AcDbLine
 10
3.5754658917
 20
7.3014320437
 30
0.0
 11
3.4157826425
 21
7.6058548139
 31
0.0
  0
LINE
  5
1A3
330
1F
100
AcDbEntity
  8
SK3
  6
SLD-Dashed
370
    18
100
AcDbLine
 10
3.4157826425
 20
7.6058548139
 30
0.0
 11
3.320339218
 21
7.9836658042
 31
0.0
  0
LINE
  5
1A4
330
1F
100
AcDbEntity
  8
SK3
  6
SLD-Dashed
370
    18
100
AcDbLine
 10
3.320339218
 20
7.9836658042
 30
0.0
 11
3.2946824429
 21
8.4129080133
 31
0.0
  0
LINE
  5
1A5
330
1F
100
AcDbEntity
  8
SK3
  6
SLD-Dashed
370
    18
100
AcDbLine
 10
3.2946824429
 20
8.4129080133
 30
0.0
 11
3.3403033958
 21
8.8686354442
 31
0.0
  0
LINE
  5
1A6
330
1F
100
AcDbEntity
  8
SK3
  6
SLD-Dashed
370
    18
100
AcDbLine
 10
13.9872030677
 20
5.9198440145
 30
0.0
 11
14.1014504246
 21
6.3755714454
 31
0.0
  0
LINE
  5
1A7
330
1F
100
AcDbEntity
  8
SK3
  6
SLD-Dashed
370
    18
100
AcDbLine
 10
14.1014504246
 20
6.3755714454
 30
0.0
 11
14.2776845444
 21
6.8048136545
 31
0.0
  0
LINE
  5
1A8
330
1F
100
AcDbEntity
  8
SK3
  6
SLD-Dashed
370
    18
100
AcDbLine
 10
14.2776845444
 20
6.8048136545
 30
0.0
 11
14.5056633407
 21
7.1826246448
 31
0.0
  0
LINE
  5
1A9
330
1F
100
AcDbEntity
  8
SK3
  6
SLD-Dashed
370
    18
100
AcDbLine
 10
14.5056633407
 20
7.1826246448
 30
0.0
 11
14.7721375144
 21
7.487047415
 31
0.0
  0
LINE
  5
1AA
330
1F
100
AcDbEntity
  8
SK3
  6
SLD-Dashed
370
    18
100
AcDbLine
 10
14.7721375144
 20
7.487047415
 30
0.0
 11
15.0616205552
 21
7.70039002
 31
0.0
  0
LINE
  5
1AB
330
1F
100
AcDbEntity
  8
SK3
  6
SLD-Dashed
370
    18
100
AcDbLine
 10
15.0616205552
 20
7.70039002
 30
0.0
 11
15.3572887611
 21
7.8102537633
 31
0.0
  0
LINE
  5
1AC
330
1F
100
AcDbEntity
  8
SK3
  6
SLD-Dashed
370
    18
100
AcDbLine
 10
15.3572887611
 20
7.8102537633
 30
0.0
 11
15.6419589705
 21
7.8102537633
 31
0.0
  0
LINE
  5
1AD
330
1F
100
AcDbEntity
  8
SK3
  6
SLD-Dashed
370
    18
100
AcDbLine
 10
15.6419589705
 20
7.8102537633
 30
0.0
 11
15.8990871856
 21
7.70039002
 31
0.0
  0
LINE
  5
1AE
330
1F
100
AcDbEntity
  8
SK3
  6
SLD-Dashed
370
    18
100
AcDbLine
 10
15.8990871856
 20
7.70039002
 30
0.0
 11
16.1137300493
 21
7.487047415
 31
0.0
  0
LINE
  5
1AF
330
1F
100
AcDbEntity
  8
SK3
  6
SLD-Dashed
370
    18
100
AcDbLine
 10
16.1137300493
 20
7.487047415
 30
0.0
 11
16.2734132984
 21
7.1826246448
 31
0.0
  0
LINE
  5
1B0
330
1F
100
AcDbEntity
  8
SK3
  6
SLD-Dashed
370
    18
100
AcDbLine
 10
16.2734132984
 20
7.1826246448
 30
0.0
 11
16.3688567229
 21
6.8048136545
 31
0.0
  0
LINE
  5
1B1
330
1F
100
AcDbEntity
  8
SK3
  6
SLD-Dashed
370
    18
100
AcDbLine
 10
16.3688567229
 20
6.8048136545
 30
0.0
 11
16.394513498
 21
6.3755714454
 31
0.0
  0
LINE
  5
1B2
330
1F
100
AcDbEntity
  8
SK3
  6
SLD-Dashed
370
    18
100
AcDbLine
 10
16.394513498
 20
6.3755714454
 30
0.0
 11
16.3488925452
 21
5.9198440145
 31
0.0
  0
LINE
  5
1B3
330
1F
100
AcDbEntity
  8
SK3
  6
SLD-Dashed
370
    18
100
AcDbLine
 10
16.3488925452
 20
5.9198440145
 30
0.0
 11
16.2346451883
 21
5.4641165836
 31
0.0
  0
LINE
  5
1B4
330
1F
100
AcDbEntity
  8
SK3
  6
SLD-Dashed
370
    18
100
AcDbLine
 10
16.2346451883
 20
5.4641165836
 30
0.0
 11
16.0584110685
 21
5.0348743745
 31
0.0
  0
LINE
  5
1B5
330
1F
100
AcDbEntity
  8
SK3
  6
SLD-Dashed
370
    18
100
AcDbLine
 10
16.0584110685
 20
5.0348743745
 30
0.0
 11
15.8304322722
 21
4.6570633842
 31
0.0
  0
LINE
  5
1B6
330
1F
100
AcDbEntity
  8
SK3
  6
SLD-Dashed
370
    18
100
AcDbLine
 10
15.8304322722
 20
4.6570633842
 30
0.0
 11
15.5639580985
 21
4.352640614
 31
0.0
  0
LINE
  5
1B7
330
1F
100
AcDbEntity
  8
SK3
  6
SLD-Dashed
370
    18
100
AcDbLine
 10
15.5639580985
 20
4.352640614
 30
0.0
 11
15.2744750576
 21
4.139298009
 31
0.0
  0
LINE
  5
1B8
330
1F
100
AcDbEntity
  8
SK3
  6
SLD-Dashed
370
    18
100
AcDbLine
 10
15.2744750576
 20
4.139298009
 30
0.0
 11
14.9788068518
 21
4.0294342657
 31
0.0
  0
LINE
  5
1B9
330
1F
100
AcDbEntity
  8
SK3
  6
SLD-Dashed
370
    18
100
AcDbLine
 10
14.9788068518
 20
4.0294342657
 30
0.0
 11
14.6941366424
 21
4.0294342657
 31
0.0
  0
LINE
  5
1BA
330
1F
100
AcDbEntity
  8
SK3
  6
SLD-Dashed
370
    18
100
AcDbLine
 10
14.6941366424
 20
4.0294342657
 30
0.0
 11
14.4370084273
 21
4.139298009
 31
0.0
  0
LINE
  5
1BB
330
1F
100
AcDbEntity
  8
SK3
  6
SLD-Dashed
370
    18
100
AcDbLine
 10
14.4370084273
 20
4.139298009
 30
0.0
 11
14.2223655636
 21
4.352640614
 31
0.0
  0
LINE
  5
1BC
330
1F
100
AcDbEntity
  8
SK3
  6
SLD-Dashed
370
    18
100
AcDbLine
 10
14.2223655636
 20
4.352640614
 30
0.0
 11
14.0626823145
 21
4.6570633842
 31
0.0
  0
LINE
  5
1BD
330
1F
100
AcDbEntity
  8
SK3
  6
SLD-Dashed
370
    18
100
AcDbLine
 10
14.0626823145
 20
4.6570633842
 30
0.0
 11
13.9672388899
 21
5.0348743745
 31
0.0
  0
LINE
  5
1BE
330
1F
100
AcDbEntity
  8
SK3
  6
SLD-Dashed
370
    18
100
AcDbLine
 10
13.9672388899
 20
5.0348743745
 30
0.0
 11
13.9415821148
 21
5.4641165836
 31
0.0
  0
LINE
  5
1BF
330
1F
100
AcDbEntity
  8
SK3
  6
SLD-Dashed
370
    18
100
AcDbLine
 10
13.9415821148
 20
5.4641165836
 30
0.0
 11
13.9872030677
 21
5.9198440145
 31
0.0
  0
LINE
  5
1C0
330
1F
100
AcDbEntity
  8
SK3
  6
SLD-Dashed
370
    18
100
AcDbLine
 10
11.115
 20
9.9881297601
 30
0.0
 11
11.5601646724
 21
9.9306332803
 31
0.0
  0
LINE
  5
1C1
330
1F
100
AcDbEntity
  8
SK3
  6
SLD-Dashed
370
    18
100
AcDbLine
 10
11.5601646724
 20
9.9306332803
 30
0.0
 11
11.9723135176
 21
9.7624080915
 31
0.0
  0
LINE
  5
1C2
330
1F
100
AcDbEntity
  8
SK3
  6
SLD-Dashed
370
    18
100
AcDbLine
 10
11.9723135176
 20
9.7624080915
 30
0.0
 11
12.3208793411
 21
9.4959306866
 31
0.0
  0
LINE
  5
1C3
330
1F
100
AcDbEntity
  8
SK3
  6
SLD-Dashed
370
    18
100
AcDbLine
 10
12.3208793411
 20
9.4959306866
 30
0.0
 11
12.5800106104
 21
9.1509644756
 31
0.0
  0
LINE
  5
1C4
330
1F
100
AcDbEntity
  8
SK3
  6
SLD-Dashed
370
    18
100
AcDbLine
 10
12.5800106104
 20
9.1509644756
 30
0.0
 11
12.7304887447
 21
8.7530940241
 31
0.0
  0
LINE
  5
1C5
330
1F
100
AcDbEntity
  8
SK3
  6
SLD-Dashed
370
    18
100
AcDbLine
 10
12.7304887447
 20
8.7530940241
 30
0.0
 11
12.7611534692
 21
8.3318275636
 31
0.0
  0
LINE
  5
1C6
330
1F
100
AcDbEntity
  8
SK3
  6
SLD-Dashed
370
    18
100
AcDbLine
 10
12.7611534692
 20
8.3318275636
 30
0.0
 11
12.6697305215
 21
7.9184085002
 31
0.0
  0
LINE
  5
1C7
330
1F
100
AcDbEntity
  8
SK3
  6
SLD-Dashed
370
    18
100
AcDbLine
 10
12.6697305215
 20
7.9184085002
 30
0.0
 11
12.4630003235
 21
7.5434982345
 31
0.0
  0
LINE
  5
1C8
330
1F
100
AcDbEntity
  8
SK3
  6
SLD-Dashed
370
    18
100
AcDbLine
 10
12.4630003235
 20
7.5434982345
 30
0.0
 11
12.1562951081
 21
7.2349021459
 31
0.0
  0
LINE
  5
1C9
330
1F
100
AcDbEntity
  8
SK3
  6
SLD-Dashed
370
    18
100
AcDbLine
 10
12.1562951081
 20
7.2349021459
 30
0.0
 11
11.7723617982
 21
7.0155073945
 31
0.0
  0
LINE
  5
1CA
330
1F
100
AcDbEntity
  8
SK3
  6
SLD-Dashed
370
    18
100
AcDbLine
 10
11.7723617982
 20
7.0155073945
 30
0.0
 11
11.339674971
 21
6.9015854854
 31
0.0
  0
LINE
  5
1CB
330
1F
100
AcDbEntity
  8
SK3
  6
SLD-Dashed
370
    18
100
AcDbLine
 10
11.339674971
 20
6.9015854854
 30
0.0
 11
10.890325029
 21
6.9015854854
 31
0.0
  0
LINE
  5
1CC
330
1F
100
AcDbEntity
  8
SK3
  6
SLD-Dashed
370
    18
100
AcDbLine
 10
10.890325029
 20
6.9015854854
 30
0.0
 11
10.4576382018
 21
7.0155073945
 31
0.0
  0
LINE
  5
1CD
330
1F
100
AcDbEntity
  8
SK3
  6
SLD-Dashed
370
    18
100
AcDbLine
 10
10.4576382018
 20
7.0155073945
 30
0.0
 11
10.0737048919
 21
7.2349021459
 31
0.0
  0
LINE
  5
1CE
330
1F
100
AcDbEntity
  8
SK3
  6
SLD-Dashed
370
    18
100
AcDbLine
 10
10.0737048919
 20
7.2349021459
 30
0.0
 11
9.7669996765
 21
7.5434982345
 31
0.0
  0
LINE
  5
1CF
330
1F
100
AcDbEntity
  8
SK3
  6
SLD-Dashed
370
    18
100
AcDbLine
 10
9.7669996765
 20
7.5434982345
 30
0.0
 11
9.5602694785
 21
7.9184085002
 31
0.0
  0
LINE
  5
1D0
330
1F
100
AcDbEntity
  8
SK3
  6
SLD-Dashed
370
    18
100
AcDbLine
 10
9.5602694785
 20
7.9184085002
 30
0.0
 11
9.4688465308
 21
8.3318275636
 31
0.0
  0
LINE
  5
1D1
330
1F
100
AcDbEntity
  8
SK3
  6
SLD-Dashed
370
    18
100
AcDbLine
 10
9.4688465308
 20
8.3318275636
 30
0.0
 11
9.4995112553
 21
8.7530940241
 31
0.0
  0
LINE
  5
1D2
330
1F
100
AcDbEntity
  8
SK3
  6
SLD-Dashed
370
    18
100
AcDbLine
 10
9.4995112553
 20
8.7530940241
 30
0.0
 11
9.6499893896
 21
9.1509644756
 31
0.0
  0
LINE
  5
1D3
330
1F
100
AcDbEntity
  8
SK3
  6
SLD-Dashed
370
    18
100
AcDbLine
 10
9.6499893896
 20
9.1509644756
 30
0.0
 11
9.9091206589
 21
9.4959306866
 31
0.0
  0
LINE
  5
1D4
330
1F
100
AcDbEntity
  8
SK3
  6
SLD-Dashed
370
    18
100
AcDbLine
 10
9.9091206589
 20
9.4959306866
 30
0.0
 11
10.2576864824
 21
9.7624080915
 31
0.0
  0
LINE
  5
1D5
330
1F
100
AcDbEntity
  8
SK3
  6
SLD-Dashed
370
    18
100
AcDbLine
 10
10.2576864824
 20
9.7624080915
 30
0.0
 11
10.6698353276
 21
9.9306332803
 31
0.0
  0
LINE
  5
1D6
330
1F
100
AcDbEntity
  8
SK3
  6
SLD-Dashed
370
    18
100
AcDbLine
 10
10.6698353276
 20
9.9306332803
 30
0.0
 11
11.115
 21
9.9881297601
 31
0.0
  0
LINE
  5
1D7
330
1F
100
AcDbEntity
  8
SK3
  6
SLD-Dashed
370
    18
100
AcDbLine
 10
3.3100253255
 20
8.8686354442
 30
0.0
 11
3.4272021018
 21
9.3360481938
 31
0.0
  0
LINE
  5
1D8
330
1F
100
AcDbEntity
  8
SK3
  6
SLD-Dashed
370
    18
100
AcDbLine
 10
3.4272021018
 20
9.3360481938
 30
0.0
 11
3.6079550452
 21
9.7762966134
 31
0.0
  0
LINE
  5
1D9
330
1F
100
AcDbEntity
  8
SK3
  6
SLD-Dashed
370
    18
100
AcDbLine
 10
3.6079550452
 20
9.7762966134
 30
0.0
 11
3.8417794516
 21
10.1637950651
 31
0.0
  0
LINE
  5
1DA
330
1F
100
AcDbEntity
  8
SK3
  6
SLD-Dashed
370
    18
100
AcDbLine
 10
3.8417794516
 20
10.1637950651
 30
0.0
 11
4.1150862965
 21
10.4760235473
 31
0.0
  0
LINE
  5
1DB
330
1F
100
AcDbEntity
  8
SK3
  6
SLD-Dashed
370
    18
100
AcDbLine
 10
4.1150862965
 20
10.4760235473
 30
0.0
 11
4.4119919794
 21
10.6948364755
 31
0.0
  0
LINE
  5
1DC
330
1F
100
AcDbEntity
  8
SK3
  6
SLD-Dashed
370
    18
100
AcDbLine
 10
4.4119919794
 20
10.6948364755
 30
0.0
 11
4.7152414213
 21
10.8075172378
 31
0.0
  0
LINE
  5
1DD
330
1F
100
AcDbEntity
  8
SK3
  6
SLD-Dashed
370
    18
100
AcDbLine
 10
4.7152414213
 20
10.8075172378
 30
0.0
 11
5.0072108668
 21
10.8075172378
 31
0.0
  0
LINE
  5
1DE
330
1F
100
AcDbEntity
  8
SK3
  6
SLD-Dashed
370
    18
100
AcDbLine
 10
5.0072108668
 20
10.8075172378
 30
0.0
 11
5.2709321131
 21
10.6948364755
 31
0.0
  0
LINE
  5
1DF
330
1F
100
AcDbEntity
  8
SK3
  6
SLD-Dashed
370
    18
100
AcDbLine
 10
5.2709321131
 20
10.6948364755
 30
0.0
 11
5.4910786399
 21
10.4760235473
 31
0.0
  0
LINE
  5
1E0
330
1F
100
AcDbEntity
  8
SK3
  6
SLD-Dashed
370
    18
100
AcDbLine
 10
5.4910786399
 20
10.4760235473
 30
0.0
 11
5.6548563313
 21
10.1637950651
 31
0.0
  0
LINE
  5
1E1
330
1F
100
AcDbEntity
  8
SK3
  6
SLD-Dashed
370
    18
100
AcDbLine
 10
5.6548563313
 20
10.1637950651
 30
0.0
 11
5.7527470232
 21
9.7762966134
 31
0.0
  0
LINE
  5
1E2
330
1F
100
AcDbEntity
  8
SK3
  6
SLD-Dashed
370
    18
100
AcDbLine
 10
5.7527470232
 20
9.7762966134
 30
0.0
 11
5.7790616643
 21
9.3360481938
 31
0.0
  0
LINE
  5
1E3
330
1F
100
AcDbEntity
  8
SK3
  6
SLD-Dashed
370
    18
100
AcDbLine
 10
5.7790616643
 20
9.3360481938
 30
0.0
 11
5.7322709434
 21
8.8686354442
 31
0.0
  0
LINE
  5
1E4
330
1F
100
AcDbEntity
  8
SK3
  6
SLD-Dashed
370
    18
100
AcDbLine
 10
5.7322709434
 20
8.8686354442
 30
0.0
 11
5.6150941671
 21
8.4012226946
 31
0.0
  0
LINE
  5
1E5
330
1F
100
AcDbEntity
  8
SK3
  6
SLD-Dashed
370
    18
100
AcDbLine
 10
5.6150941671
 20
8.4012226946
 30
0.0
 11
5.4343412237
 21
7.960974275
 31
0.0
  0
LINE
  5
1E6
330
1F
100
AcDbEntity
  8
SK3
  6
SLD-Dashed
370
    18
100
AcDbLine
 10
5.4343412237
 20
7.960974275
 30
0.0
 11
5.2005168173
 21
7.5734758234
 31
0.0
  0
LINE
  5
1E7
330
1F
100
AcDbEntity
  8
SK3
  6
SLD-Dashed
370
    18
100
AcDbLine
 10
5.2005168173
 20
7.5734758234
 30
0.0
 11
4.9272099725
 21
7.2612473412
 31
0.0
  0
LINE
  5
1E8
330
1F
100
AcDbEntity
  8
SK3
  6
SLD-Dashed
370
    18
100
AcDbLine
 10
4.9272099725
 20
7.2612473412
 30
0.0
 11
4.6303042896
 21
7.0424344129
 31
0.0
  0
LINE
  5
1E9
330
1F
100
AcDbEntity
  8
SK3
  6
SLD-Dashed
370
    18
100
AcDbLine
 10
4.6303042896
 20
7.0424344129
 30
0.0
 11
4.3270548477
 21
6.9297536506
 31
0.0
  0
LINE
  5
1EA
330
1F
100
AcDbEntity
  8
SK3
  6
SLD-Dashed
370
    18
100
AcDbLine
 10
4.3270548477
 20
6.9297536506
 30
0.0
 11
4.0350854021
 21
6.9297536506
 31
0.0
  0
LINE
  5
1EB
330
1F
100
AcDbEntity
  8
SK3
  6
SLD-Dashed
370
    18
100
AcDbLine
 10
4.0350854021
 20
6.9297536506
 30
0.0
 11
3.7713641558
 21
7.0424344129
 31
0.0
  0
LINE
  5
1EC
330
1F
100
AcDbEntity
  8
SK3
  6
SLD-Dashed
370
    18
100
AcDbLine
 10
3.7713641558
 20
7.0424344129
 30
0.0
 11
3.551217629
 21
7.2612473412
 31
0.0
  0
LINE
  5
1ED
330
1F
100
AcDbEntity
  8
SK3
  6
SLD-Dashed
370
    18
100
AcDbLine
 10
3.551217629
 20
7.2612473412
 30
0.0
 11
3.3874399376
 21
7.5734758234
 31
0.0
  0
LINE
  5
1EE
330
1F
100
AcDbEntity
  8
SK3
  6
SLD-Dashed
370
    18
100
AcDbLine
 10
3.3874399376
 20
7.5734758234
 30
0.0
 11
3.2895492458
 21
7.960974275
 31
0.0
  0
LINE
  5
1EF
330
1F
100
AcDbEntity
  8
SK3
  6
SLD-Dashed
370
    18
100
AcDbLine
 10
3.2895492458
 20
7.960974275
 30
0.0
 11
3.2632346046
 21
8.4012226946
 31
0.0
  0
LINE
  5
1F0
330
1F
100
AcDbEntity
  8
SK3
  6
SLD-Dashed
370
    18
100
AcDbLine
 10
3.2632346046
 20
8.4012226946
 30
0.0
 11
3.3100253255
 21
8.8686354442
 31
0.0
  0
LINE
  5
1F1
330
1F
100
AcDbEntity
  8
SK3
  6
SLD-Dashed
370
    18
100
AcDbLine
 10
3.2
 20
7.1668508159
 30
0.0
 11
3.2
 21
11.3022369236
 31
0.0
  0
LINE
  5
1F2
330
1F
100
AcDbEntity
  8
SK3
  6
SLD-Dashed
370
    18
100
AcDbLine
 10
3.2
 20
-11.3098348849
 30
0.0
 11
5.0549767861
 21
-10.7960759675
 31
0.0
  0
LINE
  5
1F3
330
1F
100
AcDbEntity
  8
SK3
  6
SLD-Dashed
370
    18
100
AcDbLine
 10
3.9873194828
 20
-6.941194921
 30
0.0
 11
3.2
 21
-7.1592528547
 31
0.0
  0
LINE
  5
1F4
330
1F
100
AcDbEntity
  8
SK3
  6
SLD-Dashed
370
    18
100
AcDbLine
 10
5.0416310698
 20
-10.7478899544
 30
0.0
 11
15.6885307418
 21
-7.7990985247
 31
0.0
  0
LINE
  5
1F5
330
1F
100
AcDbEntity
  8
SK3
  6
SLD-Dashed
370
    18
100
AcDbLine
 10
14.6475648711
 20
-4.0405895043
 30
0.0
 11
4.0006651991
 21
-6.989380934
 31
0.0
  0
LINE
  5
1F6
330
1F
100
AcDbEntity
  8
SK3
  6
SLD-Dashed
370
    18
100
AcDbLine
 10
9.465
 20
-8.3548704959
 30
0.0
 11
9.465
 21
-8.5505035831
 31
0.0
  0
LINE
  5
1F7
330
1F
100
AcDbEntity
  8
SK3
  6
SLD-Dashed
370
    18
100
AcDbLine
 10
12.765
 20
-8.5505035831
 30
0.0
 11
12.765
 21
-7.4416431317
 31
0.0
  0
LINE
  5
1F8
330
1F
100
AcDbEntity
  8
SK3
  6
SLD-Dashed
370
    18
100
AcDbLine
 10
9.465
 20
-2.3935154777
 30
0.0
 11
9.465
 21
-6.6425219029
 31
0.0
  0
LINE
  5
1F9
330
1F
100
AcDbEntity
  8
SK3
  6
SLD-Dashed
370
    18
100
AcDbLine
 10
12.765
 20
-5.7308030226
 30
0.0
 11
12.765
 21
-2.3925727663
 31
0.0
  0
LINE
  5
1FA
330
1F
100
AcDbEntity
  8
SK3
  6
SLD-Dashed
370
    18
100
AcDbLine
 10
-61.75
 20
8.8
 30
0.0
 11
-62.2696152423
 21
8.5
 31
0.0
  0
LINE
  5
1FB
330
1F
100
AcDbEntity
  8
SK3
  6
SLD-Dashed
370
    18
100
AcDbLine
 10
-62.2696152423
 20
-8.5
 30
0.0
 11
-61.75
 21
-8.8
 31
0.0
  0
LINE
  5
1FC
330
1F
100
AcDbEntity
  8
SK3
  6
SLD-Dashed
370
    18
100
AcDbLine
 10
-61.75
 20
-8.8
 30
0.0
 11
-59.75
 21
-8.8
 31
0.0
  0
LINE
  5
1FD
330
1F
100
AcDbEntity
  8
SK3
  6
SLD-Dashed
370
    18
100
AcDbLine
 10
-59.75
 20
8.8
 30
0.0
 11
-61.75
 21
8.8
 31
0.0
  0
LINE
  5
1FE
330
1F
100
AcDbEntity
  8
SK3
  6
SLD-Dashed
370
    18
100
AcDbLine
 10
-59.75
 20
-8.8
 30
0.0
 11
-58.7107695155
 21
-7.0
 31
0.0
  0
LINE
  5
1FF
330
1F
100
AcDbEntity
  8
SK3
  6
SLD-Dashed
370
    18
100
AcDbLine
 10
-58.7107695155
 20
7.0
 30
0.0
 11
-59.75
 21
8.8
 31
0.0
  0
LINE
  5
200
330
1F
100
AcDbEntity
  8
SK3
  6
SLD-Dashed
370
    18
100
AcDbLine
 10
56.0
 20
8.6442911166
 30
0.0
 11
23.5627916361
 21
8.6442911166
 31
0.0
  0
LINE
  5
201
330
1F
100
AcDbEntity
  8
SK3
  6
SLD-Dashed
370
    18
100
AcDbLine
 10
23.5614479684
 20
5.1442911166
 30
0.0
 11
56.0
 21
5.1442911166
 31
0.0
  0
LINE
  5
202
330
1F
100
AcDbEntity
  8
SK3
  6
SLD-Dashed
370
    18
100
AcDbLine
 10
20.4323803979
 20
8.6442911166
 30
0.0
 11
19.0
 21
8.6442911166
 31
0.0
  0
LINE
  5
203
330
1F
100
AcDbEntity
  8
SK3
  6
SLD-Dashed
370
    18
100
AcDbLine
 10
19.0
 20
5.1442911166
 30
0.0
 11
20.4383122547
 21
5.1442911166
 31
0.0
  0
LINE
  5
204
330
1F
100
AcDbEntity
  8
SK3
  6
SLD-Dashed
370
    18
100
AcDbLine
 10
19.0
 20
8.6442911166
 30
0.0
 11
17.9484939167
 21
6.8942911166
 31
0.0
  0
LINE
  5
205
330
1F
100
AcDbEntity
  8
SK3
  6
SLD-Dashed
370
    18
100
AcDbLine
 10
17.9484939167
 20
6.8942911166
 30
0.0
 11
19.0
 21
5.1442911166
 31
0.0
  0
LINE
  5
206
330
1F
100
AcDbEntity
  8
SK3
  6
SLD-Dashed
370
    18
100
AcDbLine
 10
56.0
 20
-5.1442911166
 30
0.0
 11
23.5616877453
 21
-5.1442911166
 31
0.0
  0
LINE
  5
207
330
1F
100
AcDbEntity
  8
SK3
  6
SLD-Dashed
370
    18
100
AcDbLine
 10
23.5676196021
 20
-8.6442911166
 30
0.0
 11
56.0
 21
-8.6442911166
 31
0.0
  0
LINE
  5
208
330
1F
100
AcDbEntity
  8
SK3
  6
SLD-Dashed
370
    18
100
AcDbLine
 10
20.4385520316
 20
-5.1442911166
 30
0.0
 11
19.0
 21
-5.1442911166
 31
0.0
  0
LINE
  5
209
330
1F
100
AcDbEntity
  8
SK3
  6
SLD-Dashed
370
    18
100
AcDbLine
 10
19.0
 20
-8.6442911166
 30
0.0
 11
20.4372083639
 21
-8.6442911166
 31
0.0
  0
LINE
  5
20A
330
1F
100
AcDbEntity
  8
SK3
  6
SLD-Dashed
370
    18
100
AcDbLine
 10
19.0
 20
-5.1442911166
 30
0.0
 11
17.9484939167
 21
-6.8942911166
 31
0.0
  0
LINE
  5
20B
330
1F
100
AcDbEntity
  8
SK3
  6
SLD-Dashed
370
    18
100
AcDbLine
 10
17.9484939167
 20
-6.8942911166
 30
0.0
 11
19.0
 21
-8.6442911166
 31
0.0
  0
LINE
  5
20C
330
1F
100
AcDbEntity
  8
SK3
  6
SLD-Dashed
370
    18
100
AcDbLine
 10
-66.9509618943
 20
-8.5
 30
0.0
 11
-62.2696152423
 21
-8.5
 31
0.0
  0
LINE
  5
20D
330
1F
100
AcDbEntity
  8
SK3
  6
SLD-Dashed
370
    18
100
AcDbLine
 10
-62.2696152423
 20
8.5
 30
0.0
 11
-66.9509618943
 21
8.5
 31
0.0
  0
LINE
  5
20E
330
1F
100
AcDbEntity
  8
SK3
  6
SLD-Dashed
370
    18
100
AcDbLine
 10
56.0
 20
7.6547005384
 30
0.0
 11
54.0
 21
6.5
 31
0.0
  0
LINE
  5
20F
330
1F
100
AcDbEntity
  8
SK3
  6
SLD-Dashed
370
    18
100
AcDbLine
 10
54.0
 20
-6.5
 30
0.0
 11
56.0
 21
-7.6547005384
 31
0.0
  0
LINE
  5
210
330
1F
100
AcDbEntity
  8
SK3
  6
SLD-Dashed
370
    18
100
AcDbLine
 10
-58.7107695155
 20
-7.0
 30
0.0
 11
23.75
 21
-7.0
 31
0.0
  0
LINE
  5
211
330
1F
100
AcDbEntity
  8
SK3
  6
SLD-Dashed
370
    18
100
AcDbLine
 10
23.75
 20
7.0
 30
0.0
 11
-58.7107695155
 21
7.0
 31
0.0
  0
LINE
  5
212
330
1F
100
AcDbEntity
  8
SK3
  6
SLD-Dashed
370
    18
100
AcDbLine
 10
23.75
 20
-7.0
 30
0.0
 11
24.8916351762
 21
-5.1
 31
0.0
  0
LINE
  5
213
330
1F
100
AcDbEntity
  8
SK3
  6
SLD-Dashed
370
    18
100
AcDbLine
 10
24.8916351762
 20
5.1
 30
0.0
 11
23.75
 21
7.0
 31
0.0
  0
LINE
  5
214
330
1F
100
AcDbEntity
  8
SK3
  6
SLD-Dashed
370
    18
100
AcDbLine
 10
28.2
 20
-24.0
 30
0.0
 11
28.2
 21
-23.1
 31
0.0
  0
LINE
  5
215
330
1F
100
AcDbEntity
  8
SK3
  6
SLD-Dashed
370
    18
100
AcDbLine
 10
50.5
 20
6.5
 30
0.0
 11
49.6587951334
 21
5.1
 31
0.0
  0
LINE
  5
216
330
1F
100
AcDbEntity
  8
SK3
  6
SLD-Dashed
370
    18
100
AcDbLine
 10
49.6587951334
 20
-5.1
 30
0.0
 11
50.5
 21
-6.5
 31
0.0
  0
LINE
  5
217
330
1F
100
AcDbEntity
  8
SK3
  6
SLD-Dashed
370
    18
100
AcDbLine
 10
54.0
 20
6.5
 30
0.0
 11
50.5
 21
6.5
 31
0.0
  0
LINE
  5
218
330
1F
100
AcDbEntity
  8
SK3
  6
SLD-Dashed
370
    18
100
AcDbLine
 10
50.5
 20
-6.5
 30
0.0
 11
54.0
 21
-6.5
 31
0.0
  0
LINE
  5
219
330
1F
100
AcDbEntity
  8
SK3
  6
SLD-Dashed
370
    18
100
AcDbLine
 10
49.6587951334
 20
5.1
 30
0.0
 11
24.8916351762
 21
5.1
 31
0.0
  0
LINE
  5
21A
330
1F
100
AcDbEntity
  8
SK3
  6
SLD-Dashed
370
    18
100
AcDbLine
 10
24.8916351762
 20
-5.1
 30
0.0
 11
49.6587951334
 21
-5.1
 31
0.0
  0
LINE
  5
21B
330
1F
100
AcDbEntity
  8
SK3
  6
SLD-Dashed
370
    18
100
AcDbLine
 10
6.1
 20
24.8
 30
0.0
 11
6.1
 21
20.3
 31
0.0
  0
LINE
  5
21C
330
1F
100
AcDbEntity
  8
SK3
  6
SLD-Dashed
370
    18
100
AcDbLine
 10
16.1
 20
20.3
 30
0.0
 11
16.1
 21
24.8
 31
0.0
  0
LINE
  5
21D
330
1F
100
AcDbEntity
  8
SK3
  6
SLD-Dashed
370
    18
100
AcDbLine
 10
23.5627916361
 20
8.6442911166
 30
0.0
 11
23.5616877453
 21
8.6442911166
 31
0.0
  0
LINE
  5
21E
330
1F
100
AcDbEntity
  8
SK3
  6
SLD-Dashed
370
    18
100
AcDbLine
 10
23.5676196021
 20
5.1442911166
 30
0.0
 11
56.0
 21
5.1442911166
 31
0.0
  0
LINE
  5
21F
330
1F
100
AcDbEntity
  8
SK3
  6
SLD-Dashed
370
    18
100
AcDbLine
 10
20.4385520316
 20
8.6442911166
 30
0.0
 11
20.4323803979
 21
8.6442911166
 31
0.0
  0
LINE
  5
220
330
1F
100
AcDbEntity
  8
SK3
  6
SLD-Dashed
370
    18
100
AcDbLine
 10
19.0
 20
5.1442911166
 30
0.0
 11
20.4372083639
 21
5.1442911166
 31
0.0
  0
LINE
  5
221
330
1F
100
AcDbEntity
  8
SK3
  6
SLD-Dashed
370
    18
100
AcDbLine
 10
19.0
 20
8.6442911166
 30
0.0
 11
17.9484939167
 21
6.8942911166
 31
0.0
  0
LINE
  5
222
330
1F
100
AcDbEntity
  8
SK3
  6
SLD-Dashed
370
    18
100
AcDbLine
 10
17.9484939167
 20
6.8942911166
 30
0.0
 11
19.0
 21
5.1442911166
 31
0.0
  0
LINE
  5
223
330
1F
100
AcDbEntity
  8
SK3
  6
SLD-Dashed
370
    18
100
AcDbLine
 10
56.0
 20
-5.1442911166
 30
0.0
 11
23.5627916361
 21
-5.1442911166
 31
0.0
  0
LINE
  5
224
330
1F
100
AcDbEntity
  8
SK3
  6
SLD-Dashed
370
    18
100
AcDbLine
 10
23.5614479684
 20
-8.6442911166
 30
0.0
 11
23.5676196021
 21
-8.6442911166
 31
0.0
  0
LINE
  5
225
330
1F
100
AcDbEntity
  8
SK3
  6
SLD-Dashed
370
    18
100
AcDbLine
 10
20.4323803979
 20
-5.1442911166
 30
0.0
 11
19.0
 21
-5.1442911166
 31
0.0
  0
LINE
  5
226
330
1F
100
AcDbEntity
  8
SK3
  6
SLD-Dashed
370
    18
100
AcDbLine
 10
20.4372083639
 20
-8.6442911166
 30
0.0
 11
20.4383122547
 21
-8.6442911166
 31
0.0
  0
LINE
  5
227
330
1F
100
AcDbEntity
  8
SK3
  6
SLD-Dashed
370
    18
100
AcDbLine
 10
19.0
 20
-5.1442911166
 30
0.0
 11
17.9484939167
 21
-6.8942911166
 31
0.0
  0
LINE
  5
228
330
1F
100
AcDbEntity
  8
SK3
  6
SLD-Dashed
370
    18
100
AcDbLine
 10
17.9484939167
 20
-6.8942911166
 30
0.0
 11
19.0
 21
-8.6442911166
 31
0.0
  0
LINE
  5
229
330
1F
100
AcDbEntity
  8
SK3
  6
SLD-Dashed
370
    18
100
AcDbLine
 10
9.465
 20
6.6432994571
 30
0.0
 11
9.465
 21
2.3925727663
 31
0.0
  0
LINE
  5
22A
330
1F
100
AcDbEntity
  8
SK3
  6
SLD-Dashed
370
    18
100
AcDbLine
 10
12.765
 20
2.3935154777
 30
0.0
 11
12.765
 21
5.7292737689
 31
0.0
  0
LINE
  5
22B
330
1F
100
AcDbEntity
  8
SK3
  6
SLD-Dashed
370
    18
100
AcDbLine
 10
4.0006651991
 20
6.989380934
 30
0.0
 11
14.6475648711
 21
4.0405895043
 31
0.0
  0
LINE
  5
22C
330
1F
100
AcDbEntity
  8
SK3
  6
SLD-Dashed
370
    18
100
AcDbLine
 10
15.6885307418
 20
7.7990985247
 30
0.0
 11
5.0416310698
 21
10.7478899544
 31
0.0
  0
LINE
  5
22D
330
1F
100
AcDbEntity
  8
SK3
  6
SLD-Dashed
370
    18
100
AcDbLine
 10
9.465
 20
8.4376369358
 30
0.0
 11
9.465
 21
8.3559232747
 31
0.0
  0
LINE
  5
22E
330
1F
100
AcDbEntity
  8
SK3
  6
SLD-Dashed
370
    18
100
AcDbLine
 10
12.765
 20
7.4414734354
 30
0.0
 11
12.765
 21
8.4376369358
 31
0.0
  0
LINE
  5
22F
330
1F
100
AcDbEntity
  8
SK3
  6
SLD-Dashed
370
    18
100
AcDbLine
 10
3.2
 20
7.1592528547
 30
0.0
 11
3.9873194828
 21
6.941194921
 31
0.0
  0
LINE
  5
230
330
1F
100
AcDbEntity
  8
SK3
  6
SLD-Dashed
370
    18
100
AcDbLine
 10
5.0549767861
 20
10.7960759675
 30
0.0
 11
3.2
 21
11.3098348849
 31
0.0
  0
LINE
  5
231
330
1F
100
AcDbEntity
  8
SK3
  6
SLD-Dashed
370
    18
100
AcDbLine
 10
56.0
 20
8.6442911166
 30
0.0
 11
23.5627916361
 21
8.6442911166
 31
0.0
  0
LINE
  5
232
330
1F
100
AcDbEntity
  8
SK3
  6
SLD-Dashed
370
    18
100
AcDbLine
 10
20.4323803979
 20
8.6442911166
 30
0.0
 11
19.0
 21
8.6442911166
 31
0.0
  0
LINE
  5
233
330
1F
100
AcDbEntity
  8
SK3
  6
SLD-Dashed
370
    18
100
AcDbLine
 10
23.5676196021
 20
-8.6442911166
 30
0.0
 11
56.0
 21
-8.6442911166
 31
0.0
  0
LINE
  5
234
330
1F
100
AcDbEntity
  8
SK3
  6
SLD-Dashed
370
    18
100
AcDbLine
 10
19.0
 20
-8.6442911166
 30
0.0
 11
20.4372083639
 21
-8.6442911166
 31
0.0
  0
LINE
  5
235
330
1F
100
AcDbEntity
  8
SK3
  6
SLD-Solid
370
    18
100
AcDbLine
 10
-35.249998945
 20
8.00000038
 30
0.0
 11
-59.2881200492
 21
8.00000038
 31
0.0
  0
LINE
  5
236
330
1F
100
AcDbEntity
  8
SK3
  6
SLD-Solid
370
    18
100
AcDbLine
 10
-59.2881200492
 20
-8.00000038
 30
0.0
 11
-35.249998945
 21
-8.00000038
 31
0.0
  0
LINE
  5
237
330
1F
100
AcDbEntity
  8
SK3
  6
SLD-Solid
370
    18
100
AcDbLine
 10
-35.249998945
 20
8.00000038
 30
0.0
 11
-35.249998945
 21
7.9147471115
 31
0.0
  0
LINE
  5
238
330
1F
100
AcDbEntity
  8
SK3
  6
SLD-Solid
370
    18
100
AcDbLine
 10
-35.2500208955
 20
7.9147471115
 30
0.0
 11
-35.249998945
 21
7.6608047821
 31
0.0
  0
LINE
  5
239
330
1F
100
AcDbEntity
  8
SK3
  6
SLD-Solid
370
    18
100
AcDbLine
 10
-35.249998945
 20
7.6608047821
 30
0.0
 11
-35.249998945
 21
7.2435857728
 31
0.0
  0
LINE
  5
23A
330
1F
100
AcDbEntity
  8
SK3
  6
SLD-Solid
370
    18
100
AcDbLine
 10
-35.249998945
 20
7.2435857728
 30
0.0
 11
-35.249998945
 21
6.6719823517
 31
0.0
  0
LINE
  5
23B
330
1F
100
AcDbEntity
  8
SK3
  6
SLD-Solid
370
    18
100
AcDbLine
 10
-35.249998945
 20
6.6719823517
 30
0.0
 11
-35.249998945
 21
5.958177615
 31
0.0
  0
LINE
  5
23C
330
1F
100
AcDbEntity
  8
SK3
  6
SLD-Solid
370
    18
100
AcDbLine
 10
-35.249998945
 20
5.958177615
 30
0.0
 11
-35.249998945
 21
5.1173842512
 31
0.0
  0
LINE
  5
23D
330
1F
100
AcDbEntity
  8
SK3
  6
SLD-Solid
370
    18
100
AcDbLine
 10
-35.249998945
 20
5.1173842512
 30
0.0
 11
-35.249998945
 21
4.1675227694
 31
0.0
  0
LINE
  5
23E
330
1F
100
AcDbEntity
  8
SK3
  6
SLD-Solid
370
    18
100
AcDbLine
 10
-35.249998945
 20
4.1675227694
 30
0.0
 11
-35.249998945
 21
3.1288377941
 31
0.0
  0
LINE
  5
23F
330
1F
100
AcDbEntity
  8
SK3
  6
SLD-Solid
370
    18
100
AcDbLine
 10
-35.249998945
 20
3.1288377941
 30
0.0
 11
-35.249998945
 21
2.0234670956
 31
0.0
  0
LINE
  5
240
330
1F
100
AcDbEntity
  8
SK3
  6
SLD-Solid
370
    18
100
AcDbLine
 10
-35.249998945
 20
2.0234670956
 30
0.0
 11
-35.249998945
 21
0.8749696426
 31
0.0
  0
LINE
  5
241
330
1F
100
AcDbEntity
  8
SK3
  6
SLD-Solid
370
    18
100
AcDbLine
 10
-35.249998945
 20
0.8749696426
 30
0.0
 11
-35.249998945
 21
-0.292176177
 31
0.0
  0
LINE
  5
242
330
1F
100
AcDbEntity
  8
SK3
  6
SLD-Solid
370
    18
100
AcDbLine
 10
-35.249998945
 20
-0.292176177
 30
0.0
 11
-35.249998945
 21
-1.4530947665
 31
0.0
  0
LINE
  5
243
330
1F
100
AcDbEntity
  8
SK3
  6
SLD-Solid
370
    18
100
AcDbLine
 10
-35.249998945
 20
-1.4530947665
 30
0.0
 11
-35.249998945
 21
-2.5830431841
 31
0.0
  0
LINE
  5
244
330
1F
100
AcDbEntity
  8
SK3
  6
SLD-Solid
370
    18
100
AcDbLine
 10
-35.249998945
 20
-2.5830431841
 30
0.0
 11
-35.249998945
 21
-3.6579386797
 31
0.0
  0
LINE
  5
245
330
1F
100
AcDbEntity
  8
SK3
  6
SLD-Solid
370
    18
100
AcDbLine
 10
-35.249998945
 20
-3.6579386797
 30
0.0
 11
-35.249998945
 21
-4.6548712999
 31
0.0
  0
LINE
  5
246
330
1F
100
AcDbEntity
  8
SK3
  6
SLD-Solid
370
    18
100
AcDbLine
 10
-35.249998945
 20
-4.6548712999
 30
0.0
 11
-35.249998945
 21
-5.5525936186
 31
0.0
  0
LINE
  5
247
330
1F
100
AcDbEntity
  8
SK3
  6
SLD-Solid
370
    18
100
AcDbLine
 10
-35.249998945
 20
-5.5525936186
 30
0.0
 11
-35.249998945
 21
-6.3319718465
 31
0.0
  0
LINE
  5
248
330
1F
100
AcDbEntity
  8
SK3
  6
SLD-Solid
370
    18
100
AcDbLine
 10
-35.249998945
 20
-6.3319718465
 30
0.0
 11
-35.249998945
 21
-6.9763953798
 31
0.0
  0
LINE
  5
249
330
1F
100
AcDbEntity
  8
SK3
  6
SLD-Solid
370
    18
100
AcDbLine
 10
-35.249998945
 20
-6.9763953798
 30
0.0
 11
-35.249998945
 21
-7.472129073
 31
0.0
  0
LINE
  5
24A
330
1F
100
AcDbEntity
  8
SK3
  6
SLD-Solid
370
    18
100
AcDbLine
 10
-35.249998945
 20
-7.472129073
 30
0.0
 11
-35.249998945
 21
-7.8086070716
 31
0.0
  0
LINE
  5
24B
330
1F
100
AcDbEntity
  8
SK3
  6
SLD-Solid
370
    18
100
AcDbLine
 10
-35.249998945
 20
-7.8086070716
 30
0.0
 11
-35.249998945
 21
-7.9786581919
 31
0.0
  0
LINE
  5
24C
330
1F
100
AcDbEntity
  8
SK3
  6
SLD-Solid
370
    18
100
AcDbLine
 10
-35.249998945
 20
-7.9786581919
 30
0.0
 11
-35.249998945
 21
-8.00000038
 31
0.0
  0
LINE
  5
24D
330
1F
100
AcDbEntity
  8
SK3
  6
SLD-Solid
370
    18
100
AcDbLine
 10
24.3508609354
 20
-6.0000000522
 30
0.0
 11
50.1995699823
 21
-6.0000000522
 31
0.0
  0
LINE
  5
24E
330
1F
100
AcDbEntity
  8
SK3
  6
SLD-Solid
370
    18
100
AcDbLine
 10
50.1995699823
 20
6.0000000522
 30
0.0
 11
24.3508609354
 21
6.0000000522
 31
0.0
  0
LINE
  5
24F
330
1F
100
AcDbEntity
  8
SK3
  6
SLD-Solid
370
    18
100
AcDbLine
 10
24.3508609354
 20
0.0
 30
0.0
 11
24.3508609354
 21
1.0140049271
 31
0.0
  0
LINE
  5
250
330
1F
100
AcDbEntity
  8
SK3
  6
SLD-Solid
370
    18
100
AcDbLine
 10
24.3508389849
 20
1.0140049271
 30
0.0
 11
24.3508609354
 21
1.9988387357
 31
0.0
  0
LINE
  5
251
330
1F
100
AcDbEntity
  8
SK3
  6
SLD-Solid
370
    18
100
AcDbLine
 10
24.3508609354
 20
1.9988387357
 30
0.0
 11
24.3508609354
 21
2.9261696618
 31
0.0
  0
LINE
  5
252
330
1F
100
AcDbEntity
  8
SK3
  6
SLD-Solid
370
    18
100
AcDbLine
 10
24.3508609354
 20
2.9261696618
 30
0.0
 11
24.3508609354
 21
3.7693199702
 31
0.0
  0
LINE
  5
253
330
1F
100
AcDbEntity
  8
SK3
  6
SLD-Solid
370
    18
100
AcDbLine
 10
24.3508609354
 20
3.7693199702
 30
0.0
 11
24.3508609354
 21
4.50403383
 31
0.0
  0
LINE
  5
254
330
1F
100
AcDbEntity
  8
SK3
  6
SLD-Solid
370
    18
100
AcDbLine
 10
24.3508609354
 20
4.50403383
 30
0.0
 11
24.3508609354
 21
5.1091746427
 31
0.0
  0
LINE
  5
255
330
1F
100
AcDbEntity
  8
SK3
  6
SLD-Solid
370
    18
100
AcDbLine
 10
24.3508609354
 20
5.1091746427
 30
0.0
 11
24.3508609354
 21
5.5673341267
 31
0.0
  0
LINE
  5
256
330
1F
100
AcDbEntity
  8
SK3
  6
SLD-Solid
370
    18
100
AcDbLine
 10
24.3508609354
 20
5.5673341267
 30
0.0
 11
24.3508609354
 21
5.8653312735
 31
0.0
  0
LINE
  5
257
330
1F
100
AcDbEntity
  8
SK3
  6
SLD-Solid
370
    18
100
AcDbLine
 10
24.3508609354
 20
5.8653312735
 30
0.0
 11
24.3508609354
 21
5.9945937246
 31
0.0
  0
LINE
  5
258
330
1F
100
AcDbEntity
  8
SK3
  6
SLD-Solid
370
    18
100
AcDbLine
 10
24.3508609354
 20
5.9945937246
 30
0.0
 11
24.3508609354
 21
6.0000000522
 31
0.0
  0
LINE
  5
259
330
1F
100
AcDbEntity
  8
SK3
  6
SLD-Solid
370
    18
100
AcDbLine
 10
24.3508389849
 20
-6.0000000522
 30
0.0
 11
24.3508609354
 21
-5.9945937246
 31
0.0
  0
LINE
  5
25A
330
1F
100
AcDbEntity
  8
SK3
  6
SLD-Solid
370
    18
100
AcDbLine
 10
24.3508609354
 20
-5.9945937246
 30
0.0
 11
24.3508609354
 21
-5.8653312735
 31
0.0
  0
LINE
  5
25B
330
1F
100
AcDbEntity
  8
SK3
  6
SLD-Solid
370
    18
100
AcDbLine
 10
24.3508609354
 20
-5.8653312735
 30
0.0
 11
24.3508609354
 21
-5.5673341267
 31
0.0
  0
LINE
  5
25C
330
1F
100
AcDbEntity
  8
SK3
  6
SLD-Solid
370
    18
100
AcDbLine
 10
24.3508609354
 20
-5.5673341267
 30
0.0
 11
24.3508609354
 21
-5.1091746427
 31
0.0
  0
LINE
  5
25D
330
1F
100
AcDbEntity
  8
SK3
  6
SLD-Solid
370
    18
100
AcDbLine
 10
24.3508609354
 20
-5.1091746427
 30
0.0
 11
24.3508609354
 21
-4.50403383
 31
0.0
  0
LINE
  5
25E
330
1F
100
AcDbEntity
  8
SK3
  6
SLD-Solid
370
    18
100
AcDbLine
 10
24.3508609354
 20
-4.50403383
 30
0.0
 11
24.3508609354
 21
-3.7693199702
 31
0.0
  0
LINE
  5
25F
330
1F
100
AcDbEntity
  8
SK3
  6
SLD-Solid
370
    18
100
AcDbLine
 10
24.3508609354
 20
-3.7693199702
 30
0.0
 11
24.3508609354
 21
-2.9261696618
 31
0.0
  0
LINE
  5
260
330
1F
100
AcDbEntity
  8
SK3
  6
SLD-Solid
370
    18
100
AcDbLine
 10
24.3508609354
 20
-2.9261696618
 30
0.0
 11
24.3508609354
 21
-1.9988387357
 31
0.0
  0
LINE
  5
261
330
1F
100
AcDbEntity
  8
SK3
  6
SLD-Solid
370
    18
100
AcDbLine
 10
24.3508609354
 20
-1.9988387357
 30
0.0
 11
24.3508609354
 21
-1.0140049271
 31
0.0
  0
LINE
  5
262
330
1F
100
AcDbEntity
  8
SK3
  6
SLD-Solid
370
    18
100
AcDbLine
 10
24.3508609354
 20
-1.0140049271
 30
0.0
 11
24.3508609354
 21
0.0
 31
0.0
  0
LINE
  5
263
330
1F
100
AcDbEntity
  8
SK1
  6
SLD-Solid
370
    18
100
AcDbLine
 10
55.9999997139
 20
-4.9999998882
 30
0.0
 11
59.4296584249
 21
-4.9999998882
 31
0.0
  0
LINE
  5
264
330
1F
100
AcDbEntity
  8
SK1
  6
SLD-Solid
370
    18
100
AcDbLine
 10
59.4296584249
 20
4.9999998882
 30
0.0
 11
55.9999997139
 21
4.9999998882
 31
0.0
  0
LINE
  5
265
330
1F
100
AcDbEntity
  8
4
  6
SLD-Center
370
    18
100
AcDbLine
 10
58.0
 20
0.0
 30
0.0
 11
0.5959806609
 21
0.0
 31
0.0
  0
LINE
  5
266
330
1F
100
AcDbEntity
  8
SK4
  6
SLD-Center
370
    18
100
AcDbLine
 10
57.6119468653
 20
0.0
 30
0.0
 11
-68.9509618943
 21
0.0
 31
0.0
  0
ARC
  5
267
330
1F
100
AcDbEntity
  8
1
  6
SLD-Solid
370
    25
100
AcDbCircle
 10
21.05
 20
26.0
 30
0.0
 40
2.000000000000004
100
AcDbArc
 50
216.8997290056
 51
270.0
  0
ARC
  5
268
330
1F
100
AcDbEntity
  8
1
  6
SLD-Solid
370
    25
100
AcDbCircle
 10
34.2
 20
-23.2
 30
0.0
 40
0.7999999999999972
100
AcDbArc
 50
270.0
 51
0.0
  0
ARC
  5
269
330
1F
100
AcDbEntity
  8
1
  6
SLD-Solid
370
    25
100
AcDbCircle
 10
34.2
 20
23.2
 30
0.0
 40
0.7999999999999972
100
AcDbArc
 50
0.0
 51
90.0
  0
ARC
  5
26A
330
1F
100
AcDbEntity
  8
1
  6
SLD-Solid
370
    25
100
AcDbCircle
 10
2.45
 20
22.79
 30
0.0
 40
0.7500000000000009
100
AcDbArc
 50
245.0
 51
0.0
  0
ARC
  5
26B
330
1F
100
AcDbEntity
  8
1
  6
SLD-Solid
370
    25
100
AcDbCircle
 10
2.45
 20
-22.79
 30
0.0
 40
0.7500000000000043
100
AcDbArc
 50
14.6323528291
 51
115.0
  0
ARC
  5
26C
330
1F
100
AcDbEntity
  8
SK1
  6
SLD-Solid
370
    25
100
AcDbCircle
 10
35.42
 20
14.0475
 30
0.0
 40
0.8000000000000049
100
AcDbArc
 50
238.3317567465
 51
287.5
  0
ARC
  5
26D
330
1F
100
AcDbEntity
  8
SK1
  6
SLD-Solid
370
    25
100
AcDbCircle
 10
35.42
 20
-14.0475
 30
0.0
 40
0.7999999999999965
100
AcDbArc
 50
72.5
 51
121.6682432535
  0
ARC
  5
26E
330
1F
100
AcDbEntity
  8
SK1
  6
SLD-Solid
370
    25
100
AcDbCircle
 10
-67.25
 20
11.4070377962
 30
0.0
 40
1.000000000000005
100
AcDbArc
 50
98.2972222222
 51
180.0
  0
ARC
  5
26F
330
1F
100
AcDbEntity
  8
SK1
  6
SLD-Solid
370
    25
100
AcDbCircle
 10
-67.25
 20
-11.4070377962
 30
0.0
 40
1.0
100
AcDbArc
 50
180.0
 51
261.7027777778
  0
SPLINE
  5
270
330
1F
100
AcDbEntity
  8
SK1
  6
SLD-Solid
370
    25
100
AcDbSpline
210
0.0
220
0.0
230
1.0
 70
    24
 71
     3
 72
    10
 73
     6
 74
     0
 42
0.000000001
 43
0.00000001
 40
0.0
 40
0.0
 40
0.0
 40
0.0
 40
0.4027988728620575
 40
0.807897696645679
 40
1.0
 40
1.0
 40
1.0
 40
1.0
 10
39.92879311067463
 20
-13.7
 30
0.0
 10
40.15750159047453
 20
-13.7
 30
0.0
 10
40.6162244580952
 20
-13.69999999999999
 30
0.0
 10
41.07966316498155
 20
-13.7
 30
0.0
 10
41.24637396483322
 20
-13.7
 30
0.0
 10
41.29999999999998
 20
-13.7
 30
0.0
  0
SPLINE
  5
271
330
1F
100
AcDbEntity
  8
SK1
  6
SLD-Solid
370
    25
100
AcDbSpline
210
0.0
220
0.0
230
1.0
 70
    24
 71
     3
 72
    10
 73
     6
 74
     0
 42
0.000000001
 43
0.00000001
 40
0.0
 40
0.0
 40
0.0
 40
0.0
 40
0.3770172836811847
 40
0.7596010805974825
 40
1.0
 40
1.0
 40
1.0
 40
1.0
 10
41.3
 20
-22.30000000000001
 30
0.0
 10
41.18200556194204
 20
-22.30000000000001
 30
0.0
 10
40.94427454394149
 20
-22.30000000000001
 30
0.0
 10
40.42344809613063
 20
-22.3
 30
0.0
 10
40.06652423566125
 20
-22.3
 30
0.0
 10
39.92879311067463
 20
-22.3
 30
0.0
  0
SPLINE
  5
272
330
1F
100
AcDbEntity
  8
SK1
  6
SLD-Solid
370
    25
100
AcDbSpline
210
0.0
220
0.0
230
1.0
 70
     8
 71
     3
 72
    12
 73
     8
 74
     0
 42
0.000000001
 43
0.00000001
 40
0.0
 40
0.0
 40
0.0
 40
0.0
 40
0.0495219368375609
 40
0.3119037706856319
 40
0.5803450651012649
 40
0.7887262591258113
 40
1.0
 40
1.0
 40
1.0
 40
1.0
 10
39.92879311067463
 20
-21.39017167706887
 30
0.0
 10
39.95919623424633
 20
-21.28082838186223
 30
0.0
 10
40.15068407757811
 20
-20.59215204462572
 30
0.0
 10
40.41668411845886
 20
-19.28380763653298
 30
0.0
 10
40.47890807553573
 20
-17.58222838103087
 30
0.0
 10
40.2920396705653
 20
-16.0107515050321
 30
0.0
 10
40.05043040901707
 20
-15.07894360129005
 30
0.0
 10
39.92879311067465
 20
-14.60982832293112
 30
0.0
  0
SPLINE
  5
273
330
1F
100
AcDbEntity
  8
SK1
  6
SLD-Solid
370
    25
100
AcDbSpline
210
0.0
220
0.0
230
1.0
 70
    24
 71
     3
 72
    10
 73
     6
 74
     0
 42
0.000000001
 43
0.00000001
 40
0.0
 40
0.0
 40
0.0
 40
0.0
 40
0.4027988728620575
 40
0.8078976966456791
 40
1.0
 40
1.0
 40
1.0
 40
1.0
 10
39.92879311067463
 20
22.3
 30
0.0
 10
40.15750159047453
 20
22.3
 30
0.0
 10
40.61622445809518
 20
22.3
 30
0.0
 10
41.07966316498158
 20
22.3
 30
0.0
 10
41.24637396483319
 20
22.3
 30
0.0
 10
41.29999999999998
 20
22.3
 30
0.0
  0
SPLINE
  5
274
330
1F
100
AcDbEntity
  8
SK1
  6
SLD-Solid
370
    25
100
AcDbSpline
210
0.0
220
0.0
230
1.0
 70
    24
 71
     3
 72
    10
 73
     6
 74
     0
 42
0.000000001
 43
0.00000001
 40
0.0
 40
0.0
 40
0.0
 40
0.0
 40
0.3770172836811847
 40
0.7596010805974824
 40
1.0
 40
1.0
 40
1.0
 40
1.0
 10
41.3
 20
13.7
 30
0.0
 10
41.18200556194204
 20
13.7
 30
0.0
 10
40.94427454394146
 20
13.7
 30
0.0
 10
40.42344809613066
 20
13.7
 30
0.0
 10
40.06652423566125
 20
13.7
 30
0.0
 10
39.92879311067465
 20
13.7
 30
0.0
  0
SPLINE
  5
275
330
1F
100
AcDbEntity
  8
SK1
  6
SLD-Solid
370
    25
100
AcDbSpline
210
0.0
220
0.0
230
1.0
 70
     8
 71
     3
 72
    12
 73
     8
 74
     0
 42
0.000000001
 43
0.00000001
 40
0.0
 40
0.0
 40
0.0
 40
0.0
 40
0.0495219368375609
 40
0.311903770685632
 40
0.5803450651012653
 40
0.7887262591258117
 40
1.0
 40
1.0
 40
1.0
 40
1.0
 10
39.92879311067463
 20
14.60982832293112
 30
0.0
 10
39.95919623424631
 20
14.71917161813779
 30
0.0
 10
40.15068407757806
 20
15.4078479553743
 30
0.0
 10
40.41668411845887
 20
16.71619236346701
 30
0.0
 10
40.47890807553568
 20
18.41777161896913
 30
0.0
 10
40.2920396705653
 20
19.9892484949679
 30
0.0
 10
40.05043040901707
 20
20.92105639870994
 30
0.0
 10
39.92879311067463
 20
21.39017167706887
 30
0.0
  0
SPLINE
  5
276
330
1F
100
AcDbEntity
  8
1
  6
SLD-Solid
370
    25
100
AcDbSpline
210
0.0
220
0.0
230
1.0
 70
    24
 71
     3
 72
     8
 73
     4
 74
     0
 42
0.000000001
 43
0.00000001
 40
0.0
 40
0.0
 40
0.0
 40
0.0
 40
0.2500000000000016
 40
0.2500000000000016
 40
0.2500000000000016
 40
0.2500000000000016
 10
18.29999999999998
 20
18.35
 30
0.0
 10
18.41088345614662
 20
18.35000000000001
 30
0.0
 10
18.52024195941293
 20
18.35
 30
0.0
 10
18.61523568267817
 20
18.35
 30
0.0
  0
SPLINE
  5
277
330
1F
100
AcDbEntity
  8
1
  6
SLD-Solid
370
    25
100
AcDbSpline
210
0.0
220
0.0
230
1.0
 70
    24
 71
     3
 72
     8
 73
     4
 74
     0
 42
0.000000001
 43
0.00000001
 40
0.2500000000000016
 40
0.2500000000000016
 40
0.2500000000000016
 40
0.2500000000000016
 40
0.5000000000000032
 40
0.5000000000000032
 40
0.5000000000000032
 40
0.5000000000000032
 10
18.61523568267817
 20
18.35
 30
0.0
 10
18.71022940594341
 20
18.35
 30
0.0
 10
18.79255896697542
 20
18.35
 30
0.0
 10
18.85764337275062
 20
18.35
 30
0.0
  0
SPLINE
  5
278
330
1F
100
AcDbEntity
  8
1
  6
SLD-Solid
370
    25
100
AcDbSpline
210
0.0
220
0.0
230
1.0
 70
    24
 71
     2
 72
     6
 73
     3
 74
     0
 42
0.000000001
 43
0.00000001
 40
0.5000000000000032
 40
0.5000000000000032
 40
0.5000000000000032
 40
1.0
 40
1.0
 40
1.0
 10
18.85764337275062
 20
18.35
 30
0.0
 10
18.987812184301
 20
18.35
 30
0.0
 10
19.04999999999997
 20
18.35
 30
0.0
  0
SPLINE
  5
279
330
1F
100
AcDbEntity
  8
1
  6
SLD-Solid
370
    25
100
AcDbSpline
210
0.0
220
0.0
230
1.0
 70
     8
 71
     3
 72
    17
 73
    13
 74
     0
 42
0.000000001
 43
0.00000001
 40
0.0
 40
0.0
 40
0.0
 40
0.0
 40
0.062888839343548
 40
0.1261871275319622
 40
0.1899037534249089
 40
0.2540473816738982
 40
0.3769828763901653
 40
0.5053904312550273
 40
0.752620993306618
 40
0.876363866500263
 40
0.9298286820661341
 40
1.0
 40
1.0
 40
1.0
 40
1.0
 10
18.29999999999998
 20
-30.57536093714899
 30
0.0
 10
18.32473940560902
 20
-30.57465594167985
 30
0.0
 10
18.37437928707667
 20
-30.57324136074465
 30
0.0
 10
18.44833901277
 20
-30.56178759453697
 30
0.0
 10
18.52129074242585
 20
-30.54345449289426
 30
0.0
 10
18.61401074915744
 20
-30.50982007141412
 30
0.0
 10
18.72368115274602
 20
-30.45067100774601
 30
0.0
 10
18.87482175058837
 20
-30.32567342262592
 30
0.0
 10
18.98542580350486
 20
-30.1582695771333
 30
0.0
 10
19.03258772949069
 20
-29.99927683061842
 30
0.0
 10
19.04763881080961
 20
-29.90415332047048
 30
0.0
 10
19.04914509088189
 20
-29.85609645199253
 30
0.0
 10
19.04999999999997
 20
-29.82882114257114
 30
0.0
  0
SPLINE
  5
27A
330
1F
100
AcDbEntity
  8
1
  6
SLD-Solid
370
    25
100
AcDbSpline
210
0.0
220
0.0
230
1.0
 70
    24
 71
     2
 72
     6
 73
     3
 74
     0
 42
0.000000001
 43
0.00000001
 40
0.0
 40
0.0
 40
0.0
 40
0.25
 40
0.25
 40
0.25
 10
3.200000000000619
 20
18.35000000000205
 30
0.0
 10
3.215534372041931
 20
18.35000000000205
 30
0.0
 10
3.247177760215381
 20
18.35000000000205
 30
0.0
  0
SPLINE
  5
27B
330
1F
100
AcDbEntity
  8
1
  6
SLD-Solid
370
    25
100
AcDbSpline
210
0.0
220
0.0
230
1.0
 70
    24
 71
     3
 72
     8
 73
     4
 74
     0
 42
0.000000001
 43
0.00000001
 40
0.25
 40
0.25
 40
0.25
 40
0.25
 40
0.5
 40
0.5
 40
0.5
 40
0.5
 10
3.247177760215381
 20
18.35000000000205
 30
0.0
 10
3.278821148388817
 20
18.35000000000205
 30
0.0
 10
3.326877628884617
 20
18.35000000000205
 30
0.0
 10
3.391635253098463
 20
18.35000000000205
 30
0.0
  0
SPLINE
  5
27C
330
1F
100
AcDbEntity
  8
1
  6
SLD-Solid
370
    25
100
AcDbSpline
210
0.0
220
0.0
230
1.0
 70
    24
 71
     3
 72
     8
 73
     4
 74
     0
 42
0.000000001
 43
0.00000001
 40
0.5
 40
0.5
 40
0.5
 40
0.5
 40
0.75
 40
0.75
 40
0.75
 40
0.75
 10
3.391635253098463
 20
18.35000000000205
 30
0.0
 10
3.456392877312281
 20
18.35000000000205
 30
0.0
 10
3.537993436572962
 20
18.35000000000205
 30
0.0
 10
3.634449963810085
 20
18.35000000000205
 30
0.0
  0
SPLINE
  5
27D
330
1F
100
AcDbEntity
  8
1
  6
SLD-Solid
370
    25
100
AcDbSpline
210
0.0
220
0.0
230
1.0
 70
    24
 71
     3
 72
     8
 73
     4
 74
     0
 42
0.000000001
 43
0.00000001
 40
0.75
 40
0.75
 40
0.75
 40
0.75
 40
1.0
 40
1.0
 40
1.0
 40
1.0
 10
3.634449963810085
 20
18.35000000000205
 30
0.0
 10
3.730906491047195
 20
18.35000000000204
 30
0.0
 10
3.839318178830264
 20
18.35000000000204
 30
0.0
 10
3.95000000000062
 20
18.35000000000204
 30
0.0
  0
SPLINE
  5
27E
330
1F
100
AcDbEntity
  8
1
  6
SLD-Solid
370
    25
100
AcDbSpline
210
0.0
220
0.0
230
1.0
 70
     8
 71
     3
 72
    15
 73
    11
 74
     0
 42
0.000000001
 43
0.00000001
 40
0.0
 40
0.0
 40
0.0
 40
0.0
 40
0.0699469675532185
 40
0.123249501963844
 40
0.2469139614485365
 40
0.4943135207057825
 40
0.6227252915464057
 40
0.7456587922638236
 40
0.8736576760338756
 40
1.0
 40
1.0
 40
1.0
 40
1.0
 10
3.200000000000619
 20
-29.82881899210964
 30
0.0
 10
3.200848912609425
 20
-29.85599822583675
 30
0.0
 10
3.202344732369855
 20
-29.90388918005254
 30
0.0
 10
3.217310445197491
 20
-29.99880913235537
 30
0.0
 10
3.264329660791945
 20
-30.15776624446899
 30
0.0
 10
3.374776442515742
 20
-30.32517365969672
 30
0.0
 10
3.525854583652302
 20
-30.45043366481327
 30
0.0
 10
3.65753383461151
 20
-30.52119023001902
 30
0.0
 10
3.800109003993371
 20
-30.5667449294968
 30
0.0
 10
3.90025375357779
 20
-30.57249983579849
 30
0.0
 10
3.950000000000522
 20
-30.57535854769514
 30
0.0
  0
SPLINE
  5
27F
330
1F
100
AcDbEntity
  8
1
  6
SLD-Solid
370
    25
100
AcDbSpline
210
0.0
220
0.0
230
1.0
 70
    24
 71
     3
 72
     8
 73
     4
 74
     0
 42
0.000000001
 43
0.00000001
 40
0.0
 40
0.0
 40
0.0
 40
0.0
 40
1.0
 40
1.0
 40
1.0
 40
1.0
 10
7.593163357943758
 20
18.35000000000204
 30
0.0
 10
8.140470151277778
 20
18.35000000000204
 30
0.0
 10
8.677299140455203
 20
18.35000000000204
 30
0.0
 10
9.200000000000527
 20
18.35000000000204
 30
0.0
  0
SPLINE
  5
280
330
1F
100
AcDbEntity
  8
1
  6
SLD-Solid
370
    25
100
AcDbSpline
210
0.0
220
0.0
230
1.0
 70
     8
 71
     3
 72
     8
 73
     4
 74
     0
 42
0.000000001
 43
0.00000001
 40
0.0
 40
0.0
 40
0.0
 40
0.0
 40
1.0
 40
1.0
 40
1.0
 40
1.0
 10
7.894001653956456
 20
-30.16151882747545
 30
0.0
 10
8.330280635768128
 20
-29.37911880556084
 30
0.0
 10
8.765688694622604
 20
-28.59624790492154
 30
0.0
 10
9.199999999999985
 20
-27.81278402659765
 30
0.0
  0
SPLINE
  5
281
330
1F
100
AcDbEntity
  8
1
  6
SLD-Solid
370
    25
100
AcDbSpline
210
0.0
220
0.0
230
1.0
 70
     8
 71
     3
 72
     8
 73
     4
 74
     0
 42
0.000000001
 43
0.00000001
 40
0.0
 40
0.0
 40
0.0
 40
0.0
 40
0.0006888740319126
 40
0.0006888740319126
 40
0.0006888740319126
 40
0.0006888740319126
 10
7.593163357943758
 20
-30.57535854769514
 30
0.0
 10
7.693718531029833
 20
-30.43750151565609
 30
0.0
 10
7.794003114485276
 20
-30.299556302798
 30
0.0
 10
7.894001653956456
 20
-30.16151882747545
 30
0.0
  0
SPLINE
  5
282
330
1F
100
AcDbEntity
  8
1
  6
SLD-Solid
370
    25
100
AcDbSpline
210
0.0
220
0.0
230
1.0
 70
    24
 71
     3
 72
     8
 73
     4
 74
     0
 42
0.000000001
 43
0.00000001
 40
0.0
 40
0.0
 40
0.0
 40
0.0
 40
1.0
 40
1.0
 40
1.0
 40
1.0
 10
13.02999999999999
 20
18.35
 30
0.0
 10
13.55320414498341
 20
18.35
 30
0.0
 10
14.09000628914509
 20
18.35
 30
0.0
 10
14.63683664205673
 20
18.35
 30
0.0
  0
SPLINE
  5
283
330
1F
100
AcDbEntity
  8
1
  6
SLD-Solid
370
    25
100
AcDbSpline
210
0.0
220
0.0
230
1.0
 70
     8
 71
     3
 72
     8
 73
     4
 74
     0
 42
0.000000001
 43
0.00000001
 40
0.0
 40
0.0
 40
0.0
 40
0.0
 40
0.0006888652761855
 40
0.0006888652761855
 40
0.0006888652761855
 40
0.0006888652761855
 10
14.33600130076779
 20
-30.16152412632425
 30
0.0
 10
14.43599886812807
 20
-30.29956062861518
 30
0.0
 10
14.53628246638029
 20
-30.43750487173248
 30
0.0
 10
14.63683664205673
 20
-30.57536093714898
 30
0.0
  0
SPLINE
  5
284
330
1F
100
AcDbEntity
  8
1
  6
SLD-Solid
370
    25
100
AcDbSpline
210
0.0
220
0.0
230
1.0
 70
     8
 71
     3
 72
     8
 73
     4
 74
     0
 42
0.000000001
 43
0.00000001
 40
0.0
 40
0.0
 40
0.0
 40
0.0
 40
1.0
 40
1.0
 40
1.0
 40
1.0
 10
13.02999999999999
 20
-27.81278402659763
 30
0.0
 10
13.4643122858434
 20
-28.59624967360613
 30
0.0
 10
13.89972133009096
 20
-29.37912234026617
 30
0.0
 10
14.33600130076779
 20
-30.16152412632425
 30
0.0
  0
SPLINE
  5
285
330
1F
100
AcDbEntity
  8
1
  6
SLD-Solid
370
    25
100
AcDbSpline
210
0.0
220
0.0
230
1.0
 70
    24
 71
     2
 72
     6
 73
     3
 74
     0
 42
0.000000001
 43
0.00000001
 40
0.0
 40
0.0
 40
0.0
 40
0.25
 40
0.25
 40
0.25
 10
9.200000000000527
 20
18.35000000000204
 30
0.0
 10
9.21516686119428
 20
18.35000000000204
 30
0.0
 10
9.245806781973661
 20
18.35000000000204
 30
0.0
  0
SPLINE
  5
286
330
1F
100
AcDbEntity
  8
1
  6
SLD-Solid
370
    25
100
AcDbSpline
210
0.0
220
0.0
230
1.0
 70
    24
 71
     3
 72
     8
 73
     4
 74
     0
 42
0.000000001
 43
0.00000001
 40
0.25
 40
0.25
 40
0.25
 40
0.25
 40
0.5
 40
0.5
 40
0.5
 40
0.5
 10
9.245806781973661
 20
18.35000000000204
 30
0.0
 10
9.276446702753043
 20
18.35000000000204
 30
0.0
 10
9.322918752353749
 20
18.35000000000204
 30
0.0
 10
9.38595898275127
 20
18.35000000000204
 30
0.0
  0
SPLINE
  5
287
330
1F
100
AcDbEntity
  8
1
  6
SLD-Solid
370
    25
100
AcDbSpline
210
0.0
220
0.0
230
1.0
 70
    24
 71
     3
 72
     8
 73
     4
 74
     0
 42
0.000000001
 43
0.00000001
 40
0.5
 40
0.5
 40
0.5
 40
0.5
 40
0.75
 40
0.75
 40
0.75
 40
0.75
 10
9.38595898275127
 20
18.35000000000204
 30
0.0
 10
9.44899921314879
 20
18.35000000000204
 30
0.0
 10
9.529064162573444
 20
18.35000000000204
 30
0.0
 10
9.626398333053926
 20
18.35000000000204
 30
0.0
  0
SPLINE
  5
288
330
1F
100
AcDbEntity
  8
1
  6
SLD-Solid
370
    25
100
AcDbSpline
210
0.0
220
0.0
230
1.0
 70
    24
 71
     3
 72
     8
 73
     4
 74
     0
 42
0.000000001
 43
0.00000001
 40
0.75
 40
0.75
 40
0.75
 40
0.75
 40
1.0
 40
1.0
 40
1.0
 40
1.0
 10
9.626398333053926
 20
18.35000000000204
 30
0.0
 10
9.723732503534407
 20
18.35000000000204
 30
0.0
 10
9.836381831357627
 20
18.35000000000204
 30
0.0
 10
9.950000000000529
 20
18.35000000000204
 30
0.0
  0
SPLINE
  5
289
330
1F
100
AcDbEntity
  8
1
  6
SLD-Solid
370
    25
100
AcDbSpline
210
0.0
220
0.0
230
1.0
 70
     8
 71
     3
 72
    10
 73
     6
 74
     0
 42
0.000000001
 43
0.00000001
 40
0.0
 40
0.0
 40
0.0
 40
0.0
 40
0.5
 40
0.5
 40
1.0
 40
1.0
 40
1.0
 40
1.0
 10
9.199999999999985
 20
-27.58683517549641
 30
0.0
 10
9.199999999999985
 20
-27.38707634764945
 30
0.0
 10
9.276834435953896
 20
-27.18603271636415
 30
0.0
 10
9.55094487366534
 20
-26.89356078711211
 30
0.0
 10
9.748424870254526
 20
-26.8043088886844
 30
0.0
 10
9.949999999999987
 20
-26.8043088886844
 30
0.0
  0
SPLINE
  5
28A
330
1F
100
AcDbEntity
  8
1
  6
SLD-Solid
370
    25
100
AcDbSpline
210
0.0
220
0.0
230
1.0
 70
    24
 71
     3
 72
     8
 73
     4
 74
     0
 42
0.000000001
 43
0.00000001
 40
0.0
 40
0.0
 40
0.0
 40
0.0
 40
0.2499999999999994
 40
0.2499999999999994
 40
0.2499999999999994
 40
0.2499999999999994
 10
12.28
 20
18.35000000000204
 30
0.0
 10
12.39387251328287
 20
18.35000000000132
 30
0.0
 10
12.50776080994781
 20
18.35000000000061
 30
0.0
 10
12.60403578072326
 20
18.35
 30
0.0
  0
SPLINE
  5
28B
330
1F
100
AcDbEntity
  8
1
  6
SLD-Solid
370
    25
100
AcDbSpline
210
0.0
220
0.0
230
1.0
 70
    24
 71
     3
 72
     8
 73
     4
 74
     0
 42
0.000000001
 43
0.00000001
 40
0.2499999999999994
 40
0.2499999999999994
 40
0.2499999999999994
 40
0.2499999999999994
 40
0.4999999999999989
 40
0.4999999999999989
 40
0.4999999999999989
 40
0.4999999999999989
 10
12.60403578072326
 20
18.35
 30
0.0
 10
12.70031075149873
 20
18.35
 30
0.0
 10
12.78072688590695
 20
18.35
 30
0.0
 10
12.84399363703229
 20
18.35
 30
0.0
  0
SPLINE
  5
28C
330
1F
100
AcDbEntity
  8
1
  6
SLD-Solid
370
    25
100
AcDbSpline
210
0.0
220
0.0
230
1.0
 70
    24
 71
     2
 72
     6
 73
     3
 74
     0
 42
0.000000001
 43
0.00000001
 40
0.4999999999999989
 40
0.4999999999999989
 40
0.4999999999999989
 40
1.0
 40
1.0
 40
1.0
 10
12.84399363703229
 20
18.35
 30
0.0
 10
12.97052713928296
 20
18.35
 30
0.0
 10
13.02999999999999
 20
18.35
 30
0.0
  0
SPLINE
  5
28D
330
1F
100
AcDbEntity
  8
1
  6
SLD-Solid
370
    25
100
AcDbSpline
210
0.0
220
0.0
230
1.0
 70
     8
 71
     3
 72
    12
 73
     8
 74
     0
 42
0.000000001
 43
0.00000001
 40
0.0
 40
0.0
 40
0.0
 40
0.0
 40
0.2500000000000016
 40
0.2500000000000016
 40
0.5000000000000031
 40
0.5000000000000031
 40
1.0
 40
1.0
 40
1.0
 40
1.0
 10
12.27999999999999
 20
-26.8043088886844
 30
0.0
 10
12.37979689509869
 20
-26.8043088886844
 30
0.0
 10
12.48049833272398
 20
-26.82572174190438
 30
0.0
 10
12.663556212508
 20
-26.90654241362412
 30
0.0
 10
12.74673207733004
 20
-26.96588196572589
 30
0.0
 10
12.95368349037101
 20
-27.18636461126024
 30
0.0
 10
13.02999999999999
 20
-27.38652349465746
 30
0.0
 10
13.02999999999999
 20
-27.58683517549641
 30
0.0
  0
SPLINE
  5
28E
330
1F
100
AcDbEntity
  8
1
  6
SLD-Solid
370
    25
100
AcDbSpline
210
0.0
220
0.0
230
1.0
 70
     8
 71
     3
 72
    32
 73
    28
 74
     0
 42
0.000000001
 43
0.00000001
 40
0.0
 40
0.0
 40
0.0
 40
0.0
 40
0.0625000000000002
 40
0.0625000000000002
 40
0.1250000000000005
 40
0.1250000000000005
 40
0.250000000000001
 40
0.250000000000001
 40
0.3750000000000015
 40
0.3750000000000015
 40
0.4375000000000009
 40
0.4375000000000009
 40
0.5000000000000003
 40
0.5000000000000003
 40
0.5624999999999998
 40
0.5624999999999998
 40
0.6249999999999991
 40
0.6249999999999991
 40
0.7499999999999994
 40
0.7499999999999994
 40
0.8124999999999996
 40
0.8124999999999996
 40
0.8749999999999997
 40
0.8749999999999997
 40
0.9374999999999999
 40
0.9374999999999999
 40
1.0
 40
1.0
 40
1.0
 40
1.0
 10
21.04999999999999
 20
-18.52676348605149
 30
0.0
 10
20.92941019815175
 20
-18.49512423446981
 30
0.0
 10
20.8158000315701
 20
-18.46587371156856
 30
0.0
 10
20.60050009611088
 20
-18.40871945900729
 30
0.0
 10
20.49802540024076
 20
-18.38061181808612
 30
0.0
 10
20.21339215708415
 20
-18.29591573499095
 30
0.0
 10
20.05555116605383
 20
-18.24009389670516
 30
0.0
 10
19.79032783200653
 20
-18.10429032138555
 30
0.0
 10
19.68789264751336
 20
-18.02771195181039
 30
0.0
 10
19.57810474736749
 20
-17.86790400463551
 30
0.0
 10
19.54919413272357
 20
-17.80647501154182
 30
0.0
 10
19.51034651860123
 20
-17.66495648431196
 30
0.0
 10
19.50003952704293
 20
-17.58294676762757
 30
0.0
 10
19.49996070538058
 20
-17.40022735844144
 30
0.0
 10
19.50987557896232
 20
-17.30074387292476
 30
0.0
 10
19.54862347514638
 20
-17.08838408097585
 30
0.0
 10
19.57735312165172
 20
-16.97695373439105
 30
0.0
 10
19.68611964690103
 20
-16.64374252630334
 30
0.0
 10
19.79075516383095
 20
-16.4163277249818
 30
0.0
 10
19.98705825349617
 20
-16.10181085252229
 30
0.0
 10
20.05925455315504
 20
-16.00079504348229
 30
0.0
 10
20.21871775358927
 20
-15.80857188917639
 30
0.0
 10
20.30686336628123
 20
-15.71662427954659
 30
0.0
 10
20.49604737745278
 20
-15.55047056951013
 30
0.0
 10
20.59699763055821
 20
-15.47601600559769
 30
0.0
 10
20.81352159056478
 20
-15.34814316287061
 30
0.0
 10
20.92955182428684
 20
-15.29481861518493
 30
0.0
 10
21.04999999999982
 20
-15.25644240089748
 30
0.0
  0
SPLINE
  5
28F
330
1F
100
AcDbEntity
  8
1
  6
SLD-Solid
370
    25
100
AcDbSpline
210
0.0
220
0.0
230
1.0
 70
     8
 71
     3
 72
     8
 73
     4
 74
     0
 42
0.000000001
 43
0.00000001
 40
0.0
 40
0.0
 40
0.0
 40
0.0
 40
1.0
 40
1.0
 40
1.0
 40
1.0
 10
20.38437872910902
 20
-22.71639493426507
 30
0.0
 10
20.59571854409707
 20
-22.63981724226252
 30
0.0
 10
20.8236291295783
 20
-22.60389872460719
 30
0.0
 10
21.04999999999999
 20
-22.61335888363337
 30
0.0
  0
SPLINE
  5
290
330
1F
100
AcDbEntity
  8
1
  6
SLD-Solid
370
    25
100
AcDbSpline
210
0.0
220
0.0
230
1.0
 70
     8
 71
     3
 72
    19
 73
    15
 74
     0
 42
0.000000001
 43
0.00000001
 40
0.0
 40
0.0
 40
0.0
 40
0.0
 40
0.0600165866457052
 40
0.1211711962126723
 40
0.1839647700557664
 40
0.2488546767885557
 40
0.3097899793600707
 40
0.3731846296410798
 40
0.4970105113167088
 40
0.6220522937218792
 40
0.7482247743863366
 40
0.87406301349505
 40
0.9370026364229984
 40
0.9999999999999999
 40
0.9999999999999999
 40
0.9999999999999999
 40
0.9999999999999999
 10
19.41902684325776
 20
-23.33361427027622
 30
0.0
 10
19.43323192774833
 20
-23.31244551883486
 30
0.0
 10
19.46191145079733
 20
-23.26970661817692
 30
0.0
 10
19.50978861890426
 20
-23.20799331906667
 30
0.0
 10
19.56177885482756
 20
-23.14792732467643
 30
0.0
 10
19.61654656128643
 20
-23.09191611460031
 30
0.0
 10
19.6737739280882
 20
-23.03985720144135
 30
0.0
 10
19.75136289198286
 20
-22.97703145220781
 30
0.0
 10
19.85310504393123
 20
-22.90815178731349
 30
0.0
 10
19.97992746871535
 20
-22.84074789697208
 30
0.0
 10
20.11112715103318
 20
-22.78688760089268
 30
0.0
 10
20.22345789245097
 20
-22.75236499975316
 30
0.0
 10
20.31476158093959
 20
-22.73000161602652
 30
0.0
 10
20.36116592110178
 20
-22.72093188097504
 30
0.0
 10
20.38437872910902
 20
-22.71639493426508
 30
0.0
  0
SPLINE
  5
291
330
1F
100
AcDbEntity
  8
1
  6
SLD-Solid
370
    25
100
AcDbSpline
210
0.0
220
0.0
230
1.0
 70
     8
 71
     3
 72
    16
 73
    12
 74
     0
 42
0.000000001
 43
0.00000001
 40
0.0
 40
0.0
 40
0.0
 40
0.0
 40
0.06040269839644
 40
0.1257351495369912
 40
0.2506183239793007
 40
0.3753027415800848
 40
0.5004127577069156
 40
0.6349836429753438
 40
0.7514637663625895
 40
0.8808679413932011
 40
1.0
 40
1.0
 40
1.0
 40
1.0
 10
19.04999999999998
 20
-24.59183951548754
 30
0.0
 10
19.0502676860667
 20
-24.5650774305309
 30
0.0
 10
19.05082490533874
 20
-24.5093690790288
 30
0.0
 10
19.05689713449957
 20
-24.39847226738016
 30
0.0
 10
19.07167722270642
 20
-24.25963644834796
 30
0.0
 10
19.10103809953194
 20
-24.09612327754934
 30
0.0
 10
19.14294945226472
 20
-23.93094384689811
 30
0.0
 10
19.19580944929737
 20
-23.77270126721495
 30
0.0
 10
19.26086817040792
 20
-23.61710485709812
 30
0.0
 10
19.33312535374917
 20
-23.47214082181329
 30
0.0
 10
19.39119300091012
 20
-23.37849971077906
 30
0.0
 10
19.41902684325776
 20
-23.33361427027621
 30
0.0
  0
SPLINE
  5
292
330
1F
100
AcDbEntity
  8
1
  6
SLD-Solid
370
    25
100
AcDbSpline
210
0.0
220
0.0
230
1.0
 70
     8
 71
     3
 72
    20
 73
    16
 74
     0
 42
0.000000001
 43
0.00000001
 40
0.0
 40
0.0
 40
0.0
 40
0.0
 40
0.1249999999999997
 40
0.1249999999999997
 40
0.2499999999999993
 40
0.2499999999999993
 40
0.374999999999999
 40
0.374999999999999
 40
0.4999999999999987
 40
0.4999999999999987
 40
0.6249999999999983
 40
0.6249999999999983
 40
0.749999999999998
 40
0.749999999999998
 40
1.0
 40
1.0
 40
1.0
 40
1.0
 10
19.07111487613772
 20
24.8
 30
0.0
 10
19.07995282229129
 20
24.72907470257949
 30
0.0
 10
19.09085550690456
 20
24.661946422335
 30
0.0
 10
19.11378069358391
 20
24.53620860398786
 30
0.0
 10
19.12602098517402
 20
24.47676694010129
 30
0.0
 10
19.14642548385678
 20
24.37386952628918
 30
0.0
 10
19.1544355338303
 20
24.33030174108138
 30
0.0
 10
19.15981890788813
 20
24.27141080621666
 30
0.0
 10
19.15700680505095
 20
24.25608864207795
 30
0.0
 10
19.14286335641961
 20
24.2536570972613
 30
0.0
 10
19.13185238322373
 20
24.26591693892116
 30
0.0
 10
19.10890443107768
 20
24.30780408150369
 30
0.0
 10
19.09678382100688
 20
24.33762461778988
 30
0.0
 10
19.06481240370103
 20
24.44611563236976
 30
0.0
 10
19.04999999999998
 20
24.54073512390489
 30
0.0
 10
19.04999999999998
 20
24.65237685153981
 30
0.0
  0
SPLINE
  5
293
330
1F
100
AcDbEntity
  8
1
  6
SLD-Solid
370
    25
100
AcDbSpline
210
0.0
220
0.0
230
1.0
 70
    24
 71
     3
 72
     8
 73
     4
 74
     0
 42
0.000000001
 43
0.00000001
 40
0.0
 40
0.0
 40
0.0
 40
0.0
 40
0.4999999999999999
 40
0.4999999999999999
 40
0.4999999999999999
 40
0.4999999999999999
 10
19.07111487613772
 20
24.8
 30
0.0
 10
19.11478120574102
 20
24.79999999981158
 30
0.0
 10
19.21568801221726
 20
24.79999999937619
 30
0.0
 10
19.300435438615
 20
24.79999999901053
 30
0.0
  0
SPLINE
  5
294
330
1F
100
AcDbEntity
  8
1
  6
SLD-Solid
370
    25
100
AcDbSpline
210
0.0
220
0.0
230
1.0
 70
    24
 71
     3
 72
     8
 73
     4
 74
     0
 42
0.000000001
 43
0.00000001
 40
0.4999999999999999
 40
0.4999999999999999
 40
0.4999999999999999
 40
0.4999999999999999
 40
0.7499999999999999
 40
0.7499999999999999
 40
0.7499999999999999
 40
0.7499999999999999
 10
19.300435438615
 20
24.79999999901053
 30
0.0
 10
19.34280915181386
 20
24.79999999882769
 30
0.0
 10
19.38119691193923
 20
24.79999999866205
 30
0.0
 10
19.40805421657042
 20
24.79999999854618
 30
0.0
  0
SPLINE
  5
295
330
1F
100
AcDbEntity
  8
1
  6
SLD-Solid
370
    25
100
AcDbSpline
210
0.0
220
0.0
230
1.0
 70
    24
 71
     2
 72
     6
 73
     3
 74
     0
 42
0.000000001
 43
0.00000001
 40
0.7499999999999999
 40
0.7499999999999999
 40
0.7499999999999999
 40
1.0
 40
1.0
 40
1.0
 10
19.40805421657042
 20
24.79999999854618
 30
0.0
 10
19.43491152120101
 20
24.79999999843004
 30
0.0
 10
19.44999999999908
 20
24.7999999983648
 30
0.0
  0
SPLINE
  5
296
330
1F
100
AcDbEntity
  8
1
  6
SLD-Solid
370
    25
100
AcDbSpline
210
0.0
220
0.0
230
1.0
 70
     8
 71
     3
 72
    16
 73
    12
 74
     0
 42
0.000000001
 43
0.00000001
 40
0.0
 40
0.0
 40
0.0
 40
0.0
 40
0.0782769517401273
 40
0.1611271149820787
 40
0.2485647010668107
 40
0.3650085525383679
 40
0.4996131330052089
 40
0.6247218493002514
 40
0.7494049800230757
 40
0.8838205598508645
 40
1.0
 40
1.0
 40
1.0
 40
1.0
 10
19.41902684325776
 20
-23.33361427027622
 30
0.0
 10
19.40053210742107
 20
-23.36296951446231
 30
0.0
 10
19.36246210901824
 20
-23.4233950381976
 30
0.0
 10
19.30945204732637
 20
-23.52001908678701
 30
0.0
 10
19.25358271372701
 20
-23.63417167188442
 30
0.0
 10
19.19585335652631
 20
-23.77271568055237
 30
0.0
 10
19.14295550257349
 20
-23.93092135380666
 30
0.0
 10
19.10099805256935
 20
-24.09612519570782
 30
0.0
 10
19.07109577015653
 20
-24.26379705888158
 30
0.0
 10
19.05313134086503
 20
-24.42931713005089
 30
0.0
 10
19.05099188320934
 20
-24.54035894144418
 30
0.0
 10
19.04999999999998
 20
-24.59183951548754
 30
0.0
  0
SPLINE
  5
297
330
1F
100
AcDbEntity
  8
1
  6
SLD-Solid
370
    25
100
AcDbSpline
210
0.0
220
0.0
230
1.0
 70
     8
 71
     3
 72
    17
 73
    13
 74
     0
 42
0.000000001
 43
0.00000001
 40
0.0
 40
0.0
 40
0.0
 40
0.0
 40
0.0630152442371451
 40
0.1259727296321162
 40
0.2518466691888137
 40
0.3780549467012056
 40
0.5031323137289271
 40
0.6269933595378142
 40
0.6903680259883639
 40
0.7513585769300029
 40
0.8789273026522628
 40
1.0
 40
1.0
 40
1.0
 40
1.0
 10
20.38439697483031
 20
-22.71638934343297
 30
0.0
 10
20.3611836787767
 20
-22.72092620183778
 30
0.0
 10
20.31477836363381
 20
-22.72999576023001
 30
0.0
 10
20.22347286916694
 20
-22.75235886562883
 30
0.0
 10
20.11113962932987
 20
-22.78688116518856
 30
0.0
 10
19.97993862754899
 20
-22.8407417030571
 30
0.0
 10
19.85310926838828
 20
-22.908145007214
 30
0.0
 10
19.75139142498365
 20
-22.97701979705923
 30
0.0
 10
19.6737718774023
 20
-23.03983879348446
 30
0.0
 10
19.5977113867955
 20
-23.10915523853
 30
0.0
 10
19.50879178135438
 20
-23.2042544757115
 30
0.0
 10
19.44842275372591
 20
-23.2912519735952
 30
0.0
 10
19.41902684325776
 20
-23.33361427027621
 30
0.0
  0
SPLINE
  5
298
330
1F
100
AcDbEntity
  8
1
  6
SLD-Solid
370
    25
100
AcDbSpline
210
0.0
220
0.0
230
1.0
 70
     8
 71
     3
 72
    13
 73
     9
 74
     0
 42
0.000000001
 43
0.00000001
 40
0.0
 40
0.0
 40
0.0
 40
0.0
 40
0.1493493325416991
 40
0.3291484584094461
 40
0.514130132929754
 40
0.6938529830944076
 40
0.8792983972867733
 40
0.9999999999999999
 40
0.9999999999999999
 40
0.9999999999999999
 40
0.9999999999999999
 10
24.91530404444457
 20
-23.1
 30
0.0
 10
25.20720637673704
 20
-23.16408752549475
 30
0.0
 10
25.85052497110277
 20
-23.30532893488629
 30
0.0
 10
26.68839432972518
 20
-23.52959173641326
 30
0.0
 10
27.40198473562483
 20
-23.7402658960716
 30
0.0
 10
27.90280648772906
 20
-23.90046899930194
 30
0.0
 10
28.17268023824024
 20
-23.99074905027584
 30
0.0
 10
28.17653173473106
 20
-23.99208562698415
 30
0.0
 10
28.1780502267418
 20
-23.99261258606568
 30
0.0
  0
SPLINE
  5
299
330
1F
100
AcDbEntity
  8
1
  6
SLD-Solid
370
    25
100
AcDbSpline
210
0.0
220
0.0
230
1.0
 70
     8
 71
     3
 72
    12
 73
     8
 74
     0
 42
0.000000001
 43
0.00000001
 40
0.0
 40
0.0
 40
0.0
 40
0.0
 40
0.4999999999999998
 40
0.4999999999999998
 40
0.7499999999999999
 40
0.7499999999999999
 40
1.0
 40
1.0
 40
1.0
 40
1.0
 10
21.04999999999999
 20
-22.61335888363337
 30
0.0
 10
21.75748658219158
 20
-22.64292436409169
 30
0.0
 10
22.43587135516587
 20
-22.70433910479804
 30
0.0
 10
23.41281436273673
 20
-22.8321786156328
 30
0.0
 10
23.73346320908287
 20
-22.88113095478624
 30
0.0
 10
24.34440403596624
 20
-22.9859295024277
 30
0.0
 10
24.63636008349682
 20
-23.04191319205539
 30
0.0
 10
24.91530404444457
 20
-23.1
 30
0.0
  0
SPLINE
  5
29A
330
1F
100
AcDbEntity
  8
1
  6
SLD-Solid
370
    25
100
AcDbSpline
210
0.0
220
0.0
230
1.0
 70
     8
 71
     3
 72
    38
 73
    34
 74
     0
 42
0.000000001
 43
0.00000001
 40
0.0
 40
0.0
 40
0.0
 40
0.0
 40
0.0625
 40
0.0625
 40
0.125
 40
0.125
 40
0.1875
 40
0.1875
 40
0.25
 40
0.25
 40
0.3125
 40
0.3125
 40
0.375
 40
0.375
 40
0.4375
 40
0.4375
 40
0.5
 40
0.5
 40
0.5625
 40
0.5625
 40
0.625
 40
0.625
 40
0.6875
 40
0.6875
 40
0.75
 40
0.75
 40
0.8125
 40
0.8125
 40
0.875
 40
0.875
 40
0.9375
 40
0.9375
 40
1.0
 40
1.0
 40
1.0
 40
1.0
 10
21.04999999999982
 20
-15.25644240089794
 30
0.0
 10
21.24064590674756
 20
-15.19570035871202
 30
0.0
 10
21.43693777639107
 20
-15.1539609249521
 30
0.0
 10
21.84047700566109
 20
-15.10796762377551
 30
0.0
 10
22.04845059100825
 20
-15.10439592080622
 30
0.0
 10
22.45305770720153
 20
-15.13624310417325
 30
0.0
 10
22.655120002245
 20
-15.17195010613677
 30
0.0
 10
23.03959892758334
 20
-15.27954085093263
 30
0.0
 10
23.22098095758346
 20
-15.35047876750668
 30
0.0
 10
23.56183094697711
 20
-15.52596355748839
 30
0.0
 10
23.71689201014073
 20
-15.62858848113792
 30
0.0
 10
23.98977976672566
 20
-15.85666971752852
 30
0.0
 10
24.10949449119912
 20
-15.98436960679948
 30
0.0
 10
24.30102160274485
 20
-16.25043614436519
 30
0.0
 10
24.37520754557776
 20
-16.39126880396883
 30
0.0
 10
24.47490694629781
 20
-16.67979773404227
 30
0.0
 10
24.49981445612979
 20
-16.82433003683868
 30
0.0
 10
24.50018350896051
 20
-17.11360555390845
 30
0.0
 10
24.47488399600088
 20
-17.25702754288066
 30
0.0
 10
24.37648029051494
 20
-17.52895819985174
 30
0.0
 10
24.30188093678522
 20
-17.66097581580618
 30
0.0
 10
24.11023144561079
 20
-17.90268846209662
 30
0.0
 10
23.99343190524843
 20
-18.01342273947812
 30
0.0
 10
23.7175829485608
 20
-18.21432401519428
 30
0.0
 10
23.5638615650413
 20
-18.30070067853345
 30
0.0
 10
23.22569594988931
 20
-18.4475028902644
 30
0.0
 10
23.04036857144032
 20
-18.507559196213
 30
0.0
 10
22.65814476101427
 20
-18.59556667153079
 30
0.0
 10
22.45615317202204
 20
-18.62480096731187
 30
0.0
 10
22.04942560835535
 20
-18.65098600084053
 30
0.0
 10
21.84612877093996
 20
-18.64835881986949
 30
0.0
 10
21.4396707844491
 20
-18.61117925321706
 30
0.0
 10
21.24064975182156
 20
-18.57678442786758
 30
0.0
 10
21.04999999999999
 20
-18.52676348605149
 30
0.0
  0
SPLINE
  5
29B
330
1F
100
AcDbEntity
  8
1
  6
SLD-Solid
370
    25
100
AcDbSpline
210
0.0
220
0.0
230
1.0
 70
     8
 71
     3
 72
    40
 73
    36
 74
     0
 42
0.000000001
 43
0.00000001
 40
0.5000000000000034
 40
0.5000000000000034
 40
0.5000000000000034
 40
0.5000000000000034
 40
0.5312500000000032
 40
0.5312500000000032
 40
0.562500000000003
 40
0.562500000000003
 40
0.5937500000000028
 40
0.5937500000000028
 40
0.6250000000000026
 40
0.6250000000000026
 40
0.6562500000000023
 40
0.6562500000000023
 40
0.6875000000000021
 40
0.6875000000000021
 40
0.7187500000000019
 40
0.7187500000000019
 40
0.7500000000000017
 40
0.7500000000000017
 40
0.7812500000000016
 40
0.7812500000000016
 40
0.8125000000000013
 40
0.8125000000000013
 40
0.8437500000000011
 40
0.8437500000000011
 40
0.859375000000001
 40
0.859375000000001
 40
0.875000000000001
 40
0.875000000000001
 40
0.9062500000000008
 40
0.9062500000000008
 40
0.9375000000000006
 40
0.9375000000000006
 40
0.9687500000000003
 40
0.9687500000000003
 40
1.0
 40
1.0
 40
1.0
 40
1.0
 10
21.61692685849365
 20
16.96730581732336
 30
0.0
 10
21.61660139536126
 20
17.209594164569
 30
0.0
 10
21.65220463839768
 20
17.44533049445315
 30
0.0
 10
21.7973752912695
 20
17.9039535825448
 30
0.0
 10
21.90491021633338
 20
18.11975635025642
 30
0.0
 10
22.18451712273359
 20
18.5239441500912
 30
0.0
 10
22.35933515858279
 20
18.71467766763725
 30
0.0
 10
22.76130390991447
 20
19.0585751603569
 30
0.0
 10
22.98842705536378
 20
19.21302963127548
 30
0.0
 10
23.49415583183084
 20
19.49071410065721
 30
0.0
 10
23.77047547806284
 20
19.61214410665195
 30
0.0
 10
24.35225758387817
 20
19.81809987668566
 30
0.0
 10
24.66193983150145
 20
19.90426032576367
 30
0.0
 10
25.3067504454976
 20
20.04194031503188
 30
0.0
 10
25.63644172494906
 20
20.09258339537898
 30
0.0
 10
26.30983796947585
 20
20.16060174514303
 30
0.0
 10
26.65710955406975
 20
20.17784659557748
 30
0.0
 10
27.34436804146806
 20
20.17779785483576
 30
0.0
 10
27.68479294362229
 20
20.1609743925822
 30
0.0
 10
28.35924651764049
 20
20.0931861714865
 30
0.0
 10
28.69552862146245
 20
20.04143583216606
 30
0.0
 10
29.33491010987414
 20
19.9049507584974
 30
0.0
 10
29.64110082123586
 20
19.82016553132862
 30
0.0
 10
30.07951309513517
 20
19.66538835972651
 30
0.0
 10
30.22291567590918
 20
19.60879363526671
 30
0.0
 10
30.49742743788063
 20
19.48762137947801
 30
0.0
 10
30.62871230050435
 20
19.42306624286804
 30
0.0
 10
31.00489663900766
 20
19.21705288356267
 30
0.0
 10
31.23231047928295
 20
19.063389831801
 30
0.0
 10
31.63749020985314
 20
18.71802695900752
 30
0.0
 10
31.81075456957093
 20
18.5294686023223
 30
0.0
 10
32.09084208603716
 20
18.12716578671263
 30
0.0
 10
32.1998219431277
 20
17.91024821726835
 30
0.0
 10
32.34615745011278
 20
17.45298794494789
 30
0.0
 10
32.38307541522481
 20
17.21600940479732
 30
0.0
 10
32.38307541522381
 20
16.97056265074034
 30
0.0
  0
SPLINE
  5
29C
330
1F
100
AcDbEntity
  8
1
  6
SLD-Solid
370
    25
100
AcDbSpline
210
0.0
220
0.0
230
1.0
 70
     8
 71
     3
 72
    42
 73
    38
 74
     0
 42
0.000000001
 43
0.00000001
 40
0.0
 40
0.0
 40
0.0
 40
0.0
 40
0.0312500000000006
 40
0.0312500000000006
 40
0.0625000000000011
 40
0.0625000000000011
 40
0.0937500000000016
 40
0.0937500000000016
 40
0.1093750000000017
 40
0.1093750000000017
 40
0.1250000000000018
 40
0.1250000000000018
 40
0.1562500000000021
 40
0.1562500000000021
 40
0.1875000000000023
 40
0.1875000000000023
 40
0.2187500000000025
 40
0.2187500000000025
 40
0.2500000000000027
 40
0.2500000000000027
 40
0.2812500000000029
 40
0.2812500000000029
 40
0.3125000000000032
 40
0.3125000000000032
 40
0.3437500000000034
 40
0.3437500000000034
 40
0.3750000000000036
 40
0.3750000000000036
 40
0.4062500000000039
 40
0.4062500000000039
 40
0.4218750000000039
 40
0.4218750000000039
 40
0.4375000000000039
 40
0.4375000000000039
 40
0.4687500000000037
 40
0.4687500000000037
 40
0.5000000000000034
 40
0.5000000000000034
 40
0.5000000000000034
 40
0.5000000000000034
 10
32.38307541522384
 20
16.97056265074034
 30
0.0
 10
32.38307541522284
 20
16.72511589668336
 30
0.0
 10
32.34620006375333
 20
16.47898521087871
 30
0.0
 10
32.20219158873547
 20
15.98601388120242
 30
0.0
 10
32.0930052895007
 20
15.73640627162017
 30
0.0
 10
31.8119988309708
 20
15.2579542274328
 30
0.0
 10
31.64063472611731
 20
15.02775943548079
 30
0.0
 10
31.33783520508242
 20
14.69756381655413
 30
0.0
 10
31.22898317509114
 20
14.58995009833779
 30
0.0
 10
31.00072857237116
 20
14.38471905878813
 30
0.0
 10
30.88079794452
 20
14.2864783682413
 30
0.0
 10
30.50407774445418
 20
14.00496907025633
 30
0.0
 10
30.22801010300437
 20
13.83357382533185
 30
0.0
 10
29.64164239661306
 20
13.53508504584361
 30
0.0
 10
29.33482179089497
 20
13.40920518863954
 30
0.0
 10
28.69491994641869
 20
13.20421835778
 30
0.0
 10
28.35883361077191
 20
13.12499352511004
 30
0.0
 10
27.68432445708219
 20
13.02066437183881
 30
0.0
 10
27.34382309132133
 20
12.99444406594515
 30
0.0
 10
26.65630814635629
 20
12.99443734123104
 30
0.0
 10
26.30937812479503
 20
13.02136150448476
 30
0.0
 10
25.63684041607318
 20
13.12594396544677
 30
0.0
 10
25.30761886691158
 20
13.20343937666845
 30
0.0
 10
24.66381457391154
 20
13.40960777451233
 30
0.0
 10
24.35358068017618
 20
13.53739261142321
 30
0.0
 10
23.77314943695522
 20
13.83310845402938
 30
0.0
 10
23.50021836125343
 20
14.00185742571775
 30
0.0
 10
22.99145233722055
 20
14.3818428157415
 30
0.0
 10
22.76425864497826
 20
14.58665596365106
 30
0.0
 10
22.46412224963284
 20
14.91331756801764
 30
0.0
 10
22.37086411262374
 20
15.02549944324141
 30
0.0
 10
22.19840528395384
 20
15.25639089309504
 30
0.0
 10
22.11884568556986
 20
15.37581741397005
 30
0.0
 10
21.9071490372642
 20
15.73591245778549
 30
0.0
 10
21.80021672599938
 20
15.97974956158804
 30
0.0
 10
21.6548856123801
 20
16.47333608009916
 30
0.0
 10
21.61725232162602
 20
16.72501747007772
 30
0.0
 10
21.61692685849365
 20
16.96730581732336
 30
0.0
  0
SPLINE
  5
29D
330
1F
100
AcDbEntity
  8
1
  6
SLD-Solid
370
    25
100
AcDbSpline
210
0.0
220
0.0
230
1.0
 70
     8
 71
     3
 72
    12
 73
     8
 74
     0
 42
0.000000001
 43
0.00000001
 40
0.0
 40
0.0
 40
0.0
 40
0.0
 40
0.2500000000000001
 40
0.2500000000000001
 40
0.5000000000000001
 40
0.5000000000000001
 40
1.0
 40
1.0
 40
1.0
 40
1.0
 10
3.950000000000633
 20
25.91022964004973
 30
0.0
 10
3.839158780827343
 20
25.91022964004974
 30
0.0
 10
3.730471818892481
 20
25.87938355290942
 30
0.0
 10
3.539648957223057
 20
25.77107303496787
 30
0.0
 10
3.457372067224587
 20
25.69414842786693
 30
0.0
 10
3.261852427534559
 20
25.42652197982917
 30
0.0
 10
3.200000000000508
 20
25.20459198571313
 30
0.0
 10
3.200000000000619
 20
24.98554582153616
 30
0.0
  0
SPLINE
  5
29E
330
1F
100
AcDbEntity
  8
1
  6
SLD-Solid
370
    25
100
AcDbSpline
210
0.0
220
0.0
230
1.0
 70
     8
 71
     3
 72
    18
 73
    14
 74
     0
 42
0.000000001
 43
0.00000001
 40
0.0
 40
0.0
 40
0.0
 40
0.0
 40
0.0627055099618771
 40
0.1258180762730907
 40
0.1893520056282233
 40
0.2533212411768447
 40
0.3760225541131387
 40
0.5042029356618316
 40
0.6287444288252293
 40
0.7524971402268216
 40
0.8762905010545342
 40
0.9301814056083354
 40
1.0
 40
1.0
 40
1.0
 40
1.0
 10
3.950000000000621
 20
30.5578859972289
 30
0.0
 10
3.925248107549587
 20
30.55717415240701
 30
0.0
 10
3.875583644343775
 20
30.55574584178247
 30
0.0
 10
3.801592991522941
 20
30.54418224838045
 30
0.0
 10
3.728620711839382
 20
30.52567922368445
 30
0.0
 10
3.635851283828041
 20
30.49171694933505
 30
0.0
 10
3.526173693477492
 20
30.4320595798914
 30
0.0
 10
3.412109402549256
 20
30.33670428097536
 30
0.0
 10
3.319034324959949
 20
30.22062761503533
 30
0.0
 10
3.250931594267637
 20
30.09053185714903
 30
0.0
 10
3.217337748096201
 20
29.9765578140766
 30
0.0
 10
3.202345655230356
 20
29.88065720392627
 30
0.0
 10
3.20084623554318
 20
29.83220059587247
 30
0.0
 10
3.200000000000624
 20
29.8048528797137
 30
0.0
  0
SPLINE
  5
29F
330
1F
100
AcDbEntity
  8
1
  6
SLD-Solid
370
    25
100
AcDbSpline
210
0.0
220
0.0
230
1.0
 70
     8
 71
     3
 72
    14
 73
    10
 74
     0
 42
0.000000001
 43
0.00000001
 40
0.0
 40
0.0
 40
0.0
 40
0.0
 40
0.25
 40
0.25
 40
0.5
 40
0.5
 40
0.75
 40
0.75
 40
1.0
 40
1.0
 40
1.0
 40
1.0
 10
19.05000000000062
 20
24.98554582153653
 30
0.0
 10
19.05000000000062
 20
25.09511951628634
 30
0.0
 10
19.03421225329119
 20
25.20571872585305
 30
0.0
 10
18.97116178764319
 20
25.41445574332672
 30
0.0
 10
18.92271483449162
 20
25.51595796020396
 30
0.0
 10
18.79360389711995
 20
25.69293989561559
 30
0.0
 10
18.71142955262548
 20
25.7703242527209
 30
0.0
 10
18.51974491589428
 20
25.87939623808377
 30
0.0
 10
18.41038882700855
 20
25.91022964004963
 30
0.0
 10
18.30000000000062
 20
25.91022964004963
 30
0.0
  0
SPLINE
  5
2A0
330
1F
100
AcDbEntity
  8
1
  6
SLD-Solid
370
    25
100
AcDbSpline
210
0.0
220
0.0
230
1.0
 70
     8
 71
     3
 72
    16
 73
    12
 74
     0
 42
0.000000001
 43
0.00000001
 40
0.0
 40
0.0
 40
0.0
 40
0.0
 40
0.0695972542982058
 40
0.1233277380952899
 40
0.2470395666589488
 40
0.3706254246804466
 40
0.4955039232051592
 40
0.6236892953582003
 40
0.7463896467418415
 40
0.8740291783567395
 40
1.0
 40
1.0
 40
1.0
 40
1.0
 10
19.04999999999999
 20
29.8048666409909
 30
0.0
 10
19.04915966910118
 20
29.83211893809374
 30
0.0
 10
19.04767058580259
 20
29.8804105581222
 30
0.0
 10
19.03276284557185
 20
29.97610839294563
 30
0.0
 10
18.99931128430578
 20
30.08991375049767
 30
0.0
 10
18.93134744839437
 20
30.2200727630118
 30
0.0
 10
18.83837293308051
 20
30.33622625359798
 30
0.0
 10
18.72429069393167
 20
30.43184487734142
 30
0.0
 10
18.59262087732634
 20
30.50320172901404
 30
0.0
 10
18.44997019382597
 20
30.54921379636124
 30
0.0
 10
18.34977029891743
 20
30.555023329387
 30
0.0
 10
18.30000000000006
 20
30.55790898306483
 30
0.0
  0
SPLINE
  5
2A1
330
1F
100
AcDbEntity
  8
1
  6
SLD-Solid
370
    25
100
AcDbSpline
210
0.0
220
0.0
230
1.0
 70
     8
 71
     3
 72
    14
 73
    10
 74
     0
 42
0.000000001
 43
0.00000001
 40
0.0
 40
0.0
 40
0.0
 40
0.0
 40
0.25
 40
0.25
 40
0.5
 40
0.5
 40
0.75
 40
0.75
 40
1.0
 40
1.0
 40
1.0
 40
1.0
 10
13.03000000000062
 20
22.13232929449795
 30
0.0
 10
13.03000000000062
 20
22.01826902485311
 30
0.0
 10
13.01506237934978
 20
21.9062055272853
 30
0.0
 10
12.95346267662406
 20
21.68631926902539
 30
0.0
 10
12.90761723370874
 20
21.58180217631713
 30
0.0
 10
12.78106163491566
 20
21.39167307642108
 30
0.0
 10
12.70088587990517
 20
21.30757882093809
 30
0.0
 10
12.50695573392925
 20
21.18487204837431
 30
0.0
 10
12.39354933538789
 20
21.14893614345866
 30
0.0
 10
12.28000000000062
 20
21.14893614345866
 30
0.0
  0
SPLINE
  5
2A2
330
1F
100
AcDbEntity
  8
1
  6
SLD-Solid
370
    25
100
AcDbSpline
210
0.0
220
0.0
230
1.0
 70
     8
 71
     3
 72
    12
 73
     8
 74
     0
 42
0.000000001
 43
0.00000001
 40
0.0
 40
0.0
 40
0.0
 40
0.0
 40
0.2499999999999991
 40
0.2499999999999991
 40
0.4999999999999982
 40
0.4999999999999982
 40
1.0
 40
1.0
 40
1.0
 40
1.0
 10
12.27999999999999
 20
26.80430888868439
 30
0.0
 10
12.37978072431226
 20
26.8043088886844
 30
0.0
 10
12.48151042527953
 20
26.82597317527049
 30
0.0
 10
12.6649491578652
 20
26.90735539054001
 30
0.0
 10
12.74805388554812
 20
26.96711648327142
 30
0.0
 10
12.95292618544644
 20
27.18590763033071
 30
0.0
 10
13.02999999999999
 20
27.38705398234476
 30
0.0
 10
13.03
 20
27.5868351754964
 30
0.0
  0
SPLINE
  5
2A3
330
1F
100
AcDbEntity
  8
1
  6
SLD-Solid
370
    25
100
AcDbSpline
210
0.0
220
0.0
230
1.0
 70
     8
 71
     3
 72
     8
 73
     4
 74
     0
 42
0.000000001
 43
0.00000001
 40
0.0
 40
0.0
 40
0.0
 40
0.0
 40
1.0
 40
1.0
 40
1.0
 40
1.0
 10
14.63683664205737
 20
25.91022964004963
 30
0.0
 10
14.09012227778018
 20
24.74986742209087
 30
0.0
 10
13.55294133690133
 20
23.58393351776944
 30
0.0
 10
13.03000000000062
 20
22.41333264622314
 30
0.0
  0
SPLINE
  5
2A4
330
1F
100
AcDbEntity
  8
1
  6
SLD-Solid
370
    25
100
AcDbSpline
210
0.0
220
0.0
230
1.0
 70
     8
 71
     3
 72
     8
 73
     4
 74
     0
 42
0.000000001
 43
0.00000001
 40
0.0
 40
0.0
 40
0.0
 40
0.0
 40
1.0
 40
1.0
 40
1.0
 40
1.0
 10
13.03
 20
27.81278402659763
 30
0.0
 10
13.47617456320466
 20
28.61764830107019
 30
0.0
 10
13.92349688209517
 20
29.42186997179668
 30
0.0
 10
14.37172431088706
 20
30.22558335104454
 30
0.0
  0
SPLINE
  5
2A5
330
1F
100
AcDbEntity
  8
1
  6
SLD-Solid
370
    25
100
AcDbSpline
210
0.0
220
0.0
230
1.0
 70
     8
 71
     3
 72
     8
 73
     4
 74
     0
 42
0.000000001
 43
0.00000001
 40
0.0
 40
0.0
 40
0.0
 40
0.0
 40
0.000674288623364
 40
0.000674288623364
 40
0.000674288623364
 40
0.000674288623364
 10
14.6368366420567
 20
30.55790898306483
 30
0.0
 10
14.54802186686163
 20
30.44723584359263
 30
0.0
 10
14.45964331998806
 20
30.33646179836471
 30
0.0
 10
14.37172431088706
 20
30.22558335104454
 30
0.0
  0
SPLINE
  5
2A6
330
1F
100
AcDbEntity
  8
1
  6
SLD-Solid
370
    25
100
AcDbSpline
210
0.0
220
0.0
230
1.0
 70
     8
 71
     3
 72
     8
 73
     4
 74
     0
 42
0.000000001
 43
0.00000001
 40
0.0
 40
0.0
 40
0.0
 40
0.0
 40
1.0
 40
1.0
 40
1.0
 40
1.0
 10
9.200000000000625
 20
22.41333264622325
 30
0.0
 10
8.676711774191507
 20
23.58471002639462
 30
0.0
 10
8.139792627971945
 20
24.75004802856132
 30
0.0
 10
7.593163357943855
 20
25.91022964004973
 30
0.0
  0
SPLINE
  5
2A7
330
1F
100
AcDbEntity
  8
1
  6
SLD-Solid
370
    25
100
AcDbSpline
210
0.0
220
0.0
230
1.0
 70
     8
 71
     3
 72
     8
 73
     4
 74
     0
 42
0.000000001
 43
0.00000001
 40
0.0
 40
0.0
 40
0.0
 40
0.0
 40
0.0006744388085557
 40
0.0006744388085557
 40
0.0006744388085557
 40
0.0006744388085557
 10
7.858352633100982
 20
30.22544538331488
 30
0.0
 10
7.770408069256368
 20
30.33636220150422
 30
0.0
 10
7.682003870800825
 20
30.44717457304481
 30
0.0
 10
7.593163357943855
 20
30.55788599722889
 30
0.0
  0
SPLINE
  5
2A8
330
1F
100
AcDbEntity
  8
1
  6
SLD-Solid
370
    25
100
AcDbSpline
210
0.0
220
0.0
230
1.0
 70
     8
 71
     3
 72
     8
 73
     4
 74
     0
 42
0.000000001
 43
0.00000001
 40
0.0
 40
0.0
 40
0.0
 40
0.0
 40
1.0
 40
1.0
 40
1.0
 40
1.0
 10
7.858352633100988
 20
30.22544538331487
 30
0.0
 10
8.306554309596926
 20
29.4217779348065
 30
0.0
 10
8.75385096732785
 20
28.61760224597469
 30
0.0
 10
9.200000000000639
 20
27.81278402659968
 30
0.0
  0
SPLINE
  5
2A9
330
1F
100
AcDbEntity
  8
1
  6
SLD-Solid
370
    25
100
AcDbSpline
210
0.0
220
0.0
230
1.0
 70
     8
 71
     3
 72
    12
 73
     8
 74
     0
 42
0.000000001
 43
0.00000001
 40
0.0
 40
0.0
 40
0.0
 40
0.0
 40
0.25
 40
0.25
 40
0.5
 40
0.5
 40
1.0
 40
1.0
 40
1.0
 40
1.0
 10
9.950000000000625
 20
21.14893614345866
 30
0.0
 10
9.83593690180698
 20
21.14893614345866
 30
0.0
 10
9.721259457052934
 20
21.18584712701911
 30
0.0
 10
9.529550461760364
 20
21.30745805589538
 30
0.0
 10
9.448962431673479
 20
21.39173613326204
 30
0.0
 10
9.259830884990606
 20
21.67557833508276
 30
0.0
 10
9.200000000000625
 20
21.90610457426828
 30
0.0
 10
9.200000000000625
 20
22.13232929449805
 30
0.0
  0
SPLINE
  5
2AA
330
1F
100
AcDbEntity
  8
1
  6
SLD-Solid
370
    25
100
AcDbSpline
210
0.0
220
0.0
230
1.0
 70
     8
 71
     3
 72
    14
 73
    10
 74
     0
 42
0.000000001
 43
0.00000001
 40
0.0
 40
0.0
 40
0.0
 40
0.0
 40
0.25
 40
0.25
 40
0.5
 40
0.5
 40
0.75
 40
0.75
 40
1.0
 40
1.0
 40
1.0
 40
1.0
 10
9.199999999999973
 20
27.58683517549641
 30
0.0
 10
9.199999999999973
 20
27.48633204917055
 30
0.0
 10
9.218706918939404
 20
27.38625032826132
 30
0.0
 10
9.291262914439837
 20
27.19964761855489
 30
0.0
 10
9.345503941425262
 20
27.11279998838253
 30
0.0
 10
9.48201157420446
 20
26.96707505027711
 30
0.0
 10
9.5652198057522
 20
26.9071847047812
 30
0.0
 10
9.749488820138568
 20
26.82562619640964
 30
0.0
 10
9.849028188255518
 20
26.8043088886844
 30
0.0
 10
9.949999999999987
 20
26.8043088886844
 30
0.0
  0
SPLINE
  5
2AB
330
1F
100
AcDbEntity
  8
1
  6
SLD-Dashed
370
    18
100
AcDbSpline
210
0.0
220
0.0
230
1.0
 70
    24
 71
     2
 72
     6
 73
     3
 74
     0
 42
0.000000001
 43
0.00000001
 40
0.0
 40
0.0
 40
0.0
 40
0.25
 40
0.25
 40
0.25
 10
19.44999999999908
 20
24.7999999983648
 30
0.0
 10
19.43492036698849
 20
24.79999999843
 30
0.0
 10
19.40806811929424
 20
24.79999999854612
 30
0.0
  0
SPLINE
  5
2AC
330
1F
100
AcDbEntity
  8
1
  6
SLD-Dashed
370
    18
100
AcDbSpline
210
0.0
220
0.0
230
1.0
 70
    24
 71
     3
 72
     8
 73
     4
 74
     0
 42
0.000000001
 43
0.00000001
 40
0.25
 40
0.25
 40
0.25
 40
0.25
 40
0.5
 40
0.5
 40
0.5
 40
0.5
 10
19.40806811929424
 20
24.79999999854612
 30
0.0
 10
19.38121716178069
 20
24.79999999866197
 30
0.0
 10
19.34283199455673
 20
24.79999999882761
 30
0.0
 10
19.30045609663239
 20
24.79999999901044
 30
0.0
  0
SPLINE
  5
2AD
330
1F
100
AcDbEntity
  8
1
  6
SLD-Dashed
370
    18
100
AcDbSpline
210
0.0
220
0.0
230
1.0
 70
    24
 71
     3
 72
     8
 73
     4
 74
     0
 42
0.000000001
 43
0.00000001
 40
0.5
 40
0.5
 40
0.5
 40
0.5
 40
1.0
 40
1.0
 40
1.0
 40
1.0
 10
19.30045609663239
 20
24.79999999901044
 30
0.0
 10
19.2157043007837
 20
24.79999999937613
 30
0.0
 10
19.1147876117487
 20
24.79999999981156
 30
0.0
 10
19.07111487613772
 20
24.8
 30
0.0
  0
SPLINE
  5
2AE
330
1F
100
AcDbEntity
  8
SK3
  6
SLD-Dashed
370
    18
100
AcDbSpline
210
0.0
220
0.0
230
1.0
 70
     8
 71
     3
 72
    30
 73
    26
 74
     0
 42
0.000000001
 43
0.00000001
 40
0.499999999999999
 40
0.499999999999999
 40
0.499999999999999
 40
0.499999999999999
 40
0.5624999999999992
 40
0.5624999999999992
 40
0.6249999999999996
 40
0.6249999999999996
 40
0.6562499999999994
 40
0.6562499999999994
 40
0.6874999999999994
 40
0.6874999999999994
 40
0.7187499999999994
 40
0.7187499999999994
 40
0.7499999999999993
 40
0.7499999999999993
 40
0.7812499999999993
 40
0.7812499999999993
 40
0.8124999999999993
 40
0.8124999999999993
 40
0.8749999999999996
 40
0.8749999999999996
 40
0.9374999999999999
 40
0.9374999999999999
 40
0.9687499999999999
 40
0.9687499999999999
 40
1.0
 40
1.0
 40
1.0
 40
1.0
 10
11.76979658556573
 20
-4.897279110339464
 30
0.0
 10
11.91246294966132
 20
-4.882256760898252
 30
0.0
 10
12.04384136644408
 20
-4.882819793019733
 30
0.0
 10
12.28743240561785
 20
-4.928163099538012
 30
0.0
 10
12.4007403709436
 20
-4.971266772981784
 30
0.0
 10
12.55447570845301
 20
-5.099404902456448
 30
0.0
 10
12.60138543677659
 20
-5.151874520294798
 30
0.0
 10
12.68295201157342
 20
-5.2869805567278
 30
0.0
 10
12.71817196931761
 20
-5.371820149716412
 30
0.0
 10
12.76213654526594
 20
-5.578707548147721
 30
0.0
 10
12.77026091463634
 20
-5.701542481072332
 30
0.0
 10
12.75239776164135
 20
-5.964368720094725
 30
0.0
 10
12.72724833739214
 20
-6.099264719857816
 30
0.0
 10
12.65908666407783
 20
-6.353110225917079
 30
0.0
 10
12.61568164729122
 20
-6.474839021829204
 30
0.0
 10
12.52100924552234
 20
-6.700456538059788
 30
0.0
 10
12.46941331137409
 20
-6.805573231554563
 30
0.0
 10
12.30490621332254
 20
-7.105283457732453
 30
0.0
 10
12.18517846713211
 20
-7.27994899964142
 30
0.0
 10
11.92983731616859
 20
-7.593144382902771
 30
0.0
 10
11.79267665531759
 20
-7.73366357939878
 30
0.0
 10
11.56451158979956
 20
-7.91421967526005
 30
0.0
 10
11.48485276967108
 20
-7.969136937664188
 30
0.0
 10
11.31258630900463
 20
-8.065071374124763
 30
0.0
 10
11.21906269051034
 20
-8.106694499010088
 30
0.0
 10
11.11499999999999
 20
-8.135515956841495
 30
0.0
  0
SPLINE
  5
2AF
330
1F
100
AcDbEntity
  8
SK3
  6
SLD-Dashed
370
    18
100
AcDbSpline
210
0.0
220
0.0
230
1.0
 70
     8
 71
     3
 72
    34
 73
    30
 74
     0
 42
0.000000001
 43
0.00000001
 40
0.0
 40
0.0
 40
0.0
 40
0.0
 40
0.0312499999999997
 40
0.0312499999999997
 40
0.0624999999999995
 40
0.0624999999999995
 40
0.0937499999999992
 40
0.0937499999999992
 40
0.1249999999999991
 40
0.1249999999999991
 40
0.1562499999999989
 40
0.1562499999999989
 40
0.1874999999999988
 40
0.1874999999999988
 40
0.2499999999999989
 40
0.2499999999999989
 40
0.3124999999999991
 40
0.3124999999999991
 40
0.3437499999999992
 40
0.3437499999999992
 40
0.3749999999999992
 40
0.3749999999999992
 40
0.4062499999999993
 40
0.4062499999999993
 40
0.4374999999999992
 40
0.4374999999999992
 40
0.4687499999999992
 40
0.4687499999999992
 40
0.499999999999999
 40
0.499999999999999
 40
0.499999999999999
 40
0.499999999999999
 10
11.11499999999999
 20
-8.135515956841498
 30
0.0
 10
11.01093730948961
 20
-8.164337414672904
 30
0.0
 10
10.89827240143047
 20
-8.179464794190284
 30
0.0
 10
10.65524603173761
 20
-8.165841760405167
 30
0.0
 10
10.5310000363044
 20
-8.136838624998601
 30
0.0
 10
10.29040472633824
 20
-8.037357367222137
 30
0.0
 10
10.17852991293552
 20
-7.969631374308051
 30
0.0
 10
9.971641719228305
 20
-7.804710470753776
 30
0.0
 10
9.88014021175601
 20
-7.710255544057416
 30
0.0
 10
9.720479632928742
 20
-7.501520767052232
 30
0.0
 10
9.653640231842232
 20
-7.388447537981246
 30
0.0
 10
9.549145986449403
 20
-7.153218751817368
 30
0.0
 10
9.51066858961816
 20
-7.028363198412283
 30
0.0
 10
9.444144226770035
 20
-6.655645231796161
 30
0.0
 10
9.463570934642728
 20
-6.401824616238589
 30
0.0
 10
9.625438460184723
 20
-5.944312211752706
 30
0.0
 10
9.767910053168183
 20
-5.739855544595964
 30
0.0
 10
10.04867356462022
 20
-5.493346099588237
 30
0.0
 10
10.15222938652331
 20
-5.421392519446393
 30
0.0
 10
10.38092358660669
 20
-5.292864116337583
 30
0.0
 10
10.5028594505292
 20
-5.238408419891583
 30
0.0
 10
10.75142302172968
 20
-5.143758254460659
 30
0.0
 10
10.87148365715397
 20
-5.105486382977698
 30
0.0
 10
11.09561189675422
 20
-5.038956888356632
 30
0.0
 10
11.19522385975344
 20
-5.012076755424377
 30
0.0
 10
11.38076798793608
 20
-4.965661035352471
 30
0.0
 10
11.46555694339851
 20
-4.946630596353898
 30
0.0
 10
11.62416091896931
 20
-4.916239958733748
 30
0.0
 10
11.69846340351795
 20
-4.904790285060072
 30
0.0
 10
11.76979658556573
 20
-4.897279110339464
 30
0.0
  0
SPLINE
  5
2B0
330
1F
100
AcDbEntity
  8
SK3
  6
SLD-Dashed
370
    18
100
AcDbSpline
210
0.0
220
0.0
230
1.0
 70
     8
 71
     3
 72
    30
 73
    26
 74
     0
 42
0.000000001
 43
0.00000001
 40
0.5000000000000012
 40
0.5000000000000012
 40
0.5000000000000012
 40
0.5000000000000012
 40
0.5312500000000012
 40
0.5312500000000012
 40
0.5625000000000012
 40
0.5625000000000012
 40
0.6250000000000014
 40
0.6250000000000014
 40
0.6875000000000016
 40
0.6875000000000016
 40
0.7187500000000013
 40
0.7187500000000013
 40
0.7500000000000011
 40
0.7500000000000011
 40
0.781250000000001
 40
0.781250000000001
 40
0.8125000000000008
 40
0.8125000000000008
 40
0.8437500000000006
 40
0.8437500000000006
 40
0.8750000000000003
 40
0.8750000000000003
 40
0.9375000000000002
 40
0.9375000000000002
 40
1.0
 40
1.0
 40
1.0
 40
1.0
 10
9.543420299935407
 20
-8.779164202220976
 30
0.0
 10
9.57856123373539
 20
-8.859780618086694
 30
0.0
 10
9.622627266507006
 20
-8.923794183661835
 30
0.0
 10
9.718027024245012
 20
-9.025758720035872
 30
0.0
 10
9.77016585958776
 20
-9.064859097077958
 30
0.0
 10
9.935727180931442
 20
-9.157211171430475
 30
0.0
 10
10.05462982796813
 20
-9.184992456892163
 30
0.0
 10
10.31081948707685
 20
-9.203606692695102
 30
0.0
 10
10.44840974433162
 20
-9.193378534086479
 30
0.0
 10
10.6777732232879
 20
-9.155733028928248
 30
0.0
 10
10.75871097916553
 20
-9.139325882255612
 30
0.0
 10
10.93364535127571
 20
-9.098739976864989
 30
0.0
 10
11.02698337642653
 20
-9.07485143391961
 30
0.0
 10
11.23604536410176
 20
-9.016444669949886
 30
0.0
 10
11.35057343779476
 20
-8.982450275402131
 30
0.0
 10
11.59480302461462
 20
-8.89882537410535
 30
0.0
 10
11.7194559947736
 20
-8.850454838246366
 30
0.0
 10
11.95950363931203
 20
-8.734148500327661
 30
0.0
 10
12.07031700587897
 20
-8.668572650845512
 30
0.0
 10
12.27422745067752
 20
-8.516171160077093
 30
0.0
 10
12.36502701179842
 20
-8.430882284499667
 30
0.0
 10
12.59959907667485
 20
-8.148150203280688
 30
0.0
 10
12.70444177032678
 20
-7.922793662573071
 30
0.0
 10
12.78609851062196
 20
-7.438758262361185
 30
0.0
 10
12.76320534245734
 20
-7.182019426018011
 30
0.0
 10
12.67730763443387
 20
-6.93673517076919
 30
0.0
  0
SPLINE
  5
2B1
330
1F
100
AcDbEntity
  8
SK3
  6
SLD-Dashed
370
    18
100
AcDbSpline
210
0.0
220
0.0
230
1.0
 70
     8
 71
     3
 72
    34
 73
    30
 74
     0
 42
0.000000001
 43
0.00000001
 40
0.0
 40
0.0
 40
0.0
 40
0.0
 40
0.0312500000000001
 40
0.0312500000000001
 40
0.0625000000000003
 40
0.0625000000000003
 40
0.0937500000000004
 40
0.0937500000000004
 40
0.1250000000000005
 40
0.1250000000000005
 40
0.1562500000000007
 40
0.1562500000000007
 40
0.1875000000000008
 40
0.1875000000000008
 40
0.2500000000000008
 40
0.2500000000000008
 40
0.3125000000000008
 40
0.3125000000000008
 40
0.3437500000000008
 40
0.3437500000000008
 40
0.3750000000000009
 40
0.3750000000000009
 40
0.406250000000001
 40
0.406250000000001
 40
0.4375000000000011
 40
0.4375000000000011
 40
0.4687500000000012
 40
0.4687500000000012
 40
0.5000000000000012
 40
0.5000000000000012
 40
0.5000000000000012
 40
0.5000000000000012
 10
12.67730763443387
 20
-6.936735170769183
 30
0.0
 10
12.63435878042211
 20
-6.814093043144773
 30
0.0
 10
12.57729529856062
 20
-6.697907968659763
 30
0.0
 10
12.43603808962697
 20
-6.47882557969701
 30
0.0
 10
12.35095491427447
 20
-6.375597900680027
 30
0.0
 10
12.16118186397767
 20
-6.195677328194038
 30
0.0
 10
12.05422579636491
 20
-6.11651915045884
 30
0.0
 10
11.82324491388434
 20
-5.99228896874545
 30
0.0
 10
11.6988943948055
 20
-5.947796516244614
 30
0.0
 10
11.45304455248931
 20
-5.904797982531327
 30
0.0
 10
11.33231684279021
 20
-5.906500158642466
 30
0.0
 10
11.11245426351666
 20
-5.943973551987475
 30
0.0
 10
11.01315393168724
 20
-5.97845341631293
 30
0.0
 10
10.73767466537658
 20
-6.107558924087094
 30
0.0
 10
10.58689176004729
 20
-6.222865001686749
 30
0.0
 10
10.30357248622241
 20
-6.487130062003011
 30
0.0
 10
10.17286476490366
 20
-6.637950132877903
 30
0.0
 10
9.991005005593564
 20
-6.889595493159362
 30
0.0
 10
9.932635222666228
 20
-6.978050688572289
 30
0.0
 10
9.82040480561036
 20
-7.166770256680513
 30
0.0
 10
9.766060353100542
 20
-7.267956566324052
 30
0.0
 10
9.665448853514281
 20
-7.482658085956197
 30
0.0
 10
9.619326797725632
 20
-7.595375777572314
 30
0.0
 10
9.539388536729351
 20
-7.837768627707177
 30
0.0
 10
9.505665766297271
 20
-7.968295848681413
 30
0.0
 10
9.46522449538008
 20
-8.23365654153094
 30
0.0
 10
9.459739461343556
 20
-8.36574416000854
 30
0.0
 10
9.481585255233766
 20
-8.598717233607646
 30
0.0
 10
9.508279366135408
 20
-8.698547786355256
 30
0.0
 10
9.543420299935407
 20
-8.779164202220976
 30
0.0
  0
SPLINE
  5
2B2
330
1F
100
AcDbEntity
  8
SK3
  6
SLD-Dashed
370
    18
100
AcDbSpline
210
0.0
220
0.0
230
1.0
 70
    24
 71
     2
 72
     6
 73
     3
 74
     0
 42
0.000000001
 43
0.00000001
 40
0.0
 40
0.0
 40
0.0
 40
0.2499999999999999
 40
0.2499999999999999
 40
0.2499999999999999
 10
3.199999999999981
 20
-22.6
 30
0.0
 10
3.192575886898821
 20
-22.6
 30
0.0
 10
3.186463932143557
 20
-22.60000000000001
 30
0.0
  0
SPLINE
  5
2B3
330
1F
100
AcDbEntity
  8
SK3
  6
SLD-Dashed
370
    18
100
AcDbSpline
210
0.0
220
0.0
230
1.0
 70
    24
 71
     3
 72
     8
 73
     4
 74
     0
 42
0.000000001
 43
0.00000001
 40
0.2499999999999999
 40
0.2499999999999999
 40
0.2499999999999999
 40
0.2499999999999999
 40
0.4999999999999999
 40
0.4999999999999999
 40
0.4999999999999999
 40
0.4999999999999999
 10
3.186463932143557
 20
-22.60000000000001
 30
0.0
 10
3.180351977388293
 20
-22.6
 30
0.0
 10
3.175622110806339
 20
-22.6
 30
0.0
 10
3.1755356464295
 20
-22.60000000000001
 30
0.0
  0
SPLINE
  5
2B4
330
1F
100
AcDbEntity
  8
SK3
  6
SLD-Dashed
370
    18
100
AcDbSpline
210
0.0
220
0.0
230
1.0
 70
    24
 71
     3
 72
     8
 73
     4
 74
     0
 42
0.000000001
 43
0.00000001
 40
0.4999999999999999
 40
0.4999999999999999
 40
0.4999999999999999
 40
0.4999999999999999
 40
0.5624999999999999
 40
0.5624999999999999
 40
0.5624999999999999
 40
0.5624999999999999
 10
3.1755356464295
 20
-22.60000000000001
 30
0.0
 10
3.175514030335266
 20
-22.6
 30
0.0
 10
3.175756782063138
 20
-22.6
 30
0.0
 10
3.176252872171367
 20
-22.6
 30
0.0
  0
SPLINE
  5
2B5
330
1F
100
AcDbEntity
  8
SK3
  6
SLD-Dashed
370
    18
100
AcDbSpline
210
0.0
220
0.0
230
1.0
 70
    24
 71
     3
 72
     8
 73
     4
 74
     0
 42
0.000000001
 43
0.00000001
 40
0.5624999999999999
 40
0.5624999999999999
 40
0.5624999999999999
 40
0.5624999999999999
 40
0.6249999999999998
 40
0.6249999999999998
 40
0.6249999999999998
 40
0.6249999999999998
 10
3.176252872171367
 20
-22.6
 30
0.0
 10
3.176748962279583
 20
-22.6
 30
0.0
 10
3.177497902177584
 20
-22.59999999999999
 30
0.0
 10
3.178460899892654
 20
-22.59999999999999
 30
0.0
  0
SPLINE
  5
2B6
330
1F
100
AcDbEntity
  8
SK3
  6
SLD-Dashed
370
    18
100
AcDbSpline
210
0.0
220
0.0
230
1.0
 70
    24
 71
     3
 72
     8
 73
     4
 74
     0
 42
0.000000001
 43
0.00000001
 40
0.6249999999999998
 40
0.6249999999999998
 40
0.6249999999999998
 40
0.6249999999999998
 40
0.7499999999999999
 40
0.7499999999999999
 40
0.7499999999999999
 40
0.7499999999999999
 10
3.178460899892654
 20
-22.59999999999999
 30
0.0
 10
3.180386895322851
 20
-22.6
 30
0.0
 10
3.183192270314536
 20
-22.6
 30
0.0
 10
3.186270690980625
 20
-22.6
 30
0.0
  0
SPLINE
  5
2B7
330
1F
100
AcDbEntity
  8
SK3
  6
SLD-Dashed
370
    18
100
AcDbSpline
210
0.0
220
0.0
230
1.0
 70
    24
 71
     2
 72
     6
 73
     3
 74
     0
 42
0.000000001
 43
0.00000001
 40
0.7499999999999999
 40
0.7499999999999999
 40
0.7499999999999999
 40
1.0
 40
1.0
 40
1.0
 10
3.186270690980625
 20
-22.6
 30
0.0
 10
3.192427532312775
 20
-22.6
 30
0.0
 10
3.199999999999981
 20
-22.6
 30
0.0
  0
SPLINE
  5
2B8
330
1F
100
AcDbEntity
  8
SK3
  6
SLD-Dashed
370
    18
100
AcDbSpline
210
0.0
220
0.0
230
1.0
 70
     8
 71
     3
 72
    30
 73
    26
 74
     0
 42
0.000000001
 43
0.00000001
 40
0.4999999999999996
 40
0.4999999999999996
 40
0.4999999999999996
 40
0.4999999999999996
 40
0.5624999999999996
 40
0.5624999999999996
 40
0.5937499999999996
 40
0.5937499999999996
 40
0.6249999999999994
 40
0.6249999999999994
 40
0.6562499999999994
 40
0.6562499999999994
 40
0.6874999999999994
 40
0.6874999999999994
 40
0.7499999999999993
 40
0.7499999999999993
 40
0.7812499999999994
 40
0.7812499999999994
 40
0.8124999999999993
 40
0.8124999999999993
 40
0.8749999999999994
 40
0.8749999999999994
 40
0.9374999999999997
 40
0.9374999999999997
 40
0.9687499999999998
 40
0.9687499999999998
 40
1.0
 40
1.0
 40
1.0
 40
1.0
 10
11.11569631589288
 20
-0.776187179692956
 30
0.0
 10
10.899908731128
 20
-0.7760940527120619
 30
0.0
 10
10.68204871088027
 20
-0.8206453475713207
 30
0.0
 10
10.38394682434138
 20
-0.9461590508833169
 30
0.0
 10
10.28746606938093
 20
-0.9984249815305907
 30
0.0
 10
10.10820324531783
 20
-1.119257329460874
 30
0.0
 10
10.02537901622105
 20
-1.187498351242083
 30
0.0
 10
9.873121294980816
 20
-1.339130272885975
 30
0.0
 10
9.803681930597898
 20
-1.422966399572716
 30
0.0
 10
9.68427993111931
 20
-1.59859712462846
 30
0.0
 10
9.63341209830687
 20
-1.69116625469912
 30
0.0
 10
9.508205595726988
 20
-1.983206633486702
 30
0.0
 10
9.465125330464188
 20
-2.188626025133991
 30
0.0
 10
9.464937742964807
 20
-2.495562715383884
 30
0.0
 10
9.475546982397622
 20
-2.595594457577826
 30
0.0
 10
9.517585032662964
 20
-2.791308244238445
 30
0.0
 10
9.549548787703088
 20
-2.887772084563863
 30
0.0
 10
9.673420645566367
 20
-3.159224968162369
 30
0.0
 10
9.796132052843381
 20
-3.322668800155661
 30
0.0
 10
10.09893117164389
 20
-3.590052108657388
 30
0.0
 10
10.28218199047465
 20
-3.696740205200628
 30
0.0
 10
10.57995009154443
 20
-3.803806145853093
 30
0.0
 10
10.68494779055132
 20
-3.831410842413653
 30
0.0
 10
10.89769529526727
 20
-3.867947222441274
 30
0.0
 10
11.00557869160473
 20
-3.87717267803268
 30
0.0
 10
11.11499999999999
 20
-3.877172678032673
 30
0.0
  0
SPLINE
  5
2B9
330
1F
100
AcDbEntity
  8
SK3
  6
SLD-Dashed
370
    18
100
AcDbSpline
210
0.0
220
0.0
230
1.0
 70
     8
 71
     3
 72
    32
 73
    28
 74
     0
 42
0.000000001
 43
0.00000001
 40
0.0
 40
0.0
 40
0.0
 40
0.0
 40
0.03125
 40
0.03125
 40
0.0624999999999999
 40
0.0624999999999999
 40
0.0937499999999999
 40
0.0937499999999999
 40
0.1249999999999998
 40
0.1249999999999998
 40
0.1874999999999996
 40
0.1874999999999996
 40
0.2499999999999994
 40
0.2499999999999994
 40
0.2812499999999994
 40
0.2812499999999994
 40
0.3124999999999995
 40
0.3124999999999995
 40
0.3749999999999995
 40
0.3749999999999995
 40
0.4062499999999995
 40
0.4062499999999995
 40
0.4374999999999995
 40
0.4374999999999995
 40
0.4687499999999996
 40
0.4687499999999996
 40
0.4999999999999996
 40
0.4999999999999996
 40
0.4999999999999996
 40
0.4999999999999996
 10
11.11499999999999
 20
-3.877172678032673
 30
0.0
 10
11.22442130839524
 20
-3.877172678032673
 30
0.0
 10
11.3319341306669
 20
-3.867949144079185
 30
0.0
 10
11.54332442490719
 20
-3.831768674567464
 30
0.0
 10
11.6483209617145
 20
-3.804348043195127
 30
0.0
 10
11.84793304664306
 20
-3.732733819274785
 30
0.0
 10
11.94254517476254
 20
-3.68883028834854
 30
0.0
 10
12.12160220610708
 20
-3.584517425655336
 30
0.0
 10
12.20606744927402
 20
-3.523753458917013
 30
0.0
 10
12.43345669318052
 20
-3.323175041199285
 30
0.0
 10
12.55627008848897
 20
-3.159519466276264
 30
0.0
 10
12.72112946070204
 20
-2.799010829243599
 30
0.0
 10
12.76486706341026
 20
-2.598123691223343
 30
0.0
 10
12.7650660020629
 20
-2.293577165403442
 30
0.0
 10
12.75426006744512
 20
-2.189545011981046
 30
0.0
 10
12.71198912166742
 20
-1.987057576095731
 30
0.0
 10
12.68071768734325
 20
-1.887771593074419
 30
0.0
 10
12.55618181218156
 20
-1.596181771180261
 30
0.0
 10
12.43480939117335
 20
-1.417011034108448
 30
0.0
 10
12.20531420885772
 20
-1.188054939879783
 30
0.0
 10
12.1224373878862
 20
-1.119792609414732
 30
0.0
 10
11.94410843411707
 20
-0.9993840943400938
 30
0.0
 10
11.84749232480424
 20
-0.9468582944288373
 30
0.0
 10
11.64829056865491
 20
-0.8628003181327497
 30
0.0
 10
11.54544423826306
 20
-0.8307938811981975
 30
0.0
 10
11.33312782045751
 20
-0.7873446954405373
 30
0.0
 10
11.2235901082753
 20
-0.7762337431834049
 30
0.0
 10
11.11569631589288
 20
-0.776187179692956
 30
0.0
  0
SPLINE
  5
2BA
330
1F
100
AcDbEntity
  8
SK3
  6
SLD-Dashed
370
    18
100
AcDbSpline
210
0.0
220
0.0
230
1.0
 70
     8
 71
     3
 72
    36
 73
    32
 74
     0
 42
0.000000001
 43
0.00000001
 40
0.0
 40
0.0
 40
0.0
 40
0.0
 40
0.03125
 40
0.03125
 40
0.0625
 40
0.0625
 40
0.1249999999999994
 40
0.1249999999999994
 40
0.1562499999999992
 40
0.1562499999999992
 40
0.187499999999999
 40
0.187499999999999
 40
0.2187499999999988
 40
0.2187499999999988
 40
0.2499999999999986
 40
0.2499999999999986
 40
0.2812499999999984
 40
0.2812499999999984
 40
0.3124999999999982
 40
0.3124999999999982
 40
0.343749999999998
 40
0.343749999999998
 40
0.374999999999998
 40
0.374999999999998
 40
0.406249999999998
 40
0.406249999999998
 40
0.437499999999998
 40
0.437499999999998
 40
0.4687499999999979
 40
0.4687499999999979
 40
0.4999999999999979
 40
0.4999999999999979
 40
0.4999999999999979
 40
0.4999999999999979
 10
20.42877436375291
 20
-6.89429111656888
 30
0.0
 10
20.36816428017933
 20
-6.785454411282147
 30
0.0
 10
20.31100396062469
 20
-6.676505058720402
 30
0.0
 10
20.20664714423202
 20
-6.45715078687234
 30
0.0
 10
20.15895593929003
 20
-6.345388763911629
 30
0.0
 10
20.04147940298662
 20
-6.019401283097345
 30
0.0
 10
19.99676702048005
 20
-5.809155615424232
 30
0.0
 10
20.00190534221674
 20
-5.551500360073882
 30
0.0
 10
20.0154563008995
 20
-5.474269784234358
 30
0.0
 10
20.06289918583917
 20
-5.345861765892863
 30
0.0
 10
20.09730535753174
 20
-5.292865557654857
 30
0.0
 10
20.18062817297385
 20
-5.212165306452063
 30
0.0
 10
20.23005954928997
 20
-5.183576103269923
 30
0.0
 10
20.33834067361953
 20
-5.148480788808321
 30
0.0
 10
20.39656985721078
 20
-5.141923763060774
 30
0.0
 10
20.51788162162627
 20
-5.14812464061621
 30
0.0
 10
20.58155862623522
 20
-5.161102475171552
 30
0.0
 10
20.70705706422994
 20
-5.206069453542943
 30
0.0
 10
20.76880800748006
 20
-5.23774191243414
 30
0.0
 10
20.8828979923151
 20
-5.321855859058054
 30
0.0
 10
20.93617991732226
 20
-5.375232830611716
 30
0.0
 10
21.01263243599794
 20
-5.506905981263928
 30
0.0
 10
21.03476689408838
 20
-5.587194576168374
 30
0.0
 10
21.02801598567439
 20
-5.764282278950206
 30
0.0
 10
20.99944093822458
 20
-5.862578959309979
 30
0.0
 10
20.91519629399154
 20
-6.059515039022193
 30
0.0
 10
20.85965326553929
 20
-6.161058198175168
 30
0.0
 10
20.74232657941938
 20
-6.363858198355082
 30
0.0
 10
20.67983948781861
 20
-6.46621011626565
 30
0.0
 10
20.55394002182732
 20
-6.676109885380803
 30
0.0
 10
20.49056294638328
 20
-6.783464434381749
 30
0.0
 10
20.43059698695814
 20
-6.89102014933786
 30
0.0
  0
SPLINE
  5
2BB
330
1F
100
AcDbEntity
  8
SK3
  6
SLD-Dashed
370
    18
100
AcDbSpline
210
0.0
220
0.0
230
1.0
 70
     8
 71
     3
 72
    46
 73
    42
 74
     0
 42
0.000000001
 43
0.00000001
 40
0.0
 40
0.0
 40
0.0
 40
0.0
 40
0.0625000000000003
 40
0.0625000000000003
 40
0.1250000000000006
 40
0.1250000000000006
 40
0.1875000000000009
 40
0.1875000000000009
 40
0.2500000000000012
 40
0.2500000000000012
 40
0.3125000000000014
 40
0.3125000000000014
 40
0.3750000000000018
 40
0.3750000000000018
 40
0.4375000000000021
 40
0.4375000000000021
 40
0.5000000000000023
 40
0.5000000000000023
 40
0.5312500000000026
 40
0.5312500000000026
 40
0.5625000000000029
 40
0.5625000000000029
 40
0.6250000000000031
 40
0.6250000000000031
 40
0.6875000000000032
 40
0.6875000000000032
 40
0.7500000000000032
 40
0.7500000000000032
 40
0.7812500000000029
 40
0.7812500000000029
 40
0.8125000000000024
 40
0.8125000000000024
 40
0.843750000000002
 40
0.843750000000002
 40
0.8750000000000017
 40
0.8750000000000017
 40
0.9062500000000012
 40
0.9062500000000012
 40
0.9375000000000008
 40
0.9375000000000008
 40
1.0
 40
1.0
 40
1.0
 40
1.0
 10
23.74999999999996
 20
-4.217514690900463
 30
0.0
 10
23.6428371577565
 20
-4.061430750970166
 30
0.0
 10
23.50774383680984
 20
-3.918313452477621
 30
0.0
 10
23.18172926080411
 20
-3.663606146749446
 30
0.0
 10
22.99819345631191
 20
-3.558136958014359
 30
0.0
 10
22.59287726687847
 20
-3.400131374823843
 30
0.0
 10
22.37863717656176
 20
-3.350927696811945
 30
0.0
 10
21.93642055068508
 20
-3.318880763641389
 30
0.0
 10
21.71507795677814
 20
-3.336766035708622
 30
0.0
 10
21.28624105751684
 20
-3.437460043035592
 30
0.0
 10
21.08458134945545
 20
-3.518672070104329
 30
0.0
 10
20.71665774656614
 20
-3.73193918253387
 30
0.0
 10
20.55584662750774
 20
-3.8605511172034
 30
0.0
 10
20.28594417824969
 20
-4.149825203091886
 30
0.0
 10
20.18110063413473
 20
-4.306026429236796
 30
0.0
 10
20.03721164415045
 20
-4.62883370698387
 30
0.0
 10
20.00025534242254
 20
-4.791464057492447
 30
0.0
 10
19.99987430204056
 20
-5.026455720665114
 30
0.0
 10
20.00909908347154
 20
-5.103471170728
 30
0.0
 10
20.04522154657204
 20
-5.249668337994607
 30
0.0
 10
20.07208064188116
 20
-5.319631678032871
 30
0.0
 10
20.17939054485686
 20
-5.52063472792455
 30
0.0
 10
20.28444146690298
 20
-5.638542178147545
 30
0.0
 10
20.55350451804565
 20
-5.840470835293488
 30
0.0
 10
20.71468587859676
 20
-5.922583309655571
 30
0.0
 10
21.0811720352212
 20
-6.051694123441656
 30
0.0
 10
21.28315549268536
 20
-6.097482837965865
 30
0.0
 10
21.60341582097076
 20
-6.139426472744999
 30
0.0
 10
21.71380898251242
 20
-6.148920042226742
 30
0.0
 10
21.93303673754925
 20
-6.158580921190784
 30
0.0
 10
22.04295043177062
 20
-6.158920176070168
 30
0.0
 10
22.26338579812072
 20
-6.15050583065841
 30
0.0
 10
22.37403558052187
 20
-6.141622946422842
 30
0.0
 10
22.5874464406389
 20
-6.115041247172586
 30
0.0
 10
22.69132324254375
 20
-6.097331892368815
 30
0.0
 10
22.89346279633431
 20
-6.052421766779077
 30
0.0
 10
22.99150964466834
 20
-6.025138147065221
 30
0.0
 10
23.17509470892202
 20
-5.96218653369985
 30
0.0
 10
23.26159300477865
 20
-5.926333926253847
 30
0.0
 10
23.50523871858608
 20
-5.804066637411447
 30
0.0
 10
23.64282557623284
 20
-5.704662240370396
 30
0.0
 10
23.74999999999996
 20
-5.586821084663375
 30
0.0
  0
SPLINE
  5
2BC
330
1F
100
AcDbEntity
  8
SK3
  6
SLD-Dashed
370
    18
100
AcDbSpline
210
0.0
220
0.0
230
1.0
 70
     8
 71
     3
 72
    18
 73
    14
 74
     0
 42
0.000000001
 43
0.00000001
 40
0.0
 40
0.0
 40
0.0
 40
0.0
 40
0.1250000000000002
 40
0.1250000000000002
 40
0.2500000000000004
 40
0.2500000000000004
 40
0.3750000000000007
 40
0.3750000000000007
 40
0.5000000000000009
 40
0.5000000000000009
 40
0.7500000000000004
 40
0.7500000000000004
 40
1.0
 40
1.0
 40
1.0
 40
1.0
 10
23.74999999999996
 20
-5.586821084663383
 30
0.0
 10
23.78612687646989
 20
-5.504171021360849
 30
0.0
 10
23.8196524986249
 20
-5.421769179774917
 30
0.0
 10
23.88024151609756
 20
-5.257414911906129
 30
0.0
 10
23.90751114835546
 20
-5.17463436420464
 30
0.0
 10
23.95206885922457
 20
-5.015384429096055
 30
0.0
 10
23.96955959090309
 20
-4.938575770111097
 30
0.0
 10
23.99357836300063
 20
-4.791143618704533
 30
0.0
 10
23.99994695300826
 20
-4.720111290608089
 30
0.0
 10
24.00010506684086
 20
-4.528885840696405
 30
0.0
 10
23.97466758303746
 20
-4.425189902644955
 30
0.0
 10
23.88548116121679
 20
-4.280059562677136
 30
0.0
 10
23.82236913412095
 20
-4.23692889882209
 30
0.0
 10
23.74999999999996
 20
-4.217514690900463
 30
0.0
  0
SPLINE
  5
2BD
330
1F
100
AcDbEntity
  8
SK3
  6
SLD-Dashed
370
    18
100
AcDbSpline
210
0.0
220
0.0
230
1.0
 70
     8
 71
     3
 72
    32
 73
    28
 74
     0
 42
0.000000001
 43
0.00000001
 40
0.0
 40
0.0
 40
0.0
 40
0.0
 40
0.0625000000000015
 40
0.0625000000000015
 40
0.0937500000000021
 40
0.0937500000000021
 40
0.1250000000000025
 40
0.1250000000000025
 40
0.1562500000000029
 40
0.1562500000000029
 40
0.1875000000000033
 40
0.1875000000000033
 40
0.2500000000000041
 40
0.2500000000000041
 40
0.2812500000000042
 40
0.2812500000000042
 40
0.3125000000000042
 40
0.3125000000000042
 40
0.3437500000000043
 40
0.3437500000000043
 40
0.3750000000000042
 40
0.3750000000000042
 40
0.4062500000000041
 40
0.4062500000000041
 40
0.4375000000000039
 40
0.4375000000000039
 40
0.5000000000000037
 40
0.5000000000000037
 40
0.5000000000000037
 40
0.5000000000000037
 10
23.57122563624706
 20
-6.894291116568873
 30
0.0
 10
23.44976330127641
 20
-7.112399384619509
 30
0.0
 10
23.31947415445185
 20
-7.318151643463885
 30
0.0
 10
23.14146075436957
 20
-7.625475959895184
 30
0.0
 10
23.08656838323014
 20
-7.725498449139699
 30
0.0
 10
23.00118896440383
 20
-7.923989741967702
 30
0.0
 10
22.9724815520961
 20
-8.020787486761876
 30
0.0
 10
22.96489847940104
 20
-8.20083958432876
 30
0.0
 10
22.98665820524366
 20
-8.279812260980911
 30
0.0
 10
23.06266618105182
 20
-8.411988833581782
 30
0.0
 10
23.11474488377856
 20
-8.464698503364495
 30
0.0
 10
23.28790316326732
 20
-8.593218815865008
 30
0.0
 10
23.41827862686721
 20
-8.636832015824554
 30
0.0
 10
23.6025134122179
 20
-8.646789130589148
 30
0.0
 10
23.6609441285897
 20
-8.640166223476276
 30
0.0
 10
23.76848467205647
 20
-8.605641651615349
 30
0.0
 10
23.81817659009682
 20
-8.577263630701308
 30
0.0
 10
23.90188554844655
 20
-8.496803847927437
 30
0.0
 10
23.93579629817707
 20
-8.44530767800385
 30
0.0
 10
23.98416949480472
 20
-8.316236478733806
 30
0.0
 10
23.99767549305683
 20
-8.240455316392271
 30
0.0
 10
24.00177162971194
 20
-8.069578907258053
 30
0.0
 10
23.99202491759464
 20
-7.972739518673181
 30
0.0
 10
23.95134284528
 20
-7.770586695051755
 30
0.0
 10
23.92006539291291
 20
-7.662704984764787
 30
0.0
 10
23.80249532756207
 20
-7.33576198274926
 30
0.0
 10
23.6919365168152
 20
-7.111182878377136
 30
0.0
 10
23.57219033101421
 20
-6.896023938523905
 30
0.0
  0
SPLINE
  5
2BE
330
1F
100
AcDbEntity
  8
SK3
  6
SLD-Dashed
370
    18
100
AcDbSpline
210
0.0
220
0.0
230
1.0
 70
     8
 71
     3
 72
    32
 73
    28
 74
     0
 42
0.000000001
 43
0.00000001
 40
0.0
 40
0.0
 40
0.0
 40
0.0
 40
0.0625000000000004
 40
0.0625000000000004
 40
0.0937500000000005
 40
0.0937500000000005
 40
0.1250000000000005
 40
0.1250000000000005
 40
0.1562500000000004
 40
0.1562500000000004
 40
0.1875000000000004
 40
0.1875000000000004
 40
0.2500000000000004
 40
0.2500000000000004
 40
0.2812500000000004
 40
0.2812500000000004
 40
0.3125000000000003
 40
0.3125000000000003
 40
0.3437500000000002
 40
0.3437500000000002
 40
0.3750000000000002
 40
0.3750000000000002
 40
0.4062500000000001
 40
0.4062500000000001
 40
0.4375000000000002
 40
0.4375000000000002
 40
0.5000000000000002
 40
0.5000000000000002
 40
0.5000000000000002
 40
0.5000000000000002
 10
20.42877436375295
 20
6.894291116568821
 30
0.0
 10
20.55023669872359
 20
7.11239938461946
 30
0.0
 10
20.68052584554815
 20
7.318151643463812
 30
0.0
 10
20.85853924563044
 20
7.625475959895114
 30
0.0
 10
20.91343161676989
 20
7.725498449139626
 30
0.0
 10
20.99881103559623
 20
7.923989741967626
 30
0.0
 10
21.02751844790396
 20
8.0207874867618
 30
0.0
 10
21.03510152059901
 20
8.200839584328683
 30
0.0
 10
21.01334179475642
 20
8.279812260980838
 30
0.0
 10
20.93733381894826
 20
8.411988833581713
 30
0.0
 10
20.88525511622151
 20
8.46469850336444
 30
0.0
 10
20.71209683673275
 20
8.593218815864939
 30
0.0
 10
20.58172137313285
 20
8.636832015824499
 30
0.0
 10
20.39748658778212
 20
8.64678913058909
 30
0.0
 10
20.33905587141034
 20
8.640166223476228
 30
0.0
 10
20.23151532794355
 20
8.605641651615308
 30
0.0
 10
20.18182340990321
 20
8.577263630701278
 30
0.0
 10
20.09811445155344
 20
8.496803847927406
 30
0.0
 10
20.06420370182294
 20
8.445307678003818
 30
0.0
 10
20.01583050519526
 20
8.316236478733794
 30
0.0
 10
20.00232450694314
 20
8.24045531639226
 30
0.0
 10
19.998228370288
 20
8.069578907258041
 30
0.0
 10
20.0079750824053
 20
7.972739518673187
 30
0.0
 10
20.04865715471993
 20
7.770586695051755
 30
0.0
 10
20.079934607087
 20
7.662704984764783
 30
0.0
 10
20.19750467243783
 20
7.335761982749253
 30
0.0
 10
20.30806348318468
 20
7.111182878377129
 30
0.0
 10
20.42780966898566
 20
6.896023938523885
 30
0.0
  0
SPLINE
  5
2BF
330
1F
100
AcDbEntity
  8
SK3
  6
SLD-Dashed
370
    18
100
AcDbSpline
210
0.0
220
0.0
230
1.0
 70
     8
 71
     3
 72
    36
 73
    32
 74
     0
 42
0.000000001
 43
0.00000001
 40
0.0
 40
0.0
 40
0.0
 40
0.0
 40
0.03125
 40
0.03125
 40
0.0625
 40
0.0625
 40
0.1249999999999999
 40
0.1249999999999999
 40
0.1562499999999998
 40
0.1562499999999998
 40
0.1874999999999998
 40
0.1874999999999998
 40
0.2187499999999997
 40
0.2187499999999997
 40
0.2499999999999996
 40
0.2499999999999996
 40
0.2812499999999996
 40
0.2812499999999996
 40
0.3124999999999996
 40
0.3124999999999996
 40
0.3437499999999995
 40
0.3437499999999995
 40
0.3749999999999996
 40
0.3749999999999996
 40
0.4062499999999997
 40
0.4062499999999997
 40
0.4374999999999998
 40
0.4374999999999998
 40
0.4687499999999999
 40
0.4687499999999999
 40
0.5
 40
0.5
 40
0.5
 40
0.5
 10
23.57122563624701
 20
6.894291116568814
 30
0.0
 10
23.63183571982057
 20
6.785454411282095
 30
0.0
 10
23.68899603937523
 20
6.676505058720361
 30
0.0
 10
23.79335285576789
 20
6.457150786872298
 30
0.0
 10
23.8410440607099
 20
6.34538876391158
 30
0.0
 10
23.95852059701334
 20
6.01940128309731
 30
0.0
 10
24.00323297951989
 20
5.809155615424181
 30
0.0
 10
23.99809465778321
 20
5.55150036007384
 30
0.0
 10
23.98454369910047
 20
5.474269784234314
 30
0.0
 10
23.93710081416078
 20
5.345861765892815
 30
0.0
 10
23.90269464246823
 20
5.292865557654805
 30
0.0
 10
23.81937182702612
 20
5.212165306452015
 30
0.0
 10
23.76994045071001
 20
5.183576103269881
 30
0.0
 10
23.66165932638045
 20
5.148480788808272
 30
0.0
 10
23.60343014278922
 20
5.141923763060725
 30
0.0
 10
23.48211837837373
 20
5.148124640616161
 30
0.0
 10
23.41844137376478
 20
5.161102475171493
 30
0.0
 10
23.29294293577007
 20
5.206069453542899
 30
0.0
 10
23.23119199251997
 20
5.237741912434091
 30
0.0
 10
23.11710200768494
 20
5.321855859058013
 30
0.0
 10
23.06382008267776
 20
5.375232830611671
 30
0.0
 10
22.9873675640021
 20
5.506905981263889
 30
0.0
 10
22.96523310591168
 20
5.587194576168339
 30
0.0
 10
22.97198401432568
 20
5.764282278950171
 30
0.0
 10
23.00055906177546
 20
5.862578959309952
 30
0.0
 10
23.08480370600854
 20
6.059515039022162
 30
0.0
 10
23.14034673446079
 20
6.161058198175133
 30
0.0
 10
23.25767342058066
 20
6.363858198355069
 30
0.0
 10
23.32016051218144
 20
6.466210116265636
 30
0.0
 10
23.44605997817273
 20
6.676109885380782
 30
0.0
 10
23.50943705361676
 20
6.783464434381735
 30
0.0
 10
23.56940301304189
 20
6.891020149337845
 30
0.0
  0
SPLINE
  5
2C0
330
1F
100
AcDbEntity
  8
SK3
  6
SLD-Dashed
370
    18
100
AcDbSpline
210
0.0
220
0.0
230
1.0
 70
     8
 71
     3
 72
    18
 73
    14
 74
     0
 42
0.000000001
 43
0.00000001
 40
0.0
 40
0.0
 40
0.0
 40
0.0
 40
0.125
 40
0.125
 40
0.25
 40
0.25
 40
0.375
 40
0.375
 40
0.5
 40
0.5
 40
0.75
 40
0.75
 40
1.0
 40
1.0
 40
1.0
 40
1.0
 10
23.74999999999998
 20
4.217514690900419
 30
0.0
 10
23.78612687646989
 20
4.227206318413522
 30
0.0
 10
23.81965249862489
 20
4.242600500574026
 30
0.0
 10
23.88024151609758
 20
4.286800216057054
 30
0.0
 10
23.90751114835549
 20
4.316034350452705
 30
0.0
 10
23.9520688592246
 20
4.388291227484936
 30
0.0
 10
23.96955959090312
 20
4.431236865470104
 30
0.0
 10
23.99357836300064
 20
4.532274250971614
 30
0.0
 10
23.99994695300829
 20
4.591074057251711
 30
0.0
 10
24.00010506684087
 20
4.781995288053952
 30
0.0
 10
23.97466758303746
 20
4.934369744400882
 30
0.0
 10
23.88548116121679
 20
5.253614810026639
 30
0.0
 10
23.82236913412095
 20
5.421256992200835
 30
0.0
 10
23.74999999999998
 20
5.586821084663331
 30
0.0
  0
SPLINE
  5
2C1
330
1F
100
AcDbEntity
  8
SK3
  6
SLD-Dashed
370
    18
100
AcDbSpline
210
0.0
220
0.0
230
1.0
 70
     8
 71
     3
 72
    46
 73
    42
 74
     0
 42
0.000000001
 43
0.00000001
 40
0.0
 40
0.0
 40
0.0
 40
0.0
 40
0.0625000000000002
 40
0.0625000000000002
 40
0.1250000000000004
 40
0.1250000000000004
 40
0.1875000000000007
 40
0.1875000000000007
 40
0.2500000000000009
 40
0.2500000000000009
 40
0.3125000000000011
 40
0.3125000000000011
 40
0.3750000000000013
 40
0.3750000000000013
 40
0.4375000000000015
 40
0.4375000000000015
 40
0.5000000000000017
 40
0.5000000000000017
 40
0.5312500000000018
 40
0.5312500000000018
 40
0.5625000000000019
 40
0.5625000000000019
 40
0.6250000000000022
 40
0.6250000000000022
 40
0.6875000000000026
 40
0.6875000000000026
 40
0.7500000000000029
 40
0.7500000000000029
 40
0.7812500000000026
 40
0.7812500000000026
 40
0.8125000000000022
 40
0.8125000000000022
 40
0.8437500000000019
 40
0.8437500000000019
 40
0.8750000000000016
 40
0.8750000000000016
 40
0.9062500000000012
 40
0.9062500000000012
 40
0.9375000000000009
 40
0.9375000000000009
 40
1.0
 40
1.0
 40
1.0
 40
1.0
 10
23.74999999999996
 20
5.586821084663324
 30
0.0
 10
23.6428371577565
 20
5.704649506174213
 30
0.0
 10
23.50774383680984
 20
5.802565789322436
 30
0.0
 10
23.18172926080411
 20
5.966652332152579
 30
0.0
 10
22.99819345631191
 20
6.028926145109505
 30
0.0
 10
22.59287726687847
 20
6.119427727256134
 30
0.0
 10
22.37863717656175
 20
6.145861673332316
 30
0.0
 10
21.93642055068506
 20
6.163226639815187
 30
0.0
 10
21.71507795677813
 20
6.153803877658105
 30
0.0
 10
21.28624105751684
 20
6.098129073270946
 30
0.0
 10
21.08458134945545
 20
6.052642837931097
 30
0.0
 10
20.71665774656614
 20
5.923526685882266
 30
0.0
 10
20.55584662750774
 20
5.841853050052456
 30
0.0
 10
20.28594417824968
 20
5.640040139106365
 30
0.0
 10
20.18110063413474
 20
5.522869730865611
 30
0.0
 10
20.03721164415045
 20
5.255268992781191
 30
0.0
 10
20.00025534242254
 20
5.107927705262201
 30
0.0
 10
19.99987430204056
 20
4.873090005561111
 30
0.0
 10
20.00909908347154
 20
4.792324524355567
 30
0.0
 10
20.04522154657204
 20
4.631714010843995
 30
0.0
 10
20.07208064188116
 20
4.551101613446608
 30
0.0
 10
20.17939054485687
 20
4.308900154821702
 30
0.0
 10
20.28444146690298
 20
4.151860753936205
 30
0.0
 10
20.55350451804566
 20
3.862642364613984
 30
0.0
 10
20.71468587859676
 20
3.733434174370845
 30
0.0
 10
21.08117203522121
 20
3.52030141187832
 30
0.0
 10
21.28315549268538
 20
3.43861028910257
 30
0.0
 10
21.60341582097078
 20
3.36277816777443
 30
0.0
 10
21.71380898251243
 20
3.345278019288959
 30
0.0
 10
21.93303673754926
 20
3.327459052968281
 30
0.0
 10
22.04295043177065
 20
3.32682735713527
 30
0.0
 10
22.26338579812073
 20
3.342357854333483
 30
0.0
 10
22.37403558052189
 20
3.358753335030731
 30
0.0
 10
22.58744644063892
 20
3.406908705408121
 30
0.0
 10
22.69132324254378
 20
3.438689636148156
 30
0.0
 10
22.89346279633432
 20
3.517134256247487
 30
0.0
 10
22.99150964466837
 20
3.563905565195285
 30
0.0
 10
23.17509470892204
 20
3.668248124952631
 30
0.0
 10
23.26159300477866
 20
3.726155401225117
 30
0.0
 10
23.50523871858609
 20
3.916054390157693
 30
0.0
 10
23.64282557623284
 20
4.061413882344691
 30
0.0
 10
23.74999999999996
 20
4.217514690900377
 30
0.0
  0
SPLINE
  5
2C2
330
1F
100
AcDbEntity
  8
SK3
  6
SLD-Dashed
370
    18
100
AcDbSpline
210
0.0
220
0.0
230
1.0
 70
     8
 71
     3
 72
    10
 73
     6
 74
     0
 42
0.000000001
 43
0.00000001
 40
0.0
 40
0.0
 40
0.0
 40
0.0
 40
0.5
 40
0.5
 40
1.0
 40
1.0
 40
1.0
 40
1.0
 10
3.70000000000062
 20
25.30000000000206
 30
0.0
 10
3.700000000000621
 20
25.37685488672894
 30
0.0
 10
3.681554231140806
 20
25.45145660760775
 30
0.0
 10
3.624336338281661
 20
25.59247519580926
 30
0.0
 10
3.586748392742828
 20
25.65842864117039
 30
0.0
 10
3.545409675680681
 20
25.72247898491525
 30
0.0
  0
SPLINE
  5
2C3
330
1F
100
AcDbEntity
  8
SK3
  6
SLD-Dashed
370
    18
100
AcDbSpline
210
0.0
220
0.0
230
1.0
 70
    24
 71
     2
 72
     6
 73
     3
 74
     0
 42
0.000000001
 43
0.00000001
 40
0.0
 40
0.0
 40
0.0
 40
0.4999999999999987
 40
0.4999999999999987
 40
0.4999999999999987
 10
18.70471005157803
 20
24.8
 30
0.0
 10
18.76372658232256
 20
24.79999999999999
 30
0.0
 10
18.83354144769983
 20
24.79999999999999
 30
0.0
  0
SPLINE
  5
2C4
330
1F
100
AcDbEntity
  8
SK3
  6
SLD-Dashed
370
    18
100
AcDbSpline
210
0.0
220
0.0
230
1.0
 70
    24
 71
     2
 72
     6
 73
     3
 74
     0
 42
0.000000001
 43
0.00000001
 40
0.0
 40
0.0
 40
0.0
 40
0.2500000000000007
 40
0.2500000000000007
 40
0.2500000000000007
 10
3.623859724154091
 20
-22.62292171103421
 30
0.0
 10
3.607320460377387
 20
-22.61384052672167
 30
0.0
 10
3.582113162036119
 20
-22.60000000000001
 30
0.0
  0
SPLINE
  5
2C5
330
1F
100
AcDbEntity
  8
SK3
  6
SLD-Dashed
370
    18
100
AcDbSpline
210
0.0
220
0.0
230
1.0
 70
    24
 71
     3
 72
     8
 73
     4
 74
     0
 42
0.000000001
 43
0.00000001
 40
0.2500000000000007
 40
0.2500000000000007
 40
0.2500000000000007
 40
0.2500000000000007
 40
0.5000000000000013
 40
0.5000000000000013
 40
0.5000000000000013
 40
0.5000000000000013
 10
3.582113162036118
 20
-22.6
 30
0.0
 10
3.553356109516806
 20
-22.6
 30
0.0
 10
3.515781735125109
 20
-22.6
 30
0.0
 10
3.474572738970824
 20
-22.60000000000002
 30
0.0
  0
SPLINE
  5
2C6
330
1F
100
AcDbEntity
  8
SK3
  6
SLD-Dashed
370
    18
100
AcDbSpline
210
0.0
220
0.0
230
1.0
 70
    24
 71
     3
 72
     8
 73
     4
 74
     0
 42
0.000000001
 43
0.00000001
 40
0.5000000000000013
 40
0.5000000000000013
 40
0.5000000000000013
 40
0.5000000000000013
 40
1.0
 40
1.0
 40
1.0
 40
1.0
 10
3.474572738970824
 20
-22.60000000000002
 30
0.0
 10
3.392154746662226
 20
-22.6
 30
0.0
 10
3.297438978282691
 20
-22.6
 30
0.0
 10
3.199999999999981
 20
-22.6
 30
0.0
  0
SPLINE
  5
2C7
330
1F
100
AcDbEntity
  8
SK3
  6
SLD-Dashed
370
    18
100
AcDbSpline
210
0.0
220
0.0
230
1.0
 70
    24
 71
     3
 72
    12
 73
     8
 74
     0
 42
0.000000001
 43
0.00000001
 40
0.0
 40
0.0
 40
0.0
 40
0.0
 40
0.2499999999999993
 40
0.2499999999999993
 40
0.4999999999999987
 40
0.4999999999999987
 40
1.0
 40
1.0
 40
1.0
 40
1.0
 10
21.0167473979013
 20
-22.6
 30
0.0
 10
20.9510228992397
 20
-22.59999999999999
 30
0.0
 10
20.88128247379992
 20
-22.6
 30
0.0
 10
20.75157242830053
 20
-22.6
 30
0.0
 10
20.68888053689088
 20
-22.60000000000001
 30
0.0
 10
20.5018285915015
 20
-22.60000000000001
 30
0.0
 10
20.37797727017543
 20
-22.6
 30
0.0
 10
20.24972160841715
 20
-22.6
 30
0.0
  0
SPLINE
  5
2C8
330
1F
100
AcDbEntity
  8
SK3
  6
SLD-Dashed
370
    18
100
AcDbSpline
210
0.0
220
0.0
230
1.0
 70
     8
 71
     3
 72
    32
 73
    28
 74
     0
 42
0.000000001
 43
0.00000001
 40
0.0
 40
0.0
 40
0.0
 40
0.0
 40
0.0314247042100601
 40
0.0627361020228328
 40
0.1252746117070658
 40
0.1539592720611189
 40
0.1970495132292662
 40
0.250515477879662
 40
0.2789491152340467
 40
0.321624470561841
 40
0.3752662880184944
 40
0.4040058917910616
 40
0.4468709414625855
 40
0.5002072395464235
 40
0.5286758290850125
 40
0.5715468433178863
 40
0.6253871654989183
 40
0.6539190971541633
 40
0.6965945969020221
 40
0.7499712152068337
 40
0.7785976833431899
 40
0.821713085635752
 40
0.8751771545280764
 40
0.9000486762450107
 40
0.9373735729958405
 40
0.9685902180614588
 40
1.0
 40
1.0
 40
1.0
 40
1.0
 10
18.62026447633128
 20
-29.82882114257114
 30
0.0
 10
18.62019180017084
 20
-29.83419323187018
 30
0.0
 10
18.62004670989463
 20
-29.84491804060945
 30
0.0
 10
18.61850313900753
 20
-29.866285287468
 30
0.0
 10
18.61560599722747
 20
-29.8870631098016
 30
0.0
 10
18.6108737243274
 20
-29.90953419569858
 30
0.0
 10
18.60534715322999
 20
-29.93023160815018
 30
0.0
 10
18.59834796145003
 20
-29.95044462502966
 30
0.0
 10
18.59015103856902
 20
-29.97010326989924
 30
0.0
 10
18.5808912538474
 20
-29.98932831257833
 30
0.0
 10
18.57021609850729
 20
-30.00787912711384
 30
0.0
 10
18.55838375409498
 20
-30.02572753383519
 30
0.0
 10
18.54561025773882
 20
-30.04286242574872
 30
0.0
 10
18.53161517067806
 20
-30.05896941224623
 30
0.0
 10
18.51663044354336
 20
-30.07413070829256
 30
0.0
 10
18.50074652827562
 20
-30.08849194624854
 30
0.0
 10
18.48378770220488
 20
-30.10160583602292
 30
0.0
 10
18.46604707843605
 20
-30.11353908097593
 30
0.0
 10
18.44771171776483
 20
-30.1244031863516
 30
0.0
 10
18.42855928536835
 20
-30.13381866711369
 30
0.0
 10
18.40877202893757
 20
-30.14195042303682
 30
0.0
 10
18.38851588906319
 20
-30.14891417798702
 30
0.0
 10
18.36837945071364
 20
-30.15408652144024
 30
0.0
 10
18.34894901021086
 20
-30.1577600489628
 30
0.0
 10
18.3331156887794
 20
-30.15989729341246
 30
0.0
 10
18.31607581329461
 20
-30.16128184220366
 30
0.0
 10
18.30536961023571
 20
-30.16144319907846
 30
0.0
 10
18.29999999999998
 20
-30.16152412632425
 30
0.0
  0
SPLINE
  5
2C9
330
1F
100
AcDbEntity
  8
SK3
  6
SLD-Dashed
370
    18
100
AcDbSpline
210
0.0
220
0.0
230
1.0
 70
     8
 71
     3
 72
    32
 73
    28
 74
     0
 42
0.000000001
 43
0.00000001
 40
0.0
 40
0.0
 40
0.0
 40
0.0
 40
0.0252069619806004
 40
0.0503565928962387
 40
0.1006490309396841
 40
0.1352066802269463
 40
0.1865993845852476
 40
0.2121889141728382
 40
0.2505546444408203
 40
0.2790381884906483
 40
0.322031706836037
 40
0.3758145255415033
 40
0.4042958205195109
 40
0.4469103686213524
 40
0.5002459503879955
 40
0.5288558246776569
 40
0.5719893761750887
 40
0.625495132827665
 40
0.6539175144736286
 40
0.6965367204728742
 40
0.7500346443241697
 40
0.7787727799701127
 40
0.8217726885774167
 40
0.8751571720188781
 40
0.9373534326371771
 40
0.9685881929332915
 40
1.0
 40
1.0
 40
1.0
 40
1.0
 10
3.950000000000051
 20
-30.16151882748109
 30
0.0
 10
3.945690976656397
 20
-30.16146650493256
 30
0.0
 10
3.937082730471733
 20
-30.1613619788386
 30
0.0
 10
3.919908796993194
 20
-30.16024449153084
 30
0.0
 10
3.901228764982862
 20
-30.1579043858177
 30
0.0
 10
3.878376570107686
 20
-30.15336639862269
 30
0.0
 10
3.859960090030021
 20
-30.14833078717686
 30
0.0
 10
3.841305754981719
 20
-30.14193458953043
 30
0.0
 10
3.826637959905024
 20
-30.13602730574533
 30
0.0
 10
3.809624983401996
 20
-30.12807150312576
 30
0.0
 10
3.790775436323155
 20
-30.11788058118614
 30
0.0
 10
3.772769304214898
 20
-30.10624150695181
 30
0.0
 10
3.75564267050664
 20
-30.09349163747793
 30
0.0
 10
3.73931386874729
 20
-30.07983729641964
 30
0.0
 10
3.72404583426228
 20
-30.06495801131266
 30
0.0
 10
3.709720377082823
 20
-30.04907978434333
 30
0.0
 10
3.696280369454783
 20
-30.03239441179734
 30
0.0
 10
3.684137970427908
 20
-30.0147680692199
 30
0.0
 10
3.673182796489982
 20
-29.99650801854863
 30
0.0
 10
3.6632310375211
 20
-29.97767283170704
 30
0.0
 10
3.654652027464012
 20
-29.95810304290553
 30
0.0
 10
3.647288209939342
 20
-29.93799727883851
 30
0.0
 10
3.641019692661146
 20
-29.91753322021586
 30
0.0
 10
3.63495441723273
 20
-29.89108445487323
 30
0.0
 10
3.631494145788172
 20
-29.8661919062966
 30
0.0
 10
3.629955255005576
 20
-29.84489816486812
 30
0.0
 10
3.629810939896838
 20
-29.83418880501223
 30
0.0
 10
3.629738578416503
 20
-29.82881899211167
 30
0.0
  0
SPLINE
  5
2CA
330
1F
100
AcDbEntity
  8
SK3
  6
SLD-Dashed
370
    18
100
AcDbSpline
210
0.0
220
0.0
230
1.0
 70
     8
 71
     3
 72
    17
 73
    13
 74
     0
 42
0.000000001
 43
0.00000001
 40
0.0
 40
0.0
 40
0.0
 40
0.0
 40
0.0827917431171858
 40
0.1657553741397565
 40
0.2490965301043711
 40
0.392211461635173
 40
0.5001318684416611
 40
0.6429117984559118
 40
0.7496466174402637
 40
0.8743794139579654
 40
0.9370907647233844
 40
1.0
 40
1.0
 40
1.0
 40
1.0
 10
19.06858326183268
 20
-23.09999998371269
 30
0.0
 10
19.0449188722783
 20
-23.13663526237538
 30
0.0
 10
18.99754096239632
 20
-23.2099818799584
 30
0.0
 10
18.93344196907271
 20
-23.32454768130418
 30
0.0
 10
18.86047202473122
 20
-23.47030929049264
 30
0.0
 10
18.79246318883864
 20
-23.63302599547369
 30
0.0
 10
18.72669582213157
 20
-23.82985568109761
 30
0.0
 10
18.68024192397769
 20
-24.01253770553438
 30
0.0
 10
18.64557661804191
 20
-24.20668940313453
 30
0.0
 10
18.62879372319118
 20
-24.36085811319359
 30
0.0
 10
18.62130839069519
 20
-24.49253825672915
 30
0.0
 10
18.62061281302342
 20
-24.55870435306707
 30
0.0
 10
18.62026447633128
 20
-24.59183951548754
 30
0.0
  0
SPLINE
  5
2CB
330
1F
100
AcDbEntity
  8
SK3
  6
SLD-Dashed
370
    18
100
AcDbSpline
210
0.0
220
0.0
230
1.0
 70
     8
 71
     3
 72
    40
 73
    36
 74
     0
 42
0.000000001
 43
0.00000001
 40
0.0
 40
0.0
 40
0.0
 40
0.0
 40
0.0126129321408179
 40
0.0314976481214707
 40
0.0629183966422969
 40
0.0880663439234755
 40
0.1258663547630625
 40
0.1545361786769482
 40
0.1972635113860101
 40
0.218577426492922
 40
0.2505499734617878
 40
0.2790323571714411
 40
0.3220275474574925
 40
0.3436168158787381
 40
0.3758133620123429
 40
0.4042898095193524
 40
0.4468993710703102
 40
0.4682109724152119
 40
0.5002437124730679
 40
0.5288533887103697
 40
0.571982827569091
 40
0.593442063717661
 40
0.6254916984600178
 40
0.6539107272747756
 40
0.6965262692823408
 40
0.7178823906430015
 40
0.7500313093223342
 40
0.778780010278441
 40
0.8217645159398393
 40
0.843148319467487
 40
0.8751517844219869
 40
0.9000181011005737
 40
0.9373587731716241
 40
0.9685909586700436
 40
1.0
 40
1.0
 40
1.0
 40
1.0
 10
18.29999999999998
 20
30.22558335104454
 30
0.0
 10
18.30272570721748
 20
30.22556627837405
 30
0.0
 10
18.30953248028665
 20
30.22552364364311
 30
0.0
 10
18.32312201631279
 20
30.22500642557785
 30
0.0
 10
18.33938561265744
 20
30.22373406987417
 30
0.0
 10
18.35962288482181
 20
30.22117674999641
 30
0.0
 10
18.37912375540278
 20
30.21767179888207
 30
0.0
 10
18.40209101964076
 20
30.21222395072499
 30
0.0
 10
18.42129673976763
 20
30.20645116373993
 30
0.0
 10
18.44082814121575
 20
30.1994406810695
 30
0.0
 10
18.45719063599689
 20
30.19274469805107
 30
0.0
 10
18.47744394653427
 20
30.18326482982685
 30
0.0
 10
18.49514857763432
 20
30.17368320900062
 30
0.0
 10
18.51299975151373
 20
30.16278063541457
 30
0.0
 10
18.52776301175221
 20
30.15286142074768
 30
0.0
 10
18.5456647236253
 20
30.13952115792123
 30
0.0
 10
18.56099019739217
 20
30.12669393443826
 30
0.0
 10
18.57619621116281
 20
30.11259236596227
 30
0.0
 10
18.58867266852489
 20
30.10001076072545
 30
0.0
 10
18.60368988927729
 20
30.08334809853175
 30
0.0
 10
18.61632660054167
 20
30.06764274615826
 30
0.0
 10
18.62859079403631
 20
30.05073652815426
 30
0.0
 10
18.63839017710035
 20
30.0359812249438
 30
0.0
 10
18.64984493542827
 20
30.01686876572995
 30
0.0
 10
18.65917173679204
 20
29.99919674617719
 30
0.0
 10
18.66796571044983
 20
29.98037575892728
 30
0.0
 10
18.6748357729872
 20
29.96397331420776
 30
0.0
 10
18.68255175413459
 20
29.9428859844984
 30
0.0
 10
18.68844354184767
 20
29.92362807390457
 30
0.0
 10
18.69357306209469
 20
29.90344122156732
 30
0.0
 10
18.69708266244008
 20
29.88689138494664
 30
0.0
 10
18.70046523232461
 20
29.86681106446728
 30
0.0
 10
18.70287693087249
 20
29.84675380194965
 30
0.0
 10
18.70443725539646
 20
29.82519288084995
 30
0.0
 10
18.70461894852533
 20
29.81165479503141
 30
0.0
 10
18.70471005157812
 20
29.80486664099082
 30
0.0
  0
SPLINE
  5
2CC
330
1F
100
AcDbEntity
  8
SK3
  6
SLD-Dashed
370
    18
100
AcDbSpline
210
0.0
220
0.0
230
1.0
 70
     8
 71
     3
 72
    40
 73
    36
 74
     0
 42
0.000000001
 43
0.00000001
 40
0.0
 40
0.0
 40
0.0
 40
0.0
 40
0.0314214559032037
 40
0.0627294388196667
 40
0.087740506368161
 40
0.1252752320174243
 40
0.153955137483459
 40
0.1970430830225085
 40
0.21847533554469
 40
0.2505176107708043
 40
0.2789492343756645
 40
0.3216198593784564
 40
0.3430128229232498
 40
0.3752634373756381
 40
0.4040010761832558
 40
0.4468656790907903
 40
0.4682159456822185
 40
0.5002096453491051
 40
0.5286754135732731
 40
0.5715400241808094
 40
0.5931009709519183
 40
0.6253883776448816
 40
0.6539191342583817
 40
0.6965914244659115
 40
0.7179237821558063
 40
0.7499746493554678
 40
0.7785976314667997
 40
0.7958543395075174
 40
0.8217160692236026
 40
0.8431552865200944
 40
0.8751886732676716
 40
0.9000580147904913
 40
0.9373794060000434
 40
0.9685930788589305
 40
1.0
 40
1.0
 40
1.0
 40
1.0
 10
3.545409675680681
 20
29.80485287971372
 30
0.0
 10
3.545501023111245
 20
29.81164166153998
 30
0.0
 10
3.54568338808742
 20
29.8251947087171
 30
0.0
 10
3.547053459998009
 20
29.84411122909487
 30
0.0
 10
3.549299251389557
 20
29.86426498751704
 30
0.0
 10
3.552404285116165
 20
29.88373944820245
 30
0.0
 10
3.557261433791622
 20
29.90685347692527
 30
0.0
 10
3.562455940254674
 20
29.92632375171603
 30
0.0
 10
3.568799963996701
 20
29.94619932773123
 30
0.0
 10
3.574855736502058
 20
29.96283399089004
 30
0.0
 10
3.583424960667077
 20
29.98340946482206
 30
0.0
 10
3.592096254225784
 20
30.00143070205428
 30
0.0
 10
3.602020312803879
 20
30.01972187740225
 30
0.0
 10
3.611146885869875
 20
30.03501076615796
 30
0.0
 10
3.623537418713436
 20
30.05372220608934
 30
0.0
 10
3.635542001635532
 20
30.06984190818073
 30
0.0
 10
3.648773446541077
 20
30.08587429129637
 30
0.0
 10
3.660586287440788
 20
30.09903203572345
 30
0.0
 10
3.676273654159555
 20
30.1149203635029
 30
0.0
 10
3.691165638340433
 20
30.12839947493691
 30
0.0
 10
3.707358223330917
 20
30.14160775845477
 30
0.0
 10
3.721623747498113
 20
30.15226374744807
 30
0.0
 10
3.740175080459749
 20
30.16475392276201
 30
0.0
 10
3.757385459193519
 20
30.17496149667662
 30
0.0
 10
3.775762890422932
 20
30.18460613543636
 30
0.0
 10
3.791800599478701
 20
30.19215438168906
 30
0.0
 10
3.807376593107689
 20
30.19856150287121
 30
0.0
 10
3.821923344343933
 20
30.20391478589545
 30
0.0
 10
3.835179256537702
 20
30.20826548810073
 30
0.0
 10
3.851662308305276
 20
30.21297330119847
 30
0.0
 10
3.868134809781515
 20
30.21689783095597
 30
0.0
 10
3.888140995237141
 20
30.22068429077272
 30
0.0
 10
3.908149905096539
 20
30.22338750379284
 30
0.0
 10
3.929684091678667
 20
30.22513891976575
 30
0.0
 10
3.943214112597113
 20
30.22534301884734
 30
0.0
 10
3.95000000000062
 20
30.22544538331488
 30
0.0
  0
SPLINE
  5
2CD
330
1F
100
AcDbEntity
  8
SK3
  6
SLD-Dashed
370
    18
100
AcDbSpline
210
0.0
220
0.0
230
1.0
 70
    24
 71
     3
 72
     8
 73
     4
 74
     0
 42
0.000000001
 43
0.00000001
 40
0.0
 40
0.0
 40
0.0
 40
0.0
 40
1.0
 40
1.0
 40
1.0
 40
1.0
 10
20.24972160841712
 20
-22.6
 30
0.0
 10
20.08999422175301
 20
-22.6
 30
0.0
 10
19.92315724556469
 20
-22.6
 30
0.0
 10
19.75329838409817
 20
-22.6
 30
0.0
  0
SPLINE
  5
2CE
330
1F
100
AcDbEntity
  8
SK3
  6
SLD-Dashed
370
    18
100
AcDbSpline
210
0.0
220
0.0
230
1.0
 70
    24
 71
     3
 72
    12
 73
     8
 74
     0
 42
0.000000001
 43
0.00000001
 40
0.0
 40
0.0
 40
0.0
 40
0.0
 40
0.5
 40
0.5
 40
0.75
 40
0.75
 40
1.0
 40
1.0
 40
1.0
 40
1.0
 10
24.61818829123613
 20
-22.6
 30
0.0
 10
24.07370017667916
 20
-22.59999999999999
 30
0.0
 10
23.50161901987036
 20
-22.59999999999999
 30
0.0
 10
22.59999324937398
 20
-22.60000000000001
 30
0.0
 10
22.29124388978239
 20
-22.6
 30
0.0
 10
21.66236307787765
 20
-22.60000000000001
 30
0.0
 10
21.34087025518117
 20
-22.6
 30
0.0
 10
21.01674739790112
 20
-22.6
 30
0.0
  0
SPLINE
  5
2CF
330
1F
100
AcDbEntity
  8
SK3
  6
SLD-Dashed
370
    18
100
AcDbSpline
210
0.0
220
0.0
230
1.0
 70
     8
 71
     3
 72
    46
 73
    42
 74
     0
 42
0.000000001
 43
0.00000001
 40
0.0
 40
0.0
 40
0.0
 40
0.0
 40
0.0625000000000003
 40
0.0625000000000003
 40
0.1250000000000005
 40
0.1250000000000005
 40
0.1875000000000008
 40
0.1875000000000008
 40
0.2500000000000011
 40
0.2500000000000011
 40
0.3125000000000013
 40
0.3125000000000013
 40
0.3750000000000016
 40
0.3750000000000016
 40
0.4375000000000018
 40
0.4375000000000018
 40
0.5000000000000021
 40
0.5000000000000021
 40
0.5312500000000024
 40
0.5312500000000024
 40
0.5625000000000028
 40
0.5625000000000028
 40
0.6250000000000031
 40
0.6250000000000031
 40
0.6875000000000032
 40
0.6875000000000032
 40
0.7500000000000034
 40
0.7500000000000034
 40
0.781250000000003
 40
0.781250000000003
 40
0.8125000000000026
 40
0.8125000000000026
 40
0.8437500000000021
 40
0.8437500000000021
 40
0.8750000000000017
 40
0.8750000000000017
 40
0.9062500000000012
 40
0.9062500000000012
 40
0.9375000000000009
 40
0.9375000000000009
 40
1.0
 40
1.0
 40
1.0
 40
1.0
 10
23.74999999999996
 20
4.217514690900432
 30
0.0
 10
23.6428371577565
 20
4.061430750970138
 30
0.0
 10
23.50774383680984
 20
3.91831345247759
 30
0.0
 10
23.18172926080411
 20
3.663606146749418
 30
0.0
 10
22.99819345631189
 20
3.558136958014324
 30
0.0
 10
22.59287726687847
 20
3.400131374823804
 30
0.0
 10
22.37863717656176
 20
3.350927696811917
 30
0.0
 10
21.93642055068508
 20
3.318880763641355
 30
0.0
 10
21.71507795677814
 20
3.336766035708594
 30
0.0
 10
21.28624105751685
 20
3.437460043035558
 30
0.0
 10
21.08458134945545
 20
3.518672070104298
 30
0.0
 10
20.71665774656614
 20
3.731939182533839
 30
0.0
 10
20.55584662750774
 20
3.860551117203362
 30
0.0
 10
20.28594417824969
 20
4.149825203091866
 30
0.0
 10
20.18110063413474
 20
4.306026429236775
 30
0.0
 10
20.03721164415045
 20
4.628833706983839
 30
0.0
 10
20.00025534242257
 20
4.791464057492423
 30
0.0
 10
19.99987430204056
 20
5.026455720665089
 30
0.0
 10
20.00909908347154
 20
5.103471170727972
 30
0.0
 10
20.04522154657204
 20
5.249668337994576
 30
0.0
 10
20.07208064188116
 20
5.319631678032851
 30
0.0
 10
20.17939054485686
 20
5.520634727924523
 30
0.0
 10
20.28444146690298
 20
5.638542178147528
 30
0.0
 10
20.55350451804565
 20
5.840470835293467
 30
0.0
 10
20.71468587859676
 20
5.922583309655553
 30
0.0
 10
21.08117203522118
 20
6.051694123441642
 30
0.0
 10
21.28315549268538
 20
6.097482837965851
 30
0.0
 10
21.60341582097076
 20
6.139426472744979
 30
0.0
 10
21.71380898251242
 20
6.148920042226724
 30
0.0
 10
21.93303673754925
 20
6.15858092119076
 30
0.0
 10
22.04295043177064
 20
6.15892017607015
 30
0.0
 10
22.26338579812072
 20
6.15050583065839
 30
0.0
 10
22.37403558052187
 20
6.141622946422822
 30
0.0
 10
22.5874464406389
 20
6.115041247172562
 30
0.0
 10
22.69132324254375
 20
6.097331892368802
 30
0.0
 10
22.89346279633431
 20
6.052421766779053
 30
0.0
 10
22.99150964466834
 20
6.025138147065199
 30
0.0
 10
23.17509470892202
 20
5.962186533699835
 30
0.0
 10
23.26159300477866
 20
5.926333926253823
 30
0.0
 10
23.50523871858609
 20
5.804066637411418
 30
0.0
 10
23.64282557623284
 20
5.704662240370382
 30
0.0
 10
23.74999999999996
 20
5.586821084663359
 30
0.0
  0
SPLINE
  5
2D0
330
1F
100
AcDbEntity
  8
SK3
  6
SLD-Dashed
370
    18
100
AcDbSpline
210
0.0
220
0.0
230
1.0
 70
     8
 71
     3
 72
    46
 73
    42
 74
     0
 42
0.000000001
 43
0.00000001
 40
0.0
 40
0.0
 40
0.0
 40
0.0
 40
0.0625
 40
0.0625
 40
0.1249999999999999
 40
0.1249999999999999
 40
0.1874999999999999
 40
0.1874999999999999
 40
0.2499999999999999
 40
0.2499999999999999
 40
0.3124999999999999
 40
0.3124999999999999
 40
0.3749999999999998
 40
0.3749999999999998
 40
0.4374999999999998
 40
0.4374999999999998
 40
0.4999999999999998
 40
0.4999999999999998
 40
0.5312499999999998
 40
0.5312499999999998
 40
0.5624999999999998
 40
0.5624999999999998
 40
0.6249999999999993
 40
0.6249999999999993
 40
0.6874999999999988
 40
0.6874999999999988
 40
0.7499999999999983
 40
0.7499999999999983
 40
0.7812499999999986
 40
0.7812499999999986
 40
0.8124999999999988
 40
0.8124999999999988
 40
0.843749999999999
 40
0.843749999999999
 40
0.8749999999999992
 40
0.8749999999999992
 40
0.9062499999999993
 40
0.9062499999999993
 40
0.9374999999999996
 40
0.9374999999999996
 40
1.0
 40
1.0
 40
1.0
 40
1.0
 10
23.74999999999996
 20
-5.586821084663299
 30
0.0
 10
23.6428371577565
 20
-5.704649506174185
 30
0.0
 10
23.50774383680984
 20
-5.802565789322416
 30
0.0
 10
23.1817292608041
 20
-5.966652332152562
 30
0.0
 10
22.99819345631191
 20
-6.02892614510948
 30
0.0
 10
22.59287726687847
 20
-6.11942772725611
 30
0.0
 10
22.37863717656175
 20
-6.145861673332298
 30
0.0
 10
21.93642055068506
 20
-6.16322663981517
 30
0.0
 10
21.71507795677814
 20
-6.153803877658091
 30
0.0
 10
21.28624105751684
 20
-6.098129073270925
 30
0.0
 10
21.08458134945545
 20
-6.052642837931082
 30
0.0
 10
20.71665774656614
 20
-5.923526685882245
 30
0.0
 10
20.55584662750774
 20
-5.841853050052435
 30
0.0
 10
20.28594417824968
 20
-5.640040139106354
 30
0.0
 10
20.18110063413474
 20
-5.522869730865594
 30
0.0
 10
20.03721164415045
 20
-5.255268992781167
 30
0.0
 10
20.00025534242257
 20
-5.107927705262184
 30
0.0
 10
19.99987430204056
 20
-4.87309000556109
 30
0.0
 10
20.00909908347154
 20
-4.792324524355549
 30
0.0
 10
20.04522154657204
 20
-4.63171401084397
 30
0.0
 10
20.07208064188116
 20
-4.551101613446583
 30
0.0
 10
20.17939054485686
 20
-4.308900154821678
 30
0.0
 10
20.28444146690298
 20
-4.151860753936178
 30
0.0
 10
20.55350451804565
 20
-3.86264236461396
 30
0.0
 10
20.71468587859676
 20
-3.733434174370827
 30
0.0
 10
21.0811720352212
 20
-3.520301411878299
 30
0.0
 10
21.28315549268538
 20
-3.438610289102542
 30
0.0
 10
21.60341582097078
 20
-3.362778167774395
 30
0.0
 10
21.71380898251242
 20
-3.345278019288935
 30
0.0
 10
21.93303673754925
 20
-3.327459052968246
 30
0.0
 10
22.04295043177062
 20
-3.326827357135235
 30
0.0
 10
22.26338579812072
 20
-3.342357854333459
 30
0.0
 10
22.37403558052187
 20
-3.358753335030697
 30
0.0
 10
22.5874464406389
 20
-3.406908705408086
 30
0.0
 10
22.69132324254375
 20
-3.438689636148125
 30
0.0
 10
22.89346279633429
 20
-3.517134256247445
 30
0.0
 10
22.99150964466834
 20
-3.56390556519524
 30
0.0
 10
23.17509470892202
 20
-3.668248124952592
 30
0.0
 10
23.26159300477866
 20
-3.726155401225079
 30
0.0
 10
23.50523871858609
 20
-3.916054390157655
 30
0.0
 10
23.64282557623284
 20
-4.061413882344666
 30
0.0
 10
23.74999999999996
 20
-4.21751469090036
 30
0.0
  0
SPLINE
  5
2D1
330
1F
100
AcDbEntity
  8
SK3
  6
SLD-Dashed
370
    18
100
AcDbSpline
210
0.0
220
0.0
230
1.0
 70
     8
 71
     3
 72
    30
 73
    26
 74
     0
 42
0.000000001
 43
0.00000001
 40
0.5000000000000017
 40
0.5000000000000017
 40
0.5000000000000017
 40
0.5000000000000017
 40
0.5625000000000014
 40
0.5625000000000014
 40
0.5937500000000012
 40
0.5937500000000012
 40
0.6250000000000011
 40
0.6250000000000011
 40
0.6562500000000009
 40
0.6562500000000009
 40
0.6875000000000008
 40
0.6875000000000008
 40
0.7500000000000002
 40
0.7500000000000002
 40
0.78125
 40
0.78125
 40
0.8124999999999999
 40
0.8124999999999999
 40
0.8749999999999998
 40
0.8749999999999998
 40
0.9374999999999997
 40
0.9374999999999997
 40
0.9687499999999998
 40
0.9687499999999998
 40
1.0
 40
1.0
 40
1.0
 40
1.0
 10
11.1143036841071
 20
3.877172552155854
 30
0.0
 10
11.33009126887197
 20
3.877250570353354
 30
0.0
 10
11.5479512891197
 20
3.840163879053005
 30
0.0
 10
11.84605317565859
 20
3.733503950163406
 30
0.0
 10
11.94253393061902
 20
3.688844576862353
 30
0.0
 10
12.12179675468214
 20
3.584396341963801
 30
0.0
 10
12.20462098377891
 20
3.524896024259268
 30
0.0
 10
12.35687870501914
 20
3.390855347486406
 30
0.0
 10
12.42631806940206
 20
3.315889249412167
 30
0.0
 10
12.54572006888066
 20
3.156394907283575
 30
0.0
 10
12.5965879016931
 20
3.071195911952103
 30
0.0
 10
12.72179440427297
 20
2.797870601497679
 30
0.0
 10
12.76487466953578
 20
2.599635773386614
 30
0.0
 10
12.76506225703515
 20
2.292729329377907
 30
0.0
 10
12.75445301760235
 20
2.190971671629356
 30
0.0
 10
12.71241496733699
 20
1.98860241250514
 30
0.0
 10
12.68045121229687
 20
1.887128696729745
 30
0.0
 10
12.55657935443361
 20
1.597150549416185
 30
0.0
 10
12.43386794715659
 20
1.416237039392039
 30
0.0
 10
12.13106882835607
 20
1.11381943919138
 30
0.0
 10
11.94781800952532
 20
0.9894109901842224
 30
0.0
 10
11.65004990845553
 20
0.8634349448329581
 30
0.0
 10
11.54505220944865
 20
0.830671494069915
 30
0.0
 10
11.3323047047327
 20
0.7872186525825775
 30
0.0
 10
11.22442130839524
 20
0.7761870294391848
 30
0.0
 10
11.11499999999999
 20
0.7761870294391848
 30
0.0
  0
SPLINE
  5
2D2
330
1F
100
AcDbEntity
  8
SK3
  6
SLD-Dashed
370
    18
100
AcDbSpline
210
0.0
220
0.0
230
1.0
 70
     8
 71
     3
 72
    32
 73
    28
 74
     0
 42
0.000000001
 43
0.00000001
 40
0.0
 40
0.0
 40
0.0
 40
0.0
 40
0.0312500000000002
 40
0.0312500000000002
 40
0.0625000000000003
 40
0.0625000000000003
 40
0.0937500000000005
 40
0.0937500000000005
 40
0.1250000000000007
 40
0.1250000000000007
 40
0.1875000000000008
 40
0.1875000000000008
 40
0.2500000000000009
 40
0.2500000000000009
 40
0.281250000000001
 40
0.281250000000001
 40
0.3125000000000011
 40
0.3125000000000011
 40
0.3750000000000013
 40
0.3750000000000013
 40
0.4062500000000014
 40
0.4062500000000014
 40
0.4375000000000015
 40
0.4375000000000015
 40
0.4687500000000016
 40
0.4687500000000016
 40
0.5000000000000017
 40
0.5000000000000017
 40
0.5000000000000017
 40
0.5000000000000017
 10
11.11499999999999
 20
0.7761870294391848
 30
0.0
 10
11.00557869160473
 20
0.7761870294391848
 30
0.0
 10
10.89806586933306
 20
0.7872158517148384
 30
0.0
 10
10.68667557509279
 20
0.8302464334251567
 30
0.0
 10
10.58167903828545
 20
0.8627949969944106
 30
0.0
 10
10.38206695335692
 20
0.9470624567166352
 30
0.0
 10
10.28745482523744
 20
0.9984411012338643
 30
0.0
 10
10.10839779389287
 20
1.11911766189756
 30
0.0
 10
10.02393255072595
 20
1.188799965596031
 30
0.0
 10
9.79654330681945
 20
1.415674410817788
 30
0.0
 10
9.673729911510998
 20
1.596813358985802
 30
0.0
 10
9.508870539297915
 20
1.981969919632946
 30
0.0
 10
9.46513293658971
 20
2.190136880900952
 30
0.0
 10
9.464933997937075
 20
2.494715483199065
 30
0.0
 10
9.47573993255485
 20
2.596989968316685
 30
0.0
 10
9.518010878332554
 20
2.792786270541941
 30
0.0
 10
9.54928231265674
 20
2.887169215205675
 30
0.0
 10
9.673818187818414
 20
3.160133943201977
 30
0.0
 10
9.795190608826623
 20
3.321994093354215
 30
0.0
 10
10.02468579114225
 20
3.524411755127743
 30
0.0
 10
10.10756261211378
 20
3.583929339277779
 30
0.0
 10
10.28589156588289
 20
3.6880197640475
 30
0.0
 10
10.38250767519573
 20
3.732907718499719
 30
0.0
 10
10.58170943134506
 20
3.804343127065256
 30
0.0
 10
10.68455576173691
 20
3.83130768228105
 30
0.0
 10
10.89687217954245
 20
3.867841494158392
 30
0.0
 10
11.00640989172467
 20
3.877133543057104
 30
0.0
 10
11.1143036841071
 20
3.877172552155854
 30
0.0
  0
SPLINE
  5
2D3
330
1F
100
AcDbEntity
  8
SK3
  6
SLD-Dashed
370
    18
100
AcDbSpline
210
0.0
220
0.0
230
1.0
 70
     8
 71
     3
 72
    18
 73
    14
 74
     0
 42
0.000000001
 43
0.00000001
 40
0.0
 40
0.0
 40
0.0
 40
0.0
 40
0.1250000000000002
 40
0.1250000000000002
 40
0.2500000000000004
 40
0.2500000000000004
 40
0.3750000000000007
 40
0.3750000000000007
 40
0.5000000000000009
 40
0.5000000000000009
 40
0.7500000000000004
 40
0.7500000000000004
 40
1.0
 40
1.0
 40
1.0
 40
1.0
 10
23.74999999999996
 20
-4.217514690900457
 30
0.0
 10
23.78612687646989
 20
-4.227206318413557
 30
0.0
 10
23.81965249862489
 20
-4.242600500574061
 30
0.0
 10
23.88024151609758
 20
-4.286800216057093
 30
0.0
 10
23.90751114835549
 20
-4.316034350452743
 30
0.0
 10
23.95206885922459
 20
-4.388291227484975
 30
0.0
 10
23.96955959090311
 20
-4.431236865470138
 30
0.0
 10
23.99357836300064
 20
-4.532274250971656
 30
0.0
 10
23.99994695300829
 20
-4.591074057251745
 30
0.0
 10
24.00010506684087
 20
-4.781995288054001
 30
0.0
 10
23.97466758303746
 20
-4.934369744400917
 30
0.0
 10
23.88548116121676
 20
-5.253614810026674
 30
0.0
 10
23.82236913412092
 20
-5.42125699220088
 30
0.0
 10
23.74999999999996
 20
-5.586821084663375
 30
0.0
  0
SPLINE
  5
2D4
330
1F
100
AcDbEntity
  8
SK3
  6
SLD-Dashed
370
    18
100
AcDbSpline
210
0.0
220
0.0
230
1.0
 70
     8
 71
     3
 72
    18
 73
    14
 74
     0
 42
0.000000001
 43
0.00000001
 40
0.0
 40
0.0
 40
0.0
 40
0.0
 40
0.1250000000000002
 40
0.1250000000000002
 40
0.2500000000000004
 40
0.2500000000000004
 40
0.3750000000000007
 40
0.3750000000000007
 40
0.5000000000000009
 40
0.5000000000000009
 40
0.7500000000000004
 40
0.7500000000000004
 40
1.0
 40
1.0
 40
1.0
 40
1.0
 10
23.74999999999998
 20
5.586821084663344
 30
0.0
 10
23.7861268764699
 20
5.504171021360825
 30
0.0
 10
23.8196524986249
 20
5.421769179774882
 30
0.0
 10
23.88024151609759
 20
5.257414911906066
 30
0.0
 10
23.9075111483555
 20
5.17463436420458
 30
0.0
 10
23.9520688592246
 20
5.01538442909602
 30
0.0
 10
23.96955959090312
 20
4.938575770111066
 30
0.0
 10
23.99357836300066
 20
4.791143618704474
 30
0.0
 10
23.9999469530083
 20
4.720111290608023
 30
0.0
 10
24.00010506684089
 20
4.528885840696363
 30
0.0
 10
23.97466758303747
 20
4.425189902644893
 30
0.0
 10
23.88548116121678
 20
4.280059562677067
 30
0.0
 10
23.82236913412093
 20
4.236928898822039
 30
0.0
 10
23.74999999999998
 20
4.217514690900419
 30
0.0
  0
SPLINE
  5
2D5
330
1F
100
AcDbEntity
  8
SK3
  6
SLD-Dashed
370
    18
100
AcDbSpline
210
0.0
220
0.0
230
1.0
 70
     8
 71
     3
 72
    36
 73
    32
 74
     0
 42
0.000000001
 43
0.00000001
 40
0.0
 40
0.0
 40
0.0
 40
0.0
 40
0.0312500000000001
 40
0.0312500000000001
 40
0.0625000000000001
 40
0.0625000000000001
 40
0.1250000000000004
 40
0.1250000000000004
 40
0.1562500000000005
 40
0.1562500000000005
 40
0.1875000000000006
 40
0.1875000000000006
 40
0.2187500000000008
 40
0.2187500000000008
 40
0.2500000000000009
 40
0.2500000000000009
 40
0.281250000000001
 40
0.281250000000001
 40
0.3125000000000012
 40
0.3125000000000012
 40
0.3437500000000013
 40
0.3437500000000013
 40
0.3750000000000014
 40
0.3750000000000014
 40
0.4062500000000015
 40
0.4062500000000015
 40
0.4375000000000015
 40
0.4375000000000015
 40
0.4687500000000014
 40
0.4687500000000014
 40
0.5000000000000013
 40
0.5000000000000013
 40
0.5000000000000013
 40
0.5000000000000013
 10
23.5712256362471
 20
-6.894291116568805
 30
0.0
 10
23.63183571982255
 20
-7.003127821854513
 30
0.0
 10
23.68899603937895
 20
-7.112077174415298
 30
0.0
 10
23.79335285577528
 20
-7.331431446261617
 30
0.0
 10
23.84104406071908
 20
-7.443193469221543
 30
0.0
 10
23.95852059702805
 20
-7.769180950033847
 30
0.0
 10
24.00323297953804
 20
-7.979426617706249
 30
0.0
 10
23.99809465780561
 20
-8.237081873056708
 30
0.0
 10
23.98454369912422
 20
-8.314312448896422
 30
0.0
 10
23.93710081418668
 20
-8.442720467238699
 30
0.0
 10
23.90269464249491
 20
-8.495716675477336
 30
0.0
 10
23.81937182705421
 20
-8.576416926681501
 30
0.0
 10
23.76994045073858
 20
-8.605006129864453
 30
0.0
 10
23.66165932640956
 20
-8.640101444327877
 30
0.0
 10
23.60343014281841
 20
-8.646658470076368
 30
0.0
 10
23.48211837840281
 20
-8.64045759252298
 30
0.0
 10
23.41844137379356
 20
-8.627479757968704
 30
0.0
 10
23.29294293579813
 20
-8.582512779599421
 30
0.0
 10
23.23119199254752
 20
-8.55084032070927
 30
0.0
 10
23.117102007711
 20
-8.466726374087262
 30
0.0
 10
23.063820082703
 20
-8.413349402534486
 30
0.0
 10
22.98736756402512
 20
-8.281676251883564
 30
0.0
 10
22.96523310593327
 20
-8.201387656979467
 30
0.0
 10
22.97198401434438
 20
-8.024299954197547
 30
0.0
 10
23.00055906179242
 20
-7.926003273837275
 30
0.0
 10
23.08480370602222
 20
-7.729067194123649
 30
0.0
 10
23.14034673447279
 20
-7.627524034969749
 30
0.0
 10
23.25767342058935
 20
-7.424724034787862
 30
0.0
 10
23.32016051218846
 20
-7.322372116876251
 30
0.0
 10
23.44605997817619
 20
-7.112472347758998
 30
0.0
 10
23.50943705361848
 20
-7.005117798756991
 30
0.0
 10
23.56940301304172
 20
-6.897562083799894
 30
0.0
  0
SPLINE
  5
2D6
330
1F
100
AcDbEntity
  8
SK3
  6
SLD-Dashed
370
    18
100
AcDbSpline
210
0.0
220
0.0
230
1.0
 70
     8
 71
     3
 72
    32
 73
    28
 74
     0
 42
0.000000001
 43
0.00000001
 40
0.0
 40
0.0
 40
0.0
 40
0.0
 40
0.0625000000000002
 40
0.0625000000000002
 40
0.0937500000000003
 40
0.0937500000000003
 40
0.1250000000000004
 40
0.1250000000000004
 40
0.1562500000000006
 40
0.1562500000000006
 40
0.1875000000000006
 40
0.1875000000000006
 40
0.2500000000000002
 40
0.2500000000000002
 40
0.2812500000000001
 40
0.2812500000000001
 40
0.3125000000000001
 40
0.3125000000000001
 40
0.3437499999999999
 40
0.3437499999999999
 40
0.3749999999999998
 40
0.3749999999999998
 40
0.4062499999999998
 40
0.4062499999999998
 40
0.4374999999999997
 40
0.4374999999999997
 40
0.4999999999999995
 40
0.4999999999999995
 40
0.4999999999999995
 40
0.4999999999999995
 10
20.42877436375288
 20
-6.894291116568823
 30
0.0
 10
20.55023669872343
 20
-6.676182848518203
 30
0.0
 10
20.68052584554803
 20
-6.470430589673877
 30
0.0
 10
20.85853924563032
 20
-6.163106273242587
 30
0.0
 10
20.91343161676991
 20
-6.063083783998086
 30
0.0
 10
20.99881103559619
 20
-5.864592491170103
 30
0.0
 10
21.02751844790393
 20
-5.767794746375921
 30
0.0
 10
21.03510152059908
 20
-5.587742648809057
 30
0.0
 10
21.01334179475641
 20
-5.508769972156905
 30
0.0
 10
20.93733381894832
 20
-5.376593399556016
 30
0.0
 10
20.88525511622155
 20
-5.323883729773287
 30
0.0
 10
20.71209683673291
 20
-5.19536341727274
 30
0.0
 10
20.58172137313294
 20
-5.15175021731315
 30
0.0
 10
20.3974865877823
 20
-5.141793102548554
 30
0.0
 10
20.33905587141046
 20
-5.148416009661415
 30
0.0
 10
20.23151532794379
 20
-5.182940581522335
 30
0.0
 10
20.18182340990334
 20
-5.21131860243634
 30
0.0
 10
20.09811445155368
 20
-5.291778385210223
 30
0.0
 10
20.06420370182319
 20
-5.343274555133815
 30
0.0
 10
20.01583050519548
 20
-5.47234575440385
 30
0.0
 10
20.00232450694338
 20
-5.548126916745405
 30
0.0
 10
19.99822837028826
 20
-5.719003325879607
 30
0.0
 10
20.00797508240553
 20
-5.815842714464477
 30
0.0
 10
20.04865715472011
 20
-6.017995538085939
 30
0.0
 10
20.07993460708713
 20
-6.125877248372914
 30
0.0
 10
20.19750467243805
 20
-6.452820250388442
 30
0.0
 10
20.30806348318479
 20
-6.677399354760607
 30
0.0
 10
20.42780966898583
 20
-6.892558294613854
 30
0.0
  0
SPLINE
  5
2D7
330
1F
100
AcDbEntity
  8
SK3
  6
SLD-Dashed
370
    18
100
AcDbSpline
210
0.0
220
0.0
230
1.0
 70
     8
 71
     3
 72
    32
 73
    28
 74
     0
 42
0.000000001
 43
0.00000001
 40
0.0
 40
0.0
 40
0.0
 40
0.0
 40
0.0625000000000004
 40
0.0625000000000004
 40
0.0937500000000005
 40
0.0937500000000005
 40
0.1250000000000007
 40
0.1250000000000007
 40
0.1562500000000008
 40
0.1562500000000008
 40
0.1875000000000009
 40
0.1875000000000009
 40
0.2500000000000015
 40
0.2500000000000015
 40
0.2812500000000016
 40
0.2812500000000016
 40
0.3125000000000017
 40
0.3125000000000017
 40
0.3437500000000018
 40
0.3437500000000018
 40
0.3750000000000018
 40
0.3750000000000018
 40
0.4062500000000019
 40
0.4062500000000019
 40
0.4375000000000021
 40
0.4375000000000021
 40
0.500000000000002
 40
0.500000000000002
 40
0.500000000000002
 40
0.500000000000002
 10
23.57122563624699
 20
6.894291116568852
 30
0.0
 10
23.44976330129331
 20
6.676182848508756
 30
0.0
 10
23.31947415448471
 20
6.470430589654276
 30
0.0
 10
23.14146075442639
 20
6.163106273209124
 30
0.0
 10
23.08656838329466
 20
6.063083783960344
 30
0.0
 10
23.00118896448384
 20
5.864592491125689
 30
0.0
 10
22.97248155218359
 20
5.767794746329293
 30
0.0
 10
22.96489847950258
 20
5.58774264876181
 30
0.0
 10
22.98665820535127
 20
5.508769972111359
 30
0.0
 10
23.06266618116978
 20
5.376593399516409
 30
0.0
 10
23.11474488390051
 20
5.323883729737735
 30
0.0
 10
23.28790316339923
 20
5.19536341725069
 30
0.0
 10
23.41827862700262
 20
5.151750217301251
 30
0.0
 10
23.602513412354
 20
5.14179310255103
 30
0.0
 10
23.6609441287253
 20
5.148416009668416
 30
0.0
 10
23.76848467218938
 20
5.182940581537722
 30
0.0
 10
23.81817659022758
 20
5.211318602455625
 30
0.0
 10
23.90188554857096
 20
5.291778385236008
 30
0.0
 10
23.93579629829745
 20
5.343274555162234
 30
0.0
 10
23.98416949491507
 20
5.472345754436048
 30
0.0
 10
23.99767549316127
 20
5.548126916778647
 30
0.0
 10
24.00177162980314
 20
5.719003325913189
 30
0.0
 10
23.99202491767834
 20
5.8158427144973
 30
0.0
 10
23.95134284534797
 20
6.017995538115582
 30
0.0
 10
23.9200653929725
 20
6.125877248400108
 30
0.0
 10
23.80249532759618
 20
6.45282025040647
 30
0.0
 10
23.69193651683189
 20
6.677399354770006
 30
0.0
 10
23.57219033101413
 20
6.892558294613924
 30
0.0
  0
SPLINE
  5
2D8
330
1F
100
AcDbEntity
  8
SK3
  6
SLD-Dashed
370
    18
100
AcDbSpline
210
0.0
220
0.0
230
1.0
 70
     8
 71
     3
 72
    36
 73
    32
 74
     0
 42
0.000000001
 43
0.00000001
 40
0.0
 40
0.0
 40
0.0
 40
0.0
 40
0.0312500000000002
 40
0.0312500000000002
 40
0.0625000000000003
 40
0.0625000000000003
 40
0.1250000000000005
 40
0.1250000000000005
 40
0.1562500000000004
 40
0.1562500000000004
 40
0.1875000000000004
 40
0.1875000000000004
 40
0.2187500000000003
 40
0.2187500000000003
 40
0.2500000000000003
 40
0.2500000000000003
 40
0.2812500000000002
 40
0.2812500000000002
 40
0.3125000000000002
 40
0.3125000000000002
 40
0.3437500000000001
 40
0.3437500000000001
 40
0.3750000000000001
 40
0.3750000000000001
 40
0.40625
 40
0.40625
 40
0.4374999999999999
 40
0.4374999999999999
 40
0.4687499999999999
 40
0.4687499999999999
 40
0.4999999999999998
 40
0.4999999999999998
 40
0.4999999999999998
 40
0.4999999999999998
 10
20.42877436375297
 20
6.894291116568852
 30
0.0
 10
20.3681642801753
 20
7.003127821853278
 30
0.0
 10
20.31100396061646
 20
7.112077174412839
 30
0.0
 10
20.20664714421554
 20
7.33143144625695
 30
0.0
 10
20.15895593926922
 20
7.443193469215843
 30
0.0
 10
20.04147940295344
 20
7.769180950025653
 30
0.0
 10
19.99676702043886
 20
7.979426617697089
 30
0.0
 10
20.00190534216577
 20
8.237081873047616
 30
0.0
 10
20.01545630084563
 20
8.31431244888767
 30
0.0
 10
20.06289918578049
 20
8.442720467230934
 30
0.0
 10
20.09730535747106
 20
8.495716675470304
 30
0.0
 10
20.18062817291002
 20
8.576416926676208
 30
0.0
 10
20.23005954922507
 20
8.6050061298602
 30
0.0
 10
20.33834067355333
 20
8.640101444325937
 30
0.0
 10
20.39656985714433
 20
8.646658470075739
 30
0.0
 10
20.51788162156005
 20
8.640457592524857
 30
0.0
 10
20.5815586261695
 20
8.627479757971987
 30
0.0
 10
20.70705706416593
 20
8.58251277960537
 30
0.0
 10
20.76880800741721
 20
8.550840320716501
 30
0.0
 10
20.88289799225557
 20
8.466726374096927
 30
0.0
 10
20.93617991726477
 20
8.413349402545288
 30
0.0
 10
21.01263243594539
 20
8.281676251896014
 30
0.0
 10
21.034766894039
 20
8.201387656992408
 30
0.0
 10
21.02801598563165
 20
8.024299954210322
 30
0.0
 10
20.99944093818557
 20
7.926003273849468
 30
0.0
 10
20.91519629396002
 20
7.729067194134045
 30
0.0
 10
20.8596532655117
 20
7.627524034978977
 30
0.0
 10
20.74232657939944
 20
7.424724034794583
 30
0.0
 10
20.6798394878026
 20
7.322372116881642
 30
0.0
 10
20.55394002181919
 20
7.112472347761705
 30
0.0
 10
20.49056294637933
 20
7.005117798758381
 30
0.0
 10
20.43059698695823
 20
6.897562083799991
 30
0.0
  0
SPLINE
  5
2D9
330
1F
100
AcDbEntity
  8
SK3
  6
SLD-Dashed
370
    18
100
AcDbSpline
210
0.0
220
0.0
230
1.0
 70
     8
 71
     3
 72
    38
 73
    34
 74
     0
 42
0.000000001
 43
0.00000001
 40
0.4999999999999982
 40
0.4999999999999982
 40
0.4999999999999982
 40
0.4999999999999982
 40
0.531249999999998
 40
0.531249999999998
 40
0.5624999999999979
 40
0.5624999999999979
 40
0.5937499999999977
 40
0.5937499999999977
 40
0.6249999999999976
 40
0.6249999999999976
 40
0.6562499999999973
 40
0.6562499999999973
 40
0.6874999999999972
 40
0.6874999999999972
 40
0.718749999999997
 40
0.718749999999997
 40
0.7499999999999968
 40
0.7499999999999968
 40
0.8124999999999974
 40
0.8124999999999974
 40
0.8437499999999979
 40
0.8437499999999979
 40
0.8749999999999982
 40
0.8749999999999982
 40
0.9062499999999987
 40
0.9062499999999987
 40
0.937499999999999
 40
0.937499999999999
 40
0.9687499999999994
 40
0.9687499999999994
 40
0.9843749999999997
 40
0.9843749999999997
 40
1.0
 40
1.0
 40
1.0
 40
1.0
 10
9.56216591730215
 20
6.125924408695541
 30
0.0
 10
9.606669608828721
 20
6.01346768729815
 30
0.0
 10
9.6669122103369
 20
5.905884945004873
 30
0.0
 10
9.811812632231465
 20
5.711052008123809
 30
0.0
 10
9.897567425050422
 20
5.621796231982682
 30
0.0
 10
10.09207138823527
 20
5.4616806987949
 30
0.0
 10
10.19846038260025
 20
5.392476287191903
 30
0.0
 10
10.42991716747871
 20
5.269813411563122
 30
0.0
 10
10.55509168137379
 20
5.216925427409036
 30
0.0
 10
10.8014280263147
 20
5.127164762684252
 30
0.0
 10
10.92088750473026
 20
5.090193011698823
 30
0.0
 10
11.13971660654356
 20
5.026839184588703
 30
0.0
 10
11.23726506040224
 20
5.00105837447204
 30
0.0
 10
11.41790338683521
 20
4.957149609259762
 30
0.0
 10
11.50153843453269
 20
4.93907588349566
 30
0.0
 10
11.65792087602174
 20
4.910803969750494
 30
0.0
 10
11.73120965691776
 20
4.900482983794717
 30
0.0
 10
11.94219226675064
 20
4.881585744675301
 30
0.0
 10
12.0720318508518
 20
4.884644857652547
 30
0.0
 10
12.25447266366206
 20
4.924398779978363
 30
0.0
 10
12.31288111599015
 20
4.943518096519737
 30
0.0
 10
12.42478986086716
 20
4.997536910090167
 30
0.0
 10
12.47864510461581
 20
5.032683753674445
 30
0.0
 10
12.57771343290427
 20
5.124582956539634
 30
0.0
 10
12.62343468736295
 20
5.181429676878971
 30
0.0
 10
12.70112312343483
 20
5.328631993128615
 30
0.0
 10
12.73250492214958
 20
5.419078647746704
 30
0.0
 10
12.76725985948268
 20
5.636144753928825
 30
0.0
 10
12.76963724396987
 20
5.763529066354558
 30
0.0
 10
12.74922628849654
 20
5.959961303655795
 30
0.0
 10
12.73857436485565
 20
6.026645425987971
 30
0.0
 10
12.71187670664381
 20
6.156092859670164
 30
0.0
 10
12.69586259956382
 20
6.21937338055386
 30
0.0
 10
12.67730763443389
 20
6.282635864365879
 30
0.0
  0
SPLINE
  5
2DA
330
1F
100
AcDbEntity
  8
SK3
  6
SLD-Dashed
370
    18
100
AcDbSpline
210
0.0
220
0.0
230
1.0
 70
     8
 71
     3
 72
    32
 73
    28
 74
     0
 42
0.000000001
 43
0.00000001
 40
0.0
 40
0.0
 40
0.0
 40
0.0
 40
0.0312499999999997
 40
0.0312499999999997
 40
0.0624999999999994
 40
0.0624999999999994
 40
0.124999999999999
 40
0.124999999999999
 40
0.1874999999999986
 40
0.1874999999999986
 40
0.2187499999999988
 40
0.2187499999999988
 40
0.2499999999999989
 40
0.2499999999999989
 40
0.2812499999999989
 40
0.2812499999999989
 40
0.3124999999999988
 40
0.3124999999999988
 40
0.3437499999999988
 40
0.3437499999999988
 40
0.3749999999999987
 40
0.3749999999999987
 40
0.4374999999999984
 40
0.4374999999999984
 40
0.4687499999999983
 40
0.4687499999999983
 40
0.4999999999999982
 40
0.4999999999999982
 40
0.4999999999999982
 40
0.4999999999999982
 10
12.67730763443387
 20
6.282635864365879
 30
0.0
 10
12.64019770417402
 20
6.409160831989926
 30
0.0
 10
12.59620302127297
 20
6.525183772575695
 30
0.0
 10
12.49971880657839
 20
6.745107212914693
 30
0.0
 10
12.44665882244549
 20
6.849501975615686
 30
0.0
 10
12.28056941339613
 20
7.142667131061292
 30
0.0
 10
12.16116169070408
 20
7.312906984757013
 30
0.0
 10
11.90308945990529
 20
7.621685780147159
 30
0.0
 10
11.76485718622879
 20
7.759624086935244
 30
0.0
 10
11.53444141192589
 20
7.935417796768214
 30
0.0
 10
11.45348400885547
 20
7.988991492998074
 30
0.0
 10
11.27594996715926
 20
8.08195906506956
 30
0.0
 10
11.1804181803697
 20
8.120871379332144
 30
0.0
 10
10.96802844471288
 20
8.1710967925867
 30
0.0
 10
10.85203519791093
 20
8.181443416386026
 30
0.0
 10
10.60633681320579
 20
8.156333337234534
 30
0.0
 10
10.48187270231074
 20
8.12116693784292
 30
0.0
 10
10.24397755356155
 20
8.011197080412833
 30
0.0
 10
10.13459384449097
 20
7.939220174898461
 30
0.0
 10
9.93404200598097
 20
7.767804544696028
 30
0.0
 10
9.845027015680657
 20
7.669805098254379
 30
0.0
 10
9.61653188072295
 20
7.350566526001876
 30
0.0
 10
9.516243573240754
 20
7.10329910814745
 30
0.0
 10
9.462270080515298
 20
6.727888567267054
 30
0.0
 10
9.460111331805896
 20
6.60378924638351
 30
0.0
 10
9.487789440891708
 20
6.357725959822362
 30
0.0
 10
9.517662225775576
 20
6.238381130092923
 30
0.0
 10
9.56216591730215
 20
6.125924408695541
 30
0.0
  0
SPLINE
  5
2DB
330
1F
100
AcDbEntity
  8
SK3
  6
SLD-Dashed
370
    18
100
AcDbSpline
210
0.0
220
0.0
230
1.0
 70
    24
 71
     3
 72
    12
 73
     8
 74
     0
 42
0.000000001
 43
0.00000001
 40
0.0
 40
0.0
 40
0.0
 40
0.0
 40
0.2500000000000001
 40
0.2500000000000001
 40
0.5000000000000002
 40
0.5000000000000002
 40
1.0
 40
1.0
 40
1.0
 40
1.0
 10
21.01674739790131
 20
-22.6
 30
0.0
 10
21.34168297641828
 20
-22.6
 30
0.0
 10
21.66430597309999
 20
-22.6
 30
0.0
 10
22.29229495573791
 20
-22.6
 30
0.0
 10
22.59890795427324
 20
-22.6
 30
0.0
 10
23.49830802949678
 20
-22.6
 30
0.0
 10
24.07263790638944
 20
-22.6
 30
0.0
 10
24.61818829123614
 20
-22.6
 30
0.0
  0
SPLINE
  5
2DC
330
1F
100
AcDbEntity
  8
SK3
  6
SLD-Dashed
370
    18
100
AcDbSpline
210
0.0
220
0.0
230
1.0
 70
    24
 71
     3
 72
     8
 73
     4
 74
     0
 42
0.000000001
 43
0.00000001
 40
0.5
 40
0.5
 40
0.5
 40
0.5
 40
0.75
 40
0.75
 40
0.75
 40
0.75
 10
18.83290430514834
 20
24.8
 30
0.0
 10
18.79783353306371
 20
24.8
 30
0.0
 10
18.76612562567545
 20
24.8
 30
0.0
 10
18.74274977533911
 20
24.8
 30
0.0
  0
SPLINE
  5
2DD
330
1F
100
AcDbEntity
  8
SK3
  6
SLD-Dashed
370
    18
100
AcDbSpline
210
0.0
220
0.0
230
1.0
 70
    24
 71
     2
 72
     6
 73
     3
 74
     0
 42
0.000000001
 43
0.00000001
 40
0.75
 40
0.75
 40
0.75
 40
1.0
 40
1.0
 40
1.0
 10
18.74274977533911
 20
24.8
 30
0.0
 10
18.71937392500277
 20
24.8
 30
0.0
 10
18.7045883096011
 20
24.8
 30
0.0
  0
SPLINE
  5
2DE
330
1F
100
AcDbEntity
  8
SK3
  6
SLD-Dashed
370
    18
100
AcDbSpline
210
0.0
220
0.0
230
1.0
 70
    24
 71
     3
 72
     8
 73
     4
 74
     0
 42
0.000000001
 43
0.00000001
 40
0.0
 40
0.0
 40
0.0
 40
0.0
 40
0.5
 40
0.5
 40
0.5
 40
0.5
 10
3.199999999999981
 20
-22.6
 30
0.0
 10
3.297401989780097
 20
-22.6
 30
0.0
 10
3.392452842575125
 20
-22.6
 30
0.0
 10
3.474572738970824
 20
-22.60000000000002
 30
0.0
  0
SPLINE
  5
2DF
330
1F
100
AcDbEntity
  8
SK3
  6
SLD-Dashed
370
    18
100
AcDbSpline
210
0.0
220
0.0
230
1.0
 70
    24
 71
     3
 72
     8
 73
     4
 74
     0
 42
0.000000001
 43
0.00000001
 40
0.5
 40
0.5
 40
0.5
 40
0.5
 40
0.75
 40
0.75
 40
0.75
 40
0.75
 10
3.474572738970824
 20
-22.60000000000002
 30
0.0
 10
3.515633792645648
 20
-22.60000000000002
 30
0.0
 10
3.553134428731203
 20
-22.60000000000002
 30
0.0
 10
3.582028386417968
 20
-22.60000000000002
 30
0.0
  0
SPLINE
  5
2E0
330
1F
100
AcDbEntity
  8
SK3
  6
SLD-Dashed
370
    18
100
AcDbSpline
210
0.0
220
0.0
230
1.0
 70
    24
 71
     2
 72
     6
 73
     3
 74
     0
 42
0.000000001
 43
0.00000001
 40
0.75
 40
0.75
 40
0.75
 40
1.0
 40
1.0
 40
1.0
 10
3.582028386417968
 20
-22.60000000000002
 30
0.0
 10
3.607367576548157
 20
-22.61388474826385
 30
0.0
 10
3.623859724154091
 20
-22.62292171103421
 30
0.0
  0
SPLINE
  5
2E1
330
1F
100
AcDbEntity
  8
SK3
  6
SLD-Dashed
370
    18
100
AcDbSpline
210
0.0
220
0.0
230
1.0
 70
    24
 71
     3
 72
     8
 73
     4
 74
     0
 42
0.000000001
 43
0.00000001
 40
0.0
 40
0.0
 40
0.0
 40
0.0
 40
1.0
 40
1.0
 40
1.0
 40
1.0
 10
19.75329838409833
 20
-22.6
 30
0.0
 10
19.92315724556569
 20
-22.6
 30
0.0
 10
20.08999422175252
 20
-22.6
 30
0.0
 10
20.24972160841715
 20
-22.6
 30
0.0
  0
SPLINE
  5
2E2
330
1F
100
AcDbEntity
  8
SK3
  6
SLD-Dashed
370
    18
100
AcDbSpline
210
0.0
220
0.0
230
1.0
 70
     8
 71
     3
 72
    10
 73
     6
 74
     0
 42
0.000000001
 43
0.00000001
 40
0.0
 40
0.0
 40
0.0
 40
0.0
 40
0.5
 40
0.5
 40
1.0
 40
1.0
 40
1.0
 40
1.0
 10
3.54528994842257
 20
25.72266446697006
 30
0.0
 10
3.586629693138152
 20
25.65862892930322
 30
0.0
 10
3.624185185878356
 20
25.59272978733945
 30
0.0
 10
3.681344410057588
 20
25.45209092415959
 30
0.0
 10
3.700000000000619
 20
25.37690471036259
 30
0.0
 10
3.700000000000619
 20
25.30000000000206
 30
0.0
  0
SPLINE
  5
2E3
330
1F
100
AcDbEntity
  8
SK3
  6
SLD-Dashed
370
    18
100
AcDbSpline
210
0.0
220
0.0
230
1.0
 70
    24
 71
     3
 72
    12
 73
     8
 74
     0
 42
0.000000001
 43
0.00000001
 40
0.0
 40
0.0
 40
0.0
 40
0.0
 40
0.499999999999996
 40
0.499999999999996
 40
0.749999999999998
 40
0.749999999999998
 40
1.0
 40
1.0
 40
1.0
 40
1.0
 10
20.24972160841715
 20
-22.6
 30
0.0
 10
20.37801366116919
 20
-22.59999999999999
 30
0.0
 10
20.50189853689456
 20
-22.6
 30
0.0
 10
20.68900478590271
 20
-22.6
 30
0.0
 10
20.75171572865743
 20
-22.6
 30
0.0
 10
20.88147041636287
 20
-22.6
 30
0.0
 10
20.95103332409742
 20
-22.6
 30
0.0
 10
21.0167473979013
 20
-22.6
 30
0.0
  0
SPLINE
  5
2E4
330
1F
100
AcDbEntity
  8
SK3
  6
SLD-Dashed
370
    18
100
AcDbSpline
210
0.0
220
0.0
230
1.0
 70
     8
 71
     3
 72
    17
 73
    13
 74
     0
 42
0.000000001
 43
0.00000001
 40
0.0
 40
0.0
 40
0.0
 40
0.0
 40
0.0834139635305731
 40
0.1668029355416678
 40
0.2503629708199912
 40
0.3926966138276888
 40
0.4998780320155678
 40
0.643701672480044
 40
0.7509133901993713
 40
0.8754213568056844
 40
0.9376701949034997
 40
1.0
 40
1.0
 40
1.0
 40
1.0
 10
18.62026447633128
 20
-24.59183951548754
 30
0.0
 10
18.62087898506519
 20
-24.54790298047575
 30
0.0
 10
18.62210781842102
 20
-24.46004307420463
 30
0.0
 10
18.63206274561473
 20
-24.32847804576785
 30
0.0
 10
18.65163894567266
 20
-24.16672600583218
 30
0.0
 10
18.68431796813205
 20
-23.9941315939502
 30
0.0
 10
18.73748927526282
 20
-23.79379522510344
 30
0.0
 10
18.79923717706121
 20
-23.61525666248805
 30
0.0
 10
18.8775169856954
 20
-23.43348571447599
 30
0.0
 10
18.94858276582312
 20
-23.29576498849487
 30
0.0
 10
19.01486498641282
 20
-23.18250702357471
 30
0.0
 10
19.05066941327388
 20
-23.12751424409372
 30
0.0
 10
19.06858326183268
 20
-23.09999998371269
 30
0.0
  0
SPLINE
  5
2E5
330
1F
100
AcDbEntity
  8
SK3
  6
SLD-Dashed
370
    18
100
AcDbSpline
210
0.0
220
0.0
230
1.0
 70
     8
 71
     3
 72
    32
 73
    28
 74
     0
 42
0.000000001
 43
0.00000001
 40
0.0
 40
0.0
 40
0.0
 40
0.0
 40
0.0252069619805874
 40
0.0503565928962379
 40
0.1006490309396808
 40
0.1352066802269564
 40
0.186599384585253
 40
0.2121889141728458
 40
0.2505546444408253
 40
0.27903818849065
 40
0.3220317068360388
 40
0.3758145255415051
 40
0.4042958205195207
 40
0.4469103686213849
 40
0.5002459503880041
 40
0.5288558246776746
 40
0.5719893761750706
 40
0.6254951328276653
 40
0.6539175144736323
 40
0.6965367204728627
 40
0.7500346443241708
 40
0.7787727799701011
 40
0.8217726885774392
 40
0.8751571720188793
 40
0.9373534326371774
 40
0.9685881929332912
 40
1.0
 40
1.0
 40
1.0
 40
1.0
 10
18.3
 20
-30.16152412632425
 30
0.0
 10
18.30430906427824
 20
-30.16147180344049
 30
0.0
 10
18.31291739223902
 20
-30.16136727667685
 30
0.0
 10
18.33009148889957
 20
-30.16024977939869
 30
0.0
 10
18.34877169844473
 20
-30.15790965215772
 30
0.0
 10
18.37162411056982
 20
-30.15337162271322
 30
0.0
 10
18.39004076577992
 20
-30.14833596412427
 30
0.0
 10
18.40869527827126
 20
-30.14193970641902
 30
0.0
 10
18.42336321290333
 20
-30.1360323670698
 30
0.0
 10
18.44037635131619
 20
-30.12807648951465
 30
0.0
 10
18.45922607783493
 20
-30.11788547147643
 30
0.0
 10
18.47723238142559
 20
-30.10624628735538
 30
0.0
 10
18.49435917830342
 20
-30.09349629741002
 30
0.0
 10
18.51068813568746
 20
-30.07984182725842
 30
0.0
 10
18.52595631576655
 20
-30.06496240138226
 30
0.0
 10
18.5402819096239
 20
-30.04908402411911
 30
0.0
 10
18.55372204554899
 20
-30.03239849357872
 30
0.0
 10
18.56586456058182
 20
-30.01477198401964
 30
0.0
 10
18.57681983927178
 20
-29.99651176030235
 30
0.0
 10
18.58677169348255
 20
-29.97767639491367
 30
0.0
 10
18.59535078576898
 20
-29.95810642053535
 30
0.0
 10
18.60271467399961
 20
-29.93800046575449
 30
0.0
 10
18.60898325159274
 20
-29.91753621297335
 30
0.0
 10
18.61504858563012
 20
-29.89108719661413
 30
0.0
 10
18.61850889087959
 20
-29.86619441170606
 30
0.0
 10
18.62004779708014
 20
-29.84490046806008
 30
0.0
 10
18.62019211396193
 20
-29.83419100647835
 30
0.0
 10
18.62026447633129
 20
-29.82882114257114
 30
0.0
  0
SPLINE
  5
2E6
330
1F
100
AcDbEntity
  8
1
  6
SLD-Dashed
370
    18
100
AcDbSpline
210
0.0
220
0.0
230
1.0
 70
     8
 71
     3
 72
     8
 73
     4
 74
     0
 42
0.000000001
 43
0.00000001
 40
0.0
 40
0.0
 40
0.0
 40
0.0
 40
1.0
 40
1.0
 40
1.0
 40
1.0
 10
14.3360013007678
 20
-30.16152412632425
 30
0.0
 10
13.89972133191332
 20
-29.37912233928418
 30
0.0
 10
13.46431228798094
 20
-28.59624967245401
 30
0.0
 10
13.03
 20
-27.81278402659763
 30
0.0
  0
SPLINE
  5
2E7
330
1F
100
AcDbEntity
  8
1
  6
SLD-Dashed
370
    18
100
AcDbSpline
210
0.0
220
0.0
230
1.0
 70
     8
 71
     3
 72
    10
 73
     6
 74
     0
 42
0.000000001
 43
0.00000001
 40
0.0
 40
0.0
 40
0.0
 40
0.0
 40
0.5
 40
0.5
 40
1.0
 40
1.0
 40
1.0
 40
1.0
 10
13.02999999999999
 20
-27.58683517549641
 30
0.0
 10
13.02999999999999
 20
-27.38707634764943
 30
0.0
 10
12.95316556404608
 20
-27.18603271636414
 30
0.0
 10
12.6790551263346
 20
-26.89356078711211
 30
0.0
 10
12.48157512974545
 20
-26.8043088886844
 30
0.0
 10
12.27999999999999
 20
-26.8043088886844
 30
0.0
  0
SPLINE
  5
2E8
330
1F
100
AcDbEntity
  8
1
  6
SLD-Dashed
370
    18
100
AcDbSpline
210
0.0
220
0.0
230
1.0
 70
     8
 71
     3
 72
    12
 73
     8
 74
     0
 42
0.000000001
 43
0.00000001
 40
0.0
 40
0.0
 40
0.0
 40
0.0
 40
0.2500000000000012
 40
0.2500000000000012
 40
0.5000000000000024
 40
0.5000000000000024
 40
1.0
 40
1.0
 40
1.0
 40
1.0
 10
9.949999999999982
 20
-26.8043088886844
 30
0.0
 10
9.850203104901265
 20
-26.80430888868442
 30
0.0
 10
9.749501667275988
 20
-26.82572174190439
 30
0.0
 10
9.566443787491979
 20
-26.90654241362415
 30
0.0
 10
9.483267922669926
 20
-26.9658819657259
 30
0.0
 10
9.27631650962894
 20
-27.18636461126027
 30
0.0
 10
9.199999999999985
 20
-27.38652349465746
 30
0.0
 10
9.199999999999985
 20
-27.58683517549641
 30
0.0
  0
SPLINE
  5
2E9
330
1F
100
AcDbEntity
  8
1
  6
SLD-Dashed
370
    18
100
AcDbSpline
210
0.0
220
0.0
230
1.0
 70
     8
 71
     3
 72
     8
 73
     4
 74
     0
 42
0.000000001
 43
0.00000001
 40
0.0
 40
0.0
 40
0.0
 40
0.0
 40
1.0
 40
1.0
 40
1.0
 40
1.0
 10
9.199999999999985
 20
-27.81278402659765
 30
0.0
 10
8.765688696760124
 20
-28.59624790607364
 30
0.0
 10
8.330280637590494
 20
-29.37911880654283
 30
0.0
 10
7.894001653956456
 20
-30.16151882747545
 30
0.0
  0
SPLINE
  5
2EA
330
1F
100
AcDbEntity
  8
SK3
  6
SLD-Dashed
370
    18
100
AcDbSpline
210
0.0
220
0.0
230
1.0
 70
     8
 71
     3
 72
    32
 73
    28
 74
     0
 42
0.000000001
 43
0.00000001
 40
0.0
 40
0.0
 40
0.0
 40
0.0
 40
0.0314247042100731
 40
0.0627361020228391
 40
0.1252746117070713
 40
0.1539592720611233
 40
0.1970495132292579
 40
0.2505154778796657
 40
0.2789491152340473
 40
0.3216244705618287
 40
0.3752662880184966
 40
0.4040058917910522
 40
0.4468709414625707
 40
0.5002072395464257
 40
0.5286758290850119
 40
0.5715468433178892
 40
0.6253871654989189
 40
0.6539190971541645
 40
0.6965945969020281
 40
0.749971215206833
 40
0.778597683343181
 40
0.8217130856357608
 40
0.8751771545280747
 40
0.9000486762450085
 40
0.9373735729958378
 40
0.9685902180614491
 40
1.0
 40
1.0
 40
1.0
 40
1.0
 10
3.6297385784165
 20
-29.82881899211167
 30
0.0
 10
3.629811253684789
 20
-29.83419103038294
 30
0.0
 10
3.629956342180049
 20
-29.84491573725062
 30
0.0
 10
3.631499897602112
 20
-29.8662827811955
 30
0.0
 10
3.634397011081422
 20
-29.88706040626531
 30
0.0
 10
3.639129238184905
 20
-29.90953127888282
 30
0.0
 10
3.644655756007127
 20
-29.9302284949332
 30
0.0
 10
3.651654880541364
 20
-29.95044132006813
 30
0.0
 10
3.659851724820014
 20
-29.97009977850425
 30
0.0
 10
3.66911142085921
 20
-29.98932463890864
 30
0.0
 10
3.679786474097334
 20
-30.00787527762724
 30
0.0
 10
3.691618705441684
 20
-30.02572351524745
 30
0.0
 10
3.7043920798165
 20
-30.04285824487296
 30
0.0
 10
3.718387033330369
 20
-30.05896507889263
 30
0.0
 10
3.73337161755291
 20
-30.07412623148157
 30
0.0
 10
3.749255381396989
 20
-30.08848733361384
 30
0.0
 10
3.766214045880095
 20
-30.10160109945365
 30
0.0
 10
3.783954500679184
 20
-30.11353423171664
 30
0.0
 10
3.802289686771307
 20
-30.12439823458058
 30
0.0
 10
3.821441936881567
 20
-30.13381362662239
 30
0.0
 10
3.841229005043995
 20
-30.14194530604345
 30
0.0
 10
3.861484952239869
 20
-30.14890899560424
 30
0.0
 10
3.881621199115268
 20
-30.15408129068048
 30
0.0
 10
3.901051454906559
 20
-30.15775478403718
 30
0.0
 10
3.916884625853989
 20
-30.15989200877927
 30
0.0
 10
3.933924339421691
 20
-30.16127654505829
 30
0.0
 10
3.944630440774241
 20
-30.16143790080234
 30
0.0
 10
3.949999999999982
 20
-30.16151882748101
 30
0.0
  0
SPLINE
  5
2EB
330
1F
100
AcDbEntity
  8
SK3
  6
SLD-Dashed
370
    18
100
AcDbSpline
210
0.0
220
0.0
230
1.0
 70
     8
 71
     3
 72
    40
 73
    36
 74
     0
 42
0.000000001
 43
0.00000001
 40
0.0
 40
0.0
 40
0.0
 40
0.0
 40
0.0314214559032091
 40
0.0627294388196716
 40
0.0877405063681813
 40
0.125275232017435
 40
0.1539551374834501
 40
0.197043083022503
 40
0.218475335544693
 40
0.2505176107708036
 40
0.2789492343756594
 40
0.3216198593784652
 40
0.3430128229232573
 40
0.3752634373756369
 40
0.4040010761832457
 40
0.4468656790907887
 40
0.4682159456822236
 40
0.5002096453491008
 40
0.5286754135732632
 40
0.5715400241808085
 40
0.5931009709519238
 40
0.625388377644885
 40
0.6539191342583819
 40
0.6965914244659098
 40
0.717923782155807
 40
0.749974649355465
 40
0.7785976314667962
 40
0.7958543395075212
 40
0.8217160692235971
 40
0.8431552865200941
 40
0.8751886732676741
 40
0.9000580147904904
 40
0.9373794060000419
 40
0.9685930788589321
 40
1.0
 40
1.0
 40
1.0
 40
1.0
 10
18.70459032431992
 20
29.80485287971162
 30
0.0
 10
18.70449897688934
 20
29.81164166153788
 30
0.0
 10
18.70431661191318
 20
29.82519470871501
 30
0.0
 10
18.70294654000258
 20
29.84411122909279
 30
0.0
 10
18.70070074861104
 20
29.86426498751496
 30
0.0
 10
18.69759571488441
 20
29.88373944820036
 30
0.0
 10
18.69273856620897
 20
29.90685347692317
 30
0.0
 10
18.68754405974591
 20
29.92632375171392
 30
0.0
 10
18.6812000360039
 20
29.94619932772915
 30
0.0
 10
18.67514426349852
 20
29.96283399088794
 30
0.0
 10
18.66657503933351
 20
29.98340946481998
 30
0.0
 10
18.6579037457748
 20
30.00143070205218
 30
0.0
 10
18.64797968719672
 20
30.01972187740017
 30
0.0
 10
18.63885311413073
 20
30.03501076615587
 30
0.0
 10
18.62646258128714
 20
30.05372220608724
 30
0.0
 10
18.61445799836507
 20
30.06984190817864
 30
0.0
 10
18.60122655345952
 20
30.08587429129427
 30
0.0
 10
18.58941371255981
 20
30.09903203572136
 30
0.0
 10
18.57372634584103
 20
30.1149203635008
 30
0.0
 10
18.55883436166015
 20
30.12839947493483
 30
0.0
 10
18.54264177666968
 20
30.14160775845266
 30
0.0
 10
18.52837625250249
 20
30.15226374744601
 30
0.0
 10
18.50982491954084
 20
30.16475392275991
 30
0.0
 10
18.49261454080708
 20
30.17496149667453
 30
0.0
 10
18.47423710957765
 20
30.18460613543429
 30
0.0
 10
18.45819940052187
 20
30.19215438168697
 30
0.0
 10
18.44262340689291
 20
30.19856150286911
 30
0.0
 10
18.42807665565665
 20
30.20391478589339
 30
0.0
 10
18.4148207434629
 20
30.20826548809864
 30
0.0
 10
18.39833769169533
 20
30.2129733011964
 30
0.0
 10
18.38186519021909
 20
30.21689783095388
 30
0.0
 10
18.36185900476346
 20
30.22068429077062
 30
0.0
 10
18.34185009490405
 20
30.22338750379075
 30
0.0
 10
18.32031590832195
 20
30.22513891976365
 30
0.0
 10
18.30678588740347
 20
30.22534301884527
 30
0.0
 10
18.29999999999998
 20
30.22544538331279
 30
0.0
  0
SPLINE
  5
2EC
330
1F
100
AcDbEntity
  8
SK3
  6
SLD-Dashed
370
    18
100
AcDbSpline
210
0.0
220
0.0
230
1.0
 70
     8
 71
     3
 72
    40
 73
    36
 74
     0
 42
0.000000001
 43
0.00000001
 40
0.0
 40
0.0
 40
0.0
 40
0.0
 40
0.0126129321408283
 40
0.0314976481214804
 40
0.0629183966423004
 40
0.0880663439234771
 40
0.1258663547630659
 40
0.1545361786769469
 40
0.1972635113860118
 40
0.2185774264929213
 40
0.2505499734617904
 40
0.2790323571714433
 40
0.3220275474574914
 40
0.3436168158787494
 40
0.375813362012343
 40
0.4042898095193623
 40
0.4468993710703059
 40
0.4682109724152067
 40
0.5002437124730655
 40
0.5288533887103667
 40
0.5719828275690878
 40
0.593442063717643
 40
0.6254916984600154
 40
0.6539107272747688
 40
0.6965262692823422
 40
0.717882390643
 40
0.7500313093223339
 40
0.77878001027844
 40
0.8217645159398439
 40
0.8431483194674755
 40
0.8751517844219839
 40
0.9000181011005816
 40
0.9373587731716256
 40
0.9685909586700391
 40
1.0
 40
1.0
 40
1.0
 40
1.0
 10
3.950000000000578
 20
30.22558335104684
 30
0.0
 10
3.947274292783062
 20
30.22556627837633
 30
0.0
 10
3.940467519713886
 20
30.2255236436454
 30
0.0
 10
3.926877983687738
 20
30.22500642558013
 30
0.0
 10
3.910614387343095
 20
30.22373406987646
 30
0.0
 10
3.890377115178756
 20
30.2211767499987
 30
0.0
 10
3.870876244597768
 20
30.21767179888435
 30
0.0
 10
3.847908980359818
 20
30.21222395072723
 30
0.0
 10
3.828703260232921
 20
30.20645116374221
 30
0.0
 10
3.809171858784794
 20
30.19944068107177
 30
0.0
 10
3.792809364003641
 20
30.19274469805332
 30
0.0
 10
3.772556053466269
 20
30.18326482982912
 30
0.0
 10
3.754851422366257
 20
30.17368320900286
 30
0.0
 10
3.737000248486819
 20
30.16278063541678
 30
0.0
 10
3.72223698824832
 20
30.15286142074993
 30
0.0
 10
3.704335276375287
 20
30.1395211579234
 30
0.0
 10
3.689009802608417
 20
30.12669393444049
 30
0.0
 10
3.67380378883779
 20
30.11259236596447
 30
0.0
 10
3.661327331475672
 20
30.10001076072767
 30
0.0
 10
3.646310110723305
 20
30.08334809853395
 30
0.0
 10
3.633673399458928
 20
30.06764274616046
 30
0.0
 10
3.621409205964279
 20
30.05073652815646
 30
0.0
 10
3.611609822900264
 20
30.035981224946
 30
0.0
 10
3.6001550645723
 20
30.01686876573214
 30
0.0
 10
3.59082826320857
 20
29.99919674617937
 30
0.0
 10
3.58203428955077
 20
29.98037575892947
 30
0.0
 10
3.575164227013414
 20
29.96397331420995
 30
0.0
 10
3.567448245866051
 20
29.94288598450057
 30
0.0
 10
3.561556458152968
 20
29.92362807390676
 30
0.0
 10
3.556426937905921
 20
29.90344122156948
 30
0.0
 10
3.552917337560579
 20
29.88689138494879
 30
0.0
 10
3.549534767676041
 20
29.86681106446945
 30
0.0
 10
3.547123069128189
 20
29.84675380195181
 30
0.0
 10
3.545562744604186
 20
29.82519288085212
 30
0.0
 10
3.545381051475338
 20
29.81165479503357
 30
0.0
 10
3.54528994842257
 20
29.80486664099298
 30
0.0
  0
SPLINE
  5
2ED
330
1F
100
AcDbEntity
  8
1
  6
SLD-Dashed
370
    18
100
AcDbSpline
210
0.0
220
0.0
230
1.0
 70
     8
 71
     3
 72
     8
 73
     4
 74
     0
 42
0.000000001
 43
0.00000001
 40
0.0
 40
0.0
 40
0.0
 40
0.0
 40
1.0
 40
1.0
 40
1.0
 40
1.0
 10
9.200000000000639
 20
27.81278402659968
 30
0.0
 10
8.753825436795967
 20
28.61764830107223
 30
0.0
 10
8.306503117905429
 20
29.42186997179871
 30
0.0
 10
7.858275689113528
 20
30.22558335104657
 30
0.0
  0
SPLINE
  5
2EE
330
1F
100
AcDbEntity
  8
1
  6
SLD-Dashed
370
    18
100
AcDbSpline
210
0.0
220
0.0
230
1.0
 70
     8
 71
     3
 72
    12
 73
     8
 74
     0
 42
0.000000001
 43
0.00000001
 40
0.0
 40
0.0
 40
0.0
 40
0.0
 40
0.2499999999999984
 40
0.2499999999999984
 40
0.4999999999999969
 40
0.4999999999999969
 40
1.0
 40
1.0
 40
1.0
 40
1.0
 10
9.950000000000516
 20
26.80430888868384
 30
0.0
 10
9.850219275688161
 20
26.80430888868377
 30
0.0
 10
9.748489574720772
 20
26.82597317526985
 30
0.0
 10
9.56505084213491
 20
26.90735539053938
 30
0.0
 10
9.481946114451913
 20
26.96711648327083
 30
0.0
 10
9.277073814553395
 20
27.18590763033032
 30
0.0
 10
9.199999999999847
 20
27.38705398234459
 30
0.0
 10
9.199999999999973
 20
27.58683517549641
 30
0.0
  0
SPLINE
  5
2EF
330
1F
100
AcDbEntity
  8
1
  6
SLD-Dashed
370
    18
100
AcDbSpline
210
0.0
220
0.0
230
1.0
 70
     8
 71
     3
 72
    14
 73
    10
 74
     0
 42
0.000000001
 43
0.00000001
 40
0.0
 40
0.0
 40
0.0
 40
0.0
 40
0.25
 40
0.25
 40
0.5
 40
0.5
 40
0.75
 40
0.75
 40
1.0
 40
1.0
 40
1.0
 40
1.0
 10
13.02999999999999
 20
27.58683517549639
 30
0.0
 10
13.02999999999999
 20
27.48633204917054
 30
0.0
 10
13.01129308106054
 20
27.3862503282613
 30
0.0
 10
12.93873708556012
 20
27.19964761855488
 30
0.0
 10
12.8844960585747
 20
27.11279998838251
 30
0.0
 10
12.7479884257955
 20
26.96707505027711
 30
0.0
 10
12.66478019424777
 20
26.90718470478119
 30
0.0
 10
12.4805111798614
 20
26.82562619640963
 30
0.0
 10
12.38097181174444
 20
26.80430888868439
 30
0.0
 10
12.27999999999999
 20
26.80430888868439
 30
0.0
  0
SPLINE
  5
2F0
330
1F
100
AcDbEntity
  8
1
  6
SLD-Dashed
370
    18
100
AcDbSpline
210
0.0
220
0.0
230
1.0
 70
     8
 71
     3
 72
     8
 73
     4
 74
     0
 42
0.000000001
 43
0.00000001
 40
0.0
 40
0.0
 40
0.0
 40
0.0
 40
1.0
 40
1.0
 40
1.0
 40
1.0
 10
14.37164736689955
 20
30.22544538331279
 30
0.0
 10
13.92344569040367
 20
29.42177793480443
 30
0.0
 10
13.47614903267275
 20
28.61760224597263
 30
0.0
 10
13.03
 20
27.81278402659763
 30
0.0
  0
SPLINE
  5
2F1
330
1F
100
AcDbEntity
  8
SK3
  6
SLD-Dashed
370
    18
100
AcDbSpline
210
0.0
220
0.0
230
1.0
 70
     8
 71
     3
 72
    34
 73
    30
 74
     0
 42
0.000000001
 43
0.00000001
 40
0.4999999999999977
 40
0.4999999999999977
 40
0.4999999999999977
 40
0.4999999999999977
 40
0.5624999999999978
 40
0.5624999999999978
 40
0.5937499999999981
 40
0.5937499999999981
 40
0.6249999999999983
 40
0.6249999999999983
 40
0.6562499999999987
 40
0.6562499999999987
 40
0.6874999999999989
 40
0.6874999999999989
 40
0.7499999999999996
 40
0.7499999999999996
 40
0.7812499999999997
 40
0.7812499999999997
 40
0.8124999999999998
 40
0.8124999999999998
 40
0.8437499999999998
 40
0.8437499999999998
 40
0.8749999999999999
 40
0.8749999999999999
 40
0.9062499999999999
 40
0.9062499999999999
 40
0.9375
 40
0.9375
 40
0.96875
 40
0.96875
 40
1.0
 40
1.0
 40
1.0
 40
1.0
 10
10.44989457346451
 20
9.188552838687942
 30
0.0
 10
10.59263203931583
 20
9.174236610891132
 30
0.0
 10
10.74572898252596
 20
9.144633936726814
 30
0.0
 10
11.02346457422353
 20
9.075693724379066
 30
0.0
 10
11.12372720463396
 20
9.048767303058264
 30
0.0
 10
11.34651412887494
 20
8.983040326194853
 30
0.0
 10
11.4678847494719
 20
8.944585962248688
 30
0.0
 10
11.71475803299396
 20
8.851533468433905
 30
0.0
 10
11.83869929941917
 20
8.796879466860954
 30
0.0
 10
12.06754486308014
 20
8.669912801310124
 30
0.0
 10
12.17335137945198
 20
8.597492712392185
 30
0.0
 10
12.45826053814744
 20
8.350055176087425
 30
0.0
 10
12.60079742123002
 20
8.146940498957338
 30
0.0
 10
12.72395241472729
 20
7.804987664268924
 30
0.0
 10
12.75035560308826
 20
7.682849153203136
 30
0.0
 10
12.77026974501037
 20
7.437009886565566
 30
0.0
 10
12.7643751338236
 20
7.311127426790014
 30
0.0
 10
12.7203381094541
 20
7.059786756873493
 30
0.0
 10
12.68302095968711
 20
6.937476563329943
 30
0.0
 10
12.57844952904383
 20
6.700025312627527
 30
0.0
 10
12.51125932456626
 20
6.586063111613208
 30
0.0
 10
12.3530944679418
 20
6.3782238569648
 30
0.0
 10
12.25993473983122
 20
6.281719558284736
 30
0.0
 10
12.05554915126636
 20
6.118002116577703
 30
0.0
 10
11.94432147845087
 20
6.049872144173657
 30
0.0
 10
11.70236550523704
 20
5.948838460017029
 30
0.0
 10
11.57681201416266
 20
5.919256740586784
 30
0.0
 10
11.33321027169285
 20
5.905182504817932
 30
0.0
 10
11.21910590689121
 20
5.920422754745587
 30
0.0
 10
11.11499999999999
 20
5.949256181891779
 30
0.0
  0
SPLINE
  5
2F2
330
1F
100
AcDbEntity
  8
SK3
  6
SLD-Dashed
370
    18
100
AcDbSpline
210
0.0
220
0.0
230
1.0
 70
     8
 71
     3
 72
    32
 73
    28
 74
     0
 42
0.000000001
 43
0.00000001
 40
0.0
 40
0.0
 40
0.0
 40
0.0
 40
0.0312500000000002
 40
0.0312500000000002
 40
0.0625000000000003
 40
0.0625000000000003
 40
0.1250000000000002
 40
0.1250000000000002
 40
0.1875000000000001
 40
0.1875000000000001
 40
0.2187499999999998
 40
0.2187499999999998
 40
0.2499999999999995
 40
0.2499999999999995
 40
0.2812499999999992
 40
0.2812499999999992
 40
0.3124999999999988
 40
0.3124999999999988
 40
0.3437499999999985
 40
0.3437499999999985
 40
0.3749999999999982
 40
0.3749999999999982
 40
0.4062499999999979
 40
0.4062499999999979
 40
0.4374999999999976
 40
0.4374999999999976
 40
0.4999999999999977
 40
0.4999999999999977
 40
0.4999999999999977
 40
0.4999999999999977
 10
11.11499999999999
 20
5.94925618189177
 30
0.0
 10
11.01089409310875
 20
5.978089609037955
 30
0.0
 10
10.91907857642195
 20
6.018948849607108
 30
0.0
 10
10.74762137377522
 20
6.11408628910634
 30
0.0
 10
10.66818813797001
 20
6.16862968505543
 30
0.0
 10
10.44047236553632
 20
6.348201174628615
 30
0.0
 10
10.30542057236911
 20
6.486189899653959
 30
0.0
 10
10.05258703563624
 20
6.794337658592867
 30
0.0
 10
9.93481360775792
 20
6.964537184229203
 30
0.0
 10
9.770188160048079
 20
7.260502843527093
 30
0.0
 10
9.717965925809045
 20
7.365374732541163
 30
0.0
 10
9.623196888300539
 20
7.586751552194754
 30
0.0
 10
9.579891013149526
 20
7.704475586992551
 30
0.0
 10
9.508588627253438
 20
7.958722907590383
 30
0.0
 10
9.481892276768443
 20
8.093279239326252
 30
0.0
 10
9.45981177761726
 20
8.3533121996933
 30
0.0
 10
9.4650638408882
 20
8.47925118304287
 30
0.0
 10
9.505124926315846
 20
8.692292476903809
 30
0.0
 10
9.538244242074127
 20
8.77870984803539
 30
0.0
 10
9.619247903804625
 20
8.920989829982993
 30
0.0
 10
9.665743567469118
 20
8.975076239847636
 30
0.0
 10
9.766569607309595
 20
9.062988359132449
 30
0.0
 10
9.821244160784545
 20
9.096499752388537
 30
0.0
 10
9.934291731587845
 20
9.147487690189598
 30
0.0
 10
9.99303823187328
 20
9.16524476865896
 30
0.0
 10
10.17595206270198
 20
9.20139317183718
 30
0.0
 10
10.30715710761322
 20
9.202869066484745
 30
0.0
 10
10.44989457346451
 20
9.188552838687942
 30
0.0
  0
SPLINE
  5
2F3
330
1F
100
AcDbEntity
  8
SK3
  6
SLD-Dashed
370
    18
100
AcDbSpline
210
0.0
220
0.0
230
1.0
 70
     8
 71
     3
 72
    10
 73
     6
 74
     0
 42
0.000000001
 43
0.00000001
 40
0.0
 40
0.0
 40
0.0
 40
0.0
 40
0.5
 40
0.5
 40
1.0
 40
1.0
 40
1.0
 40
1.0
 10
9.138150238601916
 20
8.152513349923971
 30
0.0
 10
9.123100104871208
 20
8.255620108263633
 30
0.0
 10
9.114984999226959
 20
8.356863420605313
 30
0.0
 10
9.115015042334335
 20
8.552681333304058
 30
0.0
 10
9.123102863559051
 20
8.641600333138024
 30
0.0
 10
9.138150238601899
 20
8.722760521764489
 30
0.0
  0
ELLIPSE
  5
2F4
330
1F
100
AcDbEntity
  8
SK3
  6
SLD-Dashed
370
    18
100
AcDbEllipse
 10
6.0773103747
 20
8.4376369358
 30
0.0
 11
3.098580671678216
 21
0.0
 31
0.0
210
0.0
220
0.0
230
1.0
 40
0.5913677276
 41
6.126949351778348
 42
6.439421262580864
  0
INSERT
  5
2F5
330
1F
100
AcDbEntity
  8
80
100
AcDbBlockReference
  2
Block12
 10
-61.7273641656
 20
-130.3356800267
 30
0.0
  0
INSERT
  5
2F6
330
1F
100
AcDbEntity
  8
81
100
AcDbBlockReference
  2
Block11
 10
-56.6264826505
 20
-130.2676275275
 30
0.0
  0
DIMENSION
  5
2F7
330
1F
100
AcDbEntity
  8
SK2
100
AcDbDimension
  2
_D
 10
19.05
 20
37.0104184437
 30
0.0
 11
9.6960639729
 21
37.0104184437
 31
0.0
 70
   160
  1
<>
 71
     2
 42
-1.0
  3
SLDDIMSTYLE0
100
AcDbAlignedDimension
 13
0.0
 23
22.225
 33
0.0
 14
19.05
 24
18.35
 34
0.0
100
AcDbRotatedDimension
  0
DIMENSION
  5
303
330
1F
100
AcDbEntity
  8
SK2
100
AcDbDimension
  2
_D_1
 10
35.0
 20
37.0104184437
 30
0.0
 11
26.7329690453
 21
37.0104184437
 31
0.0
 70
   160
  1
<>
 71
     2
 42
-1.0
  3
SLDDIMSTYLE0
100
AcDbAlignedDimension
 13
19.05
 23
18.35
 33
0.0
 14
35.0
 24
23.2
 34
0.0
100
AcDbRotatedDimension
  0
DIMENSION
  5
30D
330
1F
100
AcDbEntity
  8
SK2
100
AcDbDimension
  2
_D_2
 10
56.0
 20
37.0104184437
 30
0.0
 11
46.2441134435
 21
37.0104184437
 31
0.0
 70
   160
  1
<>
 71
     2
 42
-1.0
  3
SLDDIMSTYLE0
100
AcDbAlignedDimension
 13
35.0
 23
23.2
 33
0.0
 14
56.0
 24
12.9710190579
 34
0.0
 50
0.0
100
AcDbRotatedDimension
  0
DIMENSION
  5
317
330
1F
100
AcDbEntity
  8
2
100
AcDbDimension
  2
_D_3
 10
0.0
 20
45.9883725689
 30
0.0
 11
17.4015521592
 21
45.9883725689
 31
0.0
 70
   160
  1
<>
 71
     2
 42
-1.0
  3
SLDDIMSTYLE0
100
AcDbAlignedDimension
 13
35.0
 23
23.2
 33
0.0
 14
0.0
 24
22.225
 34
0.0
 50
0.0
100
AcDbRotatedDimension
  0
DIMENSION
  5
321
330
1F
100
AcDbEntity
  8
SK2
100
AcDbDimension
  2
_D_4
 10
90.5210896444
 20
-24.0
 30
0.0
 11
90.5210896444
 21
0.0138375743
 31
0.0
 70
   160
  1
%%c<>
 71
     2
 42
-1.0
  3
SLDDIMSTYLE0
100
AcDbAlignedDimension
 13
34.2
 23
24.0
 33
0.0
 14
34.2
 24
-24.0
 34
0.0
 50
90.0
100
AcDbRotatedDimension
  0
DIMENSION
  5
32C
330
1F
100
AcDbEntity
  8
SK2
100
AcDbDimension
  2
_D_5
 10
81.2142373041
 20
-13.5
 30
0.0
 11
81.2142373041
 21
0.0138375743
 31
0.0
 70
   160
  1
%%c<>
 71
     2
 42
-1.0
  3
SLDDIMSTYLE0
100
AcDbAlignedDimension
 13
53.0
 23
13.5
 33
0.0
 14
53.0
 24
-13.5
 34
0.0
 50
90.0
100
AcDbRotatedDimension
  0
DIMENSION
  5
337
330
1F
100
AcDbEntity
  8
SK2
100
AcDbDimension
  2
_D_6
 10
-96.7369885576
 20
-30.5753585477
 30
0.0
 11
-96.7369885576
 21
-1.1149006711
 31
0.0
 70
   160
  1
%%c<>
 71
     2
 42
-1.0
  3
SLDDIMSTYLE0
100
AcDbAlignedDimension
 13
3.95
 23
30.5578859972
 33
0.0
 14
3.95
 24
-30.5753585477
 34
0.0
 50
90.0
100
AcDbRotatedDimension
  0
DIMENSION
  5
342
330
1F
100
AcDbEntity
  8
SK2
100
AcDbDimension
  2
_D_7
 10
-85.7395132524
 20
-22.225
 30
0.0
 11
-85.7395132524
 21
-1.1149006711
 31
0.0
 70
   160
  1
%%c<>
 71
     2
 42
-1.0
  3
SLDDIMSTYLE0
100
AcDbAlignedDimension
 13
0.0
 23
22.225
 33
0.0
 14
0.0
 24
-22.225
 34
0.0
 50
90.0
100
AcDbRotatedDimension
  0
DIMENSION
  5
34D
330
1F
100
AcDbEntity
  8
SK2
100
AcDbDimension
  2
_D_8
 10
-75.320547127
 20
8.00000038
 30
0.0
 11
-75.320547127
 21
0.1438879521
 31
0.0
 70
   160
  1
M<>
 71
     2
 42
-1.0
  3
SLDDIMSTYLE0
100
AcDbAlignedDimension
 13
-59.2881200492
 23
-8.00000038
 33
0.0
 14
-59.2881200492
 24
8.00000038
 34
0.0
 50
90.0
100
AcDbRotatedDimension
  0
MTEXT
  5
358
330
1F
100
AcDbEntity
  8
SK6
 62
     5
100
AcDbMText
 10
-68.4149884921
 20
-34.0799250212
 30
0.0
 40
3.5
 41
0.0
 71
     1
 72
     1
  1
A1B05-40 27 035
  7
SLDTEXTSTYLE0
 73
     1
 44
1.0
  0
INSERT
  5
35E
330
1F
100
AcDbEntity
  8
SK6
 62
     5
100
AcDbBlockReference
  2
SW_NOTE_0
 10
-38.9380778743
 20
37.5156250365
 30
0.0
  0
ENDSEC
  0
SECTION
  2
OBJECTS
  0
DICTIONARY
  5
C
330
0
100
AcDbDictionary
281
     1
  3
ACAD_GROUP
350
D
  3
ACAD_LAYOUT
350
1A
  3
ACAD_MLINESTYLE
350
17
  3
ACAD_PLOTSETTINGS
350
19
  3
ACAD_PLOTSTYLENAME
350
E
  3
ACAD_SCALELIST
350
47
  0
DICTIONARY
  5
D
102
{ACAD_REACTORS
330
C
102
}
330
C
100
AcDbDictionary
281
     1
  0
DICTIONARY
  5
1A
102
{ACAD_REACTORS
330
C
102
}
330
C
100
AcDbDictionary
281
     1
  3
Layout1
350
1E
  3
Layout2
350
26
  3
Model
350
22
  0
DICTIONARY
  5
17
102
{ACAD_REACTORS
330
C
102
}
330
C
100
AcDbDictionary
281
     1
  3
Standard
350
18
  0
DICTIONARY
  5
19
102
{ACAD_REACTORS
330
C
102
}
330
C
100
AcDbDictionary
281
     1
  0
ACDBDICTIONARYWDFLT
  5
E
102
{ACAD_REACTORS
330
C
102
}
330
C
100
AcDbDictionary
281
     1
  3
Normal
350
F
100
AcDbDictionaryWithDefault
340
F
  0
DICTIONARY
  5
47
102
{ACAD_REACTORS
330
C
102
}
330
C
100
AcDbDictionary
281
     1
  3
A0
350
48
  3
A1
350
49
  3
A2
350
4A
  3
A3
350
4B
  3
A4
350
4C
  3
A5
350
4D
  3
A6
350
4E
  3
A7
350
4F
  3
A8
350
50
  3
A9
350
51
  3
B0
350
52
  3
B1
350
53
  3
B2
350
54
  3
B3
350
55
  3
B4
350
56
  3
B5
350
57
  3
B6
350
58
  3
B7
350
59
  3
B8
350
5A
  3
B9
350
5B
  3
C0
350
5C
  3
C1
350
5D
  3
C2
350
5E
  3
C3
350
5F
  3
C4
350
60
  3
C5
350
61
  3
C6
350
62
  3
C7
350
63
  3
C8
350
64
  3
C9
350
65
  3
D0
350
66
  3
D1
350
67
  3
D2
350
68
  0
LAYOUT
  5
1E
102
{ACAD_REACTORS
330
1A
102
}
330
1A
100
AcDbPlotSettings
  1

  2
none_device
  4

  6

 40
0.0
 41
0.0
 42
0.0
 43
0.0
 44
0.0
 45
0.0
 46
0.0
 47
0.0
 48
0.0
 49
0.0
140
0.0
141
0.0
142
1.0
143
1.0
 70
   688
 72
     1
 73
     0
 74
     5
  7

 75
    16
147
1.0
148
0.0
149
0.0
100
AcDbLayout
  1
Layout1
 70
     1
 71
     1
 10
0.0
 20
0.0
 11
420.0
 21
297.0
 12
0.0
 22
0.0
 32
0.0
 14
1.0000000000E+20
 24
1.0000000000E+20
 34
1.0000000000E+20
 15
-1.0000000000E+20
 25
-1.0000000000E+20
 35
-1.0000000000E+20
146
0.0
 13
0.0
 23
0.0
 33
0.0
 16
1.0
 26
0.0
 36
0.0
 17
0.0
 27
1.0
 37
0.0
 76
     0
330
1B
  0
LAYOUT
  5
26
102
{ACAD_REACTORS
330
1A
102
}
330
1A
100
AcDbPlotSettings
  1

  2
none_device
  4

  6

 40
0.0
 41
0.0
 42
0.0
 43
0.0
 44
0.0
 45
0.0
 46
0.0
 47
0.0
 48
0.0
 49
0.0
140
0.0
141
0.0
142
1.0
143
1.0
 70
   688
 72
     1
 73
     0
 74
     5
  7

 75
    16
147
1.0
148
0.0
149
0.0
100
AcDbLayout
  1
Layout2
 70
     1
 71
     2
 10
0.0
 20
0.0
 11
0.0
 21
0.0
 12
0.0
 22
0.0
 32
0.0
 14
0.0
 24
0.0
 34
0.0
 15
0.0
 25
0.0
 35
0.0
146
0.0
 13
0.0
 23
0.0
 33
0.0
 16
1.0
 26
0.0
 36
0.0
 17
0.0
 27
1.0
 37
0.0
 76
     0
330
23
  0
LAYOUT
  5
22
102
{ACAD_REACTORS
330
1A
102
}
330
1A
100
AcDbPlotSettings
  1

  2
none_device
  4
Letter_(8.50_x_11.00_Inches)
  6

 40
6.35
 41
6.35
 42
6.35000508
 43
6.35000508
 44
215.9
 45
279.4
 46
0.0
 47
0.0
 48
0.0
 49
0.0
140
0.0
141
0.0
142
1.0
143
1.0
 70
  1712
 72
     1
 73
     0
 74
     0
  7

 75
     0
147
1.0
148
0.0
149
0.0
100
AcDbLayout
  1
Model
 70
     1
 71
     0
 10
0.0
 20
0.0
 11
297.0
 21
210.0
 12
0.0
 22
0.0
 32
0.0
 14
0.0
 24
0.0
 34
0.0
 15
297.0
 25
210.0
 35
0.0
146
0.0
 13
0.0
 23
0.0
 33
0.0
 16
1.0
 26
0.0
 36
0.0
 17
0.0
 27
1.0
 37
0.0
 76
     0
330
1F
331
29
  0
MLINESTYLE
  5
18
102
{ACAD_REACTORS
330
17
102
}
330
17
100
AcDbMlineStyle
  2
Standard
 70
     0
  3

 62
   256
 51
90.0
 52
90.0
 71
     2
 49
0.5
 62
   256
  6
BYLAYER
 49
-0.5
 62
   256
  6
BYLAYER
  0
ACDBPLACEHOLDER
  5
F
102
{ACAD_REACTORS
330
E
102
}
330
E
  0
SCALE
  5
48
102
{ACAD_REACTORS
330
47
102
}
330
47
100
AcDbScale
 70
     0
300
1:1
140
1.0
141
1.0
290
     1
  0
SCALE
  5
49
102
{ACAD_REACTORS
330
47
102
}
330
47
100
AcDbScale
 70
     0
300
1:2
140
1.0
141
2.0
290
     0
  0
SCALE
  5
4A
102
{ACAD_REACTORS
330
47
102
}
330
47
100
AcDbScale
 70
     0
300
1:4
140
1.0
141
4.0
290
     0
  0
SCALE
  5
4B
102
{ACAD_REACTORS
330
47
102
}
330
47
100
AcDbScale
 70
     0
300
1:5
140
1.0
141
5.0
290
     0
  0
SCALE
  5
4C
102
{ACAD_REACTORS
330
47
102
}
330
47
100
AcDbScale
 70
     0
300
1:8
140
1.0
141
8.0
290
     0
  0
SCALE
  5
4D
102
{ACAD_REACTORS
330
47
102
}
330
47
100
AcDbScale
 70
     0
300
1:10
140
1.0
141
10.0
290
     0
  0
SCALE
  5
4E
102
{ACAD_REACTORS
330
47
102
}
330
47
100
AcDbScale
 70
     0
300
1:16
140
1.0
141
16.0
290
     0
  0
SCALE
  5
4F
102
{ACAD_REACTORS
330
47
102
}
330
47
100
AcDbScale
 70
     0
300
1:20
140
1.0
141
20.0
290
     0
  0
SCALE
  5
50
102
{ACAD_REACTORS
330
47
102
}
330
47
100
AcDbScale
 70
     0
300
1:30
140
1.0
141
30.0
290
     0
  0
SCALE
  5
51
102
{ACAD_REACTORS
330
47
102
}
330
47
100
AcDbScale
 70
     0
300
1:40
140
1.0
141
40.0
290
     0
  0
SCALE
  5
52
102
{ACAD_REACTORS
330
47
102
}
330
47
100
AcDbScale
 70
     0
300
1:50
140
1.0
141
50.0
290
     0
  0
SCALE
  5
53
102
{ACAD_REACTORS
330
47
102
}
330
47
100
AcDbScale
 70
     0
300
1:100
140
1.0
141
100.0
290
     0
  0
SCALE
  5
54
102
{ACAD_REACTORS
330
47
102
}
330
47
100
AcDbScale
 70
     0
300
2:1
140
2.0
141
1.0
290
     0
  0
SCALE
  5
55
102
{ACAD_REACTORS
330
47
102
}
330
47
100
AcDbScale
 70
     0
300
4:1
140
4.0
141
1.0
290
     0
  0
SCALE
  5
56
102
{ACAD_REACTORS
330
47
102
}
330
47
100
AcDbScale
 70
     0
300
8:1
140
8.0
141
1.0
290
     0
  0
SCALE
  5
57
102
{ACAD_REACTORS
330
47
102
}
330
47
100
AcDbScale
 70
     0
300
10:1
140
10.0
141
1.0
290
     0
  0
SCALE
  5
58
102
{ACAD_REACTORS
330
47
102
}
330
47
100
AcDbScale
 70
     0
300
100:1
140
100.0
141
1.0
290
     0
  0
SCALE
  5
59
102
{ACAD_REACTORS
330
47
102
}
330
47
100
AcDbScale
 70
     0
300
1/128" = 1'-0"
140
0.0078125
141
12.0
290
     0
  0
SCALE
  5
5A
102
{ACAD_REACTORS
330
47
102
}
330
47
100
AcDbScale
 70
     0
300
1/64" = 1'-0"
140
0.015625
141
12.0
290
     0
  0
SCALE
  5
5B
102
{ACAD_REACTORS
330
47
102
}
330
47
100
AcDbScale
 70
     0
300
1/32" = 1'-0"
140
0.03125
141
12.0
290
     0
  0
SCALE
  5
5C
102
{ACAD_REACTORS
330
47
102
}
330
47
100
AcDbScale
 70
     0
300
1/16" = 1'-0"
140
0.0625
141
12.0
290
     0
  0
SCALE
  5
5D
102
{ACAD_REACTORS
330
47
102
}
330
47
100
AcDbScale
 70
     0
300
3/32" = 1'-0"
140
0.09375
141
12.0
290
     0
  0
SCALE
  5
5E
102
{ACAD_REACTORS
330
47
102
}
330
47
100
AcDbScale
 70
     0
300
1/8" = 1'-0"
140
0.125
141
12.0
290
     0
  0
SCALE
  5
5F
102
{ACAD_REACTORS
330
47
102
}
330
47
100
AcDbScale
 70
     0
300
3/16" = 1'-0"
140
0.1875
141
12.0
290
     0
  0
SCALE
  5
60
102
{ACAD_REACTORS
330
47
102
}
330
47
100
AcDbScale
 70
     0
300
1/4" = 1'-0"
140
0.25
141
12.0
290
     0
  0
SCALE
  5
61
102
{ACAD_REACTORS
330
47
102
}
330
47
100
AcDbScale
 70
     0
300
3/8" = 1'-0"
140
0.375
141
12.0
290
     0
  0
SCALE
  5
62
102
{ACAD_REACTORS
330
47
102
}
330
47
100
AcDbScale
 70
     0
300
1/2" = 1'-0"
140
0.5
141
12.0
290
     0
  0
SCALE
  5
63
102
{ACAD_REACTORS
330
47
102
}
330
47
100
AcDbScale
 70
     0
300
3/4" = 1'-0"
140
0.75
141
12.0
290
     0
  0
SCALE
  5
64
102
{ACAD_REACTORS
330
47
102
}
330
47
100
AcDbScale
 70
     0
300
1" = 1'-0"
140
1.0
141
12.0
290
     0
  0
SCALE
  5
65
102
{ACAD_REACTORS
330
47
102
}
330
47
100
AcDbScale
 70
     0
300
1-1/2" = 1'-0"
140
1.5
141
12.0
290
     0
  0
SCALE
  5
66
102
{ACAD_REACTORS
330
47
102
}
330
47
100
AcDbScale
 70
     0
300
3" = 1'-0"
140
3.0
141
12.0
290
     0
  0
SCALE
  5
67
102
{ACAD_REACTORS
330
47
102
}
330
47
100
AcDbScale
 70
     0
300
6" = 1'-0"
140
6.0
141
12.0
290
     0
  0
SCALE
  5
68
102
{ACAD_REACTORS
330
47
102
}
330
47
100
AcDbScale
 70
     0
300
1'-0" = 1'-0"
140
12.0
141
12.0
290
     0
  0
ENDSEC
  0
EOF
