  0
SECTION
  2
HEADER
  9
$ACADVER
  1
AC1015
  9
$ACADMAINTVER
 70
     6
  9
$DWGCODEPAGE
  3
ANSI_1250
  9
$INSBASE
 10
0.0
 20
0.0
 30
0.0
  9
$EXTMIN
 10
0.0
 20
0.0
 30
0.0
  9
$EXTMAX
 10
297.0
 20
210.0
 30
0.0
  9
$LIMMIN
 10
0.0
 20
0.0
  9
$LIMMAX
 10
297.0
 20
210.0
  9
$ORTHOMODE
 70
     0
  9
$REGENMODE
 70
     1
  9
$FILLMODE
 70
     1
  9
$QTEXTMODE
 70
     0
  9
$MIRRTEXT
 70
     1
  9
$LTSCALE
 40
1.0
  9
$ATTMODE
 70
     1
  9
$TEXTSIZE
 40
3.5
  9
$TRACEWID
 40
1.0
  9
$TEXTSTYLE
  7
Standard
  9
$CLAYER
  8
0
  9
$CELTYPE
  6
ByLayer
  9
$CECOLOR
 62
   256
  9
$CELTSCALE
 40
1.0
  9
$DISPSILH
 70
     0
  9
$DIMSCALE
 40
1.0
  9
$DIMASZ
 40
3.302
  9
$DIMEXO
 40
1.0
  9
$DIMDLI
 40
3.75
  9
$DIMRND
 40
0.0
  9
$DIMDLE
 40
0.0
  9
$DIMEXE
 40
1.0
  9
$DIMTP
 40
0.0
  9
$DIMTM
 40
0.0
  9
$DIMTXT
 40
3.5
  9
$DIMCEN
 40
2.5
  9
$DIMTSZ
 40
0.0
  9
$DIMTOL
 70
     0
  9
$DIMLIM
 70
     0
  9
$DIMTIH
 70
     1
  9
$DIMTOH
 70
     1
  9
$DIMSE1
 70
     0
  9
$DIMSE2
 70
     0
  9
$DIMTAD
 70
     1
  9
$DIMZIN
 70
     0
  9
$DIMBLK
  1

  9
$DIMASO
 70
     1
  9
$DIMSHO
 70
     1
  9
$DIMPOST
  1

  9
$DIMAPOST
  1

  9
$DIMALT
 70
     0
  9
$DIMALTD
 70
     3
  9
$DIMALTF
 40
0.0393700787
  9
$DIMLFAC
 40
1.0
  9
$DIMTOFL
 70
     1
  9
$DIMTVP
 40
0.0
  9
$DIMTIX
 70
     0
  9
$DIMSOXD
 70
     0
  9
$DIMSAH
 70
     0
  9
$DIMBLK1
  1

  9
$DIMBLK2
  1

  9
$DIMSTYLE
  2
ISO-25
  9
$DIMCLRD
 70
     0
  9
$DIMCLRE
 70
     0
  9
$DIMCLRT
 70
     0
  9
$DIMTFAC
 40
1.0
  9
$DIMGAP
 40
1.524
  9
$DIMJUST
 70
     0
  9
$DIMSD1
 70
     0
  9
$DIMSD2
 70
     0
  9
$DIMTOLJ
 70
     0
  9
$DIMTZIN
 70
     0
  9
$DIMALTZ
 70
     0
  9
$DIMALTTZ
 70
     0
  9
$DIMUPT
 70
     0
  9
$DIMDEC
 70
     2
  9
$DIMTDEC
 70
     2
  9
$DIMALTU
 70
     2
  9
$DIMALTTD
 70
     3
  9
$DIMTXSTY
  7
Standard
  9
$DIMAUNIT
 70
     0
  9
$DIMADEC
 70
     2
  9
$DIMALTRND
 40
0.0
  9
$DIMAZIN
 70
     0
  9
$DIMDSEP
 70
    44
  9
$DIMATFIT
 70
     3
  9
$DIMFRAC
 70
     0
  9
$DIMLDRBLK
  1

  9
$DIMLUNIT
 70
     2
  9
$DIMLWD
 70
    -2
  9
$DIMLWE
 70
    -2
  9
$DIMTMOVE
 70
     0
  9
$LUNITS
 70
     2
  9
$LUPREC
 70
     2
  9
$SKETCHINC
 40
1.0
  9
$FILLETRAD
 40
10.0
  9
$AUNITS
 70
     0
  9
$AUPREC
 70
     2
  9
$MENU
  1
.
  9
$ELEVATION
 40
0.0
  9
$PELEVATION
 40
0.0
  9
$THICKNESS
 40
0.0
  9
$LIMCHECK
 70
     0
  9
$CHAMFERA
 40
0.0
  9
$CHAMFERB
 40
0.0
  9
$CHAMFERC
 40
0.0
  9
$CHAMFERD
 40
0.0
  9
$SKPOLY
 70
     0
  9
$TDCREATE
 40
2459290.518932211
  9
$TDUCREATE
 40
2459290.477265544
  9
$TDUPDATE
 40
2459290.51893331
  9
$TDUUPDATE
 40
2459290.477266644
  9
$TDINDWG
 40
0.0000000116
  9
$TDUSRTIMER
 40
0.0000000116
  9
$USRTIMER
 70
     1
  9
$ANGBASE
 50
0.0
  9
$ANGDIR
 70
     0
  9
$PDMODE
 70
     0
  9
$PDSIZE
 40
-1.0
  9
$PLINEWID
 40
0.0
  9
$SPLFRAME
 70
     0
  9
$SPLINETYPE
 70
     6
  9
$SPLINESEGS
 70
     8
  9
$HANDSEED
  5
31B
  9
$SURFTAB1
 70
     6
  9
$SURFTAB2
 70
     6
  9
$SURFTYPE
 70
     6
  9
$SURFU
 70
     6
  9
$SURFV
 70
     6
  9
$UCSBASE
  2

  9
$UCSNAME
  2

  9
$UCSORG
 10
0.0
 20
0.0
 30
0.0
  9
$UCSXDIR
 10
1.0
 20
0.0
 30
0.0
  9
$UCSYDIR
 10
0.0
 20
1.0
 30
0.0
  9
$UCSORTHOREF
  2

  9
$UCSORTHOVIEW
 70
     0
  9
$UCSORGTOP
 10
0.0
 20
0.0
 30
0.0
  9
$UCSORGBOTTOM
 10
0.0
 20
0.0
 30
0.0
  9
$UCSORGLEFT
 10
0.0
 20
0.0
 30
0.0
  9
$UCSORGRIGHT
 10
0.0
 20
0.0
 30
0.0
  9
$UCSORGFRONT
 10
0.0
 20
0.0
 30
0.0
  9
$UCSORGBACK
 10
0.0
 20
0.0
 30
0.0
  9
$PUCSBASE
  2

  9
$PUCSNAME
  2

  9
$PUCSORG
 10
0.0
 20
0.0
 30
0.0
  9
$PUCSXDIR
 10
1.0
 20
0.0
 30
0.0
  9
$PUCSYDIR
 10
0.0
 20
1.0
 30
0.0
  9
$PUCSORTHOREF
  2

  9
$PUCSORTHOVIEW
 70
     0
  9
$PUCSORGTOP
 10
0.0
 20
0.0
 30
0.0
  9
$PUCSORGBOTTOM
 10
0.0
 20
0.0
 30
0.0
  9
$PUCSORGLEFT
 10
0.0
 20
0.0
 30
0.0
  9
$PUCSORGRIGHT
 10
0.0
 20
0.0
 30
0.0
  9
$PUCSORGFRONT
 10
0.0
 20
0.0
 30
0.0
  9
$PUCSORGBACK
 10
0.0
 20
0.0
 30
0.0
  9
$USERI1
 70
     0
  9
$USERI2
 70
     0
  9
$USERI3
 70
     0
  9
$USERI4
 70
     0
  9
$USERI5
 70
     0
  9
$USERR1
 40
0.0
  9
$USERR2
 40
0.0
  9
$USERR3
 40
0.0
  9
$USERR4
 40
0.0
  9
$USERR5
 40
0.0
  9
$WORLDVIEW
 70
     1
  9
$SHADEDGE
 70
     3
  9
$SHADEDIF
 70
    70
  9
$TILEMODE
 70
     1
  9
$MAXACTVP
 70
    64
  9
$PINSBASE
 10
0.0
 20
0.0
 30
0.0
  9
$PLIMCHECK
 70
     0
  9
$PEXTMIN
 10
1.0000000000E+20
 20
1.0000000000E+20
 30
1.0000000000E+20
  9
$PEXTMAX
 10
-1.0000000000E+20
 20
-1.0000000000E+20
 30
-1.0000000000E+20
  9
$PLIMMIN
 10
0.0
 20
0.0
  9
$PLIMMAX
 10
420.0
 20
297.0
  9
$UNITMODE
 70
     0
  9
$VISRETAIN
 70
     1
  9
$PLINEGEN
 70
     0
  9
$PSLTSCALE
 70
     1
  9
$TREEDEPTH
 70
  3020
  9
$CMLSTYLE
  2
Standard
  9
$CMLJUST
 70
     0
  9
$CMLSCALE
 40
20.0
  9
$PROXYGRAPHICS
 70
     1
  9
$MEASUREMENT
 70
     1
  9
$CELWEIGHT
370
    -1
  9
$ENDCAPS
280
     0
  9
$JOINSTYLE
280
     0
  9
$LWDISPLAY
290
     1
  9
$INSUNITS
 70
     4
  9
$HYPERLINKBASE
  1

  9
$STYLESHEET
  1

  9
$XEDIT
290
     1
  9
$CEPSNTYPE
380
     0
  9
$PSTYLEMODE
290
     1
  9
$FINGERPRINTGUID
  2
{13E1DB6D-78D4-470E-B8EC-028D696AD401}
  9
$VERSIONGUID
  2
{FAEB1C32-E019-11D5-929B-00C0DF256EC4}
  9
$EXTNAMES
290
     1
  9
$PSVPSCALE
 40
0.0
  9
$OLESTARTUP
290
     0
  0
ENDSEC
  0
SECTION
  2
CLASSES
  0
CLASS
  1
ACDBDICTIONARYWDFLT
  2
AcDbDictionaryWithDefault
  3
ObjectDBX Classes
 90
        0
280
     0
281
     0
  0
CLASS
  1
VISUALSTYLE
  2
AcDbVisualStyle
  3
ObjectDBX Classes
 90
     4095
280
     0
281
     0
  0
CLASS
  1
MATERIAL
  2
AcDbMaterial
  3
ObjectDBX Classes
 90
     1153
280
     0
281
     0
  0
CLASS
  1
SCALE
  2
AcDbScale
  3
ObjectDBX Classes
 90
     1153
280
     0
281
     0
  0
CLASS
  1
TABLESTYLE
  2
AcDbTableStyle
  3
ObjectDBX Classes
 90
     4095
280
     0
281
     0
  0
CLASS
  1
MLEADERSTYLE
  2
AcDbMLeaderStyle
  3
ACDB_MLEADERSTYLE_CLASS
 90
     4095
280
     0
281
     0
  0
CLASS
  1
SUN
  2
AcDbSun
  3
SCENEOE
 90
     1153
280
     0
281
     0
  0
CLASS
  1
ACDBPLACEHOLDER
  2
AcDbPlaceHolder
  3
ObjectDBX Classes
 90
        0
280
     0
281
     0
  0
CLASS
  1
LAYOUT
  2
AcDbLayout
  3
ObjectDBX Classes
 90
        0
280
     0
281
     0
  0
ENDSEC
  0
SECTION
  2
TABLES
  0
TABLE
  2
VPORT
  5
8
330
0
100
AcDbSymbolTable
 70
     1
  0
VPORT
  5
29
330
8
100
AcDbSymbolTableRecord
100
AcDbViewportTableRecord
  2
*Active
 70
     0
 10
0.0
 20
0.0
 11
1.0
 21
1.0
 12
148.5
 22
105.0
 13
0.0
 23
0.0
 14
10.0
 24
10.0
 15
10.0
 25
10.0
 16
0.0
 26
0.0
 36
1.0
 17
0.0
 27
0.0
 37
0.0
 40
210.0
 41
1.4142857143
 42
50.0
 43
0.0
 44
0.0
 50
0.0
 51
0.0
 71
     0
 72
  2000
 73
     1
 74
     3
 75
     0
 76
     0
 77
     0
 78
     0
281
     0
 65
     1
110
0.0
120
0.0
130
0.0
111
1.0
121
0.0
131
0.0
112
0.0
122
1.0
132
0.0
 79
     0
146
0.0
  0
ENDTAB
  0
TABLE
  2
LTYPE
  5
5
330
0
100
AcDbSymbolTable
 70
     8
  0
LTYPE
  5
14
330
5
100
AcDbSymbolTableRecord
100
AcDbLinetypeTableRecord
  2
ByBlock
 70
     0
  3

 72
    65
 73
     0
 40
0.0
  0
LTYPE
  5
15
330
5
100
AcDbSymbolTableRecord
100
AcDbLinetypeTableRecord
  2
ByLayer
 70
     0
  3

 72
    65
 73
     0
 40
0.0
  0
LTYPE
  5
16
330
5
100
AcDbSymbolTableRecord
100
AcDbLinetypeTableRecord
  2
Continuous
 70
     0
  3
Solid line
 72
    65
 73
     0
 40
0.0
  0
LTYPE
  5
6E
330
5
100
AcDbSymbolTableRecord
100
AcDbLinetypeTableRecord
  2
SLD-Solid
 70
     0
  3
SolidWorks Line Style
 72
    65
 73
     0
 40
0.0
  0
LTYPE
  5
6F
330
5
100
AcDbSymbolTableRecord
100
AcDbLinetypeTableRecord
  2
SLD-Dashed
 70
     0
  3
SolidWorks Line Style
 72
    65
 73
     2
 40
1.905
 49
1.27
 74
     0
 49
-0.635
 74
     0
  0
LTYPE
  5
70
330
5
100
AcDbSymbolTableRecord
100
AcDbLinetypeTableRecord
  2
SLD-Phantom
 70
     0
  3
SolidWorks Line Style
 72
    65
 73
     6
 40
12.7
 49
6.35
 74
     0
 49
-1.27
 74
     0
 49
1.27
 74
     0
 49
-1.27
 74
     0
 49
1.27
 74
     0
 49
-1.27
 74
     0
  0
LTYPE
  5
71
330
5
100
AcDbSymbolTableRecord
100
AcDbLinetypeTableRecord
  2
SLD-Chain
 70
     0
  3
SolidWorks Line Style
 72
    65
 73
     4
 40
10.16
 49
6.35
 74
     0
 49
-1.27
 74
     0
 49
1.27
 74
     0
 49
-1.27
 74
     0
  0
LTYPE
  5
72
330
5
100
AcDbSymbolTableRecord
100
AcDbLinetypeTableRecord
  2
SLD-Center
 70
     0
  3
SolidWorks Line Style
 72
    65
 73
     4
 40
19.05
 49
15.24
 74
     0
 49
-1.27
 74
     0
 49
1.27
 74
     0
 49
-1.27
 74
     0
  0
LTYPE
  5
73
330
5
100
AcDbSymbolTableRecord
100
AcDbLinetypeTableRecord
  2
SLD-Stitch
 70
     0
  3
SolidWorks Line Style
 72
    65
 73
     2
 40
0.635
 49
0.0
 74
     0
 49
-0.635
 74
     0
  0
LTYPE
  5
74
330
5
100
AcDbSymbolTableRecord
100
AcDbLinetypeTableRecord
  2
SLD-Thin-Thick-Chain
 70
     0
  3
SolidWorks Line Style
 72
    65
 73
     4
 40
10.16
 49
6.35
 74
     0
 49
-1.27
 74
     0
 49
1.27
 74
     0
 49
-1.27
 74
     0
  0
ENDTAB
  0
TABLE
  2
LAYER
  5
2
330
0
100
AcDbSymbolTable
 70
    12
  0
LAYER
  5
10
330
2
100
AcDbSymbolTableRecord
100
AcDbLayerTableRecord
  2
0
 70
     0
 62
     7
  6
Continuous
370
    -3
390
F
  0
LAYER
  5
75
330
2
100
AcDbSymbolTableRecord
100
AcDbLayerTableRecord
  2
SLD-0
 70
     0
 62
  -179
  6
SLD-Solid
290
     0
370
    -3
390
F
  0
LAYER
  5
76
330
2
100
AcDbSymbolTableRecord
100
AcDbLayerTableRecord
  2
80
 70
     0
 62
    -6
  6
SLD-Solid
290
     0
370
    -3
390
F
  0
LAYER
  5
77
330
2
100
AcDbSymbolTableRecord
100
AcDbLayerTableRecord
  2
81
 70
     0
 62
    -3
  6
SLD-Solid
290
     0
370
    -3
390
F
  0
LAYER
  5
78
330
2
100
AcDbSymbolTableRecord
100
AcDbLayerTableRecord
  2
1
 70
     0
 62
     4
  6
SLD-Solid
290
     0
370
    -3
390
F
  0
LAYER
  5
79
330
2
100
AcDbSymbolTableRecord
100
AcDbLayerTableRecord
  2
4
 70
     0
 62
    -2
  6
SLD-Chain
290
     0
370
    -3
390
F
  0
LAYER
  5
7A
330
2
100
AcDbSymbolTableRecord
100
AcDbLayerTableRecord
  2
2
 70
     0
 62
     7
  6
SLD-Solid
290
     0
370
    -3
390
F
  0
LAYER
  5
7B
330
2
100
AcDbSymbolTableRecord
100
AcDbLayerTableRecord
  2
SK3
 70
     0
 62
     1
  6
SLD-Dashed
290
     0
370
    -3
390
F
  0
LAYER
  5
7C
330
2
100
AcDbSymbolTableRecord
100
AcDbLayerTableRecord
  2
SK4
 70
     0
 62
     2
  6
SLD-Chain
290
     0
370
    -3
390
F
  0
LAYER
  5
7D
330
2
100
AcDbSymbolTableRecord
100
AcDbLayerTableRecord
  2
SK2
 70
     0
 62
     7
  6
SLD-Solid
290
     0
370
    -3
390
F
  0
LAYER
  5
7E
330
2
100
AcDbSymbolTableRecord
100
AcDbLayerTableRecord
  2
SK6
 70
     0
 62
     5
  6
SLD-Solid
290
     0
370
    -3
390
F
  0
LAYER
  5
7F
330
2
100
AcDbSymbolTableRecord
100
AcDbLayerTableRecord
  2
SK1
 70
     0
 62
     4
  6
SLD-Solid
370
    -3
390
F
  0
ENDTAB
  0
TABLE
  2
STYLE
  5
3
330
0
100
AcDbSymbolTable
 70
     2
  0
STYLE
  5
11
330
3
100
AcDbSymbolTableRecord
100
AcDbTextStyleTableRecord
  2
Standard
 70
     0
 40
0.0
 41
1.0
 50
0.0
 71
     0
 42
3.5
  3
txt
  4

  0
STYLE
  5
2B4
330
3
100
AcDbSymbolTableRecord
100
AcDbTextStyleTableRecord
  2
SLDTEXTSTYLE0
 70
     0
 40
0.0
 41
0.75
 50
0.0
 71
     0
 42
3.5
  3
TXT
  4

  0
ENDTAB
  0
TABLE
  2
VIEW
  5
6
330
0
100
AcDbSymbolTable
 70
     0
  0
ENDTAB
  0
TABLE
  2
UCS
  5
7
330
0
100
AcDbSymbolTable
 70
     0
  0
ENDTAB
  0
TABLE
  2
APPID
  5
9
330
0
100
AcDbSymbolTable
 70
     1
  0
APPID
  5
12
330
9
100
AcDbSymbolTableRecord
100
AcDbRegAppTableRecord
  2
ACAD
 70
     0
  0
ENDTAB
  0
TABLE
  2
DIMSTYLE
  5
A
330
0
100
AcDbSymbolTable
 70
     2
100
AcDbDimStyleTable
  0
DIMSTYLE
105
27
330
A
100
AcDbSymbolTableRecord
100
AcDbDimStyleTableRecord
  2
ISO-25
 70
     0
 41
2.5
 42
0.625
 43
3.75
 44
1.25
 73
     0
 74
     0
 77
     1
 78
     8
140
2.5
141
2.5
143
0.0393700787
147
0.625
171
     3
172
     1
178
     0
271
     2
272
     2
274
     3
278
    44
283
     0
284
     8
340
11
  0
DIMSTYLE
105
2B5
102
{ACAD_REACTORS
330
2B3
330
2BF
330
2C9
330
2D3
330
2DD
330
2E8
330
2F3
330
2FE
330
309
102
}
330
A
100
AcDbSymbolTableRecord
100
AcDbDimStyleTableRecord
  2
SLDDIMSTYLE0
 70
     0
 41
3.302
 44
0.0
 45
0.000000001
 73
     0
 74
     0
 77
     1
 78
    12
 79
     3
140
3.5
147
0.875
173
     1
178
     0
271
     2
272
     2
276
     2
284
    12
340
2B4
  0
ENDTAB
  0
TABLE
  2
BLOCK_RECORD
  5
1
330
0
100
AcDbSymbolTable
 70
    13
  0
BLOCK_RECORD
  5
1F
330
1
100
AcDbSymbolTableRecord
100
AcDbBlockTableRecord
  2
*Model_Space
340
22
  0
BLOCK_RECORD
  5
1B
330
1
100
AcDbSymbolTableRecord
100
AcDbBlockTableRecord
  2
*Paper_Space
340
1E
  0
BLOCK_RECORD
  5
23
330
1
100
AcDbSymbolTableRecord
100
AcDbBlockTableRecord
  2
*Paper_Space0
340
26
  0
BLOCK_RECORD
  5
80
330
1
100
AcDbSymbolTableRecord
100
AcDbBlockTableRecord
  2
Block11
340
0
102
{BLKREFS
331
2B1
102
}
  0
BLOCK_RECORD
  5
89
330
1
100
AcDbSymbolTableRecord
100
AcDbBlockTableRecord
  2
Block12
340
0
102
{BLKREFS
331
2B2
102
}
  0
BLOCK_RECORD
  5
2B6
330
1
100
AcDbSymbolTableRecord
100
AcDbBlockTableRecord
  2
_D
340
0
  0
BLOCK_RECORD
  5
2C0
330
1
100
AcDbSymbolTableRecord
100
AcDbBlockTableRecord
  2
_D_1
340
0
  0
BLOCK_RECORD
  5
2CA
330
1
100
AcDbSymbolTableRecord
100
AcDbBlockTableRecord
  2
_D_2
340
0
  0
BLOCK_RECORD
  5
2D4
330
1
100
AcDbSymbolTableRecord
100
AcDbBlockTableRecord
  2
_D_3
340
0
  0
BLOCK_RECORD
  5
2DE
330
1
100
AcDbSymbolTableRecord
100
AcDbBlockTableRecord
  2
_D_4
340
0
  0
BLOCK_RECORD
  5
2E9
330
1
100
AcDbSymbolTableRecord
100
AcDbBlockTableRecord
  2
_D_5
340
0
  0
BLOCK_RECORD
  5
2F4
330
1
100
AcDbSymbolTableRecord
100
AcDbBlockTableRecord
  2
_D_6
340
0
  0
BLOCK_RECORD
  5
2FF
330
1
100
AcDbSymbolTableRecord
100
AcDbBlockTableRecord
  2
_D_7
340
0
  0
BLOCK_RECORD
  5
30A
330
1
100
AcDbSymbolTableRecord
100
AcDbBlockTableRecord
  2
_D_8
340
0
  0
BLOCK_RECORD
  5
315
330
1
100
AcDbSymbolTableRecord
100
AcDbBlockTableRecord
  2
SW_NOTE_0
340
0
102
{BLKREFS
331
31A
102
}
  0
ENDTAB
  0
ENDSEC
  0
SECTION
  2
BLOCKS
  0
BLOCK
  5
20
330
1F
100
AcDbEntity
  8
0
100
AcDbBlockBegin
  2
*Model_Space
 70
     0
 10
0.0
 20
0.0
 30
0.0
  3
*Model_Space
  1

  0
ENDBLK
  5
21
330
1F
100
AcDbEntity
  8
0
100
AcDbBlockEnd
  0
BLOCK
  5
1C
330
1B
100
AcDbEntity
 67
     1
  8
0
100
AcDbBlockBegin
  2
*Paper_Space
 70
     0
 10
0.0
 20
0.0
 30
0.0
  3
*Paper_Space
  1

  0
ENDBLK
  5
1D
330
1B
100
AcDbEntity
 67
     1
  8
0
100
AcDbBlockEnd
  0
BLOCK
  5
24
330
23
100
AcDbEntity
  8
0
100
AcDbBlockBegin
  2
*Paper_Space0
 70
     0
 10
0.0
 20
0.0
 30
0.0
  3
*Paper_Space0
  1

  0
ENDBLK
  5
25
330
23
100
AcDbEntity
  8
0
100
AcDbBlockEnd
  0
BLOCK
  5
81
330
80
100
AcDbEntity
  8
0
100
AcDbBlockBegin
  2
Block11
 70
     0
 10
0.0
 20
0.0
 30
0.0
  3
Block11
  1

  0
CIRCLE
  5
83
330
80
100
AcDbEntity
  8
81
370
    18
100
AcDbCircle
 10
91.6264826505
 20
130.2676275275
 30
0.0
 40
2.499999999999981
  0
LINE
  5
84
330
80
100
AcDbEntity
  8
81
370
    18
100
AcDbLine
 10
91.6264826505
 20
130.2676275275
 30
0.0
 11
95.1620165565
 21
133.8031614334
 31
0.0
  0
LINE
  5
85
330
80
100
AcDbEntity
  8
81
370
    18
100
AcDbLine
 10
91.6264826505
 20
130.2676275275
 30
0.0
 11
88.0909487446
 21
126.7320936216
 31
0.0
  0
LINE
  5
86
330
80
100
AcDbEntity
  8
81
370
    18
100
AcDbLine
 10
91.6264826505
 20
130.2676275275
 30
0.0
 11
88.0909487446
 21
133.8031614334
 31
0.0
  0
LINE
  5
87
330
80
100
AcDbEntity
  8
81
100
AcDbLine
 10
91.6264826505
 20
130.2676275275
 30
0.0
 11
101.6264826505
 21
130.2676275275
 31
0.0
  0
LINE
  5
88
330
80
100
AcDbEntity
  8
81
370
    18
100
AcDbLine
 10
91.6264826505
 20
130.2676275275
 30
0.0
 11
95.1620165565
 21
126.7320936216
 31
0.0
  0
ENDBLK
  5
82
330
80
100
AcDbEntity
  8
0
100
AcDbBlockEnd
  0
BLOCK
  5
8A
330
89
100
AcDbEntity
  8
0
100
AcDbBlockBegin
  2
Block12
 70
     0
 10
0.0
 20
0.0
 30
0.0
  3
Block12
  1

  0
CIRCLE
  5
8C
330
89
100
AcDbEntity
  8
80
370
    18
100
AcDbCircle
 10
61.7273641656
 20
130.3356800267
 30
0.0
 40
2.500000000000004
  0
LINE
  5
8D
330
89
100
AcDbEntity
  8
80
370
    18
100
AcDbLine
 10
61.7273641656
 20
130.3356800267
 30
0.0
 11
65.2628980715
 21
133.8712139326
 31
0.0
  0
LINE
  5
8E
330
89
100
AcDbEntity
  8
80
370
    18
100
AcDbLine
 10
61.7273641656
 20
130.3356800267
 30
0.0
 11
58.1918302597
 21
126.8001461208
 31
0.0
  0
LINE
  5
8F
330
89
100
AcDbEntity
  8
80
370
    18
100
AcDbLine
 10
61.7273641656
 20
130.3356800267
 30
0.0
 11
58.1918302597
 21
133.8712139326
 31
0.0
  0
LINE
  5
90
330
89
100
AcDbEntity
  8
80
370
    18
100
AcDbLine
 10
61.7273641656
 20
130.3356800267
 30
0.0
 11
51.7273641656
 21
130.3356800267
 31
0.0
  0
LINE
  5
91
330
89
100
AcDbEntity
  8
80
370
    18
100
AcDbLine
 10
61.7273641656
 20
130.3356800267
 30
0.0
 11
65.2628980715
 21
126.8001461208
 31
0.0
  0
ENDBLK
  5
8B
330
89
100
AcDbEntity
  8
0
100
AcDbBlockEnd
  0
BLOCK
  5
2B7
330
2B6
100
AcDbEntity
  8
0
100
AcDbBlockBegin
  2
_D
 70
     0
 10
0.0
 20
0.0
 30
0.0
  3
_D
  1

  0
SOLID
  5
2B9
330
2B6
100
AcDbEntity
  8
SK2
100
AcDbTrace
 10
0.0
 20
37.7261584467
 30
0.0
 11
3.302
 21
37.2181584467
 31
0.0
 12
3.302
 22
38.2341584467
 32
0.0
 13
3.302
 23
38.2341584467
 33
0.0
  0
SOLID
  5
2BA
330
2B6
100
AcDbEntity
  8
SK2
100
AcDbTrace
 10
19.05
 20
37.7261584467
 30
0.0
 11
15.748
 21
38.2341584467
 31
0.0
 12
15.748
 22
37.2181584467
 32
0.0
 13
15.748
 23
37.2181584467
 33
0.0
  0
LINE
  5
2BB
330
2B6
100
AcDbEntity
  8
SK2
100
AcDbLine
 10
0.0
 20
23.225
 30
0.0
 11
0.0
 21
38.7261584467
 31
0.0
  0
LINE
  5
2BC
330
2B6
100
AcDbEntity
  8
SK2
100
AcDbLine
 10
19.05
 20
25.9855458215
 30
0.0
 11
19.05
 21
38.7261584467
 31
0.0
  0
LINE
  5
2BD
330
2B6
100
AcDbEntity
  8
SK2
100
AcDbLine
 10
0.0
 20
37.7261584467
 30
0.0
 11
19.05
 21
37.7261584467
 31
0.0
  0
MTEXT
  5
2BE
330
2B6
100
AcDbEntity
  8
SK2
100
AcDbMText
 10
2.6530668693
 20
42.2378953613
 30
0.0
 40
3.5
 41
0.0
 71
     1
 72
     1
  1
19,05
  7
SLDTEXTSTYLE0
 73
     1
 44
1.0
  0
ENDBLK
  5
2B8
330
2B6
100
AcDbEntity
  8
0
100
AcDbBlockEnd
  0
BLOCK
  5
2C1
330
2C0
100
AcDbEntity
  8
0
100
AcDbBlockBegin
  2
_D_1
 70
     0
 10
0.0
 20
0.0
 30
0.0
  3
_D_1
  1

  0
SOLID
  5
2C3
330
2C0
100
AcDbEntity
  8
SK2
100
AcDbTrace
 10
19.05
 20
37.7261584467
 30
0.0
 11
22.352
 21
37.2181584467
 31
0.0
 12
22.352
 22
38.2341584467
 32
0.0
 13
22.352
 23
38.2341584467
 33
0.0
  0
SOLID
  5
2C4
330
2C0
100
AcDbEntity
  8
SK2
100
AcDbTrace
 10
35.0
 20
37.7261584467
 30
0.0
 11
31.698
 21
38.2341584467
 31
0.0
 12
31.698
 22
37.2181584467
 32
0.0
 13
31.698
 23
37.2181584467
 33
0.0
  0
LINE
  5
2C5
330
2C0
100
AcDbEntity
  8
SK2
100
AcDbLine
 10
19.05
 20
25.9855458215
 30
0.0
 11
19.05
 21
38.7261584467
 31
0.0
  0
LINE
  5
2C6
330
2C0
100
AcDbEntity
  8
SK2
100
AcDbLine
 10
35.0
 20
24.5
 30
0.0
 11
35.0
 21
38.7261584467
 31
0.0
  0
LINE
  5
2C7
330
2C0
100
AcDbEntity
  8
SK2
100
AcDbLine
 10
19.05
 20
37.7261584467
 30
0.0
 11
35.0
 21
37.7261584467
 31
0.0
  0
MTEXT
  5
2C8
330
2C0
100
AcDbEntity
  8
SK2
100
AcDbMText
 10
20.9728746952
 20
42.2378953613
 30
0.0
 40
3.5
 41
0.0
 71
     1
 72
     1
  1
15,95
  7
SLDTEXTSTYLE0
 73
     1
 44
1.0
  0
ENDBLK
  5
2C2
330
2C0
100
AcDbEntity
  8
0
100
AcDbBlockEnd
  0
BLOCK
  5
2CB
330
2CA
100
AcDbEntity
  8
0
100
AcDbBlockBegin
  2
_D_2
 70
     0
 10
0.0
 20
0.0
 30
0.0
  3
_D_2
  1

  0
SOLID
  5
2CD
330
2CA
100
AcDbEntity
  8
SK2
100
AcDbTrace
 10
35.0
 20
37.7261584467
 30
0.0
 11
38.302
 21
37.2181584467
 31
0.0
 12
38.302
 22
38.2341584467
 32
0.0
 13
38.302
 23
38.2341584467
 33
0.0
  0
SOLID
  5
2CE
330
2CA
100
AcDbEntity
  8
SK2
100
AcDbTrace
 10
54.0
 20
37.7261584467
 30
0.0
 11
50.698
 21
38.2341584467
 31
0.0
 12
50.698
 22
37.2181584467
 32
0.0
 13
50.698
 23
37.2181584467
 33
0.0
  0
LINE
  5
2CF
330
2CA
100
AcDbEntity
  8
SK2
100
AcDbLine
 10
35.0
 20
24.5
 30
0.0
 11
35.0
 21
38.7261584467
 31
0.0
  0
LINE
  5
2D0
330
2CA
100
AcDbEntity
  8
SK2
100
AcDbLine
 10
54.0
 20
11.4710190579
 30
0.0
 11
54.0
 21
38.7261584467
 31
0.0
  0
LINE
  5
2D1
330
2CA
100
AcDbEntity
  8
SK2
100
AcDbLine
 10
35.0
 20
37.7261584467
 30
0.0
 11
54.0
 21
37.7261584467
 31
0.0
  0
MTEXT
  5
2D2
330
2CA
100
AcDbEntity
  8
SK2
100
AcDbMText
 10
42.1536153254
 20
42.2378953613
 30
0.0
 40
3.5
 41
0.0
 71
     1
 72
     1
  1
19
  7
SLDTEXTSTYLE0
 73
     1
 44
1.0
  0
ENDBLK
  5
2CC
330
2CA
100
AcDbEntity
  8
0
100
AcDbBlockEnd
  0
BLOCK
  5
2D5
330
2D4
100
AcDbEntity
  8
0
100
AcDbBlockBegin
  2
_D_3
 70
     0
 10
0.0
 20
0.0
 30
0.0
  3
_D_3
  1

  0
SOLID
  5
2D7
330
2D4
100
AcDbEntity
  8
2
100
AcDbTrace
 10
0.0
 20
47.2478754361
 30
0.0
 11
3.302
 21
46.7398754361
 31
0.0
 12
3.302
 22
47.7558754361
 32
0.0
 13
3.302
 23
47.7558754361
 33
0.0
  0
SOLID
  5
2D8
330
2D4
100
AcDbEntity
  8
2
100
AcDbTrace
 10
35.0
 20
47.2478754361
 30
0.0
 11
31.698
 21
47.7558754361
 31
0.0
 12
31.698
 22
46.7398754361
 32
0.0
 13
31.698
 23
46.7398754361
 33
0.0
  0
LINE
  5
2D9
330
2D4
100
AcDbEntity
  8
2
100
AcDbLine
 10
0.0
 20
23.225
 30
0.0
 11
0.0
 21
48.2478754361
 31
0.0
  0
LINE
  5
2DA
330
2D4
100
AcDbEntity
  8
2
100
AcDbLine
 10
35.0
 20
24.5
 30
0.0
 11
35.0
 21
48.2478754361
 31
0.0
  0
LINE
  5
2DB
330
2D4
100
AcDbEntity
  8
2
100
AcDbLine
 10
0.0
 20
47.2478754361
 30
0.0
 11
35.0
 21
47.2478754361
 31
0.0
  0
MTEXT
  5
2DC
330
2D4
100
AcDbEntity
  8
2
100
AcDbMText
 10
14.8951883567
 20
51.7596123507
 30
0.0
 40
3.5
 41
0.0
 71
     1
 72
     1
  1
35
  7
SLDTEXTSTYLE0
 73
     1
 44
1.0
  0
ENDBLK
  5
2D6
330
2D4
100
AcDbEntity
  8
0
100
AcDbBlockEnd
  0
BLOCK
  5
2DF
330
2DE
100
AcDbEntity
  8
0
100
AcDbBlockBegin
  2
_D_4
 70
     0
 10
0.0
 20
0.0
 30
0.0
  3
_D_4
  1

  0
SOLID
  5
2E1
330
2DE
100
AcDbEntity
  8
SK2
100
AcDbTrace
 10
87.0683432055
 20
24.0
 30
0.0
 11
86.5603432055
 21
20.698
 31
0.0
 12
87.5763432055
 22
20.698
 32
0.0
 13
87.5763432055
 23
20.698
 33
0.0
  0
SOLID
  5
2E2
330
2DE
100
AcDbEntity
  8
SK2
100
AcDbTrace
 10
87.0683432055
 20
-24.0
 30
0.0
 11
87.5763432055
 21
-20.698
 31
0.0
 12
86.5603432055
 22
-20.698
 32
0.0
 13
86.5603432055
 23
-20.698
 33
0.0
  0
LINE
  5
2E3
330
2DE
100
AcDbEntity
  8
SK2
100
AcDbLine
 10
35.5
 20
24.0
 30
0.0
 11
88.0683432055
 21
24.0
 31
0.0
  0
LINE
  5
2E4
330
2DE
100
AcDbEntity
  8
SK2
100
AcDbLine
 10
35.5
 20
-24.0
 30
0.0
 11
88.0683432055
 21
-24.0
 31
0.0
  0
LINE
  5
2E5
330
2DE
100
AcDbEntity
  8
SK2
100
AcDbLine
 10
87.0683432055
 20
24.0
 30
0.0
 11
87.0683432055
 21
-24.0
 31
0.0
  0
MTEXT
  5
2E6
330
2DE
100
AcDbEntity
  8
SK2
100
AcDbMText
 10
82.5566061162
 20
-5.3152762997
 30
0.0
 40
3.5
 41
0.0
 71
     1
 72
     1
  1
%%c
  7
SLDTEXTSTYLE0
 11
-7.044195017643634E-15
 21
1.0
 31
0.0
 73
     1
 44
1.0
  0
MTEXT
  5
2E7
330
2DE
100
AcDbEntity
  8
SK2
100
AcDbMText
 10
82.5031339396
 20
-0.0368389013
 30
0.0
 40
3.5
 41
0.0
 71
     1
 72
     1
  1
48
  7
SLDTEXTSTYLE0
 11
-7.044195017643634E-15
 21
1.0
 31
0.0
 73
     1
 44
1.0
  0
ENDBLK
  5
2E0
330
2DE
100
AcDbEntity
  8
0
100
AcDbBlockEnd
  0
BLOCK
  5
2EA
330
2E9
100
AcDbEntity
  8
0
100
AcDbBlockBegin
  2
_D_5
 70
     0
 10
0.0
 20
0.0
 30
0.0
  3
_D_5
  1

  0
SOLID
  5
2EC
330
2E9
100
AcDbEntity
  8
SK2
100
AcDbTrace
 10
75.9275978279
 20
11.0
 30
0.0
 11
75.4195978279
 21
7.698
 31
0.0
 12
76.4355978279
 22
7.698
 32
0.0
 13
76.4355978279
 23
7.698
 33
0.0
  0
SOLID
  5
2ED
330
2E9
100
AcDbEntity
  8
SK2
100
AcDbTrace
 10
75.9275978279
 20
-11.0
 30
0.0
 11
76.4355978279
 21
-7.698
 31
0.0
 12
75.4195978279
 22
-7.698
 32
0.0
 13
75.4195978279
 23
-7.698
 33
0.0
  0
LINE
  5
2EE
330
2E9
100
AcDbEntity
  8
SK2
100
AcDbLine
 10
52.0
 20
11.0
 30
0.0
 11
76.9275978279
 21
11.0
 31
0.0
  0
LINE
  5
2EF
330
2E9
100
AcDbEntity
  8
SK2
100
AcDbLine
 10
52.0
 20
-11.0
 30
0.0
 11
76.9275978279
 21
-11.0
 31
0.0
  0
LINE
  5
2F0
330
2E9
100
AcDbEntity
  8
SK2
100
AcDbLine
 10
75.9275978279
 20
11.0
 30
0.0
 11
75.9275978279
 21
-11.0
 31
0.0
  0
MTEXT
  5
2F1
330
2E9
100
AcDbEntity
  8
SK2
100
AcDbMText
 10
71.4158607387
 20
-5.3152762997
 30
0.0
 40
3.5
 41
0.0
 71
     1
 72
     1
  1
%%c
  7
SLDTEXTSTYLE0
 11
-7.044195017643634E-15
 21
1.0
 31
0.0
 73
     1
 44
1.0
  0
MTEXT
  5
2F2
330
2E9
100
AcDbEntity
  8
SK2
100
AcDbMText
 10
71.362388562
 20
-0.0368389013
 30
0.0
 40
3.5
 41
0.0
 71
     1
 72
     1
  1
22
  7
SLDTEXTSTYLE0
 11
-7.044195017643634E-15
 21
1.0
 31
0.0
 73
     1
 44
1.0
  0
ENDBLK
  5
2EB
330
2E9
100
AcDbEntity
  8
0
100
AcDbBlockEnd
  0
BLOCK
  5
2F5
330
2F4
100
AcDbEntity
  8
0
100
AcDbBlockBegin
  2
_D_6
 70
     0
 10
0.0
 20
0.0
 30
0.0
  3
_D_6
  1

  0
SOLID
  5
2F7
330
2F4
100
AcDbEntity
  8
SK2
100
AcDbTrace
 10
-96.1671130519
 20
30.5578859972
 30
0.0
 11
-96.6751130519
 21
27.2558859972
 31
0.0
 12
-95.6591130519
 22
27.2558859972
 32
0.0
 13
-95.6591130519
 23
27.2558859972
 33
0.0
  0
SOLID
  5
2F8
330
2F4
100
AcDbEntity
  8
SK2
100
AcDbTrace
 10
-96.1671130519
 20
-30.5753585477
 30
0.0
 11
-95.6591130519
 21
-27.2733585477
 31
0.0
 12
-96.6751130519
 22
-27.2733585477
 32
0.0
 13
-96.6751130519
 23
-27.2733585477
 33
0.0
  0
LINE
  5
2F9
330
2F4
100
AcDbEntity
  8
SK2
100
AcDbLine
 10
2.95
 20
30.5578859972
 30
0.0
 11
-97.1671130519
 21
30.5578859972
 31
0.0
  0
LINE
  5
2FA
330
2F4
100
AcDbEntity
  8
SK2
100
AcDbLine
 10
2.95
 20
-30.5753585477
 30
0.0
 11
-97.1671130519
 21
-30.5753585477
 31
0.0
  0
LINE
  5
2FB
330
2F4
100
AcDbEntity
  8
SK2
100
AcDbLine
 10
-96.1671130519
 20
30.5578859972
 30
0.0
 11
-96.1671130519
 21
-30.5753585477
 31
0.0
  0
MTEXT
  5
2FC
330
2F4
100
AcDbEntity
  8
SK2
100
AcDbMText
 10
-100.6788501411
 20
-7.2548598695
 30
0.0
 40
3.5
 41
0.0
 71
     1
 72
     1
  1
%%c
  7
SLDTEXTSTYLE0
 11
-7.044195017643634E-15
 21
1.0
 31
0.0
 73
     1
 44
1.0
  0
MTEXT
  5
2FD
330
2F4
100
AcDbEntity
  8
SK2
100
AcDbMText
 10
-100.7323223178
 20
-1.9764224711
 30
0.0
 40
3.5
 41
0.0
 71
     1
 72
     1
  1
63,5
  7
SLDTEXTSTYLE0
 11
-7.044195017643634E-15
 21
1.0
 31
0.0
 73
     1
 44
1.0
  0
ENDBLK
  5
2F6
330
2F4
100
AcDbEntity
  8
0
100
AcDbBlockEnd
  0
BLOCK
  5
300
330
2FF
100
AcDbEntity
  8
0
100
AcDbBlockBegin
  2
_D_7
 70
     0
 10
0.0
 20
0.0
 30
0.0
  3
_D_7
  1

  0
SOLID
  5
302
330
2FF
100
AcDbEntity
  8
SK2
100
AcDbTrace
 10
-85.4658627478
 20
22.225
 30
0.0
 11
-85.9738627478
 21
18.923
 31
0.0
 12
-84.9578627478
 22
18.923
 32
0.0
 13
-84.9578627478
 23
18.923
 33
0.0
  0
SOLID
  5
303
330
2FF
100
AcDbEntity
  8
SK2
100
AcDbTrace
 10
-85.4658627478
 20
-22.225
 30
0.0
 11
-84.9578627478
 21
-18.923
 31
0.0
 12
-85.9738627478
 22
-18.923
 32
0.0
 13
-85.9738627478
 23
-18.923
 33
0.0
  0
LINE
  5
304
330
2FF
100
AcDbEntity
  8
SK2
100
AcDbLine
 10
-1.0
 20
22.225
 30
0.0
 11
-86.4658627478
 21
22.225
 31
0.0
  0
LINE
  5
305
330
2FF
100
AcDbEntity
  8
SK2
100
AcDbLine
 10
-1.0
 20
-22.225
 30
0.0
 11
-86.4658627478
 21
-22.225
 31
0.0
  0
LINE
  5
306
330
2FF
100
AcDbEntity
  8
SK2
100
AcDbLine
 10
-85.4658627478
 20
22.225
 30
0.0
 11
-85.4658627478
 21
-22.225
 31
0.0
  0
MTEXT
  5
307
330
2FF
100
AcDbEntity
  8
SK2
100
AcDbMText
 10
-89.977599837
 20
-8.547915117
 30
0.0
 40
3.5
 41
0.0
 71
     1
 72
     1
  1
%%c
  7
SLDTEXTSTYLE0
 11
-7.044195017643634E-15
 21
1.0
 31
0.0
 73
     1
 44
1.0
  0
MTEXT
  5
308
330
2FF
100
AcDbEntity
  8
SK2
100
AcDbMText
 10
-90.0310720137
 20
-3.2694777186
 30
0.0
 40
3.5
 41
0.0
 71
     1
 72
     1
  1
44,45
  7
SLDTEXTSTYLE0
 11
-7.044195017643634E-15
 21
1.0
 31
0.0
 73
     1
 44
1.0
  0
ENDBLK
  5
301
330
2FF
100
AcDbEntity
  8
0
100
AcDbBlockEnd
  0
BLOCK
  5
30B
330
30A
100
AcDbEntity
  8
0
100
AcDbBlockBegin
  2
_D_8
 70
     0
 10
0.0
 20
0.0
 30
0.0
  3
_D_8
  1

  0
SOLID
  5
30D
330
30A
100
AcDbEntity
  8
SK2
100
AcDbTrace
 10
-74.7578412936
 20
-8.0
 30
0.0
 11
-74.2498412936
 21
-4.698
 31
0.0
 12
-75.2658412936
 22
-4.698
 32
0.0
 13
-75.2658412936
 23
-4.698
 33
0.0
  0
SOLID
  5
30E
330
30A
100
AcDbEntity
  8
SK2
100
AcDbTrace
 10
-74.7578412936
 20
8.0
 30
0.0
 11
-75.2658412936
 21
4.698
 31
0.0
 12
-74.2498412936
 22
4.698
 32
0.0
 13
-74.2498412936
 23
4.698
 33
0.0
  0
LINE
  5
30F
330
30A
100
AcDbEntity
  8
SK2
100
AcDbLine
 10
-60.2881197846
 20
-8.0
 30
0.0
 11
-75.7578412936
 21
-8.0
 31
0.0
  0
LINE
  5
310
330
30A
100
AcDbEntity
  8
SK2
100
AcDbLine
 10
-60.2881197846
 20
8.0
 30
0.0
 11
-75.7578412936
 21
8.0
 31
0.0
  0
LINE
  5
311
330
30A
100
AcDbEntity
  8
SK2
100
AcDbLine
 10
-74.7578412936
 20
-8.0
 30
0.0
 11
-74.7578412936
 21
8.0
 31
0.0
  0
MTEXT
  5
312
330
30A
100
AcDbEntity
  8
SK2
100
AcDbMText
 10
-79.2695782082
 20
-4.8198075677
 30
0.0
 40
3.5
 41
0.0
 71
     1
 72
     1
  1
M
  7
SLDTEXTSTYLE0
 11
6.123233995736766E-17
 21
1.0
 31
0.0
 73
     1
 44
1.0
  0
MTEXT
  5
313
330
30A
100
AcDbEntity
  8
SK2
100
AcDbMText
 10
-79.2695782082
 20
-0.5323076333
 30
0.0
 40
3.5
 41
0.0
 71
     1
 72
     1
  1
16
  7
SLDTEXTSTYLE0
 11
6.123233995736766E-17
 21
1.0
 31
0.0
 73
     1
 44
1.0
  0
ENDBLK
  5
30C
330
30A
100
AcDbEntity
  8
0
100
AcDbBlockEnd
  0
BLOCK
  5
316
330
315
100
AcDbEntity
  8
0
100
AcDbBlockBegin
  2
SW_NOTE_0
 70
     0
 10
0.0
 20
0.0
 30
0.0
  3
SW_NOTE_0
  1

  0
MTEXT
  5
318
330
315
100
AcDbEntity
  8
SK6
 62
     0
100
AcDbMText
 10
0.0
 20
4.5117370892
 30
0.0
 40
3.5
 41
0.0
 71
     1
 72
     1
  1
TAPER ISO 40
  7
SLDTEXTSTYLE0
 73
     1
 44
1.0
  0
MTEXT
  5
319
330
315
100
AcDbEntity
  8
SK6
 62
     0
100
AcDbMText
 10
0.0
 20
-0.0139574413
 30
0.0
 40
3.5
 41
0.0
 71
     1
 72
     1
  1
DIN 69871-AD/B
  7
SLDTEXTSTYLE0
 73
     1
 44
1.0
  0
ENDBLK
  5
317
330
315
100
AcDbEntity
  8
0
100
AcDbBlockEnd
  0
ENDSEC
  0
SECTION
  2
ENTITIES
  0
LINE
  5
92
330
1F
100
AcDbEntity
  8
SK1
  6
SLD-Solid
370
    25
100
AcDbLine
 10
56.5784945779
 20
-14.0
 30
0.0
 11
60.2784945779
 21
-14.0
 31
0.0
  0
LINE
  5
93
330
1F
100
AcDbEntity
  8
SK1
  6
SLD-Solid
370
    25
100
AcDbLine
 10
60.2784945779
 20
14.0
 30
0.0
 11
56.5784945779
 21
14.0
 31
0.0
  0
LINE
  5
94
330
1F
100
AcDbEntity
  8
SK1
  6
SLD-Solid
370
    25
100
AcDbLine
 10
56.5784945779
 20
14.0
 30
0.0
 11
56.2784945779
 21
13.7
 31
0.0
  0
LINE
  5
95
330
1F
100
AcDbEntity
  8
SK1
  6
SLD-Solid
370
    25
100
AcDbLine
 10
56.2784945779
 20
-13.7
 30
0.0
 11
56.5784945779
 21
-14.0
 31
0.0
  0
LINE
  5
96
330
1F
100
AcDbEntity
  8
SK1
  6
SLD-Solid
370
    25
100
AcDbLine
 10
60.2784945779
 20
-14.0
 30
0.0
 11
61.2784945779
 21
-13.0
 31
0.0
  0
LINE
  5
97
330
1F
100
AcDbEntity
  8
SK1
  6
SLD-Solid
370
    25
100
AcDbLine
 10
61.2784945779
 20
13.0
 30
0.0
 11
60.2784945779
 21
14.0
 31
0.0
  0
LINE
  5
98
330
1F
100
AcDbEntity
  8
SK1
  6
SLD-Solid
370
    25
100
AcDbLine
 10
61.5784945779
 20
-6.5
 30
0.0
 11
65.2784945779
 21
-6.5
 31
0.0
  0
LINE
  5
99
330
1F
100
AcDbEntity
  8
SK1
  6
SLD-Solid
370
    25
100
AcDbLine
 10
65.2784945779
 20
6.5
 30
0.0
 11
61.5784945779
 21
6.5
 31
0.0
  0
LINE
  5
9A
330
1F
100
AcDbEntity
  8
SK1
  6
SLD-Solid
370
    25
100
AcDbLine
 10
65.2784945779
 20
-6.5
 30
0.0
 11
66.2784945779
 21
-5.5
 31
0.0
  0
LINE
  5
9B
330
1F
100
AcDbEntity
  8
SK1
  6
SLD-Solid
370
    25
100
AcDbLine
 10
66.2784945779
 20
5.5
 30
0.0
 11
65.2784945779
 21
6.5
 31
0.0
  0
LINE
  5
9C
330
1F
100
AcDbEntity
  8
SK1
  6
SLD-Solid
370
    25
100
AcDbLine
 10
54.0
 20
-4.35
 30
0.0
 11
56.2784945779
 21
-4.35
 31
0.0
  0
LINE
  5
9D
330
1F
100
AcDbEntity
  8
SK1
  6
SLD-Solid
370
    25
100
AcDbLine
 10
56.2784945779
 20
4.35
 30
0.0
 11
54.0
 21
4.35
 31
0.0
  0
LINE
  5
9E
330
1F
100
AcDbEntity
  8
1
  6
SLD-Solid
370
    25
100
AcDbLine
 10
34.5
 20
24.0
 30
0.0
 11
21.05
 21
24.0
 31
0.0
  0
LINE
  5
9F
330
1F
100
AcDbEntity
  8
1
  6
SLD-Solid
370
    25
100
AcDbLine
 10
28.1780502267
 20
-24.0
 30
0.0
 11
34.5
 21
-24.0
 31
0.0
  0
LINE
  5
A0
330
1F
100
AcDbEntity
  8
SK1
  6
SLD-Solid
370
    25
100
AcDbLine
 10
0.0
 20
22.225
 30
0.0
 11
-67.3943082273
 21
12.3965705827
 31
0.0
  0
LINE
  5
A1
330
1F
100
AcDbEntity
  8
SK1
  6
SLD-Solid
370
    25
100
AcDbLine
 10
-67.3943082273
 20
-12.3965705827
 30
0.0
 11
0.0
 21
-22.225
 31
0.0
  0
LINE
  5
A2
330
1F
100
AcDbEntity
  8
1
  6
SLD-Solid
370
    25
100
AcDbLine
 10
1.8869952227
 20
-22.225
 30
0.0
 11
2.1330363037
 21
-22.1102691597
 31
0.0
  0
LINE
  5
A3
330
1F
100
AcDbEntity
  8
1
  6
SLD-Solid
370
    25
100
AcDbLine
 10
2.1330363037
 20
22.1102691597
 30
0.0
 11
1.8869952227
 21
22.225
 31
0.0
  0
LINE
  5
A4
330
1F
100
AcDbEntity
  8
1
  6
SLD-Solid
370
    25
100
AcDbLine
 10
1.8869952227
 20
22.225
 30
0.0
 11
0.0
 21
22.225
 31
0.0
  0
LINE
  5
A5
330
1F
100
AcDbEntity
  8
1
  6
SLD-Solid
370
    25
100
AcDbLine
 10
0.0
 20
-22.225
 30
0.0
 11
1.8869952227
 21
-22.225
 31
0.0
  0
LINE
  5
A6
330
1F
100
AcDbEntity
  8
SK1
  6
SLD-Solid
370
    25
100
AcDbLine
 10
36.4739817488
 20
11.0
 30
0.0
 11
35.8382940244
 21
10.7995684304
 31
0.0
  0
LINE
  5
A7
330
1F
100
AcDbEntity
  8
SK1
  6
SLD-Solid
370
    25
100
AcDbLine
 10
35.8382940244
 20
-10.7995684304
 30
0.0
 11
36.4739817488
 21
-11.0
 31
0.0
  0
LINE
  5
A8
330
1F
100
AcDbEntity
  8
SK1
  6
SLD-Solid
370
    25
100
AcDbLine
 10
51.0
 20
-11.0
 30
0.0
 11
54.0
 21
-10.4710190579
 31
0.0
  0
LINE
  5
A9
330
1F
100
AcDbEntity
  8
SK1
  6
SLD-Solid
370
    25
100
AcDbLine
 10
54.0
 20
10.4710190579
 30
0.0
 11
51.0
 21
11.0
 31
0.0
  0
LINE
  5
AA
330
1F
100
AcDbEntity
  8
SK1
  6
SLD-Solid
370
    25
100
AcDbLine
 10
51.0
 20
11.0
 30
0.0
 11
36.4739817488
 21
11.0
 31
0.0
  0
LINE
  5
AB
330
1F
100
AcDbEntity
  8
SK1
  6
SLD-Solid
370
    25
100
AcDbLine
 10
36.4739817488
 20
-11.0
 30
0.0
 11
51.0
 21
-11.0
 31
0.0
  0
LINE
  5
AC
330
1F
100
AcDbEntity
  8
SK1
  6
SLD-Solid
370
    25
100
AcDbLine
 10
60.2784945779
 20
-12.9391442983
 30
0.0
 11
60.2784945779
 21
14.0
 31
0.0
  0
LINE
  5
AD
330
1F
100
AcDbEntity
  8
SK1
  6
SLD-Solid
370
    25
100
AcDbLine
 10
60.2784945779
 20
-14.0
 30
0.0
 11
60.2784945779
 21
-12.9391442983
 31
0.0
  0
LINE
  5
AE
330
1F
100
AcDbEntity
  8
SK1
  6
SLD-Solid
370
    25
100
AcDbLine
 10
56.5784945779
 20
14.0
 30
0.0
 11
56.5784945779
 21
-14.0
 31
0.0
  0
LINE
  5
AF
330
1F
100
AcDbEntity
  8
SK1
  6
SLD-Solid
370
    25
100
AcDbLine
 10
56.2784945779
 20
-13.7
 30
0.0
 11
56.2784945779
 21
13.7
 31
0.0
  0
LINE
  5
B0
330
1F
100
AcDbEntity
  8
SK1
  6
SLD-Solid
370
    25
100
AcDbLine
 10
61.2784945779
 20
-12.0149197056
 30
0.0
 11
61.2784945779
 21
13.0
 31
0.0
  0
LINE
  5
B1
330
1F
100
AcDbEntity
  8
SK1
  6
SLD-Solid
370
    25
100
AcDbLine
 10
61.2784945779
 20
-13.0
 30
0.0
 11
61.2784945779
 21
-12.0149197056
 31
0.0
  0
LINE
  5
B2
330
1F
100
AcDbEntity
  8
SK1
  6
SLD-Solid
370
    25
100
AcDbLine
 10
65.2784945779
 20
-6.5
 30
0.0
 11
65.2784945779
 21
6.5
 31
0.0
  0
LINE
  5
B3
330
1F
100
AcDbEntity
  8
SK1
  6
SLD-Solid
370
    25
100
AcDbLine
 10
66.2784945779
 20
5.5
 30
0.0
 11
66.2784945779
 21
-5.5
 31
0.0
  0
LINE
  5
B4
330
1F
100
AcDbEntity
  8
SK1
  6
SLD-Solid
370
    25
100
AcDbLine
 10
35.0296155741
 20
0.5698738896
 30
0.0
 11
35.0
 21
0.5698738896
 31
0.0
  0
LINE
  5
B5
330
1F
100
AcDbEntity
  8
SK1
  6
SLD-Solid
370
    25
100
AcDbLine
 10
35.0
 20
-0.5698738896
 30
0.0
 11
35.0296155741
 21
-0.5698738896
 31
0.0
  0
LINE
  5
B6
330
1F
100
AcDbEntity
  8
SK1
  6
SLD-Solid
370
    25
100
AcDbLine
 10
39.5896370289
 20
4.5565447436
 30
0.0
 11
35.0
 21
4.5565447436
 31
0.0
  0
LINE
  5
B7
330
1F
100
AcDbEntity
  8
SK1
  6
SLD-Solid
370
    25
100
AcDbLine
 10
40.6
 20
-0.4467661581
 30
0.0
 11
40.6
 21
0.4467661581
 31
0.0
  0
LINE
  5
B8
330
1F
100
AcDbEntity
  8
SK1
  6
SLD-Solid
370
    25
100
AcDbLine
 10
35.0
 20
-4.5565447436
 30
0.0
 11
39.5896370289
 21
-4.5565447436
 31
0.0
  0
LINE
  5
B9
330
1F
100
AcDbEntity
  8
SK1
  6
SLD-Solid
370
    25
100
AcDbLine
 10
40.6
 20
4.981
 30
0.0
 11
40.6
 21
0.4467661581
 31
0.0
  0
LINE
  5
BA
330
1F
100
AcDbEntity
  8
SK1
  6
SLD-Solid
370
    25
100
AcDbLine
 10
39.5896370289
 20
4.981
 30
0.0
 11
39.5896370289
 21
4.5565447436
 31
0.0
  0
LINE
  5
BB
330
1F
100
AcDbEntity
  8
SK1
  6
SLD-Solid
370
    25
100
AcDbLine
 10
40.6
 20
-0.4467661581
 30
0.0
 11
40.6
 21
-4.981
 31
0.0
  0
LINE
  5
BC
330
1F
100
AcDbEntity
  8
SK1
  6
SLD-Solid
370
    25
100
AcDbLine
 10
39.5896370289
 20
-4.5565447436
 30
0.0
 11
39.5896370289
 21
-4.981
 31
0.0
  0
LINE
  5
BD
330
1F
100
AcDbEntity
  8
SK1
  6
SLD-Solid
370
    25
100
AcDbLine
 10
39.5896370289
 20
-4.981
 30
0.0
 11
35.0
 21
-4.981
 31
0.0
  0
LINE
  5
BE
330
1F
100
AcDbEntity
  8
SK1
  6
SLD-Solid
370
    25
100
AcDbLine
 10
35.0
 20
4.981
 30
0.0
 11
39.5896370289
 21
4.981
 31
0.0
  0
LINE
  5
BF
330
1F
100
AcDbEntity
  8
1
  6
SLD-Solid
370
    25
100
AcDbLine
 10
3.2
 20
18.35
 30
0.0
 11
3.2
 21
-29.8288189921
 31
0.0
  0
LINE
  5
C0
330
1F
100
AcDbEntity
  8
1
  6
SLD-Solid
370
    25
100
AcDbLine
 10
14.6368366421
 20
18.35
 30
0.0
 11
18.3
 21
18.35
 31
0.0
  0
LINE
  5
C1
330
1F
100
AcDbEntity
  8
1
  6
SLD-Solid
370
    25
100
AcDbLine
 10
14.6368366421
 20
-30.5753609371
 30
0.0
 11
18.3
 21
-30.5753609371
 31
0.0
  0
LINE
  5
C2
330
1F
100
AcDbEntity
  8
1
  6
SLD-Solid
370
    25
100
AcDbLine
 10
14.6368366421
 20
18.35
 30
0.0
 11
14.6368366421
 21
-30.5753609371
 31
0.0
  0
LINE
  5
C3
330
1F
100
AcDbEntity
  8
1
  6
SLD-Solid
370
    25
100
AcDbLine
 10
3.95
 20
18.35
 30
0.0
 11
7.5931633579
 21
18.35
 31
0.0
  0
LINE
  5
C4
330
1F
100
AcDbEntity
  8
1
  6
SLD-Solid
370
    25
100
AcDbLine
 10
7.5931633579
 20
18.35
 30
0.0
 11
7.5931633579
 21
-30.5753585477
 31
0.0
  0
LINE
  5
C5
330
1F
100
AcDbEntity
  8
1
  6
SLD-Solid
370
    25
100
AcDbLine
 10
3.95
 20
-30.5753585477
 30
0.0
 11
7.5931633579
 21
-30.5753585477
 31
0.0
  0
LINE
  5
C6
330
1F
100
AcDbEntity
  8
1
  6
SLD-Solid
370
    25
100
AcDbLine
 10
19.05
 20
18.35
 30
0.0
 11
19.05
 21
-29.8288211426
 31
0.0
  0
LINE
  5
C7
330
1F
100
AcDbEntity
  8
1
  6
SLD-Solid
370
    25
100
AcDbLine
 10
9.2
 20
18.35
 30
0.0
 11
9.2
 21
-27.8127840266
 31
0.0
  0
LINE
  5
C8
330
1F
100
AcDbEntity
  8
1
  6
SLD-Solid
370
    25
100
AcDbLine
 10
13.03
 20
18.35
 30
0.0
 11
13.03
 21
-27.8127840266
 31
0.0
  0
LINE
  5
C9
330
1F
100
AcDbEntity
  8
1
  6
SLD-Solid
370
    25
100
AcDbLine
 10
9.95
 20
18.35
 30
0.0
 11
12.28
 21
18.35
 31
0.0
  0
LINE
  5
CA
330
1F
100
AcDbEntity
  8
1
  6
SLD-Solid
370
    25
100
AcDbLine
 10
9.95
 20
-26.8043088887
 30
0.0
 11
12.28
 21
-26.8043088887
 31
0.0
  0
LINE
  5
CB
330
1F
100
AcDbEntity
  8
1
  6
SLD-Solid
370
    25
100
AcDbLine
 10
20.1149097101
 20
-22.6762760322
 30
0.0
 11
22.0395593008
 21
-22.6762760322
 31
0.0
  0
LINE
  5
CC
330
1F
100
AcDbEntity
  8
1
  6
SLD-Solid
370
    25
100
AcDbLine
 10
35.0
 20
0.0
 30
0.0
 11
35.0
 21
-23.5
 31
0.0
  0
LINE
  5
CD
330
1F
100
AcDbEntity
  8
1
  6
SLD-Solid
370
    25
100
AcDbLine
 10
35.0
 20
23.5
 30
0.0
 11
35.0
 21
0.0
 31
0.0
  0
LINE
  5
CE
330
1F
100
AcDbEntity
  8
1
  6
SLD-Solid
370
    25
100
AcDbLine
 10
0.0
 20
22.225
 30
0.0
 11
0.0
 21
-22.225
 31
0.0
  0
LINE
  5
CF
330
1F
100
AcDbEntity
  8
1
  6
SLD-Solid
370
    25
100
AcDbLine
 10
1.8869952227
 20
22.225
 30
0.0
 11
1.8869952227
 21
-22.225
 31
0.0
  0
LINE
  5
D0
330
1F
100
AcDbEntity
  8
1
  6
SLD-Solid
370
    25
100
AcDbLine
 10
19.05
 20
18.85
 30
0.0
 11
19.05
 21
18.35
 31
0.0
  0
LINE
  5
D1
330
1F
100
AcDbEntity
  8
1
  6
SLD-Solid
370
    25
100
AcDbLine
 10
3.2
 20
18.35
 30
0.0
 11
3.2
 21
18.85
 31
0.0
  0
LINE
  5
D2
330
1F
100
AcDbEntity
  8
1
  6
SLD-Solid
370
    25
100
AcDbLine
 10
3.2
 20
29.8048528797
 30
0.0
 11
3.2
 21
24.9855458215
 31
0.0
  0
LINE
  5
D3
330
1F
100
AcDbEntity
  8
1
  6
SLD-Solid
370
    25
100
AcDbLine
 10
7.5931633579
 20
25.91022964
 30
0.0
 11
3.95
 21
25.91022964
 31
0.0
  0
LINE
  5
D4
330
1F
100
AcDbEntity
  8
1
  6
SLD-Solid
370
    25
100
AcDbLine
 10
7.5931633579
 20
30.5578859972
 30
0.0
 11
3.95
 21
30.5578859972
 31
0.0
  0
LINE
  5
D5
330
1F
100
AcDbEntity
  8
1
  6
SLD-Solid
370
    25
100
AcDbLine
 10
7.5931633579
 20
30.5578859972
 30
0.0
 11
7.5931633579
 21
25.91022964
 31
0.0
  0
LINE
  5
D6
330
1F
100
AcDbEntity
  8
1
  6
SLD-Solid
370
    25
100
AcDbLine
 10
18.3
 20
25.91022964
 30
0.0
 11
14.6368366421
 21
25.91022964
 31
0.0
  0
LINE
  5
D7
330
1F
100
AcDbEntity
  8
1
  6
SLD-Solid
370
    25
100
AcDbLine
 10
14.6368366421
 20
30.5579089831
 30
0.0
 11
14.6368366421
 21
25.91022964
 31
0.0
  0
LINE
  5
D8
330
1F
100
AcDbEntity
  8
1
  6
SLD-Solid
370
    25
100
AcDbLine
 10
18.3
 20
30.5579089831
 30
0.0
 11
14.6368366421
 21
30.5579089831
 31
0.0
  0
LINE
  5
D9
330
1F
100
AcDbEntity
  8
1
  6
SLD-Solid
370
    25
100
AcDbLine
 10
19.05
 20
29.804866641
 30
0.0
 11
19.05
 21
24.9855458215
 31
0.0
  0
LINE
  5
DA
330
1F
100
AcDbEntity
  8
1
  6
SLD-Solid
370
    25
100
AcDbLine
 10
13.03
 20
27.8127840266
 30
0.0
 11
13.03
 21
22.4133326462
 31
0.0
  0
LINE
  5
DB
330
1F
100
AcDbEntity
  8
1
  6
SLD-Solid
370
    25
100
AcDbLine
 10
9.2
 20
22.1323292945
 30
0.0
 11
9.2
 21
22.4133326462
 31
0.0
  0
LINE
  5
DC
330
1F
100
AcDbEntity
  8
1
  6
SLD-Solid
370
    25
100
AcDbLine
 10
12.28
 20
21.1489361435
 30
0.0
 11
9.95
 21
21.1489361435
 31
0.0
  0
LINE
  5
DD
330
1F
100
AcDbEntity
  8
1
  6
SLD-Solid
370
    25
100
AcDbLine
 10
13.03
 20
22.4133326462
 30
0.0
 11
13.03
 21
22.1323292945
 31
0.0
  0
LINE
  5
DE
330
1F
100
AcDbEntity
  8
1
  6
SLD-Solid
370
    25
100
AcDbLine
 10
19.05
 20
18.85
 30
0.0
 11
19.05
 21
24.9855458215
 31
0.0
  0
LINE
  5
DF
330
1F
100
AcDbEntity
  8
1
  6
SLD-Solid
370
    25
100
AcDbLine
 10
3.2
 20
18.85
 30
0.0
 11
3.2
 21
24.9855458215
 31
0.0
  0
LINE
  5
E0
330
1F
100
AcDbEntity
  8
1
  6
SLD-Solid
370
    25
100
AcDbLine
 10
9.95
 20
26.8043088887
 30
0.0
 11
12.28
 21
26.8043088887
 31
0.0
  0
LINE
  5
E1
330
1F
100
AcDbEntity
  8
1
  6
SLD-Solid
370
    25
100
AcDbLine
 10
9.2
 20
27.8127840266
 30
0.0
 11
9.2
 21
22.4133326462
 31
0.0
  0
LINE
  5
E2
330
1F
100
AcDbEntity
  8
SK1
  6
SLD-Solid
370
    25
100
AcDbLine
 10
-68.25
 20
11.4070377962
 30
0.0
 11
-68.25
 21
-11.4070377962
 31
0.0
  0
LINE
  5
E3
330
1F
100
AcDbEntity
  8
SK1
  6
SLD-Solid
370
    25
100
AcDbLine
 10
36.4739817488
 20
11.0
 30
0.0
 11
36.4739817488
 21
4.981
 31
0.0
  0
LINE
  5
E4
330
1F
100
AcDbEntity
  8
SK1
  6
SLD-Solid
370
    25
100
AcDbLine
 10
36.4739817488
 20
-4.981
 30
0.0
 11
36.4739817488
 21
-11.0
 31
0.0
  0
LINE
  5
E5
330
1F
100
AcDbEntity
  8
SK1
  6
SLD-Solid
370
    25
100
AcDbLine
 10
51.0
 20
11.0
 30
0.0
 11
51.0
 21
-11.0
 31
0.0
  0
LINE
  5
E6
330
1F
100
AcDbEntity
  8
SK1
  6
SLD-Solid
370
    25
100
AcDbLine
 10
54.0
 20
10.4710190579
 30
0.0
 11
54.0
 21
-10.4710190579
 31
0.0
  0
LINE
  5
E7
330
1F
100
AcDbEntity
  8
SK1
  6
SLD-Solid
370
    25
100
AcDbLine
 10
61.5784945779
 20
6.2683694021
 30
0.0
 11
61.5784945779
 21
-6.5
 31
0.0
  0
LINE
  5
E8
330
1F
100
AcDbEntity
  8
SK1
  6
SLD-Solid
370
    25
100
AcDbLine
 10
61.5784945779
 20
6.5
 30
0.0
 11
61.5784945779
 21
6.2683694021
 31
0.0
  0
LINE
  5
E9
330
1F
100
AcDbEntity
  8
SK1
  6
SLD-Solid
370
    25
100
AcDbLine
 10
35.0296155741
 20
-0.5698738896
 30
0.0
 11
35.0296155741
 21
-2.5539514513
 31
0.0
  0
LINE
  5
EA
330
1F
100
AcDbEntity
  8
SK1
  6
SLD-Solid
370
    25
100
AcDbLine
 10
35.0296155741
 20
2.535651422
 30
0.0
 11
35.0296155741
 21
0.5698738896
 31
0.0
  0
LINE
  5
EB
330
1F
100
AcDbEntity
  8
SK3
  6
SLD-Dashed
370
    18
100
AcDbLine
 10
5.7322709434
 20
-8.8686354442
 30
0.0
 11
5.6150941671
 21
-8.4012226946
 31
0.0
  0
LINE
  5
EC
330
1F
100
AcDbEntity
  8
SK3
  6
SLD-Dashed
370
    18
100
AcDbLine
 10
5.6150941671
 20
-8.4012226946
 30
0.0
 11
5.4343412237
 21
-7.960974275
 31
0.0
  0
LINE
  5
ED
330
1F
100
AcDbEntity
  8
SK3
  6
SLD-Dashed
370
    18
100
AcDbLine
 10
5.4343412237
 20
-7.960974275
 30
0.0
 11
5.2005168173
 21
-7.5734758234
 31
0.0
  0
LINE
  5
EE
330
1F
100
AcDbEntity
  8
SK3
  6
SLD-Dashed
370
    18
100
AcDbLine
 10
5.2005168173
 20
-7.5734758234
 30
0.0
 11
4.9272099725
 21
-7.2612473412
 31
0.0
  0
LINE
  5
EF
330
1F
100
AcDbEntity
  8
SK3
  6
SLD-Dashed
370
    18
100
AcDbLine
 10
4.9272099725
 20
-7.2612473412
 30
0.0
 11
4.6303042896
 21
-7.0424344129
 31
0.0
  0
LINE
  5
F0
330
1F
100
AcDbEntity
  8
SK3
  6
SLD-Dashed
370
    18
100
AcDbLine
 10
4.6303042896
 20
-7.0424344129
 30
0.0
 11
4.3270548477
 21
-6.9297536506
 31
0.0
  0
LINE
  5
F1
330
1F
100
AcDbEntity
  8
SK3
  6
SLD-Dashed
370
    18
100
AcDbLine
 10
4.3270548477
 20
-6.9297536506
 30
0.0
 11
4.0350854021
 21
-6.9297536506
 31
0.0
  0
LINE
  5
F2
330
1F
100
AcDbEntity
  8
SK3
  6
SLD-Dashed
370
    18
100
AcDbLine
 10
4.0350854021
 20
-6.9297536506
 30
0.0
 11
3.7713641558
 21
-7.0424344129
 31
0.0
  0
LINE
  5
F3
330
1F
100
AcDbEntity
  8
SK3
  6
SLD-Dashed
370
    18
100
AcDbLine
 10
3.7713641558
 20
-7.0424344129
 30
0.0
 11
3.551217629
 21
-7.2612473412
 31
0.0
  0
LINE
  5
F4
330
1F
100
AcDbEntity
  8
SK3
  6
SLD-Dashed
370
    18
100
AcDbLine
 10
3.551217629
 20
-7.2612473412
 30
0.0
 11
3.3874399376
 21
-7.5734758234
 31
0.0
  0
LINE
  5
F5
330
1F
100
AcDbEntity
  8
SK3
  6
SLD-Dashed
370
    18
100
AcDbLine
 10
3.3874399376
 20
-7.5734758234
 30
0.0
 11
3.2895492458
 21
-7.960974275
 31
0.0
  0
LINE
  5
F6
330
1F
100
AcDbEntity
  8
SK3
  6
SLD-Dashed
370
    18
100
AcDbLine
 10
3.2895492458
 20
-7.960974275
 30
0.0
 11
3.2632346046
 21
-8.4012226946
 31
0.0
  0
LINE
  5
F7
330
1F
100
AcDbEntity
  8
SK3
  6
SLD-Dashed
370
    18
100
AcDbLine
 10
3.2632346046
 20
-8.4012226946
 30
0.0
 11
3.3100253255
 21
-8.8686354442
 31
0.0
  0
LINE
  5
F8
330
1F
100
AcDbEntity
  8
SK3
  6
SLD-Dashed
370
    18
100
AcDbLine
 10
3.3100253255
 20
-8.8686354442
 30
0.0
 11
3.4272021018
 21
-9.3360481938
 31
0.0
  0
LINE
  5
F9
330
1F
100
AcDbEntity
  8
SK3
  6
SLD-Dashed
370
    18
100
AcDbLine
 10
3.4272021018
 20
-9.3360481938
 30
0.0
 11
3.6079550452
 21
-9.7762966134
 31
0.0
  0
LINE
  5
FA
330
1F
100
AcDbEntity
  8
SK3
  6
SLD-Dashed
370
    18
100
AcDbLine
 10
3.6079550452
 20
-9.7762966134
 30
0.0
 11
3.8417794516
 21
-10.1637950651
 31
0.0
  0
LINE
  5
FB
330
1F
100
AcDbEntity
  8
SK3
  6
SLD-Dashed
370
    18
100
AcDbLine
 10
3.8417794516
 20
-10.1637950651
 30
0.0
 11
4.1150862965
 21
-10.4760235473
 31
0.0
  0
LINE
  5
FC
330
1F
100
AcDbEntity
  8
SK3
  6
SLD-Dashed
370
    18
100
AcDbLine
 10
4.1150862965
 20
-10.4760235473
 30
0.0
 11
4.4119919794
 21
-10.6948364755
 31
0.0
  0
LINE
  5
FD
330
1F
100
AcDbEntity
  8
SK3
  6
SLD-Dashed
370
    18
100
AcDbLine
 10
4.4119919794
 20
-10.6948364755
 30
0.0
 11
4.7152414213
 21
-10.8075172378
 31
0.0
  0
LINE
  5
FE
330
1F
100
AcDbEntity
  8
SK3
  6
SLD-Dashed
370
    18
100
AcDbLine
 10
4.7152414213
 20
-10.8075172378
 30
0.0
 11
5.0072108668
 21
-10.8075172378
 31
0.0
  0
LINE
  5
FF
330
1F
100
AcDbEntity
  8
SK3
  6
SLD-Dashed
370
    18
100
AcDbLine
 10
5.0072108668
 20
-10.8075172378
 30
0.0
 11
5.2709321131
 21
-10.6948364755
 31
0.0
  0
LINE
  5
100
330
1F
100
AcDbEntity
  8
SK3
  6
SLD-Dashed
370
    18
100
AcDbLine
 10
5.2709321131
 20
-10.6948364755
 30
0.0
 11
5.4910786399
 21
-10.4760235473
 31
0.0
  0
LINE
  5
101
330
1F
100
AcDbEntity
  8
SK3
  6
SLD-Dashed
370
    18
100
AcDbLine
 10
5.4910786399
 20
-10.4760235473
 30
0.0
 11
5.6548563313
 21
-10.1637950651
 31
0.0
  0
LINE
  5
102
330
1F
100
AcDbEntity
  8
SK3
  6
SLD-Dashed
370
    18
100
AcDbLine
 10
5.6548563313
 20
-10.1637950651
 30
0.0
 11
5.7527470232
 21
-9.7762966134
 31
0.0
  0
LINE
  5
103
330
1F
100
AcDbEntity
  8
SK3
  6
SLD-Dashed
370
    18
100
AcDbLine
 10
5.7527470232
 20
-9.7762966134
 30
0.0
 11
5.7790616643
 21
-9.3360481938
 31
0.0
  0
LINE
  5
104
330
1F
100
AcDbEntity
  8
SK3
  6
SLD-Dashed
370
    18
100
AcDbLine
 10
5.7790616643
 20
-9.3360481938
 30
0.0
 11
5.7322709434
 21
-8.8686354442
 31
0.0
  0
LINE
  5
105
330
1F
100
AcDbEntity
  8
SK3
  6
SLD-Dashed
370
    18
100
AcDbLine
 10
3.2
 20
-7.1668508159
 30
0.0
 11
3.2
 21
-11.3022369236
 31
0.0
  0
LINE
  5
106
330
1F
100
AcDbEntity
  8
SK3
  6
SLD-Dashed
370
    18
100
AcDbLine
 10
5.7019928732
 20
-8.8686354442
 30
0.0
 11
5.5877455163
 21
-8.4129080133
 31
0.0
  0
LINE
  5
107
330
1F
100
AcDbEntity
  8
SK3
  6
SLD-Dashed
370
    18
100
AcDbLine
 10
5.5877455163
 20
-8.4129080133
 30
0.0
 11
5.4115113965
 21
-7.9836658042
 31
0.0
  0
LINE
  5
108
330
1F
100
AcDbEntity
  8
SK3
  6
SLD-Dashed
370
    18
100
AcDbLine
 10
5.4115113965
 20
-7.9836658042
 30
0.0
 11
5.1835326003
 21
-7.6058548139
 31
0.0
  0
LINE
  5
109
330
1F
100
AcDbEntity
  8
SK3
  6
SLD-Dashed
370
    18
100
AcDbLine
 10
5.1835326003
 20
-7.6058548139
 30
0.0
 11
4.9170584265
 21
-7.3014320437
 31
0.0
  0
LINE
  5
10A
330
1F
100
AcDbEntity
  8
SK3
  6
SLD-Dashed
370
    18
100
AcDbLine
 10
4.9170584265
 20
-7.3014320437
 30
0.0
 11
4.6275753857
 21
-7.0880894387
 31
0.0
  0
LINE
  5
10B
330
1F
100
AcDbEntity
  8
SK3
  6
SLD-Dashed
370
    18
100
AcDbLine
 10
4.6275753857
 20
-7.0880894387
 30
0.0
 11
4.3319071799
 21
-6.9782256954
 31
0.0
  0
LINE
  5
10C
330
1F
100
AcDbEntity
  8
SK3
  6
SLD-Dashed
370
    18
100
AcDbLine
 10
4.3319071799
 20
-6.9782256954
 30
0.0
 11
4.0472369705
 21
-6.9782256954
 31
0.0
  0
LINE
  5
10D
330
1F
100
AcDbEntity
  8
SK3
  6
SLD-Dashed
370
    18
100
AcDbLine
 10
4.0472369705
 20
-6.9782256954
 30
0.0
 11
3.7901087553
 21
-7.0880894387
 31
0.0
  0
LINE
  5
10E
330
1F
100
AcDbEntity
  8
SK3
  6
SLD-Dashed
370
    18
100
AcDbLine
 10
3.7901087553
 20
-7.0880894387
 30
0.0
 11
3.5754658917
 21
-7.3014320437
 31
0.0
  0
LINE
  5
10F
330
1F
100
AcDbEntity
  8
SK3
  6
SLD-Dashed
370
    18
100
AcDbLine
 10
3.5754658917
 20
-7.3014320437
 30
0.0
 11
3.4157826425
 21
-7.6058548139
 31
0.0
  0
LINE
  5
110
330
1F
100
AcDbEntity
  8
SK3
  6
SLD-Dashed
370
    18
100
AcDbLine
 10
3.4157826425
 20
-7.6058548139
 30
0.0
 11
3.320339218
 21
-7.9836658042
 31
0.0
  0
LINE
  5
111
330
1F
100
AcDbEntity
  8
SK3
  6
SLD-Dashed
370
    18
100
AcDbLine
 10
3.320339218
 20
-7.9836658042
 30
0.0
 11
3.2946824429
 21
-8.4129080133
 31
0.0
  0
LINE
  5
112
330
1F
100
AcDbEntity
  8
SK3
  6
SLD-Dashed
370
    18
100
AcDbLine
 10
3.2946824429
 20
-8.4129080133
 30
0.0
 11
3.3403033958
 21
-8.8686354442
 31
0.0
  0
LINE
  5
113
330
1F
100
AcDbEntity
  8
SK3
  6
SLD-Dashed
370
    18
100
AcDbLine
 10
3.3403033958
 20
-8.8686354442
 30
0.0
 11
3.4545507526
 21
-9.3243628751
 31
0.0
  0
LINE
  5
114
330
1F
100
AcDbEntity
  8
SK3
  6
SLD-Dashed
370
    18
100
AcDbLine
 10
3.4545507526
 20
-9.3243628751
 30
0.0
 11
3.6307848724
 21
-9.7536050842
 31
0.0
  0
LINE
  5
115
330
1F
100
AcDbEntity
  8
SK3
  6
SLD-Dashed
370
    18
100
AcDbLine
 10
3.6307848724
 20
-9.7536050842
 30
0.0
 11
3.8587636687
 21
-10.1314160745
 31
0.0
  0
LINE
  5
116
330
1F
100
AcDbEntity
  8
SK3
  6
SLD-Dashed
370
    18
100
AcDbLine
 10
3.8587636687
 20
-10.1314160745
 30
0.0
 11
4.1252378424
 21
-10.4358388447
 31
0.0
  0
LINE
  5
117
330
1F
100
AcDbEntity
  8
SK3
  6
SLD-Dashed
370
    18
100
AcDbLine
 10
4.1252378424
 20
-10.4358388447
 30
0.0
 11
4.4147208833
 21
-10.6491814497
 31
0.0
  0
LINE
  5
118
330
1F
100
AcDbEntity
  8
SK3
  6
SLD-Dashed
370
    18
100
AcDbLine
 10
4.4147208833
 20
-10.6491814497
 30
0.0
 11
4.7103890891
 21
-10.759045193
 31
0.0
  0
LINE
  5
119
330
1F
100
AcDbEntity
  8
SK3
  6
SLD-Dashed
370
    18
100
AcDbLine
 10
4.7103890891
 20
-10.759045193
 30
0.0
 11
4.9950592985
 21
-10.759045193
 31
0.0
  0
LINE
  5
11A
330
1F
100
AcDbEntity
  8
SK3
  6
SLD-Dashed
370
    18
100
AcDbLine
 10
4.9950592985
 20
-10.759045193
 30
0.0
 11
5.2521875137
 21
-10.6491814497
 31
0.0
  0
LINE
  5
11B
330
1F
100
AcDbEntity
  8
SK3
  6
SLD-Dashed
370
    18
100
AcDbLine
 10
5.2521875137
 20
-10.6491814497
 30
0.0
 11
5.4668303773
 21
-10.4358388447
 31
0.0
  0
LINE
  5
11C
330
1F
100
AcDbEntity
  8
SK3
  6
SLD-Dashed
370
    18
100
AcDbLine
 10
5.4668303773
 20
-10.4358388447
 30
0.0
 11
5.6265136264
 21
-10.1314160745
 31
0.0
  0
LINE
  5
11D
330
1F
100
AcDbEntity
  8
SK3
  6
SLD-Dashed
370
    18
100
AcDbLine
 10
5.6265136264
 20
-10.1314160745
 30
0.0
 11
5.721957051
 21
-9.7536050842
 31
0.0
  0
LINE
  5
11E
330
1F
100
AcDbEntity
  8
SK3
  6
SLD-Dashed
370
    18
100
AcDbLine
 10
5.721957051
 20
-9.7536050842
 30
0.0
 11
5.7476138261
 21
-9.3243628751
 31
0.0
  0
LINE
  5
11F
330
1F
100
AcDbEntity
  8
SK3
  6
SLD-Dashed
370
    18
100
AcDbLine
 10
5.7476138261
 20
-9.3243628751
 30
0.0
 11
5.7019928732
 21
-8.8686354442
 31
0.0
  0
LINE
  5
120
330
1F
100
AcDbEntity
  8
SK3
  6
SLD-Dashed
370
    18
100
AcDbLine
 10
16.3488925452
 20
-5.9198440145
 30
0.0
 11
16.2346451883
 21
-5.4641165836
 31
0.0
  0
LINE
  5
121
330
1F
100
AcDbEntity
  8
SK3
  6
SLD-Dashed
370
    18
100
AcDbLine
 10
16.2346451883
 20
-5.4641165836
 30
0.0
 11
16.0584110685
 21
-5.0348743745
 31
0.0
  0
LINE
  5
122
330
1F
100
AcDbEntity
  8
SK3
  6
SLD-Dashed
370
    18
100
AcDbLine
 10
16.0584110685
 20
-5.0348743745
 30
0.0
 11
15.8304322722
 21
-4.6570633842
 31
0.0
  0
LINE
  5
123
330
1F
100
AcDbEntity
  8
SK3
  6
SLD-Dashed
370
    18
100
AcDbLine
 10
15.8304322722
 20
-4.6570633842
 30
0.0
 11
15.5639580985
 21
-4.352640614
 31
0.0
  0
LINE
  5
124
330
1F
100
AcDbEntity
  8
SK3
  6
SLD-Dashed
370
    18
100
AcDbLine
 10
15.5639580985
 20
-4.352640614
 30
0.0
 11
15.2744750576
 21
-4.139298009
 31
0.0
  0
LINE
  5
125
330
1F
100
AcDbEntity
  8
SK3
  6
SLD-Dashed
370
    18
100
AcDbLine
 10
15.2744750576
 20
-4.139298009
 30
0.0
 11
14.9788068518
 21
-4.0294342657
 31
0.0
  0
LINE
  5
126
330
1F
100
AcDbEntity
  8
SK3
  6
SLD-Dashed
370
    18
100
AcDbLine
 10
14.9788068518
 20
-4.0294342657
 30
0.0
 11
14.6941366424
 21
-4.0294342657
 31
0.0
  0
LINE
  5
127
330
1F
100
AcDbEntity
  8
SK3
  6
SLD-Dashed
370
    18
100
AcDbLine
 10
14.6941366424
 20
-4.0294342657
 30
0.0
 11
14.4370084273
 21
-4.139298009
 31
0.0
  0
LINE
  5
128
330
1F
100
AcDbEntity
  8
SK3
  6
SLD-Dashed
370
    18
100
AcDbLine
 10
14.4370084273
 20
-4.139298009
 30
0.0
 11
14.2223655636
 21
-4.352640614
 31
0.0
  0
LINE
  5
129
330
1F
100
AcDbEntity
  8
SK3
  6
SLD-Dashed
370
    18
100
AcDbLine
 10
14.2223655636
 20
-4.352640614
 30
0.0
 11
14.0626823145
 21
-4.6570633842
 31
0.0
  0
LINE
  5
12A
330
1F
100
AcDbEntity
  8
SK3
  6
SLD-Dashed
370
    18
100
AcDbLine
 10
14.0626823145
 20
-4.6570633842
 30
0.0
 11
13.9672388899
 21
-5.0348743745
 31
0.0
  0
LINE
  5
12B
330
1F
100
AcDbEntity
  8
SK3
  6
SLD-Dashed
370
    18
100
AcDbLine
 10
13.9672388899
 20
-5.0348743745
 30
0.0
 11
13.9415821148
 21
-5.4641165836
 31
0.0
  0
LINE
  5
12C
330
1F
100
AcDbEntity
  8
SK3
  6
SLD-Dashed
370
    18
100
AcDbLine
 10
13.9415821148
 20
-5.4641165836
 30
0.0
 11
13.9872030677
 21
-5.9198440145
 31
0.0
  0
LINE
  5
12D
330
1F
100
AcDbEntity
  8
SK3
  6
SLD-Dashed
370
    18
100
AcDbLine
 10
13.9872030677
 20
-5.9198440145
 30
0.0
 11
14.1014504246
 21
-6.3755714454
 31
0.0
  0
LINE
  5
12E
330
1F
100
AcDbEntity
  8
SK3
  6
SLD-Dashed
370
    18
100
AcDbLine
 10
14.1014504246
 20
-6.3755714454
 30
0.0
 11
14.2776845444
 21
-6.8048136545
 31
0.0
  0
LINE
  5
12F
330
1F
100
AcDbEntity
  8
SK3
  6
SLD-Dashed
370
    18
100
AcDbLine
 10
14.2776845444
 20
-6.8048136545
 30
0.0
 11
14.5056633407
 21
-7.1826246448
 31
0.0
  0
LINE
  5
130
330
1F
100
AcDbEntity
  8
SK3
  6
SLD-Dashed
370
    18
100
AcDbLine
 10
14.5056633407
 20
-7.1826246448
 30
0.0
 11
14.7721375144
 21
-7.487047415
 31
0.0
  0
LINE
  5
131
330
1F
100
AcDbEntity
  8
SK3
  6
SLD-Dashed
370
    18
100
AcDbLine
 10
14.7721375144
 20
-7.487047415
 30
0.0
 11
15.0616205552
 21
-7.70039002
 31
0.0
  0
LINE
  5
132
330
1F
100
AcDbEntity
  8
SK3
  6
SLD-Dashed
370
    18
100
AcDbLine
 10
15.0616205552
 20
-7.70039002
 30
0.0
 11
15.3572887611
 21
-7.8102537633
 31
0.0
  0
LINE
  5
133
330
1F
100
AcDbEntity
  8
SK3
  6
SLD-Dashed
370
    18
100
AcDbLine
 10
15.3572887611
 20
-7.8102537633
 30
0.0
 11
15.6419589705
 21
-7.8102537633
 31
0.0
  0
LINE
  5
134
330
1F
100
AcDbEntity
  8
SK3
  6
SLD-Dashed
370
    18
100
AcDbLine
 10
15.6419589705
 20
-7.8102537633
 30
0.0
 11
15.8990871856
 21
-7.70039002
 31
0.0
  0
LINE
  5
135
330
1F
100
AcDbEntity
  8
SK3
  6
SLD-Dashed
370
    18
100
AcDbLine
 10
15.8990871856
 20
-7.70039002
 30
0.0
 11
16.1137300493
 21
-7.487047415
 31
0.0
  0
LINE
  5
136
330
1F
100
AcDbEntity
  8
SK3
  6
SLD-Dashed
370
    18
100
AcDbLine
 10
16.1137300493
 20
-7.487047415
 30
0.0
 11
16.2734132984
 21
-7.1826246448
 31
0.0
  0
LINE
  5
137
330
1F
100
AcDbEntity
  8
SK3
  6
SLD-Dashed
370
    18
100
AcDbLine
 10
16.2734132984
 20
-7.1826246448
 30
0.0
 11
16.3688567229
 21
-6.8048136545
 31
0.0
  0
LINE
  5
138
330
1F
100
AcDbEntity
  8
SK3
  6
SLD-Dashed
370
    18
100
AcDbLine
 10
16.3688567229
 20
-6.8048136545
 30
0.0
 11
16.394513498
 21
-6.3755714454
 31
0.0
  0
LINE
  5
139
330
1F
100
AcDbEntity
  8
SK3
  6
SLD-Dashed
370
    18
100
AcDbLine
 10
16.394513498
 20
-6.3755714454
 30
0.0
 11
16.3488925452
 21
-5.9198440145
 31
0.0
  0
LINE
  5
13A
330
1F
100
AcDbEntity
  8
SK3
  6
SLD-Dashed
370
    18
100
AcDbLine
 10
11.115
 20
-10.1009964074
 30
0.0
 11
10.6879485756
 21
-10.0481646456
 31
0.0
  0
LINE
  5
13B
330
1F
100
AcDbEntity
  8
SK3
  6
SLD-Dashed
370
    18
100
AcDbLine
 10
10.6879485756
 20
-10.0481646456
 30
0.0
 11
10.29
 21
-9.8932697574
 31
0.0
  0
LINE
  5
13C
330
1F
100
AcDbEntity
  8
SK3
  6
SLD-Dashed
370
    18
100
AcDbLine
 10
10.29
 20
-9.8932697574
 30
0.0
 11
9.948273811
 21
-9.6468675734
 31
0.0
  0
LINE
  5
13D
330
1F
100
AcDbEntity
  8
SK3
  6
SLD-Dashed
370
    18
100
AcDbLine
 10
9.948273811
 20
-9.6468675734
 30
0.0
 11
9.6860580838
 21
-9.3257499953
 31
0.0
  0
LINE
  5
13E
330
1F
100
AcDbEntity
  8
SK3
  6
SLD-Dashed
370
    18
100
AcDbLine
 10
9.6860580838
 20
-9.3257499953
 30
0.0
 11
9.5212223866
 21
-8.9518006554
 31
0.0
  0
LINE
  5
13F
330
1F
100
AcDbEntity
  8
SK3
  6
SLD-Dashed
370
    18
100
AcDbLine
 10
9.5212223866
 20
-8.9518006554
 30
0.0
 11
9.465
 21
-8.5505035831
 31
0.0
  0
LINE
  5
140
330
1F
100
AcDbEntity
  8
SK3
  6
SLD-Dashed
370
    18
100
AcDbLine
 10
9.465
 20
-8.5505035831
 30
0.0
 11
9.5212223866
 21
-8.1492065109
 31
0.0
  0
LINE
  5
141
330
1F
100
AcDbEntity
  8
SK3
  6
SLD-Dashed
370
    18
100
AcDbLine
 10
9.5212223866
 20
-8.1492065109
 30
0.0
 11
9.6860580838
 21
-7.775257171
 31
0.0
  0
LINE
  5
142
330
1F
100
AcDbEntity
  8
SK3
  6
SLD-Dashed
370
    18
100
AcDbLine
 10
9.6860580838
 20
-7.775257171
 30
0.0
 11
9.948273811
 21
-7.4541395929
 31
0.0
  0
LINE
  5
143
330
1F
100
AcDbEntity
  8
SK3
  6
SLD-Dashed
370
    18
100
AcDbLine
 10
9.948273811
 20
-7.4541395929
 30
0.0
 11
10.29
 21
-7.2077374089
 31
0.0
  0
LINE
  5
144
330
1F
100
AcDbEntity
  8
SK3
  6
SLD-Dashed
370
    18
100
AcDbLine
 10
10.29
 20
-7.2077374089
 30
0.0
 11
10.6879485756
 21
-7.0528425207
 31
0.0
  0
LINE
  5
145
330
1F
100
AcDbEntity
  8
SK3
  6
SLD-Dashed
370
    18
100
AcDbLine
 10
10.6879485756
 20
-7.0528425207
 30
0.0
 11
11.115
 21
-7.0000107588
 31
0.0
  0
LINE
  5
146
330
1F
100
AcDbEntity
  8
SK3
  6
SLD-Dashed
370
    18
100
AcDbLine
 10
11.115
 20
-7.0000107588
 30
0.0
 11
11.5420514244
 21
-7.0528425207
 31
0.0
  0
LINE
  5
147
330
1F
100
AcDbEntity
  8
SK3
  6
SLD-Dashed
370
    18
100
AcDbLine
 10
11.5420514244
 20
-7.0528425207
 30
0.0
 11
11.94
 21
-7.2077374089
 31
0.0
  0
LINE
  5
148
330
1F
100
AcDbEntity
  8
SK3
  6
SLD-Dashed
370
    18
100
AcDbLine
 10
11.94
 20
-7.2077374089
 30
0.0
 11
12.281726189
 21
-7.4541395929
 31
0.0
  0
LINE
  5
149
330
1F
100
AcDbEntity
  8
SK3
  6
SLD-Dashed
370
    18
100
AcDbLine
 10
12.281726189
 20
-7.4541395929
 30
0.0
 11
12.5439419162
 21
-7.775257171
 31
0.0
  0
LINE
  5
14A
330
1F
100
AcDbEntity
  8
SK3
  6
SLD-Dashed
370
    18
100
AcDbLine
 10
12.5439419162
 20
-7.775257171
 30
0.0
 11
12.7087776134
 21
-8.1492065109
 31
0.0
  0
LINE
  5
14B
330
1F
100
AcDbEntity
  8
SK3
  6
SLD-Dashed
370
    18
100
AcDbLine
 10
12.7087776134
 20
-8.1492065109
 30
0.0
 11
12.765
 21
-8.5505035831
 31
0.0
  0
LINE
  5
14C
330
1F
100
AcDbEntity
  8
SK3
  6
SLD-Dashed
370
    18
100
AcDbLine
 10
12.765
 20
-8.5505035831
 30
0.0
 11
12.7087776134
 21
-8.9518006554
 31
0.0
  0
LINE
  5
14D
330
1F
100
AcDbEntity
  8
SK3
  6
SLD-Dashed
370
    18
100
AcDbLine
 10
12.7087776134
 20
-8.9518006554
 30
0.0
 11
12.5439419162
 21
-9.3257499953
 31
0.0
  0
LINE
  5
14E
330
1F
100
AcDbEntity
  8
SK3
  6
SLD-Dashed
370
    18
100
AcDbLine
 10
12.5439419162
 20
-9.3257499953
 30
0.0
 11
12.281726189
 21
-9.6468675734
 31
0.0
  0
LINE
  5
14F
330
1F
100
AcDbEntity
  8
SK3
  6
SLD-Dashed
370
    18
100
AcDbLine
 10
12.281726189
 20
-9.6468675734
 30
0.0
 11
11.94
 21
-9.8932697574
 31
0.0
  0
LINE
  5
150
330
1F
100
AcDbEntity
  8
SK3
  6
SLD-Dashed
370
    18
100
AcDbLine
 10
11.94
 20
-9.8932697574
 30
0.0
 11
11.5420514244
 21
-10.0481646456
 31
0.0
  0
LINE
  5
151
330
1F
100
AcDbEntity
  8
SK3
  6
SLD-Dashed
370
    18
100
AcDbLine
 10
11.5420514244
 20
-10.0481646456
 30
0.0
 11
11.115
 21
-10.1009964074
 31
0.0
  0
LINE
  5
152
330
1F
100
AcDbEntity
  8
SK3
  6
SLD-Dashed
370
    18
100
AcDbLine
 10
-66.9509618943
 20
8.5
 30
0.0
 11
-66.9509618943
 21
-8.5
 31
0.0
  0
LINE
  5
153
330
1F
100
AcDbEntity
  8
SK3
  6
SLD-Dashed
370
    18
100
AcDbLine
 10
-61.75
 20
-8.8
 30
0.0
 11
-61.75
 21
8.8
 31
0.0
  0
LINE
  5
154
330
1F
100
AcDbEntity
  8
SK3
  6
SLD-Dashed
370
    18
100
AcDbLine
 10
-59.75
 20
-8.8
 30
0.0
 11
-59.75
 21
8.8
 31
0.0
  0
LINE
  5
155
330
1F
100
AcDbEntity
  8
SK3
  6
SLD-Dashed
370
    18
100
AcDbLine
 10
-62.2696152423
 20
-8.5
 30
0.0
 11
-62.2696152423
 21
8.5
 31
0.0
  0
LINE
  5
156
330
1F
100
AcDbEntity
  8
SK3
  6
SLD-Dashed
370
    18
100
AcDbLine
 10
-58.7107695155
 20
7.0
 30
0.0
 11
-58.7107695155
 21
-7.0
 31
0.0
  0
LINE
  5
157
330
1F
100
AcDbEntity
  8
SK3
  6
SLD-Dashed
370
    18
100
AcDbLine
 10
18.3028976828
 20
24.8
 30
0.0
 11
19.05
 21
24.8
 31
0.0
  0
LINE
  5
158
330
1F
100
AcDbEntity
  8
SK3
  6
SLD-Dashed
370
    18
100
AcDbLine
 10
4.2516982723
 20
-22.6
 30
0.0
 11
3.2
 21
-22.6
 31
0.0
  0
LINE
  5
159
330
1F
100
AcDbEntity
  8
SK3
  6
SLD-Dashed
370
    18
100
AcDbLine
 10
18.6202644763
 20
-24.5918395155
 30
0.0
 11
18.6202644763
 21
-29.8288211426
 31
0.0
  0
LINE
  5
15A
330
1F
100
AcDbEntity
  8
SK3
  6
SLD-Dashed
370
    18
100
AcDbLine
 10
3.6297385784
 20
-29.8288189921
 30
0.0
 11
3.6297385784
 21
-23.1000000001
 31
0.0
  0
LINE
  5
15B
330
1F
100
AcDbEntity
  8
SK3
  6
SLD-Dashed
370
    18
100
AcDbLine
 10
18.3
 20
-30.1615241263
 30
0.0
 11
14.3360013008
 21
-30.1615241263
 31
0.0
  0
LINE
  5
15C
330
1F
100
AcDbEntity
  8
SK3
  6
SLD-Dashed
370
    18
100
AcDbLine
 10
7.894001654
 20
-30.1615188275
 30
0.0
 11
3.95
 21
-30.1615188275
 31
0.0
  0
LINE
  5
15D
330
1F
100
AcDbEntity
  8
1
  6
SLD-Dashed
370
    18
100
AcDbLine
 10
13.03
 20
-27.5868351755
 30
0.0
 11
13.03
 21
-27.8127840266
 31
0.0
  0
LINE
  5
15E
330
1F
100
AcDbEntity
  8
1
  6
SLD-Dashed
370
    18
100
AcDbLine
 10
9.2
 20
-27.8127840266
 30
0.0
 11
9.2
 21
-27.5868351755
 31
0.0
  0
LINE
  5
15F
330
1F
100
AcDbEntity
  8
SK3
  6
SLD-Dashed
370
    18
100
AcDbLine
 10
3.6297385784
 20
-23.1000000001
 30
0.0
 11
19.0685750517
 21
-23.1000000001
 31
0.0
  0
LINE
  5
160
330
1F
100
AcDbEntity
  8
SK3
  6
SLD-Dashed
370
    18
100
AcDbLine
 10
22.9058927148
 20
-22.6
 30
0.0
 11
4.2516982723
 21
-22.6
 31
0.0
  0
LINE
  5
161
330
1F
100
AcDbEntity
  8
SK3
  6
SLD-Dashed
370
    18
100
AcDbLine
 10
4.2
 20
25.3
 30
0.0
 11
3.5454096757
 21
24.6454096757
 31
0.0
  0
LINE
  5
162
330
1F
100
AcDbEntity
  8
SK3
  6
SLD-Dashed
370
    18
100
AcDbLine
 10
18.7047100516
 20
29.804866641
 30
0.0
 11
18.7047100516
 21
25.3
 31
0.0
  0
LINE
  5
163
330
1F
100
AcDbEntity
  8
SK3
  6
SLD-Dashed
370
    18
100
AcDbLine
 10
3.5454096757
 20
24.6454096757
 30
0.0
 11
3.5454096757
 21
29.8048528797
 31
0.0
  0
LINE
  5
164
330
1F
100
AcDbEntity
  8
SK3
  6
SLD-Dashed
370
    18
100
AcDbLine
 10
14.3717243109
 20
30.225583351
 30
0.0
 11
18.3
 21
30.225583351
 31
0.0
  0
LINE
  5
165
330
1F
100
AcDbEntity
  8
SK3
  6
SLD-Dashed
370
    18
100
AcDbLine
 10
3.95
 20
30.2254453833
 30
0.0
 11
7.8583526331
 21
30.2254453833
 31
0.0
  0
LINE
  5
166
330
1F
100
AcDbEntity
  8
1
  6
SLD-Dashed
370
    18
100
AcDbLine
 10
9.2
 20
27.8127840266
 30
0.0
 11
9.2
 21
27.5868351755
 31
0.0
  0
LINE
  5
167
330
1F
100
AcDbEntity
  8
1
  6
SLD-Dashed
370
    18
100
AcDbLine
 10
13.03
 20
27.5868351755
 30
0.0
 11
13.03
 21
27.8127840266
 31
0.0
  0
LINE
  5
168
330
1F
100
AcDbEntity
  8
SK3
  6
SLD-Dashed
370
    18
100
AcDbLine
 10
22.9058927148
 20
-22.6
 30
0.0
 11
28.2
 21
-22.6
 31
0.0
  0
LINE
  5
169
330
1F
100
AcDbEntity
  8
SK3
  6
SLD-Dashed
370
    18
100
AcDbLine
 10
18.7047100516
 20
25.3
 30
0.0
 11
4.2
 21
25.3
 31
0.0
  0
LINE
  5
16A
330
1F
100
AcDbEntity
  8
SK3
  6
SLD-Dashed
370
    18
100
AcDbLine
 10
3.7
 20
24.8
 30
0.0
 11
18.3028976828
 21
24.8
 31
0.0
  0
LINE
  5
16B
330
1F
100
AcDbEntity
  8
SK3
  6
SLD-Dashed
370
    18
100
AcDbLine
 10
11.75
 20
0.9057207797
 30
0.0
 11
11.75
 21
-7.0
 31
0.0
  0
LINE
  5
16C
330
1F
100
AcDbEntity
  8
SK3
  6
SLD-Dashed
370
    18
100
AcDbLine
 10
11.75
 20
-0.9057207797
 30
0.0
 11
11.75
 21
7.0
 31
0.0
  0
LINE
  5
16D
330
1F
100
AcDbEntity
  8
SK3
  6
SLD-Dashed
370
    18
100
AcDbLine
 10
13.4023667023
 20
4.25
 30
0.0
 11
13.4023667023
 21
-4.25
 31
0.0
  0
LINE
  5
16E
330
1F
100
AcDbEntity
  8
SK3
  6
SLD-Dashed
370
    18
100
AcDbLine
 10
52.5
 20
-4.25
 30
0.0
 11
52.5
 21
4.25
 31
0.0
  0
LINE
  5
16F
330
1F
100
AcDbEntity
  8
SK1
  6
SLD-Dashed
370
    18
100
AcDbLine
 10
54.0
 20
-5.1017199591
 30
0.0
 11
54.0
 21
5.1017199591
 31
0.0
  0
LINE
  5
170
330
1F
100
AcDbEntity
  8
SK3
  6
SLD-Dashed
370
    18
100
AcDbLine
 10
6.2
 20
20.2
 30
0.0
 11
16.0
 21
20.2
 31
0.0
  0
LINE
  5
171
330
1F
100
AcDbEntity
  8
SK3
  6
SLD-Dashed
370
    18
100
AcDbLine
 10
16.0860189859
 20
20.3
 30
0.0
 11
6.1139810141
 21
20.3
 31
0.0
  0
LINE
  5
172
330
1F
100
AcDbEntity
  8
SK3
  6
SLD-Dashed
370
    18
100
AcDbLine
 10
16.0860189859
 20
24.8
 30
0.0
 11
6.1139810141
 21
24.8
 31
0.0
  0
LINE
  5
173
330
1F
100
AcDbEntity
  8
SK3
  6
SLD-Dashed
370
    18
100
AcDbLine
 10
19.0685750517
 20
-23.1000000001
 30
0.0
 11
3.6297385784
 21
-23.1000000001
 31
0.0
  0
LINE
  5
174
330
1F
100
AcDbEntity
  8
SK3
  6
SLD-Dashed
370
    18
100
AcDbLine
 10
4.2516982723
 20
-22.6
 30
0.0
 11
22.9058927148
 21
-22.6
 31
0.0
  0
LINE
  5
175
330
1F
100
AcDbEntity
  8
SK3
  6
SLD-Dashed
370
    18
100
AcDbLine
 10
3.6297385784
 20
-23.1000000001
 30
0.0
 11
3.6297385784
 21
-29.8288189921
 31
0.0
  0
LINE
  5
176
330
1F
100
AcDbEntity
  8
SK3
  6
SLD-Dashed
370
    18
100
AcDbLine
 10
3.2
 20
-22.6
 30
0.0
 11
4.2516982723
 21
-22.6
 31
0.0
  0
LINE
  5
177
330
1F
100
AcDbEntity
  8
SK3
  6
SLD-Dashed
370
    18
100
AcDbLine
 10
18.7045903243
 20
25.3
 30
0.0
 11
18.7045903243
 21
29.8048528797
 31
0.0
  0
LINE
  5
178
330
1F
100
AcDbEntity
  8
SK3
  6
SLD-Dashed
370
    18
100
AcDbLine
 10
19.05
 20
24.8
 30
0.0
 11
18.3026836346
 21
24.8
 31
0.0
  0
LINE
  5
179
330
1F
100
AcDbEntity
  8
SK3
  6
SLD-Dashed
370
    18
100
AcDbLine
 10
4.2
 20
25.3
 30
0.0
 11
18.7045903243
 21
25.3
 31
0.0
  0
LINE
  5
17A
330
1F
100
AcDbEntity
  8
SK3
  6
SLD-Dashed
370
    18
100
AcDbLine
 10
18.3026836346
 20
24.8
 30
0.0
 11
3.7
 21
24.8
 31
0.0
  0
LINE
  5
17B
330
1F
100
AcDbEntity
  8
SK3
  6
SLD-Dashed
370
    18
100
AcDbLine
 10
18.6202644763
 20
-29.8288211426
 30
0.0
 11
18.6202644763
 21
-24.5918395155
 31
0.0
  0
LINE
  5
17C
330
1F
100
AcDbEntity
  8
SK3
  6
SLD-Dashed
370
    18
100
AcDbLine
 10
14.3360013008
 20
-30.1615241263
 30
0.0
 11
18.3
 21
-30.1615241263
 31
0.0
  0
LINE
  5
17D
330
1F
100
AcDbEntity
  8
1
  6
SLD-Dashed
370
    18
100
AcDbLine
 10
12.28
 20
-26.8043088887
 30
0.0
 11
9.95
 21
-26.8043088887
 31
0.0
  0
LINE
  5
17E
330
1F
100
AcDbEntity
  8
SK3
  6
SLD-Dashed
370
    18
100
AcDbLine
 10
3.95
 20
-30.1615188275
 30
0.0
 11
7.894001654
 21
-30.1615188275
 31
0.0
  0
LINE
  5
17F
330
1F
100
AcDbEntity
  8
SK3
  6
SLD-Dashed
370
    18
100
AcDbLine
 10
18.3
 20
30.2254453833
 30
0.0
 11
14.3716473669
 21
30.2254453833
 31
0.0
  0
LINE
  5
180
330
1F
100
AcDbEntity
  8
SK3
  6
SLD-Dashed
370
    18
100
AcDbLine
 10
3.5452899484
 20
29.804866641
 30
0.0
 11
3.5452899484
 21
24.6452899484
 31
0.0
  0
LINE
  5
181
330
1F
100
AcDbEntity
  8
SK3
  6
SLD-Dashed
370
    18
100
AcDbLine
 10
7.8582756891
 20
30.225583351
 30
0.0
 11
3.95
 21
30.225583351
 31
0.0
  0
LINE
  5
182
330
1F
100
AcDbEntity
  8
1
  6
SLD-Dashed
370
    18
100
AcDbLine
 10
12.28
 20
26.8043088887
 30
0.0
 11
9.95
 21
26.8043088887
 31
0.0
  0
LINE
  5
183
330
1F
100
AcDbEntity
  8
SK3
  6
SLD-Dashed
370
    18
100
AcDbLine
 10
3.5452899484
 20
24.6452899484
 30
0.0
 11
4.2
 21
25.3
 31
0.0
  0
LINE
  5
184
330
1F
100
AcDbEntity
  8
SK3
  6
SLD-Dashed
370
    18
100
AcDbLine
 10
3.3403033958
 20
8.8686354442
 30
0.0
 11
3.4545507526
 21
9.3243628751
 31
0.0
  0
LINE
  5
185
330
1F
100
AcDbEntity
  8
SK3
  6
SLD-Dashed
370
    18
100
AcDbLine
 10
3.4545507526
 20
9.3243628751
 30
0.0
 11
3.6307848724
 21
9.7536050842
 31
0.0
  0
LINE
  5
186
330
1F
100
AcDbEntity
  8
SK3
  6
SLD-Dashed
370
    18
100
AcDbLine
 10
3.6307848724
 20
9.7536050842
 30
0.0
 11
3.8587636687
 21
10.1314160745
 31
0.0
  0
LINE
  5
187
330
1F
100
AcDbEntity
  8
SK3
  6
SLD-Dashed
370
    18
100
AcDbLine
 10
3.8587636687
 20
10.1314160745
 30
0.0
 11
4.1252378424
 21
10.4358388447
 31
0.0
  0
LINE
  5
188
330
1F
100
AcDbEntity
  8
SK3
  6
SLD-Dashed
370
    18
100
AcDbLine
 10
4.1252378424
 20
10.4358388447
 30
0.0
 11
4.4147208833
 21
10.6491814497
 31
0.0
  0
LINE
  5
189
330
1F
100
AcDbEntity
  8
SK3
  6
SLD-Dashed
370
    18
100
AcDbLine
 10
4.4147208833
 20
10.6491814497
 30
0.0
 11
4.7103890891
 21
10.759045193
 31
0.0
  0
LINE
  5
18A
330
1F
100
AcDbEntity
  8
SK3
  6
SLD-Dashed
370
    18
100
AcDbLine
 10
4.7103890891
 20
10.759045193
 30
0.0
 11
4.9950592985
 21
10.759045193
 31
0.0
  0
LINE
  5
18B
330
1F
100
AcDbEntity
  8
SK3
  6
SLD-Dashed
370
    18
100
AcDbLine
 10
4.9950592985
 20
10.759045193
 30
0.0
 11
5.2521875137
 21
10.6491814497
 31
0.0
  0
LINE
  5
18C
330
1F
100
AcDbEntity
  8
SK3
  6
SLD-Dashed
370
    18
100
AcDbLine
 10
5.2521875137
 20
10.6491814497
 30
0.0
 11
5.4668303773
 21
10.4358388447
 31
0.0
  0
LINE
  5
18D
330
1F
100
AcDbEntity
  8
SK3
  6
SLD-Dashed
370
    18
100
AcDbLine
 10
5.4668303773
 20
10.4358388447
 30
0.0
 11
5.6265136264
 21
10.1314160745
 31
0.0
  0
LINE
  5
18E
330
1F
100
AcDbEntity
  8
SK3
  6
SLD-Dashed
370
    18
100
AcDbLine
 10
5.6265136264
 20
10.1314160745
 30
0.0
 11
5.721957051
 21
9.7536050842
 31
0.0
  0
LINE
  5
18F
330
1F
100
AcDbEntity
  8
SK3
  6
SLD-Dashed
370
    18
100
AcDbLine
 10
5.721957051
 20
9.7536050842
 30
0.0
 11
5.7476138261
 21
9.3243628751
 31
0.0
  0
LINE
  5
190
330
1F
100
AcDbEntity
  8
SK3
  6
SLD-Dashed
370
    18
100
AcDbLine
 10
5.7476138261
 20
9.3243628751
 30
0.0
 11
5.7019928732
 21
8.8686354442
 31
0.0
  0
LINE
  5
191
330
1F
100
AcDbEntity
  8
SK3
  6
SLD-Dashed
370
    18
100
AcDbLine
 10
5.7019928732
 20
8.8686354442
 30
0.0
 11
5.5877455163
 21
8.4129080133
 31
0.0
  0
LINE
  5
192
330
1F
100
AcDbEntity
  8
SK3
  6
SLD-Dashed
370
    18
100
AcDbLine
 10
5.5877455163
 20
8.4129080133
 30
0.0
 11
5.4115113965
 21
7.9836658042
 31
0.0
  0
LINE
  5
193
330
1F
100
AcDbEntity
  8
SK3
  6
SLD-Dashed
370
    18
100
AcDbLine
 10
5.4115113965
 20
7.9836658042
 30
0.0
 11
5.1835326003
 21
7.6058548139
 31
0.0
  0
LINE
  5
194
330
1F
100
AcDbEntity
  8
SK3
  6
SLD-Dashed
370
    18
100
AcDbLine
 10
5.1835326003
 20
7.6058548139
 30
0.0
 11
4.9170584265
 21
7.3014320437
 31
0.0
  0
LINE
  5
195
330
1F
100
AcDbEntity
  8
SK3
  6
SLD-Dashed
370
    18
100
AcDbLine
 10
4.9170584265
 20
7.3014320437
 30
0.0
 11
4.6275753857
 21
7.0880894387
 31
0.0
  0
LINE
  5
196
330
1F
100
AcDbEntity
  8
SK3
  6
SLD-Dashed
370
    18
100
AcDbLine
 10
4.6275753857
 20
7.0880894387
 30
0.0
 11
4.3319071799
 21
6.9782256954
 31
0.0
  0
LINE
  5
197
330
1F
100
AcDbEntity
  8
SK3
  6
SLD-Dashed
370
    18
100
AcDbLine
 10
4.3319071799
 20
6.9782256954
 30
0.0
 11
4.0472369705
 21
6.9782256954
 31
0.0
  0
LINE
  5
198
330
1F
100
AcDbEntity
  8
SK3
  6
SLD-Dashed
370
    18
100
AcDbLine
 10
4.0472369705
 20
6.9782256954
 30
0.0
 11
3.7901087553
 21
7.0880894387
 31
0.0
  0
LINE
  5
199
330
1F
100
AcDbEntity
  8
SK3
  6
SLD-Dashed
370
    18
100
AcDbLine
 10
3.7901087553
 20
7.0880894387
 30
0.0
 11
3.5754658917
 21
7.3014320437
 31
0.0
  0
LINE
  5
19A
330
1F
100
AcDbEntity
  8
SK3
  6
SLD-Dashed
370
    18
100
AcDbLine
 10
3.5754658917
 20
7.3014320437
 30
0.0
 11
3.4157826425
 21
7.6058548139
 31
0.0
  0
LINE
  5
19B
330
1F
100
AcDbEntity
  8
SK3
  6
SLD-Dashed
370
    18
100
AcDbLine
 10
3.4157826425
 20
7.6058548139
 30
0.0
 11
3.320339218
 21
7.9836658042
 31
0.0
  0
LINE
  5
19C
330
1F
100
AcDbEntity
  8
SK3
  6
SLD-Dashed
370
    18
100
AcDbLine
 10
3.320339218
 20
7.9836658042
 30
0.0
 11
3.2946824429
 21
8.4129080133
 31
0.0
  0
LINE
  5
19D
330
1F
100
AcDbEntity
  8
SK3
  6
SLD-Dashed
370
    18
100
AcDbLine
 10
3.2946824429
 20
8.4129080133
 30
0.0
 11
3.3403033958
 21
8.8686354442
 31
0.0
  0
LINE
  5
19E
330
1F
100
AcDbEntity
  8
SK3
  6
SLD-Dashed
370
    18
100
AcDbLine
 10
13.9872030677
 20
5.9198440145
 30
0.0
 11
14.1014504246
 21
6.3755714454
 31
0.0
  0
LINE
  5
19F
330
1F
100
AcDbEntity
  8
SK3
  6
SLD-Dashed
370
    18
100
AcDbLine
 10
14.1014504246
 20
6.3755714454
 30
0.0
 11
14.2776845444
 21
6.8048136545
 31
0.0
  0
LINE
  5
1A0
330
1F
100
AcDbEntity
  8
SK3
  6
SLD-Dashed
370
    18
100
AcDbLine
 10
14.2776845444
 20
6.8048136545
 30
0.0
 11
14.5056633407
 21
7.1826246448
 31
0.0
  0
LINE
  5
1A1
330
1F
100
AcDbEntity
  8
SK3
  6
SLD-Dashed
370
    18
100
AcDbLine
 10
14.5056633407
 20
7.1826246448
 30
0.0
 11
14.7721375144
 21
7.487047415
 31
0.0
  0
LINE
  5
1A2
330
1F
100
AcDbEntity
  8
SK3
  6
SLD-Dashed
370
    18
100
AcDbLine
 10
14.7721375144
 20
7.487047415
 30
0.0
 11
15.0616205552
 21
7.70039002
 31
0.0
  0
LINE
  5
1A3
330
1F
100
AcDbEntity
  8
SK3
  6
SLD-Dashed
370
    18
100
AcDbLine
 10
15.0616205552
 20
7.70039002
 30
0.0
 11
15.3572887611
 21
7.8102537633
 31
0.0
  0
LINE
  5
1A4
330
1F
100
AcDbEntity
  8
SK3
  6
SLD-Dashed
370
    18
100
AcDbLine
 10
15.3572887611
 20
7.8102537633
 30
0.0
 11
15.6419589705
 21
7.8102537633
 31
0.0
  0
LINE
  5
1A5
330
1F
100
AcDbEntity
  8
SK3
  6
SLD-Dashed
370
    18
100
AcDbLine
 10
15.6419589705
 20
7.8102537633
 30
0.0
 11
15.8990871856
 21
7.70039002
 31
0.0
  0
LINE
  5
1A6
330
1F
100
AcDbEntity
  8
SK3
  6
SLD-Dashed
370
    18
100
AcDbLine
 10
15.8990871856
 20
7.70039002
 30
0.0
 11
16.1137300493
 21
7.487047415
 31
0.0
  0
LINE
  5
1A7
330
1F
100
AcDbEntity
  8
SK3
  6
SLD-Dashed
370
    18
100
AcDbLine
 10
16.1137300493
 20
7.487047415
 30
0.0
 11
16.2734132984
 21
7.1826246448
 31
0.0
  0
LINE
  5
1A8
330
1F
100
AcDbEntity
  8
SK3
  6
SLD-Dashed
370
    18
100
AcDbLine
 10
16.2734132984
 20
7.1826246448
 30
0.0
 11
16.3688567229
 21
6.8048136545
 31
0.0
  0
LINE
  5
1A9
330
1F
100
AcDbEntity
  8
SK3
  6
SLD-Dashed
370
    18
100
AcDbLine
 10
16.3688567229
 20
6.8048136545
 30
0.0
 11
16.394513498
 21
6.3755714454
 31
0.0
  0
LINE
  5
1AA
330
1F
100
AcDbEntity
  8
SK3
  6
SLD-Dashed
370
    18
100
AcDbLine
 10
16.394513498
 20
6.3755714454
 30
0.0
 11
16.3488925452
 21
5.9198440145
 31
0.0
  0
LINE
  5
1AB
330
1F
100
AcDbEntity
  8
SK3
  6
SLD-Dashed
370
    18
100
AcDbLine
 10
16.3488925452
 20
5.9198440145
 30
0.0
 11
16.2346451883
 21
5.4641165836
 31
0.0
  0
LINE
  5
1AC
330
1F
100
AcDbEntity
  8
SK3
  6
SLD-Dashed
370
    18
100
AcDbLine
 10
16.2346451883
 20
5.4641165836
 30
0.0
 11
16.0584110685
 21
5.0348743745
 31
0.0
  0
LINE
  5
1AD
330
1F
100
AcDbEntity
  8
SK3
  6
SLD-Dashed
370
    18
100
AcDbLine
 10
16.0584110685
 20
5.0348743745
 30
0.0
 11
15.8304322722
 21
4.6570633842
 31
0.0
  0
LINE
  5
1AE
330
1F
100
AcDbEntity
  8
SK3
  6
SLD-Dashed
370
    18
100
AcDbLine
 10
15.8304322722
 20
4.6570633842
 30
0.0
 11
15.5639580985
 21
4.352640614
 31
0.0
  0
LINE
  5
1AF
330
1F
100
AcDbEntity
  8
SK3
  6
SLD-Dashed
370
    18
100
AcDbLine
 10
15.5639580985
 20
4.352640614
 30
0.0
 11
15.2744750576
 21
4.139298009
 31
0.0
  0
LINE
  5
1B0
330
1F
100
AcDbEntity
  8
SK3
  6
SLD-Dashed
370
    18
100
AcDbLine
 10
15.2744750576
 20
4.139298009
 30
0.0
 11
14.9788068518
 21
4.0294342657
 31
0.0
  0
LINE
  5
1B1
330
1F
100
AcDbEntity
  8
SK3
  6
SLD-Dashed
370
    18
100
AcDbLine
 10
14.9788068518
 20
4.0294342657
 30
0.0
 11
14.6941366424
 21
4.0294342657
 31
0.0
  0
LINE
  5
1B2
330
1F
100
AcDbEntity
  8
SK3
  6
SLD-Dashed
370
    18
100
AcDbLine
 10
14.6941366424
 20
4.0294342657
 30
0.0
 11
14.4370084273
 21
4.139298009
 31
0.0
  0
LINE
  5
1B3
330
1F
100
AcDbEntity
  8
SK3
  6
SLD-Dashed
370
    18
100
AcDbLine
 10
14.4370084273
 20
4.139298009
 30
0.0
 11
14.2223655636
 21
4.352640614
 31
0.0
  0
LINE
  5
1B4
330
1F
100
AcDbEntity
  8
SK3
  6
SLD-Dashed
370
    18
100
AcDbLine
 10
14.2223655636
 20
4.352640614
 30
0.0
 11
14.0626823145
 21
4.6570633842
 31
0.0
  0
LINE
  5
1B5
330
1F
100
AcDbEntity
  8
SK3
  6
SLD-Dashed
370
    18
100
AcDbLine
 10
14.0626823145
 20
4.6570633842
 30
0.0
 11
13.9672388899
 21
5.0348743745
 31
0.0
  0
LINE
  5
1B6
330
1F
100
AcDbEntity
  8
SK3
  6
SLD-Dashed
370
    18
100
AcDbLine
 10
13.9672388899
 20
5.0348743745
 30
0.0
 11
13.9415821148
 21
5.4641165836
 31
0.0
  0
LINE
  5
1B7
330
1F
100
AcDbEntity
  8
SK3
  6
SLD-Dashed
370
    18
100
AcDbLine
 10
13.9415821148
 20
5.4641165836
 30
0.0
 11
13.9872030677
 21
5.9198440145
 31
0.0
  0
LINE
  5
1B8
330
1F
100
AcDbEntity
  8
SK3
  6
SLD-Dashed
370
    18
100
AcDbLine
 10
11.115
 20
9.9881297601
 30
0.0
 11
11.5420514244
 21
9.9352979983
 31
0.0
  0
LINE
  5
1B9
330
1F
100
AcDbEntity
  8
SK3
  6
SLD-Dashed
370
    18
100
AcDbLine
 10
11.5420514244
 20
9.9352979983
 30
0.0
 11
11.94
 21
9.7804031101
 31
0.0
  0
LINE
  5
1BA
330
1F
100
AcDbEntity
  8
SK3
  6
SLD-Dashed
370
    18
100
AcDbLine
 10
11.94
 20
9.7804031101
 30
0.0
 11
12.281726189
 21
9.5340009261
 31
0.0
  0
LINE
  5
1BB
330
1F
100
AcDbEntity
  8
SK3
  6
SLD-Dashed
370
    18
100
AcDbLine
 10
12.281726189
 20
9.5340009261
 30
0.0
 11
12.5439419162
 21
9.212883348
 31
0.0
  0
LINE
  5
1BC
330
1F
100
AcDbEntity
  8
SK3
  6
SLD-Dashed
370
    18
100
AcDbLine
 10
12.5439419162
 20
9.212883348
 30
0.0
 11
12.7087776134
 21
8.8389340081
 31
0.0
  0
LINE
  5
1BD
330
1F
100
AcDbEntity
  8
SK3
  6
SLD-Dashed
370
    18
100
AcDbLine
 10
12.7087776134
 20
8.8389340081
 30
0.0
 11
12.765
 21
8.4376369358
 31
0.0
  0
LINE
  5
1BE
330
1F
100
AcDbEntity
  8
SK3
  6
SLD-Dashed
370
    18
100
AcDbLine
 10
12.765
 20
8.4376369358
 30
0.0
 11
12.7087776134
 21
8.0363398636
 31
0.0
  0
LINE
  5
1BF
330
1F
100
AcDbEntity
  8
SK3
  6
SLD-Dashed
370
    18
100
AcDbLine
 10
12.7087776134
 20
8.0363398636
 30
0.0
 11
12.5439419162
 21
7.6623905237
 31
0.0
  0
LINE
  5
1C0
330
1F
100
AcDbEntity
  8
SK3
  6
SLD-Dashed
370
    18
100
AcDbLine
 10
12.5439419162
 20
7.6623905237
 30
0.0
 11
12.281726189
 21
7.3412729456
 31
0.0
  0
LINE
  5
1C1
330
1F
100
AcDbEntity
  8
SK3
  6
SLD-Dashed
370
    18
100
AcDbLine
 10
12.281726189
 20
7.3412729456
 30
0.0
 11
11.94
 21
7.0948707616
 31
0.0
  0
LINE
  5
1C2
330
1F
100
AcDbEntity
  8
SK3
  6
SLD-Dashed
370
    18
100
AcDbLine
 10
11.94
 20
7.0948707616
 30
0.0
 11
11.5420514244
 21
6.9399758734
 31
0.0
  0
LINE
  5
1C3
330
1F
100
AcDbEntity
  8
SK3
  6
SLD-Dashed
370
    18
100
AcDbLine
 10
11.5420514244
 20
6.9399758734
 30
0.0
 11
11.115
 21
6.8871441115
 31
0.0
  0
LINE
  5
1C4
330
1F
100
AcDbEntity
  8
SK3
  6
SLD-Dashed
370
    18
100
AcDbLine
 10
11.115
 20
6.8871441115
 30
0.0
 11
10.6879485756
 21
6.9399758734
 31
0.0
  0
LINE
  5
1C5
330
1F
100
AcDbEntity
  8
SK3
  6
SLD-Dashed
370
    18
100
AcDbLine
 10
10.6879485756
 20
6.9399758734
 30
0.0
 11
10.29
 21
7.0948707616
 31
0.0
  0
LINE
  5
1C6
330
1F
100
AcDbEntity
  8
SK3
  6
SLD-Dashed
370
    18
100
AcDbLine
 10
10.29
 20
7.0948707616
 30
0.0
 11
9.948273811
 21
7.3412729456
 31
0.0
  0
LINE
  5
1C7
330
1F
100
AcDbEntity
  8
SK3
  6
SLD-Dashed
370
    18
100
AcDbLine
 10
9.948273811
 20
7.3412729456
 30
0.0
 11
9.6860580838
 21
7.6623905237
 31
0.0
  0
LINE
  5
1C8
330
1F
100
AcDbEntity
  8
SK3
  6
SLD-Dashed
370
    18
100
AcDbLine
 10
9.6860580838
 20
7.6623905237
 30
0.0
 11
9.5212223866
 21
8.0363398636
 31
0.0
  0
LINE
  5
1C9
330
1F
100
AcDbEntity
  8
SK3
  6
SLD-Dashed
370
    18
100
AcDbLine
 10
9.5212223866
 20
8.0363398636
 30
0.0
 11
9.465
 21
8.4376369358
 31
0.0
  0
LINE
  5
1CA
330
1F
100
AcDbEntity
  8
SK3
  6
SLD-Dashed
370
    18
100
AcDbLine
 10
9.465
 20
8.4376369358
 30
0.0
 11
9.5212223866
 21
8.8389340081
 31
0.0
  0
LINE
  5
1CB
330
1F
100
AcDbEntity
  8
SK3
  6
SLD-Dashed
370
    18
100
AcDbLine
 10
9.5212223866
 20
8.8389340081
 30
0.0
 11
9.6860580838
 21
9.212883348
 31
0.0
  0
LINE
  5
1CC
330
1F
100
AcDbEntity
  8
SK3
  6
SLD-Dashed
370
    18
100
AcDbLine
 10
9.6860580838
 20
9.212883348
 30
0.0
 11
9.948273811
 21
9.5340009261
 31
0.0
  0
LINE
  5
1CD
330
1F
100
AcDbEntity
  8
SK3
  6
SLD-Dashed
370
    18
100
AcDbLine
 10
9.948273811
 20
9.5340009261
 30
0.0
 11
10.29
 21
9.7804031101
 31
0.0
  0
LINE
  5
1CE
330
1F
100
AcDbEntity
  8
SK3
  6
SLD-Dashed
370
    18
100
AcDbLine
 10
10.29
 20
9.7804031101
 30
0.0
 11
10.6879485756
 21
9.9352979983
 31
0.0
  0
LINE
  5
1CF
330
1F
100
AcDbEntity
  8
SK3
  6
SLD-Dashed
370
    18
100
AcDbLine
 10
10.6879485756
 20
9.9352979983
 30
0.0
 11
11.115
 21
9.9881297601
 31
0.0
  0
LINE
  5
1D0
330
1F
100
AcDbEntity
  8
SK3
  6
SLD-Dashed
370
    18
100
AcDbLine
 10
3.3100253255
 20
8.8686354442
 30
0.0
 11
3.4272021018
 21
9.3360481938
 31
0.0
  0
LINE
  5
1D1
330
1F
100
AcDbEntity
  8
SK3
  6
SLD-Dashed
370
    18
100
AcDbLine
 10
3.4272021018
 20
9.3360481938
 30
0.0
 11
3.6079550452
 21
9.7762966134
 31
0.0
  0
LINE
  5
1D2
330
1F
100
AcDbEntity
  8
SK3
  6
SLD-Dashed
370
    18
100
AcDbLine
 10
3.6079550452
 20
9.7762966134
 30
0.0
 11
3.8417794516
 21
10.1637950651
 31
0.0
  0
LINE
  5
1D3
330
1F
100
AcDbEntity
  8
SK3
  6
SLD-Dashed
370
    18
100
AcDbLine
 10
3.8417794516
 20
10.1637950651
 30
0.0
 11
4.1150862965
 21
10.4760235473
 31
0.0
  0
LINE
  5
1D4
330
1F
100
AcDbEntity
  8
SK3
  6
SLD-Dashed
370
    18
100
AcDbLine
 10
4.1150862965
 20
10.4760235473
 30
0.0
 11
4.4119919794
 21
10.6948364755
 31
0.0
  0
LINE
  5
1D5
330
1F
100
AcDbEntity
  8
SK3
  6
SLD-Dashed
370
    18
100
AcDbLine
 10
4.4119919794
 20
10.6948364755
 30
0.0
 11
4.7152414213
 21
10.8075172378
 31
0.0
  0
LINE
  5
1D6
330
1F
100
AcDbEntity
  8
SK3
  6
SLD-Dashed
370
    18
100
AcDbLine
 10
4.7152414213
 20
10.8075172378
 30
0.0
 11
5.0072108668
 21
10.8075172378
 31
0.0
  0
LINE
  5
1D7
330
1F
100
AcDbEntity
  8
SK3
  6
SLD-Dashed
370
    18
100
AcDbLine
 10
5.0072108668
 20
10.8075172378
 30
0.0
 11
5.2709321131
 21
10.6948364755
 31
0.0
  0
LINE
  5
1D8
330
1F
100
AcDbEntity
  8
SK3
  6
SLD-Dashed
370
    18
100
AcDbLine
 10
5.2709321131
 20
10.6948364755
 30
0.0
 11
5.4910786399
 21
10.4760235473
 31
0.0
  0
LINE
  5
1D9
330
1F
100
AcDbEntity
  8
SK3
  6
SLD-Dashed
370
    18
100
AcDbLine
 10
5.4910786399
 20
10.4760235473
 30
0.0
 11
5.6548563313
 21
10.1637950651
 31
0.0
  0
LINE
  5
1DA
330
1F
100
AcDbEntity
  8
SK3
  6
SLD-Dashed
370
    18
100
AcDbLine
 10
5.6548563313
 20
10.1637950651
 30
0.0
 11
5.7527470232
 21
9.7762966134
 31
0.0
  0
LINE
  5
1DB
330
1F
100
AcDbEntity
  8
SK3
  6
SLD-Dashed
370
    18
100
AcDbLine
 10
5.7527470232
 20
9.7762966134
 30
0.0
 11
5.7790616643
 21
9.3360481938
 31
0.0
  0
LINE
  5
1DC
330
1F
100
AcDbEntity
  8
SK3
  6
SLD-Dashed
370
    18
100
AcDbLine
 10
5.7790616643
 20
9.3360481938
 30
0.0
 11
5.7322709434
 21
8.8686354442
 31
0.0
  0
LINE
  5
1DD
330
1F
100
AcDbEntity
  8
SK3
  6
SLD-Dashed
370
    18
100
AcDbLine
 10
5.7322709434
 20
8.8686354442
 30
0.0
 11
5.6150941671
 21
8.4012226946
 31
0.0
  0
LINE
  5
1DE
330
1F
100
AcDbEntity
  8
SK3
  6
SLD-Dashed
370
    18
100
AcDbLine
 10
5.6150941671
 20
8.4012226946
 30
0.0
 11
5.4343412237
 21
7.960974275
 31
0.0
  0
LINE
  5
1DF
330
1F
100
AcDbEntity
  8
SK3
  6
SLD-Dashed
370
    18
100
AcDbLine
 10
5.4343412237
 20
7.960974275
 30
0.0
 11
5.2005168173
 21
7.5734758234
 31
0.0
  0
LINE
  5
1E0
330
1F
100
AcDbEntity
  8
SK3
  6
SLD-Dashed
370
    18
100
AcDbLine
 10
5.2005168173
 20
7.5734758234
 30
0.0
 11
4.9272099725
 21
7.2612473412
 31
0.0
  0
LINE
  5
1E1
330
1F
100
AcDbEntity
  8
SK3
  6
SLD-Dashed
370
    18
100
AcDbLine
 10
4.9272099725
 20
7.2612473412
 30
0.0
 11
4.6303042896
 21
7.0424344129
 31
0.0
  0
LINE
  5
1E2
330
1F
100
AcDbEntity
  8
SK3
  6
SLD-Dashed
370
    18
100
AcDbLine
 10
4.6303042896
 20
7.0424344129
 30
0.0
 11
4.3270548477
 21
6.9297536506
 31
0.0
  0
LINE
  5
1E3
330
1F
100
AcDbEntity
  8
SK3
  6
SLD-Dashed
370
    18
100
AcDbLine
 10
4.3270548477
 20
6.9297536506
 30
0.0
 11
4.0350854021
 21
6.9297536506
 31
0.0
  0
LINE
  5
1E4
330
1F
100
AcDbEntity
  8
SK3
  6
SLD-Dashed
370
    18
100
AcDbLine
 10
4.0350854021
 20
6.9297536506
 30
0.0
 11
3.7713641558
 21
7.0424344129
 31
0.0
  0
LINE
  5
1E5
330
1F
100
AcDbEntity
  8
SK3
  6
SLD-Dashed
370
    18
100
AcDbLine
 10
3.7713641558
 20
7.0424344129
 30
0.0
 11
3.551217629
 21
7.2612473412
 31
0.0
  0
LINE
  5
1E6
330
1F
100
AcDbEntity
  8
SK3
  6
SLD-Dashed
370
    18
100
AcDbLine
 10
3.551217629
 20
7.2612473412
 30
0.0
 11
3.3874399376
 21
7.5734758234
 31
0.0
  0
LINE
  5
1E7
330
1F
100
AcDbEntity
  8
SK3
  6
SLD-Dashed
370
    18
100
AcDbLine
 10
3.3874399376
 20
7.5734758234
 30
0.0
 11
3.2895492458
 21
7.960974275
 31
0.0
  0
LINE
  5
1E8
330
1F
100
AcDbEntity
  8
SK3
  6
SLD-Dashed
370
    18
100
AcDbLine
 10
3.2895492458
 20
7.960974275
 30
0.0
 11
3.2632346046
 21
8.4012226946
 31
0.0
  0
LINE
  5
1E9
330
1F
100
AcDbEntity
  8
SK3
  6
SLD-Dashed
370
    18
100
AcDbLine
 10
3.2632346046
 20
8.4012226946
 30
0.0
 11
3.3100253255
 21
8.8686354442
 31
0.0
  0
LINE
  5
1EA
330
1F
100
AcDbEntity
  8
SK3
  6
SLD-Dashed
370
    18
100
AcDbLine
 10
3.2
 20
7.1668508159
 30
0.0
 11
3.2
 21
11.3022369236
 31
0.0
  0
LINE
  5
1EB
330
1F
100
AcDbEntity
  8
SK3
  6
SLD-Dashed
370
    18
100
AcDbLine
 10
3.2
 20
-11.3098348849
 30
0.0
 11
5.0549767861
 21
-10.7960759675
 31
0.0
  0
LINE
  5
1EC
330
1F
100
AcDbEntity
  8
SK3
  6
SLD-Dashed
370
    18
100
AcDbLine
 10
3.9873194828
 20
-6.941194921
 30
0.0
 11
3.2
 21
-7.1592528547
 31
0.0
  0
LINE
  5
1ED
330
1F
100
AcDbEntity
  8
SK3
  6
SLD-Dashed
370
    18
100
AcDbLine
 10
5.0416310698
 20
-10.7478899544
 30
0.0
 11
15.6885307418
 21
-7.7990985247
 31
0.0
  0
LINE
  5
1EE
330
1F
100
AcDbEntity
  8
SK3
  6
SLD-Dashed
370
    18
100
AcDbLine
 10
14.6475648711
 20
-4.0405895043
 30
0.0
 11
4.0006651991
 21
-6.989380934
 31
0.0
  0
LINE
  5
1EF
330
1F
100
AcDbEntity
  8
SK3
  6
SLD-Dashed
370
    18
100
AcDbLine
 10
9.465
 20
-8.356503185
 30
0.0
 11
9.465
 21
-8.5505035831
 31
0.0
  0
LINE
  5
1F0
330
1F
100
AcDbEntity
  8
SK3
  6
SLD-Dashed
370
    18
100
AcDbLine
 10
12.765
 20
-8.5505035831
 30
0.0
 11
12.765
 21
-7.4430767649
 31
0.0
  0
LINE
  5
1F1
330
1F
100
AcDbEntity
  8
SK3
  6
SLD-Dashed
370
    18
100
AcDbLine
 10
9.465
 20
-2.3938462097
 30
0.0
 11
9.465
 21
-6.6417221816
 31
0.0
  0
LINE
  5
1F2
330
1F
100
AcDbEntity
  8
SK3
  6
SLD-Dashed
370
    18
100
AcDbLine
 10
12.765
 20
-5.728184276
 30
0.0
 11
12.765
 21
-1.8173481324
 31
0.0
  0
LINE
  5
1F3
330
1F
100
AcDbEntity
  8
SK3
  6
SLD-Dashed
370
    18
100
AcDbLine
 10
-61.75
 20
-8.8
 30
0.0
 11
-59.75
 21
-8.8
 31
0.0
  0
LINE
  5
1F4
330
1F
100
AcDbEntity
  8
SK3
  6
SLD-Dashed
370
    18
100
AcDbLine
 10
-59.75
 20
8.8
 30
0.0
 11
-61.75
 21
8.8
 31
0.0
  0
LINE
  5
1F5
330
1F
100
AcDbEntity
  8
SK3
  6
SLD-Dashed
370
    18
100
AcDbLine
 10
-61.75
 20
8.8
 30
0.0
 11
-62.2696152423
 21
8.5
 31
0.0
  0
LINE
  5
1F6
330
1F
100
AcDbEntity
  8
SK3
  6
SLD-Dashed
370
    18
100
AcDbLine
 10
-62.2696152423
 20
-8.5
 30
0.0
 11
-61.75
 21
-8.8
 31
0.0
  0
LINE
  5
1F7
330
1F
100
AcDbEntity
  8
SK3
  6
SLD-Dashed
370
    18
100
AcDbLine
 10
-59.75
 20
-8.8
 30
0.0
 11
-58.7107695155
 21
-7.0
 31
0.0
  0
LINE
  5
1F8
330
1F
100
AcDbEntity
  8
SK3
  6
SLD-Dashed
370
    18
100
AcDbLine
 10
-58.7107695155
 20
7.0
 30
0.0
 11
-59.75
 21
8.8
 31
0.0
  0
LINE
  5
1F9
330
1F
100
AcDbEntity
  8
SK3
  6
SLD-Dashed
370
    18
100
AcDbLine
 10
-66.9509618943
 20
-8.5
 30
0.0
 11
-62.2696152423
 21
-8.5
 31
0.0
  0
LINE
  5
1FA
330
1F
100
AcDbEntity
  8
SK3
  6
SLD-Dashed
370
    18
100
AcDbLine
 10
-62.2696152423
 20
8.5
 30
0.0
 11
-66.9509618943
 21
8.5
 31
0.0
  0
LINE
  5
1FB
330
1F
100
AcDbEntity
  8
SK3
  6
SLD-Dashed
370
    18
100
AcDbLine
 10
28.2
 20
-24.0
 30
0.0
 11
28.2
 21
-22.6
 31
0.0
  0
LINE
  5
1FC
330
1F
100
AcDbEntity
  8
SK3
  6
SLD-Dashed
370
    18
100
AcDbLine
 10
11.75
 20
-7.0
 30
0.0
 11
13.4023667023
 21
-4.25
 31
0.0
  0
LINE
  5
1FD
330
1F
100
AcDbEntity
  8
SK3
  6
SLD-Dashed
370
    18
100
AcDbLine
 10
13.4023667023
 20
4.25
 30
0.0
 11
11.75
 21
7.0
 31
0.0
  0
LINE
  5
1FE
330
1F
100
AcDbEntity
  8
SK3
  6
SLD-Dashed
370
    18
100
AcDbLine
 10
-58.7107695155
 20
-7.0
 30
0.0
 11
11.75
 21
-7.0
 31
0.0
  0
LINE
  5
1FF
330
1F
100
AcDbEntity
  8
SK3
  6
SLD-Dashed
370
    18
100
AcDbLine
 10
11.75
 20
7.0
 30
0.0
 11
-58.7107695155
 21
7.0
 31
0.0
  0
LINE
  5
200
330
1F
100
AcDbEntity
  8
SK3
  6
SLD-Dashed
370
    18
100
AcDbLine
 10
54.0
 20
5.1160254038
 30
0.0
 11
52.5
 21
4.25
 31
0.0
  0
LINE
  5
201
330
1F
100
AcDbEntity
  8
SK3
  6
SLD-Dashed
370
    18
100
AcDbLine
 10
52.5
 20
-4.25
 30
0.0
 11
54.0
 21
-5.1160254038
 31
0.0
  0
LINE
  5
202
330
1F
100
AcDbEntity
  8
SK3
  6
SLD-Dashed
370
    18
100
AcDbLine
 10
6.1
 20
24.8
 30
0.0
 11
6.1
 21
20.3
 31
0.0
  0
LINE
  5
203
330
1F
100
AcDbEntity
  8
SK3
  6
SLD-Dashed
370
    18
100
AcDbLine
 10
16.1
 20
20.3
 30
0.0
 11
16.1
 21
24.8
 31
0.0
  0
LINE
  5
204
330
1F
100
AcDbEntity
  8
SK3
  6
SLD-Dashed
370
    18
100
AcDbLine
 10
52.5
 20
4.25
 30
0.0
 11
13.4023667023
 21
4.25
 31
0.0
  0
LINE
  5
205
330
1F
100
AcDbEntity
  8
SK3
  6
SLD-Dashed
370
    18
100
AcDbLine
 10
13.4023667023
 20
-4.25
 30
0.0
 11
52.5
 21
-4.25
 31
0.0
  0
LINE
  5
206
330
1F
100
AcDbEntity
  8
SK3
  6
SLD-Dashed
370
    18
100
AcDbLine
 10
9.465
 20
6.6432994571
 30
0.0
 11
9.465
 21
2.3935120997
 31
0.0
  0
LINE
  5
207
330
1F
100
AcDbEntity
  8
SK3
  6
SLD-Dashed
370
    18
100
AcDbLine
 10
12.765
 20
1.8200262342
 30
0.0
 11
12.765
 21
5.7292737689
 31
0.0
  0
LINE
  5
208
330
1F
100
AcDbEntity
  8
SK3
  6
SLD-Dashed
370
    18
100
AcDbLine
 10
4.0006651991
 20
6.989380934
 30
0.0
 11
14.6475648711
 21
4.0405895043
 31
0.0
  0
LINE
  5
209
330
1F
100
AcDbEntity
  8
SK3
  6
SLD-Dashed
370
    18
100
AcDbLine
 10
15.6885307418
 20
7.7990985247
 30
0.0
 11
5.0416310698
 21
10.7478899544
 31
0.0
  0
LINE
  5
20A
330
1F
100
AcDbEntity
  8
SK3
  6
SLD-Dashed
370
    18
100
AcDbLine
 10
9.465
 20
8.4376369358
 30
0.0
 11
9.465
 21
8.3559232747
 31
0.0
  0
LINE
  5
20B
330
1F
100
AcDbEntity
  8
SK3
  6
SLD-Dashed
370
    18
100
AcDbLine
 10
12.765
 20
7.4414734354
 30
0.0
 11
12.765
 21
8.4376369358
 31
0.0
  0
LINE
  5
20C
330
1F
100
AcDbEntity
  8
SK3
  6
SLD-Dashed
370
    18
100
AcDbLine
 10
3.2
 20
7.1592528547
 30
0.0
 11
3.9873194828
 21
6.941194921
 31
0.0
  0
LINE
  5
20D
330
1F
100
AcDbEntity
  8
SK3
  6
SLD-Dashed
370
    18
100
AcDbLine
 10
5.0549767861
 20
10.7960759675
 30
0.0
 11
3.2
 21
11.3098348849
 31
0.0
  0
LINE
  5
20E
330
1F
100
AcDbEntity
  8
SK3
  6
SLD-Solid
370
    18
100
AcDbLine
 10
-35.25
 20
8.0
 30
0.0
 11
-59.2881197846
 21
8.0
 31
0.0
  0
LINE
  5
20F
330
1F
100
AcDbEntity
  8
SK3
  6
SLD-Solid
370
    18
100
AcDbLine
 10
-59.2881197846
 20
-8.0
 30
0.0
 11
-35.25
 21
-8.0
 31
0.0
  0
LINE
  5
210
330
1F
100
AcDbEntity
  8
SK3
  6
SLD-Solid
370
    18
100
AcDbLine
 10
-35.25
 20
8.0
 30
0.0
 11
-35.25
 21
7.918571535
 31
0.0
  0
LINE
  5
211
330
1F
100
AcDbEntity
  8
SK3
  6
SLD-Solid
370
    18
100
AcDbLine
 10
-35.2500176455
 20
7.918571535
 30
0.0
 11
-35.25
 21
7.6759437889
 31
0.0
  0
LINE
  5
212
330
1F
100
AcDbEntity
  8
SK3
  6
SLD-Solid
370
    18
100
AcDbLine
 10
-35.25
 20
7.6759437889
 30
0.0
 11
-35.25
 21
7.2770559628
 31
0.0
  0
LINE
  5
213
330
1F
100
AcDbEntity
  8
SK3
  6
SLD-Solid
370
    18
100
AcDbLine
 10
-35.25
 20
7.2770559628
 30
0.0
 11
-35.25
 21
6.7300282626
 31
0.0
  0
LINE
  5
214
330
1F
100
AcDbEntity
  8
SK3
  6
SLD-Solid
370
    18
100
AcDbLine
 10
-35.25
 20
6.7300282626
 30
0.0
 11
-35.25
 21
6.0459965948
 31
0.0
  0
LINE
  5
215
330
1F
100
AcDbEntity
  8
SK3
  6
SLD-Solid
370
    18
100
AcDbLine
 10
-35.25
 20
6.0459965948
 30
0.0
 11
-35.25
 21
5.2388858716
 31
0.0
  0
LINE
  5
216
330
1F
100
AcDbEntity
  8
SK3
  6
SLD-Solid
370
    18
100
AcDbLine
 10
-35.25
 20
5.2388858716
 30
0.0
 11
-35.25
 21
4.3251265396
 31
0.0
  0
LINE
  5
217
330
1F
100
AcDbEntity
  8
SK3
  6
SLD-Solid
370
    18
100
AcDbLine
 10
-35.25
 20
4.3251265396
 30
0.0
 11
-35.25
 21
3.323320104
 31
0.0
  0
LINE
  5
218
330
1F
100
AcDbEntity
  8
SK3
  6
SLD-Solid
370
    18
100
AcDbLine
 10
-35.25
 20
3.323320104
 30
0.0
 11
-35.25
 21
2.2538604547
 31
0.0
  0
LINE
  5
219
330
1F
100
AcDbEntity
  8
SK3
  6
SLD-Solid
370
    18
100
AcDbLine
 10
-35.25
 20
2.2538604547
 30
0.0
 11
-35.25
 21
1.1385187062
 31
0.0
  0
LINE
  5
21A
330
1F
100
AcDbEntity
  8
SK3
  6
SLD-Solid
370
    18
100
AcDbLine
 10
-35.25
 20
1.1385187062
 30
0.0
 11
-35.25
 21
0.0
 31
0.0
  0
LINE
  5
21B
330
1F
100
AcDbEntity
  8
SK3
  6
SLD-Solid
370
    18
100
AcDbLine
 10
-35.25
 20
0.0
 30
0.0
 11
-35.25
 21
-1.1385187062
 31
0.0
  0
LINE
  5
21C
330
1F
100
AcDbEntity
  8
SK3
  6
SLD-Solid
370
    18
100
AcDbLine
 10
-35.25
 20
-1.1385187062
 30
0.0
 11
-35.25
 21
-2.2538604547
 31
0.0
  0
LINE
  5
21D
330
1F
100
AcDbEntity
  8
SK3
  6
SLD-Solid
370
    18
100
AcDbLine
 10
-35.25
 20
-2.2538604547
 30
0.0
 11
-35.25
 21
-3.323320104
 31
0.0
  0
LINE
  5
21E
330
1F
100
AcDbEntity
  8
SK3
  6
SLD-Solid
370
    18
100
AcDbLine
 10
-35.25
 20
-3.323320104
 30
0.0
 11
-35.25
 21
-4.3251265396
 31
0.0
  0
LINE
  5
21F
330
1F
100
AcDbEntity
  8
SK3
  6
SLD-Solid
370
    18
100
AcDbLine
 10
-35.25
 20
-4.3251265396
 30
0.0
 11
-35.25
 21
-5.2388858716
 31
0.0
  0
LINE
  5
220
330
1F
100
AcDbEntity
  8
SK3
  6
SLD-Solid
370
    18
100
AcDbLine
 10
-35.25
 20
-5.2388858716
 30
0.0
 11
-35.25
 21
-6.0459965948
 31
0.0
  0
LINE
  5
221
330
1F
100
AcDbEntity
  8
SK3
  6
SLD-Solid
370
    18
100
AcDbLine
 10
-35.25
 20
-6.0459965948
 30
0.0
 11
-35.25
 21
-6.7300282626
 31
0.0
  0
LINE
  5
222
330
1F
100
AcDbEntity
  8
SK3
  6
SLD-Solid
370
    18
100
AcDbLine
 10
-35.25
 20
-6.7300282626
 30
0.0
 11
-35.25
 21
-7.2770559628
 31
0.0
  0
LINE
  5
223
330
1F
100
AcDbEntity
  8
SK3
  6
SLD-Solid
370
    18
100
AcDbLine
 10
-35.25
 20
-7.2770559628
 30
0.0
 11
-35.25
 21
-7.6759437889
 31
0.0
  0
LINE
  5
224
330
1F
100
AcDbEntity
  8
SK3
  6
SLD-Solid
370
    18
100
AcDbLine
 10
-35.25
 20
-7.6759437889
 30
0.0
 11
-35.25
 21
-7.918571535
 31
0.0
  0
LINE
  5
225
330
1F
100
AcDbEntity
  8
SK3
  6
SLD-Solid
370
    18
100
AcDbLine
 10
-35.25
 20
-7.918571535
 30
0.0
 11
-35.25
 21
-8.0
 31
0.0
  0
LINE
  5
226
330
1F
100
AcDbEntity
  8
SK3
  6
SLD-Solid
370
    18
100
AcDbLine
 10
27.0
 20
-5.0
 30
0.0
 11
39.5114866532
 21
-5.0
 31
0.0
  0
LINE
  5
227
330
1F
100
AcDbEntity
  8
SK3
  6
SLD-Solid
370
    18
100
AcDbLine
 10
40.6781503757
 20
-5.0
 30
0.0
 11
53.7990381057
 21
-5.0
 31
0.0
  0
LINE
  5
228
330
1F
100
AcDbEntity
  8
SK3
  6
SLD-Solid
370
    18
100
AcDbLine
 10
53.7990381057
 20
5.0
 30
0.0
 11
40.6781503757
 21
5.0
 31
0.0
  0
LINE
  5
229
330
1F
100
AcDbEntity
  8
SK3
  6
SLD-Solid
370
    18
100
AcDbLine
 10
39.5114866532
 20
5.0
 30
0.0
 11
27.0
 21
5.0
 31
0.0
  0
LINE
  5
22A
330
1F
100
AcDbEntity
  8
SK3
  6
SLD-Solid
370
    18
100
AcDbLine
 10
27.0
 20
-5.0
 30
0.0
 11
27.0
 21
-4.9639375295
 31
0.0
  0
LINE
  5
22B
330
1F
100
AcDbEntity
  8
SK3
  6
SLD-Solid
370
    18
100
AcDbLine
 10
27.0
 20
4.4333445626
 30
0.0
 11
27.0
 21
4.6785514654
 31
0.0
  0
LINE
  5
22C
330
1F
100
AcDbEntity
  8
SK3
  6
SLD-Solid
370
    18
100
AcDbLine
 10
27.0
 20
-3.8724656416
 30
0.0
 11
27.0
 21
-4.4333445626
 31
0.0
  0
LINE
  5
22D
330
1F
100
AcDbEntity
  8
SK3
  6
SLD-Solid
370
    18
100
AcDbLine
 10
27.0
 20
4.4333445626
 30
0.0
 11
27.0
 21
3.8724656416
 31
0.0
  0
LINE
  5
22E
330
1F
100
AcDbEntity
  8
SK3
  6
SLD-Solid
370
    18
100
AcDbLine
 10
26.9999408696
 20
-4.9639375295
 30
0.0
 11
27.0
 21
-4.8562703185
 31
0.0
  0
LINE
  5
22F
330
1F
100
AcDbEntity
  8
SK3
  6
SLD-Solid
370
    18
100
AcDbLine
 10
27.0
 20
-4.8562703185
 30
0.0
 11
27.0
 21
-4.6785514654
 31
0.0
  0
LINE
  5
230
330
1F
100
AcDbEntity
  8
SK3
  6
SLD-Solid
370
    18
100
AcDbLine
 10
27.0
 20
-4.6785514654
 30
0.0
 11
27.0
 21
-4.4333445626
 31
0.0
  0
LINE
  5
231
330
1F
100
AcDbEntity
  8
SK3
  6
SLD-Solid
370
    18
100
AcDbLine
 10
26.9999408696
 20
-2.312024219
 30
0.0
 11
27.0
 21
-1.7638469846
 31
0.0
  0
LINE
  5
232
330
1F
100
AcDbEntity
  8
SK3
  6
SLD-Solid
370
    18
100
AcDbLine
 10
27.0
 20
-1.7638469846
 30
0.0
 11
27.0
 21
-1.1902262783
 31
0.0
  0
LINE
  5
233
330
1F
100
AcDbEntity
  8
SK3
  6
SLD-Solid
370
    18
100
AcDbLine
 10
27.0
 20
-1.1902262783
 30
0.0
 11
27.0
 21
-0.5994365719
 31
0.0
  0
LINE
  5
234
330
1F
100
AcDbEntity
  8
SK3
  6
SLD-Solid
370
    18
100
AcDbLine
 10
27.0
 20
-0.5994365719
 30
0.0
 11
27.0
 21
0.0
 31
0.0
  0
LINE
  5
235
330
1F
100
AcDbEntity
  8
SK3
  6
SLD-Solid
370
    18
100
AcDbLine
 10
27.0
 20
0.0
 30
0.0
 11
27.0
 21
0.5994365719
 31
0.0
  0
LINE
  5
236
330
1F
100
AcDbEntity
  8
SK3
  6
SLD-Solid
370
    18
100
AcDbLine
 10
27.0
 20
0.5994365719
 30
0.0
 11
27.0
 21
1.1902262783
 31
0.0
  0
LINE
  5
237
330
1F
100
AcDbEntity
  8
SK3
  6
SLD-Solid
370
    18
100
AcDbLine
 10
27.0
 20
1.1902262783
 30
0.0
 11
27.0
 21
1.7638469846
 31
0.0
  0
LINE
  5
238
330
1F
100
AcDbEntity
  8
SK3
  6
SLD-Solid
370
    18
100
AcDbLine
 10
27.0
 20
1.7638469846
 30
0.0
 11
27.0
 21
2.312024219
 31
0.0
  0
LINE
  5
239
330
1F
100
AcDbEntity
  8
SK3
  6
SLD-Solid
370
    18
100
AcDbLine
 10
26.9999408696
 20
4.6785514654
 30
0.0
 11
27.0
 21
4.8562703185
 31
0.0
  0
LINE
  5
23A
330
1F
100
AcDbEntity
  8
SK3
  6
SLD-Solid
370
    18
100
AcDbLine
 10
27.0
 20
4.8562703185
 30
0.0
 11
27.0
 21
4.9639375295
 31
0.0
  0
LINE
  5
23B
330
1F
100
AcDbEntity
  8
SK3
  6
SLD-Solid
370
    18
100
AcDbLine
 10
27.0
 20
4.9639375295
 30
0.0
 11
27.0
 21
5.0
 31
0.0
  0
LINE
  5
23C
330
1F
100
AcDbEntity
  8
SK1
  6
SLD-Solid
370
    18
100
AcDbLine
 10
56.2784945779
 20
4.25
 30
0.0
 11
54.0
 21
4.25
 31
0.0
  0
LINE
  5
23D
330
1F
100
AcDbEntity
  8
SK1
  6
SLD-Solid
370
    18
100
AcDbLine
 10
54.0
 20
-4.25
 30
0.0
 11
56.2784945779
 21
-4.25
 31
0.0
  0
LINE
  5
23E
330
1F
100
AcDbEntity
  8
4
  6
SLD-Center
370
    18
100
AcDbLine
 10
56.0
 20
0.0
 30
0.0
 11
0.7024113533
 21
0.0
 31
0.0
  0
LINE
  5
23F
330
1F
100
AcDbEntity
  8
SK4
  6
SLD-Center
370
    18
100
AcDbLine
 10
55.6626615781
 20
0.0
 30
0.0
 11
-68.9509618943
 21
0.0
 31
0.0
  0
ARC
  5
240
330
1F
100
AcDbEntity
  8
SK1
  6
SLD-Solid
370
    25
100
AcDbCircle
 10
61.5784945779
 20
6.2
 30
0.0
 40
0.3000000000000256
100
AcDbArc
 50
90.0
 51
180.0
  0
ARC
  5
241
330
1F
100
AcDbEntity
  8
SK1
  6
SLD-Solid
370
    25
100
AcDbCircle
 10
61.5784945779
 20
-6.2
 30
0.0
 40
0.3000000000000256
100
AcDbArc
 50
180.0
 51
270.0
  0
ARC
  5
242
330
1F
100
AcDbEntity
  8
1
  6
SLD-Solid
370
    25
100
AcDbCircle
 10
21.05
 20
26.0
 30
0.0
 40
2.000000000000004
100
AcDbArc
 50
216.8997290056
 51
270.0
  0
ARC
  5
243
330
1F
100
AcDbEntity
  8
1
  6
SLD-Solid
370
    25
100
AcDbCircle
 10
34.5
 20
-23.5
 30
0.0
 40
0.5000000000000071
100
AcDbArc
 50
270.0
 51
0.0
  0
ARC
  5
244
330
1F
100
AcDbEntity
  8
1
  6
SLD-Solid
370
    25
100
AcDbCircle
 10
34.5
 20
23.5
 30
0.0
 40
0.5000000000000071
100
AcDbArc
 50
0.0
 51
90.0
  0
ARC
  5
245
330
1F
100
AcDbEntity
  8
1
  6
SLD-Solid
370
    25
100
AcDbCircle
 10
2.45
 20
22.79
 30
0.0
 40
0.7500000000000018
100
AcDbArc
 50
245.0
 51
0.0
  0
ARC
  5
246
330
1F
100
AcDbEntity
  8
1
  6
SLD-Solid
370
    25
100
AcDbCircle
 10
2.45
 20
-22.79
 30
0.0
 40
0.750000000000011
100
AcDbArc
 50
14.6414081961
 51
115.0
  0
ARC
  5
247
330
1F
100
AcDbEntity
  8
SK1
  6
SLD-Solid
370
    25
100
AcDbCircle
 10
-67.25
 20
11.4070377962
 30
0.0
 40
1.000000000000004
100
AcDbArc
 50
98.2972222222
 51
180.0
  0
ARC
  5
248
330
1F
100
AcDbEntity
  8
SK1
  6
SLD-Solid
370
    25
100
AcDbCircle
 10
-67.25
 20
-11.4070377962
 30
0.0
 40
1.000000000000002
100
AcDbArc
 50
180.0
 51
261.7027777778
  0
ARC
  5
249
330
1F
100
AcDbEntity
  8
SK1
  6
SLD-Solid
370
    25
100
AcDbCircle
 10
35.5
 20
11.8725
 30
0.0
 40
1.125000000000003
100
AcDbArc
 50
243.6122000388
 51
287.5
  0
ARC
  5
24A
330
1F
100
AcDbEntity
  8
SK1
  6
SLD-Solid
370
    25
100
AcDbCircle
 10
35.5
 20
-11.8725
 30
0.0
 40
1.125000000000003
100
AcDbArc
 50
72.5
 51
116.3877999612
  0
SPLINE
  5
24B
330
1F
100
AcDbEntity
  8
SK1
  6
SLD-Solid
370
    25
100
AcDbSpline
210
0.0
220
0.0
230
1.0
 70
     8
 71
     3
 72
    20
 73
    16
 74
     0
 42
0.000000001
 43
0.00000001
 40
0.0
 40
0.0
 40
0.0
 40
0.0
 40
0.0036451136723192
 40
0.0100612994846316
 40
0.0209645332860528
 40
0.0561009723814657
 40
0.2208588400089323
 40
0.5999677019294515
 40
0.7108897870051659
 40
0.8416591672889302
 40
0.9071436694017662
 40
0.9371200245184943
 40
0.9673786734002802
 40
0.9857438952192472
 40
1.0
 40
1.0
 40
1.0
 40
1.0
 10
35.02961557408111
 20
-0.5698738895580403
 30
0.0
 10
35.03223750740643
 20
-0.5700683494323129
 30
0.0
 10
35.03947460857423
 20
-0.5706051006035308
 30
0.0
 10
35.05340558684787
 20
-0.5772920610851544
 30
0.0
 10
35.08085558374808
 20
-0.6036441051334752
 30
0.0
 10
35.1505218498149
 20
-0.74052711196115
 30
0.0
 10
35.25371378622859
 20
-1.143559910103675
 30
0.0
 10
35.32798336230361
 20
-1.612633809389658
 30
0.0
 10
35.30733975712344
 20
-2.058268509022909
 30
0.0
 10
35.26407992371014
 20
-2.276793806918257
 30
0.0
 10
35.19029789946736
 20
-2.424050989199004
 30
0.0
 10
35.12859958744481
 20
-2.490924414906511
 30
0.0
 10
35.07875876958205
 20
-2.520039582788656
 30
0.0
 10
35.03337367864538
 20
-2.528060330335914
 30
0.0
 10
35.01014941829526
 20
-2.524315114592005
 30
0.0
 10
34.99999999999999
 20
-2.522678388142262
 30
0.0
  0
SPLINE
  5
24C
330
1F
100
AcDbEntity
  8
SK1
  6
SLD-Solid
370
    25
100
AcDbSpline
210
0.0
220
0.0
230
1.0
 70
     8
 71
     3
 72
    24
 73
    20
 74
     0
 42
0.000000001
 43
0.00000001
 40
0.0
 40
0.0
 40
0.0
 40
0.0
 40
0.0080673742767509
 40
0.0297883839558889
 40
0.0502793154634963
 40
0.0842077517444877
 40
0.1444456158056576
 40
0.2734040009268673
 40
0.6626820748147219
 40
0.770880060578657
 40
0.8444470328379386
 40
0.8943575628437905
 40
0.9282894446288548
 40
0.9515127566320444
 40
0.9676073882240691
 40
0.9847373928665606
 40
0.9917224983677944
 40
0.9976378880553336
 40
1.0
 40
1.0
 40
1.0
 40
1.0
 10
35.0
 20
2.522678388142255
 30
0.0
 10
35.0056918003577
 20
2.52376219068514
 30
0.0
 10
35.0267084940971
 20
2.527764078433518
 30
0.0
 10
35.06362292565794
 20
2.524148617876268
 30
0.0
 10
35.11409424414953
 20
2.501651062214935
 30
0.0
 10
35.17587491519598
 20
2.445053167355403
 30
0.0
 10
35.25547647584875
 20
2.303571510796264
 30
0.0
 10
35.34633225156244
 20
1.893411085091487
 30
0.0
 10
35.30299486141304
 20
1.437176209250782
 30
0.0
 10
35.2232997088483
 20
1.035802034085632
 30
0.0
 10
35.18258030641276
 20
0.8745125369964899
 30
0.0
 10
35.14985385647465
 20
0.7663662395166887
 30
0.0
 10
35.12362140856422
 20
0.6941375832221
 30
0.0
 10
35.10235141648114
 20
0.6459678781840228
 30
0.0
 10
35.08269762005047
 20
0.6106029495091154
 30
0.0
 10
35.06518855566853
 20
0.5871190089107338
 30
0.0
 10
35.04777100218946
 20
0.5741799621187121
 30
0.0
 10
35.03725606549886
 20
0.5702412537432477
 30
0.0
 10
35.03131184772025
 20
0.5699554484721487
 30
0.0
 10
35.02961557408111
 20
0.569873889558023
 30
0.0
  0
SPLINE
  5
24D
330
1F
100
AcDbEntity
  8
SK1
  6
SLD-Solid
370
    25
100
AcDbSpline
210
0.0
220
0.0
230
1.0
 70
     8
 71
     3
 72
    10
 73
     6
 74
     0
 42
0.000000001
 43
0.00000001
 40
0.0
 40
0.0
 40
0.0
 40
0.0
 40
0.3163970595221873
 40
0.6381225222235938
 40
1.0
 40
1.0
 40
1.0
 40
1.0
 10
40.59999999999999
 20
0.4467661580737706
 30
0.0
 10
40.55634919315575
 20
0.893343776389298
 30
0.0
 10
40.46831246170628
 20
1.794019770655707
 30
0.0
 10
40.10242544840155
 20
3.167718536445527
 30
0.0
 10
39.76713110402046
 20
4.075823233974568
 30
0.0
 10
39.58963702891817
 20
4.556544743552951
 30
0.0
  0
SPLINE
  5
24E
330
1F
100
AcDbEntity
  8
SK1
  6
SLD-Solid
370
    25
100
AcDbSpline
210
0.0
220
0.0
230
1.0
 70
     8
 71
     3
 72
    10
 73
     6
 74
     0
 42
0.000000001
 43
0.00000001
 40
0.0
 40
0.0
 40
0.0
 40
0.0
 40
0.4479448328922596
 40
0.9027822398770493
 40
1.0
 40
1.0
 40
1.0
 40
1.0
 10
39.58963702891815
 20
-4.556544743552955
 30
0.0
 10
39.80796798990689
 20
-3.960963469758126
 30
0.0
 10
40.24798939326423
 20
-2.760636650686096
 30
0.0
 10
40.53877841911432
 20
-1.364011903933843
 30
0.0
 10
40.59083309234797
 20
-0.584108365264159
 30
0.0
 10
40.59999999999999
 20
-0.4467661580737775
 30
0.0
  0
SPLINE
  5
24F
330
1F
100
AcDbEntity
  8
SK1
  6
SLD-Solid
370
    25
100
AcDbSpline
210
0.0
220
0.0
230
1.0
 70
    24
 71
     3
 72
    10
 73
     6
 74
     0
 42
0.000000001
 43
0.00000001
 40
0.0
 40
0.0
 40
0.0
 40
0.0
 40
0.4469301939747594
 40
0.9007442175022056
 40
1.0
 40
1.0
 40
1.0
 40
1.0
 10
39.58963702891815
 20
4.980999999999999
 30
0.0
 10
39.8079240651807
 20
4.981000000000006
 30
0.0
 10
40.24786029754968
 20
4.981000000000013
 30
0.0
 10
40.53922279403015
 20
4.980999999999999
 30
0.0
 10
40.59075233404499
 20
4.981000000000006
 30
0.0
 10
40.60000000000001
 20
4.981000000000006
 30
0.0
  0
SPLINE
  5
250
330
1F
100
AcDbEntity
  8
SK1
  6
SLD-Solid
370
    25
100
AcDbSpline
210
0.0
220
0.0
230
1.0
 70
    24
 71
     3
 72
    10
 73
     6
 74
     0
 42
0.000000001
 43
0.00000001
 40
0.0
 40
0.0
 40
0.0
 40
0.0
 40
0.3171071243465323
 40
0.6396162682836666
 40
1.0
 40
1.0
 40
1.0
 40
1.0
 10
40.59999999999999
 20
-4.981000000000003
 30
0.0
 10
40.55661696965908
 20
-4.981000000000003
 30
0.0
 10
40.4691118654118
 20
-4.981000000000003
 30
0.0
 10
40.10244827833159
 20
-4.98100000000001
 30
0.0
 10
39.76677972571039
 20
-4.98100000000001
 30
0.0
 10
39.58963702891815
 20
-4.981000000000017
 30
0.0
  0
SPLINE
  5
251
330
1F
100
AcDbEntity
  8
1
  6
SLD-Solid
370
    25
100
AcDbSpline
210
0.0
220
0.0
230
1.0
 70
    24
 71
     2
 72
     6
 73
     3
 74
     0
 42
0.000000001
 43
0.00000001
 40
0.0
 40
0.0
 40
0.0
 40
0.25
 40
0.25
 40
0.25
 10
3.200000000000536
 20
18.35000000000205
 30
0.0
 10
3.215534372041848
 20
18.35000000000204
 30
0.0
 10
3.247177760215298
 20
18.35000000000204
 30
0.0
  0
SPLINE
  5
252
330
1F
100
AcDbEntity
  8
1
  6
SLD-Solid
370
    25
100
AcDbSpline
210
0.0
220
0.0
230
1.0
 70
    24
 71
     3
 72
     8
 73
     4
 74
     0
 42
0.000000001
 43
0.00000001
 40
0.25
 40
0.25
 40
0.25
 40
0.25
 40
0.5
 40
0.5
 40
0.5
 40
0.5
 10
3.247177760215298
 20
18.35000000000204
 30
0.0
 10
3.278821148388733
 20
18.35000000000204
 30
0.0
 10
3.326877628884533
 20
18.35000000000204
 30
0.0
 10
3.391635253098366
 20
18.35000000000204
 30
0.0
  0
SPLINE
  5
253
330
1F
100
AcDbEntity
  8
1
  6
SLD-Solid
370
    25
100
AcDbSpline
210
0.0
220
0.0
230
1.0
 70
    24
 71
     3
 72
     8
 73
     4
 74
     0
 42
0.000000001
 43
0.00000001
 40
0.5
 40
0.5
 40
0.5
 40
0.5
 40
0.75
 40
0.75
 40
0.75
 40
0.75
 10
3.391635253098366
 20
18.35000000000204
 30
0.0
 10
3.456392877312184
 20
18.35000000000204
 30
0.0
 10
3.537993436572878
 20
18.35000000000204
 30
0.0
 10
3.634449963810002
 20
18.35000000000204
 30
0.0
  0
SPLINE
  5
254
330
1F
100
AcDbEntity
  8
1
  6
SLD-Solid
370
    25
100
AcDbSpline
210
0.0
220
0.0
230
1.0
 70
    24
 71
     3
 72
     8
 73
     4
 74
     0
 42
0.000000001
 43
0.00000001
 40
0.75
 40
0.75
 40
0.75
 40
0.75
 40
1.0
 40
1.0
 40
1.0
 40
1.0
 10
3.634449963810002
 20
18.35000000000204
 30
0.0
 10
3.730906491047112
 20
18.35000000000204
 30
0.0
 10
3.839318178830167
 20
18.35000000000203
 30
0.0
 10
3.950000000000537
 20
18.35000000000203
 30
0.0
  0
SPLINE
  5
255
330
1F
100
AcDbEntity
  8
1
  6
SLD-Solid
370
    25
100
AcDbSpline
210
0.0
220
0.0
230
1.0
 70
     8
 71
     3
 72
    15
 73
    11
 74
     0
 42
0.000000001
 43
0.00000001
 40
0.0
 40
0.0
 40
0.0
 40
0.0
 40
0.0699469675561584
 40
0.1232495019638465
 40
0.2469139614485293
 40
0.4943135207057847
 40
0.6227252915460659
 40
0.7456587922638211
 40
0.8736576760324578
 40
1.0
 40
1.0
 40
1.0
 40
1.0
 10
3.200000000000536
 20
-29.82881899210943
 30
0.0
 10
3.200848912609411
 20
-29.85599822583767
 30
0.0
 10
3.202344732369883
 20
-29.90388918005348
 30
0.0
 10
3.217310445197699
 20
-29.99880913235629
 30
0.0
 10
3.264329660791793
 20
-30.15776624446885
 30
0.0
 10
3.37477644251552
 20
-30.32517365969656
 30
0.0
 10
3.525854583652039
 20
-30.45043366481313
 30
0.0
 10
3.657533834610746
 20
-30.5211902300187
 30
0.0
 10
3.800109003992691
 20
-30.56674492949666
 30
0.0
 10
3.900253753577138
 20
-30.57249983579842
 30
0.0
 10
3.950000000000439
 20
-30.57535854769514
 30
0.0
  0
SPLINE
  5
256
330
1F
100
AcDbEntity
  8
1
  6
SLD-Solid
370
    25
100
AcDbSpline
210
0.0
220
0.0
230
1.0
 70
    24
 71
     3
 72
     8
 73
     4
 74
     0
 42
0.000000001
 43
0.00000001
 40
0.0
 40
0.0
 40
0.0
 40
0.0
 40
0.2500000000000016
 40
0.2500000000000016
 40
0.2500000000000016
 40
0.2500000000000016
 10
18.29999999999998
 20
18.35
 30
0.0
 10
18.41088345614664
 20
18.35000000000002
 30
0.0
 10
18.52024195941295
 20
18.35
 30
0.0
 10
18.61523568267819
 20
18.35
 30
0.0
  0
SPLINE
  5
257
330
1F
100
AcDbEntity
  8
1
  6
SLD-Solid
370
    25
100
AcDbSpline
210
0.0
220
0.0
230
1.0
 70
    24
 71
     3
 72
     8
 73
     4
 74
     0
 42
0.000000001
 43
0.00000001
 40
0.2500000000000016
 40
0.2500000000000016
 40
0.2500000000000016
 40
0.2500000000000016
 40
0.5000000000000032
 40
0.5000000000000032
 40
0.5000000000000032
 40
0.5000000000000032
 10
18.61523568267819
 20
18.35
 30
0.0
 10
18.71022940594343
 20
18.35
 30
0.0
 10
18.79255896697543
 20
18.35
 30
0.0
 10
18.85764337275063
 20
18.35
 30
0.0
  0
SPLINE
  5
258
330
1F
100
AcDbEntity
  8
1
  6
SLD-Solid
370
    25
100
AcDbSpline
210
0.0
220
0.0
230
1.0
 70
    24
 71
     2
 72
     6
 73
     3
 74
     0
 42
0.000000001
 43
0.00000001
 40
0.5000000000000032
 40
0.5000000000000032
 40
0.5000000000000032
 40
1.0
 40
1.0
 40
1.0
 10
18.85764337275063
 20
18.35
 30
0.0
 10
18.98781218430101
 20
18.35
 30
0.0
 10
19.04999999999998
 20
18.35
 30
0.0
  0
SPLINE
  5
259
330
1F
100
AcDbEntity
  8
1
  6
SLD-Solid
370
    25
100
AcDbSpline
210
0.0
220
0.0
230
1.0
 70
     8
 71
     3
 72
    17
 73
    13
 74
     0
 42
0.000000001
 43
0.00000001
 40
0.0
 40
0.0
 40
0.0
 40
0.0
 40
0.0628888393441827
 40
0.1261871275328253
 40
0.189903753425593
 40
0.2540473816739963
 40
0.3769828759171494
 40
0.5053904312548285
 40
0.7526209933065203
 40
0.876363866500209
 40
0.9298286820637424
 40
1.0
 40
1.0
 40
1.0
 40
1.0
 10
18.29999999999998
 20
-30.57536093714896
 30
0.0
 10
18.32473940560926
 20
-30.57465594167983
 30
0.0
 10
18.37437928707725
 20
-30.57324136074461
 30
0.0
 10
18.44833901277085
 20
-30.56178759453683
 30
0.0
 10
18.52129074242632
 20
-30.54345449289401
 30
0.0
 10
18.61401074898313
 20
-30.50982007147783
 30
0.0
 10
18.72368115258564
 20
-30.4506710078493
 30
0.0
 10
18.87482175048628
 20
-30.32567342278558
 30
0.0
 10
18.98542580350447
 20
-30.15826957713311
 30
0.0
 10
19.03258772949047
 20
-29.99927683061932
 30
0.0
 10
19.04763881080952
 20
-29.90415332047136
 30
0.0
 10
19.04914509088186
 20
-29.85609645199344
 30
0.0
 10
19.04999999999998
 20
-29.82882114257112
 30
0.0
  0
SPLINE
  5
25A
330
1F
100
AcDbEntity
  8
1
  6
SLD-Solid
370
    25
100
AcDbSpline
210
0.0
220
0.0
230
1.0
 70
    24
 71
     3
 72
     8
 73
     4
 74
     0
 42
0.000000001
 43
0.00000001
 40
0.0
 40
0.0
 40
0.0
 40
0.0
 40
1.0
 40
1.0
 40
1.0
 40
1.0
 10
7.593163357943772
 20
18.35000000000203
 30
0.0
 10
8.140470151277793
 20
18.35000000000203
 30
0.0
 10
8.677299140455217
 20
18.35000000000203
 30
0.0
 10
9.200000000000527
 20
18.35000000000203
 30
0.0
  0
SPLINE
  5
25B
330
1F
100
AcDbEntity
  8
1
  6
SLD-Solid
370
    25
100
AcDbSpline
210
0.0
220
0.0
230
1.0
 70
     8
 71
     3
 72
     8
 73
     4
 74
     0
 42
0.000000001
 43
0.00000001
 40
0.0
 40
0.0
 40
0.0
 40
0.0
 40
1.0
 40
1.0
 40
1.0
 40
1.0
 10
7.89400165395647
 20
-30.16151882747545
 30
0.0
 10
8.330280635768156
 20
-29.37911880556084
 30
0.0
 10
8.765688694622616
 20
-28.59624790492152
 30
0.0
 10
9.199999999999985
 20
-27.81278402659763
 30
0.0
  0
SPLINE
  5
25C
330
1F
100
AcDbEntity
  8
1
  6
SLD-Solid
370
    25
100
AcDbSpline
210
0.0
220
0.0
230
1.0
 70
     8
 71
     3
 72
     8
 73
     4
 74
     0
 42
0.000000001
 43
0.00000001
 40
0.0
 40
0.0
 40
0.0
 40
0.0
 40
0.0006888740319126
 40
0.0006888740319126
 40
0.0006888740319126
 40
0.0006888740319126
 10
7.593163357943772
 20
-30.57535854769514
 30
0.0
 10
7.693718531029847
 20
-30.43750151565608
 30
0.0
 10
7.794003114485276
 20
-30.299556302798
 30
0.0
 10
7.89400165395647
 20
-30.16151882747545
 30
0.0
  0
SPLINE
  5
25D
330
1F
100
AcDbEntity
  8
1
  6
SLD-Solid
370
    25
100
AcDbSpline
210
0.0
220
0.0
230
1.0
 70
    24
 71
     3
 72
     8
 73
     4
 74
     0
 42
0.000000001
 43
0.00000001
 40
0.0
 40
0.0
 40
0.0
 40
0.0
 40
1.0
 40
1.0
 40
1.0
 40
1.0
 10
13.02999999999999
 20
18.35
 30
0.0
 10
13.55320414498343
 20
18.35
 30
0.0
 10
14.0900062891451
 20
18.35
 30
0.0
 10
14.63683664205674
 20
18.35
 30
0.0
  0
SPLINE
  5
25E
330
1F
100
AcDbEntity
  8
1
  6
SLD-Solid
370
    25
100
AcDbSpline
210
0.0
220
0.0
230
1.0
 70
     8
 71
     3
 72
     8
 73
     4
 74
     0
 42
0.000000001
 43
0.00000001
 40
0.0
 40
0.0
 40
0.0
 40
0.0
 40
0.0006888652761855
 40
0.0006888652761855
 40
0.0006888652761855
 40
0.0006888652761855
 10
14.3360013007678
 20
-30.16152412632425
 30
0.0
 10
14.43599886812809
 20
-30.29956062861516
 30
0.0
 10
14.53628246638031
 20
-30.43750487173246
 30
0.0
 10
14.63683664205674
 20
-30.57536093714896
 30
0.0
  0
SPLINE
  5
25F
330
1F
100
AcDbEntity
  8
1
  6
SLD-Solid
370
    25
100
AcDbSpline
210
0.0
220
0.0
230
1.0
 70
     8
 71
     3
 72
     8
 73
     4
 74
     0
 42
0.000000001
 43
0.00000001
 40
0.0
 40
0.0
 40
0.0
 40
0.0
 40
1.0
 40
1.0
 40
1.0
 40
1.0
 10
13.02999999999999
 20
-27.81278402659763
 30
0.0
 10
13.46431228584341
 20
-28.59624967360612
 30
0.0
 10
13.89972133009097
 20
-29.37912234026616
 30
0.0
 10
14.3360013007678
 20
-30.16152412632425
 30
0.0
  0
SPLINE
  5
260
330
1F
100
AcDbEntity
  8
1
  6
SLD-Solid
370
    25
100
AcDbSpline
210
0.0
220
0.0
230
1.0
 70
    24
 71
     2
 72
     6
 73
     3
 74
     0
 42
0.000000001
 43
0.00000001
 40
0.0
 40
0.0
 40
0.0
 40
0.25
 40
0.25
 40
0.25
 10
9.200000000000527
 20
18.35000000000203
 30
0.0
 10
9.215166861194293
 20
18.35000000000202
 30
0.0
 10
9.245806781973675
 20
18.35000000000202
 30
0.0
  0
SPLINE
  5
261
330
1F
100
AcDbEntity
  8
1
  6
SLD-Solid
370
    25
100
AcDbSpline
210
0.0
220
0.0
230
1.0
 70
    24
 71
     3
 72
     8
 73
     4
 74
     0
 42
0.000000001
 43
0.00000001
 40
0.25
 40
0.25
 40
0.25
 40
0.25
 40
0.5
 40
0.5
 40
0.5
 40
0.5
 10
9.245806781973675
 20
18.35000000000202
 30
0.0
 10
9.276446702753057
 20
18.35000000000202
 30
0.0
 10
9.322918752353763
 20
18.35000000000202
 30
0.0
 10
9.385958982751283
 20
18.35000000000202
 30
0.0
  0
SPLINE
  5
262
330
1F
100
AcDbEntity
  8
1
  6
SLD-Solid
370
    25
100
AcDbSpline
210
0.0
220
0.0
230
1.0
 70
    24
 71
     3
 72
     8
 73
     4
 74
     0
 42
0.000000001
 43
0.00000001
 40
0.5
 40
0.5
 40
0.5
 40
0.5
 40
0.75
 40
0.75
 40
0.75
 40
0.75
 10
9.385958982751283
 20
18.35000000000202
 30
0.0
 10
9.448999213148804
 20
18.35000000000202
 30
0.0
 10
9.529064162573459
 20
18.35000000000202
 30
0.0
 10
9.62639833305394
 20
18.35000000000202
 30
0.0
  0
SPLINE
  5
263
330
1F
100
AcDbEntity
  8
1
  6
SLD-Solid
370
    25
100
AcDbSpline
210
0.0
220
0.0
230
1.0
 70
    24
 71
     3
 72
     8
 73
     4
 74
     0
 42
0.000000001
 43
0.00000001
 40
0.75
 40
0.75
 40
0.75
 40
0.75
 40
1.0
 40
1.0
 40
1.0
 40
1.0
 10
9.62639833305394
 20
18.35000000000202
 30
0.0
 10
9.723732503534407
 20
18.35000000000202
 30
0.0
 10
9.836381831357627
 20
18.35000000000202
 30
0.0
 10
9.950000000000529
 20
18.35000000000202
 30
0.0
  0
SPLINE
  5
264
330
1F
100
AcDbEntity
  8
1
  6
SLD-Solid
370
    25
100
AcDbSpline
210
0.0
220
0.0
230
1.0
 70
     8
 71
     3
 72
    10
 73
     6
 74
     0
 42
0.000000001
 43
0.00000001
 40
0.0
 40
0.0
 40
0.0
 40
0.0
 40
0.5
 40
0.5
 40
1.0
 40
1.0
 40
1.0
 40
1.0
 10
9.199999999999985
 20
-27.5868351754964
 30
0.0
 10
9.199999999999985
 20
-27.38707634764943
 30
0.0
 10
9.27683443595391
 20
-27.18603271636412
 30
0.0
 10
9.550944873665369
 20
-26.89356078711211
 30
0.0
 10
9.74842487025454
 20
-26.8043088886844
 30
0.0
 10
9.949999999999987
 20
-26.8043088886844
 30
0.0
  0
SPLINE
  5
265
330
1F
100
AcDbEntity
  8
1
  6
SLD-Solid
370
    25
100
AcDbSpline
210
0.0
220
0.0
230
1.0
 70
    24
 71
     3
 72
     8
 73
     4
 74
     0
 42
0.000000001
 43
0.00000001
 40
0.0
 40
0.0
 40
0.0
 40
0.0
 40
0.2499999999999994
 40
0.2499999999999994
 40
0.2499999999999994
 40
0.2499999999999994
 10
12.28
 20
18.35000000000202
 30
0.0
 10
12.39387251328289
 20
18.35000000000131
 30
0.0
 10
12.50776080994781
 20
18.3500000000006
 30
0.0
 10
12.60403578072328
 20
18.35
 30
0.0
  0
SPLINE
  5
266
330
1F
100
AcDbEntity
  8
1
  6
SLD-Solid
370
    25
100
AcDbSpline
210
0.0
220
0.0
230
1.0
 70
    24
 71
     3
 72
     8
 73
     4
 74
     0
 42
0.000000001
 43
0.00000001
 40
0.2499999999999994
 40
0.2499999999999994
 40
0.2499999999999994
 40
0.2499999999999994
 40
0.4999999999999989
 40
0.4999999999999989
 40
0.4999999999999989
 40
0.4999999999999989
 10
12.60403578072328
 20
18.35
 30
0.0
 10
12.70031075149873
 20
18.35
 30
0.0
 10
12.78072688590697
 20
18.35
 30
0.0
 10
12.8439936370323
 20
18.35
 30
0.0
  0
SPLINE
  5
267
330
1F
100
AcDbEntity
  8
1
  6
SLD-Solid
370
    25
100
AcDbSpline
210
0.0
220
0.0
230
1.0
 70
    24
 71
     2
 72
     6
 73
     3
 74
     0
 42
0.000000001
 43
0.00000001
 40
0.4999999999999989
 40
0.4999999999999989
 40
0.4999999999999989
 40
1.0
 40
1.0
 40
1.0
 10
12.8439936370323
 20
18.35
 30
0.0
 10
12.97052713928297
 20
18.35
 30
0.0
 10
13.02999999999999
 20
18.35
 30
0.0
  0
SPLINE
  5
268
330
1F
100
AcDbEntity
  8
1
  6
SLD-Solid
370
    25
100
AcDbSpline
210
0.0
220
0.0
230
1.0
 70
     8
 71
     3
 72
    12
 73
     8
 74
     0
 42
0.000000001
 43
0.00000001
 40
0.0
 40
0.0
 40
0.0
 40
0.0
 40
0.25
 40
0.25
 40
0.5
 40
0.5
 40
1.0
 40
1.0
 40
1.0
 40
1.0
 10
12.27999999999999
 20
-26.8043088886844
 30
0.0
 10
12.3797968950987
 20
-26.80430888868438
 30
0.0
 10
12.48049833272398
 20
-26.82572174190437
 30
0.0
 10
12.66355621250802
 20
-26.90654241362413
 30
0.0
 10
12.74673207733005
 20
-26.96588196572588
 30
0.0
 10
12.95368349037103
 20
-27.18636461126022
 30
0.0
 10
13.02999999999999
 20
-27.38652349465743
 30
0.0
 10
13.02999999999999
 20
-27.5868351754964
 30
0.0
  0
SPLINE
  5
269
330
1F
100
AcDbEntity
  8
1
  6
SLD-Solid
370
    25
100
AcDbSpline
210
0.0
220
0.0
230
1.0
 70
    24
 71
     3
 72
    10
 73
     6
 74
     0
 42
0.000000001
 43
0.00000001
 40
0.0
 40
0.0
 40
0.0
 40
0.0
 40
0.0365731533105629
 40
0.5181050695731283
 40
1.0
 40
1.0
 40
1.0
 40
1.0
 10
19.16390790476884
 20
24.8
 30
0.0
 10
19.16787200036253
 20
24.8
 30
0.0
 10
19.22402843855439
 20
24.80000000000001
 30
0.0
 10
19.39408474062476
 20
24.79999999999998
 30
0.0
 10
19.43135689889058
 20
24.79999999999999
 30
0.0
 10
19.45000000000001
 20
24.79999999999999
 30
0.0
  0
SPLINE
  5
26A
330
1F
100
AcDbEntity
  8
1
  6
SLD-Solid
370
    25
100
AcDbSpline
210
0.0
220
0.0
230
1.0
 70
     8
 71
     3
 72
    11
 73
     7
 74
     0
 42
0.000000001
 43
0.00000001
 40
0.0
 40
0.0
 40
0.0
 40
0.0
 40
0.1020420139039529
 40
0.2803142830501756
 40
0.6392570043701459
 40
1.0
 40
1.0
 40
1.0
 40
1.0
 10
20.11490971013986
 20
-22.67627603219737
 30
0.0
 10
20.04683750638177
 20
-22.71461610678727
 30
0.0
 10
19.8598399133113
 20
-22.81993812180425
 30
0.0
 10
19.50901180037921
 20
-23.16469033396228
 30
0.0
 10
19.13357742423294
 20
-23.7630276540806
 30
0.0
 10
19.07790556196237
 20
-24.31510681905612
 30
0.0
 10
19.04999999999998
 20
-24.59183690707589
 30
0.0
  0
SPLINE
  5
26B
330
1F
100
AcDbEntity
  8
1
  6
SLD-Solid
370
    25
100
AcDbSpline
210
0.0
220
0.0
230
1.0
 70
     8
 71
     3
 72
    21
 73
    17
 74
     0
 42
0.000000001
 43
0.00000001
 40
0.0
 40
0.0
 40
0.0
 40
0.0
 40
0.0300439721673735
 40
0.0633782584908324
 40
0.1263166736894278
 40
0.1893219361658519
 40
0.2528049570568282
 40
0.3158744574650455
 40
0.3785474256627107
 40
0.5043053250868496
 40
0.6286190022111294
 40
0.7531073921262144
 40
0.8154624018135629
 40
0.876387975894325
 40
0.9384356217914902
 40
1.0
 40
1.0
 40
1.0
 40
1.0
 10
19.04999999999998
 20
-24.59183690707589
 30
0.0
 10
19.05040388717437
 20
-24.55899346507519
 30
0.0
 10
19.05125589387963
 20
-24.48970967845559
 30
0.0
 10
19.06060515585983
 20
-24.35189096702181
 30
0.0
 10
19.08352363870937
 20
-24.17908596466966
 30
0.0
 10
19.12899476853032
 20
-23.97681085764275
 30
0.0
 10
19.19224823578937
 20
-23.7792177302353
 30
0.0
 10
19.27288646398229
 20
-23.58840959035408
 30
0.0
 10
19.40251727891978
 20
-23.34558894327623
 30
0.0
 10
19.60494133967769
 20
-23.0671896479683
 30
0.0
 10
19.9067279985959
 20
-22.78627276728074
 30
0.0
 10
20.20001151995265
 20
-22.60785764023333
 30
0.0
 10
20.45177449571331
 20
-22.50547052143907
 30
0.0
 10
20.64735242487221
 20
-22.4500565763727
 30
0.0
 10
20.84705715037687
 20
-22.41497600133939
 30
0.0
 10
20.9825289281314
 20
-22.41059542288287
 30
0.0
 10
21.05
 20
-22.40841369670517
 30
0.0
  0
SPLINE
  5
26C
330
1F
100
AcDbEntity
  8
1
  6
SLD-Solid
370
    25
100
AcDbSpline
210
0.0
220
0.0
230
1.0
 70
     8
 71
     3
 72
    45
 73
    41
 74
     0
 42
0.000000001
 43
0.00000001
 40
0.5000000000000013
 40
0.5000000000000013
 40
0.5000000000000013
 40
0.5000000000000013
 40
0.5312500000000013
 40
0.5312500000000013
 40
0.5625000000000012
 40
0.5625000000000012
 40
0.5937500000000012
 40
0.5937500000000012
 40
0.6250000000000011
 40
0.6250000000000011
 40
0.6406250000000011
 40
0.6406250000000011
 40
0.6562500000000012
 40
0.6562500000000012
 40
0.6875000000000012
 40
0.6875000000000012
 40
0.7187500000000014
 40
0.7187500000000014
 40
0.7500000000000017
 40
0.7500000000000017
 40
0.7656250000000019
 40
0.7656250000000019
 40
0.7812500000000021
 40
0.7968750000000022
 40
0.7968750000000022
 40
0.8125000000000024
 40
0.8125000000000024
 40
0.8437500000000026
 40
0.8437500000000026
 40
0.8593750000000024
 40
0.8593750000000024
 40
0.8750000000000022
 40
0.8750000000000022
 40
0.9062500000000017
 40
0.9062500000000017
 40
0.9375000000000012
 40
0.9375000000000012
 40
0.9687500000000007
 40
0.9687500000000007
 40
1.0
 40
1.0
 40
1.0
 40
1.0
 10
27.5040233517936
 20
20.13048981925105
 30
0.0
 10
27.16729098991767
 20
20.13062209214467
 30
0.0
 10
26.83167146540309
 20
20.11434994675872
 30
0.0
 10
26.16273445287528
 20
20.04727939009132
 30
0.0
 10
25.83527976391366
 20
19.99682577421273
 30
0.0
 10
25.207051436136
 20
19.86307818480546
 30
0.0
 10
24.90371458940832
 20
19.77945519475825
 30
0.0
 10
24.32287168120557
 20
19.57464224978732
 30
0.0
 10
24.05412514417901
 20
19.4565747502138
 30
0.0
 10
23.68300092028483
 20
19.25408025644273
 30
0.0
 10
23.56466244178718
 20
19.18232101226543
 30
0.0
 10
23.33910979701337
 20
19.02956892655466
 30
0.0
 10
23.23133980272818
 20
18.94804917307864
 30
0.0
 10
22.9318891651593
 20
18.69355333999853
 30
0.0
 10
22.76245581947076
 20
18.51023521643426
 30
0.0
 10
22.48434852639321
 20
18.11344050004868
 30
0.0
 10
22.37536556202467
 20
17.89726973650508
 30
0.0
 10
22.23130689500744
 20
17.45115393398151
 30
0.0
 10
22.19432469223001
 20
17.21978265035909
 30
0.0
 10
22.19296355210816
 20
16.85940370632326
 30
0.0
 10
22.2017514523667
 20
16.73709636719418
 30
0.0
 10
22.23711966943244
 20
16.49416895413886
 30
0.0
 10
22.29020879341913
 20
16.25139383489825
 30
0.0
 10
22.37810155852135
 20
16.00912913975345
 30
0.0
 10
22.48363074927248
 20
15.76729812874698
 30
0.0
 10
22.54552108929743
 20
15.64625130629863
 30
0.0
 10
22.75341277564559
 20
15.29236347496459
 30
0.0
 10
22.92234730700471
 20
15.0659989228402
 30
0.0
 10
23.22005739430506
 20
14.74205295573244
 30
0.0
 10
23.32732725781193
 20
14.63622419259651
 30
0.0
 10
23.55265757262329
 20
14.43415852411604
 30
0.0
 10
23.67096358256031
 20
14.3375482821284
 30
0.0
 10
24.04223471844841
 20
14.06097590539376
 30
0.0
 10
24.3128899008708
 20
13.89340866092379
 30
0.0
 10
24.8918622559816
 20
13.59954821014383
 30
0.0
 10
25.19432906844651
 20
13.47591576315651
 30
0.0
 10
25.82398068823051
 20
13.27473317563077
 30
0.0
 10
26.15418433827697
 20
13.19690294799618
 30
0.0
 10
26.82126250225314
 20
13.09372219430593
 30
0.0
 10
27.15889271989862
 20
13.0676450755714
 30
0.0
 10
27.5
 20
13.0676450755714
 30
0.0
  0
SPLINE
  5
26D
330
1F
100
AcDbEntity
  8
1
  6
SLD-Solid
370
    25
100
AcDbSpline
210
0.0
220
0.0
230
1.0
 70
     8
 71
     3
 72
    43
 73
    39
 74
     0
 42
0.000000001
 43
0.00000001
 40
0.0
 40
0.0
 40
0.0
 40
0.0
 40
0.0312500000000001
 40
0.0312500000000001
 40
0.0625000000000003
 40
0.0625000000000003
 40
0.0937500000000004
 40
0.0937500000000004
 40
0.1250000000000005
 40
0.1250000000000005
 40
0.1562500000000007
 40
0.1562500000000007
 40
0.1875000000000008
 40
0.1875000000000008
 40
0.2187500000000008
 40
0.2187500000000008
 40
0.234375000000001
 40
0.234375000000001
 40
0.2500000000000011
 40
0.2656250000000013
 40
0.2656250000000013
 40
0.2812500000000014
 40
0.2812500000000014
 40
0.3125000000000017
 40
0.3125000000000017
 40
0.3281250000000016
 40
0.3281250000000016
 40
0.3437500000000016
 40
0.3437500000000016
 40
0.3750000000000015
 40
0.3750000000000015
 40
0.4062500000000015
 40
0.4062500000000015
 40
0.4375000000000014
 40
0.4375000000000014
 40
0.4687500000000014
 40
0.4687500000000014
 40
0.5000000000000013
 40
0.5000000000000013
 40
0.5000000000000013
 40
0.5000000000000013
 10
27.5
 20
13.0676450755714
 30
0.0
 10
27.84110728010138
 20
13.0676450755714
 30
0.0
 10
28.17699890641721
 20
13.09368504966121
 30
0.0
 10
28.83872878950834
 20
13.19557807914999
 30
0.0
 10
29.16714156925616
 20
13.27229118938944
 30
0.0
 10
29.80108390235205
 20
13.47406385927174
 30
0.0
 10
30.10276759908019
 20
13.59740673232411
 30
0.0
 10
30.675693768631
 20
13.88704695314862
 30
0.0
 10
30.94973198226321
 20
14.05564683975472
 30
0.0
 10
31.44674034109465
 20
14.42459301645888
 30
0.0
 10
31.67046370344127
 20
14.62444639728863
 30
0.0
 10
32.06721761388195
 20
15.0532014070378
 30
0.0
 10
32.24074935667772
 20
15.28418195207121
 30
0.0
 10
32.51794177705861
 20
15.75259880294871
 30
0.0
 10
32.62425719694323
 20
15.99225186192132
 30
0.0
 10
32.73302223314184
 20
16.35906892878426
 30
0.0
 10
32.76056213230301
 20
16.48240581907093
 30
0.0
 10
32.79706347653322
 20
16.72518156837013
 30
0.0
 10
32.81551044095384
 20
16.9656392771761
 30
0.0
 10
32.79828311228111
 20
17.20143830442993
 30
0.0
 10
32.76286147217941
 20
17.43489860782289
 30
0.0
 10
32.73580794507743
 20
17.55093739768389
 30
0.0
 10
32.62898786870974
 20
17.8876070905862
 30
0.0
 10
32.52377899185545
 20
18.09927798528618
 30
0.0
 10
32.31606674078302
 20
18.39936815088103
 30
0.0
 10
32.23793830541543
 20
18.49696457098791
 30
0.0
 10
32.06785787630486
 20
18.68283170248638
 30
0.0
 10
31.97582303342253
 20
18.7713972450012
 30
0.0
 10
31.6794508443385
 20
19.0249713397196
 30
0.0
 10
31.45337046464407
 20
19.17884107514949
 30
0.0
 10
30.9538943910581
 20
19.45299700845095
 30
0.0
 10
30.68505494634691
 20
19.57122840768841
 30
0.0
 10
30.11102210452886
 20
19.77485371226234
 30
0.0
 10
29.80290848019525
 20
19.86059294127312
 30
0.0
 10
29.17231365495818
 20
19.99556396354044
 30
0.0
 10
28.84810525232033
 20
20.04575736329412
 30
0.0
 10
28.18194867701422
 20
20.11340383536014
 30
0.0
 10
27.84075571366952
 20
20.13035754635743
 30
0.0
 10
27.5040233517936
 20
20.13048981925105
 30
0.0
  0
SPLINE
  5
26E
330
1F
100
AcDbEntity
  8
1
  6
SLD-Solid
370
    25
100
AcDbSpline
210
0.0
220
0.0
230
1.0
 70
     8
 71
     3
 72
    16
 73
    12
 74
     0
 42
0.000000001
 43
0.00000001
 40
0.0
 40
0.0
 40
0.0
 40
0.0
 40
0.0770520622509976
 40
0.1549841241733807
 40
0.2769630117511966
 40
0.4022408656095744
 40
0.5285871719776091
 40
0.6585752973848829
 40
0.7848680041967183
 40
0.9151820032387944
 40
1.0
 40
1.0
 40
1.0
 40
1.0
 10
22.03955930082503
 20
-22.67627603219737
 30
0.0
 10
22.30700072944811
 20
-22.70186756466281
 30
0.0
 10
22.84493799383699
 20
-22.75334290652312
 30
0.0
 10
23.76125850155185
 20
-22.88126108385411
 30
0.0
 10
24.76928347893072
 20
-23.06160118239868
 30
0.0
 10
25.79785557945498
 20
-23.29361128122557
 30
0.0
 10
26.68992885540888
 20
-23.52934135962314
 30
0.0
 10
27.40158191900745
 20
-23.74033162057052
 30
0.0
 10
27.90291791065426
 20
-23.90045081927754
 30
0.0
 10
28.1726631568327
 20
-23.99075183731814
 30
0.0
 10
28.17652690455669
 20
-23.99208641508665
 30
0.0
 10
28.1780502267418
 20
-23.99261258606567
 30
0.0
  0
SPLINE
  5
26F
330
1F
100
AcDbEntity
  8
1
  6
SLD-Solid
370
    25
100
AcDbSpline
210
0.0
220
0.0
230
1.0
 70
     8
 71
     3
 72
    30
 73
    26
 74
     0
 42
0.000000001
 43
0.00000001
 40
0.4999999999999958
 40
0.4999999999999958
 40
0.4999999999999958
 40
0.4999999999999958
 40
0.5624999999999956
 40
0.5624999999999956
 40
0.6249999999999953
 40
0.6249999999999953
 40
0.6562499999999957
 40
0.6562499999999957
 40
0.687499999999996
 40
0.687499999999996
 40
0.7187499999999963
 40
0.7187499999999963
 40
0.7499999999999967
 40
0.7499999999999967
 40
0.781249999999997
 40
0.781249999999997
 40
0.8124999999999973
 40
0.8124999999999973
 40
0.8437499999999977
 40
0.8437499999999977
 40
0.874999999999998
 40
0.874999999999998
 40
0.9374999999999989
 40
0.9374999999999989
 40
1.0
 40
1.0
 40
1.0
 40
1.0
 10
27.00072654033822
 20
-18.3257480021508
 30
0.0
 10
26.73963448425019
 20
-18.32580946066248
 30
0.0
 10
26.47641111230603
 20
-18.29199822402851
 30
0.0
 10
25.99490376628856
 20
-18.1620647143122
 30
0.0
 10
25.77171572381572
 20
-18.06454033625926
 30
0.0
 10
25.49487156678368
 20
-17.88070384505518
 30
0.0
 10
25.4103597497229
 20
-17.81194338459652
 30
0.0
 10
25.26498957473851
 20
-17.66541510760239
 30
0.0
 10
25.20347293429212
 20
-17.58749352865892
 30
0.0
 10
25.1029105014516
 20
-17.42189782217396
 30
0.0
 10
25.06427324494513
 20
-17.33421960985486
 30
0.0
 10
25.01320632084776
 20
-17.15638492687761
 30
0.0
 10
25.00012962796706
 20
-17.06530780001965
 30
0.0
 10
24.99987227115771
 20
-16.87857375940052
 30
0.0
 10
25.01274810602488
 20
-16.78566402797786
 30
0.0
 10
25.06334995435835
 20
-16.60193248307625
 30
0.0
 10
25.10166193126347
 20
-16.50997844854163
 30
0.0
 10
25.20191468708811
 20
-16.33308752796567
 30
0.0
 10
25.26326480673885
 20
-16.24859330321189
 30
0.0
 10
25.40813929681536
 20
-16.0877599531121
 30
0.0
 10
25.49250003533129
 20
-16.01103826894616
 30
0.0
 10
25.76900729750814
 20
-15.80365851984937
 30
0.0
 10
25.99186455932764
 20
-15.69048153434523
 30
0.0
 10
26.47295966338435
 20
-15.53818016341126
 30
0.0
 10
26.73561793533412
 20
-15.49732096291491
 30
0.0
 10
27.0
 20
-15.49732096291492
 30
0.0
  0
SPLINE
  5
270
330
1F
100
AcDbEntity
  8
1
  6
SLD-Solid
370
    25
100
AcDbSpline
210
0.0
220
0.0
230
1.0
 70
     8
 71
     3
 72
    34
 73
    30
 74
     0
 42
0.000000001
 43
0.00000001
 40
0.0
 40
0.0
 40
0.0
 40
0.0
 40
0.0312499999999996
 40
0.0312499999999996
 40
0.0624999999999991
 40
0.0624999999999991
 40
0.0937499999999988
 40
0.0937499999999988
 40
0.1249999999999984
 40
0.1249999999999984
 40
0.1874999999999976
 40
0.1874999999999976
 40
0.2499999999999967
 40
0.2499999999999967
 40
0.2812499999999966
 40
0.2812499999999966
 40
0.3124999999999964
 40
0.3124999999999964
 40
0.3437499999999963
 40
0.3437499999999963
 40
0.3749999999999962
 40
0.3749999999999962
 40
0.4062499999999961
 40
0.4062499999999961
 40
0.437499999999996
 40
0.437499999999996
 40
0.4687499999999959
 40
0.4687499999999959
 40
0.4999999999999958
 40
0.4999999999999958
 40
0.4999999999999958
 40
0.4999999999999958
 10
27.0
 20
-15.49732096291492
 30
0.0
 10
27.13219103233293
 20
-15.49732096291491
 30
0.0
 10
27.26216155827774
 20
-15.5072714072582
 30
0.0
 10
27.51784675490672
 20
-15.54616504533395
 30
0.0
 10
27.64489033788336
 20
-15.57558206046771
 30
0.0
 10
27.88706574209887
 20
-15.65206161014346
 30
0.0
 10
28.0019173948568
 20
-15.69874919952724
 30
0.0
 10
28.21927887055338
 20
-15.80850378252556
 30
0.0
 10
28.32214914949789
 20
-15.87211920447779
 30
0.0
 10
28.59875595844951
 20
-16.07929435915925
 30
0.0
 10
28.74774737570122
 20
-16.24471379611605
 30
0.0
 10
28.94727468114569
 20
-16.59588273151903
 30
0.0
 10
28.9998583165634
 20
-16.78524233244205
 30
0.0
 10
29.00007040147841
 20
-17.06207370499802
 30
0.0
 10
28.98707821150191
 20
-17.15503134660037
 30
0.0
 10
28.93603984686881
 20
-17.33348781826222
 30
0.0
 10
28.89827678516237
 20
-17.4195018515716
 30
0.0
 10
28.7981121076432
 20
-17.58531230858169
 30
0.0
 10
28.73551587378122
 20
-17.66478287611691
 30
0.0
 10
28.59079604715962
 20
-17.81089973595493
 30
0.0
 10
28.5081725080713
 20
-17.8784982689276
 30
0.0
 10
28.32154857758871
 20
-18.00278905715157
 30
0.0
 10
28.22051544586261
 20
-18.05749259833969
 30
0.0
 10
28.00400837875859
 20
-18.15282383356198
 30
0.0
 10
27.88711501454548
 20
-18.19381745072852
 30
0.0
 10
27.64486733500102
 20
-18.25935460120424
 30
0.0
 10
27.52020519229538
 20
-18.28395362876005
 30
0.0
 10
27.26386413805402
 20
-18.31721594922896
 30
0.0
 10
27.13127256838223
 20
-18.32571727289496
 30
0.0
 10
27.00072654033822
 20
-18.3257480021508
 30
0.0
  0
SPLINE
  5
271
330
1F
100
AcDbEntity
  8
1
  6
SLD-Solid
370
    25
100
AcDbSpline
210
0.0
220
0.0
230
1.0
 70
     8
 71
     3
 72
    12
 73
     8
 74
     0
 42
0.000000001
 43
0.00000001
 40
0.0
 40
0.0
 40
0.0
 40
0.0
 40
0.2500000000000001
 40
0.2500000000000001
 40
0.5000000000000001
 40
0.5000000000000001
 40
1.0
 40
1.0
 40
1.0
 40
1.0
 10
3.95000000000055
 20
25.91022964004974
 30
0.0
 10
3.839158780827245
 20
25.91022964004974
 30
0.0
 10
3.730471818892384
 20
25.87938355290944
 30
0.0
 10
3.539648957222974
 20
25.77107303496786
 30
0.0
 10
3.457372067224504
 20
25.69414842786693
 30
0.0
 10
3.261852427534476
 20
25.42652197982918
 30
0.0
 10
3.200000000000425
 20
25.20459198571314
 30
0.0
 10
3.200000000000536
 20
24.98554582153616
 30
0.0
  0
SPLINE
  5
272
330
1F
100
AcDbEntity
  8
1
  6
SLD-Solid
370
    25
100
AcDbSpline
210
0.0
220
0.0
230
1.0
 70
     8
 71
     3
 72
    18
 73
    14
 74
     0
 42
0.000000001
 43
0.00000001
 40
0.0
 40
0.0
 40
0.0
 40
0.0
 40
0.0627055099617956
 40
0.1258180762729833
 40
0.1893520056281419
 40
0.2533212411768446
 40
0.3760225541166888
 40
0.5042029356618396
 40
0.6287444288252328
 40
0.7524971402268249
 40
0.8762905010545372
 40
0.9301814056086563
 40
1.0
 40
1.0
 40
1.0
 40
1.0
 10
3.950000000000535
 20
30.55788599722888
 30
0.0
 10
3.925248107549557
 20
30.55717415240699
 30
0.0
 10
3.875583644343746
 20
30.55574584178248
 30
0.0
 10
3.801592991522952
 20
30.54418224838045
 30
0.0
 10
3.728620711839353
 20
30.52567922368446
 30
0.0
 10
3.635851283826665
 20
30.49171694933458
 30
0.0
 10
3.526173693476185
 20
30.43205957989062
 30
0.0
 10
3.412109402548295
 20
30.33670428097424
 30
0.0
 10
3.319034324959861
 20
30.22062761503532
 30
0.0
 10
3.250931594267547
 20
30.09053185714901
 30
0.0
 10
3.217337748096067
 20
29.97655781407648
 30
0.0
 10
3.202345655230249
 20
29.88065720392614
 30
0.0
 10
3.200846235543073
 20
29.83220059587234
 30
0.0
 10
3.20000000000053
 20
29.80485287971369
 30
0.0
  0
SPLINE
  5
273
330
1F
100
AcDbEntity
  8
1
  6
SLD-Solid
370
    25
100
AcDbSpline
210
0.0
220
0.0
230
1.0
 70
     8
 71
     3
 72
    14
 73
    10
 74
     0
 42
0.000000001
 43
0.00000001
 40
0.0
 40
0.0
 40
0.0
 40
0.0
 40
0.25
 40
0.25
 40
0.5
 40
0.5
 40
0.75
 40
0.75
 40
1.0
 40
1.0
 40
1.0
 40
1.0
 10
19.05000000000053
 20
24.98554582153655
 30
0.0
 10
19.05000000000053
 20
25.09511951628635
 30
0.0
 10
19.03421225329111
 20
25.20571872585307
 30
0.0
 10
18.9711617876431
 20
25.41445574332673
 30
0.0
 10
18.92271483449154
 20
25.51595796020397
 30
0.0
 10
18.79360389711987
 20
25.6929398956156
 30
0.0
 10
18.71142955262539
 20
25.77032425272092
 30
0.0
 10
18.5197449158942
 20
25.87939623808379
 30
0.0
 10
18.41038882700845
 20
25.91022964004965
 30
0.0
 10
18.30000000000052
 20
25.91022964004964
 30
0.0
  0
SPLINE
  5
274
330
1F
100
AcDbEntity
  8
1
  6
SLD-Solid
370
    25
100
AcDbSpline
210
0.0
220
0.0
230
1.0
 70
     8
 71
     3
 72
    16
 73
    12
 74
     0
 42
0.000000001
 43
0.00000001
 40
0.0
 40
0.0
 40
0.0
 40
0.0
 40
0.0695972542976272
 40
0.1233277380952902
 40
0.2470395666589521
 40
0.3706254246804407
 40
0.4955039232051514
 40
0.6236892953640675
 40
0.7463896467418396
 40
0.8740291783581934
 40
0.9999999999999999
 40
0.9999999999999999
 40
0.9999999999999999
 40
0.9999999999999999
 10
19.04999999999996
 20
29.80486664099094
 30
0.0
 10
19.04915966910117
 20
29.83211893809356
 30
0.0
 10
19.0476705858026
 20
29.88041055812203
 30
0.0
 10
19.03276284557191
 20
29.97610839294545
 30
0.0
 10
18.99931128430574
 20
30.08991375049769
 30
0.0
 10
18.93134744839433
 20
30.22007276301183
 30
0.0
 10
18.83837293307903
 20
30.33622625359981
 30
0.0
 10
18.72429069392963
 20
30.43184487734277
 30
0.0
 10
18.59262087732357
 20
30.50320172901507
 30
0.0
 10
18.4499701938253
 20
30.54921379636133
 30
0.0
 10
18.34977029891677
 20
30.55502332938705
 30
0.0
 10
18.29999999999998
 20
30.55790898306484
 30
0.0
  0
SPLINE
  5
275
330
1F
100
AcDbEntity
  8
1
  6
SLD-Solid
370
    25
100
AcDbSpline
210
0.0
220
0.0
230
1.0
 70
     8
 71
     3
 72
     8
 73
     4
 74
     0
 42
0.000000001
 43
0.00000001
 40
0.0
 40
0.0
 40
0.0
 40
0.0
 40
1.0
 40
1.0
 40
1.0
 40
1.0
 10
14.63683664205728
 20
25.91022964004964
 30
0.0
 10
14.0901222777801
 20
24.74986742209087
 30
0.0
 10
13.55294133690123
 20
23.58393351776944
 30
0.0
 10
13.03000000000053
 20
22.41333264622315
 30
0.0
  0
SPLINE
  5
276
330
1F
100
AcDbEntity
  8
1
  6
SLD-Solid
370
    25
100
AcDbSpline
210
0.0
220
0.0
230
1.0
 70
     8
 71
     3
 72
     8
 73
     4
 74
     0
 42
0.000000001
 43
0.00000001
 40
0.0
 40
0.0
 40
0.0
 40
0.0
 40
1.0
 40
1.0
 40
1.0
 40
1.0
 10
13.03
 20
27.81278402659763
 30
0.0
 10
13.47617456320467
 20
28.61764830107019
 30
0.0
 10
13.9234968820952
 20
29.42186997179667
 30
0.0
 10
14.37172431088708
 20
30.22558335104454
 30
0.0
  0
SPLINE
  5
277
330
1F
100
AcDbEntity
  8
1
  6
SLD-Solid
370
    25
100
AcDbSpline
210
0.0
220
0.0
230
1.0
 70
     8
 71
     3
 72
     8
 73
     4
 74
     0
 42
0.000000001
 43
0.00000001
 40
0.0
 40
0.0
 40
0.0
 40
0.0
 40
0.000674288623364
 40
0.000674288623364
 40
0.000674288623364
 40
0.000674288623364
 10
14.63683664205672
 20
30.55790898306484
 30
0.0
 10
14.54802186686165
 20
30.44723584359264
 30
0.0
 10
14.45964331998807
 20
30.33646179836471
 30
0.0
 10
14.37172431088709
 20
30.22558335104455
 30
0.0
  0
SPLINE
  5
278
330
1F
100
AcDbEntity
  8
1
  6
SLD-Solid
370
    25
100
AcDbSpline
210
0.0
220
0.0
230
1.0
 70
     8
 71
     3
 72
    12
 73
     8
 74
     0
 42
0.000000001
 43
0.00000001
 40
0.0
 40
0.0
 40
0.0
 40
0.0
 40
0.25
 40
0.25
 40
0.5
 40
0.5
 40
1.0
 40
1.0
 40
1.0
 40
1.0
 10
9.950000000000529
 20
21.14893614345866
 30
0.0
 10
9.835936901806896
 20
21.14893614345866
 30
0.0
 10
9.72125945705285
 20
21.18584712701911
 30
0.0
 10
9.529550461760266
 20
21.30745805589538
 30
0.0
 10
9.448962431673397
 20
21.39173613326205
 30
0.0
 10
9.259830884990508
 20
21.67557833508276
 30
0.0
 10
9.200000000000527
 20
21.90610457426827
 30
0.0
 10
9.200000000000527
 20
22.13232929449805
 30
0.0
  0
SPLINE
  5
279
330
1F
100
AcDbEntity
  8
1
  6
SLD-Solid
370
    25
100
AcDbSpline
210
0.0
220
0.0
230
1.0
 70
     8
 71
     3
 72
    14
 73
    10
 74
     0
 42
0.000000001
 43
0.00000001
 40
0.0
 40
0.0
 40
0.0
 40
0.0
 40
0.25
 40
0.25
 40
0.5
 40
0.5
 40
0.75
 40
0.75
 40
1.0
 40
1.0
 40
1.0
 40
1.0
 10
9.199999999999985
 20
27.58683517549641
 30
0.0
 10
9.199999999999973
 20
27.48633204917055
 30
0.0
 10
9.218706918939418
 20
27.38625032826132
 30
0.0
 10
9.291262914439837
 20
27.1996476185549
 30
0.0
 10
9.345503941425262
 20
27.11279998838253
 30
0.0
 10
9.482011574204474
 20
26.96707505027712
 30
0.0
 10
9.565219805752214
 20
26.9071847047812
 30
0.0
 10
9.749488820138582
 20
26.82562619640965
 30
0.0
 10
9.849028188255533
 20
26.8043088886844
 30
0.0
 10
9.949999999999987
 20
26.8043088886844
 30
0.0
  0
SPLINE
  5
27A
330
1F
100
AcDbEntity
  8
1
  6
SLD-Solid
370
    25
100
AcDbSpline
210
0.0
220
0.0
230
1.0
 70
     8
 71
     3
 72
     8
 73
     4
 74
     0
 42
0.000000001
 43
0.00000001
 40
0.0
 40
0.0
 40
0.0
 40
0.0
 40
1.0
 40
1.0
 40
1.0
 40
1.0
 10
9.200000000000527
 20
22.41333264622325
 30
0.0
 10
8.676711774191423
 20
23.58471002639461
 30
0.0
 10
8.139792627971861
 20
24.75004802856132
 30
0.0
 10
7.593163357943772
 20
25.91022964004973
 30
0.0
  0
SPLINE
  5
27B
330
1F
100
AcDbEntity
  8
1
  6
SLD-Solid
370
    25
100
AcDbSpline
210
0.0
220
0.0
230
1.0
 70
     8
 71
     3
 72
    14
 73
    10
 74
     0
 42
0.000000001
 43
0.00000001
 40
0.0
 40
0.0
 40
0.0
 40
0.0
 40
0.25
 40
0.25
 40
0.5
 40
0.5
 40
0.75
 40
0.75
 40
1.0
 40
1.0
 40
1.0
 40
1.0
 10
13.03000000000053
 20
22.13232929449795
 30
0.0
 10
13.03000000000053
 20
22.01826902485312
 30
0.0
 10
13.01506237934968
 20
21.90620552728531
 30
0.0
 10
12.95346267662398
 20
21.6863192690254
 30
0.0
 10
12.90761723370866
 20
21.58180217631713
 30
0.0
 10
12.78106163491556
 20
21.39167307642107
 30
0.0
 10
12.70088587990507
 20
21.3075788209381
 30
0.0
 10
12.50695573392917
 20
21.18487204837431
 30
0.0
 10
12.39354933538779
 20
21.14893614345866
 30
0.0
 10
12.28000000000053
 20
21.14893614345866
 30
0.0
  0
SPLINE
  5
27C
330
1F
100
AcDbEntity
  8
1
  6
SLD-Solid
370
    25
100
AcDbSpline
210
0.0
220
0.0
230
1.0
 70
     8
 71
     3
 72
    12
 73
     8
 74
     0
 42
0.000000001
 43
0.00000001
 40
0.0
 40
0.0
 40
0.0
 40
0.0
 40
0.2499999999999977
 40
0.2499999999999977
 40
0.4999999999999953
 40
0.4999999999999953
 40
1.0
 40
1.0
 40
1.0
 40
1.0
 10
12.27999999999999
 20
26.8043088886844
 30
0.0
 10
12.37978072431227
 20
26.8043088886844
 30
0.0
 10
12.48151042527953
 20
26.82597317527049
 30
0.0
 10
12.66494915786522
 20
26.90735539054001
 30
0.0
 10
12.74805388554812
 20
26.96711648327141
 30
0.0
 10
12.95292618544645
 20
27.18590763033071
 30
0.0
 10
13.03
 20
27.38705398234478
 30
0.0
 10
13.03
 20
27.58683517549641
 30
0.0
  0
SPLINE
  5
27D
330
1F
100
AcDbEntity
  8
1
  6
SLD-Solid
370
    25
100
AcDbSpline
210
0.0
220
0.0
230
1.0
 70
     8
 71
     3
 72
     8
 73
     4
 74
     0
 42
0.000000001
 43
0.00000001
 40
0.0000000000000031
 40
0.0000000000000031
 40
0.0000000000000031
 40
0.0000000000000031
 40
0.0006744388085588
 40
0.0006744388085588
 40
0.0006744388085588
 40
0.0006744388085588
 10
7.858352633108805
 20
30.22544538331488
 30
0.0
 10
7.77040806926377
 20
30.33636220150472
 30
0.0
 10
7.682003870801148
 20
30.44717457304429
 30
0.0
 10
7.593163357943772
 20
30.55788599722888
 30
0.0
  0
SPLINE
  5
27E
330
1F
100
AcDbEntity
  8
1
  6
SLD-Solid
370
    25
100
AcDbSpline
210
0.0
220
0.0
230
1.0
 70
     8
 71
     3
 72
     8
 73
     4
 74
     0
 42
0.000000001
 43
0.00000001
 40
0.0
 40
0.0
 40
0.0
 40
0.0
 40
1.0
 40
1.0
 40
1.0
 40
1.0
 10
7.858352633108801
 20
30.22544538331488
 30
0.0
 10
8.306554309604724
 20
29.42177793480651
 30
0.0
 10
8.753850967335664
 20
28.61760224597469
 30
0.0
 10
9.200000000008437
 20
27.81278402659968
 30
0.0
  0
SPLINE
  5
27F
330
1F
100
AcDbEntity
  8
SK3
  6
SLD-Dashed
370
    18
100
AcDbSpline
210
0.0
220
0.0
230
1.0
 70
    24
 71
     3
 72
     9
 73
     5
 74
     0
 42
0.000000001
 43
0.00000001
 40
0.0
 40
0.0
 40
0.0
 40
0.0
 40
0.5360984655260146
 40
1.0
 40
1.0
 40
1.0
 40
1.0
 10
19.04999999999998
 20
24.8
 30
0.0
 10
19.05791179222127
 20
24.8
 30
0.0
 10
19.07266988747812
 20
24.8
 30
0.0
 10
19.1349951294033
 20
24.8
 30
0.0
 10
19.16390790476884
 20
24.8
 30
0.0
  0
SPLINE
  5
280
330
1F
100
AcDbEntity
  8
1
  6
SLD-Dashed
370
    18
100
AcDbSpline
210
0.0
220
0.0
230
1.0
 70
    24
 71
     2
 72
     6
 73
     3
 74
     0
 42
0.000000001
 43
0.00000001
 40
0.0
 40
0.0
 40
0.0
 40
0.25
 40
0.25
 40
0.25
 10
19.45000000000001
 20
24.79999999999999
 30
0.0
 10
19.42981308047433
 20
24.8
 30
0.0
 10
19.39512153630993
 20
24.8
 30
0.0
  0
SPLINE
  5
281
330
1F
100
AcDbEntity
  8
1
  6
SLD-Dashed
370
    18
100
AcDbSpline
210
0.0
220
0.0
230
1.0
 70
    24
 71
     3
 72
     8
 73
     4
 74
     0
 42
0.000000001
 43
0.00000001
 40
0.25
 40
0.25
 40
0.25
 40
0.25
 40
0.5
 40
0.5
 40
0.5
 40
0.5
 10
19.39512153630993
 20
24.8
 30
0.0
 10
19.36042999214554
 20
24.8
 30
0.0
 10
19.31170452422126
 20
24.8
 30
0.0
 10
19.26116138979793
 20
24.8
 30
0.0
  0
SPLINE
  5
282
330
1F
100
AcDbEntity
  8
1
  6
SLD-Dashed
370
    18
100
AcDbSpline
210
0.0
220
0.0
230
1.0
 70
    24
 71
     2
 72
     6
 73
     3
 74
     0
 42
0.000000001
 43
0.00000001
 40
0.5
 40
0.5
 40
0.5
 40
1.0
 40
1.0
 40
1.0
 10
19.26116138979793
 20
24.8
 30
0.0
 10
19.16007512095132
 20
24.8
 30
0.0
 10
19.04999999999998
 20
24.8
 30
0.0
  0
SPLINE
  5
283
330
1F
100
AcDbEntity
  8
SK3
  6
SLD-Dashed
370
    18
100
AcDbSpline
210
0.0
220
0.0
230
1.0
 70
     8
 71
     3
 72
    30
 73
    26
 74
     0
 42
0.000000001
 43
0.00000001
 40
0.499999999999999
 40
0.499999999999999
 40
0.499999999999999
 40
0.499999999999999
 40
0.5624999999999992
 40
0.5624999999999992
 40
0.6249999999999996
 40
0.6249999999999996
 40
0.6562499999999994
 40
0.6562499999999994
 40
0.6874999999999994
 40
0.6874999999999994
 40
0.7187499999999994
 40
0.7187499999999994
 40
0.7499999999999993
 40
0.7499999999999993
 40
0.7812499999999993
 40
0.7812499999999993
 40
0.8124999999999993
 40
0.8124999999999993
 40
0.8749999999999996
 40
0.8749999999999996
 40
0.9374999999999999
 40
0.9374999999999999
 40
0.9687499999999999
 40
0.9687499999999999
 40
1.0
 40
1.0
 40
1.0
 40
1.0
 10
11.76979658556573
 20
-4.897279110339457
 30
0.0
 10
11.91246294966133
 20
-4.882256760898245
 30
0.0
 10
12.04384136644408
 20
-4.882819793019737
 30
0.0
 10
12.28743240561786
 20
-4.928163099538006
 30
0.0
 10
12.40074037094362
 20
-4.971266772981778
 30
0.0
 10
12.55447570845303
 20
-5.099404902456441
 30
0.0
 10
12.60138543677659
 20
-5.151874520294791
 30
0.0
 10
12.68295201157342
 20
-5.2869805567278
 30
0.0
 10
12.71817196931763
 20
-5.371820149716405
 30
0.0
 10
12.76213654526595
 20
-5.578707548147714
 30
0.0
 10
12.77026091463636
 20
-5.701542481072332
 30
0.0
 10
12.75239776164135
 20
-5.964368720094718
 30
0.0
 10
12.72724833739214
 20
-6.099264719857809
 30
0.0
 10
12.65908666407785
 20
-6.353110225917072
 30
0.0
 10
12.61568164729122
 20
-6.474839021829197
 30
0.0
 10
12.52100924552235
 20
-6.700456538059782
 30
0.0
 10
12.46941331137411
 20
-6.805573231554563
 30
0.0
 10
12.30490621332256
 20
-7.105283457732449
 30
0.0
 10
12.18517846713211
 20
-7.279948999641412
 30
0.0
 10
11.9298373161686
 20
-7.593144382902764
 30
0.0
 10
11.79267665531761
 20
-7.73366357939878
 30
0.0
 10
11.56451158979957
 20
-7.914219675260043
 30
0.0
 10
11.48485276967109
 20
-7.969136937664181
 30
0.0
 10
11.31258630900463
 20
-8.065071374124756
 30
0.0
 10
11.21906269051036
 20
-8.106694499010084
 30
0.0
 10
11.115
 20
-8.135515956841495
 30
0.0
  0
SPLINE
  5
284
330
1F
100
AcDbEntity
  8
SK3
  6
SLD-Dashed
370
    18
100
AcDbSpline
210
0.0
220
0.0
230
1.0
 70
     8
 71
     3
 72
    34
 73
    30
 74
     0
 42
0.000000001
 43
0.00000001
 40
0.0
 40
0.0
 40
0.0
 40
0.0
 40
0.0312499999999997
 40
0.0312499999999997
 40
0.0624999999999995
 40
0.0624999999999995
 40
0.0937499999999992
 40
0.0937499999999992
 40
0.1249999999999991
 40
0.1249999999999991
 40
0.1562499999999989
 40
0.1562499999999989
 40
0.1874999999999988
 40
0.1874999999999988
 40
0.2499999999999989
 40
0.2499999999999989
 40
0.3124999999999991
 40
0.3124999999999991
 40
0.3437499999999992
 40
0.3437499999999992
 40
0.3749999999999992
 40
0.3749999999999992
 40
0.4062499999999993
 40
0.4062499999999993
 40
0.4374999999999992
 40
0.4374999999999992
 40
0.4687499999999992
 40
0.4687499999999992
 40
0.499999999999999
 40
0.499999999999999
 40
0.499999999999999
 40
0.499999999999999
 10
11.115
 20
-8.135515956841491
 30
0.0
 10
11.01093730948963
 20
-8.164337414672897
 30
0.0
 10
10.89827240143047
 20
-8.179464794190277
 30
0.0
 10
10.65524603173761
 20
-8.16584176040516
 30
0.0
 10
10.53100003630442
 20
-8.136838624998594
 30
0.0
 10
10.29040472633826
 20
-8.03735736722213
 30
0.0
 10
10.17852991293554
 20
-7.969631374308044
 30
0.0
 10
9.97164171922832
 20
-7.804710470753765
 30
0.0
 10
9.880140211756025
 20
-7.710255544057409
 30
0.0
 10
9.720479632928727
 20
-7.501520767052225
 30
0.0
 10
9.653640231842218
 20
-7.388447537981238
 30
0.0
 10
9.549145986449389
 20
-7.153218751817361
 30
0.0
 10
9.510668589618145
 20
-7.028363198412276
 30
0.0
 10
9.444144226770021
 20
-6.655645231796154
 30
0.0
 10
9.463570934642714
 20
-6.401824616238581
 30
0.0
 10
9.62543846018471
 20
-5.944312211752699
 30
0.0
 10
9.767910053168183
 20
-5.739855544595957
 30
0.0
 10
10.04867356462022
 20
-5.49334609958823
 30
0.0
 10
10.15222938652331
 20
-5.421392519446385
 30
0.0
 10
10.38092358660669
 20
-5.292864116337577
 30
0.0
 10
10.50285945052919
 20
-5.238408419891576
 30
0.0
 10
10.7514230217297
 20
-5.143758254460649
 30
0.0
 10
10.87148365715397
 20
-5.10548638297769
 30
0.0
 10
11.09561189675422
 20
-5.038956888356625
 30
0.0
 10
11.19522385975344
 20
-5.01207675542437
 30
0.0
 10
11.38076798793608
 20
-4.965661035352464
 30
0.0
 10
11.46555694339853
 20
-4.946630596353887
 30
0.0
 10
11.62416091896933
 20
-4.916239958733738
 30
0.0
 10
11.69846340351795
 20
-4.904790285060065
 30
0.0
 10
11.76979658556573
 20
-4.897279110339457
 30
0.0
  0
SPLINE
  5
285
330
1F
100
AcDbEntity
  8
SK3
  6
SLD-Dashed
370
    18
100
AcDbSpline
210
0.0
220
0.0
230
1.0
 70
     8
 71
     3
 72
    30
 73
    26
 74
     0
 42
0.000000001
 43
0.00000001
 40
0.5000000000000012
 40
0.5000000000000012
 40
0.5000000000000012
 40
0.5000000000000012
 40
0.5312500000000012
 40
0.5312500000000012
 40
0.5625000000000012
 40
0.5625000000000012
 40
0.6250000000000014
 40
0.6250000000000014
 40
0.6875000000000016
 40
0.6875000000000016
 40
0.7187500000000013
 40
0.7187500000000013
 40
0.7500000000000011
 40
0.7500000000000011
 40
0.781250000000001
 40
0.781250000000001
 40
0.8125000000000008
 40
0.8125000000000008
 40
0.8437500000000006
 40
0.8437500000000006
 40
0.8750000000000003
 40
0.8750000000000003
 40
0.9375000000000002
 40
0.9375000000000002
 40
1.0
 40
1.0
 40
1.0
 40
1.0
 10
9.543420299935407
 20
-8.779164202220969
 30
0.0
 10
9.578561233735405
 20
-8.859780618086686
 30
0.0
 10
9.622627266507019
 20
-8.923794183661835
 30
0.0
 10
9.718027024245027
 20
-9.025758720035865
 30
0.0
 10
9.770165859587774
 20
-9.064859097077958
 30
0.0
 10
9.935727180931456
 20
-9.157211171430468
 30
0.0
 10
10.05462982796815
 20
-9.184992456892155
 30
0.0
 10
10.31081948707686
 20
-9.203606692695095
 30
0.0
 10
10.44840974433163
 20
-9.193378534086479
 30
0.0
 10
10.67777322328792
 20
-9.155733028928248
 30
0.0
 10
10.75871097916555
 20
-9.139325882255605
 30
0.0
 10
10.93364535127572
 20
-9.098739976864982
 30
0.0
 10
11.02698337642655
 20
-9.074851433919607
 30
0.0
 10
11.23604536410178
 20
-9.016444669949886
 30
0.0
 10
11.35057343779476
 20
-8.982450275402124
 30
0.0
 10
11.59480302461463
 20
-8.898825374105343
 30
0.0
 10
11.71945599477361
 20
-8.850454838246359
 30
0.0
 10
11.95950363931203
 20
-8.734148500327654
 30
0.0
 10
12.07031700587897
 20
-8.668572650845505
 30
0.0
 10
12.27422745067754
 20
-8.516171160077086
 30
0.0
 10
12.36502701179844
 20
-8.43088228449966
 30
0.0
 10
12.59959907667485
 20
-8.14815020328068
 30
0.0
 10
12.7044417703268
 20
-7.922793662573064
 30
0.0
 10
12.78609851062197
 20
-7.438758262361185
 30
0.0
 10
12.76320534245734
 20
-7.182019426018011
 30
0.0
 10
12.67730763443388
 20
-6.93673517076919
 30
0.0
  0
SPLINE
  5
286
330
1F
100
AcDbEntity
  8
SK3
  6
SLD-Dashed
370
    18
100
AcDbSpline
210
0.0
220
0.0
230
1.0
 70
     8
 71
     3
 72
    34
 73
    30
 74
     0
 42
0.000000001
 43
0.00000001
 40
0.0
 40
0.0
 40
0.0
 40
0.0
 40
0.0312500000000001
 40
0.0312500000000001
 40
0.0625000000000003
 40
0.0625000000000003
 40
0.0937500000000004
 40
0.0937500000000004
 40
0.1250000000000005
 40
0.1250000000000005
 40
0.1562500000000007
 40
0.1562500000000007
 40
0.1875000000000008
 40
0.1875000000000008
 40
0.2500000000000008
 40
0.2500000000000008
 40
0.3125000000000008
 40
0.3125000000000008
 40
0.3437500000000008
 40
0.3437500000000008
 40
0.3750000000000009
 40
0.3750000000000009
 40
0.406250000000001
 40
0.406250000000001
 40
0.4375000000000011
 40
0.4375000000000011
 40
0.4687500000000012
 40
0.4687500000000012
 40
0.5000000000000012
 40
0.5000000000000012
 40
0.5000000000000012
 40
0.5000000000000012
 10
12.67730763443388
 20
-6.936735170769186
 30
0.0
 10
12.63435878042214
 20
-6.814093043144776
 30
0.0
 10
12.57729529856066
 20
-6.697907968659766
 30
0.0
 10
12.436038089627
 20
-6.478825579697014
 30
0.0
 10
12.3509549142745
 20
-6.375597900680027
 30
0.0
 10
12.16118186397769
 20
-6.195677328194038
 30
0.0
 10
12.05422579636493
 20
-6.11651915045884
 30
0.0
 10
11.82324491388437
 20
-5.992288968745457
 30
0.0
 10
11.69889439480552
 20
-5.947796516244614
 30
0.0
 10
11.45304455248934
 20
-5.904797982531327
 30
0.0
 10
11.33231684279023
 20
-5.906500158642466
 30
0.0
 10
11.11245426351669
 20
-5.943973551987471
 30
0.0
 10
11.01315393168725
 20
-5.978453416312926
 30
0.0
 10
10.7376746653766
 20
-6.10755892408709
 30
0.0
 10
10.58689176004732
 20
-6.222865001686746
 30
0.0
 10
10.30357248622242
 20
-6.487130062003008
 30
0.0
 10
10.17286476490369
 20
-6.637950132877896
 30
0.0
 10
9.991005005593564
 20
-6.889595493159355
 30
0.0
 10
9.932635222666242
 20
-6.978050688572282
 30
0.0
 10
9.820404805610375
 20
-7.166770256680509
 30
0.0
 10
9.766060353100542
 20
-7.267956566324045
 30
0.0
 10
9.665448853514294
 20
-7.482658085956197
 30
0.0
 10
9.619326797725632
 20
-7.595375777572307
 30
0.0
 10
9.539388536729366
 20
-7.837768627707169
 30
0.0
 10
9.505665766297286
 20
-7.968295848681406
 30
0.0
 10
9.465224495380092
 20
-8.233656541530934
 30
0.0
 10
9.459739461343569
 20
-8.365744160008532
 30
0.0
 10
9.481585255233766
 20
-8.598717233607646
 30
0.0
 10
9.508279366135422
 20
-8.698547786355249
 30
0.0
 10
9.543420299935407
 20
-8.779164202220969
 30
0.0
  0
SPLINE
  5
287
330
1F
100
AcDbEntity
  8
SK3
  6
SLD-Dashed
370
    18
100
AcDbSpline
210
0.0
220
0.0
230
1.0
 70
    24
 71
     2
 72
     6
 73
     3
 74
     0
 42
0.000000001
 43
0.00000001
 40
0.0
 40
0.0
 40
0.0
 40
0.2499999999999999
 40
0.2499999999999999
 40
0.2499999999999999
 10
3.199999999999994
 20
-22.59999999996909
 30
0.0
 10
3.192575886898835
 20
-22.59999999997877
 30
0.0
 10
3.186463932143571
 20
-22.59999999998674
 30
0.0
  0
SPLINE
  5
288
330
1F
100
AcDbEntity
  8
SK3
  6
SLD-Dashed
370
    18
100
AcDbSpline
210
0.0
220
0.0
230
1.0
 70
    24
 71
     3
 72
     8
 73
     4
 74
     0
 42
0.000000001
 43
0.00000001
 40
0.2499999999999999
 40
0.2499999999999999
 40
0.2499999999999999
 40
0.2499999999999999
 40
0.4999999999999999
 40
0.4999999999999999
 40
0.4999999999999999
 40
0.4999999999999999
 10
3.186463932143571
 20
-22.59999999998674
 30
0.0
 10
3.180351977388307
 20
-22.59999999999469
 30
0.0
 10
3.175622110806353
 20
-22.60000000000085
 30
0.0
 10
3.1755356464295
 20
-22.60000000000098
 30
0.0
  0
SPLINE
  5
289
330
1F
100
AcDbEntity
  8
SK3
  6
SLD-Dashed
370
    18
100
AcDbSpline
210
0.0
220
0.0
230
1.0
 70
    24
 71
     3
 72
     8
 73
     4
 74
     0
 42
0.000000001
 43
0.00000001
 40
0.4999999999999999
 40
0.4999999999999999
 40
0.4999999999999999
 40
0.4999999999999999
 40
0.5624999999999999
 40
0.5624999999999999
 40
0.5624999999999999
 40
0.5624999999999999
 10
3.1755356464295
 20
-22.60000000000098
 30
0.0
 10
3.17551403033528
 20
-22.60000000000101
 30
0.0
 10
3.175756782063152
 20
-22.60000000000071
 30
0.0
 10
3.176252872171381
 20
-22.60000000000013
 30
0.0
  0
SPLINE
  5
28A
330
1F
100
AcDbEntity
  8
SK3
  6
SLD-Dashed
370
    18
100
AcDbSpline
210
0.0
220
0.0
230
1.0
 70
    24
 71
     3
 72
     8
 73
     4
 74
     0
 42
0.000000001
 43
0.00000001
 40
0.5624999999999999
 40
0.5624999999999999
 40
0.5624999999999999
 40
0.5624999999999999
 40
0.6249999999999999
 40
0.6249999999999999
 40
0.6249999999999999
 40
0.6249999999999999
 10
3.176252872171381
 20
-22.60000000000013
 30
0.0
 10
3.176748962279596
 20
-22.59999999999955
 30
0.0
 10
3.177497902177598
 20
-22.59999999999867
 30
0.0
 10
3.178460899892682
 20
-22.59999999999753
 30
0.0
  0
SPLINE
  5
28B
330
1F
100
AcDbEntity
  8
SK3
  6
SLD-Dashed
370
    18
100
AcDbSpline
210
0.0
220
0.0
230
1.0
 70
    24
 71
     3
 72
     8
 73
     4
 74
     0
 42
0.000000001
 43
0.00000001
 40
0.6249999999999999
 40
0.6249999999999999
 40
0.6249999999999999
 40
0.6249999999999999
 40
0.7499999999999998
 40
0.7499999999999998
 40
0.7499999999999998
 40
0.7499999999999998
 10
3.178460899892682
 20
-22.59999999999753
 30
0.0
 10
3.180386895322865
 20
-22.59999999999499
 30
0.0
 10
3.183192270314536
 20
-22.59999999999127
 30
0.0
 10
3.186270690980625
 20
-22.59999999998722
 30
0.0
  0
SPLINE
  5
28C
330
1F
100
AcDbEntity
  8
SK3
  6
SLD-Dashed
370
    18
100
AcDbSpline
210
0.0
220
0.0
230
1.0
 70
    24
 71
     2
 72
     6
 73
     3
 74
     0
 42
0.000000001
 43
0.00000001
 40
0.7499999999999998
 40
0.7499999999999998
 40
0.7499999999999998
 40
1.0
 40
1.0
 40
1.0
 10
3.186270690980625
 20
-22.59999999998722
 30
0.0
 10
3.192427532312775
 20
-22.5999999999791
 30
0.0
 10
3.199999999999994
 20
-22.59999999996909
 30
0.0
  0
SPLINE
  5
28D
330
1F
100
AcDbEntity
  8
SK3
  6
SLD-Dashed
370
    18
100
AcDbSpline
210
0.0
220
0.0
230
1.0
 70
     8
 71
     3
 72
    36
 73
    32
 74
     0
 42
0.000000001
 43
0.00000001
 40
0.0
 40
0.0
 40
0.0
 40
0.0
 40
0.0625000000000004
 40
0.0625000000000004
 40
0.1250000000000008
 40
0.1250000000000008
 40
0.1875000000000008
 40
0.1875000000000008
 40
0.2500000000000008
 40
0.2500000000000008
 40
0.3125000000000008
 40
0.3125000000000008
 40
0.3750000000000008
 40
0.3750000000000008
 40
0.4375000000000008
 40
0.4375000000000008
 40
0.5000000000000008
 40
0.5000000000000008
 40
0.5625000000000007
 40
0.5625000000000007
 40
0.6250000000000007
 40
0.6250000000000007
 40
0.6875000000000006
 40
0.6875000000000006
 40
0.7500000000000006
 40
0.7500000000000006
 40
0.8125000000000004
 40
0.8125000000000004
 40
0.8750000000000004
 40
0.8750000000000004
 40
1.0
 40
1.0
 40
1.0
 40
1.0
 10
11.74999999999997
 20
-0.9057207797061734
 30
0.0
 10
11.62416548199687
 20
-0.8524166931360988
 30
0.0
 10
11.49432765693557
 20
-0.8155355586233238
 30
0.0
 10
11.22674576567212
 20
-0.7743956421467566
 30
0.0
 10
11.08884068764494
 20
-0.7707751745295102
 30
0.0
 10
10.82039005351848
 20
-0.79757640585831
 30
0.0
 10
10.686073678728
 20
-0.8283390234128316
 30
0.0
 10
10.4317419305421
 20
-0.9209782775339916
 30
0.0
 10
10.3116266178067
 20
-0.982229580112539
 30
0.0
 10
10.08556990425832
 20
-1.134423921113098
 30
0.0
 10
9.984001627921776
 20
-1.222442120044208
 30
0.0
 10
9.80330764707585
 20
-1.420289832003329
 30
0.0
 10
9.72425812167381
 20
-1.530895040166492
 30
0.0
 10
9.597426924649085
 20
-1.762241610025989
 30
0.0
 10
9.54786001311303
 20
-1.886003150830297
 30
0.0
 10
9.48178407118415
 20
-2.138084682999378
 30
0.0
 10
9.46509517384432
 20
-2.265120647575187
 30
0.0
 10
9.464905625744771
 20
-2.521002600032893
 30
0.0
 10
9.481735504144606
 20
-2.64690876267092
 30
0.0
 10
9.547342673192613
 20
-2.887657004392231
 30
0.0
 10
9.597048165988609
 20
-3.004561582017118
 30
0.0
 10
9.723968421246232
 20
-3.218149494428161
 30
0.0
 10
9.802367219879482
 20
-3.317376267839671
 30
0.0
 10
9.983730875119084
 20
-3.494235098931584
 30
0.0
 10
10.08513281551712
 20
-3.570909935726816
 30
0.0
 10
10.30970066329436
 20
-3.701843815172915
 30
0.0
 10
10.43138091919886
 20
-3.754803258917611
 30
0.0
 10
10.68455709047377
 20
-3.83306224079533
 30
0.0
 10
10.8192272749925
 20
-3.85907484239045
 30
0.0
 10
11.2225123723991
 20
-3.893039607907541
 30
0.0
 10
11.49830091215182
 20
-3.858486904927183
 30
0.0
 10
11.74999999999997
 20
-3.767867780059143
 30
0.0
  0
SPLINE
  5
28E
330
1F
100
AcDbEntity
  8
SK3
  6
SLD-Dashed
370
    18
100
AcDbSpline
210
0.0
220
0.0
230
1.0
 70
     8
 71
     3
 72
    26
 73
    22
 74
     0
 42
0.000000001
 43
0.00000001
 40
0.0
 40
0.0
 40
0.0
 40
0.0
 40
0.1249999999999998
 40
0.1249999999999998
 40
0.2499999999999996
 40
0.2499999999999996
 40
0.3749999999999994
 40
0.3749999999999994
 40
0.4374999999999994
 40
0.4374999999999994
 40
0.4999999999999994
 40
0.4999999999999994
 40
0.5624999999999993
 40
0.5624999999999993
 40
0.6249999999999992
 40
0.6249999999999992
 40
0.7499999999999994
 40
0.7499999999999994
 40
0.8749999999999998
 40
0.8749999999999998
 40
1.0
 40
1.0
 40
1.0
 40
1.0
 10
11.74999999999997
 20
-3.76786778005966
 30
0.0
 10
11.85950024758085
 20
-3.664585422671344
 30
0.0
 10
11.96812746303845
 20
-3.550496263456719
 30
0.0
 10
12.18250083392515
 20
-3.2927169385852
 30
0.0
 10
12.2895182172212
 20
-3.14738383797792
 30
0.0
 10
12.48751012309499
 20
-2.821793985597215
 30
0.0
 10
12.58011672104598
 20
-2.638579144541766
 30
0.0
 10
12.68413541521779
 20
-2.34171641145731
 30
0.0
 10
12.71359324017121
 20
-2.236436343996485
 30
0.0
 10
12.75371307968369
 20
-2.027066080697137
 30
0.0
 10
12.76475489313736
 20
-1.920528682044714
 30
0.0
 10
12.76523674023025
 20
-1.71922932288095
 30
0.0
 10
12.75479077938475
 20
-1.623076295954644
 30
0.0
 10
12.71534531614847
 20
-1.449541331881625
 30
0.0
 10
12.68649942792889
 20
-1.371987910960201
 30
0.0
 10
12.58183208567945
 20
-1.170437134092553
 30
0.0
 10
12.48914759634055
 20
-1.077407845090965
 30
0.0
 10
12.29164593291515
 20
-0.9507590004060595
 30
0.0
 10
12.18559959661429
 20
-0.9159314833874811
 30
0.0
 10
11.96926555986633
 20
-0.8845556695109384
 30
0.0
 10
11.85995192376685
 20
-0.8881744884963461
 30
0.0
 10
11.74999999999997
 20
-0.9057207797061734
 30
0.0
  0
SPLINE
  5
28F
330
1F
100
AcDbEntity
  8
SK3
  6
SLD-Dashed
370
    18
100
AcDbSpline
210
0.0
220
0.0
230
1.0
 70
     8
 71
     3
 72
    30
 73
    26
 74
     0
 42
0.000000001
 43
0.00000001
 40
0.5000000000000041
 40
0.5000000000000041
 40
0.5000000000000041
 40
0.5000000000000041
 40
0.5625000000000038
 40
0.5625000000000038
 40
0.5937500000000037
 40
0.5937500000000037
 40
0.6250000000000033
 40
0.6250000000000033
 40
0.6875000000000029
 40
0.6875000000000029
 40
0.7187500000000027
 40
0.7187500000000027
 40
0.7500000000000024
 40
0.7500000000000024
 40
0.812500000000002
 40
0.812500000000002
 40
0.8750000000000014
 40
0.8750000000000014
 40
0.9062500000000011
 40
0.9062500000000011
 40
0.9375000000000008
 40
0.9375000000000008
 40
0.9687500000000004
 40
0.9687500000000004
 40
1.0
 40
1.0
 40
1.0
 40
1.0
 10
26.99941771263467
 20
-3.87246559180943
 30
0.0
 10
27.19631396594367
 20
-3.872499251144183
 30
0.0
 10
27.3950361733899
 20
-3.855375005661146
 30
0.0
 10
27.6666464882927
 20
-3.803020968255324
 30
0.0
 10
27.75426003124489
 20
-3.780787301874235
 30
0.0
 10
27.91600619295269
 20
-3.727637606452342
 30
0.0
 10
27.9911054854727
 20
-3.69660117774398
 30
0.0
 10
28.19911906919295
 20
-3.587474021696211
 30
0.0
 10
28.30893482121999
 20
-3.496254308410891
 30
0.0
 10
28.42266210219507
 20
-3.329569354486622
 30
0.0
 10
28.45125500714459
 20
-3.270249922603583
 30
0.0
 10
28.48999044465374
 20
-3.143397492655835
 30
0.0
 10
28.5000092862827
 20
-3.075003391082867
 30
0.0
 10
28.49998140754893
 20
-2.865305531977457
 30
0.0
 10
28.45988674002663
 20
-2.714667903428891
 30
0.0
 10
28.30929910222112
 20
-2.42412580672275
 30
0.0
 10
28.19791945396806
 20
-2.28212323509552
 30
0.0
 10
27.99159816831922
 20
-2.098721479275513
 30
0.0
 10
27.91503547995662
 20
-2.041483543673082
 30
0.0
 10
27.75324359051773
 20
-1.941449925400511
 30
0.0
 10
27.66753999758512
 20
-1.898059717090925
 30
0.0
 10
27.48596027224869
 20
-1.826150359930188
 30
0.0
 10
27.39053820265582
 20
-1.798090400675249
 30
0.0
 10
27.1980879634334
 20
-1.760816006130858
 30
0.0
 10
27.09997437261379
 20
-1.751145298020718
 30
0.0
 10
26.99999999999998
 20
-1.751145298020718
 30
0.0
  0
SPLINE
  5
290
330
1F
100
AcDbEntity
  8
SK3
  6
SLD-Dashed
370
    18
100
AcDbSpline
210
0.0
220
0.0
230
1.0
 70
     8
 71
     3
 72
    30
 73
    26
 74
     0
 42
0.000000001
 43
0.00000001
 40
0.0
 40
0.0
 40
0.0
 40
0.0
 40
0.0312500000000003
 40
0.0312500000000003
 40
0.0625000000000006
 40
0.0625000000000006
 40
0.1250000000000013
 40
0.1250000000000013
 40
0.1875000000000019
 40
0.1875000000000019
 40
0.2187500000000022
 40
0.2187500000000022
 40
0.2500000000000026
 40
0.2500000000000026
 40
0.2812500000000029
 40
0.2812500000000029
 40
0.3125000000000032
 40
0.3125000000000032
 40
0.3750000000000038
 40
0.3750000000000038
 40
0.4062500000000042
 40
0.4062500000000042
 40
0.4375000000000044
 40
0.4375000000000044
 40
0.5000000000000041
 40
0.5000000000000041
 40
0.5000000000000041
 40
0.5000000000000041
 10
26.99999999999998
 20
-1.751145298020718
 30
0.0
 10
26.90002562738619
 20
-1.751145298020718
 30
0.0
 10
26.80189828205511
 20
-1.76080731842292
 30
0.0
 10
26.60912699143049
 20
-1.798166619255463
 30
0.0
 10
26.5134634226299
 20
-1.826351624734792
 30
0.0
 10
26.24166330491959
 20
-1.934071203380187
 30
0.0
 10
26.0764293013088
 20
-2.038179478005036
 30
0.0
 10
25.80212801036649
 20
-2.282152697554999
 30
0.0
 10
25.69064343386185
 20
-2.424297149833044
 30
0.0
 10
25.57793204717719
 20
-2.641670581386451
 30
0.0
 10
25.54866618500099
 20
-2.716237703781096
 30
0.0
 10
25.50979090726702
 20
-2.862977181216201
 30
0.0
 10
25.50006625544444
 20
-2.934643580179787
 30
0.0
 10
25.4999344128336
 20
-3.074347971556278
 30
0.0
 10
25.50987300713725
 20
-3.142753329065998
 30
0.0
 10
25.54855342935153
 20
-3.269817910608517
 30
0.0
 10
25.57716523737978
 20
-3.329301982064194
 30
0.0
 10
25.69127211658373
 20
-3.496586205440126
 30
0.0
 10
25.80190763453587
 20
-3.588056243051321
 30
0.0
 10
26.00878626805168
 20
-3.696522527544224
 30
0.0
 10
26.08368205483685
 20
-3.72752355282097
 30
0.0
 10
26.24561499520829
 20
-3.780757816401127
 30
0.0
 10
26.33323478480777
 20
-3.802980029566784
 30
0.0
 10
26.6037974440876
 20
-3.855186147516676
 30
0.0
 10
26.80252145932567
 20
-3.872431932474676
 30
0.0
 10
26.99941771263467
 20
-3.87246559180943
 30
0.0
  0
SPLINE
  5
291
330
1F
100
AcDbEntity
  8
SK3
  6
SLD-Dashed
370
    18
100
AcDbSpline
210
0.0
220
0.0
230
1.0
 70
     8
 71
     3
 72
    30
 73
    26
 74
     0
 42
0.000000001
 43
0.00000001
 40
0.5000000000000017
 40
0.5000000000000017
 40
0.5000000000000017
 40
0.5000000000000017
 40
0.5625000000000011
 40
0.5625000000000011
 40
0.5937500000000009
 40
0.5937500000000009
 40
0.6250000000000007
 40
0.6250000000000007
 40
0.6875000000000003
 40
0.6875000000000003
 40
0.7187500000000002
 40
0.7187500000000002
 40
0.7500000000000001
 40
0.7500000000000001
 40
0.8124999999999998
 40
0.8124999999999998
 40
0.8749999999999994
 40
0.8749999999999994
 40
0.9062499999999998
 40
0.9062499999999998
 40
0.9374999999999999
 40
0.9374999999999999
 40
0.96875
 40
0.96875
 40
1.0
 40
1.0
 40
1.0
 40
1.0
 10
27.00058228736529
 20
3.872465591809413
 30
0.0
 10
26.80368603405631
 20
3.872499251144169
 30
0.0
 10
26.6049638266101
 20
3.855375005661125
 30
0.0
 10
26.3333535117073
 20
3.803020968255307
 30
0.0
 10
26.24573996875511
 20
3.780787301874221
 30
0.0
 10
26.08399380704729
 20
3.727637606452318
 30
0.0
 10
26.00889451452729
 20
3.696601177743959
 30
0.0
 10
25.80088093080704
 20
3.587474021696187
 30
0.0
 10
25.69106517877995
 20
3.496254308410871
 30
0.0
 10
25.57733789780488
 20
3.329569354486597
 30
0.0
 10
25.54874499285539
 20
3.270249922603545
 30
0.0
 10
25.51000955534622
 20
3.143397492655797
 30
0.0
 10
25.49999071371728
 20
3.07500339108284
 30
0.0
 10
25.50001859245103
 20
2.865305531977419
 30
0.0
 10
25.54011325997335
 20
2.714667903428849
 30
0.0
 10
25.69070089777887
 20
2.424125806722709
 30
0.0
 10
25.80208054603193
 20
2.282123235095475
 30
0.0
 10
26.00840183168074
 20
2.098721479275464
 30
0.0
 10
26.08496452004337
 20
2.041483543673034
 30
0.0
 10
26.24675640948228
 20
1.941449925400469
 30
0.0
 10
26.33246000241488
 20
1.898059717090887
 30
0.0
 10
26.51403972775128
 20
1.826150359930154
 30
0.0
 10
26.60946179734415
 20
1.798090400675203
 30
0.0
 10
26.80191203656658
 20
1.760816006130816
 30
0.0
 10
26.90002562738618
 20
1.751145298020666
 30
0.0
 10
26.99999999999997
 20
1.751145298020666
 30
0.0
  0
SPLINE
  5
292
330
1F
100
AcDbEntity
  8
SK3
  6
SLD-Dashed
370
    18
100
AcDbSpline
210
0.0
220
0.0
230
1.0
 70
     8
 71
     3
 72
    30
 73
    26
 74
     0
 42
0.000000001
 43
0.00000001
 40
0.0
 40
0.0
 40
0.0
 40
0.0
 40
0.0312500000000001
 40
0.0312500000000001
 40
0.0625000000000002
 40
0.0625000000000002
 40
0.1250000000000005
 40
0.1250000000000005
 40
0.1875000000000008
 40
0.1875000000000008
 40
0.218750000000001
 40
0.218750000000001
 40
0.2500000000000011
 40
0.2500000000000011
 40
0.2812500000000012
 40
0.2812500000000012
 40
0.3125000000000014
 40
0.3125000000000014
 40
0.3750000000000017
 40
0.3750000000000017
 40
0.4062500000000019
 40
0.4062500000000019
 40
0.4375000000000022
 40
0.4375000000000022
 40
0.5000000000000017
 40
0.5000000000000017
 40
0.5000000000000017
 40
0.5000000000000017
 10
26.99999999999997
 20
1.751145298020666
 30
0.0
 10
27.09997437261379
 20
1.751145298020666
 30
0.0
 10
27.19810171794486
 20
1.760807318422868
 30
0.0
 10
27.3908730085695
 20
1.798166619255415
 30
0.0
 10
27.48653657737007
 20
1.82635162473474
 30
0.0
 10
27.75833669508042
 20
1.934071203380149
 30
0.0
 10
27.9235706986912
 20
2.038179478004991
 30
0.0
 10
28.1978719896335
 20
2.282152697554947
 30
0.0
 10
28.30935656613812
 20
2.424297149832999
 30
0.0
 10
28.4220679528228
 20
2.64167058138641
 30
0.0
 10
28.45133381499902
 20
2.716237703781065
 30
0.0
 10
28.49020909273298
 20
2.862977181216163
 30
0.0
 10
28.49993374455556
 20
2.934643580179759
 30
0.0
 10
28.50006558716638
 20
3.07434797155625
 30
0.0
 10
28.49012699286273
 20
3.14275332906596
 30
0.0
 10
28.45144657064845
 20
3.269817910608486
 30
0.0
 10
28.4228347626202
 20
3.329301982064166
 30
0.0
 10
28.30872788341624
 20
3.496586205440098
 30
0.0
 10
28.19809236546412
 20
3.588056243051294
 30
0.0
 10
27.99121373194832
 20
3.696522527544203
 30
0.0
 10
27.9163179451631
 20
3.727523552820945
 30
0.0
 10
27.7543850047917
 20
3.780757816401116
 30
0.0
 10
27.66676521519221
 20
3.802980029566763
 30
0.0
 10
27.39620255591239
 20
3.855186147516669
 30
0.0
 10
27.19747854067429
 20
3.872431932474663
 30
0.0
 10
27.00058228736529
 20
3.872465591809413
 30
0.0
  0
SPLINE
  5
293
330
1F
100
AcDbEntity
  8
SK3
  6
SLD-Dashed
370
    18
100
AcDbSpline
210
0.0
220
0.0
230
1.0
 70
     8
 71
     3
 72
    32
 73
    28
 74
     0
 42
0.000000001
 43
0.00000001
 40
0.0
 40
0.0
 40
0.0
 40
0.0
 40
0.0314247042100664
 40
0.062736102022839
 40
0.1252746117070718
 40
0.1539592720611291
 40
0.197049513229272
 40
0.2505154778796672
 40
0.2789491152340601
 40
0.321624470561837
 40
0.3752662880184974
 40
0.4040058917910606
 40
0.4468709414625839
 40
0.500207239546428
 40
0.5286758290850311
 40
0.571546843317892
 40
0.6253871654989203
 40
0.6539190971541697
 40
0.6965945969020235
 40
0.7499712152068314
 40
0.7785976833431874
 40
0.8217130856357605
 40
0.8751771545280762
 40
0.9000486762450147
 40
0.9373735729958375
 40
0.9685902180614527
 40
1.0
 40
1.0
 40
1.0
 40
1.0
 10
18.62026447633129
 20
-29.82882114257112
 30
0.0
 10
18.62019180017087
 20
-29.8341932318702
 30
0.0
 10
18.62004670989466
 20
-29.84491804060948
 30
0.0
 10
18.61850313900755
 20
-29.866285287468
 30
0.0
 10
18.61560599722748
 20
-29.8870631098016
 30
0.0
 10
18.61087372432742
 20
-29.90953419569862
 30
0.0
 10
18.60534715322999
 20
-29.93023160815019
 30
0.0
 10
18.59834796145003
 20
-29.95044462502968
 30
0.0
 10
18.59015103856905
 20
-29.97010326989923
 30
0.0
 10
18.58089125384742
 20
-29.98932831257833
 30
0.0
 10
18.57021609850729
 20
-30.00787912711383
 30
0.0
 10
18.55838375409499
 20
-30.02572753383519
 30
0.0
 10
18.54561025773883
 20
-30.04286242574872
 30
0.0
 10
18.53161517067807
 20
-30.05896941224622
 30
0.0
 10
18.51663044354336
 20
-30.07413070829256
 30
0.0
 10
18.50074652827563
 20
-30.08849194624855
 30
0.0
 10
18.48378770220488
 20
-30.10160583602291
 30
0.0
 10
18.46604707843606
 20
-30.11353908097593
 30
0.0
 10
18.44771171776484
 20
-30.12440318635158
 30
0.0
 10
18.42855928536835
 20
-30.13381866711368
 30
0.0
 10
18.40877202893759
 20
-30.14195042303681
 30
0.0
 10
18.38851588906322
 20
-30.14891417798702
 30
0.0
 10
18.36837945071364
 20
-30.15408652144023
 30
0.0
 10
18.34894901021089
 20
-30.15776004896281
 30
0.0
 10
18.33311568877942
 20
-30.15989729341243
 30
0.0
 10
18.31607581329463
 20
-30.16128184220367
 30
0.0
 10
18.30536961023573
 20
-30.16144319907846
 30
0.0
 10
18.29999999999998
 20
-30.16152412632425
 30
0.0
  0
SPLINE
  5
294
330
1F
100
AcDbEntity
  8
SK3
  6
SLD-Dashed
370
    18
100
AcDbSpline
210
0.0
220
0.0
230
1.0
 70
     8
 71
     3
 72
    32
 73
    28
 74
     0
 42
0.000000001
 43
0.00000001
 40
0.0
 40
0.0
 40
0.0
 40
0.0
 40
0.0252069619805965
 40
0.0503565928962292
 40
0.1006490309396785
 40
0.1352066802269548
 40
0.1865993845852508
 40
0.2121889141728434
 40
0.2505546444408214
 40
0.2790381884906412
 40
0.3220317068360286
 40
0.3758145255415044
 40
0.404295820519503
 40
0.4469103686213581
 40
0.5002459503879969
 40
0.528855824677653
 40
0.5719893761750922
 40
0.6254951328276628
 40
0.6539175144736098
 40
0.696536720472872
 40
0.7500346443241681
 40
0.7787727799701039
 40
0.8217726885774242
 40
0.875157172018875
 40
0.9373534326371816
 40
0.96858819293329
 40
1.0
 40
1.0
 40
1.0
 40
1.0
 10
3.950000000000074
 20
-30.16151882748108
 30
0.0
 10
3.94569097665642
 20
-30.16146650493254
 30
0.0
 10
3.937082730471757
 20
-30.16136197883858
 30
0.0
 10
3.919908796993203
 20
-30.16024449153084
 30
0.0
 10
3.90122876498287
 20
-30.15790438581769
 30
0.0
 10
3.87837657010768
 20
-30.15336639862267
 30
0.0
 10
3.859960090030043
 20
-30.14833078717686
 30
0.0
 10
3.841305754981728
 20
-30.1419345895304
 30
0.0
 10
3.826637959905019
 20
-30.13602730574531
 30
0.0
 10
3.809624983402006
 20
-30.12807150312573
 30
0.0
 10
3.790775436323136
 20
-30.11788058118612
 30
0.0
 10
3.772769304214908
 20
-30.10624150695176
 30
0.0
 10
3.755642670506635
 20
-30.09349163747791
 30
0.0
 10
3.7393138687473
 20
-30.07983729641957
 30
0.0
 10
3.724045834262303
 20
-30.06495801131261
 30
0.0
 10
3.709720377082806
 20
-30.0490797843433
 30
0.0
 10
3.696280369454779
 20
-30.03239441179727
 30
0.0
 10
3.684137970427892
 20
-30.01476806921985
 30
0.0
 10
3.673182796489979
 20
-29.99650801854859
 30
0.0
 10
3.663231037521097
 20
-29.97767283170696
 30
0.0
 10
3.654652027464009
 20
-29.95810304290546
 30
0.0
 10
3.647288209939354
 20
-29.93799727883841
 30
0.0
 10
3.641019692661144
 20
-29.91753322021579
 30
0.0
 10
3.634954417232743
 20
-29.89108445487316
 30
0.0
 10
3.631494145788171
 20
-29.8661919062965
 30
0.0
 10
3.629955255005604
 20
-29.84489816486802
 30
0.0
 10
3.629810939896866
 20
-29.83418880501214
 30
0.0
 10
3.629738578416517
 20
-29.82881899211158
 30
0.0
  0
SPLINE
  5
295
330
1F
100
AcDbEntity
  8
SK3
  6
SLD-Dashed
370
    18
100
AcDbSpline
210
0.0
220
0.0
230
1.0
 70
     8
 71
     3
 72
    15
 73
    11
 74
     0
 42
0.000000001
 43
0.00000001
 40
0.0
 40
0.0
 40
0.0
 40
0.0
 40
0.0557993087221228
 40
0.111864485388653
 40
0.2888047172845927
 40
0.4672929540727083
 40
0.6449188817558916
 40
0.82183837486139
 40
0.9108413529595489
 40
0.9999999999999999
 40
0.9999999999999999
 40
0.9999999999999999
 40
0.9999999999999999
 10
19.06857505171195
 20
-23.10000000013004
 30
0.0
 10
19.05251889297672
 20
-23.12461227093515
 30
0.0
 10
19.02033007244525
 20
-23.17395408306353
 30
0.0
 10
18.94267830043401
 20
-23.30475280182509
 30
0.0
 10
18.84469240635241
 20
-23.49850631445083
 30
0.0
 10
18.74509616847298
 20
-23.76148646032814
 30
0.0
 10
18.67324147938736
 20
-24.03335158597569
 30
0.0
 10
18.63740157278303
 20
-24.26456851331665
 30
0.0
 10
18.62236705516997
 20
-24.45105328684443
 30
0.0
 10
18.62096574407661
 20
-24.54488344453404
 30
0.0
 10
18.62026447633129
 20
-24.59183951548753
 30
0.0
  0
SPLINE
  5
296
330
1F
100
AcDbEntity
  8
SK3
  6
SLD-Dashed
370
    18
100
AcDbSpline
210
0.0
220
0.0
230
1.0
 70
     8
 71
     3
 72
    40
 73
    36
 74
     0
 42
0.000000001
 43
0.00000001
 40
0.0
 40
0.0
 40
0.0
 40
0.0
 40
0.0126129321408284
 40
0.0314976481214863
 40
0.0629183966423019
 40
0.0880663439234803
 40
0.125866354763068
 40
0.1545361786769574
 40
0.1972635113860108
 40
0.2185774264929276
 40
0.2505499734617923
 40
0.2790323571714456
 40
0.3220275474574851
 40
0.3436168158787434
 40
0.3758133620123479
 40
0.4042898095193604
 40
0.4468993710703213
 40
0.4682109724152262
 40
0.5002437124730742
 40
0.5288533887103644
 40
0.5719828275690779
 40
0.5934420637176465
 40
0.6254916984600224
 40
0.653910727274769
 40
0.6965262692823406
 40
0.7178823906430034
 40
0.7500313093223357
 40
0.7787800102784423
 40
0.8217645159398433
 40
0.8431483194674881
 40
0.8751517844219878
 40
0.9000181011005798
 40
0.9373587731716244
 40
0.9685909586700439
 40
1.0
 40
1.0
 40
1.0
 40
1.0
 10
18.29999999999999
 20
30.22558335104455
 30
0.0
 10
18.30272570721752
 20
30.22556627837405
 30
0.0
 10
18.30953248028666
 20
30.22552364364312
 30
0.0
 10
18.32312201631281
 20
30.22500642557786
 30
0.0
 10
18.33938561265747
 20
30.22373406987418
 30
0.0
 10
18.35962288482181
 20
30.22117674999642
 30
0.0
 10
18.37912375540279
 20
30.21767179888208
 30
0.0
 10
18.40209101964077
 20
30.212223950725
 30
0.0
 10
18.42129673976763
 20
30.20645116373995
 30
0.0
 10
18.44082814121578
 20
30.19944068106953
 30
0.0
 10
18.45719063599691
 20
30.19274469805107
 30
0.0
 10
18.47744394653428
 20
30.18326482982689
 30
0.0
 10
18.49514857763433
 20
30.17368320900063
 30
0.0
 10
18.51299975151374
 20
30.16278063541456
 30
0.0
 10
18.52776301175223
 20
30.1528614207477
 30
0.0
 10
18.54566472362533
 20
30.13952115792124
 30
0.0
 10
18.56099019739217
 20
30.12669393443828
 30
0.0
 10
18.57619621116281
 20
30.11259236596226
 30
0.0
 10
18.58867266852492
 20
30.10001076072547
 30
0.0
 10
18.60368988927731
 20
30.08334809853176
 30
0.0
 10
18.61632660054168
 20
30.06764274615826
 30
0.0
 10
18.62859079403632
 20
30.05073652815428
 30
0.0
 10
18.63839017710037
 20
30.03598122494382
 30
0.0
 10
18.6498449354283
 20
30.01686876572997
 30
0.0
 10
18.65917173679204
 20
29.99919674617719
 30
0.0
 10
18.66796571044984
 20
29.9803757589273
 30
0.0
 10
18.67483577298721
 20
29.96397331420776
 30
0.0
 10
18.6825517541346
 20
29.94288598449842
 30
0.0
 10
18.68844354184771
 20
29.92362807390458
 30
0.0
 10
18.69357306209471
 20
29.90344122156733
 30
0.0
 10
18.69708266244009
 20
29.88689138494663
 30
0.0
 10
18.70046523232463
 20
29.86681106446728
 30
0.0
 10
18.70287693087251
 20
29.84675380194966
 30
0.0
 10
18.70443725539648
 20
29.82519288084996
 30
0.0
 10
18.70461894852533
 20
29.81165479503142
 30
0.0
 10
18.70471005157812
 20
29.80486664099083
 30
0.0
  0
SPLINE
  5
297
330
1F
100
AcDbEntity
  8
SK3
  6
SLD-Dashed
370
    18
100
AcDbSpline
210
0.0
220
0.0
230
1.0
 70
     8
 71
     3
 72
    40
 73
    36
 74
     0
 42
0.000000001
 43
0.00000001
 40
0.0
 40
0.0
 40
0.0
 40
0.0
 40
0.0314214559032037
 40
0.0627294388196669
 40
0.0877405063681611
 40
0.1252752320174244
 40
0.1539551374834595
 40
0.1970430830225142
 40
0.2184753355447008
 40
0.2505176107708046
 40
0.2789492343756699
 40
0.3216198593784571
 40
0.3430128229232499
 40
0.3752634373756382
 40
0.4040010761832596
 40
0.4468656790907837
 40
0.4682159456822201
 40
0.5002096453491011
 40
0.5286754135732615
 40
0.5715400241808106
 40
0.5931009709519274
 40
0.6253883776448832
 40
0.6539191342583791
 40
0.6965914244659102
 40
0.7179237821558099
 40
0.7499746493554655
 40
0.7785976314667935
 40
0.7958543395075173
 40
0.8217160692236042
 40
0.8431552865200959
 40
0.8751886732676732
 40
0.900058014790492
 40
0.9373794060000434
 40
0.9685930788589316
 40
1.0
 40
1.0
 40
1.0
 40
1.0
 10
3.545409675680591
 20
29.80485287971372
 30
0.0
 10
3.545501023111141
 20
29.81164166153999
 30
0.0
 10
3.545683388087331
 20
29.8251947087171
 30
0.0
 10
3.54705345999792
 20
29.84411122909488
 30
0.0
 10
3.549299251389454
 20
29.86426498751705
 30
0.0
 10
3.55240428511609
 20
29.88373944820245
 30
0.0
 10
3.55726143379152
 20
29.90685347692527
 30
0.0
 10
3.562455940254586
 20
29.92632375171602
 30
0.0
 10
3.568799963996614
 20
29.94619932773124
 30
0.0
 10
3.574855736501956
 20
29.96283399089003
 30
0.0
 10
3.58342496066699
 20
29.98340946482207
 30
0.0
 10
3.592096254225697
 20
30.00143070205427
 30
0.0
 10
3.602020312803793
 20
30.01972187740226
 30
0.0
 10
3.611146885869788
 20
30.03501076615795
 30
0.0
 10
3.62353741871335
 20
30.05372220608935
 30
0.0
 10
3.63554200163546
 20
30.06984190818071
 30
0.0
 10
3.648773446540992
 20
30.08587429129638
 30
0.0
 10
3.660586287440716
 20
30.09903203572344
 30
0.0
 10
3.676273654159484
 20
30.11492036350291
 30
0.0
 10
3.691165638340334
 20
30.12839947493691
 30
0.0
 10
3.707358223330834
 20
30.14160775845477
 30
0.0
 10
3.721623747498015
 20
30.15226374744808
 30
0.0
 10
3.740175080459651
 20
30.164753922762
 30
0.0
 10
3.757385459193435
 20
30.17496149667661
 30
0.0
 10
3.775762890422848
 20
30.18460613543638
 30
0.0
 10
3.791800599478603
 20
30.19215438168906
 30
0.0
 10
3.807376593107606
 20
30.19856150287118
 30
0.0
 10
3.82192334434385
 20
30.20391478589547
 30
0.0
 10
3.835179256537619
 20
30.20826548810074
 30
0.0
 10
3.851662308305179
 20
30.21297330119846
 30
0.0
 10
3.868134809781432
 20
30.21689783095597
 30
0.0
 10
3.888140995237058
 20
30.22068429077271
 30
0.0
 10
3.908149905096456
 20
30.22338750379284
 30
0.0
 10
3.929684091678584
 20
30.22513891976573
 30
0.0
 10
3.943214112597029
 20
30.22534301884734
 30
0.0
 10
3.950000000000537
 20
30.22544538331488
 30
0.0
  0
SPLINE
  5
298
330
1F
100
AcDbEntity
  8
SK3
  6
SLD-Dashed
370
    18
100
AcDbSpline
210
0.0
220
0.0
230
1.0
 70
     8
 71
     3
 72
    26
 73
    22
 74
     0
 42
0.000000001
 43
0.00000001
 40
0.0
 40
0.0
 40
0.0
 40
0.0
 40
0.1250000000000002
 40
0.1250000000000002
 40
0.2500000000000003
 40
0.2500000000000003
 40
0.3750000000000005
 40
0.3750000000000005
 40
0.4375000000000006
 40
0.4375000000000006
 40
0.5000000000000007
 40
0.5000000000000007
 40
0.5625000000000008
 40
0.5625000000000008
 40
0.6250000000000009
 40
0.6250000000000009
 40
0.7500000000000006
 40
0.7500000000000006
 40
0.8750000000000002
 40
0.8750000000000002
 40
1.0
 40
1.0
 40
1.0
 40
1.0
 10
11.74999999999943
 20
3.767867780059657
 30
0.0
 10
11.85950024758034
 20
3.664585422671375
 30
0.0
 10
11.96812746303795
 20
3.550496263456757
 30
0.0
 10
12.18250083392472
 20
3.292716938585287
 30
0.0
 10
12.2895182172208
 20
3.147383837978017
 30
0.0
 10
12.48751012309464
 20
2.82179398559735
 30
0.0
 10
12.58011672104566
 20
2.638579144541929
 30
0.0
 10
12.68413541521753
 20
2.341716411457487
 30
0.0
 10
12.71359324017095
 20
2.23643634399668
 30
0.0
 10
12.75371307968348
 20
2.027066080697339
 30
0.0
 10
12.76475489313716
 20
1.920528682044911
 30
0.0
 10
12.7652367402301
 20
1.719229322881155
 30
0.0
 10
12.75479077938463
 20
1.623076295954845
 30
0.0
 10
12.71534531614837
 20
1.449541331881812
 30
0.0
 10
12.68649942792882
 20
1.371987910960382
 30
0.0
 10
12.58183208567941
 20
1.170437134092712
 30
0.0
 10
12.48914759634052
 20
1.077407845091104
 30
0.0
 10
12.29164593291515
 20
0.9507590004061567
 30
0.0
 10
12.18559959661429
 20
0.9159314833875678
 30
0.0
 10
11.96926555986633
 20
0.8845556695109904
 30
0.0
 10
11.85995192376686
 20
0.8881744884963669
 30
0.0
 10
11.74999999999997
 20
0.9057207797061804
 30
0.0
  0
SPLINE
  5
299
330
1F
100
AcDbEntity
  8
SK3
  6
SLD-Dashed
370
    18
100
AcDbSpline
210
0.0
220
0.0
230
1.0
 70
     8
 71
     3
 72
    36
 73
    32
 74
     0
 42
0.000000001
 43
0.00000001
 40
0.0
 40
0.0
 40
0.0
 40
0.0
 40
0.0624999999999996
 40
0.0624999999999996
 40
0.1249999999999992
 40
0.1249999999999992
 40
0.1874999999999992
 40
0.1874999999999992
 40
0.2499999999999992
 40
0.2499999999999992
 40
0.3124999999999993
 40
0.3124999999999993
 40
0.3749999999999993
 40
0.3749999999999993
 40
0.4374999999999994
 40
0.4374999999999994
 40
0.4999999999999994
 40
0.4999999999999994
 40
0.5624999999999994
 40
0.5624999999999994
 40
0.6249999999999996
 40
0.6249999999999996
 40
0.6874999999999996
 40
0.6874999999999996
 40
0.7499999999999997
 40
0.7499999999999997
 40
0.8124999999999997
 40
0.8124999999999997
 40
0.8749999999999998
 40
0.8749999999999998
 40
1.0
 40
1.0
 40
1.0
 40
1.0
 10
11.74999999999997
 20
0.9057207797066869
 30
0.0
 10
11.62416548199688
 20
0.8524166931365984
 30
0.0
 10
11.49432765693559
 20
0.8155355586237854
 30
0.0
 10
11.22674576567216
 20
0.7743956421471729
 30
0.0
 10
11.08884068764497
 20
0.7707751745298987
 30
0.0
 10
10.82039005351851
 20
0.7975764058586396
 30
0.0
 10
10.68607367872801
 20
0.8283390234131507
 30
0.0
 10
10.4317419305421
 20
0.9209782775342554
 30
0.0
 10
10.31162661780668
 20
0.9822295801127714
 30
0.0
 10
10.08556990425828
 20
1.134423921113292
 30
0.0
 10
9.984001627921721
 20
1.222442120044388
 30
0.0
 10
9.803307647075751
 20
1.420289832003471
 30
0.0
 10
9.724258121673698
 20
1.530895040166617
 30
0.0
 10
9.59742692464892
 20
1.76224161002609
 30
0.0
 10
9.54786001311285
 20
1.886003150830394
 30
0.0
 10
9.481784071183913
 20
2.138084682999461
 30
0.0
 10
9.465095173844071
 20
2.265120647575267
 30
0.0
 10
9.464905625744466
 20
2.521002600032976
 30
0.0
 10
9.481735504144273
 20
2.646908762670999
 30
0.0
 10
9.547342673192253
 20
2.887657004392335
 30
0.0
 10
9.597048165988205
 20
3.004561582017229
 30
0.0
 10
9.723968421245802
 20
3.218149494428293
 30
0.0
 10
9.802367219879024
 20
3.31737626783981
 30
0.0
 10
9.9837308751186
 20
3.494235098931764
 30
0.0
 10
10.08513281551662
 20
3.570909935727014
 30
0.0
 10
10.30970066329383
 20
3.701843815173147
 30
0.0
 10
10.43138091919832
 20
3.754803258917874
 30
0.0
 10
10.68455709047321
 20
3.833062240795639
 30
0.0
 10
10.81922727499195
 20
3.859074842390779
 30
0.0
 10
11.22251237239853
 20
3.893039607907954
 30
0.0
 10
11.49830091215126
 20
3.858486904927655
 30
0.0
 10
11.74999999999943
 20
3.767867780059657
 30
0.0
  0
SPLINE
  5
29A
330
1F
100
AcDbEntity
  8
SK3
  6
SLD-Dashed
370
    18
100
AcDbSpline
210
0.0
220
0.0
230
1.0
 70
     8
 71
     3
 72
    30
 73
    26
 74
     0
 42
0.000000001
 43
0.00000001
 40
0.4999999999999973
 40
0.4999999999999973
 40
0.4999999999999973
 40
0.4999999999999973
 40
0.5624999999999977
 40
0.5624999999999977
 40
0.5937499999999979
 40
0.5937499999999979
 40
0.6249999999999979
 40
0.6249999999999979
 40
0.6874999999999982
 40
0.6874999999999982
 40
0.7187499999999984
 40
0.7187499999999984
 40
0.7499999999999986
 40
0.7499999999999986
 40
0.812499999999999
 40
0.812499999999999
 40
0.8749999999999993
 40
0.8749999999999993
 40
0.9062499999999994
 40
0.9062499999999994
 40
0.9374999999999997
 40
0.9374999999999997
 40
0.9687499999999998
 40
0.9687499999999998
 40
1.0
 40
1.0
 40
1.0
 40
1.0
 10
26.99941771263467
 20
-1.751145408083514
 30
0.0
 10
27.19631396594367
 20
-1.751070974164399
 30
0.0
 10
27.3950361733899
 20
-1.790232137952933
 30
0.0
 10
27.6666464882927
 20
-1.897661297629093
 30
0.0
 10
27.75426003124489
 20
-1.941999437984655
 30
0.0
 10
27.91600619295269
 20
-2.042163635487725
 30
0.0
 10
27.99110548547269
 20
-2.098276138588488
 30
0.0
 10
28.19911906919295
 20
-2.28320437716966
 30
0.0
 10
28.30893482122002
 20
-2.423320620560596
 30
0.0
 10
28.42266210219507
 20
-2.642898440811243
 30
0.0
 10
28.45125500714459
 20
-2.716119781862765
 30
0.0
 10
28.48999044465376
 20
-2.861973694651993
 30
0.0
 10
28.5000092862827
 20
-2.935408884104044
 30
0.0
 10
28.49998140754895
 20
-3.145092827980086
 30
0.0
 10
28.45988674002663
 20
-3.275108910359342
 30
0.0
 10
28.3092991022211
 20
-3.495622158329319
 30
0.0
 10
28.19791945396807
 20
-3.588114867949202
 30
0.0
 10
27.99159816831922
 20
-3.696336949449794
 30
0.0
 10
27.91503547995661
 20
-3.728008911938231
 30
0.0
 10
27.7532435905177
 20
-3.781068327039491
 30
0.0
 10
27.6675399975851
 20
-3.802823841941114
 30
0.0
 10
27.48596027224869
 20
-3.837873724525851
 30
0.0
 10
27.39053820265582
 20
-3.850946908398101
 30
0.0
 10
27.19808796343341
 20
-3.868132388227516
 30
0.0
 10
27.0999743726138
 20
-3.872465641580298
 30
0.0
 10
27.0
 20
-3.872465641580298
 30
0.0
  0
SPLINE
  5
29B
330
1F
100
AcDbEntity
  8
SK3
  6
SLD-Dashed
370
    18
100
AcDbSpline
210
0.0
220
0.0
230
1.0
 70
     8
 71
     3
 72
    30
 73
    26
 74
     0
 42
0.000000001
 43
0.00000001
 40
0.0
 40
0.0
 40
0.0
 40
0.0
 40
0.0312499999999998
 40
0.0312499999999998
 40
0.0624999999999997
 40
0.0624999999999997
 40
0.1249999999999994
 40
0.1249999999999994
 40
0.1874999999999991
 40
0.1874999999999991
 40
0.2187499999999989
 40
0.2187499999999989
 40
0.2499999999999986
 40
0.2499999999999986
 40
0.2812499999999984
 40
0.2812499999999984
 40
0.3124999999999982
 40
0.3124999999999982
 40
0.3749999999999977
 40
0.3749999999999977
 40
0.4062499999999973
 40
0.4062499999999973
 40
0.437499999999997
 40
0.437499999999997
 40
0.4999999999999973
 40
0.4999999999999973
 40
0.4999999999999973
 40
0.4999999999999973
 10
27.0
 20
-3.872465641580298
 30
0.0
 10
26.90002562738619
 20
-3.872465641580298
 30
0.0
 10
26.80189828205511
 20
-3.868136591703767
 30
0.0
 10
26.60912699143049
 20
-3.850911569237177
 30
0.0
 10
26.51346342262992
 20
-3.837777401737064
 30
0.0
 10
26.24166330491959
 20
-3.785267645765068
 30
0.0
 10
26.07642930130881
 20
-3.732075639936185
 30
0.0
 10
25.80212801036649
 20
-3.588083504018322
 30
0.0
 10
25.69064343386186
 20
-3.495479687448531
 30
0.0
 10
25.57793204717719
 20
-3.330518018034263
 30
0.0
 10
25.54866618500097
 20
-3.270169814479119
 30
0.0
 10
25.50979090726702
 20
-3.142502114368066
 30
0.0
 10
25.50006625544444
 20
-3.075730989554139
 30
0.0
 10
25.4999344128336
 20
-2.936092405320709
 30
0.0
 10
25.50987300713724
 20
-2.862685776255071
 30
0.0
 10
25.54855342935153
 20
-2.716644837366899
 30
0.0
 10
25.57716523737978
 20
-2.643246640881159
 30
0.0
 10
25.69127211658374
 20
-2.422891429088431
 30
0.0
 10
25.80190763453588
 20
-2.282236081976002
 30
0.0
 10
26.00878626805168
 20
-2.098400221037737
 30
0.0
 10
26.08368205483687
 20
-2.042374207097717
 30
0.0
 10
26.24561499520829
 20
-1.942059363761794
 30
0.0
 10
26.33323478480779
 20
-1.897740896961993
 30
0.0
 10
26.6037974440876
 20
-1.790628447539817
 30
0.0
 10
26.80252145932567
 20
-1.751219842002633
 30
0.0
 10
26.99941771263467
 20
-1.751145408083514
 30
0.0
  0
SPLINE
  5
29C
330
1F
100
AcDbEntity
  8
SK3
  6
SLD-Dashed
370
    18
100
AcDbSpline
210
0.0
220
0.0
230
1.0
 70
     8
 71
     3
 72
    30
 73
    26
 74
     0
 42
0.000000001
 43
0.00000001
 40
0.4999999999999978
 40
0.4999999999999978
 40
0.4999999999999978
 40
0.4999999999999978
 40
0.5624999999999979
 40
0.5624999999999979
 40
0.593749999999998
 40
0.593749999999998
 40
0.6249999999999981
 40
0.6249999999999981
 40
0.6874999999999981
 40
0.6874999999999981
 40
0.7187499999999981
 40
0.7187499999999981
 40
0.749999999999998
 40
0.749999999999998
 40
0.8124999999999981
 40
0.8124999999999981
 40
0.8749999999999982
 40
0.8749999999999982
 40
0.9062499999999987
 40
0.9062499999999987
 40
0.9374999999999991
 40
0.9374999999999991
 40
0.9687499999999996
 40
0.9687499999999996
 40
1.0
 40
1.0
 40
1.0
 40
1.0
 10
27.00058228736531
 20
1.751145408083576
 30
0.0
 10
26.80368603405631
 20
1.751070974164465
 30
0.0
 10
26.6049638266101
 20
1.790232137952999
 30
0.0
 10
26.3333535117073
 20
1.897661297629159
 30
0.0
 10
26.24573996875512
 20
1.941999437984718
 30
0.0
 10
26.08399380704727
 20
2.04216363548778
 30
0.0
 10
26.0088945145273
 20
2.098276138588547
 30
0.0
 10
25.80088093080705
 20
2.283204377169716
 30
0.0
 10
25.69106517877996
 20
2.423320620560651
 30
0.0
 10
25.57733789780488
 20
2.642898440811302
 30
0.0
 10
25.54874499285541
 20
2.716119781862814
 30
0.0
 10
25.51000955534623
 20
2.861973694652041
 30
0.0
 10
25.49999071371728
 20
2.935408884104089
 30
0.0
 10
25.50001859245106
 20
3.145092827980138
 30
0.0
 10
25.54011325997337
 20
3.275108910359391
 30
0.0
 10
25.69070089777887
 20
3.495622158329367
 30
0.0
 10
25.80208054603193
 20
3.588114867949251
 30
0.0
 10
26.00840183168074
 20
3.69633694944984
 30
0.0
 10
26.08496452004336
 20
3.728008911938273
 30
0.0
 10
26.24675640948228
 20
3.781068327039526
 30
0.0
 10
26.33246000241488
 20
3.802823841941146
 30
0.0
 10
26.51403972775129
 20
3.837873724525882
 30
0.0
 10
26.60946179734414
 20
3.850946908398135
 30
0.0
 10
26.80191203656658
 20
3.868132388227558
 30
0.0
 10
26.90002562738621
 20
3.872465641580336
 30
0.0
 10
27.0
 20
3.872465641580336
 30
0.0
  0
SPLINE
  5
29D
330
1F
100
AcDbEntity
  8
SK3
  6
SLD-Dashed
370
    18
100
AcDbSpline
210
0.0
220
0.0
230
1.0
 70
     8
 71
     3
 72
    30
 73
    26
 74
     0
 42
0.000000001
 43
0.00000001
 40
0.0
 40
0.0
 40
0.0
 40
0.0
 40
0.0312499999999999
 40
0.0312499999999999
 40
0.0624999999999998
 40
0.0624999999999998
 40
0.1249999999999996
 40
0.1249999999999996
 40
0.1874999999999993
 40
0.1874999999999993
 40
0.2187499999999992
 40
0.2187499999999992
 40
0.2499999999999991
 40
0.2499999999999991
 40
0.2812499999999989
 40
0.2812499999999989
 40
0.3124999999999988
 40
0.3124999999999988
 40
0.3749999999999986
 40
0.3749999999999986
 40
0.4062499999999981
 40
0.4062499999999981
 40
0.4374999999999977
 40
0.4374999999999977
 40
0.4999999999999978
 40
0.4999999999999978
 40
0.4999999999999978
 40
0.4999999999999978
 10
27.0
 20
3.872465641580343
 30
0.0
 10
27.09997437261381
 20
3.872465641580329
 30
0.0
 10
27.1981017179449
 20
3.868136591703805
 30
0.0
 10
27.39087300856952
 20
3.850911569237212
 30
0.0
 10
27.48653657737009
 20
3.837777401737088
 30
0.0
 10
27.75833669508041
 20
3.785267645765103
 30
0.0
 10
27.9235706986912
 20
3.732075639936209
 30
0.0
 10
28.1978719896335
 20
3.588083504018347
 30
0.0
 10
28.30935656613812
 20
3.495479687448566
 30
0.0
 10
28.42206795282281
 20
3.330518018034301
 30
0.0
 10
28.45133381499904
 20
3.270169814479161
 30
0.0
 10
28.49020909273298
 20
3.142502114368097
 30
0.0
 10
28.49993374455555
 20
3.075730989554187
 30
0.0
 10
28.5000655871664
 20
2.936092405320751
 30
0.0
 10
28.49012699286276
 20
2.86268577625512
 30
0.0
 10
28.45144657064846
 20
2.716644837366951
 30
0.0
 10
28.42283476262021
 20
2.643246640881204
 30
0.0
 10
28.30872788341625
 20
2.422891429088483
 30
0.0
 10
28.19809236546412
 20
2.282236081976051
 30
0.0
 10
27.99121373194832
 20
2.098400221037799
 30
0.0
 10
27.91631794516311
 20
2.042374207097769
 30
0.0
 10
27.7543850047917
 20
1.942059363761857
 30
0.0
 10
27.66676521519221
 20
1.897740896962048
 30
0.0
 10
27.39620255591239
 20
1.790628447539876
 30
0.0
 10
27.19747854067431
 20
1.751219842002688
 30
0.0
 10
27.00058228736531
 20
1.751145408083576
 30
0.0
  0
SPLINE
  5
29E
330
1F
100
AcDbEntity
  8
SK3
  6
SLD-Dashed
370
    18
100
AcDbSpline
210
0.0
220
0.0
230
1.0
 70
     8
 71
     3
 72
    38
 73
    34
 74
     0
 42
0.000000001
 43
0.00000001
 40
0.4999999999999982
 40
0.4999999999999982
 40
0.4999999999999982
 40
0.4999999999999982
 40
0.531249999999998
 40
0.531249999999998
 40
0.5624999999999979
 40
0.5624999999999979
 40
0.5937499999999977
 40
0.5937499999999977
 40
0.6249999999999976
 40
0.6249999999999976
 40
0.6562499999999973
 40
0.6562499999999973
 40
0.6874999999999972
 40
0.6874999999999972
 40
0.718749999999997
 40
0.718749999999997
 40
0.7499999999999968
 40
0.7499999999999968
 40
0.8124999999999974
 40
0.8124999999999974
 40
0.8437499999999979
 40
0.8437499999999979
 40
0.8749999999999982
 40
0.8749999999999982
 40
0.9062499999999987
 40
0.9062499999999987
 40
0.937499999999999
 40
0.937499999999999
 40
0.9687499999999994
 40
0.9687499999999994
 40
0.9843749999999997
 40
0.9843749999999997
 40
1.0
 40
1.0
 40
1.0
 40
1.0
 10
9.562165917302162
 20
6.125924408695541
 30
0.0
 10
9.606669608828721
 20
6.01346768729815
 30
0.0
 10
9.6669122103369
 20
5.90588494500488
 30
0.0
 10
9.811812632231465
 20
5.711052008123815
 30
0.0
 10
9.897567425050436
 20
5.621796231982682
 30
0.0
 10
10.09207138823528
 20
5.461680698794908
 30
0.0
 10
10.19846038260026
 20
5.392476287191903
 30
0.0
 10
10.42991716747872
 20
5.269813411563129
 30
0.0
 10
10.55509168137379
 20
5.216925427409036
 30
0.0
 10
10.80142802631472
 20
5.127164762684259
 30
0.0
 10
10.92088750473028
 20
5.09019301169883
 30
0.0
 10
11.13971660654357
 20
5.02683918458871
 30
0.0
 10
11.23726506040224
 20
5.001058374472047
 30
0.0
 10
11.41790338683522
 20
4.957149609259768
 30
0.0
 10
11.50153843453271
 20
4.93907588349566
 30
0.0
 10
11.65792087602176
 20
4.910803969750501
 30
0.0
 10
11.73120965691778
 20
4.900482983794724
 30
0.0
 10
11.94219226675065
 20
4.881585744675308
 30
0.0
 10
12.07203185085182
 20
4.884644857652553
 30
0.0
 10
12.25447266366207
 20
4.92439877997837
 30
0.0
 10
12.31288111599016
 20
4.943518096519737
 30
0.0
 10
12.42478986086718
 20
4.997536910090174
 30
0.0
 10
12.47864510461583
 20
5.032683753674452
 30
0.0
 10
12.57771343290429
 20
5.124582956539641
 30
0.0
 10
12.62343468736296
 20
5.181429676878977
 30
0.0
 10
12.70112312343483
 20
5.328631993128622
 30
0.0
 10
12.73250492214958
 20
5.419078647746711
 30
0.0
 10
12.7672598594827
 20
5.636144753928838
 30
0.0
 10
12.76963724396989
 20
5.763529066354564
 30
0.0
 10
12.74922628849655
 20
5.959961303655809
 30
0.0
 10
12.73857436485565
 20
6.026645425987971
 30
0.0
 10
12.71187670664382
 20
6.156092859670171
 30
0.0
 10
12.69586259956383
 20
6.21937338055386
 30
0.0
 10
12.67730763443389
 20
6.282635864365886
 30
0.0
  0
SPLINE
  5
29F
330
1F
100
AcDbEntity
  8
SK3
  6
SLD-Dashed
370
    18
100
AcDbSpline
210
0.0
220
0.0
230
1.0
 70
     8
 71
     3
 72
    32
 73
    28
 74
     0
 42
0.000000001
 43
0.00000001
 40
0.0
 40
0.0
 40
0.0
 40
0.0
 40
0.0312499999999997
 40
0.0312499999999997
 40
0.0624999999999994
 40
0.0624999999999994
 40
0.124999999999999
 40
0.124999999999999
 40
0.1874999999999986
 40
0.1874999999999986
 40
0.2187499999999988
 40
0.2187499999999988
 40
0.2499999999999989
 40
0.2499999999999989
 40
0.2812499999999989
 40
0.2812499999999989
 40
0.3124999999999988
 40
0.3124999999999988
 40
0.3437499999999988
 40
0.3437499999999988
 40
0.3749999999999987
 40
0.3749999999999987
 40
0.4374999999999984
 40
0.4374999999999984
 40
0.4687499999999983
 40
0.4687499999999983
 40
0.4999999999999982
 40
0.4999999999999982
 40
0.4999999999999982
 40
0.4999999999999982
 10
12.67730763443389
 20
6.282635864365886
 30
0.0
 10
12.64019770417403
 20
6.409160831989932
 30
0.0
 10
12.59620302127297
 20
6.525183772575701
 30
0.0
 10
12.49971880657841
 20
6.745107212914686
 30
0.0
 10
12.44665882244549
 20
6.849501975615693
 30
0.0
 10
12.28056941339614
 20
7.142667131061292
 30
0.0
 10
12.16116169070409
 20
7.31290698475702
 30
0.0
 10
11.90308945990529
 20
7.621685780147165
 30
0.0
 10
11.7648571862288
 20
7.759624086935251
 30
0.0
 10
11.5344414119259
 20
7.935417796768221
 30
0.0
 10
11.45348400885549
 20
7.988991492998081
 30
0.0
 10
11.27594996715926
 20
8.081959065069567
 30
0.0
 10
11.18041818036972
 20
8.12087137933215
 30
0.0
 10
10.9680284447129
 20
8.1710967925867
 30
0.0
 10
10.85203519791093
 20
8.181443416386033
 30
0.0
 10
10.6063368132058
 20
8.15633333723454
 30
0.0
 10
10.48187270231075
 20
8.12116693784292
 30
0.0
 10
10.24397755356156
 20
8.01119708041284
 30
0.0
 10
10.13459384449099
 20
7.939220174898468
 30
0.0
 10
9.93404200598097
 20
7.767804544696035
 30
0.0
 10
9.845027015680657
 20
7.669805098254392
 30
0.0
 10
9.616531880722965
 20
7.350566526001884
 30
0.0
 10
9.516243573240768
 20
7.103299108147443
 30
0.0
 10
9.462270080515326
 20
6.727888567267061
 30
0.0
 10
9.460111331805908
 20
6.60378924638351
 30
0.0
 10
9.487789440891722
 20
6.357725959822369
 30
0.0
 10
9.517662225775588
 20
6.238381130092923
 30
0.0
 10
9.562165917302162
 20
6.125924408695541
 30
0.0
  0
SPLINE
  5
2A0
330
1F
100
AcDbEntity
  8
SK3
  6
SLD-Dashed
370
    18
100
AcDbSpline
210
0.0
220
0.0
230
1.0
 70
     8
 71
     3
 72
    15
 73
    11
 74
     0
 42
0.000000001
 43
0.00000001
 40
0.0
 40
0.0
 40
0.0
 40
0.0
 40
0.0889871161700591
 40
0.1781606696712342
 40
0.3550796672856272
 40
0.532705080579065
 40
0.7111928333289324
 40
0.8881325808768584
 40
0.9440632252346561
 40
1.0
 40
1.0
 40
1.0
 40
1.0
 10
18.62026447633129
 20
-24.59183951548752
 30
0.0
 10
18.62097034578473
 20
-24.54497402745224
 30
0.0
 10
18.62238356356206
 20
-24.45114486327439
 30
0.0
 10
18.63737364788497
 20
-24.26465715974354
 30
0.0
 10
18.67324275968521
 20
-24.03335245142205
 30
0.0
 10
18.74509210942697
 20
-23.76148806400158
 30
0.0
 10
18.84468185235903
 20
-23.4985041207421
 30
0.0
 10
18.94265215593397
 20
-23.30482452905481
 30
0.0
 10
19.02027185846801
 20
-23.17400485492352
 30
0.0
 10
19.05247339907551
 20
-23.12466918627015
 30
0.0
 10
19.06857505171195
 20
-23.10000000013004
 30
0.0
  0
SPLINE
  5
2A1
330
1F
100
AcDbEntity
  8
SK3
  6
SLD-Dashed
370
    18
100
AcDbSpline
210
0.0
220
0.0
230
1.0
 70
     8
 71
     3
 72
    32
 73
    28
 74
     0
 42
0.000000001
 43
0.00000001
 40
0.0
 40
0.0
 40
0.0
 40
0.0
 40
0.0252069619805936
 40
0.050356592896245
 40
0.1006490309396812
 40
0.1352066802269647
 40
0.1865993845852601
 40
0.2121889141728508
 40
0.2505546444408253
 40
0.2790381884906647
 40
0.3220317068360379
 40
0.3758145255415078
 40
0.4042958205195086
 40
0.4469103686213546
 40
0.5002459503879978
 40
0.5288558246776683
 40
0.5719893761750844
 40
0.6254951328276587
 40
0.6539175144736257
 40
0.6965367204728681
 40
0.7500346443241699
 40
0.7787727799701066
 40
0.8217726885774319
 40
0.875157172018872
 40
0.9373534326371769
 40
0.9685881929332911
 40
1.0
 40
1.0
 40
1.0
 40
1.0
 10
18.29999999999999
 20
-30.16152412632424
 30
0.0
 10
18.30430906427825
 20
-30.16147180344048
 30
0.0
 10
18.31291739223901
 20
-30.16136727667687
 30
0.0
 10
18.33009148889957
 20
-30.16024977939869
 30
0.0
 10
18.34877169844474
 20
-30.15790965215768
 30
0.0
 10
18.37162411056983
 20
-30.1533716227132
 30
0.0
 10
18.39004076577991
 20
-30.14833596412425
 30
0.0
 10
18.40869527827126
 20
-30.141939706419
 30
0.0
 10
18.42336321290334
 20
-30.13603236706977
 30
0.0
 10
18.44037635131617
 20
-30.12807648951463
 30
0.0
 10
18.45922607783493
 20
-30.11788547147641
 30
0.0
 10
18.4772323814256
 20
-30.10624628735538
 30
0.0
 10
18.49435917830338
 20
-30.09349629741
 30
0.0
 10
18.51068813568746
 20
-30.07984182725841
 30
0.0
 10
18.52595631576657
 20
-30.06496240138225
 30
0.0
 10
18.54028190962391
 20
-30.04908402411909
 30
0.0
 10
18.55372204554899
 20
-30.0323984935787
 30
0.0
 10
18.56586456058183
 20
-30.01477198401961
 30
0.0
 10
18.5768198392718
 20
-29.99651176030233
 30
0.0
 10
18.58677169348255
 20
-29.97767639491364
 30
0.0
 10
18.59535078576897
 20
-29.95810642053531
 30
0.0
 10
18.60271467399962
 20
-29.93800046575448
 30
0.0
 10
18.60898325159277
 20
-29.91753621297331
 30
0.0
 10
18.61504858563011
 20
-29.89108719661412
 30
0.0
 10
18.61850889087959
 20
-29.86619441170605
 30
0.0
 10
18.62004779708014
 20
-29.84490046806006
 30
0.0
 10
18.62019211396193
 20
-29.83419100647835
 30
0.0
 10
18.62026447633129
 20
-29.82882114257112
 30
0.0
  0
SPLINE
  5
2A2
330
1F
100
AcDbEntity
  8
1
  6
SLD-Dashed
370
    18
100
AcDbSpline
210
0.0
220
0.0
230
1.0
 70
     8
 71
     3
 72
     8
 73
     4
 74
     0
 42
0.000000001
 43
0.00000001
 40
0.0
 40
0.0
 40
0.0
 40
0.0
 40
1.0
 40
1.0
 40
1.0
 40
1.0
 10
14.3360013007678
 20
-30.16152412632425
 30
0.0
 10
13.89972133191332
 20
-29.37912233928418
 30
0.0
 10
13.46431228798094
 20
-28.596249672454
 30
0.0
 10
13.02999999999999
 20
-27.81278402659762
 30
0.0
  0
SPLINE
  5
2A3
330
1F
100
AcDbEntity
  8
1
  6
SLD-Dashed
370
    18
100
AcDbSpline
210
0.0
220
0.0
230
1.0
 70
     8
 71
     3
 72
    10
 73
     6
 74
     0
 42
0.000000001
 43
0.00000001
 40
0.0
 40
0.0
 40
0.0
 40
0.0
 40
0.5
 40
0.5
 40
1.0
 40
1.0
 40
1.0
 40
1.0
 10
13.02999999999999
 20
-27.5868351754964
 30
0.0
 10
13.02999999999999
 20
-27.38707634764942
 30
0.0
 10
12.95316556404609
 20
-27.18603271636412
 30
0.0
 10
12.67905512633462
 20
-26.89356078711211
 30
0.0
 10
12.48157512974546
 20
-26.8043088886844
 30
0.0
 10
12.27999999999999
 20
-26.8043088886844
 30
0.0
  0
SPLINE
  5
2A4
330
1F
100
AcDbEntity
  8
1
  6
SLD-Dashed
370
    18
100
AcDbSpline
210
0.0
220
0.0
230
1.0
 70
     8
 71
     3
 72
    12
 73
     8
 74
     0
 42
0.000000001
 43
0.00000001
 40
0.0
 40
0.0
 40
0.0
 40
0.0
 40
0.2500000000000004
 40
0.2500000000000004
 40
0.5000000000000008
 40
0.5000000000000008
 40
1.0
 40
1.0
 40
1.0
 40
1.0
 10
9.949999999999982
 20
-26.8043088886844
 30
0.0
 10
9.85020310490128
 20
-26.80430888868441
 30
0.0
 10
9.749501667275988
 20
-26.82572174190438
 30
0.0
 10
9.566443787491977
 20
-26.90654241362413
 30
0.0
 10
9.483267922669938
 20
-26.9658819657259
 30
0.0
 10
9.276316509628954
 20
-27.18636461126025
 30
0.0
 10
9.199999999999985
 20
-27.38652349465745
 30
0.0
 10
9.199999999999985
 20
-27.5868351754964
 30
0.0
  0
SPLINE
  5
2A5
330
1F
100
AcDbEntity
  8
1
  6
SLD-Dashed
370
    18
100
AcDbSpline
210
0.0
220
0.0
230
1.0
 70
     8
 71
     3
 72
     8
 73
     4
 74
     0
 42
0.000000001
 43
0.00000001
 40
0.0
 40
0.0
 40
0.0
 40
0.0
 40
1.0
 40
1.0
 40
1.0
 40
1.0
 10
9.199999999999973
 20
-27.81278402659763
 30
0.0
 10
8.76568869676013
 20
-28.59624790607362
 30
0.0
 10
8.330280637590517
 20
-29.37911880654281
 30
0.0
 10
7.894001653956456
 20
-30.16151882747545
 30
0.0
  0
SPLINE
  5
2A6
330
1F
100
AcDbEntity
  8
SK3
  6
SLD-Dashed
370
    18
100
AcDbSpline
210
0.0
220
0.0
230
1.0
 70
     8
 71
     3
 72
    32
 73
    28
 74
     0
 42
0.000000001
 43
0.00000001
 40
0.0
 40
0.0
 40
0.0
 40
0.0
 40
0.031424704210073
 40
0.0627361020228393
 40
0.1252746117070782
 40
0.1539592720611166
 40
0.1970495132292648
 40
0.2505154778796662
 40
0.2789491152340479
 40
0.3216244705618484
 40
0.3752662880184969
 40
0.4040058917910648
 40
0.4468709414625887
 40
0.5002072395464283
 40
0.5286758290850194
 40
0.5715468433178896
 40
0.6253871654989179
 40
0.6539190971541599
 40
0.696594596902026
 40
0.7499712152068309
 40
0.7785976833431847
 40
0.8217130856357547
 40
0.8751771545280737
 40
0.9000486762450075
 40
0.9373735729958377
 40
0.9685902180614495
 40
1.0
 40
1.0
 40
1.0
 40
1.0
 10
3.62973857841652
 20
-29.82881899211158
 30
0.0
 10
3.629811253684809
 20
-29.83419103038284
 30
0.0
 10
3.629956342180055
 20
-29.84491573725053
 30
0.0
 10
3.631499897602117
 20
-29.86628278119542
 30
0.0
 10
3.634397011081442
 20
-29.88706040626525
 30
0.0
 10
3.639129238184924
 20
-29.90953127888273
 30
0.0
 10
3.644655756007117
 20
-29.93022849493313
 30
0.0
 10
3.651654880541382
 20
-29.95044132006808
 30
0.0
 10
3.659851724820018
 20
-29.97009977850418
 30
0.0
 10
3.669111420859213
 20
-29.98932463890859
 30
0.0
 10
3.679786474097337
 20
-30.00787527762717
 30
0.0
 10
3.691618705441686
 20
-30.02572351524739
 30
0.0
 10
3.704392079816503
 20
-30.0428582448729
 30
0.0
 10
3.718387033330385
 20
-30.05896507889258
 30
0.0
 10
3.733371617552911
 20
-30.07412623148151
 30
0.0
 10
3.749255381396991
 20
-30.08848733361379
 30
0.0
 10
3.766214045880095
 20
-30.1016010994536
 30
0.0
 10
3.783954500679199
 20
-30.11353423171659
 30
0.0
 10
3.802289686771293
 20
-30.12439823458055
 30
0.0
 10
3.821441936881568
 20
-30.13381362662237
 30
0.0
 10
3.841229005044009
 20
-30.14194530604339
 30
0.0
 10
3.861484952239855
 20
-30.14890899560424
 30
0.0
 10
3.881621199115282
 20
-30.15408129068047
 30
0.0
 10
3.901051454906574
 20
-30.15775478403716
 30
0.0
 10
3.916884625854003
 20
-30.15989200877925
 30
0.0
 10
3.933924339421691
 20
-30.16127654505826
 30
0.0
 10
3.944630440774255
 20
-30.1614379008023
 30
0.0
 10
3.949999999999995
 20
-30.161518827481
 30
0.0
  0
SPLINE
  5
2A7
330
1F
100
AcDbEntity
  8
SK3
  6
SLD-Dashed
370
    18
100
AcDbSpline
210
0.0
220
0.0
230
1.0
 70
     8
 71
     3
 72
    40
 73
    36
 74
     0
 42
0.000000001
 43
0.00000001
 40
0.0
 40
0.0
 40
0.0
 40
0.0
 40
0.0126129321408284
 40
0.0314976481214804
 40
0.0629183966423001
 40
0.0880663439234774
 40
0.1258663547630645
 40
0.1545361786769442
 40
0.1972635113860108
 40
0.2185774264929204
 40
0.2505499734617895
 40
0.2790323571714424
 40
0.3220275474574906
 40
0.343616815878744
 40
0.3758133620123421
 40
0.4042898095193614
 40
0.4468993710703085
 40
0.4682109724152097
 40
0.5002437124730686
 40
0.5288533887103659
 40
0.571982827569087
 40
0.5934420637176423
 40
0.6254916984600147
 40
0.6539107272747682
 40
0.6965262692823416
 40
0.7178823906429946
 40
0.7500313093223335
 40
0.7787800102784396
 40
0.8217645159398436
 40
0.8431483194674751
 40
0.8751517844219837
 40
0.9000181011005813
 40
0.9373587731716254
 40
0.968590958670039
 40
1.0
 40
1.0
 40
1.0
 40
1.0
 10
3.950000000000495
 20
30.22558335104686
 30
0.0
 10
3.947274292782965
 20
30.22556627837634
 30
0.0
 10
3.940467519713803
 20
30.2255236436454
 30
0.0
 10
3.926877983687654
 20
30.22500642558015
 30
0.0
 10
3.910614387343012
 20
30.22373406987648
 30
0.0
 10
3.890377115178673
 20
30.22117674999872
 30
0.0
 10
3.870876244597685
 20
30.21767179888436
 30
0.0
 10
3.847908980359721
 20
30.21222395072726
 30
0.0
 10
3.828703260232852
 20
30.20645116374222
 30
0.0
 10
3.80917185878471
 20
30.19944068107179
 30
0.0
 10
3.792809364003544
 20
30.19274469805335
 30
0.0
 10
3.772556053466186
 20
30.18326482982912
 30
0.0
 10
3.754851422366159
 20
30.17368320900288
 30
0.0
 10
3.737000248486722
 20
30.16278063541681
 30
0.0
 10
3.722236988248237
 20
30.15286142074995
 30
0.0
 10
3.70433527637519
 20
30.13952115792344
 30
0.0
 10
3.689009802608334
 20
30.12669393444049
 30
0.0
 10
3.673803788837693
 20
30.1125923659645
 30
0.0
 10
3.661327331475589
 20
30.10001076072769
 30
0.0
 10
3.646310110723208
 20
30.08334809853397
 30
0.0
 10
3.633673399458845
 20
30.06764274616047
 30
0.0
 10
3.621409205964182
 20
30.05073652815648
 30
0.0
 10
3.611609822900181
 20
30.03598122494602
 30
0.0
 10
3.600155064572216
 20
30.01686876573216
 30
0.0
 10
3.590828263208487
 20
29.99919674617939
 30
0.0
 10
3.582034289550701
 20
29.98037575892949
 30
0.0
 10
3.575164227013317
 20
29.96397331420996
 30
0.0
 10
3.567448245865967
 20
29.94288598450059
 30
0.0
 10
3.561556458152884
 20
29.92362807390676
 30
0.0
 10
3.556426937905838
 20
29.90344122156952
 30
0.0
 10
3.552917337560496
 20
29.88689138494881
 30
0.0
 10
3.549534767675957
 20
29.86681106446946
 30
0.0
 10
3.547123069128091
 20
29.84675380195184
 30
0.0
 10
3.545562744604103
 20
29.82519288085213
 30
0.0
 10
3.545381051475255
 20
29.81165479503359
 30
0.0
 10
3.545289948422487
 20
29.804866640993
 30
0.0
  0
SPLINE
  5
2A8
330
1F
100
AcDbEntity
  8
1
  6
SLD-Dashed
370
    18
100
AcDbSpline
210
0.0
220
0.0
230
1.0
 70
     8
 71
     3
 72
     8
 73
     4
 74
     0
 42
0.000000001
 43
0.00000001
 40
0.0
 40
0.0
 40
0.0
 40
0.0
 40
1.0
 40
1.0
 40
1.0
 40
1.0
 10
9.200000000008437
 20
27.81278402659968
 30
0.0
 10
8.75382543680378
 20
28.61764830107223
 30
0.0
 10
8.306503117913241
 20
29.42186997179871
 30
0.0
 10
7.858275689121341
 20
30.22558335104657
 30
0.0
  0
SPLINE
  5
2A9
330
1F
100
AcDbEntity
  8
1
  6
SLD-Dashed
370
    18
100
AcDbSpline
210
0.0
220
0.0
230
1.0
 70
     8
 71
     3
 72
    12
 73
     8
 74
     0
 42
0.000000001
 43
0.00000001
 40
0.0
 40
0.0
 40
0.0
 40
0.0
 40
0.2500000000000012
 40
0.2500000000000012
 40
0.5000000000000024
 40
0.5000000000000024
 40
1.0
 40
1.0
 40
1.0
 40
1.0
 10
9.950000000000529
 20
26.80430888868383
 30
0.0
 10
9.850219275688174
 20
26.80430888868376
 30
0.0
 10
9.748489574720798
 20
26.82597317526984
 30
0.0
 10
9.565050842134923
 20
26.90735539053937
 30
0.0
 10
9.481946114451938
 20
26.96711648327082
 30
0.0
 10
9.277073814553422
 20
27.18590763033032
 30
0.0
 10
9.199999999999875
 20
27.3870539823446
 30
0.0
 10
9.199999999999985
 20
27.58683517549641
 30
0.0
  0
SPLINE
  5
2AA
330
1F
100
AcDbEntity
  8
1
  6
SLD-Dashed
370
    18
100
AcDbSpline
210
0.0
220
0.0
230
1.0
 70
     8
 71
     3
 72
    14
 73
    10
 74
     0
 42
0.000000001
 43
0.00000001
 40
0.0
 40
0.0
 40
0.0
 40
0.0
 40
0.25
 40
0.25
 40
0.5
 40
0.5
 40
0.75
 40
0.75
 40
1.0
 40
1.0
 40
1.0
 40
1.0
 10
13.02999999999999
 20
27.5868351754964
 30
0.0
 10
13.03
 20
27.48633204917054
 30
0.0
 10
13.01129308106055
 20
27.38625032826132
 30
0.0
 10
12.93873708556012
 20
27.19964761855488
 30
0.0
 10
12.88449605857469
 20
27.11279998838253
 30
0.0
 10
12.7479884257955
 20
26.96707505027712
 30
0.0
 10
12.66478019424778
 20
26.9071847047812
 30
0.0
 10
12.48051117986141
 20
26.82562619640964
 30
0.0
 10
12.38097181174445
 20
26.8043088886844
 30
0.0
 10
12.27999999999999
 20
26.8043088886844
 30
0.0
  0
SPLINE
  5
2AB
330
1F
100
AcDbEntity
  8
1
  6
SLD-Dashed
370
    18
100
AcDbSpline
210
0.0
220
0.0
230
1.0
 70
     8
 71
     3
 72
     8
 73
     4
 74
     0
 42
0.000000001
 43
0.00000001
 40
0.0
 40
0.0
 40
0.0
 40
0.0
 40
1.0
 40
1.0
 40
1.0
 40
1.0
 10
14.37164736689957
 20
30.2254453833128
 30
0.0
 10
13.92344569040367
 20
29.42177793480445
 30
0.0
 10
13.47614903267276
 20
28.61760224597264
 30
0.0
 10
13.03
 20
27.81278402659763
 30
0.0
  0
SPLINE
  5
2AC
330
1F
100
AcDbEntity
  8
SK3
  6
SLD-Dashed
370
    18
100
AcDbSpline
210
0.0
220
0.0
230
1.0
 70
     8
 71
     3
 72
    40
 73
    36
 74
     0
 42
0.000000001
 43
0.00000001
 40
0.0
 40
0.0
 40
0.0
 40
0.0
 40
0.0314214559032091
 40
0.0627294388196716
 40
0.0877405063681813
 40
0.125275232017435
 40
0.1539551374834502
 40
0.1970430830225031
 40
0.2184753355446931
 40
0.2505176107708037
 40
0.2789492343756595
 40
0.3216198593784654
 40
0.3430128229232575
 40
0.3752634373756372
 40
0.4040010761832459
 40
0.446865679090789
 40
0.4682159456822239
 40
0.5002096453491012
 40
0.5286754135732634
 40
0.5715400241808088
 40
0.5931009709519242
 40
0.6253883776448853
 40
0.6539191342583823
 40
0.696591424465902
 40
0.7179237821558067
 40
0.7499746493554647
 40
0.7785976314667957
 40
0.7958543395075208
 40
0.8217160692235969
 40
0.843155286520094
 40
0.8751886732676739
 40
0.9000580147904903
 40
0.9373794060000418
 40
0.968593078858932
 40
1.0
 40
1.0
 40
1.0
 40
1.0
 10
18.70459032431994
 20
29.80485287971164
 30
0.0
 10
18.70449897688937
 20
29.81164166153791
 30
0.0
 10
18.70431661191319
 20
29.82519470871502
 30
0.0
 10
18.70294654000257
 20
29.8441112290928
 30
0.0
 10
18.70070074861107
 20
29.86426498751496
 30
0.0
 10
18.69759571488442
 20
29.88373944820037
 30
0.0
 10
18.69273856620897
 20
29.90685347692318
 30
0.0
 10
18.68754405974594
 20
29.92632375171394
 30
0.0
 10
18.68120003600392
 20
29.94619932772915
 30
0.0
 10
18.67514426349854
 20
29.96283399088795
 30
0.0
 10
18.66657503933353
 20
29.98340946481999
 30
0.0
 10
18.65790374577482
 20
30.00143070205219
 30
0.0
 10
18.64797968719674
 20
30.01972187740018
 30
0.0
 10
18.63885311413074
 20
30.03501076615587
 30
0.0
 10
18.62646258128714
 20
30.05372220608726
 30
0.0
 10
18.61445799836509
 20
30.06984190817865
 30
0.0
 10
18.60122655345953
 20
30.08587429129428
 30
0.0
 10
18.58941371255981
 20
30.09903203572137
 30
0.0
 10
18.57372634584103
 20
30.11492036350081
 30
0.0
 10
18.55883436166017
 20
30.12839947493483
 30
0.0
 10
18.5426417766697
 20
30.14160775845268
 30
0.0
 10
18.52837625250249
 20
30.15226374744599
 30
0.0
 10
18.50982491954085
 20
30.16475392275993
 30
0.0
 10
18.4926145408071
 20
30.17496149667452
 30
0.0
 10
18.47423710957766
 20
30.18460613543428
 30
0.0
 10
18.4581994005219
 20
30.19215438168697
 30
0.0
 10
18.44262340689293
 20
30.19856150286912
 30
0.0
 10
18.42807665565667
 20
30.20391478589339
 30
0.0
 10
18.41482074346291
 20
30.20826548809865
 30
0.0
 10
18.39833769169533
 20
30.21297330119639
 30
0.0
 10
18.38186519021909
 20
30.2168978309539
 30
0.0
 10
18.36185900476347
 20
30.22068429077063
 30
0.0
 10
18.34185009490406
 20
30.22338750379075
 30
0.0
 10
18.32031590832196
 20
30.22513891976366
 30
0.0
 10
18.30678588740347
 20
30.22534301884527
 30
0.0
 10
18.29999999999998
 20
30.2254453833128
 30
0.0
  0
SPLINE
  5
2AD
330
1F
100
AcDbEntity
  8
SK3
  6
SLD-Dashed
370
    18
100
AcDbSpline
210
0.0
220
0.0
230
1.0
 70
     8
 71
     3
 72
    34
 73
    30
 74
     0
 42
0.000000001
 43
0.00000001
 40
0.4999999999999977
 40
0.4999999999999977
 40
0.4999999999999977
 40
0.4999999999999977
 40
0.5624999999999978
 40
0.5624999999999978
 40
0.5937499999999981
 40
0.5937499999999981
 40
0.6249999999999983
 40
0.6249999999999983
 40
0.6562499999999987
 40
0.6562499999999987
 40
0.6874999999999989
 40
0.6874999999999989
 40
0.7499999999999996
 40
0.7499999999999996
 40
0.7812499999999997
 40
0.7812499999999997
 40
0.8124999999999998
 40
0.8124999999999998
 40
0.8437499999999998
 40
0.8437499999999998
 40
0.8749999999999999
 40
0.8749999999999999
 40
0.9062499999999999
 40
0.9062499999999999
 40
0.9375
 40
0.9375
 40
0.96875
 40
0.96875
 40
1.0
 40
1.0
 40
1.0
 40
1.0
 10
10.44989457346453
 20
9.188552838687942
 30
0.0
 10
10.59263203931585
 20
9.174236610891139
 30
0.0
 10
10.74572898252596
 20
9.14463393672682
 30
0.0
 10
11.02346457422354
 20
9.075693724379073
 30
0.0
 10
11.12372720463398
 20
9.048767303058272
 30
0.0
 10
11.34651412887494
 20
8.98304032619486
 30
0.0
 10
11.46788474947191
 20
8.944585962248695
 30
0.0
 10
11.71475803299397
 20
8.851533468433912
 30
0.0
 10
11.83869929941918
 20
8.79687946686096
 30
0.0
 10
12.06754486308015
 20
8.669912801310131
 30
0.0
 10
12.173351379452
 20
8.597492712392178
 30
0.0
 10
12.45826053814744
 20
8.350055176087432
 30
0.0
 10
12.60079742123003
 20
8.146940498957338
 30
0.0
 10
12.72395241472729
 20
7.804987664268931
 30
0.0
 10
12.75035560308826
 20
7.682849153203144
 30
0.0
 10
12.77026974501039
 20
7.437009886565566
 30
0.0
 10
12.76437513382361
 20
7.311127426790014
 30
0.0
 10
12.72033810945411
 20
7.0597867568735
 30
0.0
 10
12.68302095968711
 20
6.93747656332995
 30
0.0
 10
12.57844952904384
 20
6.700025312627533
 30
0.0
 10
12.51125932456627
 20
6.586063111613208
 30
0.0
 10
12.35309446794182
 20
6.378223856964807
 30
0.0
 10
12.25993473983124
 20
6.281719558284743
 30
0.0
 10
12.05554915126636
 20
6.118002116577703
 30
0.0
 10
11.94432147845088
 20
6.049872144173664
 30
0.0
 10
11.70236550523704
 20
5.948838460017036
 30
0.0
 10
11.57681201416268
 20
5.919256740586791
 30
0.0
 10
11.33321027169286
 20
5.905182504817939
 30
0.0
 10
11.21910590689122
 20
5.920422754745594
 30
0.0
 10
11.115
 20
5.949256181891786
 30
0.0
  0
SPLINE
  5
2AE
330
1F
100
AcDbEntity
  8
SK3
  6
SLD-Dashed
370
    18
100
AcDbSpline
210
0.0
220
0.0
230
1.0
 70
     8
 71
     3
 72
    32
 73
    28
 74
     0
 42
0.000000001
 43
0.00000001
 40
0.0
 40
0.0
 40
0.0
 40
0.0
 40
0.0312500000000002
 40
0.0312500000000002
 40
0.0625000000000003
 40
0.0625000000000003
 40
0.1250000000000002
 40
0.1250000000000002
 40
0.1875000000000001
 40
0.1875000000000001
 40
0.2187499999999998
 40
0.2187499999999998
 40
0.2499999999999995
 40
0.2499999999999995
 40
0.2812499999999992
 40
0.2812499999999992
 40
0.3124999999999988
 40
0.3124999999999988
 40
0.3437499999999985
 40
0.3437499999999985
 40
0.3749999999999982
 40
0.3749999999999982
 40
0.4062499999999979
 40
0.4062499999999979
 40
0.4374999999999976
 40
0.4374999999999976
 40
0.4999999999999977
 40
0.4999999999999977
 40
0.4999999999999977
 40
0.4999999999999977
 10
11.115
 20
5.949256181891776
 30
0.0
 10
11.01089409310877
 20
5.978089609037969
 30
0.0
 10
10.91907857642195
 20
6.018948849607101
 30
0.0
 10
10.74762137377522
 20
6.114086289106347
 30
0.0
 10
10.66818813797001
 20
6.168629685055437
 30
0.0
 10
10.44047236553633
 20
6.348201174628622
 30
0.0
 10
10.30542057236912
 20
6.486189899653973
 30
0.0
 10
10.05258703563625
 20
6.794337658592874
 30
0.0
 10
9.93481360775792
 20
6.96453718422921
 30
0.0
 10
9.770188160048091
 20
7.2605028435271
 30
0.0
 10
9.717965925809057
 20
7.36537473254117
 30
0.0
 10
9.623196888300553
 20
7.586751552194761
 30
0.0
 10
9.579891013149538
 20
7.704475586992557
 30
0.0
 10
9.508588627253452
 20
7.958722907590389
 30
0.0
 10
9.481892276768443
 20
8.093279239326252
 30
0.0
 10
9.45981177761726
 20
8.353312199693315
 30
0.0
 10
9.465063840888215
 20
8.479251183042862
 30
0.0
 10
9.50512492631586
 20
8.692292476903809
 30
0.0
 10
9.538244242074127
 20
8.77870984803539
 30
0.0
 10
9.61924790380464
 20
8.920989829983
 30
0.0
 10
9.665743567469132
 20
8.975076239847644
 30
0.0
 10
9.766569607309608
 20
9.062988359132456
 30
0.0
 10
9.821244160784545
 20
9.09649975238855
 30
0.0
 10
9.934291731587857
 20
9.147487690189605
 30
0.0
 10
9.993038231873308
 20
9.165244768658967
 30
0.0
 10
10.175952062702
 20
9.201393171837173
 30
0.0
 10
10.30715710761322
 20
9.20286906648475
 30
0.0
 10
10.44989457346453
 20
9.188552838687942
 30
0.0
  0
SPLINE
  5
2AF
330
1F
100
AcDbEntity
  8
SK3
  6
SLD-Dashed
370
    18
100
AcDbSpline
210
0.0
220
0.0
230
1.0
 70
     8
 71
     3
 72
    10
 73
     6
 74
     0
 42
0.000000001
 43
0.00000001
 40
0.0
 40
0.0
 40
0.0
 40
0.0
 40
0.5
 40
0.5
 40
1.0
 40
1.0
 40
1.0
 40
1.0
 10
9.138150238601916
 20
8.152513349923979
 30
0.0
 10
9.123100104871208
 20
8.255620108263633
 30
0.0
 10
9.114984999226959
 20
8.35686342060532
 30
0.0
 10
9.11501504233432
 20
8.552681333304065
 30
0.0
 10
9.123102863559037
 20
8.64160033313803
 30
0.0
 10
9.138150238601899
 20
8.722760521764496
 30
0.0
  0
ELLIPSE
  5
2B0
330
1F
100
AcDbEntity
  8
SK3
  6
SLD-Dashed
370
    18
100
AcDbEllipse
 10
6.0773103747
 20
8.4376369358
 30
0.0
 11
3.098580671678203
 21
0.0
 31
0.0
210
0.0
220
0.0
230
1.0
 40
0.5913677276
 41
6.126949351778349
 42
6.439421262580865
  0
INSERT
  5
2B1
330
1F
100
AcDbEntity
  8
81
100
AcDbBlockReference
  2
Block11
 10
-56.6264826505
 20
-130.2676275275
 30
0.0
  0
INSERT
  5
2B2
330
1F
100
AcDbEntity
  8
80
100
AcDbBlockReference
  2
Block12
 10
-61.7273641656
 20
-130.3356800267
 30
0.0
  0
DIMENSION
  5
2B3
330
1F
100
AcDbEntity
  8
SK2
100
AcDbDimension
  2
_D
 10
19.05
 20
37.7261584467
 30
0.0
 11
8.471817113
 21
37.7261584467
 31
0.0
 70
   160
  1
<>
 71
     2
 42
-1.0
  3
SLDDIMSTYLE0
100
AcDbAlignedDimension
 13
0.0
 23
22.225
 33
0.0
 14
19.05
 24
24.9855458215
 34
0.0
100
AcDbRotatedDimension
  0
DIMENSION
  5
2BF
330
1F
100
AcDbEntity
  8
SK2
100
AcDbDimension
  2
_D_1
 10
35.0
 20
37.7261584467
 30
0.0
 11
26.7916249388
 21
37.7261584467
 31
0.0
 70
   160
  1
<>
 71
     2
 42
-1.0
  3
SLDDIMSTYLE0
100
AcDbAlignedDimension
 13
19.05
 23
24.9855458215
 33
0.0
 14
35.0
 24
23.5
 34
0.0
100
AcDbRotatedDimension
  0
DIMENSION
  5
2C9
330
1F
100
AcDbEntity
  8
SK2
100
AcDbDimension
  2
_D_2
 10
54.0
 20
37.7261584467
 30
0.0
 11
44.7397265189
 21
37.7261584467
 31
0.0
 70
   160
  1
<>
 71
     2
 42
-1.0
  3
SLDDIMSTYLE0
100
AcDbAlignedDimension
 13
35.0
 23
23.5
 33
0.0
 14
54.0
 24
10.4710190579
 34
0.0
100
AcDbRotatedDimension
  0
DIMENSION
  5
2D3
330
1F
100
AcDbEntity
  8
2
100
AcDbDimension
  2
_D_3
 10
35.0
 20
47.2478754361
 30
0.0
 11
17.4812995502
 21
47.2478754361
 31
0.0
 70
   160
  1
<>
 71
     2
 42
-1.0
  3
SLDDIMSTYLE0
100
AcDbAlignedDimension
 13
0.0
 23
22.225
 33
0.0
 14
35.0
 24
23.5
 34
0.0
100
AcDbRotatedDimension
  0
DIMENSION
  5
2DD
330
1F
100
AcDbEntity
  8
SK2
100
AcDbDimension
  2
_D_4
 10
87.0683432055
 20
-24.0
 30
0.0
 11
87.0683432055
 21
-0.0899461742
 31
0.0
 70
   160
  1
%%c<>
 71
     2
 42
-1.0
  3
SLDDIMSTYLE0
100
AcDbAlignedDimension
 13
34.5
 23
24.0
 33
0.0
 14
34.5
 24
-24.0
 34
0.0
 50
90.0
100
AcDbRotatedDimension
  0
DIMENSION
  5
2E8
330
1F
100
AcDbEntity
  8
SK2
100
AcDbDimension
  2
_D_5
 10
75.9275978279
 20
-11.0
 30
0.0
 11
75.9275978279
 21
-0.0899461742
 31
0.0
 70
   160
  1
%%c<>
 71
     2
 42
-1.0
  3
SLDDIMSTYLE0
100
AcDbAlignedDimension
 13
51.0
 23
11.0
 33
0.0
 14
51.0
 24
-11.0
 34
0.0
 50
90.0
100
AcDbRotatedDimension
  0
DIMENSION
  5
2F3
330
1F
100
AcDbEntity
  8
SK2
100
AcDbDimension
  2
_D_6
 10
-96.1671130519
 20
-30.5753585477
 30
0.0
 11
-96.1671130519
 21
-0.0899461742
 31
0.0
 70
   160
  1
%%c<>
 71
     2
 42
-1.0
  3
SLDDIMSTYLE0
100
AcDbAlignedDimension
 13
3.95
 23
30.5578859972
 33
0.0
 14
3.95
 24
-30.5753585477
 34
0.0
 50
90.0
100
AcDbRotatedDimension
  0
DIMENSION
  5
2FE
330
1F
100
AcDbEntity
  8
SK2
100
AcDbDimension
  2
_D_7
 10
-85.4658627478
 20
-22.225
 30
0.0
 11
-85.4658627478
 21
-0.0899461742
 31
0.0
 70
   160
  1
%%c<>
 71
     2
 42
-1.0
  3
SLDDIMSTYLE0
100
AcDbAlignedDimension
 13
0.0
 23
22.225
 33
0.0
 14
0.0
 24
-22.225
 34
0.0
 50
90.0
100
AcDbRotatedDimension
  0
DIMENSION
  5
309
330
1F
100
AcDbEntity
  8
SK2
100
AcDbDimension
  2
_D_8
 10
-74.7578412936
 20
8.0
 30
0.0
 11
-74.7578412936
 21
-0.0899461742
 31
0.0
 70
   160
  1
M<>
 71
     2
 42
-1.0
  3
SLDDIMSTYLE0
100
AcDbAlignedDimension
 13
-59.2881197846
 23
-8.0
 33
0.0
 14
-59.2881197846
 24
8.0
 34
0.0
 50
90.0
100
AcDbRotatedDimension
  0
MTEXT
  5
314
330
1F
100
AcDbEntity
  8
SK6
 62
     5
100
AcDbMText
 10
-67.5557729535
 20
-35.4538066914
 30
0.0
 40
3.5
 41
0.0
 71
     1
 72
     1
  1
A1B05-40 22 035
  7
SLDTEXTSTYLE0
 73
     1
 44
1.0
  0
INSERT
  5
31A
330
1F
100
AcDbEntity
  8
SK6
 62
     5
100
AcDbBlockReference
  2
SW_NOTE_0
 10
-38.1524738927
 20
37.4667776959
 30
0.0
  0
ENDSEC
  0
SECTION
  2
OBJECTS
  0
DICTIONARY
  5
C
330
0
100
AcDbDictionary
281
     1
  3
ACAD_GROUP
350
D
  3
ACAD_LAYOUT
350
1A
  3
ACAD_MLINESTYLE
350
17
  3
ACAD_PLOTSETTINGS
350
19
  3
ACAD_PLOTSTYLENAME
350
E
  3
ACAD_SCALELIST
350
47
  0
DICTIONARY
  5
D
102
{ACAD_REACTORS
330
C
102
}
330
C
100
AcDbDictionary
281
     1
  0
DICTIONARY
  5
1A
102
{ACAD_REACTORS
330
C
102
}
330
C
100
AcDbDictionary
281
     1
  3
Layout1
350
1E
  3
Layout2
350
26
  3
Model
350
22
  0
DICTIONARY
  5
17
102
{ACAD_REACTORS
330
C
102
}
330
C
100
AcDbDictionary
281
     1
  3
Standard
350
18
  0
DICTIONARY
  5
19
102
{ACAD_REACTORS
330
C
102
}
330
C
100
AcDbDictionary
281
     1
  0
ACDBDICTIONARYWDFLT
  5
E
102
{ACAD_REACTORS
330
C
102
}
330
C
100
AcDbDictionary
281
     1
  3
Normal
350
F
100
AcDbDictionaryWithDefault
340
F
  0
DICTIONARY
  5
47
102
{ACAD_REACTORS
330
C
102
}
330
C
100
AcDbDictionary
281
     1
  3
A0
350
48
  3
A1
350
49
  3
A2
350
4A
  3
A3
350
4B
  3
A4
350
4C
  3
A5
350
4D
  3
A6
350
4E
  3
A7
350
4F
  3
A8
350
50
  3
A9
350
51
  3
B0
350
52
  3
B1
350
53
  3
B2
350
54
  3
B3
350
55
  3
B4
350
56
  3
B5
350
57
  3
B6
350
58
  3
B7
350
59
  3
B8
350
5A
  3
B9
350
5B
  3
C0
350
5C
  3
C1
350
5D
  3
C2
350
5E
  3
C3
350
5F
  3
C4
350
60
  3
C5
350
61
  3
C6
350
62
  3
C7
350
63
  3
C8
350
64
  3
C9
350
65
  3
D0
350
66
  3
D1
350
67
  3
D2
350
68
  0
LAYOUT
  5
1E
102
{ACAD_REACTORS
330
1A
102
}
330
1A
100
AcDbPlotSettings
  1

  2
none_device
  4

  6

 40
0.0
 41
0.0
 42
0.0
 43
0.0
 44
0.0
 45
0.0
 46
0.0
 47
0.0
 48
0.0
 49
0.0
140
0.0
141
0.0
142
1.0
143
1.0
 70
   688
 72
     1
 73
     0
 74
     5
  7

 75
    16
147
1.0
148
0.0
149
0.0
100
AcDbLayout
  1
Layout1
 70
     1
 71
     1
 10
0.0
 20
0.0
 11
420.0
 21
297.0
 12
0.0
 22
0.0
 32
0.0
 14
1.0000000000E+20
 24
1.0000000000E+20
 34
1.0000000000E+20
 15
-1.0000000000E+20
 25
-1.0000000000E+20
 35
-1.0000000000E+20
146
0.0
 13
0.0
 23
0.0
 33
0.0
 16
1.0
 26
0.0
 36
0.0
 17
0.0
 27
1.0
 37
0.0
 76
     0
330
1B
  0
LAYOUT
  5
26
102
{ACAD_REACTORS
330
1A
102
}
330
1A
100
AcDbPlotSettings
  1

  2
none_device
  4

  6

 40
0.0
 41
0.0
 42
0.0
 43
0.0
 44
0.0
 45
0.0
 46
0.0
 47
0.0
 48
0.0
 49
0.0
140
0.0
141
0.0
142
1.0
143
1.0
 70
   688
 72
     1
 73
     0
 74
     5
  7

 75
    16
147
1.0
148
0.0
149
0.0
100
AcDbLayout
  1
Layout2
 70
     1
 71
     2
 10
0.0
 20
0.0
 11
0.0
 21
0.0
 12
0.0
 22
0.0
 32
0.0
 14
0.0
 24
0.0
 34
0.0
 15
0.0
 25
0.0
 35
0.0
146
0.0
 13
0.0
 23
0.0
 33
0.0
 16
1.0
 26
0.0
 36
0.0
 17
0.0
 27
1.0
 37
0.0
 76
     0
330
23
  0
LAYOUT
  5
22
102
{ACAD_REACTORS
330
1A
102
}
330
1A
100
AcDbPlotSettings
  1

  2
none_device
  4
Letter_(8.50_x_11.00_Inches)
  6

 40
6.35
 41
6.35
 42
6.35000508
 43
6.35000508
 44
215.9
 45
279.4
 46
0.0
 47
0.0
 48
0.0
 49
0.0
140
0.0
141
0.0
142
1.0
143
1.0
 70
  1712
 72
     1
 73
     0
 74
     0
  7

 75
     0
147
1.0
148
0.0
149
0.0
100
AcDbLayout
  1
Model
 70
     1
 71
     0
 10
0.0
 20
0.0
 11
297.0
 21
210.0
 12
0.0
 22
0.0
 32
0.0
 14
0.0
 24
0.0
 34
0.0
 15
297.0
 25
210.0
 35
0.0
146
0.0
 13
0.0
 23
0.0
 33
0.0
 16
1.0
 26
0.0
 36
0.0
 17
0.0
 27
1.0
 37
0.0
 76
     0
330
1F
331
29
  0
MLINESTYLE
  5
18
102
{ACAD_REACTORS
330
17
102
}
330
17
100
AcDbMlineStyle
  2
Standard
 70
     0
  3

 62
   256
 51
90.0
 52
90.0
 71
     2
 49
0.5
 62
   256
  6
BYLAYER
 49
-0.5
 62
   256
  6
BYLAYER
  0
ACDBPLACEHOLDER
  5
F
102
{ACAD_REACTORS
330
E
102
}
330
E
  0
SCALE
  5
48
102
{ACAD_REACTORS
330
47
102
}
330
47
100
AcDbScale
 70
     0
300
1:1
140
1.0
141
1.0
290
     1
  0
SCALE
  5
49
102
{ACAD_REACTORS
330
47
102
}
330
47
100
AcDbScale
 70
     0
300
1:2
140
1.0
141
2.0
290
     0
  0
SCALE
  5
4A
102
{ACAD_REACTORS
330
47
102
}
330
47
100
AcDbScale
 70
     0
300
1:4
140
1.0
141
4.0
290
     0
  0
SCALE
  5
4B
102
{ACAD_REACTORS
330
47
102
}
330
47
100
AcDbScale
 70
     0
300
1:5
140
1.0
141
5.0
290
     0
  0
SCALE
  5
4C
102
{ACAD_REACTORS
330
47
102
}
330
47
100
AcDbScale
 70
     0
300
1:8
140
1.0
141
8.0
290
     0
  0
SCALE
  5
4D
102
{ACAD_REACTORS
330
47
102
}
330
47
100
AcDbScale
 70
     0
300
1:10
140
1.0
141
10.0
290
     0
  0
SCALE
  5
4E
102
{ACAD_REACTORS
330
47
102
}
330
47
100
AcDbScale
 70
     0
300
1:16
140
1.0
141
16.0
290
     0
  0
SCALE
  5
4F
102
{ACAD_REACTORS
330
47
102
}
330
47
100
AcDbScale
 70
     0
300
1:20
140
1.0
141
20.0
290
     0
  0
SCALE
  5
50
102
{ACAD_REACTORS
330
47
102
}
330
47
100
AcDbScale
 70
     0
300
1:30
140
1.0
141
30.0
290
     0
  0
SCALE
  5
51
102
{ACAD_REACTORS
330
47
102
}
330
47
100
AcDbScale
 70
     0
300
1:40
140
1.0
141
40.0
290
     0
  0
SCALE
  5
52
102
{ACAD_REACTORS
330
47
102
}
330
47
100
AcDbScale
 70
     0
300
1:50
140
1.0
141
50.0
290
     0
  0
SCALE
  5
53
102
{ACAD_REACTORS
330
47
102
}
330
47
100
AcDbScale
 70
     0
300
1:100
140
1.0
141
100.0
290
     0
  0
SCALE
  5
54
102
{ACAD_REACTORS
330
47
102
}
330
47
100
AcDbScale
 70
     0
300
2:1
140
2.0
141
1.0
290
     0
  0
SCALE
  5
55
102
{ACAD_REACTORS
330
47
102
}
330
47
100
AcDbScale
 70
     0
300
4:1
140
4.0
141
1.0
290
     0
  0
SCALE
  5
56
102
{ACAD_REACTORS
330
47
102
}
330
47
100
AcDbScale
 70
     0
300
8:1
140
8.0
141
1.0
290
     0
  0
SCALE
  5
57
102
{ACAD_REACTORS
330
47
102
}
330
47
100
AcDbScale
 70
     0
300
10:1
140
10.0
141
1.0
290
     0
  0
SCALE
  5
58
102
{ACAD_REACTORS
330
47
102
}
330
47
100
AcDbScale
 70
     0
300
100:1
140
100.0
141
1.0
290
     0
  0
SCALE
  5
59
102
{ACAD_REACTORS
330
47
102
}
330
47
100
AcDbScale
 70
     0
300
1/128" = 1'-0"
140
0.0078125
141
12.0
290
     0
  0
SCALE
  5
5A
102
{ACAD_REACTORS
330
47
102
}
330
47
100
AcDbScale
 70
     0
300
1/64" = 1'-0"
140
0.015625
141
12.0
290
     0
  0
SCALE
  5
5B
102
{ACAD_REACTORS
330
47
102
}
330
47
100
AcDbScale
 70
     0
300
1/32" = 1'-0"
140
0.03125
141
12.0
290
     0
  0
SCALE
  5
5C
102
{ACAD_REACTORS
330
47
102
}
330
47
100
AcDbScale
 70
     0
300
1/16" = 1'-0"
140
0.0625
141
12.0
290
     0
  0
SCALE
  5
5D
102
{ACAD_REACTORS
330
47
102
}
330
47
100
AcDbScale
 70
     0
300
3/32" = 1'-0"
140
0.09375
141
12.0
290
     0
  0
SCALE
  5
5E
102
{ACAD_REACTORS
330
47
102
}
330
47
100
AcDbScale
 70
     0
300
1/8" = 1'-0"
140
0.125
141
12.0
290
     0
  0
SCALE
  5
5F
102
{ACAD_REACTORS
330
47
102
}
330
47
100
AcDbScale
 70
     0
300
3/16" = 1'-0"
140
0.1875
141
12.0
290
     0
  0
SCALE
  5
60
102
{ACAD_REACTORS
330
47
102
}
330
47
100
AcDbScale
 70
     0
300
1/4" = 1'-0"
140
0.25
141
12.0
290
     0
  0
SCALE
  5
61
102
{ACAD_REACTORS
330
47
102
}
330
47
100
AcDbScale
 70
     0
300
3/8" = 1'-0"
140
0.375
141
12.0
290
     0
  0
SCALE
  5
62
102
{ACAD_REACTORS
330
47
102
}
330
47
100
AcDbScale
 70
     0
300
1/2" = 1'-0"
140
0.5
141
12.0
290
     0
  0
SCALE
  5
63
102
{ACAD_REACTORS
330
47
102
}
330
47
100
AcDbScale
 70
     0
300
3/4" = 1'-0"
140
0.75
141
12.0
290
     0
  0
SCALE
  5
64
102
{ACAD_REACTORS
330
47
102
}
330
47
100
AcDbScale
 70
     0
300
1" = 1'-0"
140
1.0
141
12.0
290
     0
  0
SCALE
  5
65
102
{ACAD_REACTORS
330
47
102
}
330
47
100
AcDbScale
 70
     0
300
1-1/2" = 1'-0"
140
1.5
141
12.0
290
     0
  0
SCALE
  5
66
102
{ACAD_REACTORS
330
47
102
}
330
47
100
AcDbScale
 70
     0
300
3" = 1'-0"
140
3.0
141
12.0
290
     0
  0
SCALE
  5
67
102
{ACAD_REACTORS
330
47
102
}
330
47
100
AcDbScale
 70
     0
300
6" = 1'-0"
140
6.0
141
12.0
290
     0
  0
SCALE
  5
68
102
{ACAD_REACTORS
330
47
102
}
330
47
100
AcDbScale
 70
     0
300
1'-0" = 1'-0"
140
12.0
141
12.0
290
     0
  0
ENDSEC
  0
EOF
