  0
SECTION
  2
HEADER
  9
$ACADVER
  1
AC1015
  9
$ACADMAINTVER
 70
     6
  9
$DWGCODEPAGE
  3
ANSI_1250
  9
$INSBASE
 10
0.0
 20
0.0
 30
0.0
  9
$EXTMIN
 10
0.0
 20
0.0
 30
0.0
  9
$EXTMAX
 10
297.0
 20
210.0
 30
0.0
  9
$LIMMIN
 10
0.0
 20
0.0
  9
$LIMMAX
 10
297.0
 20
210.0
  9
$ORTHOMODE
 70
     0
  9
$REGENMODE
 70
     1
  9
$FILLMODE
 70
     1
  9
$QTEXTMODE
 70
     0
  9
$MIRRTEXT
 70
     1
  9
$LTSCALE
 40
1.0
  9
$ATTMODE
 70
     1
  9
$TEXTSIZE
 40
3.5
  9
$TRACEWID
 40
1.0
  9
$TEXTSTYLE
  7
Standard
  9
$CLAYER
  8
0
  9
$CELTYPE
  6
ByLayer
  9
$CECOLOR
 62
   256
  9
$CELTSCALE
 40
1.0
  9
$DISPSILH
 70
     0
  9
$DIMSCALE
 40
1.0
  9
$DIMASZ
 40
3.302
  9
$DIMEXO
 40
1.0
  9
$DIMDLI
 40
3.75
  9
$DIMRND
 40
0.0
  9
$DIMDLE
 40
0.0
  9
$DIMEXE
 40
1.0
  9
$DIMTP
 40
0.0
  9
$DIMTM
 40
0.0
  9
$DIMTXT
 40
3.5
  9
$DIMCEN
 40
2.5
  9
$DIMTSZ
 40
0.0
  9
$DIMTOL
 70
     0
  9
$DIMLIM
 70
     0
  9
$DIMTIH
 70
     1
  9
$DIMTOH
 70
     1
  9
$DIMSE1
 70
     0
  9
$DIMSE2
 70
     0
  9
$DIMTAD
 70
     1
  9
$DIMZIN
 70
     0
  9
$DIMBLK
  1

  9
$DIMASO
 70
     1
  9
$DIMSHO
 70
     1
  9
$DIMPOST
  1

  9
$DIMAPOST
  1

  9
$DIMALT
 70
     0
  9
$DIMALTD
 70
     3
  9
$DIMALTF
 40
0.0393700787
  9
$DIMLFAC
 40
1.0
  9
$DIMTOFL
 70
     1
  9
$DIMTVP
 40
0.0
  9
$DIMTIX
 70
     0
  9
$DIMSOXD
 70
     0
  9
$DIMSAH
 70
     0
  9
$DIMBLK1
  1

  9
$DIMBLK2
  1

  9
$DIMSTYLE
  2
ISO-25
  9
$DIMCLRD
 70
     0
  9
$DIMCLRE
 70
     0
  9
$DIMCLRT
 70
     0
  9
$DIMTFAC
 40
1.0
  9
$DIMGAP
 40
1.524
  9
$DIMJUST
 70
     0
  9
$DIMSD1
 70
     0
  9
$DIMSD2
 70
     0
  9
$DIMTOLJ
 70
     0
  9
$DIMTZIN
 70
     0
  9
$DIMALTZ
 70
     0
  9
$DIMALTTZ
 70
     0
  9
$DIMUPT
 70
     0
  9
$DIMDEC
 70
     2
  9
$DIMTDEC
 70
     2
  9
$DIMALTU
 70
     2
  9
$DIMALTTD
 70
     3
  9
$DIMTXSTY
  7
Standard
  9
$DIMAUNIT
 70
     0
  9
$DIMADEC
 70
     2
  9
$DIMALTRND
 40
0.0
  9
$DIMAZIN
 70
     0
  9
$DIMDSEP
 70
    44
  9
$DIMATFIT
 70
     3
  9
$DIMFRAC
 70
     0
  9
$DIMLDRBLK
  1

  9
$DIMLUNIT
 70
     2
  9
$DIMLWD
 70
    -2
  9
$DIMLWE
 70
    -2
  9
$DIMTMOVE
 70
     0
  9
$LUNITS
 70
     2
  9
$LUPREC
 70
     2
  9
$SKETCHINC
 40
1.0
  9
$FILLETRAD
 40
10.0
  9
$AUNITS
 70
     0
  9
$AUPREC
 70
     2
  9
$MENU
  1
.
  9
$ELEVATION
 40
0.0
  9
$PELEVATION
 40
0.0
  9
$THICKNESS
 40
0.0
  9
$LIMCHECK
 70
     0
  9
$CHAMFERA
 40
0.0
  9
$CHAMFERB
 40
0.0
  9
$CHAMFERC
 40
0.0
  9
$CHAMFERD
 40
0.0
  9
$SKPOLY
 70
     0
  9
$TDCREATE
 40
2459278.334066134
  9
$TDUCREATE
 40
2459278.292399467
  9
$TDUPDATE
 40
2459278.33406787
  9
$TDUUPDATE
 40
2459278.292401204
  9
$TDINDWG
 40
0.0000000116
  9
$TDUSRTIMER
 40
0.0000000116
  9
$USRTIMER
 70
     1
  9
$ANGBASE
 50
0.0
  9
$ANGDIR
 70
     0
  9
$PDMODE
 70
     0
  9
$PDSIZE
 40
-1.0
  9
$PLINEWID
 40
0.0
  9
$SPLFRAME
 70
     0
  9
$SPLINETYPE
 70
     6
  9
$SPLINESEGS
 70
     8
  9
$HANDSEED
  5
35E
  9
$SURFTAB1
 70
     6
  9
$SURFTAB2
 70
     6
  9
$SURFTYPE
 70
     6
  9
$SURFU
 70
     6
  9
$SURFV
 70
     6
  9
$UCSBASE
  2

  9
$UCSNAME
  2

  9
$UCSORG
 10
0.0
 20
0.0
 30
0.0
  9
$UCSXDIR
 10
1.0
 20
0.0
 30
0.0
  9
$UCSYDIR
 10
0.0
 20
1.0
 30
0.0
  9
$UCSORTHOREF
  2

  9
$UCSORTHOVIEW
 70
     0
  9
$UCSORGTOP
 10
0.0
 20
0.0
 30
0.0
  9
$UCSORGBOTTOM
 10
0.0
 20
0.0
 30
0.0
  9
$UCSORGLEFT
 10
0.0
 20
0.0
 30
0.0
  9
$UCSORGRIGHT
 10
0.0
 20
0.0
 30
0.0
  9
$UCSORGFRONT
 10
0.0
 20
0.0
 30
0.0
  9
$UCSORGBACK
 10
0.0
 20
0.0
 30
0.0
  9
$PUCSBASE
  2

  9
$PUCSNAME
  2

  9
$PUCSORG
 10
0.0
 20
0.0
 30
0.0
  9
$PUCSXDIR
 10
1.0
 20
0.0
 30
0.0
  9
$PUCSYDIR
 10
0.0
 20
1.0
 30
0.0
  9
$PUCSORTHOREF
  2

  9
$PUCSORTHOVIEW
 70
     0
  9
$PUCSORGTOP
 10
0.0
 20
0.0
 30
0.0
  9
$PUCSORGBOTTOM
 10
0.0
 20
0.0
 30
0.0
  9
$PUCSORGLEFT
 10
0.0
 20
0.0
 30
0.0
  9
$PUCSORGRIGHT
 10
0.0
 20
0.0
 30
0.0
  9
$PUCSORGFRONT
 10
0.0
 20
0.0
 30
0.0
  9
$PUCSORGBACK
 10
0.0
 20
0.0
 30
0.0
  9
$USERI1
 70
     0
  9
$USERI2
 70
     0
  9
$USERI3
 70
     0
  9
$USERI4
 70
     0
  9
$USERI5
 70
     0
  9
$USERR1
 40
0.0
  9
$USERR2
 40
0.0
  9
$USERR3
 40
0.0
  9
$USERR4
 40
0.0
  9
$USERR5
 40
0.0
  9
$WORLDVIEW
 70
     1
  9
$SHADEDGE
 70
     3
  9
$SHADEDIF
 70
    70
  9
$TILEMODE
 70
     1
  9
$MAXACTVP
 70
    64
  9
$PINSBASE
 10
0.0
 20
0.0
 30
0.0
  9
$PLIMCHECK
 70
     0
  9
$PEXTMIN
 10
1.0000000000E+20
 20
1.0000000000E+20
 30
1.0000000000E+20
  9
$PEXTMAX
 10
-1.0000000000E+20
 20
-1.0000000000E+20
 30
-1.0000000000E+20
  9
$PLIMMIN
 10
0.0
 20
0.0
  9
$PLIMMAX
 10
420.0
 20
297.0
  9
$UNITMODE
 70
     0
  9
$VISRETAIN
 70
     1
  9
$PLINEGEN
 70
     0
  9
$PSLTSCALE
 70
     1
  9
$TREEDEPTH
 70
  3020
  9
$CMLSTYLE
  2
Standard
  9
$CMLJUST
 70
     0
  9
$CMLSCALE
 40
20.0
  9
$PROXYGRAPHICS
 70
     1
  9
$MEASUREMENT
 70
     1
  9
$CELWEIGHT
370
    -1
  9
$ENDCAPS
280
     0
  9
$JOINSTYLE
280
     0
  9
$LWDISPLAY
290
     1
  9
$INSUNITS
 70
     4
  9
$HYPERLINKBASE
  1

  9
$STYLESHEET
  1

  9
$XEDIT
290
     1
  9
$CEPSNTYPE
380
     0
  9
$PSTYLEMODE
290
     1
  9
$FINGERPRINTGUID
  2
{D419E490-0DA0-4C7D-887C-C9E1FD348F4E}
  9
$VERSIONGUID
  2
{FAEB1C32-E019-11D5-929B-00C0DF256EC4}
  9
$EXTNAMES
290
     1
  9
$PSVPSCALE
 40
0.0
  9
$OLESTARTUP
290
     0
  0
ENDSEC
  0
SECTION
  2
CLASSES
  0
CLASS
  1
ACDBDICTIONARYWDFLT
  2
AcDbDictionaryWithDefault
  3
ObjectDBX Classes
 90
        0
280
     0
281
     0
  0
CLASS
  1
VISUALSTYLE
  2
AcDbVisualStyle
  3
ObjectDBX Classes
 90
     4095
280
     0
281
     0
  0
CLASS
  1
MATERIAL
  2
AcDbMaterial
  3
ObjectDBX Classes
 90
     1153
280
     0
281
     0
  0
CLASS
  1
SCALE
  2
AcDbScale
  3
ObjectDBX Classes
 90
     1153
280
     0
281
     0
  0
CLASS
  1
TABLESTYLE
  2
AcDbTableStyle
  3
ObjectDBX Classes
 90
     4095
280
     0
281
     0
  0
CLASS
  1
MLEADERSTYLE
  2
AcDbMLeaderStyle
  3
ACDB_MLEADERSTYLE_CLASS
 90
     4095
280
     0
281
     0
  0
CLASS
  1
SUN
  2
AcDbSun
  3
SCENEOE
 90
     1153
280
     0
281
     0
  0
CLASS
  1
ACDBPLACEHOLDER
  2
AcDbPlaceHolder
  3
ObjectDBX Classes
 90
        0
280
     0
281
     0
  0
CLASS
  1
LAYOUT
  2
AcDbLayout
  3
ObjectDBX Classes
 90
        0
280
     0
281
     0
  0
ENDSEC
  0
SECTION
  2
TABLES
  0
TABLE
  2
VPORT
  5
8
330
0
100
AcDbSymbolTable
 70
     1
  0
VPORT
  5
29
330
8
100
AcDbSymbolTableRecord
100
AcDbViewportTableRecord
  2
*Active
 70
     0
 10
0.0
 20
0.0
 11
1.0
 21
1.0
 12
148.5
 22
105.0
 13
0.0
 23
0.0
 14
10.0
 24
10.0
 15
10.0
 25
10.0
 16
0.0
 26
0.0
 36
1.0
 17
0.0
 27
0.0
 37
0.0
 40
210.0
 41
1.4142857143
 42
50.0
 43
0.0
 44
0.0
 50
0.0
 51
0.0
 71
     0
 72
  2000
 73
     1
 74
     3
 75
     0
 76
     0
 77
     0
 78
     0
281
     0
 65
     1
110
0.0
120
0.0
130
0.0
111
1.0
121
0.0
131
0.0
112
0.0
122
1.0
132
0.0
 79
     0
146
0.0
  0
ENDTAB
  0
TABLE
  2
LTYPE
  5
5
330
0
100
AcDbSymbolTable
 70
     8
  0
LTYPE
  5
14
330
5
100
AcDbSymbolTableRecord
100
AcDbLinetypeTableRecord
  2
ByBlock
 70
     0
  3

 72
    65
 73
     0
 40
0.0
  0
LTYPE
  5
15
330
5
100
AcDbSymbolTableRecord
100
AcDbLinetypeTableRecord
  2
ByLayer
 70
     0
  3

 72
    65
 73
     0
 40
0.0
  0
LTYPE
  5
16
330
5
100
AcDbSymbolTableRecord
100
AcDbLinetypeTableRecord
  2
Continuous
 70
     0
  3
Solid line
 72
    65
 73
     0
 40
0.0
  0
LTYPE
  5
6E
330
5
100
AcDbSymbolTableRecord
100
AcDbLinetypeTableRecord
  2
SLD-Solid
 70
     0
  3
SolidWorks Line Style
 72
    65
 73
     0
 40
0.0
  0
LTYPE
  5
6F
330
5
100
AcDbSymbolTableRecord
100
AcDbLinetypeTableRecord
  2
SLD-Dashed
 70
     0
  3
SolidWorks Line Style
 72
    65
 73
     2
 40
1.905
 49
1.27
 74
     0
 49
-0.635
 74
     0
  0
LTYPE
  5
70
330
5
100
AcDbSymbolTableRecord
100
AcDbLinetypeTableRecord
  2
SLD-Phantom
 70
     0
  3
SolidWorks Line Style
 72
    65
 73
     6
 40
12.7
 49
6.35
 74
     0
 49
-1.27
 74
     0
 49
1.27
 74
     0
 49
-1.27
 74
     0
 49
1.27
 74
     0
 49
-1.27
 74
     0
  0
LTYPE
  5
71
330
5
100
AcDbSymbolTableRecord
100
AcDbLinetypeTableRecord
  2
SLD-Chain
 70
     0
  3
SolidWorks Line Style
 72
    65
 73
     4
 40
10.16
 49
6.35
 74
     0
 49
-1.27
 74
     0
 49
1.27
 74
     0
 49
-1.27
 74
     0
  0
LTYPE
  5
72
330
5
100
AcDbSymbolTableRecord
100
AcDbLinetypeTableRecord
  2
SLD-Center
 70
     0
  3
SolidWorks Line Style
 72
    65
 73
     4
 40
19.05
 49
15.24
 74
     0
 49
-1.27
 74
     0
 49
1.27
 74
     0
 49
-1.27
 74
     0
  0
LTYPE
  5
73
330
5
100
AcDbSymbolTableRecord
100
AcDbLinetypeTableRecord
  2
SLD-Stitch
 70
     0
  3
SolidWorks Line Style
 72
    65
 73
     2
 40
0.635
 49
0.0
 74
     0
 49
-0.635
 74
     0
  0
LTYPE
  5
74
330
5
100
AcDbSymbolTableRecord
100
AcDbLinetypeTableRecord
  2
SLD-Thin-Thick-Chain
 70
     0
  3
SolidWorks Line Style
 72
    65
 73
     4
 40
10.16
 49
6.35
 74
     0
 49
-1.27
 74
     0
 49
1.27
 74
     0
 49
-1.27
 74
     0
  0
ENDTAB
  0
TABLE
  2
LAYER
  5
2
330
0
100
AcDbSymbolTable
 70
    14
  0
LAYER
  5
10
330
2
100
AcDbSymbolTableRecord
100
AcDbLayerTableRecord
  2
0
 70
     0
 62
     7
  6
Continuous
370
    -3
390
F
  0
LAYER
  5
75
330
2
100
AcDbSymbolTableRecord
100
AcDbLayerTableRecord
  2
SLD-0
 70
     0
 62
   179
  6
SLD-Solid
370
    -3
390
F
  0
LAYER
  5
76
330
2
100
AcDbSymbolTableRecord
100
AcDbLayerTableRecord
  2
80
 70
     0
 62
    -6
  6
SLD-Solid
290
     0
370
    -3
390
F
  0
LAYER
  5
77
330
2
100
AcDbSymbolTableRecord
100
AcDbLayerTableRecord
  2
81
 70
     0
 62
    -3
  6
SLD-Solid
290
     0
370
    -3
390
F
  0
LAYER
  5
78
330
2
100
AcDbSymbolTableRecord
100
AcDbLayerTableRecord
  2
1
 70
     0
 62
     4
  6
SLD-Solid
290
     0
370
    -3
390
F
  0
LAYER
  5
79
330
2
100
AcDbSymbolTableRecord
100
AcDbLayerTableRecord
  2
4
 70
     0
 62
    -2
  6
SLD-Chain
290
     0
370
    -3
390
F
  0
LAYER
  5
7A
330
2
100
AcDbSymbolTableRecord
100
AcDbLayerTableRecord
  2
2
 70
     0
 62
     7
  6
SLD-Solid
290
     0
370
    -3
390
F
  0
LAYER
  5
7B
330
2
100
AcDbSymbolTableRecord
100
AcDbLayerTableRecord
  2
SK3
 70
     0
 62
     1
  6
SLD-Dashed
290
     0
370
    -3
390
F
  0
LAYER
  5
7C
330
2
100
AcDbSymbolTableRecord
100
AcDbLayerTableRecord
  2
SK4
 70
     0
 62
     2
  6
SLD-Chain
290
     0
370
    -3
390
F
  0
LAYER
  5
7D
330
2
100
AcDbSymbolTableRecord
100
AcDbLayerTableRecord
  2
SK2
 70
     0
 62
     7
  6
SLD-Solid
290
     0
370
    -3
390
F
  0
LAYER
  5
7E
330
2
100
AcDbSymbolTableRecord
100
AcDbLayerTableRecord
  2
SK6
 70
     0
 62
     5
  6
SLD-Solid
290
     0
370
    -3
390
F
  0
LAYER
  5
7F
330
2
100
AcDbSymbolTableRecord
100
AcDbLayerTableRecord
  2
6
 70
     0
 62
     5
  6
SLD-Solid
370
    -3
390
F
  0
LAYER
  5
80
330
2
100
AcDbSymbolTableRecord
100
AcDbLayerTableRecord
  2
SK1
 70
     0
 62
     4
  6
SLD-Solid
370
    -3
390
F
  0
LAYER
  5
81
330
2
100
AcDbSymbolTableRecord
100
AcDbLayerTableRecord
  2
LAYER5
 70
     0
 62
   218
  6
SLD-Solid
370
    -3
390
F
  0
ENDTAB
  0
TABLE
  2
STYLE
  5
3
330
0
100
AcDbSymbolTable
 70
     3
  0
STYLE
  5
11
330
3
100
AcDbSymbolTableRecord
100
AcDbTextStyleTableRecord
  2
Standard
 70
     0
 40
0.0
 41
1.0
 50
0.0
 71
     0
 42
3.5
  3
txt
  4

  0
STYLE
  5
284
330
3
100
AcDbSymbolTableRecord
100
AcDbTextStyleTableRecord
  2
SLDTEXTSTYLE0
 70
     0
 40
0.0
 41
0.75
 50
0.0
 71
     0
 42
3.5
  3
TXT
  4

  0
STYLE
  5
35A
330
3
100
AcDbSymbolTableRecord
100
AcDbTextStyleTableRecord
  2
SLDTEXTSTYLE1
 70
     0
 40
0.0
 41
0.6666666667
 50
0.0
 71
     0
 42
3.5
  3
TXT
  4

  0
ENDTAB
  0
TABLE
  2
VIEW
  5
6
330
0
100
AcDbSymbolTable
 70
     0
  0
ENDTAB
  0
TABLE
  2
UCS
  5
7
330
0
100
AcDbSymbolTable
 70
     0
  0
ENDTAB
  0
TABLE
  2
APPID
  5
9
330
0
100
AcDbSymbolTable
 70
     1
  0
APPID
  5
12
330
9
100
AcDbSymbolTableRecord
100
AcDbRegAppTableRecord
  2
ACAD
 70
     0
  0
ENDTAB
  0
TABLE
  2
DIMSTYLE
  5
A
330
0
100
AcDbSymbolTable
 70
     5
100
AcDbDimStyleTable
  0
DIMSTYLE
105
27
330
A
100
AcDbSymbolTableRecord
100
AcDbDimStyleTableRecord
  2
ISO-25
 70
     0
 41
2.5
 42
0.625
 43
3.75
 44
1.25
 73
     0
 74
     0
 77
     1
 78
     8
140
2.5
141
2.5
143
0.0393700787
147
0.625
171
     3
172
     1
178
     0
271
     2
272
     2
274
     3
278
    44
283
     0
284
     8
340
11
  0
DIMSTYLE
105
285
102
{ACAD_REACTORS
330
283
330
298
330
2AB
330
2BE
330
2EF
330
301
330
313
330
326
102
}
330
A
100
AcDbSymbolTableRecord
100
AcDbDimStyleTableRecord
  2
SLDDIMSTYLE0
 70
     0
 41
3.302
 44
0.0
 45
0.000000001
 73
     0
 74
     0
 77
     1
 78
    12
 79
     3
140
3.5
143
0.0393700787
147
0.875
148
0.000000001
170
     1
173
     1
178
     0
271
     2
272
     2
276
     2
284
    12
340
284
  0
DIMSTYLE
105
2D2
102
{ACAD_REACTORS
330
2D1
330
346
330
351
102
}
330
A
100
AcDbSymbolTableRecord
100
AcDbDimStyleTableRecord
  2
SLDDIMSTYLE1
 70
     0
 41
3.302
 44
0.0
 45
0.000000001
 73
     0
 74
     0
 77
     1
 78
    12
 79
     3
140
3.5
147
0.875
173
     1
178
     0
271
     2
272
     2
276
     2
284
    12
340
284
  0
DIMSTYLE
105
2DD
102
{ACAD_REACTORS
330
2DC
102
}
330
A
100
AcDbSymbolTableRecord
100
AcDbDimStyleTableRecord
  2
SLDDIMSTYLE2
 70
     0
 41
3.302
 44
0.0
 45
0.000000001
 73
     0
 74
     0
 77
     1
 78
    12
 79
     3
140
3.5
143
0.0393700787
147
0.875
148
0.000000001
170
     1
171
     3
173
     1
178
     0
271
     3
272
     2
274
     3
276
     2
284
    12
340
284
  0
DIMSTYLE
105
33A
102
{ACAD_REACTORS
330
339
102
}
330
A
100
AcDbSymbolTableRecord
100
AcDbDimStyleTableRecord
  2
SLDDIMSTYLE3
 70
     0
 41
3.302
 44
0.0
 45
0.000000001
 73
     0
 74
     0
 77
     1
 78
    12
 79
     3
140
3.5
147
0.875
172
     1
173
     1
178
     0
271
     2
272
     2
276
     2
284
    12
289
     0
340
284
  0
ENDTAB
  0
TABLE
  2
BLOCK_RECORD
  5
1
330
0
100
AcDbSymbolTable
 70
    14
  0
BLOCK_RECORD
  5
1F
330
1
100
AcDbSymbolTableRecord
100
AcDbBlockTableRecord
  2
*Model_Space
340
22
  0
BLOCK_RECORD
  5
1B
330
1
100
AcDbSymbolTableRecord
100
AcDbBlockTableRecord
  2
*Paper_Space
340
1E
  0
BLOCK_RECORD
  5
23
330
1
100
AcDbSymbolTableRecord
100
AcDbBlockTableRecord
  2
*Paper_Space0
340
26
  0
BLOCK_RECORD
  5
286
330
1
100
AcDbSymbolTableRecord
100
AcDbBlockTableRecord
  2
_D
340
0
  0
BLOCK_RECORD
  5
299
330
1
100
AcDbSymbolTableRecord
100
AcDbBlockTableRecord
  2
_D_1
340
0
  0
BLOCK_RECORD
  5
2AC
330
1
100
AcDbSymbolTableRecord
100
AcDbBlockTableRecord
  2
_D_2
340
0
  0
BLOCK_RECORD
  5
2BF
330
1
100
AcDbSymbolTableRecord
100
AcDbBlockTableRecord
  2
_D_3
340
0
  0
BLOCK_RECORD
  5
2D3
330
1
100
AcDbSymbolTableRecord
100
AcDbBlockTableRecord
  2
_D_4
340
0
  0
BLOCK_RECORD
  5
2DE
330
1
100
AcDbSymbolTableRecord
100
AcDbBlockTableRecord
  2
_D_5
340
0
  0
BLOCK_RECORD
  5
2F0
330
1
100
AcDbSymbolTableRecord
100
AcDbBlockTableRecord
  2
_D_6
340
0
  0
BLOCK_RECORD
  5
302
330
1
100
AcDbSymbolTableRecord
100
AcDbBlockTableRecord
  2
_D_7
340
0
  0
BLOCK_RECORD
  5
314
330
1
100
AcDbSymbolTableRecord
100
AcDbBlockTableRecord
  2
_D_8
340
0
  0
BLOCK_RECORD
  5
327
330
1
100
AcDbSymbolTableRecord
100
AcDbBlockTableRecord
  2
_D_9
340
0
  0
BLOCK_RECORD
  5
33B
330
1
100
AcDbSymbolTableRecord
100
AcDbBlockTableRecord
  2
_D_10
340
0
  0
BLOCK_RECORD
  5
347
330
1
100
AcDbSymbolTableRecord
100
AcDbBlockTableRecord
  2
_D_11
340
0
  0
BLOCK_RECORD
  5
352
330
1
100
AcDbSymbolTableRecord
100
AcDbBlockTableRecord
  2
_D_12
340
0
  0
ENDTAB
  0
ENDSEC
  0
SECTION
  2
BLOCKS
  0
BLOCK
  5
20
330
1F
100
AcDbEntity
  8
0
100
AcDbBlockBegin
  2
*Model_Space
 70
     0
 10
0.0
 20
0.0
 30
0.0
  3
*Model_Space
  1

  0
ENDBLK
  5
21
330
1F
100
AcDbEntity
  8
0
100
AcDbBlockEnd
  0
BLOCK
  5
1C
330
1B
100
AcDbEntity
 67
     1
  8
0
100
AcDbBlockBegin
  2
*Paper_Space
 70
     0
 10
0.0
 20
0.0
 30
0.0
  3
*Paper_Space
  1

  0
ENDBLK
  5
1D
330
1B
100
AcDbEntity
 67
     1
  8
0
100
AcDbBlockEnd
  0
BLOCK
  5
24
330
23
100
AcDbEntity
  8
0
100
AcDbBlockBegin
  2
*Paper_Space0
 70
     0
 10
0.0
 20
0.0
 30
0.0
  3
*Paper_Space0
  1

  0
ENDBLK
  5
25
330
23
100
AcDbEntity
  8
0
100
AcDbBlockEnd
  0
BLOCK
  5
287
330
286
100
AcDbEntity
  8
0
100
AcDbBlockBegin
  2
_D
 70
     0
 10
0.0
 20
0.0
 30
0.0
  3
_D
  1

  0
SOLID
  5
289
330
286
100
AcDbEntity
  8
2
100
AcDbTrace
 10
0.0
 20
75.133598337
 30
0.0
 11
3.302
 21
74.625598337
 31
0.0
 12
3.302
 22
75.641598337
 32
0.0
 13
3.302
 23
75.641598337
 33
0.0
  0
SOLID
  5
28A
330
286
100
AcDbEntity
  8
2
100
AcDbTrace
 10
101.6
 20
75.133598337
 30
0.0
 11
98.298
 21
75.641598337
 31
0.0
 12
98.298
 22
74.625598337
 32
0.0
 13
98.298
 23
74.625598337
 33
0.0
  0
LINE
  5
28B
330
286
100
AcDbEntity
  8
2
100
AcDbLine
 10
34.202183991
 20
85.926480053
 30
0.0
 11
33.1357777335
 21
85.926480053
 31
0.0
  0
LINE
  5
28C
330
286
100
AcDbEntity
  8
2
100
AcDbLine
 10
33.1357777335
 20
85.926480053
 30
0.0
 11
33.1357777335
 21
80.370230062
 31
0.0
  0
LINE
  5
28D
330
286
100
AcDbEntity
  8
2
100
AcDbLine
 10
33.1357777335
 20
80.370230062
 30
0.0
 11
34.202183991
 21
80.370230062
 31
0.0
  0
LINE
  5
28E
330
286
100
AcDbEntity
  8
2
100
AcDbLine
 10
43.2535730519
 20
85.926480053
 30
0.0
 11
44.3199793093
 21
85.926480053
 31
0.0
  0
LINE
  5
28F
330
286
100
AcDbEntity
  8
2
100
AcDbLine
 10
44.3199793093
 20
85.926480053
 30
0.0
 11
44.3199793093
 21
80.370230062
 31
0.0
  0
LINE
  5
290
330
286
100
AcDbEntity
  8
2
100
AcDbLine
 10
44.3199793093
 20
80.370230062
 30
0.0
 11
43.2535730519
 21
80.370230062
 31
0.0
  0
LINE
  5
291
330
286
100
AcDbEntity
  8
2
100
AcDbLine
 10
0.0
 20
35.925
 30
0.0
 11
0.0
 21
76.133598337
 31
0.0
  0
LINE
  5
292
330
286
100
AcDbEntity
  8
2
100
AcDbLine
 10
101.6
 20
25.125
 30
0.0
 11
101.6
 21
76.133598337
 31
0.0
  0
LINE
  5
293
330
286
100
AcDbEntity
  8
2
100
AcDbLine
 10
0.0
 20
75.133598337
 30
0.0
 11
101.6
 21
75.133598337
 31
0.0
  0
MTEXT
  5
294
330
286
100
AcDbEntity
  8
2
100
AcDbMText
 10
32.0888158793
 20
79.6988076029
 30
0.0
 40
3.5
 41
0.0
 71
     1
 72
     1
  1

  7
SLDTEXTSTYLE0
 73
     1
 44
1.0
  0
MTEXT
  5
295
330
286
100
AcDbEntity
  8
2
100
AcDbMText
 10
34.202183991
 20
84.8819669766
 30
0.0
 40
3.5
 41
0.0
 71
     1
 72
     1
  1
4,00
  7
SLDTEXTSTYLE0
 73
     1
 44
1.0
  0
MTEXT
  5
296
330
286
100
AcDbEntity
  8
2
100
AcDbMText
 10
32.9091282778
 20
79.6453354262
 30
0.0
 40
3.5
 41
0.0
 71
     1
 72
     1
  1
101,6
  7
SLDTEXTSTYLE0
 73
     1
 44
1.0
  0
MTEXT
  5
297
330
286
100
AcDbEntity
  8
2
100
AcDbMText
 10
46.6988856832
 20
79.6988076029
 30
0.0
 40
3.5
 41
0.0
 71
     1
 72
     1
  1

  7
SLDTEXTSTYLE0
 73
     1
 44
1.0
  0
ENDBLK
  5
288
330
286
100
AcDbEntity
  8
0
100
AcDbBlockEnd
  0
BLOCK
  5
29A
330
299
100
AcDbEntity
  8
0
100
AcDbBlockBegin
  2
_D_1
 70
     0
 10
0.0
 20
0.0
 30
0.0
  3
_D_1
  1

  0
SOLID
  5
29C
330
299
100
AcDbEntity
  8
SK2
100
AcDbTrace
 10
19.05
 20
60.7605397181
 30
0.0
 11
22.352
 21
60.2525397181
 31
0.0
 12
22.352
 22
61.2685397181
 32
0.0
 13
22.352
 23
61.2685397181
 33
0.0
  0
SOLID
  5
29D
330
299
100
AcDbEntity
  8
SK2
100
AcDbTrace
 10
101.6
 20
60.7605397181
 30
0.0
 11
98.298
 21
61.2685397181
 31
0.0
 12
98.298
 22
60.2525397181
 32
0.0
 13
98.298
 23
60.2525397181
 33
0.0
  0
LINE
  5
29E
330
299
100
AcDbEntity
  8
SK2
100
AcDbLine
 10
40.3322917048
 20
71.5534214341
 30
0.0
 11
39.2658854474
 21
71.5534214341
 31
0.0
  0
LINE
  5
29F
330
299
100
AcDbEntity
  8
SK2
100
AcDbLine
 10
39.2658854474
 20
71.5534214341
 30
0.0
 11
39.2658854474
 21
65.9971714431
 31
0.0
  0
LINE
  5
2A0
330
299
100
AcDbEntity
  8
SK2
100
AcDbLine
 10
39.2658854474
 20
65.9971714431
 30
0.0
 11
40.3322917048
 21
65.9971714431
 31
0.0
  0
LINE
  5
2A1
330
299
100
AcDbEntity
  8
SK2
100
AcDbLine
 10
49.3836807657
 20
71.5534214341
 30
0.0
 11
50.4500870232
 21
71.5534214341
 31
0.0
  0
LINE
  5
2A2
330
299
100
AcDbEntity
  8
SK2
100
AcDbLine
 10
50.4500870232
 20
71.5534214341
 30
0.0
 11
50.4500870232
 21
65.9971714431
 31
0.0
  0
LINE
  5
2A3
330
299
100
AcDbEntity
  8
SK2
100
AcDbLine
 10
50.4500870232
 20
65.9971714431
 30
0.0
 11
49.3836807657
 21
65.9971714431
 31
0.0
  0
LINE
  5
2A4
330
299
100
AcDbEntity
  8
SK2
100
AcDbLine
 10
19.05
 20
47.5560855313
 30
0.0
 11
19.05
 21
61.7605397181
 31
0.0
  0
LINE
  5
2A5
330
299
100
AcDbEntity
  8
SK2
100
AcDbLine
 10
101.6
 20
25.125
 30
0.0
 11
101.6
 21
61.7605397181
 31
0.0
  0
LINE
  5
2A6
330
299
100
AcDbEntity
  8
SK2
100
AcDbLine
 10
19.05
 20
60.7605397181
 30
0.0
 11
101.6
 21
60.7605397181
 31
0.0
  0
MTEXT
  5
2A7
330
299
100
AcDbEntity
  8
SK2
100
AcDbMText
 10
38.2189235932
 20
65.3257489839
 30
0.0
 40
3.5
 41
0.0
 71
     1
 72
     1
  1

  7
SLDTEXTSTYLE0
 73
     1
 44
1.0
  0
MTEXT
  5
2A8
330
299
100
AcDbEntity
  8
SK2
100
AcDbMText
 10
40.3322917048
 20
70.5089083576
 30
0.0
 40
3.5
 41
0.0
 71
     1
 72
     1
  1
3,25
  7
SLDTEXTSTYLE0
 73
     1
 44
1.0
  0
MTEXT
  5
2A9
330
299
100
AcDbEntity
  8
SK2
100
AcDbMText
 10
39.0392359916
 20
65.2722768073
 30
0.0
 40
3.5
 41
0.0
 71
     1
 72
     1
  1
82,55
  7
SLDTEXTSTYLE0
 73
     1
 44
1.0
  0
MTEXT
  5
2AA
330
299
100
AcDbEntity
  8
SK2
100
AcDbMText
 10
52.828993397
 20
65.3257489839
 30
0.0
 40
3.5
 41
0.0
 71
     1
 72
     1
  1

  7
SLDTEXTSTYLE0
 73
     1
 44
1.0
  0
ENDBLK
  5
29B
330
299
100
AcDbEntity
  8
0
100
AcDbBlockEnd
  0
BLOCK
  5
2AD
330
2AC
100
AcDbEntity
  8
0
100
AcDbBlockBegin
  2
_D_2
 70
     0
 10
0.0
 20
0.0
 30
0.0
  3
_D_2
  1

  0
SOLID
  5
2AF
330
2AC
100
AcDbEntity
  8
SK2
100
AcDbTrace
 10
101.6
 20
45.7738268846
 30
0.0
 11
98.298
 21
46.2818268846
 31
0.0
 12
98.298
 22
45.2658268846
 32
0.0
 13
98.298
 23
45.2658268846
 33
0.0
  0
SOLID
  5
2B0
330
2AC
100
AcDbEntity
  8
SK2
100
AcDbTrace
 10
73.025
 20
45.7738268846
 30
0.0
 11
76.327
 21
45.2658268846
 31
0.0
 12
76.327
 22
46.2818268846
 32
0.0
 13
76.327
 23
46.2818268846
 33
0.0
  0
LINE
  5
2B1
330
2AC
100
AcDbEntity
  8
SK2
100
AcDbLine
 10
81.320000311
 20
56.5667086006
 30
0.0
 11
80.2535940535
 21
56.5667086006
 31
0.0
  0
LINE
  5
2B2
330
2AC
100
AcDbEntity
  8
SK2
100
AcDbLine
 10
80.2535940535
 20
56.5667086006
 30
0.0
 11
80.2535940535
 21
51.0104586096
 31
0.0
  0
LINE
  5
2B3
330
2AC
100
AcDbEntity
  8
SK2
100
AcDbLine
 10
80.2535940535
 20
51.0104586096
 30
0.0
 11
81.320000311
 21
51.0104586096
 31
0.0
  0
LINE
  5
2B4
330
2AC
100
AcDbEntity
  8
SK2
100
AcDbLine
 10
90.3713893719
 20
56.5667086006
 30
0.0
 11
91.4377956293
 21
56.5667086006
 31
0.0
  0
LINE
  5
2B5
330
2AC
100
AcDbEntity
  8
SK2
100
AcDbLine
 10
91.4377956293
 20
56.5667086006
 30
0.0
 11
91.4377956293
 21
51.0104586096
 31
0.0
  0
LINE
  5
2B6
330
2AC
100
AcDbEntity
  8
SK2
100
AcDbLine
 10
91.4377956293
 20
51.0104586096
 30
0.0
 11
90.3713893719
 21
51.0104586096
 31
0.0
  0
LINE
  5
2B7
330
2AC
100
AcDbEntity
  8
SK2
100
AcDbLine
 10
101.6
 20
25.125
 30
0.0
 11
101.6
 21
46.7738268846
 31
0.0
  0
LINE
  5
2B8
330
2AC
100
AcDbEntity
  8
SK2
100
AcDbLine
 10
73.025
 20
35.825
 30
0.0
 11
73.025
 21
46.7738268846
 31
0.0
  0
LINE
  5
2B9
330
2AC
100
AcDbEntity
  8
SK2
100
AcDbLine
 10
101.6
 20
45.7738268846
 30
0.0
 11
73.025
 21
45.7738268846
 31
0.0
  0
MTEXT
  5
2BA
330
2AC
100
AcDbEntity
  8
SK2
100
AcDbMText
 10
79.2066321993
 20
50.3390361504
 30
0.0
 40
3.5
 41
0.0
 71
     1
 72
     1
  1

  7
SLDTEXTSTYLE0
 73
     1
 44
1.0
  0
MTEXT
  5
2BB
330
2AC
100
AcDbEntity
  8
SK2
100
AcDbMText
 10
81.320000311
 20
55.5221955241
 30
0.0
 40
3.5
 41
0.0
 71
     1
 72
     1
  1
1,13
  7
SLDTEXTSTYLE0
 73
     1
 44
1.0
  0
MTEXT
  5
2BC
330
2AC
100
AcDbEntity
  8
SK2
100
AcDbMText
 10
80.0269445978
 20
50.2855639738
 30
0.0
 40
3.5
 41
0.0
 71
     1
 72
     1
  1
28,58
  7
SLDTEXTSTYLE0
 73
     1
 44
1.0
  0
MTEXT
  5
2BD
330
2AC
100
AcDbEntity
  8
SK2
100
AcDbMText
 10
93.8167020032
 20
50.3390361504
 30
0.0
 40
3.5
 41
0.0
 71
     1
 72
     1
  1

  7
SLDTEXTSTYLE0
 73
     1
 44
1.0
  0
ENDBLK
  5
2AE
330
2AC
100
AcDbEntity
  8
0
100
AcDbBlockEnd
  0
BLOCK
  5
2C0
330
2BF
100
AcDbEntity
  8
0
100
AcDbBlockBegin
  2
_D_3
 70
     0
 10
0.0
 20
0.0
 30
0.0
  3
_D_3
  1

  0
SOLID
  5
2C2
330
2BF
100
AcDbEntity
  8
SK2
100
AcDbTrace
 10
48.025
 20
45.7738268846
 30
0.0
 11
51.327
 21
45.2658268846
 31
0.0
 12
51.327
 22
46.2818268846
 32
0.0
 13
51.327
 23
46.2818268846
 33
0.0
  0
SOLID
  5
2C3
330
2BF
100
AcDbEntity
  8
SK2
100
AcDbTrace
 10
73.025
 20
45.7738268846
 30
0.0
 11
69.723
 21
46.2818268846
 31
0.0
 12
69.723
 22
45.2658268846
 32
0.0
 13
69.723
 23
45.2658268846
 33
0.0
  0
LINE
  5
2C4
330
2BF
100
AcDbEntity
  8
SK2
100
AcDbLine
 10
57.248235591
 20
56.5667086006
 30
0.0
 11
56.1818293335
 21
56.5667086006
 31
0.0
  0
LINE
  5
2C5
330
2BF
100
AcDbEntity
  8
SK2
100
AcDbLine
 10
56.1818293335
 20
56.5667086006
 30
0.0
 11
56.1818293335
 21
51.0104586096
 31
0.0
  0
LINE
  5
2C6
330
2BF
100
AcDbEntity
  8
SK2
100
AcDbLine
 10
56.1818293335
 20
51.0104586096
 30
0.0
 11
57.248235591
 21
51.0104586096
 31
0.0
  0
LINE
  5
2C7
330
2BF
100
AcDbEntity
  8
SK2
100
AcDbLine
 10
66.2996246519
 20
56.5667086006
 30
0.0
 11
67.3660309093
 21
56.5667086006
 31
0.0
  0
LINE
  5
2C8
330
2BF
100
AcDbEntity
  8
SK2
100
AcDbLine
 10
67.3660309093
 20
56.5667086006
 30
0.0
 11
67.3660309093
 21
51.0104586096
 31
0.0
  0
LINE
  5
2C9
330
2BF
100
AcDbEntity
  8
SK2
100
AcDbLine
 10
67.3660309093
 20
51.0104586096
 30
0.0
 11
66.2996246519
 21
51.0104586096
 31
0.0
  0
LINE
  5
2CA
330
2BF
100
AcDbEntity
  8
SK2
100
AcDbLine
 10
48.025
 20
35.825
 30
0.0
 11
48.025
 21
46.7738268846
 31
0.0
  0
LINE
  5
2CB
330
2BF
100
AcDbEntity
  8
SK2
100
AcDbLine
 10
73.025
 20
35.825
 30
0.0
 11
73.025
 21
46.7738268846
 31
0.0
  0
LINE
  5
2CC
330
2BF
100
AcDbEntity
  8
SK2
100
AcDbLine
 10
48.025
 20
45.7738268846
 30
0.0
 11
73.025
 21
45.7738268846
 31
0.0
  0
MTEXT
  5
2CD
330
2BF
100
AcDbEntity
  8
SK2
100
AcDbMText
 10
55.1348674793
 20
50.3390361504
 30
0.0
 40
3.5
 41
0.0
 71
     1
 72
     1
  1

  7
SLDTEXTSTYLE0
 73
     1
 44
1.0
  0
MTEXT
  5
2CE
330
2BF
100
AcDbEntity
  8
SK2
100
AcDbMText
 10
57.248235591
 20
55.5221955241
 30
0.0
 40
3.5
 41
0.0
 71
     1
 72
     1
  1
0,98
  7
SLDTEXTSTYLE0
 73
     1
 44
1.0
  0
MTEXT
  5
2CF
330
2BF
100
AcDbEntity
  8
SK2
100
AcDbMText
 10
59.1878189279
 20
50.2855639738
 30
0.0
 40
3.5
 41
0.0
 71
     1
 72
     1
  1
25
  7
SLDTEXTSTYLE0
 73
     1
 44
1.0
  0
MTEXT
  5
2D0
330
2BF
100
AcDbEntity
  8
SK2
100
AcDbMText
 10
69.7449372832
 20
50.3390361504
 30
0.0
 40
3.5
 41
0.0
 71
     1
 72
     1
  1

  7
SLDTEXTSTYLE0
 73
     1
 44
1.0
  0
ENDBLK
  5
2C1
330
2BF
100
AcDbEntity
  8
0
100
AcDbBlockEnd
  0
BLOCK
  5
2D4
330
2D3
100
AcDbEntity
  8
0
100
AcDbBlockBegin
  2
_D_4
 70
     0
 10
0.0
 20
0.0
 30
0.0
  3
_D_4
  1

  0
SOLID
  5
2D6
330
2D3
100
AcDbEntity
  8
SK2
100
AcDbTrace
 10
0.0
 20
60.7605397181
 30
0.0
 11
3.302
 21
60.2525397181
 31
0.0
 12
3.302
 22
61.2685397181
 32
0.0
 13
3.302
 23
61.2685397181
 33
0.0
  0
SOLID
  5
2D7
330
2D3
100
AcDbEntity
  8
SK2
100
AcDbTrace
 10
19.05
 20
60.7605397181
 30
0.0
 11
15.748
 21
61.2685397181
 31
0.0
 12
15.748
 22
60.2525397181
 32
0.0
 13
15.748
 23
60.2525397181
 33
0.0
  0
LINE
  5
2D8
330
2D3
100
AcDbEntity
  8
SK2
100
AcDbLine
 10
0.0
 20
35.925
 30
0.0
 11
0.0
 21
61.7605397181
 31
0.0
  0
LINE
  5
2D9
330
2D3
100
AcDbEntity
  8
SK2
100
AcDbLine
 10
19.05
 20
47.5560855313
 30
0.0
 11
19.05
 21
61.7605397181
 31
0.0
  0
LINE
  5
2DA
330
2D3
100
AcDbEntity
  8
SK2
100
AcDbLine
 10
0.0
 20
60.7605397181
 30
0.0
 11
19.05
 21
60.7605397181
 31
0.0
  0
MTEXT
  5
2DB
330
2D3
100
AcDbEntity
  8
SK2
100
AcDbMText
 10
3.5169371285
 20
65.2722766327
 30
0.0
 40
3.5
 41
0.0
 71
     1
 72
     1
  1
19,05
  7
SLDTEXTSTYLE0
 73
     1
 44
1.0
  0
ENDBLK
  5
2D5
330
2D3
100
AcDbEntity
  8
0
100
AcDbBlockEnd
  0
BLOCK
  5
2DF
330
2DE
100
AcDbEntity
  8
0
100
AcDbBlockBegin
  2
_D_5
 70
     0
 10
0.0
 20
0.0
 30
0.0
  3
_D_5
  1

  0
SOLID
  5
2E1
330
2DE
100
AcDbEntity
  8
SK2
100
AcDbTrace
 10
117.5192261759
 20
20.0
 30
0.0
 11
117.0112261759
 21
16.698
 31
0.0
 12
118.0272261759
 22
16.698
 32
0.0
 13
118.0272261759
 23
16.698
 33
0.0
  0
SOLID
  5
2E2
330
2DE
100
AcDbEntity
  8
SK2
100
AcDbTrace
 10
117.5192261759
 20
-20.0
 30
0.0
 11
118.0272261759
 21
-16.698
 31
0.0
 12
117.0112261759
 22
-16.698
 32
0.0
 13
117.0112261759
 23
-16.698
 33
0.0
  0
LINE
  5
2E3
330
2DE
100
AcDbEntity
  8
SK2
100
AcDbLine
 10
106.7263444599
 20
-5.3675517566
 30
0.0
 11
106.7263444599
 21
-6.433958014
 31
0.0
  0
LINE
  5
2E4
330
2DE
100
AcDbEntity
  8
SK2
100
AcDbLine
 10
106.7263444599
 20
-6.433958014
 30
0.0
 11
112.2825944509
 21
-6.433958014
 31
0.0
  0
LINE
  5
2E5
330
2DE
100
AcDbEntity
  8
SK2
100
AcDbLine
 10
112.2825944509
 20
-6.433958014
 30
0.0
 11
112.2825944509
 21
-5.3675517566
 31
0.0
  0
LINE
  5
2E6
330
2DE
100
AcDbEntity
  8
SK2
100
AcDbLine
 10
106.7263444599
 20
6.2699487307
 30
0.0
 11
106.7263444599
 21
7.3363549882
 31
0.0
  0
LINE
  5
2E7
330
2DE
100
AcDbEntity
  8
SK2
100
AcDbLine
 10
106.7263444599
 20
7.3363549882
 30
0.0
 11
112.2825944509
 21
7.3363549882
 31
0.0
  0
LINE
  5
2E8
330
2DE
100
AcDbEntity
  8
SK2
100
AcDbLine
 10
112.2825944509
 20
7.3363549882
 30
0.0
 11
112.2825944509
 21
6.2699487307
 31
0.0
  0
LINE
  5
2E9
330
2DE
100
AcDbEntity
  8
SK2
100
AcDbLine
 10
101.6
 20
20.0
 30
0.0
 11
118.5192261759
 21
20.0
 31
0.0
  0
LINE
  5
2EA
330
2DE
100
AcDbEntity
  8
SK2
100
AcDbLine
 10
101.6
 20
-20.0
 30
0.0
 11
118.5192261759
 21
-20.0
 31
0.0
  0
LINE
  5
2EB
330
2DE
100
AcDbEntity
  8
SK2
100
AcDbLine
 10
117.5192261759
 20
20.0
 30
0.0
 11
117.5192261759
 21
-20.0
 31
0.0
  0
MTEXT
  5
2EC
330
2DE
100
AcDbEntity
  8
SK2
100
AcDbMText
 10
107.7708575364
 20
-5.3675517566
 30
0.0
 40
3.5
 41
0.0
 71
     1
 72
     1
  1
1,575
  7
SLDTEXTSTYLE0
 11
-6.156016597943509E-15
 21
1.0
 31
0.0
 73
     1
 44
1.0
  0
MTEXT
  5
2ED
330
2DE
100
AcDbEntity
  8
SK2
100
AcDbMText
 10
113.0074890867
 20
-4.7741321041
 30
0.0
 40
3.5
 41
0.0
 71
     1
 72
     1
  1
%%c
  7
SLDTEXTSTYLE0
 11
-6.156016597943509E-15
 21
1.0
 31
0.0
 73
     1
 44
1.0
  0
MTEXT
  5
2EE
330
2DE
100
AcDbEntity
  8
SK2
100
AcDbMText
 10
113.0074890867
 20
0.5043052942
 30
0.0
 40
3.5
 41
0.0
 71
     1
 72
     1
  1
40
  7
SLDTEXTSTYLE0
 11
-6.156016597943509E-15
 21
1.0
 31
0.0
 73
     1
 44
1.0
  0
ENDBLK
  5
2E0
330
2DE
100
AcDbEntity
  8
0
100
AcDbBlockEnd
  0
BLOCK
  5
2F1
330
2F0
100
AcDbEntity
  8
0
100
AcDbBlockBegin
  2
_D_6
 70
     0
 10
0.0
 20
0.0
 30
0.0
  3
_D_6
  1

  0
SOLID
  5
2F3
330
2F0
100
AcDbEntity
  8
SK2
100
AcDbTrace
 10
132.0193105636
 20
24.125
 30
0.0
 11
131.5113105636
 21
20.823
 31
0.0
 12
132.5273105636
 22
20.823
 32
0.0
 13
132.5273105636
 23
20.823
 33
0.0
  0
SOLID
  5
2F4
330
2F0
100
AcDbEntity
  8
SK2
100
AcDbTrace
 10
132.0193105636
 20
-24.125
 30
0.0
 11
132.5273105636
 21
-20.823
 31
0.0
 12
131.5113105636
 22
-20.823
 32
0.0
 13
131.5113105636
 23
-20.823
 33
0.0
  0
LINE
  5
2F5
330
2F0
100
AcDbEntity
  8
SK2
100
AcDbLine
 10
121.2264288475
 20
-4.074496509
 30
0.0
 11
121.2264288475
 21
-5.1409027665
 31
0.0
  0
LINE
  5
2F6
330
2F0
100
AcDbEntity
  8
SK2
100
AcDbLine
 10
121.2264288475
 20
-5.1409027665
 30
0.0
 11
126.7826788386
 21
-5.1409027665
 31
0.0
  0
LINE
  5
2F7
330
2F0
100
AcDbEntity
  8
SK2
100
AcDbLine
 10
126.7826788386
 20
-5.1409027665
 30
0.0
 11
126.7826788386
 21
-4.074496509
 31
0.0
  0
LINE
  5
2F8
330
2F0
100
AcDbEntity
  8
SK2
100
AcDbLine
 10
121.2264288475
 20
4.9768925519
 30
0.0
 11
121.2264288475
 21
6.0432988093
 31
0.0
  0
LINE
  5
2F9
330
2F0
100
AcDbEntity
  8
SK2
100
AcDbLine
 10
121.2264288475
 20
6.0432988093
 30
0.0
 11
126.7826788386
 21
6.0432988093
 31
0.0
  0
LINE
  5
2FA
330
2F0
100
AcDbEntity
  8
SK2
100
AcDbLine
 10
126.7826788386
 20
6.0432988093
 30
0.0
 11
126.7826788386
 21
4.9768925519
 31
0.0
  0
LINE
  5
2FB
330
2F0
100
AcDbEntity
  8
SK2
100
AcDbLine
 10
102.6
 20
24.125
 30
0.0
 11
133.0193105636
 21
24.125
 31
0.0
  0
LINE
  5
2FC
330
2F0
100
AcDbEntity
  8
SK2
100
AcDbLine
 10
102.6
 20
-24.125
 30
0.0
 11
133.0193105636
 21
-24.125
 31
0.0
  0
LINE
  5
2FD
330
2F0
100
AcDbEntity
  8
SK2
100
AcDbLine
 10
132.0193105636
 20
24.125
 30
0.0
 11
132.0193105636
 21
-24.125
 31
0.0
  0
MTEXT
  5
2FE
330
2F0
100
AcDbEntity
  8
SK2
100
AcDbMText
 10
122.270941924
 20
-4.074496509
 30
0.0
 40
3.5
 41
0.0
 71
     1
 72
     1
  1
1,90
  7
SLDTEXTSTYLE0
 11
-7.044195017643634E-15
 21
1.0
 31
0.0
 73
     1
 44
1.0
  0
MTEXT
  5
2FF
330
2F0
100
AcDbEntity
  8
SK2
100
AcDbMText
 10
127.5075734744
 20
-8.0067709214
 30
0.0
 40
3.5
 41
0.0
 71
     1
 72
     1
  1
%%c
  7
SLDTEXTSTYLE0
 11
-7.044195017643634E-15
 21
1.0
 31
0.0
 73
     1
 44
1.0
  0
MTEXT
  5
300
330
2F0
100
AcDbEntity
  8
SK2
100
AcDbMText
 10
127.5075734744
 20
-2.728333523
 30
0.0
 40
3.5
 41
0.0
 71
     1
 72
     1
  1
48,25
  7
SLDTEXTSTYLE0
 11
-7.044195017643634E-15
 21
1.0
 31
0.0
 73
     1
 44
1.0
  0
ENDBLK
  5
2F2
330
2F0
100
AcDbEntity
  8
0
100
AcDbBlockEnd
  0
BLOCK
  5
303
330
302
100
AcDbEntity
  8
0
100
AcDbBlockBegin
  2
_D_7
 70
     0
 10
0.0
 20
0.0
 30
0.0
  3
_D_7
  1

  0
SOLID
  5
305
330
302
100
AcDbEntity
  8
SK2
100
AcDbTrace
 10
144.5116909591
 20
34.925
 30
0.0
 11
144.0036909591
 21
31.623
 31
0.0
 12
145.0196909591
 22
31.623
 32
0.0
 13
145.0196909591
 23
31.623
 33
0.0
  0
SOLID
  5
306
330
302
100
AcDbEntity
  8
SK2
100
AcDbTrace
 10
144.5116909591
 20
-34.925
 30
0.0
 11
145.0196909591
 21
-31.623
 31
0.0
 12
144.0036909591
 22
-31.623
 32
0.0
 13
144.0036909591
 23
-31.623
 33
0.0
  0
LINE
  5
307
330
302
100
AcDbEntity
  8
SK2
100
AcDbLine
 10
133.7188092431
 20
-4.074496509
 30
0.0
 11
133.7188092431
 21
-5.1409027665
 31
0.0
  0
LINE
  5
308
330
302
100
AcDbEntity
  8
SK2
100
AcDbLine
 10
133.7188092431
 20
-5.1409027665
 30
0.0
 11
139.2750592341
 21
-5.1409027665
 31
0.0
  0
LINE
  5
309
330
302
100
AcDbEntity
  8
SK2
100
AcDbLine
 10
139.2750592341
 20
-5.1409027665
 30
0.0
 11
139.2750592341
 21
-4.074496509
 31
0.0
  0
LINE
  5
30A
330
302
100
AcDbEntity
  8
SK2
100
AcDbLine
 10
133.7188092431
 20
4.9768925519
 30
0.0
 11
133.7188092431
 21
6.0432988093
 31
0.0
  0
LINE
  5
30B
330
302
100
AcDbEntity
  8
SK2
100
AcDbLine
 10
133.7188092431
 20
6.0432988093
 30
0.0
 11
139.2750592341
 21
6.0432988093
 31
0.0
  0
LINE
  5
30C
330
302
100
AcDbEntity
  8
SK2
100
AcDbLine
 10
139.2750592341
 20
6.0432988093
 30
0.0
 11
139.2750592341
 21
4.9768925519
 31
0.0
  0
LINE
  5
30D
330
302
100
AcDbEntity
  8
SK2
100
AcDbLine
 10
91.8
 20
34.925
 30
0.0
 11
145.5116909591
 21
34.925
 31
0.0
  0
LINE
  5
30E
330
302
100
AcDbEntity
  8
SK2
100
AcDbLine
 10
91.8
 20
-34.925
 30
0.0
 11
145.5116909591
 21
-34.925
 31
0.0
  0
LINE
  5
30F
330
302
100
AcDbEntity
  8
SK2
100
AcDbLine
 10
144.5116909591
 20
34.925
 30
0.0
 11
144.5116909591
 21
-34.925
 31
0.0
  0
MTEXT
  5
310
330
302
100
AcDbEntity
  8
SK2
100
AcDbMText
 10
134.7633223195
 20
-4.074496509
 30
0.0
 40
3.5
 41
0.0
 71
     1
 72
     1
  1
2,75
  7
SLDTEXTSTYLE0
 11
-7.044195017643634E-15
 21
1.0
 31
0.0
 73
     1
 44
1.0
  0
MTEXT
  5
311
330
302
100
AcDbEntity
  8
SK2
100
AcDbMText
 10
139.9999538699
 20
-8.0067709214
 30
0.0
 40
3.5
 41
0.0
 71
     1
 72
     1
  1
%%c
  7
SLDTEXTSTYLE0
 11
-7.044195017643634E-15
 21
1.0
 31
0.0
 73
     1
 44
1.0
  0
MTEXT
  5
312
330
302
100
AcDbEntity
  8
SK2
100
AcDbMText
 10
139.9999538699
 20
-2.728333523
 30
0.0
 40
3.5
 41
0.0
 71
     1
 72
     1
  1
69,85
  7
SLDTEXTSTYLE0
 11
-7.044195017643634E-15
 21
1.0
 31
0.0
 73
     1
 44
1.0
  0
ENDBLK
  5
304
330
302
100
AcDbEntity
  8
0
100
AcDbBlockEnd
  0
BLOCK
  5
315
330
314
100
AcDbEntity
  8
0
100
AcDbBlockBegin
  2
_D_8
 70
     0
 10
0.0
 20
0.0
 30
0.0
  3
_D_8
  1

  0
SOLID
  5
317
330
314
100
AcDbEntity
  8
SK2
100
AcDbTrace
 10
-101.6
 20
-69.8184417034
 30
0.0
 11
-98.298
 21
-70.3264417034
 31
0.0
 12
-98.298
 22
-69.3104417034
 32
0.0
 13
-98.298
 23
-69.3104417034
 33
0.0
  0
SOLID
  5
318
330
314
100
AcDbEntity
  8
SK2
100
AcDbTrace
 10
101.6
 20
-69.8184417034
 30
0.0
 11
98.298
 21
-69.3104417034
 31
0.0
 12
98.298
 22
-70.3264417034
 32
0.0
 13
98.298
 23
-70.3264417034
 33
0.0
  0
LINE
  5
319
330
314
100
AcDbEntity
  8
SK2
100
AcDbLine
 10
-20.1841661503
 20
-59.0255599873
 30
0.0
 11
-21.2505724078
 21
-59.0255599873
 31
0.0
  0
LINE
  5
31A
330
314
100
AcDbEntity
  8
SK2
100
AcDbLine
 10
-21.2505724078
 20
-59.0255599873
 30
0.0
 11
-21.2505724078
 21
-64.5818099784
 31
0.0
  0
LINE
  5
31B
330
314
100
AcDbEntity
  8
SK2
100
AcDbLine
 10
-21.2505724078
 20
-64.5818099784
 30
0.0
 11
-20.1841661503
 21
-64.5818099784
 31
0.0
  0
LINE
  5
31C
330
314
100
AcDbEntity
  8
SK2
100
AcDbLine
 10
-11.1327770894
 20
-59.0255599873
 30
0.0
 11
-10.0663708319
 21
-59.0255599873
 31
0.0
  0
LINE
  5
31D
330
314
100
AcDbEntity
  8
SK2
100
AcDbLine
 10
-10.0663708319
 20
-59.0255599873
 30
0.0
 11
-10.0663708319
 21
-64.5818099784
 31
0.0
  0
LINE
  5
31E
330
314
100
AcDbEntity
  8
SK2
100
AcDbLine
 10
-10.0663708319
 20
-64.5818099784
 30
0.0
 11
-11.1327770894
 21
-64.5818099784
 31
0.0
  0
LINE
  5
31F
330
314
100
AcDbEntity
  8
SK2
100
AcDbLine
 10
-101.6
 20
-19.2922326599
 30
0.0
 11
-101.6
 21
-70.8184417034
 31
0.0
  0
LINE
  5
320
330
314
100
AcDbEntity
  8
SK2
100
AcDbLine
 10
101.6
 20
-25.125
 30
0.0
 11
101.6
 21
-70.8184417034
 31
0.0
  0
LINE
  5
321
330
314
100
AcDbEntity
  8
SK2
100
AcDbLine
 10
-101.6
 20
-69.8184417034
 30
0.0
 11
101.6
 21
-69.8184417034
 31
0.0
  0
MTEXT
  5
322
330
314
100
AcDbEntity
  8
SK2
100
AcDbMText
 10
-22.297534262
 20
-65.2532324375
 30
0.0
 40
3.5
 41
0.0
 71
     1
 72
     1
  1

  7
SLDTEXTSTYLE0
 73
     1
 44
1.0
  0
MTEXT
  5
323
330
314
100
AcDbEntity
  8
SK2
100
AcDbMText
 10
-20.1841661503
 20
-60.0700730638
 30
0.0
 40
3.5
 41
0.0
 71
     1
 72
     1
  1
8,00
  7
SLDTEXTSTYLE0
 73
     1
 44
1.0
  0
MTEXT
  5
324
330
314
100
AcDbEntity
  8
SK2
100
AcDbMText
 10
-21.4772218635
 20
-65.3067046142
 30
0.0
 40
3.5
 41
0.0
 71
     1
 72
     1
  1
203,2
  7
SLDTEXTSTYLE0
 73
     1
 44
1.0
  0
MTEXT
  5
325
330
314
100
AcDbEntity
  8
SK2
100
AcDbMText
 10
-7.6874644581
 20
-65.2532324375
 30
0.0
 40
3.5
 41
0.0
 71
     1
 72
     1
  1

  7
SLDTEXTSTYLE0
 73
     1
 44
1.0
  0
ENDBLK
  5
316
330
314
100
AcDbEntity
  8
0
100
AcDbBlockEnd
  0
BLOCK
  5
328
330
327
100
AcDbEntity
  8
0
100
AcDbBlockBegin
  2
_D_9
 70
     0
 10
0.0
 20
0.0
 30
0.0
  3
_D_9
  1

  0
SOLID
  5
32A
330
327
100
AcDbEntity
  8
SK2
100
AcDbTrace
 10
24.05
 20
-56.8931102092
 30
0.0
 11
27.352
 21
-57.4011102092
 31
0.0
 12
27.352
 22
-56.3851102092
 32
0.0
 13
27.352
 23
-56.3851102092
 33
0.0
  0
SOLID
  5
32B
330
327
100
AcDbEntity
  8
SK2
100
AcDbTrace
 10
101.6
 20
-56.8931102092
 30
0.0
 11
98.298
 21
-56.3851102092
 31
0.0
 12
98.298
 22
-57.4011102092
 32
0.0
 13
98.298
 23
-57.4011102092
 33
0.0
  0
LINE
  5
32C
330
327
100
AcDbEntity
  8
SK2
100
AcDbLine
 10
57.248235591
 20
-46.1002284932
 30
0.0
 11
56.1818293335
 21
-46.1002284932
 31
0.0
  0
LINE
  5
32D
330
327
100
AcDbEntity
  8
SK2
100
AcDbLine
 10
56.1818293335
 20
-46.1002284932
 30
0.0
 11
56.1818293335
 21
-51.6564784842
 31
0.0
  0
LINE
  5
32E
330
327
100
AcDbEntity
  8
SK2
100
AcDbLine
 10
56.1818293335
 20
-51.6564784842
 30
0.0
 11
57.248235591
 21
-51.6564784842
 31
0.0
  0
LINE
  5
32F
330
327
100
AcDbEntity
  8
SK2
100
AcDbLine
 10
66.2996246519
 20
-46.1002284932
 30
0.0
 11
67.3660309093
 21
-46.1002284932
 31
0.0
  0
LINE
  5
330
330
327
100
AcDbEntity
  8
SK2
100
AcDbLine
 10
67.3660309093
 20
-46.1002284932
 30
0.0
 11
67.3660309093
 21
-51.6564784842
 31
0.0
  0
LINE
  5
331
330
327
100
AcDbEntity
  8
SK2
100
AcDbLine
 10
67.3660309093
 20
-51.6564784842
 30
0.0
 11
66.2996246519
 21
-51.6564784842
 31
0.0
  0
LINE
  5
332
330
327
100
AcDbEntity
  8
SK2
100
AcDbLine
 10
24.05
 20
-21.25
 30
0.0
 11
24.05
 21
-57.8931102092
 31
0.0
  0
LINE
  5
333
330
327
100
AcDbEntity
  8
SK2
100
AcDbLine
 10
101.6
 20
-25.125
 30
0.0
 11
101.6
 21
-57.8931102092
 31
0.0
  0
LINE
  5
334
330
327
100
AcDbEntity
  8
SK2
100
AcDbLine
 10
24.05
 20
-56.8931102092
 30
0.0
 11
101.6
 21
-56.8931102092
 31
0.0
  0
MTEXT
  5
335
330
327
100
AcDbEntity
  8
SK2
100
AcDbMText
 10
55.1348674793
 20
-52.3279009434
 30
0.0
 40
3.5
 41
0.0
 71
     1
 72
     1
  1

  7
SLDTEXTSTYLE0
 73
     1
 44
1.0
  0
MTEXT
  5
336
330
327
100
AcDbEntity
  8
SK2
100
AcDbMText
 10
57.248235591
 20
-47.1447415697
 30
0.0
 40
3.5
 41
0.0
 71
     1
 72
     1
  1
3,05
  7
SLDTEXTSTYLE0
 73
     1
 44
1.0
  0
MTEXT
  5
337
330
327
100
AcDbEntity
  8
SK2
100
AcDbMText
 10
55.9551798778
 20
-52.38137312
 30
0.0
 40
3.5
 41
0.0
 71
     1
 72
     1
  1
77,55
  7
SLDTEXTSTYLE0
 73
     1
 44
1.0
  0
MTEXT
  5
338
330
327
100
AcDbEntity
  8
SK2
100
AcDbMText
 10
69.7449372832
 20
-52.3279009434
 30
0.0
 40
3.5
 41
0.0
 71
     1
 72
     1
  1

  7
SLDTEXTSTYLE0
 73
     1
 44
1.0
  0
ENDBLK
  5
329
330
327
100
AcDbEntity
  8
0
100
AcDbBlockEnd
  0
BLOCK
  5
33C
330
33B
100
AcDbEntity
  8
0
100
AcDbBlockBegin
  2
_D_10
 70
     0
 10
0.0
 20
0.0
 30
0.0
  3
_D_10
  1

  0
SOLID
  5
33E
330
33B
100
AcDbEntity
  8
SK2
100
AcDbTrace
 10
90.8
 20
-46.2713334199
 30
0.0
 11
87.498
 21
-45.7633334199
 31
0.0
 12
87.498
 22
-46.7793334199
 32
0.0
 13
87.498
 23
-46.7793334199
 33
0.0
  0
SOLID
  5
33F
330
33B
100
AcDbEntity
  8
SK2
100
AcDbTrace
 10
101.6
 20
-46.2713334199
 30
0.0
 11
104.902
 21
-46.7793334199
 31
0.0
 12
104.902
 22
-45.7633334199
 32
0.0
 13
104.902
 23
-45.7633334199
 33
0.0
  0
LINE
  5
340
330
33B
100
AcDbEntity
  8
SK2
100
AcDbLine
 10
90.8
 20
-35.925
 30
0.0
 11
90.8
 21
-47.2713334199
 31
0.0
  0
LINE
  5
341
330
33B
100
AcDbEntity
  8
SK2
100
AcDbLine
 10
101.6
 20
-25.125
 30
0.0
 11
101.6
 21
-47.2713334199
 31
0.0
  0
LINE
  5
342
330
33B
100
AcDbEntity
  8
SK2
100
AcDbLine
 10
90.8
 20
-46.2713334199
 30
0.0
 11
79.001280717
 21
-46.2713334199
 31
0.0
  0
LINE
  5
343
330
33B
100
AcDbEntity
  8
SK2
100
AcDbLine
 10
90.8
 20
-46.2713334199
 30
0.0
 11
101.6
 21
-46.2713334199
 31
0.0
  0
LINE
  5
344
330
33B
100
AcDbEntity
  8
SK2
100
AcDbLine
 10
101.6
 20
-46.2713334199
 30
0.0
 11
107.95
 21
-46.2713334199
 31
0.0
  0
MTEXT
  5
345
330
33B
100
AcDbEntity
  8
SK2
100
AcDbMText
 10
79.001280717
 20
-41.7595965053
 30
0.0
 40
3.5
 41
0.0
 71
     1
 72
     1
  1
10,8
  7
SLDTEXTSTYLE0
 73
     1
 44
1.0
  0
ENDBLK
  5
33D
330
33B
100
AcDbEntity
  8
0
100
AcDbBlockEnd
  0
BLOCK
  5
348
330
347
100
AcDbEntity
  8
0
100
AcDbBlockBegin
  2
_D_11
 70
     0
 10
0.0
 20
0.0
 30
0.0
  3
_D_11
  1

  0
SOLID
  5
34A
330
347
100
AcDbEntity
  8
SK2
100
AcDbTrace
 10
-119.4938038398
 20
47.2968145978
 30
0.0
 11
-120.0018038398
 21
43.9948145978
 31
0.0
 12
-118.9858038398
 22
43.9948145978
 32
0.0
 13
-118.9858038398
 23
43.9948145978
 33
0.0
  0
SOLID
  5
34B
330
347
100
AcDbEntity
  8
SK2
100
AcDbTrace
 10
-119.4938038398
 20
-47.4754841997
 30
0.0
 11
-118.9858038398
 21
-44.1734841997
 31
0.0
 12
-120.0018038398
 22
-44.1734841997
 32
0.0
 13
-120.0018038398
 23
-44.1734841997
 33
0.0
  0
LINE
  5
34C
330
347
100
AcDbEntity
  8
SK2
100
AcDbLine
 10
4.7701383033
 20
47.2968145978
 30
0.0
 11
-120.4938038398
 21
47.2968145978
 31
0.0
  0
LINE
  5
34D
330
347
100
AcDbEntity
  8
SK2
100
AcDbLine
 10
6.5902766066
 20
-47.4754841997
 30
0.0
 11
-120.4938038398
 21
-47.4754841997
 31
0.0
  0
LINE
  5
34E
330
347
100
AcDbEntity
  8
SK2
100
AcDbLine
 10
-119.4938038398
 20
47.2968145978
 30
0.0
 11
-119.4938038398
 21
-47.4754841997
 31
0.0
  0
MTEXT
  5
34F
330
347
100
AcDbEntity
  8
SK2
100
AcDbMText
 10
-124.005540929
 20
-5.7242867209
 30
0.0
 40
3.5
 41
0.0
 71
     1
 72
     1
  1
%%c
  7
SLDTEXTSTYLE0
 11
-7.044195017643634E-15
 21
1.0
 31
0.0
 73
     1
 44
1.0
  0
MTEXT
  5
350
330
347
100
AcDbEntity
  8
SK2
100
AcDbMText
 10
-124.0590131057
 20
-0.4458493226
 30
0.0
 40
3.5
 41
0.0
 71
     1
 72
     1
  1
98,42
  7
SLDTEXTSTYLE0
 11
-7.044195017643634E-15
 21
1.0
 31
0.0
 73
     1
 44
1.0
  0
ENDBLK
  5
349
330
347
100
AcDbEntity
  8
0
100
AcDbBlockEnd
  0
BLOCK
  5
353
330
352
100
AcDbEntity
  8
0
100
AcDbBlockBegin
  2
_D_12
 70
     0
 10
0.0
 20
0.0
 30
0.0
  3
_D_12
  1

  0
SOLID
  5
355
330
352
100
AcDbEntity
  8
SK2
100
AcDbTrace
 10
-110.0790471402
 20
12.6999998465
 30
0.0
 11
-110.5870471402
 21
9.3979998465
 31
0.0
 12
-109.5710471402
 22
9.3979998465
 32
0.0
 13
-109.5710471402
 23
9.3979998465
 33
0.0
  0
SOLID
  5
356
330
352
100
AcDbEntity
  8
SK2
100
AcDbTrace
 10
-110.0790471402
 20
-12.6999998465
 30
0.0
 11
-109.5710471402
 21
-9.3979998465
 31
0.0
 12
-110.5870471402
 22
-9.3979998465
 32
0.0
 13
-110.5870471402
 23
-9.3979998465
 33
0.0
  0
LINE
  5
357
330
352
100
AcDbEntity
  8
SK2
100
AcDbLine
 10
-95.967097044
 20
12.6999998465
 30
0.0
 11
-111.0790471402
 21
12.6999998465
 31
0.0
  0
LINE
  5
358
330
352
100
AcDbEntity
  8
SK2
100
AcDbLine
 10
-95.967097044
 20
-12.6999998465
 30
0.0
 11
-111.0790471402
 21
-12.6999998465
 31
0.0
  0
LINE
  5
359
330
352
100
AcDbEntity
  8
SK2
100
AcDbLine
 10
-110.0790471402
 20
12.6999998465
 30
0.0
 11
-110.0790471402
 21
-12.6999998465
 31
0.0
  0
MTEXT
  5
35B
330
352
100
AcDbEntity
  8
SK2
100
AcDbMText
 10
-114.5907840548
 20
-7.7177072548
 30
0.0
 40
3.5
 41
0.0
 71
     1
 72
     1
  1
1 - 8 UNC
  7
SLDTEXTSTYLE1
 11
-7.044195017643634E-15
 21
1.0
 31
0.0
 73
     1
 44
1.0
  0
ENDBLK
  5
354
330
352
100
AcDbEntity
  8
0
100
AcDbBlockEnd
  0
ENDSEC
  0
SECTION
  2
ENTITIES
  0
LINE
  5
82
330
1F
100
AcDbEntity
  8
1
  6
SLD-Solid
370
    25
100
AcDbLine
 10
1.7476022729
 20
-34.925
 30
0.0
 11
2.1330363037
 21
-34.7452691597
 31
0.0
  0
LINE
  5
83
330
1F
100
AcDbEntity
  8
1
  6
SLD-Solid
370
    25
100
AcDbLine
 10
2.1330363037
 20
34.7452691597
 30
0.0
 11
1.7476022729
 21
34.925
 31
0.0
  0
LINE
  5
84
330
1F
100
AcDbEntity
  8
1
  6
SLD-Solid
370
    25
100
AcDbLine
 10
37.9126230277
 20
34.925
 30
0.0
 11
19.812
 21
34.925
 31
0.0
  0
LINE
  5
85
330
1F
100
AcDbEntity
  8
1
  6
SLD-Solid
370
    25
100
AcDbLine
 10
62.9
 20
34.925
 30
0.0
 11
58.15
 21
34.925
 31
0.0
  0
LINE
  5
86
330
1F
100
AcDbEntity
  8
1
  6
SLD-Solid
370
    25
100
AcDbLine
 10
90.8
 20
34.925
 30
0.0
 11
83.1373769723
 21
34.925
 31
0.0
  0
LINE
  5
87
330
1F
100
AcDbEntity
  8
1
  6
SLD-Solid
370
    25
100
AcDbLine
 10
83.9269226907
 20
-34.925
 30
0.0
 11
90.8
 21
-34.925
 31
0.0
  0
LINE
  5
88
330
1F
100
AcDbEntity
  8
1
  6
SLD-Solid
370
    25
100
AcDbLine
 10
58.9134953548
 20
-34.925
 30
0.0
 11
62.1478052755
 21
-34.925
 31
0.0
  0
LINE
  5
89
330
1F
100
AcDbEntity
  8
1
  6
SLD-Solid
370
    25
100
AcDbLine
 10
19.812
 20
-34.925
 30
0.0
 11
37.1148803809
 21
-34.925
 31
0.0
  0
LINE
  5
8A
330
1F
100
AcDbEntity
  8
1
  6
SLD-Solid
370
    25
100
AcDbLine
 10
1.7476022729
 20
34.925
 30
0.0
 11
0.0
 21
34.925
 31
0.0
  0
LINE
  5
8B
330
1F
100
AcDbEntity
  8
1
  6
SLD-Solid
370
    25
100
AcDbLine
 10
0.0
 20
-34.925
 30
0.0
 11
1.7476022729
 21
-34.925
 31
0.0
  0
LINE
  5
8C
330
1F
100
AcDbEntity
  8
SK1
  6
SLD-Solid
370
    25
100
AcDbLine
 10
0.0
 20
34.925
 30
0.0
 11
-99.8030472773
 21
20.3702515116
 31
0.0
  0
LINE
  5
8D
330
1F
100
AcDbEntity
  8
SK1
  6
SLD-Solid
370
    25
100
AcDbLine
 10
-99.8030472773
 20
-20.3702515116
 30
0.0
 11
0.0
 21
-34.925
 31
0.0
  0
LINE
  5
8E
330
1F
100
AcDbEntity
  8
1
  6
SLD-Solid
370
    25
100
AcDbLine
 10
90.8
 20
-34.925
 30
0.0
 11
101.6
 21
-24.125
 31
0.0
  0
LINE
  5
8F
330
1F
100
AcDbEntity
  8
1
  6
SLD-Solid
370
    25
100
AcDbLine
 10
101.6
 20
24.125
 30
0.0
 11
90.8
 21
34.925
 31
0.0
  0
LINE
  5
90
330
1F
100
AcDbEntity
  8
1
  6
SLD-Solid
370
    25
100
AcDbLine
 10
3.2
 20
-46.6976348437
 30
0.0
 11
3.2
 21
46.5560855313
 31
0.0
  0
LINE
  5
91
330
1F
100
AcDbEntity
  8
1
  6
SLD-Solid
370
    25
100
AcDbLine
 10
3.95
 20
47.2968145978
 30
0.0
 11
3.95
 21
-47.4754841997
 31
0.0
  0
LINE
  5
92
330
1F
100
AcDbEntity
  8
1
  6
SLD-Solid
370
    25
100
AcDbLine
 10
18.3
 20
-47.4754841997
 30
0.0
 11
18.3
 21
47.2968145978
 31
0.0
  0
LINE
  5
93
330
1F
100
AcDbEntity
  8
1
  6
SLD-Solid
370
    25
100
AcDbLine
 10
19.05
 20
46.5560855313
 30
0.0
 11
19.05
 21
-46.6976348437
 31
0.0
  0
LINE
  5
94
330
1F
100
AcDbEntity
  8
1
  6
SLD-Solid
370
    25
100
AcDbLine
 10
3.95
 20
-47.4754841997
 30
0.0
 11
7.5902766066
 21
-47.4754841997
 31
0.0
  0
LINE
  5
95
330
1F
100
AcDbEntity
  8
1
  6
SLD-Solid
370
    25
100
AcDbLine
 10
7.5902766066
 20
47.2968145978
 30
0.0
 11
3.95
 21
47.2968145978
 31
0.0
  0
LINE
  5
96
330
1F
100
AcDbEntity
  8
1
  6
SLD-Solid
370
    25
100
AcDbLine
 10
7.5902766066
 20
47.2968145978
 30
0.0
 11
7.5902766066
 21
-47.4754841997
 31
0.0
  0
LINE
  5
97
330
1F
100
AcDbEntity
  8
1
  6
SLD-Solid
370
    25
100
AcDbLine
 10
14.6397233934
 20
-47.4754841997
 30
0.0
 11
18.3
 21
-47.4754841997
 31
0.0
  0
LINE
  5
98
330
1F
100
AcDbEntity
  8
1
  6
SLD-Solid
370
    25
100
AcDbLine
 10
14.6397233934
 20
47.2968145978
 30
0.0
 11
14.6397233934
 21
-47.4754841997
 31
0.0
  0
LINE
  5
99
330
1F
100
AcDbEntity
  8
1
  6
SLD-Solid
370
    25
100
AcDbLine
 10
18.3
 20
47.2968145978
 30
0.0
 11
14.6397233934
 21
47.2968145978
 31
0.0
  0
LINE
  5
9A
330
1F
100
AcDbEntity
  8
1
  6
SLD-Solid
370
    25
100
AcDbLine
 10
13.03
 20
44.5790106634
 30
0.0
 11
13.03
 21
41.9871173317
 31
0.0
  0
LINE
  5
9B
330
1F
100
AcDbEntity
  8
1
  6
SLD-Solid
370
    25
100
AcDbLine
 10
13.03
 20
34.6324292339
 30
0.0
 11
13.03
 21
-44.5790106634
 31
0.0
  0
LINE
  5
9C
330
1F
100
AcDbEntity
  8
1
  6
SLD-Solid
370
    25
100
AcDbLine
 10
13.03
 20
41.453113616
 30
0.0
 11
13.03
 21
35.4316103884
 31
0.0
  0
LINE
  5
9D
330
1F
100
AcDbEntity
  8
1
  6
SLD-Solid
370
    25
100
AcDbLine
 10
9.2
 20
44.5790106634
 30
0.0
 11
9.2
 21
41.9587011964
 31
0.0
  0
LINE
  5
9E
330
1F
100
AcDbEntity
  8
1
  6
SLD-Solid
370
    25
100
AcDbLine
 10
9.2
 20
41.4830129515
 30
0.0
 11
9.2
 21
35.3885961177
 31
0.0
  0
LINE
  5
9F
330
1F
100
AcDbEntity
  8
1
  6
SLD-Solid
370
    25
100
AcDbLine
 10
9.2
 20
34.676688935
 30
0.0
 11
9.2
 21
-44.5790106634
 31
0.0
  0
LINE
  5
A0
330
1F
100
AcDbEntity
  8
1
  6
SLD-Solid
370
    25
100
AcDbLine
 10
12.28
 20
33.3554707167
 30
0.0
 11
12.28
 21
-43.7694359685
 31
0.0
  0
LINE
  5
A1
330
1F
100
AcDbEntity
  8
1
  6
SLD-Solid
370
    25
100
AcDbLine
 10
9.95
 20
33.3652595305
 30
0.0
 11
9.95
 21
-43.7694359685
 31
0.0
  0
LINE
  5
A2
330
1F
100
AcDbEntity
  8
1
  6
SLD-Solid
370
    25
100
AcDbLine
 10
9.95
 20
-43.7694359685
 30
0.0
 11
12.28
 21
-43.7694359685
 31
0.0
  0
LINE
  5
A3
330
1F
100
AcDbEntity
  8
1
  6
SLD-Solid
370
    25
100
AcDbLine
 10
1.7476022729
 20
34.925
 30
0.0
 11
1.7476022729
 21
-34.925
 31
0.0
  0
LINE
  5
A4
330
1F
100
AcDbEntity
  8
1
  6
SLD-Solid
370
    25
100
AcDbLine
 10
90.8
 20
34.925
 30
0.0
 11
90.8
 21
-34.925
 31
0.0
  0
LINE
  5
A5
330
1F
100
AcDbEntity
  8
1
  6
SLD-Solid
370
    25
100
AcDbLine
 10
0.0
 20
34.925
 30
0.0
 11
0.0
 21
-34.925
 31
0.0
  0
LINE
  5
A6
330
1F
100
AcDbEntity
  8
1
  6
SLD-Solid
370
    25
100
AcDbLine
 10
101.6
 20
24.125
 30
0.0
 11
101.6
 21
-24.125
 31
0.0
  0
LINE
  5
A7
330
1F
100
AcDbEntity
  8
1
  6
SLD-Solid
370
    25
100
AcDbLine
 10
9.2
 20
35.3885961177
 30
0.0
 11
9.2
 21
35.3683101781
 31
0.0
  0
LINE
  5
A8
330
1F
100
AcDbEntity
  8
1
  6
SLD-Solid
370
    25
100
AcDbLine
 10
13.03
 20
35.4113240881
 30
0.0
 11
13.03
 21
35.4316103884
 31
0.0
  0
LINE
  5
A9
330
1F
100
AcDbEntity
  8
1
  6
SLD-Solid
370
    25
100
AcDbLine
 10
9.95
 20
40.2901760725
 30
0.0
 11
9.95
 21
35.4888548114
 31
0.0
  0
LINE
  5
AA
330
1F
100
AcDbEntity
  8
1
  6
SLD-Solid
370
    25
100
AcDbLine
 10
12.28
 20
40.2834337913
 30
0.0
 11
12.28
 21
35.4978726362
 31
0.0
  0
LINE
  5
AB
330
1F
100
AcDbEntity
  8
1
  6
SLD-Solid
370
    25
100
AcDbLine
 10
9.2
 20
41.9587011964
 30
0.0
 11
9.2
 21
41.9345423912
 31
0.0
  0
LINE
  5
AC
330
1F
100
AcDbEntity
  8
1
  6
SLD-Solid
370
    25
100
AcDbLine
 10
13.03
 20
41.9629580968
 30
0.0
 11
13.03
 21
41.9871173317
 31
0.0
  0
LINE
  5
AD
330
1F
100
AcDbEntity
  8
SK1
  6
SLD-Solid
370
    25
100
AcDbLine
 10
-101.6
 20
-18.2922326599
 30
0.0
 11
-101.6
 21
18.2922326599
 31
0.0
  0
LINE
  5
AE
330
1F
100
AcDbEntity
  8
1
  6
SLD-Solid
370
    25
100
AcDbLine
 10
9.95
 20
43.7694359685
 30
0.0
 11
9.95
 21
41.7091381742
 31
0.0
  0
LINE
  5
AF
330
1F
100
AcDbEntity
  8
1
  6
SLD-Solid
370
    25
100
AcDbLine
 10
12.28
 20
43.7694359685
 30
0.0
 11
12.28
 21
41.714962274
 31
0.0
  0
LINE
  5
B0
330
1F
100
AcDbEntity
  8
1
  6
SLD-Solid
370
    25
100
AcDbLine
 10
9.95
 20
43.7694359685
 30
0.0
 11
12.28
 21
43.7694359685
 31
0.0
  0
LINE
  5
B1
330
1F
100
AcDbEntity
  8
1
  6
SLD-Solid
370
    25
100
AcDbLine
 10
19.812
 20
0.0
 30
0.0
 11
19.812
 21
-34.925
 31
0.0
  0
LINE
  5
B2
330
1F
100
AcDbEntity
  8
1
  6
SLD-Solid
370
    25
100
AcDbLine
 10
19.812
 20
34.925
 30
0.0
 11
19.812
 21
0.0
 31
0.0
  0
LINE
  5
B3
330
1F
100
AcDbEntity
  8
1
  6
SLD-Solid
370
    25
100
AcDbLine
 10
2.1330363037
 20
34.7452691597
 30
0.0
 11
2.1330363037
 21
-34.7452691597
 31
0.0
  0
LINE
  5
B4
330
1F
100
AcDbEntity
  8
SK1
  6
SLD-Solid
370
    25
100
AcDbLine
 10
-99.8030472773
 20
0.0
 30
0.0
 11
-99.8030472773
 21
-20.3702515116
 31
0.0
  0
LINE
  5
B5
330
1F
100
AcDbEntity
  8
SK1
  6
SLD-Solid
370
    25
100
AcDbLine
 10
-99.8030472773
 20
20.3702515116
 30
0.0
 11
-99.8030472773
 21
0.0
 31
0.0
  0
LINE
  5
B6
330
1F
100
AcDbEntity
  8
SK3
  6
SLD-Dashed
370
    18
100
AcDbLine
 10
6.4723069743
 20
-13.9015950424
 30
0.0
 11
6.3056572614
 21
-13.2437532254
 31
0.0
  0
LINE
  5
B7
330
1F
100
AcDbEntity
  8
SK3
  6
SLD-Dashed
370
    18
100
AcDbLine
 10
6.3056572614
 20
-13.2437532254
 30
0.0
 11
6.0455057258
 21
-12.630742241
 31
0.0
  0
LINE
  5
B8
330
1F
100
AcDbEntity
  8
SK3
  6
SLD-Dashed
370
    18
100
AcDbLine
 10
6.0455057258
 20
-12.630742241
 30
0.0
 11
5.7095812647
 21
-12.1043377749
 31
0.0
  0
LINE
  5
B9
330
1F
100
AcDbEntity
  8
SK3
  6
SLD-Dashed
370
    18
100
AcDbLine
 10
5.7095812647
 20
-12.1043377749
 30
0.0
 11
5.3207765751
 21
-11.7004134215
 31
0.0
  0
LINE
  5
BA
330
1F
100
AcDbEntity
  8
SK3
  6
SLD-Dashed
370
    18
100
AcDbLine
 10
5.3207765751
 20
-11.7004134215
 30
0.0
 11
4.905588054
 21
-11.4464959579
 31
0.0
  0
LINE
  5
BB
330
1F
100
AcDbEntity
  8
SK3
  6
SLD-Dashed
370
    18
100
AcDbLine
 10
4.905588054
 20
-11.4464959579
 30
0.0
 11
4.492310113
 21
-11.3598894396
 31
0.0
  0
LINE
  5
BC
330
1F
100
AcDbEntity
  8
SK3
  6
SLD-Dashed
370
    18
100
AcDbLine
 10
4.492310113
 20
-11.3598894396
 30
0.0
 11
4.1091069607
 21
-11.4464959579
 31
0.0
  0
LINE
  5
BD
330
1F
100
AcDbEntity
  8
SK3
  6
SLD-Dashed
370
    18
100
AcDbLine
 10
4.1091069607
 20
-11.4464959579
 30
0.0
 11
3.7820932588
 21
-11.7004134215
 31
0.0
  0
LINE
  5
BE
330
1F
100
AcDbEntity
  8
SK3
  6
SLD-Dashed
370
    18
100
AcDbLine
 10
3.7820932588
 20
-11.7004134215
 30
0.0
 11
3.5335544506
 21
-12.1043377749
 31
0.0
  0
LINE
  5
BF
330
1F
100
AcDbEntity
  8
SK3
  6
SLD-Dashed
370
    18
100
AcDbLine
 10
3.5335544506
 20
-12.1043377749
 30
0.0
 11
3.3804280451
 21
-12.630742241
 31
0.0
  0
LINE
  5
C0
330
1F
100
AcDbEntity
  8
SK3
  6
SLD-Dashed
370
    18
100
AcDbLine
 10
3.3804280451
 20
-12.630742241
 30
0.0
 11
3.3331493539
 21
-13.2437532254
 31
0.0
  0
LINE
  5
C1
330
1F
100
AcDbEntity
  8
SK3
  6
SLD-Dashed
370
    18
100
AcDbLine
 10
3.3331493539
 20
-13.2437532254
 30
0.0
 11
3.3949403416
 21
-13.9015950424
 31
0.0
  0
LINE
  5
C2
330
1F
100
AcDbEntity
  8
SK3
  6
SLD-Dashed
370
    18
100
AcDbLine
 10
3.3949403416
 20
-13.9015950424
 30
0.0
 11
3.5615900545
 21
-14.5594368595
 31
0.0
  0
LINE
  5
C3
330
1F
100
AcDbEntity
  8
SK3
  6
SLD-Dashed
370
    18
100
AcDbLine
 10
3.5615900545
 20
-14.5594368595
 30
0.0
 11
3.8217415901
 21
-15.1724478438
 31
0.0
  0
LINE
  5
C4
330
1F
100
AcDbEntity
  8
SK3
  6
SLD-Dashed
370
    18
100
AcDbLine
 10
3.8217415901
 20
-15.1724478438
 30
0.0
 11
4.1576660511
 21
-15.6988523099
 31
0.0
  0
LINE
  5
C5
330
1F
100
AcDbEntity
  8
SK3
  6
SLD-Dashed
370
    18
100
AcDbLine
 10
4.1576660511
 20
-15.6988523099
 30
0.0
 11
4.5464707407
 21
-16.1027766634
 31
0.0
  0
LINE
  5
C6
330
1F
100
AcDbEntity
  8
SK3
  6
SLD-Dashed
370
    18
100
AcDbLine
 10
4.5464707407
 20
-16.1027766634
 30
0.0
 11
4.9616592619
 21
-16.356694127
 31
0.0
  0
LINE
  5
C7
330
1F
100
AcDbEntity
  8
SK3
  6
SLD-Dashed
370
    18
100
AcDbLine
 10
4.9616592619
 20
-16.356694127
 30
0.0
 11
5.3749372029
 21
-16.4433006452
 31
0.0
  0
LINE
  5
C8
330
1F
100
AcDbEntity
  8
SK3
  6
SLD-Dashed
370
    18
100
AcDbLine
 10
5.3749372029
 20
-16.4433006452
 30
0.0
 11
5.7581403551
 21
-16.356694127
 31
0.0
  0
LINE
  5
C9
330
1F
100
AcDbEntity
  8
SK3
  6
SLD-Dashed
370
    18
100
AcDbLine
 10
5.7581403551
 20
-16.356694127
 30
0.0
 11
6.0851540571
 21
-16.1027766634
 31
0.0
  0
LINE
  5
CA
330
1F
100
AcDbEntity
  8
SK3
  6
SLD-Dashed
370
    18
100
AcDbLine
 10
6.0851540571
 20
-16.1027766634
 30
0.0
 11
6.3336928653
 21
-15.6988523099
 31
0.0
  0
LINE
  5
CB
330
1F
100
AcDbEntity
  8
SK3
  6
SLD-Dashed
370
    18
100
AcDbLine
 10
6.3336928653
 20
-15.6988523099
 30
0.0
 11
6.4868192707
 21
-15.1724478438
 31
0.0
  0
LINE
  5
CC
330
1F
100
AcDbEntity
  8
SK3
  6
SLD-Dashed
370
    18
100
AcDbLine
 10
6.4868192707
 20
-15.1724478438
 30
0.0
 11
6.5340979619
 21
-14.5594368595
 31
0.0
  0
LINE
  5
CD
330
1F
100
AcDbEntity
  8
SK3
  6
SLD-Dashed
370
    18
100
AcDbLine
 10
6.5340979619
 20
-14.5594368595
 30
0.0
 11
6.4723069743
 21
-13.9015950424
 31
0.0
  0
LINE
  5
CE
330
1F
100
AcDbEntity
  8
SK3
  6
SLD-Dashed
370
    18
100
AcDbLine
 10
6.4545594773
 20
-13.8826166832
 30
0.0
 11
6.5129886022
 21
-14.5287984962
 31
0.0
  0
LINE
  5
CF
330
1F
100
AcDbEntity
  8
SK3
  6
SLD-Dashed
370
    18
100
AcDbLine
 10
6.5129886022
 20
-14.5287984962
 30
0.0
 11
6.4595508826
 21
-15.1270559603
 31
0.0
  0
LINE
  5
D0
330
1F
100
AcDbEntity
  8
SK3
  6
SLD-Dashed
370
    18
100
AcDbLine
 10
6.4595508826
 20
-15.1270559603
 30
0.0
 11
6.2982095497
 21
-15.6330190561
 31
0.0
  0
LINE
  5
D1
330
1F
100
AcDbEntity
  8
SK3
  6
SLD-Dashed
370
    18
100
AcDbLine
 10
6.2982095497
 20
-15.6330190561
 30
0.0
 11
6.0409305521
 21
-16.0091628154
 31
0.0
  0
LINE
  5
D2
330
1F
100
AcDbEntity
  8
SK3
  6
SLD-Dashed
370
    18
100
AcDbLine
 10
6.0409305521
 20
-16.0091628154
 30
0.0
 11
5.7067950961
 21
-16.2275903765
 31
0.0
  0
LINE
  5
D3
330
1F
100
AcDbEntity
  8
SK3
  6
SLD-Dashed
370
    18
100
AcDbLine
 10
5.7067950961
 20
-16.2275903765
 30
0.0
 11
5.32058448
 21
-16.2721019662
 31
0.0
  0
LINE
  5
D4
330
1F
100
AcDbEntity
  8
SK3
  6
SLD-Dashed
370
    18
100
AcDbLine
 10
5.32058448
 20
-16.2721019662
 30
0.0
 11
4.9109421782
 21
-16.1393963637
 31
0.0
  0
LINE
  5
D5
330
1F
100
AcDbEntity
  8
SK3
  6
SLD-Dashed
370
    18
100
AcDbLine
 10
4.9109421782
 20
-16.1393963637
 30
0.0
 11
4.5082494863
 21
-15.8393157363
 31
0.0
  0
LINE
  5
D6
330
1F
100
AcDbEntity
  8
SK3
  6
SLD-Dashed
370
    18
100
AcDbLine
 10
4.5082494863
 20
-15.8393157363
 30
0.0
 11
4.1423722791
 21
-15.3941156915
 31
0.0
  0
LINE
  5
D7
330
1F
100
AcDbEntity
  8
SK3
  6
SLD-Dashed
370
    18
100
AcDbLine
 10
4.1423722791
 20
-15.3941156915
 30
0.0
 11
3.8404459953
 21
-14.8368146799
 31
0.0
  0
LINE
  5
D8
330
1F
100
AcDbEntity
  8
SK3
  6
SLD-Dashed
370
    18
100
AcDbLine
 10
3.8404459953
 20
-14.8368146799
 30
0.0
 11
3.6248631261
 21
-14.208745168
 31
0.0
  0
LINE
  5
D9
330
1F
100
AcDbEntity
  8
SK3
  6
SLD-Dashed
370
    18
100
AcDbLine
 10
3.6248631261
 20
-14.208745168
 30
0.0
 11
3.5116124667
 21
-13.5564881983
 31
0.0
  0
LINE
  5
DA
330
1F
100
AcDbEntity
  8
SK3
  6
SLD-Dashed
370
    18
100
AcDbLine
 10
3.5116124667
 20
-13.5564881983
 30
0.0
 11
3.5090933004
 21
-12.9284186865
 31
0.0
  0
LINE
  5
DB
330
1F
100
AcDbEntity
  8
SK3
  6
SLD-Dashed
370
    18
100
AcDbLine
 10
3.5090933004
 20
-12.9284186865
 30
0.0
 11
3.6174924623
 21
-12.3711176748
 31
0.0
  0
LINE
  5
DC
330
1F
100
AcDbEntity
  8
SK3
  6
SLD-Dashed
370
    18
100
AcDbLine
 10
3.6174924623
 20
-12.3711176748
 30
0.0
 11
3.8287704824
 21
-11.92591763
 31
0.0
  0
LINE
  5
DD
330
1F
100
AcDbEntity
  8
SK3
  6
SLD-Dashed
370
    18
100
AcDbLine
 10
3.8287704824
 20
-11.92591763
 30
0.0
 11
4.1272578365
 21
-11.6258370026
 31
0.0
  0
LINE
  5
DE
330
1F
100
AcDbEntity
  8
SK3
  6
SLD-Dashed
370
    18
100
AcDbLine
 10
4.1272578365
 20
-11.6258370026
 30
0.0
 11
4.490817083
 21
-11.4931314001
 31
0.0
  0
LINE
  5
DF
330
1F
100
AcDbEntity
  8
SK3
  6
SLD-Dashed
370
    18
100
AcDbLine
 10
4.490817083
 20
-11.4931314001
 30
0.0
 11
4.8924846959
 21
-11.5376429899
 31
0.0
  0
LINE
  5
E0
330
1F
100
AcDbEntity
  8
SK3
  6
SLD-Dashed
370
    18
100
AcDbLine
 10
4.8924846959
 20
-11.5376429899
 30
0.0
 11
5.3024708256
 21
-11.7560705509
 31
0.0
  0
LINE
  5
E1
330
1F
100
AcDbEntity
  8
SK3
  6
SLD-Dashed
370
    18
100
AcDbLine
 10
5.3024708256
 20
-11.7560705509
 30
0.0
 11
5.6903686767
 21
-12.1322143103
 31
0.0
  0
LINE
  5
E2
330
1F
100
AcDbEntity
  8
SK3
  6
SLD-Dashed
370
    18
100
AcDbLine
 10
5.6903686767
 20
-12.1322143103
 30
0.0
 11
6.0274096399
 21
-12.6381774061
 31
0.0
  0
LINE
  5
E3
330
1F
100
AcDbEntity
  8
SK3
  6
SLD-Dashed
370
    18
100
AcDbLine
 10
6.0274096399
 20
-12.6381774061
 30
0.0
 11
6.2885969289
 21
-13.2364348701
 31
0.0
  0
LINE
  5
E4
330
1F
100
AcDbEntity
  8
SK3
  6
SLD-Dashed
370
    18
100
AcDbLine
 10
6.2885969289
 20
-13.2364348701
 30
0.0
 11
6.4545594773
 21
-13.8826166832
 31
0.0
  0
LINE
  5
E5
330
1F
100
AcDbEntity
  8
SK3
  6
SLD-Dashed
370
    18
100
AcDbLine
 10
17.1792841073
 20
-11.0168048658
 30
0.0
 11
17.0133215589
 21
-10.3706230527
 31
0.0
  0
LINE
  5
E6
330
1F
100
AcDbEntity
  8
SK3
  6
SLD-Dashed
370
    18
100
AcDbLine
 10
17.0133215589
 20
-10.3706230527
 30
0.0
 11
16.7521342699
 21
-9.7723655887
 31
0.0
  0
LINE
  5
E7
330
1F
100
AcDbEntity
  8
SK3
  6
SLD-Dashed
370
    18
100
AcDbLine
 10
16.7521342699
 20
-9.7723655887
 30
0.0
 11
16.4150933067
 21
-9.2664024929
 31
0.0
  0
LINE
  5
E8
330
1F
100
AcDbEntity
  8
SK3
  6
SLD-Dashed
370
    18
100
AcDbLine
 10
16.4150933067
 20
-9.2664024929
 30
0.0
 11
16.0271954557
 21
-8.8902587335
 31
0.0
  0
LINE
  5
E9
330
1F
100
AcDbEntity
  8
SK3
  6
SLD-Dashed
370
    18
100
AcDbLine
 10
16.0271954557
 20
-8.8902587335
 30
0.0
 11
15.6172093259
 21
-8.6718311725
 31
0.0
  0
LINE
  5
EA
330
1F
100
AcDbEntity
  8
SK3
  6
SLD-Dashed
370
    18
100
AcDbLine
 10
15.6172093259
 20
-8.6718311725
 30
0.0
 11
15.2155417131
 21
-8.6273195827
 31
0.0
  0
LINE
  5
EB
330
1F
100
AcDbEntity
  8
SK3
  6
SLD-Dashed
370
    18
100
AcDbLine
 10
15.2155417131
 20
-8.6273195827
 30
0.0
 11
14.8519824665
 21
-8.7600251853
 31
0.0
  0
LINE
  5
EC
330
1F
100
AcDbEntity
  8
SK3
  6
SLD-Dashed
370
    18
100
AcDbLine
 10
14.8519824665
 20
-8.7600251853
 30
0.0
 11
14.5534951125
 21
-9.0601058126
 31
0.0
  0
LINE
  5
ED
330
1F
100
AcDbEntity
  8
SK3
  6
SLD-Dashed
370
    18
100
AcDbLine
 10
14.5534951125
 20
-9.0601058126
 30
0.0
 11
14.3422170924
 21
-9.5053058575
 31
0.0
  0
LINE
  5
EE
330
1F
100
AcDbEntity
  8
SK3
  6
SLD-Dashed
370
    18
100
AcDbLine
 10
14.3422170924
 20
-9.5053058575
 30
0.0
 11
14.2338179305
 21
-10.0626068691
 31
0.0
  0
LINE
  5
EF
330
1F
100
AcDbEntity
  8
SK3
  6
SLD-Dashed
370
    18
100
AcDbLine
 10
14.2338179305
 20
-10.0626068691
 30
0.0
 11
14.2363370967
 21
-10.690676381
 31
0.0
  0
LINE
  5
F0
330
1F
100
AcDbEntity
  8
SK3
  6
SLD-Dashed
370
    18
100
AcDbLine
 10
14.2363370967
 20
-10.690676381
 30
0.0
 11
14.3495877561
 21
-11.3429333506
 31
0.0
  0
LINE
  5
F1
330
1F
100
AcDbEntity
  8
SK3
  6
SLD-Dashed
370
    18
100
AcDbLine
 10
14.3495877561
 20
-11.3429333506
 30
0.0
 11
14.5651706253
 21
-11.9710028625
 31
0.0
  0
LINE
  5
F2
330
1F
100
AcDbEntity
  8
SK3
  6
SLD-Dashed
370
    18
100
AcDbLine
 10
14.5651706253
 20
-11.9710028625
 30
0.0
 11
14.8670969091
 21
-12.5283038741
 31
0.0
  0
LINE
  5
F3
330
1F
100
AcDbEntity
  8
SK3
  6
SLD-Dashed
370
    18
100
AcDbLine
 10
14.8670969091
 20
-12.5283038741
 30
0.0
 11
15.2329741163
 21
-12.9735039189
 31
0.0
  0
LINE
  5
F4
330
1F
100
AcDbEntity
  8
SK3
  6
SLD-Dashed
370
    18
100
AcDbLine
 10
15.2329741163
 20
-12.9735039189
 30
0.0
 11
15.6356668082
 21
-13.2735845463
 31
0.0
  0
LINE
  5
F5
330
1F
100
AcDbEntity
  8
SK3
  6
SLD-Dashed
370
    18
100
AcDbLine
 10
15.6356668082
 20
-13.2735845463
 30
0.0
 11
16.04530911
 21
-13.4062901488
 31
0.0
  0
LINE
  5
F6
330
1F
100
AcDbEntity
  8
SK3
  6
SLD-Dashed
370
    18
100
AcDbLine
 10
16.04530911
 20
-13.4062901488
 30
0.0
 11
16.4315197262
 21
-13.3617785591
 31
0.0
  0
LINE
  5
F7
330
1F
100
AcDbEntity
  8
SK3
  6
SLD-Dashed
370
    18
100
AcDbLine
 10
16.4315197262
 20
-13.3617785591
 30
0.0
 11
16.7656551822
 21
-13.1433509981
 31
0.0
  0
LINE
  5
F8
330
1F
100
AcDbEntity
  8
SK3
  6
SLD-Dashed
370
    18
100
AcDbLine
 10
16.7656551822
 20
-13.1433509981
 30
0.0
 11
17.0229341797
 21
-12.7672072387
 31
0.0
  0
LINE
  5
F9
330
1F
100
AcDbEntity
  8
SK3
  6
SLD-Dashed
370
    18
100
AcDbLine
 10
17.0229341797
 20
-12.7672072387
 30
0.0
 11
17.1842755126
 21
-12.2612441429
 31
0.0
  0
LINE
  5
FA
330
1F
100
AcDbEntity
  8
SK3
  6
SLD-Dashed
370
    18
100
AcDbLine
 10
17.1842755126
 20
-12.2612441429
 30
0.0
 11
17.2377132322
 21
-11.6629866788
 31
0.0
  0
LINE
  5
FB
330
1F
100
AcDbEntity
  8
SK3
  6
SLD-Dashed
370
    18
100
AcDbLine
 10
17.2377132322
 20
-11.6629866788
 30
0.0
 11
17.1792841073
 21
-11.0168048658
 31
0.0
  0
LINE
  5
FC
330
1F
100
AcDbEntity
  8
SK3
  6
SLD-Dashed
370
    18
100
AcDbLine
 10
100.6
 20
-20.0
 30
0.0
 11
100.6
 21
20.0
 31
0.0
  0
LINE
  5
FD
330
1F
100
AcDbEntity
  8
SK3
  6
SLD-Dashed
370
    18
100
AcDbLine
 10
101.6
 20
-20.5720183658
 30
0.0
 11
101.6
 21
20.5720183658
 31
0.0
  0
LINE
  5
FE
330
1F
100
AcDbEntity
  8
SK3
  6
SLD-Dashed
370
    18
100
AcDbLine
 10
19.05
 20
-20.244752918
 30
0.0
 11
19.05
 21
20.244752918
 31
0.0
  0
LINE
  5
FF
330
1F
100
AcDbEntity
  8
SK3
  6
SLD-Dashed
370
    18
100
AcDbLine
 10
24.05
 20
-20.25
 30
0.0
 11
24.05
 21
20.25
 31
0.0
  0
LINE
  5
100
330
1F
100
AcDbEntity
  8
SK3
  6
SLD-Dashed
370
    18
100
AcDbLine
 10
24.05
 20
-20.0
 30
0.0
 11
24.05
 21
20.0
 31
0.0
  0
LINE
  5
101
330
1F
100
AcDbEntity
  8
SK3
  6
SLD-Dashed
370
    18
100
AcDbLine
 10
-99.7034043657
 20
-13.19
 30
0.0
 11
-99.7034043657
 21
13.19
 31
0.0
  0
LINE
  5
102
330
1F
100
AcDbEntity
  8
SK3
  6
SLD-Dashed
370
    18
100
AcDbLine
 10
-101.6
 20
-14.2640498169
 30
0.0
 11
-101.6
 21
14.2640498169
 31
0.0
  0
LINE
  5
103
330
1F
100
AcDbEntity
  8
SK3
  6
SLD-Dashed
370
    18
100
AcDbLine
 10
-95.25
 20
-13.19
 30
0.0
 11
-95.25
 21
13.19
 31
0.0
  0
LINE
  5
104
330
1F
100
AcDbEntity
  8
SK3
  6
SLD-Dashed
370
    18
100
AcDbLine
 10
-94.0505548158
 20
-11.1125
 30
0.0
 11
-94.0505548158
 21
11.1125
 31
0.0
  0
LINE
  5
105
330
1F
100
AcDbEntity
  8
SK3
  6
SLD-Dashed
370
    18
100
AcDbLine
 10
3.7
 20
37.875
 30
0.0
 11
3.7
 21
46.5560855313
 31
0.0
  0
LINE
  5
106
330
1F
100
AcDbEntity
  8
SK3
  6
SLD-Dashed
370
    18
100
AcDbLine
 10
18.55
 20
46.5560855313
 30
0.0
 11
18.55
 21
37.875
 31
0.0
  0
LINE
  5
107
330
1F
100
AcDbEntity
  8
SK3
  6
SLD-Dashed
370
    18
100
AcDbLine
 10
14.2727106199
 20
46.8162535878
 30
0.0
 11
18.3
 21
46.8162535878
 31
0.0
  0
LINE
  5
108
330
1F
100
AcDbEntity
  8
SK3
  6
SLD-Dashed
370
    18
100
AcDbLine
 10
3.95
 20
46.8162535878
 30
0.0
 11
7.9572893801
 21
46.8162535878
 31
0.0
  0
LINE
  5
109
330
1F
100
AcDbEntity
  8
1
  6
SLD-Dashed
370
    18
100
AcDbLine
 10
13.03
 20
44.5510215932
 30
0.0
 11
13.03
 21
44.5790106634
 31
0.0
  0
LINE
  5
10A
330
1F
100
AcDbEntity
  8
1
  6
SLD-Dashed
370
    18
100
AcDbLine
 10
9.2
 20
44.5790106634
 30
0.0
 11
9.2
 21
44.5510215932
 31
0.0
  0
LINE
  5
10B
330
1F
100
AcDbEntity
  8
1
  6
SLD-Dashed
370
    18
100
AcDbLine
 10
9.2
 20
-44.5790106634
 30
0.0
 11
9.2
 21
-44.5510215932
 31
0.0
  0
LINE
  5
10C
330
1F
100
AcDbEntity
  8
1
  6
SLD-Dashed
370
    18
100
AcDbLine
 10
13.03
 20
-44.5510215932
 30
0.0
 11
13.03
 21
-44.5790106634
 31
0.0
  0
LINE
  5
10D
330
1F
100
AcDbEntity
  8
SK3
  6
SLD-Dashed
370
    18
100
AcDbLine
 10
19.05
 20
-46.6976348437
 30
0.0
 11
19.05
 21
-35.475
 31
0.0
  0
LINE
  5
10E
330
1F
100
AcDbEntity
  8
SK3
  6
SLD-Dashed
370
    18
100
AcDbLine
 10
3.2
 20
-35.475
 30
0.0
 11
3.2
 21
-46.6976348437
 31
0.0
  0
LINE
  5
10F
330
1F
100
AcDbEntity
  8
SK3
  6
SLD-Dashed
370
    18
100
AcDbLine
 10
19.05
 20
-35.1
 30
0.0
 11
3.2
 21
-35.1
 31
0.0
  0
LINE
  5
110
330
1F
100
AcDbEntity
  8
SK3
  6
SLD-Dashed
370
    18
100
AcDbLine
 10
3.2
 20
-35.475
 30
0.0
 11
19.05
 21
-35.475
 31
0.0
  0
LINE
  5
111
330
1F
100
AcDbEntity
  8
SK3
  6
SLD-Dashed
370
    18
100
AcDbLine
 10
3.7
 20
37.5
 30
0.0
 11
18.55
 21
37.5
 31
0.0
  0
LINE
  5
112
330
1F
100
AcDbEntity
  8
SK3
  6
SLD-Dashed
370
    18
100
AcDbLine
 10
18.55
 20
37.875
 30
0.0
 11
3.7
 21
37.875
 31
0.0
  0
LINE
  5
113
330
1F
100
AcDbEntity
  8
SK3
  6
SLD-Dashed
370
    18
100
AcDbLine
 10
19.05
 20
11.1072295603
 30
0.0
 11
19.05
 21
-11.1072295603
 31
0.0
  0
LINE
  5
114
330
1F
100
AcDbEntity
  8
SK3
  6
SLD-Dashed
370
    18
100
AcDbLine
 10
37.9
 20
32.825
 30
0.0
 11
58.15
 21
32.825
 31
0.0
  0
LINE
  5
115
330
1F
100
AcDbEntity
  8
SK3
  6
SLD-Dashed
370
    18
100
AcDbLine
 10
83.15
 20
32.825
 30
0.0
 11
62.9
 21
32.825
 31
0.0
  0
LINE
  5
116
330
1F
100
AcDbEntity
  8
SK3
  6
SLD-Dashed
370
    18
100
AcDbLine
 10
81.6864
 20
32.825
 30
0.0
 11
64.3846987351
 21
32.825
 31
0.0
  0
LINE
  5
117
330
1F
100
AcDbEntity
  8
SK3
  6
SLD-Dashed
370
    18
100
AcDbLine
 10
39.3636
 20
32.825
 30
0.0
 11
56.6653012649
 21
32.825
 31
0.0
  0
LINE
  5
118
330
1F
100
AcDbEntity
  8
SK3
  6
SLD-Dashed
370
    18
100
AcDbLine
 10
16.1
 20
33.1
 30
0.0
 11
6.1
 21
33.1
 31
0.0
  0
LINE
  5
119
330
1F
100
AcDbEntity
  8
SK3
  6
SLD-Dashed
370
    18
100
AcDbLine
 10
6.1
 20
37.5
 30
0.0
 11
16.1
 21
37.5
 31
0.0
  0
LINE
  5
11A
330
1F
100
AcDbEntity
  8
SK3
  6
SLD-Dashed
370
    18
100
AcDbLine
 10
6.4000002988
 20
32.8
 30
0.0
 11
15.8
 21
32.8
 31
0.0
  0
LINE
  5
11B
330
1F
100
AcDbEntity
  8
1
  6
SLD-Dashed
370
    18
100
AcDbLine
 10
12.28
 20
43.7694359685
 30
0.0
 11
9.95
 21
43.7694359685
 31
0.0
  0
LINE
  5
11C
330
1F
100
AcDbEntity
  8
1
  6
SLD-Dashed
370
    18
100
AcDbLine
 10
12.28
 20
-43.7694359685
 30
0.0
 11
9.95
 21
-43.7694359685
 31
0.0
  0
LINE
  5
11D
330
1F
100
AcDbEntity
  8
1
  6
SLD-Dashed
370
    18
100
AcDbLine
 10
18.3
 20
-47.4754841997
 30
0.0
 11
14.6397233934
 21
-47.4754841997
 31
0.0
  0
LINE
  5
11E
330
1F
100
AcDbEntity
  8
1
  6
SLD-Dashed
370
    18
100
AcDbLine
 10
7.5902766066
 20
-47.4754841997
 30
0.0
 11
3.95
 21
-47.4754841997
 31
0.0
  0
LINE
  5
11F
330
1F
100
AcDbEntity
  8
SK3
  6
SLD-Dashed
370
    18
100
AcDbLine
 10
3.5547332273
 20
13.8826166832
 30
0.0
 11
3.4963041025
 21
13.2364348701
 31
0.0
  0
LINE
  5
120
330
1F
100
AcDbEntity
  8
SK3
  6
SLD-Dashed
370
    18
100
AcDbLine
 10
3.4963041025
 20
13.2364348701
 30
0.0
 11
3.5497418221
 21
12.6381774061
 31
0.0
  0
LINE
  5
121
330
1F
100
AcDbEntity
  8
SK3
  6
SLD-Dashed
370
    18
100
AcDbLine
 10
3.5497418221
 20
12.6381774061
 30
0.0
 11
3.7110831549
 21
12.1322143103
 31
0.0
  0
LINE
  5
122
330
1F
100
AcDbEntity
  8
SK3
  6
SLD-Dashed
370
    18
100
AcDbLine
 10
3.7110831549
 20
12.1322143103
 30
0.0
 11
3.9683621525
 21
11.7560705509
 31
0.0
  0
LINE
  5
123
330
1F
100
AcDbEntity
  8
SK3
  6
SLD-Dashed
370
    18
100
AcDbLine
 10
3.9683621525
 20
11.7560705509
 30
0.0
 11
4.3024976085
 21
11.5376429899
 31
0.0
  0
LINE
  5
124
330
1F
100
AcDbEntity
  8
SK3
  6
SLD-Dashed
370
    18
100
AcDbLine
 10
4.3024976085
 20
11.5376429899
 30
0.0
 11
4.6887082247
 21
11.4931314001
 31
0.0
  0
LINE
  5
125
330
1F
100
AcDbEntity
  8
SK3
  6
SLD-Dashed
370
    18
100
AcDbLine
 10
4.6887082247
 20
11.4931314001
 30
0.0
 11
5.0983505265
 21
11.6258370026
 31
0.0
  0
LINE
  5
126
330
1F
100
AcDbEntity
  8
SK3
  6
SLD-Dashed
370
    18
100
AcDbLine
 10
5.0983505265
 20
11.6258370026
 30
0.0
 11
5.5010432183
 21
11.92591763
 31
0.0
  0
LINE
  5
127
330
1F
100
AcDbEntity
  8
SK3
  6
SLD-Dashed
370
    18
100
AcDbLine
 10
5.5010432183
 20
11.92591763
 30
0.0
 11
5.8669204255
 21
12.3711176748
 31
0.0
  0
LINE
  5
128
330
1F
100
AcDbEntity
  8
SK3
  6
SLD-Dashed
370
    18
100
AcDbLine
 10
5.8669204255
 20
12.3711176748
 30
0.0
 11
6.1688467093
 21
12.9284186865
 31
0.0
  0
LINE
  5
129
330
1F
100
AcDbEntity
  8
SK3
  6
SLD-Dashed
370
    18
100
AcDbLine
 10
6.1688467093
 20
12.9284186865
 30
0.0
 11
6.3844295785
 21
13.5564881983
 31
0.0
  0
LINE
  5
12A
330
1F
100
AcDbEntity
  8
SK3
  6
SLD-Dashed
370
    18
100
AcDbLine
 10
6.3844295785
 20
13.5564881983
 30
0.0
 11
6.4976802379
 21
14.208745168
 31
0.0
  0
LINE
  5
12B
330
1F
100
AcDbEntity
  8
SK3
  6
SLD-Dashed
370
    18
100
AcDbLine
 10
6.4976802379
 20
14.208745168
 30
0.0
 11
6.5001994042
 21
14.8368146799
 31
0.0
  0
LINE
  5
12C
330
1F
100
AcDbEntity
  8
SK3
  6
SLD-Dashed
370
    18
100
AcDbLine
 10
6.5001994042
 20
14.8368146799
 30
0.0
 11
6.3918002423
 21
15.3941156915
 31
0.0
  0
LINE
  5
12D
330
1F
100
AcDbEntity
  8
SK3
  6
SLD-Dashed
370
    18
100
AcDbLine
 10
6.3918002423
 20
15.3941156915
 30
0.0
 11
6.1805222222
 21
15.8393157363
 31
0.0
  0
LINE
  5
12E
330
1F
100
AcDbEntity
  8
SK3
  6
SLD-Dashed
370
    18
100
AcDbLine
 10
6.1805222222
 20
15.8393157363
 30
0.0
 11
5.8820348681
 21
16.1393963637
 31
0.0
  0
LINE
  5
12F
330
1F
100
AcDbEntity
  8
SK3
  6
SLD-Dashed
370
    18
100
AcDbLine
 10
5.8820348681
 20
16.1393963637
 30
0.0
 11
5.5184756216
 21
16.2721019662
 31
0.0
  0
LINE
  5
130
330
1F
100
AcDbEntity
  8
SK3
  6
SLD-Dashed
370
    18
100
AcDbLine
 10
5.5184756216
 20
16.2721019662
 30
0.0
 11
5.1168080088
 21
16.2275903765
 31
0.0
  0
LINE
  5
131
330
1F
100
AcDbEntity
  8
SK3
  6
SLD-Dashed
370
    18
100
AcDbLine
 10
5.1168080088
 20
16.2275903765
 30
0.0
 11
4.706821879
 21
16.0091628154
 31
0.0
  0
LINE
  5
132
330
1F
100
AcDbEntity
  8
SK3
  6
SLD-Dashed
370
    18
100
AcDbLine
 10
4.706821879
 20
16.0091628154
 30
0.0
 11
4.318924028
 21
15.6330190561
 31
0.0
  0
LINE
  5
133
330
1F
100
AcDbEntity
  8
SK3
  6
SLD-Dashed
370
    18
100
AcDbLine
 10
4.318924028
 20
15.6330190561
 30
0.0
 11
3.9818830648
 21
15.1270559603
 31
0.0
  0
LINE
  5
134
330
1F
100
AcDbEntity
  8
SK3
  6
SLD-Dashed
370
    18
100
AcDbLine
 10
3.9818830648
 20
15.1270559603
 30
0.0
 11
3.7206957757
 21
14.5287984962
 31
0.0
  0
LINE
  5
135
330
1F
100
AcDbEntity
  8
SK3
  6
SLD-Dashed
370
    18
100
AcDbLine
 10
3.7206957757
 20
14.5287984962
 30
0.0
 11
3.5547332273
 21
13.8826166832
 31
0.0
  0
LINE
  5
136
330
1F
100
AcDbEntity
  8
SK3
  6
SLD-Dashed
370
    18
100
AcDbLine
 10
14.2794578574
 20
11.0168048658
 30
0.0
 11
14.4454204058
 21
11.6629866788
 31
0.0
  0
LINE
  5
137
330
1F
100
AcDbEntity
  8
SK3
  6
SLD-Dashed
370
    18
100
AcDbLine
 10
14.4454204058
 20
11.6629866788
 30
0.0
 11
14.7066076948
 21
12.2612441429
 31
0.0
  0
LINE
  5
138
330
1F
100
AcDbEntity
  8
SK3
  6
SLD-Dashed
370
    18
100
AcDbLine
 10
14.7066076948
 20
12.2612441429
 30
0.0
 11
15.043648658
 21
12.7672072387
 31
0.0
  0
LINE
  5
139
330
1F
100
AcDbEntity
  8
SK3
  6
SLD-Dashed
370
    18
100
AcDbLine
 10
15.043648658
 20
12.7672072387
 30
0.0
 11
15.431546509
 21
13.1433509981
 31
0.0
  0
LINE
  5
13A
330
1F
100
AcDbEntity
  8
SK3
  6
SLD-Dashed
370
    18
100
AcDbLine
 10
15.431546509
 20
13.1433509981
 30
0.0
 11
15.8415326388
 21
13.3617785591
 31
0.0
  0
LINE
  5
13B
330
1F
100
AcDbEntity
  8
SK3
  6
SLD-Dashed
370
    18
100
AcDbLine
 10
15.8415326388
 20
13.3617785591
 30
0.0
 11
16.2432002516
 21
13.4062901488
 31
0.0
  0
LINE
  5
13C
330
1F
100
AcDbEntity
  8
SK3
  6
SLD-Dashed
370
    18
100
AcDbLine
 10
16.2432002516
 20
13.4062901488
 30
0.0
 11
16.6067594981
 21
13.2735845463
 31
0.0
  0
LINE
  5
13D
330
1F
100
AcDbEntity
  8
SK3
  6
SLD-Dashed
370
    18
100
AcDbLine
 10
16.6067594981
 20
13.2735845463
 30
0.0
 11
16.9052468522
 21
12.9735039189
 31
0.0
  0
LINE
  5
13E
330
1F
100
AcDbEntity
  8
SK3
  6
SLD-Dashed
370
    18
100
AcDbLine
 10
16.9052468522
 20
12.9735039189
 30
0.0
 11
17.1165248723
 21
12.5283038741
 31
0.0
  0
LINE
  5
13F
330
1F
100
AcDbEntity
  8
SK3
  6
SLD-Dashed
370
    18
100
AcDbLine
 10
17.1165248723
 20
12.5283038741
 30
0.0
 11
17.2249240342
 21
11.9710028625
 31
0.0
  0
LINE
  5
140
330
1F
100
AcDbEntity
  8
SK3
  6
SLD-Dashed
370
    18
100
AcDbLine
 10
17.2249240342
 20
11.9710028625
 30
0.0
 11
17.2224048679
 21
11.3429333506
 31
0.0
  0
LINE
  5
141
330
1F
100
AcDbEntity
  8
SK3
  6
SLD-Dashed
370
    18
100
AcDbLine
 10
17.2224048679
 20
11.3429333506
 30
0.0
 11
17.1091542086
 21
10.690676381
 31
0.0
  0
LINE
  5
142
330
1F
100
AcDbEntity
  8
SK3
  6
SLD-Dashed
370
    18
100
AcDbLine
 10
17.1091542086
 20
10.690676381
 30
0.0
 11
16.8935713394
 21
10.0626068691
 31
0.0
  0
LINE
  5
143
330
1F
100
AcDbEntity
  8
SK3
  6
SLD-Dashed
370
    18
100
AcDbLine
 10
16.8935713394
 20
10.0626068691
 30
0.0
 11
16.5916450556
 21
9.5053058575
 31
0.0
  0
LINE
  5
144
330
1F
100
AcDbEntity
  8
SK3
  6
SLD-Dashed
370
    18
100
AcDbLine
 10
16.5916450556
 20
9.5053058575
 30
0.0
 11
16.2257678484
 21
9.0601058126
 31
0.0
  0
LINE
  5
145
330
1F
100
AcDbEntity
  8
SK3
  6
SLD-Dashed
370
    18
100
AcDbLine
 10
16.2257678484
 20
9.0601058126
 30
0.0
 11
15.8230751565
 21
8.7600251853
 31
0.0
  0
LINE
  5
146
330
1F
100
AcDbEntity
  8
SK3
  6
SLD-Dashed
370
    18
100
AcDbLine
 10
15.8230751565
 20
8.7600251853
 30
0.0
 11
15.4134328547
 21
8.6273195827
 31
0.0
  0
LINE
  5
147
330
1F
100
AcDbEntity
  8
SK3
  6
SLD-Dashed
370
    18
100
AcDbLine
 10
15.4134328547
 20
8.6273195827
 30
0.0
 11
15.0272222385
 21
8.6718311725
 31
0.0
  0
LINE
  5
148
330
1F
100
AcDbEntity
  8
SK3
  6
SLD-Dashed
370
    18
100
AcDbLine
 10
15.0272222385
 20
8.6718311725
 30
0.0
 11
14.6930867825
 21
8.8902587335
 31
0.0
  0
LINE
  5
149
330
1F
100
AcDbEntity
  8
SK3
  6
SLD-Dashed
370
    18
100
AcDbLine
 10
14.6930867825
 20
8.8902587335
 30
0.0
 11
14.435807785
 21
9.2664024929
 31
0.0
  0
LINE
  5
14A
330
1F
100
AcDbEntity
  8
SK3
  6
SLD-Dashed
370
    18
100
AcDbLine
 10
14.435807785
 20
9.2664024929
 30
0.0
 11
14.2744664521
 21
9.7723655887
 31
0.0
  0
LINE
  5
14B
330
1F
100
AcDbEntity
  8
SK3
  6
SLD-Dashed
370
    18
100
AcDbLine
 10
14.2744664521
 20
9.7723655887
 30
0.0
 11
14.2210287325
 21
10.3706230527
 31
0.0
  0
LINE
  5
14C
330
1F
100
AcDbEntity
  8
SK3
  6
SLD-Dashed
370
    18
100
AcDbLine
 10
14.2210287325
 20
10.3706230527
 30
0.0
 11
14.2794578574
 21
11.0168048658
 31
0.0
  0
LINE
  5
14D
330
1F
100
AcDbEntity
  8
SK3
  6
SLD-Dashed
370
    18
100
AcDbLine
 10
3.3949403416
 20
13.9015950424
 30
0.0
 11
3.5615900545
 21
14.5594368595
 31
0.0
  0
LINE
  5
14E
330
1F
100
AcDbEntity
  8
SK3
  6
SLD-Dashed
370
    18
100
AcDbLine
 10
3.5615900545
 20
14.5594368595
 30
0.0
 11
3.8217415901
 21
15.1724478438
 31
0.0
  0
LINE
  5
14F
330
1F
100
AcDbEntity
  8
SK3
  6
SLD-Dashed
370
    18
100
AcDbLine
 10
3.8217415901
 20
15.1724478438
 30
0.0
 11
4.1576660511
 21
15.6988523099
 31
0.0
  0
LINE
  5
150
330
1F
100
AcDbEntity
  8
SK3
  6
SLD-Dashed
370
    18
100
AcDbLine
 10
4.1576660511
 20
15.6988523099
 30
0.0
 11
4.5464707407
 21
16.1027766634
 31
0.0
  0
LINE
  5
151
330
1F
100
AcDbEntity
  8
SK3
  6
SLD-Dashed
370
    18
100
AcDbLine
 10
4.5464707407
 20
16.1027766634
 30
0.0
 11
4.9616592619
 21
16.356694127
 31
0.0
  0
LINE
  5
152
330
1F
100
AcDbEntity
  8
SK3
  6
SLD-Dashed
370
    18
100
AcDbLine
 10
4.9616592619
 20
16.356694127
 30
0.0
 11
5.3749372029
 21
16.4433006452
 31
0.0
  0
LINE
  5
153
330
1F
100
AcDbEntity
  8
SK3
  6
SLD-Dashed
370
    18
100
AcDbLine
 10
5.3749372029
 20
16.4433006452
 30
0.0
 11
5.7581403551
 21
16.356694127
 31
0.0
  0
LINE
  5
154
330
1F
100
AcDbEntity
  8
SK3
  6
SLD-Dashed
370
    18
100
AcDbLine
 10
5.7581403551
 20
16.356694127
 30
0.0
 11
6.0851540571
 21
16.1027766634
 31
0.0
  0
LINE
  5
155
330
1F
100
AcDbEntity
  8
SK3
  6
SLD-Dashed
370
    18
100
AcDbLine
 10
6.0851540571
 20
16.1027766634
 30
0.0
 11
6.3336928653
 21
15.6988523099
 31
0.0
  0
LINE
  5
156
330
1F
100
AcDbEntity
  8
SK3
  6
SLD-Dashed
370
    18
100
AcDbLine
 10
6.3336928653
 20
15.6988523099
 30
0.0
 11
6.4868192707
 21
15.1724478438
 31
0.0
  0
LINE
  5
157
330
1F
100
AcDbEntity
  8
SK3
  6
SLD-Dashed
370
    18
100
AcDbLine
 10
6.4868192707
 20
15.1724478438
 30
0.0
 11
6.5340979619
 21
14.5594368595
 31
0.0
  0
LINE
  5
158
330
1F
100
AcDbEntity
  8
SK3
  6
SLD-Dashed
370
    18
100
AcDbLine
 10
6.5340979619
 20
14.5594368595
 30
0.0
 11
6.4723069743
 21
13.9015950424
 31
0.0
  0
LINE
  5
159
330
1F
100
AcDbEntity
  8
SK3
  6
SLD-Dashed
370
    18
100
AcDbLine
 10
6.4723069743
 20
13.9015950424
 30
0.0
 11
6.3056572614
 21
13.2437532254
 31
0.0
  0
LINE
  5
15A
330
1F
100
AcDbEntity
  8
SK3
  6
SLD-Dashed
370
    18
100
AcDbLine
 10
6.3056572614
 20
13.2437532254
 30
0.0
 11
6.0455057258
 21
12.630742241
 31
0.0
  0
LINE
  5
15B
330
1F
100
AcDbEntity
  8
SK3
  6
SLD-Dashed
370
    18
100
AcDbLine
 10
6.0455057258
 20
12.630742241
 30
0.0
 11
5.7095812647
 21
12.1043377749
 31
0.0
  0
LINE
  5
15C
330
1F
100
AcDbEntity
  8
SK3
  6
SLD-Dashed
370
    18
100
AcDbLine
 10
5.7095812647
 20
12.1043377749
 30
0.0
 11
5.3207765751
 21
11.7004134215
 31
0.0
  0
LINE
  5
15D
330
1F
100
AcDbEntity
  8
SK3
  6
SLD-Dashed
370
    18
100
AcDbLine
 10
5.3207765751
 20
11.7004134215
 30
0.0
 11
4.905588054
 21
11.4464959579
 31
0.0
  0
LINE
  5
15E
330
1F
100
AcDbEntity
  8
SK3
  6
SLD-Dashed
370
    18
100
AcDbLine
 10
4.905588054
 20
11.4464959579
 30
0.0
 11
4.492310113
 21
11.3598894396
 31
0.0
  0
LINE
  5
15F
330
1F
100
AcDbEntity
  8
SK3
  6
SLD-Dashed
370
    18
100
AcDbLine
 10
4.492310113
 20
11.3598894396
 30
0.0
 11
4.1091069607
 21
11.4464959579
 31
0.0
  0
LINE
  5
160
330
1F
100
AcDbEntity
  8
SK3
  6
SLD-Dashed
370
    18
100
AcDbLine
 10
4.1091069607
 20
11.4464959579
 30
0.0
 11
3.7820932588
 21
11.7004134215
 31
0.0
  0
LINE
  5
161
330
1F
100
AcDbEntity
  8
SK3
  6
SLD-Dashed
370
    18
100
AcDbLine
 10
3.7820932588
 20
11.7004134215
 30
0.0
 11
3.5335544506
 21
12.1043377749
 31
0.0
  0
LINE
  5
162
330
1F
100
AcDbEntity
  8
SK3
  6
SLD-Dashed
370
    18
100
AcDbLine
 10
3.5335544506
 20
12.1043377749
 30
0.0
 11
3.3804280451
 21
12.630742241
 31
0.0
  0
LINE
  5
163
330
1F
100
AcDbEntity
  8
SK3
  6
SLD-Dashed
370
    18
100
AcDbLine
 10
3.3804280451
 20
12.630742241
 30
0.0
 11
3.3331493539
 21
13.2437532254
 31
0.0
  0
LINE
  5
164
330
1F
100
AcDbEntity
  8
SK3
  6
SLD-Dashed
370
    18
100
AcDbLine
 10
3.3331493539
 20
13.2437532254
 30
0.0
 11
3.3949403416
 21
13.9015950424
 31
0.0
  0
LINE
  5
165
330
1F
100
AcDbEntity
  8
SK3
  6
SLD-Dashed
370
    18
100
AcDbLine
 10
5.6371324082
 20
-16.2495686026
 30
0.0
 11
16.3618570383
 21
-13.3837567853
 31
0.0
  0
LINE
  5
166
330
1F
100
AcDbEntity
  8
SK3
  6
SLD-Dashed
370
    18
100
AcDbLine
 10
15.0968849264
 20
-8.6498529463
 30
0.0
 11
4.3721602964
 21
-11.5156647637
 31
0.0
  0
LINE
  5
167
330
1F
100
AcDbEntity
  8
SK3
  6
SLD-Dashed
370
    18
100
AcDbLine
 10
101.6
 20
20.5773502692
 30
0.0
 11
100.6
 21
20.0
 31
0.0
  0
LINE
  5
168
330
1F
100
AcDbEntity
  8
SK3
  6
SLD-Dashed
370
    18
100
AcDbLine
 10
100.6
 20
-20.0
 30
0.0
 11
101.6
 21
-20.5773502692
 31
0.0
  0
LINE
  5
169
330
1F
100
AcDbEntity
  8
SK3
  6
SLD-Dashed
370
    18
100
AcDbLine
 10
24.05
 20
20.25
 30
0.0
 11
19.05
 21
20.25
 31
0.0
  0
LINE
  5
16A
330
1F
100
AcDbEntity
  8
SK3
  6
SLD-Dashed
370
    18
100
AcDbLine
 10
19.05
 20
-20.25
 30
0.0
 11
24.05
 21
-20.25
 31
0.0
  0
LINE
  5
16B
330
1F
100
AcDbEntity
  8
SK3
  6
SLD-Dashed
370
    18
100
AcDbLine
 10
39.3636
 20
20.0
 30
0.0
 11
24.05
 21
20.0
 31
0.0
  0
LINE
  5
16C
330
1F
100
AcDbEntity
  8
SK3
  6
SLD-Dashed
370
    18
100
AcDbLine
 10
64.3636
 20
20.0
 30
0.0
 11
56.6662718812
 21
20.0
 31
0.0
  0
LINE
  5
16D
330
1F
100
AcDbEntity
  8
SK3
  6
SLD-Dashed
370
    18
100
AcDbLine
 10
100.6
 20
20.0
 30
0.0
 11
81.6622736975
 21
20.0
 31
0.0
  0
LINE
  5
16E
330
1F
100
AcDbEntity
  8
SK3
  6
SLD-Dashed
370
    18
100
AcDbLine
 10
24.05
 20
-20.0
 30
0.0
 11
100.6
 21
-20.0
 31
0.0
  0
LINE
  5
16F
330
1F
100
AcDbEntity
  8
SK3
  6
SLD-Dashed
370
    18
100
AcDbLine
 10
-101.6
 20
-14.285
 30
0.0
 11
-99.7034043657
 21
-13.19
 31
0.0
  0
LINE
  5
170
330
1F
100
AcDbEntity
  8
SK3
  6
SLD-Dashed
370
    18
100
AcDbLine
 10
-99.7034043657
 20
13.19
 30
0.0
 11
-101.6
 21
14.285
 31
0.0
  0
LINE
  5
171
330
1F
100
AcDbEntity
  8
SK3
  6
SLD-Dashed
370
    18
100
AcDbLine
 10
-95.25
 20
-13.19
 30
0.0
 11
-94.0505548158
 21
-11.1125
 31
0.0
  0
LINE
  5
172
330
1F
100
AcDbEntity
  8
SK3
  6
SLD-Dashed
370
    18
100
AcDbLine
 10
-94.0505548158
 20
11.1125
 30
0.0
 11
-95.25
 21
13.19
 31
0.0
  0
LINE
  5
173
330
1F
100
AcDbEntity
  8
SK3
  6
SLD-Dashed
370
    18
100
AcDbLine
 10
-99.7034043657
 20
-13.19
 30
0.0
 11
-95.25
 21
-13.19
 31
0.0
  0
LINE
  5
174
330
1F
100
AcDbEntity
  8
SK3
  6
SLD-Dashed
370
    18
100
AcDbLine
 10
-95.25
 20
13.19
 30
0.0
 11
-99.7034043657
 21
13.19
 31
0.0
  0
LINE
  5
175
330
1F
100
AcDbEntity
  8
SK3
  6
SLD-Dashed
370
    18
100
AcDbLine
 10
-94.0505548158
 20
-11.1125
 30
0.0
 11
19.05
 21
-11.1125
 31
0.0
  0
LINE
  5
176
330
1F
100
AcDbEntity
  8
SK3
  6
SLD-Dashed
370
    18
100
AcDbLine
 10
19.05
 20
11.1125
 30
0.0
 11
-94.0505548158
 21
11.1125
 31
0.0
  0
LINE
  5
177
330
1F
100
AcDbEntity
  8
SK3
  6
SLD-Dashed
370
    18
100
AcDbLine
 10
58.15
 20
32.825
 30
0.0
 11
58.15
 21
34.925
 31
0.0
  0
LINE
  5
178
330
1F
100
AcDbEntity
  8
SK3
  6
SLD-Dashed
370
    18
100
AcDbLine
 10
37.9
 20
34.925
 30
0.0
 11
37.9
 21
32.825
 31
0.0
  0
LINE
  5
179
330
1F
100
AcDbEntity
  8
SK3
  6
SLD-Dashed
370
    18
100
AcDbLine
 10
62.9
 20
34.925
 30
0.0
 11
62.9
 21
32.825
 31
0.0
  0
LINE
  5
17A
330
1F
100
AcDbEntity
  8
SK3
  6
SLD-Dashed
370
    18
100
AcDbLine
 10
83.15
 20
32.825
 30
0.0
 11
83.15
 21
34.925
 31
0.0
  0
LINE
  5
17B
330
1F
100
AcDbEntity
  8
SK3
  6
SLD-Dashed
370
    18
100
AcDbLine
 10
64.3636
 20
32.825
 30
0.0
 11
64.3636
 21
20.0
 31
0.0
  0
LINE
  5
17C
330
1F
100
AcDbEntity
  8
SK3
  6
SLD-Dashed
370
    18
100
AcDbLine
 10
81.6864
 20
19.9895833973
 30
0.0
 11
81.6864
 21
32.825
 31
0.0
  0
LINE
  5
17D
330
1F
100
AcDbEntity
  8
SK3
  6
SLD-Dashed
370
    18
100
AcDbLine
 10
39.3636
 20
32.825
 30
0.0
 11
39.3636
 21
20.0
 31
0.0
  0
LINE
  5
17E
330
1F
100
AcDbEntity
  8
SK3
  6
SLD-Dashed
370
    18
100
AcDbLine
 10
56.6864
 20
19.9913241684
 30
0.0
 11
56.6864
 21
32.825
 31
0.0
  0
LINE
  5
17F
330
1F
100
AcDbEntity
  8
SK3
  6
SLD-Dashed
370
    18
100
AcDbLine
 10
6.1
 20
37.5
 30
0.0
 11
6.1
 21
33.1
 31
0.0
  0
LINE
  5
180
330
1F
100
AcDbEntity
  8
SK3
  6
SLD-Dashed
370
    18
100
AcDbLine
 10
16.1
 20
33.1
 30
0.0
 11
16.1
 21
37.5
 31
0.0
  0
LINE
  5
181
330
1F
100
AcDbEntity
  8
SK3
  6
SLD-Dashed
370
    18
100
AcDbLine
 10
4.3721602964
 20
11.5156647637
 30
0.0
 11
15.0968849264
 21
8.6498529463
 31
0.0
  0
LINE
  5
182
330
1F
100
AcDbEntity
  8
SK3
  6
SLD-Dashed
370
    18
100
AcDbLine
 10
16.3618570383
 20
13.3837567853
 30
0.0
 11
5.6371324082
 21
16.2495686026
 31
0.0
  0
LINE
  5
183
330
1F
100
AcDbEntity
  8
SK3
  6
SLD-Solid
370
    18
100
AcDbLine
 10
-55.5999986827
 20
12.6999998465
 30
0.0
 11
-94.967097044
 21
12.6999998465
 31
0.0
  0
LINE
  5
184
330
1F
100
AcDbEntity
  8
SK3
  6
SLD-Solid
370
    18
100
AcDbLine
 10
-94.967097044
 20
-12.6999998465
 30
0.0
 11
-55.5999986827
 21
-12.6999998465
 31
0.0
  0
LINE
  5
185
330
1F
100
AcDbEntity
  8
SK3
  6
SLD-Solid
370
    18
100
AcDbLine
 10
-55.5999986827
 20
0.0
 30
0.0
 11
-55.5999986827
 21
-1.7674983246
 31
0.0
  0
LINE
  5
186
330
1F
100
AcDbEntity
  8
SK3
  6
SLD-Solid
370
    18
100
AcDbLine
 10
-55.6000215316
 20
-1.7674983246
 30
0.0
 11
-55.5999986827
 21
-3.5005945247
 31
0.0
  0
LINE
  5
187
330
1F
100
AcDbEntity
  8
SK3
  6
SLD-Solid
370
    18
100
AcDbLine
 10
-55.5999986827
 20
-3.5005945247
 30
0.0
 11
-55.5999986827
 21
-5.1655555144
 31
0.0
  0
LINE
  5
188
330
1F
100
AcDbEntity
  8
SK3
  6
SLD-Solid
370
    18
100
AcDbLine
 10
-55.5999986827
 20
-5.1655555144
 30
0.0
 11
-55.5999986827
 21
-6.7299748771
 31
0.0
  0
LINE
  5
189
330
1F
100
AcDbEntity
  8
SK3
  6
SLD-Solid
370
    18
100
AcDbLine
 10
-55.5999986827
 20
-6.7299748771
 30
0.0
 11
-55.5999986827
 21
-8.1634027883
 31
0.0
  0
LINE
  5
18A
330
1F
100
AcDbEntity
  8
SK3
  6
SLD-Solid
370
    18
100
AcDbLine
 10
-55.5999986827
 20
-8.1634027883
 30
0.0
 11
-55.5999986827
 21
-9.4379391521
 31
0.0
  0
LINE
  5
18B
330
1F
100
AcDbEntity
  8
SK3
  6
SLD-Solid
370
    18
100
AcDbLine
 10
-55.5999986827
 20
-9.4379391521
 30
0.0
 11
-55.5999986827
 21
-10.5287767947
 31
0.0
  0
LINE
  5
18C
330
1F
100
AcDbEntity
  8
SK3
  6
SLD-Solid
370
    18
100
AcDbLine
 10
-55.5999986827
 20
-10.5287767947
 30
0.0
 11
-55.5999986827
 21
-11.4146843553
 31
0.0
  0
LINE
  5
18D
330
1F
100
AcDbEntity
  8
SK3
  6
SLD-Solid
370
    18
100
AcDbLine
 10
-55.5999986827
 20
-11.4146843553
 30
0.0
 11
-55.5999986827
 21
-12.0784174651
 31
0.0
  0
LINE
  5
18E
330
1F
100
AcDbEntity
  8
SK3
  6
SLD-Solid
370
    18
100
AcDbLine
 10
-55.5999986827
 20
-12.0784174651
 30
0.0
 11
-55.5999986827
 21
-12.5070586801
 31
0.0
  0
LINE
  5
18F
330
1F
100
AcDbEntity
  8
SK3
  6
SLD-Solid
370
    18
100
AcDbLine
 10
-55.5999986827
 20
-12.5070586801
 30
0.0
 11
-55.5999986827
 21
-12.6922633499
 31
0.0
  0
LINE
  5
190
330
1F
100
AcDbEntity
  8
SK3
  6
SLD-Solid
370
    18
100
AcDbLine
 10
-55.5999986827
 20
-12.6922633499
 30
0.0
 11
-55.5999986827
 21
-12.6999998465
 31
0.0
  0
LINE
  5
191
330
1F
100
AcDbEntity
  8
SK3
  6
SLD-Solid
370
    18
100
AcDbLine
 10
-55.6000215316
 20
12.6999998465
 30
0.0
 11
-55.5999986827
 21
12.6922633499
 31
0.0
  0
LINE
  5
192
330
1F
100
AcDbEntity
  8
SK3
  6
SLD-Solid
370
    18
100
AcDbLine
 10
-55.5999986827
 20
12.6922633499
 30
0.0
 11
-55.5999986827
 21
12.5070586801
 31
0.0
  0
LINE
  5
193
330
1F
100
AcDbEntity
  8
SK3
  6
SLD-Solid
370
    18
100
AcDbLine
 10
-55.5999986827
 20
12.5070586801
 30
0.0
 11
-55.5999986827
 21
12.0784174651
 31
0.0
  0
LINE
  5
194
330
1F
100
AcDbEntity
  8
SK3
  6
SLD-Solid
370
    18
100
AcDbLine
 10
-55.5999986827
 20
12.0784174651
 30
0.0
 11
-55.5999986827
 21
11.4146843553
 31
0.0
  0
LINE
  5
195
330
1F
100
AcDbEntity
  8
SK3
  6
SLD-Solid
370
    18
100
AcDbLine
 10
-55.5999986827
 20
11.4146843553
 30
0.0
 11
-55.5999986827
 21
10.5287767947
 31
0.0
  0
LINE
  5
196
330
1F
100
AcDbEntity
  8
SK3
  6
SLD-Solid
370
    18
100
AcDbLine
 10
-55.5999986827
 20
10.5287767947
 30
0.0
 11
-55.5999986827
 21
9.4379391521
 31
0.0
  0
LINE
  5
197
330
1F
100
AcDbEntity
  8
SK3
  6
SLD-Solid
370
    18
100
AcDbLine
 10
-55.5999986827
 20
9.4379391521
 30
0.0
 11
-55.5999986827
 21
8.1634027883
 31
0.0
  0
LINE
  5
198
330
1F
100
AcDbEntity
  8
SK3
  6
SLD-Solid
370
    18
100
AcDbLine
 10
-55.5999986827
 20
8.1634027883
 30
0.0
 11
-55.5999986827
 21
6.7299748771
 31
0.0
  0
LINE
  5
199
330
1F
100
AcDbEntity
  8
SK3
  6
SLD-Solid
370
    18
100
AcDbLine
 10
-55.5999986827
 20
6.7299748771
 30
0.0
 11
-55.5999986827
 21
5.1655555144
 31
0.0
  0
LINE
  5
19A
330
1F
100
AcDbEntity
  8
SK3
  6
SLD-Solid
370
    18
100
AcDbLine
 10
-55.5999986827
 20
5.1655555144
 30
0.0
 11
-55.5999986827
 21
3.5005945247
 31
0.0
  0
LINE
  5
19B
330
1F
100
AcDbEntity
  8
SK3
  6
SLD-Solid
370
    18
100
AcDbLine
 10
-55.5999986827
 20
3.5005945247
 30
0.0
 11
-55.5999986827
 21
1.7674983246
 31
0.0
  0
LINE
  5
19C
330
1F
100
AcDbEntity
  8
SK3
  6
SLD-Solid
370
    18
100
AcDbLine
 10
-55.5999986827
 20
1.7674983246
 30
0.0
 11
-55.5999986827
 21
0.0
 31
0.0
  0
LINE
  5
19D
330
1F
100
AcDbEntity
  8
SK3
  6
SLD-Solid
370
    18
100
AcDbLine
 10
82.5499966741
 20
19.9877135456
 30
0.0
 11
82.5499966741
 21
32.8250005841
 31
0.0
  0
LINE
  5
19E
330
1F
100
AcDbEntity
  8
SK3
  6
SLD-Solid
370
    18
100
AcDbLine
 10
63.5000020266
 20
32.8250005841
 30
0.0
 11
63.5000020266
 21
19.9877135456
 31
0.0
  0
LINE
  5
19F
330
1F
100
AcDbEntity
  8
SK3
  6
SLD-Solid
370
    18
100
AcDbLine
 10
82.5241580606
 20
19.9877135456
 30
0.0
 11
82.5372934341
 21
19.9939534068
 31
0.0
  0
LINE
  5
1A0
330
1F
100
AcDbEntity
  8
SK3
  6
SLD-Solid
370
    18
100
AcDbLine
 10
57.5499981642
 20
19.9877135456
 30
0.0
 11
57.5499981642
 21
32.8250005841
 31
0.0
  0
LINE
  5
1A1
330
1F
100
AcDbEntity
  8
SK3
  6
SLD-Solid
370
    18
100
AcDbLine
 10
38.4999997914
 20
32.8250005841
 30
0.0
 11
38.4999997914
 21
19.9877135456
 31
0.0
  0
LINE
  5
1A2
330
1F
100
AcDbEntity
  8
SK3
  6
SLD-Solid
370
    18
100
AcDbLine
 10
57.5241595507
 20
19.9877135456
 30
0.0
 11
57.5372949243
 21
19.9939534068
 31
0.0
  0
LINE
  5
1A3
330
1F
100
AcDbEntity
  8
4
  6
SLD-Center
370
    18
100
AcDbLine
 10
48.025
 20
18.0
 30
0.0
 11
48.025
 21
34.825
 31
0.0
  0
LINE
  5
1A4
330
1F
100
AcDbEntity
  8
4
  6
SLD-Center
370
    18
100
AcDbLine
 10
73.025
 20
18.0
 30
0.0
 11
73.025
 21
34.825
 31
0.0
  0
LINE
  5
1A5
330
1F
100
AcDbEntity
  8
4
  6
SLD-Center
370
    18
100
AcDbLine
 10
-0.6563717851
 20
0.0
 30
0.0
 11
106.0958989949
 21
0.0
 31
0.0
  0
LINE
  5
1A6
330
1F
100
AcDbEntity
  8
SK4
  6
SLD-Center
370
    18
100
AcDbLine
 10
-101.8030472773
 20
0.0
 30
0.0
 11
102.1518495818
 21
0.0
 31
0.0
  0
LINE
  5
1A7
330
1F
100
AcDbEntity
  8
81
370
    18
100
AcDbLine
 10
101.6
 20
0.0
 30
0.0
 11
105.1355339059
 21
3.5355339059
 31
0.0
  0
LINE
  5
1A8
330
1F
100
AcDbEntity
  8
81
370
    18
100
AcDbLine
 10
101.6
 20
0.0
 30
0.0
 11
98.0644660941
 21
-3.5355339059
 31
0.0
  0
LINE
  5
1A9
330
1F
100
AcDbEntity
  8
81
370
    18
100
AcDbLine
 10
101.6
 20
0.0
 30
0.0
 11
98.0644660941
 21
3.5355339059
 31
0.0
  0
LINE
  5
1AA
330
1F
100
AcDbEntity
  8
81
100
AcDbLine
 10
101.6
 20
0.0
 30
0.0
 11
111.6
 21
0.0
 31
0.0
  0
LINE
  5
1AB
330
1F
100
AcDbEntity
  8
81
370
    18
100
AcDbLine
 10
101.6
 20
0.0
 30
0.0
 11
105.1355339059
 21
-3.5355339059
 31
0.0
  0
LINE
  5
1AC
330
1F
100
AcDbEntity
  8
80
370
    18
100
AcDbLine
 10
0.0
 20
0.0
 30
0.0
 11
-3.5355339059
 21
-3.5355339059
 31
0.0
  0
LINE
  5
1AD
330
1F
100
AcDbEntity
  8
80
370
    18
100
AcDbLine
 10
0.0
 20
0.0
 30
0.0
 11
3.5355339059
 21
3.5355339059
 31
0.0
  0
LINE
  5
1AE
330
1F
100
AcDbEntity
  8
80
370
    18
100
AcDbLine
 10
0.0
 20
0.0
 30
0.0
 11
-3.5355339059
 21
3.5355339059
 31
0.0
  0
LINE
  5
1AF
330
1F
100
AcDbEntity
  8
80
370
    18
100
AcDbLine
 10
0.0
 20
0.0
 30
0.0
 11
-10.0
 21
0.0
 31
0.0
  0
LINE
  5
1B0
330
1F
100
AcDbEntity
  8
80
370
    18
100
AcDbLine
 10
0.0
 20
0.0
 30
0.0
 11
3.5355339059
 21
-3.5355339059
 31
0.0
  0
ARC
  5
1B1
330
1F
100
AcDbEntity
  8
1
  6
SLD-Solid
370
    25
100
AcDbCircle
 10
19.812
 20
-35.687
 30
0.0
 40
0.7620000000000005
100
AcDbArc
 50
90.0
 51
129.6580997298
  0
ARC
  5
1B2
330
1F
100
AcDbEntity
  8
1
  6
SLD-Solid
370
    25
100
AcDbCircle
 10
19.812
 20
35.687
 30
0.0
 40
0.7620000000000005
100
AcDbArc
 50
180.0
 51
270.0
  0
ARC
  5
1B3
330
1F
100
AcDbEntity
  8
1
  6
SLD-Solid
370
    25
100
AcDbCircle
 10
2.45
 20
35.425
 30
0.0
 40
0.7500000000000004
100
AcDbArc
 50
245.0
 51
0.0
  0
ARC
  5
1B4
330
1F
100
AcDbEntity
  8
1
  6
SLD-Solid
370
    25
100
AcDbCircle
 10
2.45
 20
-35.425
 30
0.0
 40
0.7500000000000135
100
AcDbArc
 50
25.5336708908
 51
115.0
  0
ARC
  5
1B5
330
1F
100
AcDbEntity
  8
SK1
  6
SLD-Solid
370
    25
100
AcDbCircle
 10
-99.5
 20
18.2922326599
 30
0.0
 40
2.100000000000009
100
AcDbArc
 50
98.2972222222
 51
180.0
  0
ARC
  5
1B6
330
1F
100
AcDbEntity
  8
SK1
  6
SLD-Solid
370
    25
100
AcDbCircle
 10
-99.5
 20
-18.2922326599
 30
0.0
 40
2.100000000000009
100
AcDbArc
 50
180.0
 51
261.7027777778
  0
ARC
  5
1B7
330
1F
100
AcDbEntity
  8
1
370
    18
100
AcDbCircle
 10
48.0139795082
 20
-75.2757985021
 30
0.0
 40
41.79696622304291
100
AcDbArc
 50
74.8840721213
 51
105.1153361624
  0
ARC
  5
1B8
330
1F
100
AcDbEntity
  8
1
370
    18
100
AcDbCircle
 10
73.0209201619
 20
-75.3601121953
 30
0.0
 40
41.88005718005659
100
AcDbArc
 50
74.9055846625
 51
105.0478192834
  0
ARC
  5
1B9
330
1F
100
AcDbEntity
  8
1
370
    18
100
AcDbCircle
 10
48.0313115139
 20
68.7277693531
 30
0.0
 40
35.28477111475179
100
AcDbArc
 50
253.335194345
 51
286.664805655
  0
CIRCLE
  5
1BA
330
1F
100
AcDbEntity
  8
81
370
    18
100
AcDbCircle
 10
101.6
 20
0.0
 30
0.0
 40
2.499999999999984
  0
CIRCLE
  5
1BB
330
1F
100
AcDbEntity
  8
80
370
    18
100
AcDbCircle
 10
0.0
 20
0.0
 30
0.0
 40
2.500000000000009
  0
SPLINE
  5
1BC
330
1F
100
AcDbEntity
  8
1
  6
SLD-Solid
370
    25
100
AcDbSpline
210
0.0
220
0.0
230
1.0
 70
     8
 71
     3
 72
    12
 73
     8
 74
     0
 42
0.000000001
 43
0.00000001
 40
0.0
 40
0.0
 40
0.0
 40
0.0
 40
0.249999999999997
 40
0.249999999999997
 40
0.499999999999994
 40
0.499999999999994
 40
1.0
 40
1.0
 40
1.0
 40
1.0
 10
3.950000000000009
 20
-47.4754841997425
 30
0.0
 10
3.849084030890584
 20
-47.4754841997425
 30
0.0
 10
3.749978417477457
 20
-47.45437693482703
 30
0.0
 10
3.566847730075498
 20
-47.37426897057827
 30
0.0
 10
3.483455095947358
 20
-47.31511647588032
 30
0.0
 10
3.278048511272585
 20
-47.09831987092233
 30
0.0
 10
3.200000000000008
 20
-46.89926900274103
 30
0.0
 10
3.200000000000008
 20
-46.69763484374771
 30
0.0
  0
SPLINE
  5
1BD
330
1F
100
AcDbEntity
  8
1
  6
SLD-Solid
370
    25
100
AcDbSpline
210
0.0
220
0.0
230
1.0
 70
     8
 71
     3
 72
    17
 73
    13
 74
     0
 42
0.000000001
 43
0.00000001
 40
0.0
 40
0.0
 40
0.0
 40
0.0
 40
0.0631225276679373
 40
0.1266732404557616
 40
0.190657859823915
 40
0.2550819704917502
 40
0.37796775618313
 40
0.5065287291742231
 40
0.753627574171531
 40
0.8770326867277551
 40
0.929351593520063
 40
0.9999999999999999
 40
0.9999999999999999
 40
0.9999999999999999
 40
0.9999999999999999
 10
3.949999999999855
 20
47.29681459776458
 30
0.0
 10
3.925201491186163
 20
47.29611182214632
 30
0.0
 10
3.875436255446148
 20
47.29470150370428
 30
0.0
 10
3.801280717947916
 20
47.28327895415905
 30
0.0
 10
3.728120549120851
 20
47.26498746189473
 30
0.0
 10
3.635342933316791
 20
47.23149463842289
 30
0.0
 10
3.525682301876025
 20
47.1726739704314
 30
0.0
 10
3.374709300497889
 20
47.0485469861118
 30
0.0
 10
3.264271220664359
 20
46.88235514412617
 30
0.0
 10
3.217384189860657
 20
46.72497704377732
 30
0.0
 10
3.202376761219863
 20
46.63086119229415
 30
0.0
 10
3.200867255990278
 20
46.58337040931758
 30
0.0
 10
3.199999999999995
 20
46.55608553132446
 30
0.0
  0
SPLINE
  5
1BE
330
1F
100
AcDbEntity
  8
1
  6
SLD-Solid
370
    25
100
AcDbSpline
210
0.0
220
0.0
230
1.0
 70
     8
 71
     3
 72
    12
 73
     8
 74
     0
 42
0.000000001
 43
0.00000001
 40
0.0
 40
0.0
 40
0.0
 40
0.0
 40
0.2499999999999983
 40
0.2499999999999983
 40
0.4999999999999967
 40
0.4999999999999967
 40
1.0
 40
1.0
 40
1.0
 40
1.0
 10
19.05
 20
-46.69763484374771
 30
0.0
 10
19.05
 20
-46.79851095846172
 30
0.0
 10
19.03137059366215
 20
-46.8973396642895
 30
0.0
 10
18.95815575330308
 20
-47.08411469648357
 30
0.0
 10
18.90402082648722
 20
-47.16991322230012
 30
0.0
 10
18.69812814693782
 20
-47.3875344447254
 30
0.0
 10
18.50197314321876
 20
-47.475484199743
 30
0.0
 10
18.30000000000011
 20
-47.47548419974304
 30
0.0
  0
SPLINE
  5
1BF
330
1F
100
AcDbEntity
  8
1
  6
SLD-Solid
370
    25
100
AcDbSpline
210
0.0
220
0.0
230
1.0
 70
     8
 71
     3
 72
    15
 73
    11
 74
     0
 42
0.000000001
 43
0.00000001
 40
0.0
 40
0.0
 40
0.0
 40
0.0
 40
0.070867546718904
 40
0.1234206290198622
 40
0.2469923695819581
 40
0.4940839350894875
 40
0.6226370203369791
 40
0.7456896564301834
 40
0.8736712713987574
 40
1.0
 40
1.0
 40
1.0
 40
1.0
 10
19.05
 20
46.5560855313245
 30
0.0
 10
19.04912781744743
 20
46.5834464176208
 30
0.0
 10
19.04760885250169
 20
46.63109725292662
 30
0.0
 10
19.03252103265983
 20
46.72541301613892
 30
0.0
 10
18.98548435274789
 20
46.88286431586829
 30
0.0
 10
18.87493087111875
 20
47.04890219769219
 30
0.0
 10
18.72384724369284
 20
47.17307551094378
 30
0.0
 10
18.59213990211467
 20
47.24320117897884
 30
0.0
 10
18.44967423040806
 20
47.28829435244315
 30
0.0
 10
18.34967476177363
 20
47.29398684875637
 30
0.0
 10
18.30000000000007
 20
47.2968145977646
 30
0.0
  0
SPLINE
  5
1C0
330
1F
100
AcDbEntity
  8
1
  6
SLD-Solid
370
    25
100
AcDbSpline
210
0.0
220
0.0
230
1.0
 70
     8
 71
     3
 72
    14
 73
    10
 74
     0
 42
0.000000001
 43
0.00000001
 40
0.0
 40
0.0
 40
0.0
 40
0.0
 40
0.25
 40
0.25
 40
0.5
 40
0.5
 40
0.75
 40
0.75
 40
1.0
 40
1.0
 40
1.0
 40
1.0
 10
13.02999999999605
 20
41.98711733167136
 30
0.0
 10
13.05904068228764
 20
41.9935844567442
 30
0.0
 10
13.0827520948298
 20
41.98923559020631
 30
0.0
 10
13.11609658322468
 20
41.95189511103386
 30
0.0
 10
13.12492140067507
 20
41.91935250781674
 30
0.0
 10
13.1250775496782
 20
41.82511380576852
 30
0.0
 10
13.11615053209061
 20
41.76334893396456
 30
0.0
 10
13.08319562521535
 20
41.62087672885571
 30
0.0
 10
13.05911019949627
 20
41.53942138186895
 30
0.0
 10
13.03
 20
41.45311361597065
 30
0.0
  0
SPLINE
  5
1C1
330
1F
100
AcDbEntity
  8
1
  6
SLD-Solid
370
    25
100
AcDbSpline
210
0.0
220
0.0
230
1.0
 70
     8
 71
     3
 72
     8
 73
     4
 74
     0
 42
0.000000001
 43
0.00000001
 40
0.0
 40
0.0
 40
0.0
 40
0.0
 40
1.0
 40
1.0
 40
1.0
 40
1.0
 10
13.02999999999999
 20
44.57901066343648
 30
0.0
 10
13.44364613314279
 20
45.32508460154333
 30
0.0
 10
13.85791150908243
 20
46.07082082932959
 30
0.0
 10
14.27271061994657
 20
46.81625358782996
 30
0.0
  0
SPLINE
  5
1C2
330
1F
100
AcDbEntity
  8
1
  6
SLD-Solid
370
    25
100
AcDbSpline
210
0.0
220
0.0
230
1.0
 70
     8
 71
     3
 72
     8
 73
     4
 74
     0
 42
0.000000001
 43
0.00000001
 40
0.0
 40
0.0
 40
0.0
 40
0.0
 40
0.0008790679015123
 40
0.0008790679015123
 40
0.0008790679015123
 40
0.0008790679015123
 10
14.63972339340268
 20
47.29681459776457
 30
0.0
 10
14.51700841932647
 20
47.13673210499615
 30
0.0
 10
14.39466513614739
 20
46.97654627942757
 30
0.0
 10
14.27271061994657
 20
46.81625358782996
 30
0.0
  0
SPLINE
  5
1C3
330
1F
100
AcDbEntity
  8
1
  6
SLD-Solid
370
    25
100
AcDbSpline
210
0.0
220
0.0
230
1.0
 70
     8
 71
     3
 72
     8
 73
     4
 74
     0
 42
0.000000001
 43
0.00000001
 40
0.0
 40
0.0
 40
0.0
 40
0.0
 40
1.0
 40
1.0
 40
1.0
 40
1.0
 10
13.02999999999999
 20
-44.57901066343648
 30
0.0
 10
13.56559195163211
 20
-45.54503249842018
 30
0.0
 10
14.10222500453558
 20
-46.5104965471081
 30
0.0
 10
14.63972339340268
 20
-47.4754841997425
 30
0.0
  0
SPLINE
  5
1C4
330
1F
100
AcDbEntity
  8
1
  6
SLD-Solid
370
    25
100
AcDbSpline
210
0.0
220
0.0
230
1.0
 70
     8
 71
     3
 72
    14
 73
    10
 74
     0
 42
0.000000001
 43
0.00000001
 40
0.0
 40
0.0
 40
0.0
 40
0.0
 40
0.25
 40
0.25
 40
0.5
 40
0.5
 40
0.75
 40
0.75
 40
1.0
 40
1.0
 40
1.0
 40
1.0
 10
13.03
 20
35.43161038841291
 30
0.0
 10
13.05904068229165
 20
35.4108851273387
 30
0.0
 10
13.08275209483377
 20
35.37953864703776
 30
0.0
 10
13.11609658322839
 20
35.28872072742523
 30
0.0
 10
13.12492140067853
 20
35.23076880196019
 30
0.0
 10
13.12507754968095
 20
35.08956907537858
 30
0.0
 10
13.11615053209292
 20
35.00648906177567
 30
0.0
 10
13.08319562521659
 20
34.8277942102537
 30
0.0
 10
13.0591101994969
 20
34.73111937885587
 30
0.0
 10
13.02999999999999
 20
34.63242923389117
 30
0.0
  0
SPLINE
  5
1C5
330
1F
100
AcDbEntity
  8
1
  6
SLD-Solid
370
    25
100
AcDbSpline
210
0.0
220
0.0
230
1.0
 70
     8
 71
     3
 72
     8
 73
     4
 74
     0
 42
0.000000001
 43
0.00000001
 40
0.0
 40
0.0
 40
0.0
 40
0.0
 40
1.0
 40
1.0
 40
1.0
 40
1.0
 10
7.590276606597335
 20
-47.4754841997425
 30
0.0
 10
8.12777499546441
 20
-46.51049654710809
 30
0.0
 10
8.664408048367878
 20
-45.54503249842017
 30
0.0
 10
9.199999999999985
 20
-44.57901066343647
 30
0.0
  0
SPLINE
  5
1C6
330
1F
100
AcDbEntity
  8
1
  6
SLD-Solid
370
    25
100
AcDbSpline
210
0.0
220
0.0
230
1.0
 70
     8
 71
     3
 72
     8
 73
     4
 74
     0
 42
0.000000001
 43
0.00000001
 40
0.0000000000000098
 40
0.0000000000000098
 40
0.0000000000000098
 40
0.0000000000000098
 40
0.000879067901516
 40
0.000879067901516
 40
0.000879067901516
 40
0.000879067901516
 10
7.957289380062154
 20
46.81625358782994
 30
0.0
 10
7.835334863860875
 20
46.97654627942823
 30
0.0
 10
7.712991580674098
 20
47.13673210499548
 30
0.0
 10
7.590276606597421
 20
47.29681459776457
 30
0.0
  0
SPLINE
  5
1C7
330
1F
100
AcDbEntity
  8
1
  6
SLD-Solid
370
    25
100
AcDbSpline
210
0.0
220
0.0
230
1.0
 70
     8
 71
     3
 72
     8
 73
     4
 74
     0
 42
0.000000001
 43
0.00000001
 40
0.0
 40
0.0
 40
0.0
 40
0.0
 40
1.0
 40
1.0
 40
1.0
 40
1.0
 10
7.957289380055743
 20
46.81625358784149
 30
0.0
 10
8.372088490919111
 20
46.07082082933728
 30
0.0
 10
8.786353866857985
 20
45.32508460154716
 30
0.0
 10
9.199999999999985
 20
44.57901066343646
 30
0.0
  0
SPLINE
  5
1C8
330
1F
100
AcDbEntity
  8
1
  6
SLD-Solid
370
    25
100
AcDbSpline
210
0.0
220
0.0
230
1.0
 70
     8
 71
     3
 72
    14
 73
    10
 74
     0
 42
0.000000001
 43
0.00000001
 40
0.0
 40
0.0
 40
0.0
 40
0.0
 40
0.25
 40
0.25
 40
0.5
 40
0.5
 40
0.75
 40
0.75
 40
1.0
 40
1.0
 40
1.0
 40
1.0
 10
9.200000000002262
 20
41.48301295145394
 30
0.0
 10
9.176680646156914
 20
41.55645645104905
 30
0.0
 10
9.157956892055525
 20
41.62429306843829
 30
0.0
 10
9.1319276787847
 20
41.74600607925088
 30
0.0
 10
9.12504558236848
 20
41.79860573441293
 30
0.0
 10
9.124954879643761
 20
41.88147815789093
 30
0.0
 10
9.131870505305047
 20
41.91255410941324
 30
0.0
 10
9.157670888230399
 20
41.9512409197013
 30
0.0
 10
9.176601575159552
 20
41.95960923610541
 30
0.0
 10
9.199999999999985
 20
41.9587011964232
 30
0.0
  0
SPLINE
  5
1C9
330
1F
100
AcDbEntity
  8
1
  6
SLD-Solid
370
    25
100
AcDbSpline
210
0.0
220
0.0
230
1.0
 70
     8
 71
     3
 72
    14
 73
    10
 74
     0
 42
0.000000001
 43
0.00000001
 40
0.0
 40
0.0
 40
0.0
 40
0.0
 40
0.25
 40
0.25
 40
0.5
 40
0.5
 40
0.75
 40
0.75
 40
1.0
 40
1.0
 40
1.0
 40
1.0
 10
9.199999999999985
 20
34.67668893498512
 30
0.0
 10
9.176680646155258
 20
34.76218380134753
 30
0.0
 10
9.157956892054477
 20
34.84409122905372
 30
0.0
 10
9.131927678784717
 20
34.9989722290999
 30
0.0
 10
9.125045582368978
 20
35.07047900120375
 30
0.0
 10
9.124954879645047
 20
35.19440944821505
 30
0.0
 10
9.131870505306662
 20
35.24816533561764
 30
0.0
 10
9.157670888232468
 20
35.33309634836898
 30
0.0
 10
9.176601575161774
 20
35.36545280972801
 30
0.0
 10
9.200000000002262
 20
35.38859611770602
 30
0.0
  0
SPLINE
  5
1CA
330
1F
100
AcDbEntity
  8
1
  6
SLD-Solid
370
    25
100
AcDbSpline
210
0.0
220
0.0
230
1.0
 70
     8
 71
     3
 72
    12
 73
     8
 74
     0
 42
0.000000001
 43
0.00000001
 40
0.0
 40
0.0
 40
0.0
 40
0.0
 40
0.2500000000000032
 40
0.2500000000000032
 40
0.5000000000000063
 40
0.5000000000000063
 40
1.0
 40
1.0
 40
1.0
 40
1.0
 10
12.28000000000001
 20
-43.76943596849289
 30
0.0
 10
12.37996960464108
 20
-43.76943596849289
 30
0.0
 10
12.47988502523369
 20
-43.79051518316404
 30
0.0
 10
12.66449294223869
 20
-43.87194262843689
 30
0.0
 10
12.74728498815325
 20
-43.93126060501207
 30
0.0
 10
12.95342033959715
 20
-44.15080408372863
 30
0.0
 10
13.03
 20
-44.35163254795798
 30
0.0
 10
13.03
 20
-44.551021593225
 30
0.0
  0
SPLINE
  5
1CB
330
1F
100
AcDbEntity
  8
1
  6
SLD-Solid
370
    25
100
AcDbSpline
210
0.0
220
0.0
230
1.0
 70
     8
 71
     3
 72
    16
 73
    12
 74
     0
 42
0.000000001
 43
0.00000001
 40
0.0
 40
0.0
 40
0.0
 40
0.0
 40
0.1250000000000001
 40
0.1250000000000001
 40
0.2500000000000003
 40
0.2500000000000003
 40
0.5000000000000002
 40
0.5000000000000002
 40
0.7500000000000001
 40
0.7500000000000001
 40
1.0
 40
1.0
 40
1.0
 40
1.0
 10
13.03
 20
34.61214293353756
 30
0.0
 10
13.03
 20
34.56119277402758
 30
0.0
 10
13.0206745626061
 20
34.49413963137994
 30
0.0
 10
12.99367590047851
 20
34.36331338142201
 30
0.0
 10
12.97626449755333
 20
34.29908556562461
 30
0.0
 10
12.91545405813532
 20
34.11096290842622
 30
0.0
 10
12.86271449633859
 20
33.99023971150844
 30
0.0
 10
12.73634152951909
 20
33.76817627154974
 30
0.0
 10
12.66098841639739
 20
33.66394234496747
 30
0.0
 10
12.48671204537782
 20
33.48358218869543
 30
0.0
 10
12.38972674335427
 20
33.40848998465462
 30
0.0
 10
12.28000000000001
 20
33.35547071674117
 30
0.0
  0
SPLINE
  5
1CC
330
1F
100
AcDbEntity
  8
1
  6
SLD-Solid
370
    25
100
AcDbSpline
210
0.0
220
0.0
230
1.0
 70
     8
 71
     3
 72
    12
 73
     8
 74
     0
 42
0.000000001
 43
0.00000001
 40
0.0
 40
0.0
 40
0.0
 40
0.0
 40
0.5
 40
0.5
 40
0.75
 40
0.75
 40
1.0
 40
1.0
 40
1.0
 40
1.0
 10
9.199999999999985
 20
-44.55102159322499
 30
0.0
 10
9.199999999999985
 20
-44.35094747116167
 30
0.0
 10
9.277613070150126
 20
-44.14958800989076
 30
0.0
 10
9.482511037300565
 20
-43.93153570225751
 30
0.0
 10
9.566272299852297
 20
-43.87162606259759
 30
0.0
 10
9.749092094904377
 20
-43.79094541821726
 30
0.0
 10
9.849426682175643
 20
-43.7694359684929
 30
0.0
 10
9.949999999999987
 20
-43.76943596849289
 30
0.0
  0
SPLINE
  5
1CD
330
1F
100
AcDbEntity
  8
1
  6
SLD-Solid
370
    25
100
AcDbSpline
210
0.0
220
0.0
230
1.0
 70
     8
 71
     3
 72
    16
 73
    12
 74
     0
 42
0.000000001
 43
0.00000001
 40
0.0
 40
0.0
 40
0.0
 40
0.0
 40
0.2499999999999967
 40
0.2499999999999967
 40
0.4999999999999934
 40
0.4999999999999934
 40
0.7499999999999902
 40
0.7499999999999902
 40
0.8749999999999951
 40
0.8749999999999951
 40
1.0
 40
1.0
 40
1.0
 40
1.0
 10
9.949999999999987
 20
33.36525953046025
 30
0.0
 10
9.839257595210649
 20
33.42015914282664
 30
0.0
 10
9.740416734001444
 20
33.49854219709403
 30
0.0
 10
9.564708009184061
 20
33.68553569890511
 30
0.0
 10
9.490830483266114
 20
33.79082769792041
 30
0.0
 10
9.364658348120017
 20
34.01955880125703
 30
0.0
 10
9.312951425518134
 20
34.14247439570438
 30
0.0
 10
9.253206550793827
 20
34.3348846178598
 30
0.0
 10
9.236028623043943
 20
34.40121962580661
 30
0.0
 10
9.209723703057032
 20
34.53368853253289
 30
0.0
 10
9.2
 20
34.60516910831215
 30
0.0
 10
9.2
 20
34.65640299543515
 30
0.0
  0
SPLINE
  5
1CE
330
1F
100
AcDbEntity
  8
1
  6
SLD-Solid
370
    25
100
AcDbSpline
210
0.0
220
0.0
230
1.0
 70
     8
 71
     3
 72
    12
 73
     8
 74
     0
 42
0.000000001
 43
0.00000001
 40
0.0
 40
0.0
 40
0.0
 40
0.0
 40
0.2500000000000006
 40
0.2500000000000006
 40
0.5000000000000011
 40
0.5000000000000011
 40
1.0
 40
1.0
 40
1.0
 40
1.0
 10
12.28000000000001
 20
33.35547071674117
 30
0.0
 10
12.10934456477526
 20
33.27301109054177
 30
0.0
 10
11.92465326465504
 20
33.21019284332252
 30
0.0
 10
11.52752277837883
 20
33.12414278909399
 30
0.0
 10
11.32193513118783
 20
33.10278110396342
 30
0.0
 10
10.69948105299426
 20
33.10504385732295
 30
0.0
 10
10.28831449591981
 20
33.19754297491612
 30
0.0
 10
9.949999999999987
 20
33.36525953046025
 30
0.0
  0
SPLINE
  5
1CF
330
1F
100
AcDbEntity
  8
1
  6
SLD-Solid
370
    25
100
AcDbSpline
210
0.0
220
0.0
230
1.0
 70
     8
 71
     3
 72
    16
 73
    12
 74
     0
 42
0.000000001
 43
0.00000001
 40
0.0
 40
0.0
 40
0.0
 40
0.0
 40
0.125
 40
0.125
 40
0.25
 40
0.25
 40
0.5
 40
0.5
 40
0.75
 40
0.75
 40
1.0
 40
1.0
 40
1.0
 40
1.0
 10
9.200000000002262
 20
35.36831017813519
 30
0.0
 10
9.200000000004774
 20
35.31693147873785
 30
0.0
 10
9.20968807886352
 20
35.29149399688278
 30
0.0
 10
9.236073415536922
 20
35.26518486786851
 30
0.0
 10
9.25307062474276
 20
35.26193032552568
 30
0.0
 10
9.313034815215602
 20
35.26168910608486
 30
0.0
 10
9.36392245582808
 20
35.2747715451527
 30
0.0
 10
9.490054525550171
 20
35.3115651964856
 30
0.0
 10
9.565092430043192
 20
35.33621653960019
 30
0.0
 10
9.738924647268888
 20
35.39932894997544
 30
0.0
 10
9.83944594635186
 20
35.43834692831699
 30
0.0
 10
9.949999999999987
 20
35.48885481142474
 30
0.0
  0
SPLINE
  5
1D0
330
1F
100
AcDbEntity
  8
1
  6
SLD-Solid
370
    25
100
AcDbSpline
210
0.0
220
0.0
230
1.0
 70
     8
 71
     3
 72
    12
 73
     8
 74
     0
 42
0.000000001
 43
0.00000001
 40
0.0
 40
0.0
 40
0.0
 40
0.0
 40
0.25
 40
0.25
 40
0.5
 40
0.5
 40
1.0
 40
1.0
 40
1.0
 40
1.0
 10
9.949999999999987
 20
35.48885481142474
 30
0.0
 10
10.11915676939237
 20
35.56613601508452
 30
0.0
 10
10.30270770519946
 20
35.62476545355776
 30
0.0
 10
10.6982656039511
 20
35.70597605697656
 30
0.0
 10
10.90345647830329
 20
35.72681273192288
 30
0.0
 10
11.52590240230555
 20
35.7295390417543
 30
0.0
 10
11.93868796900773
 20
35.64974792445472
 30
0.0
 10
12.28000000000001
 20
35.497872636159
 30
0.0
  0
SPLINE
  5
1D1
330
1F
100
AcDbEntity
  8
1
  6
SLD-Solid
370
    25
100
AcDbSpline
210
0.0
220
0.0
230
1.0
 70
     8
 71
     3
 72
    16
 73
    12
 74
     0
 42
0.000000001
 43
0.00000001
 40
0.0
 40
0.0
 40
0.0
 40
0.0
 40
0.2499999999999999
 40
0.2499999999999999
 40
0.4999999999999998
 40
0.4999999999999998
 40
0.7499999999999997
 40
0.7499999999999997
 40
0.8749999999999998
 40
0.8749999999999998
 40
1.0
 40
1.0
 40
1.0
 40
1.0
 10
12.28000000000001
 20
35.497872636159
 30
0.0
 10
12.38938127142808
 20
35.4492007153832
 30
0.0
 10
12.48719790588469
 20
35.41256913935559
 30
0.0
 10
12.66235653858859
 20
35.35237067244714
 30
0.0
 10
12.73630362704299
 20
35.33005450148763
 30
0.0
 10
12.86322577731738
 20
35.29810085202676
 30
0.0
 10
12.91570572130093
 20
35.28773767542295
 30
0.0
 10
12.97658934509431
 20
35.29443860847592
 30
0.0
 10
12.99409980251967
 20
35.30029296727562
 30
0.0
 10
13.02084597296051
 20
35.33271449864374
 30
0.0
 10
13.03
 20
35.3606843214283
 30
0.0
 10
13.03
 20
35.41132408805677
 30
0.0
  0
SPLINE
  5
1D2
330
1F
100
AcDbEntity
  8
1
  6
SLD-Solid
370
    25
100
AcDbSpline
210
0.0
220
0.0
230
1.0
 70
     8
 71
     3
 72
    16
 73
    12
 74
     0
 42
0.000000001
 43
0.00000001
 40
0.0
 40
0.0
 40
0.0
 40
0.0
 40
0.2499999999999998
 40
0.2499999999999998
 40
0.4999999999999996
 40
0.4999999999999996
 40
0.7499999999999993
 40
0.7499999999999993
 40
0.8749999999999997
 40
0.8749999999999997
 40
1.0
 40
1.0
 40
1.0
 40
1.0
 10
9.949999999999987
 20
40.29017607249212
 30
0.0
 10
9.839257595210663
 20
40.32798470963449
 30
0.0
 10
9.740416734001458
 20
40.39081531012378
 30
0.0
 10
9.564708009184075
 20
40.54795546550075
 30
0.0
 10
9.490830483266114
 20
40.63949231484412
 30
0.0
 10
9.364658348120017
 20
40.84247699029049
 30
0.0
 10
9.312951425518134
 20
40.95326880810711
 30
0.0
 10
9.253206550793827
 20
41.13218036853986
 30
0.0
 10
9.236028623043957
 20
41.19470581500534
 30
0.0
 10
9.209723703057032
 20
41.32469951294973
 30
0.0
 10
9.2
 20
41.3978390036328
 30
0.0
 10
9.2
 20
41.45885414630704
 30
0.0
  0
SPLINE
  5
1D3
330
1F
100
AcDbEntity
  8
1
  6
SLD-Solid
370
    25
100
AcDbSpline
210
0.0
220
0.0
230
1.0
 70
     8
 71
     3
 72
    16
 73
    12
 74
     0
 42
0.000000001
 43
0.00000001
 40
0.0
 40
0.0
 40
0.0
 40
0.0
 40
0.1250000000000039
 40
0.1250000000000039
 40
0.2500000000000078
 40
0.2500000000000078
 40
0.5000000000000051
 40
0.5000000000000051
 40
0.7500000000000026
 40
0.7500000000000026
 40
1.0
 40
1.0
 40
1.0
 40
1.0
 10
13.02999999999832
 20
41.42895438114486
 30
0.0
 10
13.02999999999832
 20
41.36827713359745
 30
0.0
 10
13.02067456260443
 20
41.29860125514492
 30
0.0
 10
12.99367590047683
 20
41.16856540733185
 30
0.0
 10
12.97626449755163
 20
41.10738101936696
 30
0.0
 10
12.91545405813364
 20
40.9307974064249
 30
0.0
 10
12.86271449633691
 20
40.82130212611719
 30
0.0
 10
12.7363415295174
 20
40.62320356046919
 30
0.0
 10
12.66098841639571
 20
40.53226162144244
 30
0.0
 10
12.48671204537614
 20
40.38027498384282
 30
0.0
 10
12.38972674335259
 20
40.31995671599528
 30
0.0
 10
12.27999999999833
 20
40.28343379132451
 30
0.0
  0
SPLINE
  5
1D4
330
1F
100
AcDbEntity
  8
1
  6
SLD-Solid
370
    25
100
AcDbSpline
210
0.0
220
0.0
230
1.0
 70
     8
 71
     3
 72
    12
 73
     8
 74
     0
 42
0.000000001
 43
0.00000001
 40
0.0
 40
0.0
 40
0.0
 40
0.0
 40
0.25
 40
0.25
 40
0.5
 40
0.5
 40
1.0
 40
1.0
 40
1.0
 40
1.0
 10
12.27999999999833
 20
40.28343379132451
 30
0.0
 10
12.10934456477358
 20
40.22663054158942
 30
0.0
 10
11.92465326465338
 20
40.18318651206279
 30
0.0
 10
11.52752277837715
 20
40.12362389225039
 30
0.0
 10
11.32193513118616
 20
40.10880147711193
 30
0.0
 10
10.69948105299259
 20
40.11037023230934
 30
0.0
 10
10.28831449592006
 20
40.17467189827312
 30
0.0
 10
9.949999999999987
 20
40.29017607249212
 30
0.0
  0
SPLINE
  5
1D5
330
1F
100
AcDbEntity
  8
1
  6
SLD-Solid
370
    25
100
AcDbSpline
210
0.0
220
0.0
230
1.0
 70
     8
 71
     3
 72
    16
 73
    12
 74
     0
 42
0.000000001
 43
0.00000001
 40
0.0
 40
0.0
 40
0.0
 40
0.0
 40
0.1250000000000007
 40
0.1250000000000007
 40
0.2500000000000013
 40
0.2500000000000013
 40
0.5000000000000009
 40
0.5000000000000009
 40
0.7500000000000004
 40
0.7500000000000004
 40
1.0
 40
1.0
 40
1.0
 40
1.0
 10
9.199999999999985
 20
41.93454239124897
 30
0.0
 10
9.200000000002511
 20
41.87335478963722
 30
0.0
 10
9.209688078861245
 20
41.83111047963453
 30
0.0
 10
9.236073415534646
 20
41.77192904688972
 30
0.0
 10
9.25307062474047
 20
41.75174455463429
 30
0.0
 10
9.313034815213324
 20
41.70102846576504
 30
0.0
 10
9.363922455825804
 20
41.68155707128334
 30
0.0
 10
9.490054525547908
 20
41.65587219504387
 30
0.0
 10
9.565092430040917
 20
41.65088437918838
 30
0.0
 10
9.738924647266611
 20
41.66113961911401
 30
0.0
 10
9.839445946349585
 20
41.67651281331742
 30
0.0
 10
9.949999999997711
 20
41.70913817421309
 30
0.0
  0
SPLINE
  5
1D6
330
1F
100
AcDbEntity
  8
1
  6
SLD-Solid
370
    25
100
AcDbSpline
210
0.0
220
0.0
230
1.0
 70
     8
 71
     3
 72
    12
 73
     8
 74
     0
 42
0.000000001
 43
0.00000001
 40
0.0
 40
0.0
 40
0.0
 40
0.0
 40
0.25
 40
0.25
 40
0.5
 40
0.5
 40
1.0
 40
1.0
 40
1.0
 40
1.0
 10
9.949999999997711
 20
41.70913817421309
 30
0.0
 10
10.11915676938993
 20
41.75905765221763
 30
0.0
 10
10.30270770519864
 20
41.79673649998863
 30
0.0
 10
10.69826560394987
 20
41.84886357628231
 30
0.0
 10
10.90345647830172
 20
41.86219397810195
 30
0.0
 10
11.52590240230297
 20
41.86393994691689
 30
0.0
 10
11.93868796900434
 20
41.81303425518009
 30
0.0
 10
12.27999999999606
 20
41.71496227396708
 30
0.0
  0
SPLINE
  5
1D7
330
1F
100
AcDbEntity
  8
1
  6
SLD-Solid
370
    25
100
AcDbSpline
210
0.0
220
0.0
230
1.0
 70
     8
 71
     3
 72
    16
 73
    12
 74
     0
 42
0.000000001
 43
0.00000001
 40
0.0
 40
0.0
 40
0.0
 40
0.0
 40
0.2500000000000007
 40
0.2500000000000007
 40
0.5000000000000013
 40
0.5000000000000013
 40
0.750000000000002
 40
0.750000000000002
 40
0.875000000000001
 40
0.875000000000001
 40
1.0
 40
1.0
 40
1.0
 40
1.0
 10
12.27999999999606
 20
41.71496227396708
 30
0.0
 10
12.38938127142412
 20
41.68353285741418
 30
0.0
 10
12.48719790588074
 20
41.66923447164883
 30
0.0
 10
12.66235653858464
 20
41.66075308180613
 30
0.0
 10
12.73630362703904
 20
41.66679667497376
 30
0.0
 10
12.86322577731343
 20
41.69542238628981
 30
0.0
 10
12.91570572129698
 20
41.71723646207176
 30
0.0
 10
12.97658934509036
 20
41.77277628648038
 30
0.0
 10
12.99409980251573
 20
41.79517110958683
 30
0.0
 10
13.02084597295655
 20
41.85934368895602
 30
0.0
 10
13.02999999999605
 20
41.90265050045377
 30
0.0
 10
13.02999999999605
 20
41.96295809683838
 30
0.0
  0
SPLINE
  5
1D8
330
1F
100
AcDbEntity
  8
1
  6
SLD-Solid
370
    25
100
AcDbSpline
210
0.0
220
0.0
230
1.0
 70
     8
 71
     3
 72
    12
 73
     8
 74
     0
 42
0.000000001
 43
0.00000001
 40
0.0
 40
0.0
 40
0.0
 40
0.0
 40
0.5
 40
0.5
 40
0.75
 40
0.75
 40
1.0
 40
1.0
 40
1.0
 40
1.0
 10
9.199999999999985
 20
44.55102159322499
 30
0.0
 10
9.199999999999985
 20
44.35104831812288
 30
0.0
 10
9.27600396681734
 20
44.1515082673653
 30
0.0
 10
9.4827590401535
 20
43.93116827137958
 30
0.0
 10
9.566857937314932
 20
43.87128621650868
 30
0.0
 10
9.74951124726116
 20
43.79084228716471
 30
0.0
 10
9.850156242870487
 20
43.76943596849256
 30
0.0
 10
9.950000000002401
 20
43.76943596849289
 30
0.0
  0
SPLINE
  5
1D9
330
1F
100
AcDbEntity
  8
1
  6
SLD-Solid
370
    25
100
AcDbSpline
210
0.0
220
0.0
230
1.0
 70
     8
 71
     3
 72
    10
 73
     6
 74
     0
 42
0.000000001
 43
0.00000001
 40
0.0
 40
0.0
 40
0.0
 40
0.0
 40
0.5
 40
0.5
 40
1.0
 40
1.0
 40
1.0
 40
1.0
 10
12.28000000000001
 20
43.76943596849289
 30
0.0
 10
12.48122846377883
 20
43.76943596849292
 30
0.0
 10
12.67900932610887
 20
43.85856672856717
 30
0.0
 10
12.95290221427664
 20
44.1502294699326
 30
0.0
 10
13.03
 20
44.34957328976746
 30
0.0
 10
13.03
 20
44.55102159322499
 30
0.0
  0
SPLINE
  5
1DA
330
1F
100
AcDbEntity
  8
SK3
  6
SLD-Dashed
370
    18
100
AcDbSpline
210
0.0
220
0.0
230
1.0
 70
     8
 71
     3
 72
    30
 73
    26
 74
     0
 42
0.000000001
 43
0.00000001
 40
0.4999999999999934
 40
0.4999999999999934
 40
0.4999999999999934
 40
0.4999999999999934
 40
0.5624999999999941
 40
0.5624999999999941
 40
0.6249999999999949
 40
0.6249999999999949
 40
0.6874999999999956
 40
0.6874999999999956
 40
0.7499999999999962
 40
0.7499999999999962
 40
0.7812499999999968
 40
0.7812499999999968
 40
0.8124999999999972
 40
0.8124999999999972
 40
0.8437499999999977
 40
0.8437499999999977
 40
0.8749999999999981
 40
0.8749999999999981
 40
0.9062499999999986
 40
0.9062499999999986
 40
0.9374999999999991
 40
0.9374999999999991
 40
0.9687499999999996
 40
0.9687499999999996
 40
1.0
 40
1.0
 40
1.0
 40
1.0
 10
9.602846279599772
 20
-14.27915034605702
 30
0.0
 10
9.68645653869378
 20
-14.42125418637639
 30
0.0
 10
9.797407143447803
 20
-14.51131733768216
 30
0.0
 10
10.04010223607203
 20
-14.63242374926581
 30
0.0
 10
10.1757110634753
 20
-14.66434400040093
 30
0.0
 10
10.46843928875954
 20
-14.6878509066433
 30
0.0
 10
10.62555865364896
 20
-14.68003033606001
 30
0.0
 10
10.98145473780837
 20
-14.62436653420485
 30
0.0
 10
11.18157682258664
 20
-14.57632221838471
 30
0.0
 10
11.50801002825755
 20
-14.45860893436549
 30
0.0
 10
11.61873162334194
 20
-14.41242944660508
 30
0.0
 10
11.84220113938104
 20
-14.30063256215534
 30
0.0
 10
11.95412269444689
 20
-14.23490090158665
 30
0.0
 10
12.16107863552153
 20
-14.08747705033184
 30
0.0
 10
12.25901625186734
 20
-14.00366784802362
 30
0.0
 10
12.43052677631518
 20
-13.82249974419393
 30
0.0
 10
12.50593330594164
 20
-13.72350506925875
 30
0.0
 10
12.63000303324958
 20
-13.51367430078405
 30
0.0
 10
12.67841410243614
 20
-13.4039848685676
 30
0.0
 10
12.74789370637347
 20
-13.17359881812363
 30
0.0
 10
12.76810124630629
 20
-13.05468203931825
 30
0.0
 10
12.77891027826544
 20
-12.81644825424547
 30
0.0
 10
12.76940813581851
 20
-12.69449512908379
 30
0.0
 10
12.72129905847914
 20
-12.45817259633889
 30
0.0
 10
12.68301625646431
 20
-12.3430480331033
 30
0.0
 10
12.63040931107566
 20
-12.2323343638947
 30
0.0
  0
SPLINE
  5
1DB
330
1F
100
AcDbEntity
  8
SK3
  6
SLD-Dashed
370
    18
100
AcDbSpline
210
0.0
220
0.0
230
1.0
 70
     8
 71
     3
 72
    30
 73
    26
 74
     0
 42
0.000000001
 43
0.00000001
 40
0.0
 40
0.0
 40
0.0
 40
0.0
 40
0.0312499999999991
 40
0.0312499999999991
 40
0.0624999999999983
 40
0.0624999999999983
 40
0.0937499999999974
 40
0.0937499999999974
 40
0.1249999999999965
 40
0.1249999999999965
 40
0.187499999999996
 40
0.187499999999996
 40
0.2499999999999955
 40
0.2499999999999955
 40
0.312499999999995
 40
0.312499999999995
 40
0.3749999999999944
 40
0.3749999999999944
 40
0.4062499999999942
 40
0.4062499999999942
 40
0.4374999999999939
 40
0.4374999999999939
 40
0.4687499999999937
 40
0.4687499999999937
 40
0.4999999999999934
 40
0.4999999999999934
 40
0.4999999999999934
 40
0.4999999999999934
 10
12.63040931107567
 20
-12.23233436389468
 30
0.0
 10
12.57780236568702
 20
-12.1216206946861
 30
0.0
 10
12.51267206459308
 20
-12.01896209858504
 30
0.0
 10
12.35821503903348
 20
-11.83123217673026
 30
0.0
 10
12.26800655859518
 20
-11.74609765066666
 30
0.0
 10
12.07343499093624
 20
-11.60605794329096
 30
0.0
 10
11.96643370486065
 20
-11.54920121804519
 30
0.0
 10
11.74573264298214
 20
-11.46981719393689
 30
0.0
 10
11.6340655249776
 20
-11.44748668283021
 30
0.0
 10
11.29951801742687
 20
-11.42770686560521
 30
0.0
 10
11.0919842806995
 20
-11.47806879673261
 30
0.0
 10
10.72217844091648
 20
-11.64236243808863
 30
0.0
 10
10.55844908096594
 20
-11.75496051093636
 30
0.0
 10
10.25324958882708
 20
-12.02428585488716
 30
0.0
 10
10.11576882260311
 20
-12.17795893248197
 30
0.0
 10
9.862525619365305
 20
-12.52988094775973
 30
0.0
 10
9.746260896402015
 20
-12.72918710194006
 30
0.0
 10
9.60569266085047
 20
-13.06645756895028
 30
0.0
 10
9.565421636406098
 20
-13.18319961587416
 30
0.0
 10
9.503286004234612
 20
-13.4293677611186
 30
0.0
 10
9.482363995141297
 20
-13.5575206983002
 30
0.0
 10
9.47090841224371
 20
-13.80546799718779
 30
0.0
 10
9.480664817462667
 20
-13.92083957613646
 30
0.0
 10
9.525951505689648
 20
-14.1223947507326
 30
0.0
 10
9.561041150052754
 20
-14.20809842589733
 30
0.0
 10
9.602846279599772
 20
-14.27915034605702
 30
0.0
  0
SPLINE
  5
1DC
330
1F
100
AcDbEntity
  8
SK3
  6
SLD-Dashed
370
    18
100
AcDbSpline
210
0.0
220
0.0
230
1.0
 70
     8
 71
     3
 72
    26
 73
    22
 74
     0
 42
0.000000001
 43
0.00000001
 40
0.5000000000000062
 40
0.5000000000000062
 40
0.5000000000000062
 40
0.5000000000000062
 40
0.5625000000000058
 40
0.5625000000000058
 40
0.6250000000000051
 40
0.6250000000000051
 40
0.6562500000000046
 40
0.6562500000000046
 40
0.687500000000004
 40
0.687500000000004
 40
0.7187500000000034
 40
0.7187500000000034
 40
0.7500000000000029
 40
0.7500000000000029
 40
0.8125000000000022
 40
0.8125000000000022
 40
0.8750000000000014
 40
0.8750000000000014
 40
0.9375000000000008
 40
0.9375000000000008
 40
1.0
 40
1.0
 40
1.0
 40
1.0
 10
11.6386983177957
 20
-9.819390371339228
 30
0.0
 10
11.80317915771349
 20
-9.806594466981581
 30
0.0
 10
11.95081782962319
 20
-9.812432081454686
 30
0.0
 10
12.22616299685252
 20
-9.868839301598985
 30
0.0
 10
12.3523651546992
 20
-9.918953620877927
 30
0.0
 10
12.5187466142634
 20
-10.04837289060635
 30
0.0
 10
12.57051953396254
 20
-10.10115000339698
 30
0.0
 10
12.66070184098389
 20
-10.23071744026807
 30
0.0
 10
12.70001796005849
 20
-10.30921538460777
 30
0.0
 10
12.75624339139549
 20
-10.49493258066049
 30
0.0
 10
12.7732316530057
 20
-10.60488156995157
 30
0.0
 10
12.7764946288975
 20
-10.84110300053567
 30
0.0
 10
12.76278670669288
 20
-10.96977043023328
 30
0.0
 10
12.68516730486995
 20
-11.34647137591011
 30
0.0
 10
12.58996305158962
 20
-11.58088814423495
 30
0.0
 10
12.3731560345373
 20
-11.98947715399204
 30
0.0
 10
12.24747178673946
 20
-12.17132846963891
 30
0.0
 10
11.97676737519453
 20
-12.4898134904303
 30
0.0
 10
11.8310268635477
 20
-12.62828009284684
 30
0.0
 10
11.50508373269932
 20
-12.86276351579439
 30
0.0
 10
11.32747339457477
 20
-12.95749122616766
 30
0.0
 10
11.12500000000001
 20
-13.01159523973385
 30
0.0
  0
SPLINE
  5
1DD
330
1F
100
AcDbEntity
  8
SK3
  6
SLD-Dashed
370
    18
100
AcDbSpline
210
0.0
220
0.0
230
1.0
 70
     8
 71
     3
 72
    34
 73
    30
 74
     0
 42
0.000000001
 43
0.00000001
 40
0.0
 40
0.0
 40
0.0
 40
0.0
 40
0.0312500000000005
 40
0.0312500000000005
 40
0.0625000000000011
 40
0.0625000000000011
 40
0.0937500000000016
 40
0.0937500000000016
 40
0.1250000000000022
 40
0.1250000000000022
 40
0.1562500000000027
 40
0.1562500000000027
 40
0.1875000000000032
 40
0.1875000000000032
 40
0.2187500000000038
 40
0.2187500000000038
 40
0.2500000000000043
 40
0.2500000000000043
 40
0.2812500000000049
 40
0.2812500000000049
 40
0.3125000000000054
 40
0.3125000000000054
 40
0.3750000000000063
 40
0.3750000000000063
 40
0.4062500000000066
 40
0.4062500000000066
 40
0.4375000000000068
 40
0.4375000000000068
 40
0.5000000000000062
 40
0.5000000000000062
 40
0.5000000000000062
 40
0.5000000000000062
 10
11.12500000000001
 20
-13.01159523973386
 30
0.0
 10
11.02376330271265
 20
-13.03864724651695
 30
0.0
 10
10.91875434041335
 20
-13.05441768585464
 30
0.0
 10
10.69982193729481
 20
-13.05649587060872
 30
0.0
 10
10.58565504429786
 20
-13.04203538439391
 30
0.0
 10
10.36433306908853
 20
-12.97958779527628
 30
0.0
 10
10.25386240054307
 20
-12.93066318687884
 30
0.0
 10
10.04998753866615
 20
-12.80335962284303
 30
0.0
 10
9.955887873021013
 20
-12.72514830576758
 30
0.0
 10
9.789076352163569
 20
-12.54575166602605
 30
0.0
 10
9.71802220267208
 20
-12.44674722204856
 30
0.0
 10
9.600536001433193
 20
-12.23250861951093
 30
0.0
 10
9.555159683901222
 20
-12.11851015366412
 30
0.0
 10
9.49353895391432
 20
-11.88585378314764
 30
0.0
 10
9.476799814585963
 20
-11.76451266100637
 30
0.0
 10
9.473480888754688
 20
-11.52533259241784
 30
0.0
 10
9.486354225371821
 20
-11.40705029377198
 30
0.0
 10
9.541906609790443
 20
-11.17282024047877
 30
0.0
 10
9.583939125903788
 20
-11.06025657731945
 30
0.0
 10
9.694361385739564
 20
-10.846257319463
 30
0.0
 10
9.764046986917338
 20
-10.74326010657128
 30
0.0
 10
10.00399120049174
 20
-10.46156575413967
 30
0.0
 10
10.21277179464264
 20
-10.30327029353936
 30
0.0
 10
10.54446991129009
 20
-10.12219171688678
 30
0.0
 10
10.65925898590057
 20
-10.07012567259635
 30
0.0
 10
10.87934718809656
 20
-9.984066675225883
 30
0.0
 10
10.98764418607852
 20
-9.948726825148164
 30
0.0
 10
11.29210738731386
 20
-9.863765363482663
 30
0.0
 10
11.47421747787791
 20
-9.832186275696875
 30
0.0
 10
11.6386983177957
 20
-9.819390371339228
 30
0.0
  0
SPLINE
  5
1DE
330
1F
100
AcDbEntity
  8
1
  6
SLD-Dashed
370
    18
100
AcDbSpline
210
0.0
220
0.0
230
1.0
 70
    24
 71
     3
 72
    10
 73
     6
 74
     0
 42
0.000000001
 43
0.00000001
 40
0.0
 40
0.0
 40
0.0
 40
0.0
 40
0.0560555825067823
 40
0.826796066494382
 40
1.0
 40
1.0
 40
1.0
 40
1.0
 10
19.05
 20
-35.1
 30
0.0
 10
19.05021402441966
 20
-35.10000000000001
 30
0.0
 10
19.05337079383308
 20
-35.09999999999998
 30
0.0
 10
19.16747617331639
 20
-35.10000000000001
 30
0.0
 10
19.21674842841274
 20
-35.1
 30
0.0
 10
19.2257893721773
 20
-35.1
 30
0.0
  0
SPLINE
  5
1DF
330
1F
100
AcDbEntity
  8
1
  6
SLD-Dashed
370
    18
100
AcDbSpline
210
0.0
220
0.0
230
1.0
 70
    24
 71
     3
 72
     8
 73
     4
 74
     0
 42
0.000000001
 43
0.00000001
 40
0.0
 40
0.0
 40
0.0
 40
0.0
 40
0.5
 40
0.5
 40
0.5
 40
0.5
 10
19.32612109007263
 20
-35.10000000000001
 30
0.0
 10
19.32611593961726
 20
-35.10000000000001
 30
0.0
 10
19.25867341139641
 20
-35.1
 30
0.0
 10
19.18940244946855
 20
-35.09999999999999
 30
0.0
  0
SPLINE
  5
1E0
330
1F
100
AcDbEntity
  8
1
  6
SLD-Dashed
370
    18
100
AcDbSpline
210
0.0
220
0.0
230
1.0
 70
    24
 71
     2
 72
     6
 73
     3
 74
     0
 42
0.000000001
 43
0.00000001
 40
0.5
 40
0.5
 40
0.5
 40
1.0
 40
1.0
 40
1.0
 10
19.18940244946855
 20
-35.09999999999999
 30
0.0
 10
19.12012975922613
 20
-35.09999999999999
 30
0.0
 10
19.05
 20
-35.1
 30
0.0
  0
SPLINE
  5
1E1
330
1F
100
AcDbEntity
  8
1
  6
SLD-Dashed
370
    18
100
AcDbSpline
210
0.0
220
0.0
230
1.0
 70
    24
 71
     2
 72
     6
 73
     3
 74
     0
 42
0.000000001
 43
0.00000001
 40
0.0
 40
0.0
 40
0.0
 40
0.25
 40
0.25
 40
0.25
 10
3.199999999995193
 20
-35.09999999999991
 30
0.0
 10
3.17802308947554
 20
-35.09999999999994
 30
0.0
 10
3.159393676864672
 20
-35.09999999999996
 30
0.0
  0
SPLINE
  5
1E2
330
1F
100
AcDbEntity
  8
1
  6
SLD-Dashed
370
    18
100
AcDbSpline
210
0.0
220
0.0
230
1.0
 70
    24
 71
     3
 72
     8
 73
     4
 74
     0
 42
0.000000001
 43
0.00000001
 40
0.25
 40
0.25
 40
0.25
 40
0.25
 40
0.5
 40
0.5
 40
0.5
 40
0.5
 10
3.159393676864672
 20
-35.09999999999996
 30
0.0
 10
3.140764264251625
 20
-35.09999999999998
 30
0.0
 10
3.12593531337646
 20
-35.1
 30
0.0
 10
3.12592529748136
 20
-35.1
 30
0.0
  0
SPLINE
  5
1E3
330
1F
100
AcDbEntity
  8
1
  6
SLD-Dashed
370
    18
100
AcDbSpline
210
0.0
220
0.0
230
1.0
 70
    24
 71
     3
 72
     8
 73
     4
 74
     0
 42
0.000000001
 43
0.00000001
 40
0.5
 40
0.5
 40
0.5
 40
0.5
 40
0.75
 40
0.75
 40
0.75
 40
0.75
 10
3.12592529748136
 20
-35.1
 30
0.0
 10
3.125915281586261
 20
-35.1
 30
0.0
 10
3.140736475081146
 20
-35.09999999999999
 30
0.0
 10
3.159374026153516
 20
-35.09999999999996
 30
0.0
  0
SPLINE
  5
1E4
330
1F
100
AcDbEntity
  8
1
  6
SLD-Dashed
370
    18
100
AcDbSpline
210
0.0
220
0.0
230
1.0
 70
    24
 71
     2
 72
     6
 73
     3
 74
     0
 42
0.000000001
 43
0.00000001
 40
0.75
 40
0.75
 40
0.75
 40
1.0
 40
1.0
 40
1.0
 10
3.159374026153516
 20
-35.09999999999996
 30
0.0
 10
3.178011577223694
 20
-35.09999999999994
 30
0.0
 10
3.199999999995193
 20
-35.09999999999991
 30
0.0
  0
SPLINE
  5
1E5
330
1F
100
AcDbEntity
  8
1
  6
SLD-Dashed
370
    18
100
AcDbSpline
210
0.0
220
0.0
230
1.0
 70
     8
 71
     3
 72
    26
 73
    22
 74
     0
 42
0.000000001
 43
0.00000001
 40
0.0
 40
0.0
 40
0.0
 40
0.0
 40
0.0514314056220137
 40
0.1043914149702001
 40
0.1558128495229643
 40
0.2086595892908046
 40
0.2613354425572189
 40
0.3154756407960563
 40
0.3691729953074592
 40
0.4245073103124516
 40
0.4767649169832603
 40
0.5306449029900594
 40
0.5812174324583974
 40
0.6332237569087457
 40
0.68449659097098
 40
0.7371490913599261
 40
0.7903775853990272
 40
0.8451279521406441
 40
0.8986020251969529
 40
0.9537328361025398
 40
1.0
 40
1.0
 40
1.0
 40
1.0
 10
62.9
 20
34.925
 30
0.0
 10
62.92583496450447
 20
34.91746565085784
 30
0.0
 10
62.97827273997856
 20
34.902173022583
 30
0.0
 10
63.39913538027396
 20
34.7822824906409
 30
0.0
 10
64.06194131534033
 20
34.60333861275983
 30
0.0
 10
64.96607649482698
 20
34.37816342494165
 30
0.0
 10
66.10289744613256
 20
34.12720842926367
 30
0.0
 10
67.43961880638948
 20
33.87876588653153
 30
0.0
 10
68.96193854450925
 20
33.65878692661975
 30
0.0
 10
70.59090993873289
 20
33.49973326649508
 30
0.0
 10
72.29567516548533
 20
33.41867024811859
 30
0.0
 10
73.97321621464657
 20
33.42468976810693
 30
0.0
 10
75.61830611914809
 20
33.51310325157321
 30
0.0
 10
77.1639244891464
 20
33.66939479538125
 30
0.0
 10
78.615171752871
 20
33.88025040358594
 30
0.0
 10
79.92621619302835
 20
34.12302384229965
 30
0.0
 10
81.07492786713581
 20
34.37577561086863
 30
0.0
 10
82.00590810222961
 20
34.60779711052182
 30
0.0
 10
82.68386803360121
 20
34.79140081783616
 30
0.0
 10
83.08666529286481
 20
34.90654853496383
 30
0.0
 10
83.12148774072382
 20
34.91671682379113
 30
0.0
 10
83.1373769722941
 20
34.92135654057684
 30
0.0
  0
SPLINE
  5
1E6
330
1F
100
AcDbEntity
  8
SK3
  6
SLD-Dashed
370
    18
100
AcDbSpline
210
0.0
220
0.0
230
1.0
 70
     8
 71
     3
 72
    30
 73
    26
 74
     0
 42
0.000000001
 43
0.00000001
 40
0.4999999999999964
 40
0.4999999999999964
 40
0.4999999999999964
 40
0.4999999999999964
 40
0.5624999999999966
 40
0.5624999999999966
 40
0.6249999999999966
 40
0.6249999999999966
 40
0.6562499999999969
 40
0.6562499999999969
 40
0.6874999999999972
 40
0.6874999999999972
 40
0.7187499999999976
 40
0.7187499999999976
 40
0.7499999999999978
 40
0.7499999999999978
 40
0.7812499999999981
 40
0.7812499999999981
 40
0.8124999999999984
 40
0.8124999999999984
 40
0.8437499999999988
 40
0.8437499999999988
 40
0.8749999999999991
 40
0.8749999999999991
 40
0.9374999999999996
 40
0.9374999999999996
 40
1.0
 40
1.0
 40
1.0
 40
1.0
 10
11.12563408671259
 20
-2.20807613194432
 30
0.0
 10
10.91012831143848
 20
-2.207994055743366
 30
0.0
 10
10.69273190607926
 20
-2.250950739379302
 30
0.0
 10
10.29545710457802
 20
-2.413221511274807
 30
0.0
 10
10.11161887920199
 20
-2.533970605358101
 30
0.0
 10
9.88325685805247
 20
-2.756393500522293
 30
0.0
 10
9.813570300258576
 20
-2.838822643502555
 30
0.0
 10
9.693828420307693
 20
-3.012044829892139
 30
0.0
 10
9.643049505613192
 20
-3.103292515775111
 30
0.0
 10
9.559939885115263
 20
-3.294987142140771
 30
0.0
 10
9.528110569339109
 20
-3.394937637341187
 30
0.0
 10
9.485932078998172
 20
-3.59527852615478
 30
0.0
 10
9.47509331111486
 20
-3.696889173272891
 30
0.0
 10
9.474907881274767
 20
-3.901872321533127
 30
0.0
 10
9.48552400342549
 20
-4.002149034246283
 30
0.0
 10
9.527345716529704
 20
-4.19850671782998
 30
0.0
 10
9.559089732329287
 20
-4.295610098711378
 30
0.0
 10
9.641733638388356
 20
-4.47937067040146
 30
0.0
 10
9.692330936314539
 20
-4.566117382228341
 30
0.0
 10
9.81199406161258
 20
-4.72969567326164
 30
0.0
 10
9.881475262593517
 20
-4.80655485490828
 30
0.0
 10
10.10919445985289
 20
-5.012639596316023
 30
0.0
 10
10.29295795309711
 20
-5.122781885588331
 30
0.0
 10
10.68976853487481
 20
-5.270055084887766
 30
0.0
 10
10.90666257993485
 20
-5.309061659790622
 30
0.0
 10
11.12500000000001
 20
-5.309061659790635
 30
0.0
  0
SPLINE
  5
1E7
330
1F
100
AcDbEntity
  8
SK3
  6
SLD-Dashed
370
    18
100
AcDbSpline
210
0.0
220
0.0
230
1.0
 70
     8
 71
     3
 72
    34
 73
    30
 74
     0
 42
0.000000001
 43
0.00000001
 40
0.0
 40
0.0
 40
0.0
 40
0.0
 40
0.0312499999999999
 40
0.0312499999999999
 40
0.0624999999999997
 40
0.0624999999999997
 40
0.0937499999999996
 40
0.0937499999999996
 40
0.1249999999999995
 40
0.1249999999999995
 40
0.1874999999999987
 40
0.1874999999999987
 40
0.2499999999999979
 40
0.2499999999999979
 40
0.2812499999999977
 40
0.2812499999999977
 40
0.3124999999999975
 40
0.3124999999999975
 40
0.3437499999999973
 40
0.3437499999999973
 40
0.3749999999999972
 40
0.3749999999999972
 40
0.4062499999999969
 40
0.4062499999999969
 40
0.4374999999999968
 40
0.4374999999999968
 40
0.4687499999999966
 40
0.4687499999999966
 40
0.4999999999999964
 40
0.4999999999999964
 40
0.4999999999999964
 40
0.4999999999999964
 10
11.12500000000001
 20
-5.309061659790615
 30
0.0
 10
11.23416871003258
 20
-5.309061659790622
 30
0.0
 10
11.34148252556932
 20
-5.299537349621526
 30
0.0
 10
11.55256160023163
 20
-5.262182100287887
 30
0.0
 10
11.65743203047546
 20
-5.233886962156417
 30
0.0
 10
11.85717198594061
 20
-5.159939537795339
 30
0.0
 10
11.95188217044848
 20
-5.114630280030598
 30
0.0
 10
12.13112457505726
 20
-5.007215473783244
 30
0.0
 10
12.21587296426146
 20
-4.94461166328352
 30
0.0
 10
12.44381779984261
 20
-4.7385981975403
 30
0.0
 10
12.56670516675
 20
-4.571329361139985
 30
0.0
 10
12.73138667216639
 20
-4.206060482656704
 30
0.0
 10
12.77487792035799
 20
-4.004112810281374
 30
0.0
 10
12.77506064455625
 20
-3.700306253597567
 30
0.0
 10
12.76431481439132
 20
-3.596867972028017
 30
0.0
 10
12.7221592689036
 20
-3.395807648785803
 30
0.0
 10
12.69097028794158
 20
-3.297550131697906
 30
0.0
 10
12.60821939488965
 20
-3.105767645319009
 30
0.0
 10
12.55662183160312
 20
-3.012826865172881
 30
0.0
 10
12.43728120518577
 20
-2.839925186415161
 30
0.0
 10
12.36897548289652
 20
-2.758757585038254
 30
0.0
 10
12.21525208496078
 20
-2.608656191484399
 30
0.0
 10
12.13209058330412
 20
-2.541870610032915
 30
0.0
 10
11.95357507686053
 20
-2.424499981749685
 30
0.0
 10
11.85705358084935
 20
-2.373501415354258
 30
0.0
 10
11.6574094418268
 20
-2.291755408436402
 30
0.0
 10
11.55456819584583
 20
-2.260806334720915
 30
0.0
 10
11.34284591554825
 20
-2.218868681349191
 30
0.0
 10
11.23338697434964
 20
-2.2081171700448
 30
0.0
 10
11.12563408671259
 20
-2.20807613194432
 30
0.0
  0
SPLINE
  5
1E8
330
1F
100
AcDbEntity
  8
SK3
  6
SLD-Dashed
370
    18
100
AcDbSpline
210
0.0
220
0.0
230
1.0
 70
     8
 71
     2
 72
     6
 73
     3
 74
     0
 42
0.000000001
 43
0.00000001
 40
0.0
 40
0.0
 40
0.0
 40
0.0312500000000013
 40
0.0312500000000013
 40
0.0312500000000013
 10
39.36360000000001
 20
20.0
 30
0.0
 10
39.42121011272505
 20
19.9748602310944
 30
0.0
 10
39.53344476870672
 20
19.9270334040495
 30
0.0
  0
SPLINE
  5
1E9
330
1F
100
AcDbEntity
  8
SK3
  6
SLD-Dashed
370
    18
100
AcDbSpline
210
0.0
220
0.0
230
1.0
 70
     8
 71
     3
 72
     8
 73
     4
 74
     0
 42
0.000000001
 43
0.00000001
 40
0.0312500000000013
 40
0.0312500000000013
 40
0.0312500000000013
 40
0.0312500000000013
 40
0.046875000000002
 40
0.046875000000002
 40
0.046875000000002
 40
0.046875000000002
 10
39.53344476870672
 20
19.9270334040495
 30
0.0
 10
39.58956209669755
 20
19.90311999052705
 30
0.0
 10
39.65944293435462
 20
19.87352213695009
 30
0.0
 10
39.74334601577788
 20
19.83849648421931
 30
0.0
  0
SPLINE
  5
1EA
330
1F
100
AcDbEntity
  8
SK3
  6
SLD-Dashed
370
    18
100
AcDbSpline
210
0.0
220
0.0
230
1.0
 70
     8
 71
     3
 72
     8
 73
     4
 74
     0
 42
0.000000001
 43
0.00000001
 40
0.046875000000002
 40
0.046875000000002
 40
0.046875000000002
 40
0.046875000000002
 40
0.0625000000000026
 40
0.0625000000000026
 40
0.0625000000000026
 40
0.0625000000000026
 10
39.74334601577788
 20
19.83849648421931
 30
0.0
 10
39.82724909720108
 20
19.80347083148854
 30
0.0
 10
39.92497670514665
 20
19.76311028108953
 30
0.0
 10
40.03435709862797
 20
19.71878606855014
 30
0.0
  0
SPLINE
  5
1EB
330
1F
100
AcDbEntity
  8
SK3
  6
SLD-Dashed
370
    18
100
AcDbSpline
210
0.0
220
0.0
230
1.0
 70
     8
 71
     3
 72
     8
 73
     4
 74
     0
 42
0.000000001
 43
0.00000001
 40
0.0625000000000026
 40
0.0625000000000026
 40
0.0625000000000026
 40
0.0625000000000026
 40
0.0937500000000039
 40
0.0937500000000039
 40
0.0937500000000039
 40
0.0937500000000039
 10
40.03435709862797
 20
19.71878606855014
 30
0.0
 10
40.25311788559065
 20
19.63013764347138
 30
0.0
 10
40.51981093237659
 20
19.52492810328535
 30
0.0
 10
40.83405851294302
 20
19.40849786846672
 30
0.0
  0
SPLINE
  5
1EC
330
1F
100
AcDbEntity
  8
SK3
  6
SLD-Dashed
370
    18
100
AcDbSpline
210
0.0
220
0.0
230
1.0
 70
     8
 71
     3
 72
     8
 73
     4
 74
     0
 42
0.000000001
 43
0.00000001
 40
0.0937500000000039
 40
0.0937500000000039
 40
0.0937500000000039
 40
0.0937500000000039
 40
0.1093750000000045
 40
0.1093750000000045
 40
0.1093750000000045
 40
0.1093750000000045
 10
40.83405851294302
 20
19.40849786846672
 30
0.0
 10
40.99118230322622
 20
19.35028275105741
 30
0.0
 10
41.16092111099783
 20
19.289057252925
 30
0.0
 10
41.33938770318422
 20
19.22700085357397
 30
0.0
  0
SPLINE
  5
1ED
330
1F
100
AcDbEntity
  8
SK3
  6
SLD-Dashed
370
    18
100
AcDbSpline
210
0.0
220
0.0
230
1.0
 70
     8
 71
     3
 72
     8
 73
     4
 74
     0
 42
0.000000001
 43
0.00000001
 40
0.1093750000000045
 40
0.1093750000000045
 40
0.1093750000000045
 40
0.1093750000000045
 40
0.1250000000000052
 40
0.1250000000000052
 40
0.1250000000000052
 40
0.1250000000000052
 10
41.33938770318422
 20
19.22700085357397
 30
0.0
 10
41.51785429537063
 20
19.16494445422291
 30
0.0
 10
41.70571258211258
 20
19.10179796602637
 30
0.0
 10
41.90288807940907
 20
19.03839290508108
 30
0.0
  0
SPLINE
  5
1EE
330
1F
100
AcDbEntity
  8
SK3
  6
SLD-Dashed
370
    18
100
AcDbSpline
210
0.0
220
0.0
230
1.0
 70
     8
 71
     3
 72
     8
 73
     4
 74
     0
 42
0.000000001
 43
0.00000001
 40
0.1250000000000052
 40
0.1250000000000052
 40
0.1250000000000052
 40
0.1250000000000052
 40
0.1406250000000058
 40
0.1406250000000058
 40
0.1406250000000058
 40
0.1406250000000058
 10
41.90288807940907
 20
19.03839290508108
 30
0.0
 10
42.10006357670552
 20
18.97498784413578
 30
0.0
 10
42.30655604809118
 20
18.91132067162517
 30
0.0
 10
42.5226115204367
 20
18.84824737263471
 30
0.0
  0
SPLINE
  5
1EF
330
1F
100
AcDbEntity
  8
SK3
  6
SLD-Dashed
370
    18
100
AcDbSpline
210
0.0
220
0.0
230
1.0
 70
     8
 71
     3
 72
     8
 73
     4
 74
     0
 42
0.000000001
 43
0.00000001
 40
0.1406250000000058
 40
0.1406250000000058
 40
0.1406250000000058
 40
0.1406250000000058
 40
0.1562500000000064
 40
0.1562500000000064
 40
0.1562500000000064
 40
0.1562500000000064
 10
42.5226115204367
 20
18.84824737263471
 30
0.0
 10
42.73866699278221
 20
18.78517407364425
 30
0.0
 10
42.96527951208058
 20
18.72243685215915
 30
0.0
 10
43.19970169444355
 20
18.66182343120858
 30
0.0
  0
SPLINE
  5
1F0
330
1F
100
AcDbEntity
  8
SK3
  6
SLD-Dashed
370
    18
100
AcDbSpline
210
0.0
220
0.0
230
1.0
 70
     8
 71
     3
 72
     8
 73
     4
 74
     0
 42
0.000000001
 43
0.00000001
 40
0.1562500000000064
 40
0.1562500000000064
 40
0.1562500000000064
 40
0.1562500000000064
 40
0.1875000000000077
 40
0.1875000000000077
 40
0.1875000000000077
 40
0.1875000000000077
 10
43.19970169444355
 20
18.66182343120858
 30
0.0
 10
43.66854605916955
 20
18.54059658930743
 30
0.0
 10
44.16210342221934
 20
18.42936942748127
 30
0.0
 10
44.68116408016583
 20
18.334704488995
 30
0.0
  0
SPLINE
  5
1F1
330
1F
100
AcDbEntity
  8
SK3
  6
SLD-Dashed
370
    18
100
AcDbSpline
210
0.0
220
0.0
230
1.0
 70
     8
 71
     3
 72
     8
 73
     4
 74
     0
 42
0.000000001
 43
0.00000001
 40
0.1875000000000077
 40
0.1875000000000077
 40
0.1875000000000077
 40
0.1875000000000077
 40
0.2031250000000081
 40
0.2031250000000081
 40
0.2031250000000081
 40
0.2031250000000081
 10
44.68116408016583
 20
18.334704488995
 30
0.0
 10
44.94069440913905
 20
18.28737201975186
 30
0.0
 10
45.20664694008335
 20
18.24418571540792
 30
0.0
 10
45.47942196846909
 20
18.20604618127211
 30
0.0
  0
SPLINE
  5
1F2
330
1F
100
AcDbEntity
  8
SK3
  6
SLD-Dashed
370
    18
100
AcDbSpline
210
0.0
220
0.0
230
1.0
 70
     8
 71
     3
 72
     8
 73
     4
 74
     0
 42
0.000000001
 43
0.00000001
 40
0.2031250000000081
 40
0.2031250000000081
 40
0.2031250000000081
 40
0.2031250000000081
 40
0.2187500000000085
 40
0.2187500000000085
 40
0.2187500000000085
 40
0.2187500000000085
 10
45.47942196846909
 20
18.20604618127211
 30
0.0
 10
45.7521969968548
 20
18.1679066471363
 30
0.0
 10
46.03248802957476
 20
18.13484138487184
 30
0.0
 10
46.31263752140362
 20
18.10834987783549
 30
0.0
  0
SPLINE
  5
1F3
330
1F
100
AcDbEntity
  8
SK3
  6
SLD-Dashed
370
    18
100
AcDbSpline
210
0.0
220
0.0
230
1.0
 70
     8
 71
     3
 72
     8
 73
     4
 74
     0
 42
0.000000001
 43
0.00000001
 40
0.2187500000000085
 40
0.2187500000000085
 40
0.2187500000000085
 40
0.2187500000000085
 40
0.2500000000000091
 40
0.2500000000000091
 40
0.2500000000000091
 40
0.2500000000000091
 10
46.31263752140362
 20
18.10834987783549
 30
0.0
 10
46.87293650506132
 20
18.05536686376277
 30
0.0
 10
47.43946502693581
 20
18.02761229245502
 30
0.0
 10
48.0123493426826
 20
18.0272102688999
 30
0.0
  0
SPLINE
  5
1F4
330
1F
100
AcDbEntity
  8
SK3
  6
SLD-Dashed
370
    18
100
AcDbSpline
210
0.0
220
0.0
230
1.0
 70
     8
 71
     3
 72
     8
 73
     4
 74
     0
 42
0.000000001
 43
0.00000001
 40
0.2500000000000091
 40
0.2500000000000091
 40
0.2500000000000091
 40
0.2500000000000091
 40
0.2656250000000092
 40
0.2656250000000092
 40
0.2656250000000092
 40
0.2656250000000092
 10
48.0123493426826
 20
18.0272102688999
 30
0.0
 10
48.29879150055595
 20
18.02700925712235
 30
0.0
 10
48.5885217305612
 20
18.03373024186454
 30
0.0
 10
48.87568643374292
 20
18.04726620429127
 30
0.0
  0
SPLINE
  5
1F5
330
1F
100
AcDbEntity
  8
SK3
  6
SLD-Dashed
370
    18
100
AcDbSpline
210
0.0
220
0.0
230
1.0
 70
     8
 71
     3
 72
     8
 73
     4
 74
     0
 42
0.000000001
 43
0.00000001
 40
0.2656250000000092
 40
0.2656250000000092
 40
0.2656250000000092
 40
0.2656250000000092
 40
0.2812500000000093
 40
0.2812500000000093
 40
0.2812500000000093
 40
0.2812500000000093
 10
48.87568643374292
 20
18.04726620429127
 30
0.0
 10
49.16285113692463
 20
18.060802166718
 30
0.0
 10
49.44603217448253
 20
18.08098770585564
 30
0.0
 10
49.72541435337562
 20
18.10722394551871
 30
0.0
  0
SPLINE
  5
1F6
330
1F
100
AcDbEntity
  8
SK3
  6
SLD-Dashed
370
    18
100
AcDbSpline
210
0.0
220
0.0
230
1.0
 70
     8
 71
     3
 72
     8
 73
     4
 74
     0
 42
0.000000001
 43
0.00000001
 40
0.2812500000000093
 40
0.2812500000000093
 40
0.2812500000000093
 40
0.2812500000000093
 40
0.312500000000009
 40
0.312500000000009
 40
0.312500000000009
 40
0.312500000000009
 10
49.72541435337562
 20
18.10722394551871
 30
0.0
 10
50.28417871116174
 20
18.15969642484479
 30
0.0
 10
50.82991941582036
 20
18.23676628091117
 30
0.0
 10
51.35644944057745
 20
18.33244952032115
 30
0.0
  0
SPLINE
  5
1F7
330
1F
100
AcDbEntity
  8
SK3
  6
SLD-Dashed
370
    18
100
AcDbSpline
210
0.0
220
0.0
230
1.0
 70
     8
 71
     3
 72
     8
 73
     4
 74
     0
 42
0.000000001
 43
0.00000001
 40
0.312500000000009
 40
0.312500000000009
 40
0.312500000000009
 40
0.312500000000009
 40
0.3437500000000088
 40
0.3437500000000088
 40
0.3437500000000088
 40
0.3437500000000088
 10
51.35644944057745
 20
18.33244952032115
 30
0.0
 10
51.88297946533459
 20
18.42813275973114
 30
0.0
 10
52.37777894822264
 20
18.5398029677684
 30
0.0
 10
52.84362400441454
 20
18.66009880295172
 30
0.0
  0
SPLINE
  5
1F8
330
1F
100
AcDbEntity
  8
SK3
  6
SLD-Dashed
370
    18
100
AcDbSpline
210
0.0
220
0.0
230
1.0
 70
     8
 71
     3
 72
     8
 73
     4
 74
     0
 42
0.000000001
 43
0.00000001
 40
0.3437500000000088
 40
0.3437500000000088
 40
0.3437500000000088
 40
0.3437500000000088
 40
0.3750000000000086
 40
0.3750000000000086
 40
0.3750000000000086
 40
0.3750000000000086
 10
52.84362400441454
 20
18.66009880295172
 30
0.0
 10
53.30946906060645
 20
18.78039463813502
 30
0.0
 10
53.74905479782659
 20
18.91044129602186
 30
0.0
 10
54.14442085203704
 20
19.03752771775646
 30
0.0
  0
SPLINE
  5
1F9
330
1F
100
AcDbEntity
  8
SK3
  6
SLD-Dashed
370
    18
100
AcDbSpline
210
0.0
220
0.0
230
1.0
 70
     8
 71
     3
 72
     8
 73
     4
 74
     0
 42
0.000000001
 43
0.00000001
 40
0.3750000000000086
 40
0.3750000000000086
 40
0.3750000000000086
 40
0.3750000000000086
 40
0.4062500000000084
 40
0.4062500000000084
 40
0.4062500000000084
 40
0.4062500000000084
 10
54.14442085203704
 20
19.03752771775646
 30
0.0
 10
54.53978690624751
 20
19.16461413949107
 30
0.0
 10
54.8949461701058
 20
19.28965550332613
 30
0.0
 10
55.20971918273302
 20
19.40619333549813
 30
0.0
  0
SPLINE
  5
1FA
330
1F
100
AcDbEntity
  8
SK3
  6
SLD-Dashed
370
    18
100
AcDbSpline
210
0.0
220
0.0
230
1.0
 70
     8
 71
     3
 72
     8
 73
     4
 74
     0
 42
0.000000001
 43
0.00000001
 40
0.4062500000000084
 40
0.4062500000000084
 40
0.4062500000000084
 40
0.4062500000000084
 40
0.4218750000000083
 40
0.4218750000000083
 40
0.4218750000000083
 40
0.4218750000000083
 10
55.20971918273302
 20
19.40619333549813
 30
0.0
 10
55.36710568904664
 20
19.46446225158412
 30
0.0
 10
55.51474169828689
 20
19.52078687139458
 30
0.0
 10
55.64886876840559
 20
19.57303055323498
 30
0.0
  0
SPLINE
  5
1FB
330
1F
100
AcDbEntity
  8
SK3
  6
SLD-Dashed
370
    18
100
AcDbSpline
210
0.0
220
0.0
230
1.0
 70
     8
 71
     3
 72
     8
 73
     4
 74
     0
 42
0.000000001
 43
0.00000001
 40
0.4218750000000083
 40
0.4218750000000083
 40
0.4218750000000083
 40
0.4218750000000083
 40
0.4375000000000081
 40
0.4375000000000081
 40
0.4375000000000081
 40
0.4375000000000081
 10
55.64886876840559
 20
19.57303055323498
 30
0.0
 10
55.78299583852429
 20
19.62527423507537
 30
0.0
 10
55.90443229933987
 20
19.67373098514269
 30
0.0
 10
56.01333113993532
 20
19.71784938681853
 30
0.0
  0
SPLINE
  5
1FC
330
1F
100
AcDbEntity
  8
SK3
  6
SLD-Dashed
370
    18
100
AcDbSpline
210
0.0
220
0.0
230
1.0
 70
     8
 71
     3
 72
     8
 73
     4
 74
     0
 42
0.000000001
 43
0.00000001
 40
0.4375000000000081
 40
0.4375000000000081
 40
0.4375000000000081
 40
0.4375000000000081
 40
0.4687500000000077
 40
0.4687500000000077
 40
0.4687500000000077
 40
0.4687500000000077
 10
56.01333113993532
 20
19.71784938681853
 30
0.0
 10
56.23112882112623
 20
19.80608619017023
 30
0.0
 10
56.39920328248952
 20
19.87703860530945
 30
0.0
 10
56.51389595506954
 20
19.92590034542971
 30
0.0
  0
SPLINE
  5
1FD
330
1F
100
AcDbEntity
  8
SK3
  6
SLD-Dashed
370
    18
100
AcDbSpline
210
0.0
220
0.0
230
1.0
 70
     8
 71
     3
 72
     8
 73
     4
 74
     0
 42
0.000000001
 43
0.00000001
 40
0.4687500000000077
 40
0.4687500000000077
 40
0.4687500000000077
 40
0.4687500000000077
 40
0.5000000000000073
 40
0.5000000000000073
 40
0.5000000000000073
 40
0.5000000000000073
 10
56.51389595506954
 20
19.92590034542971
 30
0.0
 10
56.62858862764956
 20
19.97476208554998
 30
0.0
 10
56.68551788715277
 20
19.99961798374894
 30
0.0
 10
56.68638990411738
 20
19.99999562777815
 30
0.0
  0
SPLINE
  5
1FE
330
1F
100
AcDbEntity
  8
SK3
  6
SLD-Dashed
370
    18
100
AcDbSpline
210
0.0
220
0.0
230
1.0
 70
     8
 71
     3
 72
     8
 73
     4
 74
     0
 42
0.000000001
 43
0.00000001
 40
0.5156250000000071
 40
0.5156250000000071
 40
0.5156250000000071
 40
0.5156250000000071
 40
0.5312500000000069
 40
0.5312500000000069
 40
0.5312500000000069
 40
0.5312500000000069
 10
56.64507182810836
 20
19.98213673163476
 30
0.0
 10
56.61696723259941
 20
19.97001272131289
 30
0.0
 10
56.57416424527
 20
19.95158577826594
 30
0.0
 10
56.51796947531569
 20
19.92763610036684
 30
0.0
  0
SPLINE
  5
1FF
330
1F
100
AcDbEntity
  8
SK3
  6
SLD-Dashed
370
    18
100
AcDbSpline
210
0.0
220
0.0
230
1.0
 70
     8
 71
     3
 72
     8
 73
     4
 74
     0
 42
0.000000001
 43
0.00000001
 40
0.5312500000000069
 40
0.5312500000000069
 40
0.5312500000000069
 40
0.5312500000000069
 40
0.5625000000000066
 40
0.5625000000000066
 40
0.5625000000000066
 40
0.5625000000000066
 10
56.51796947531569
 20
19.92763610036684
 30
0.0
 10
56.40557993540708
 20
19.87973674456864
 30
0.0
 10
56.23955383449304
 20
19.80956981948621
 30
0.0
 10
56.02079567380959
 20
19.72087468895109
 30
0.0
  0
SPLINE
  5
200
330
1F
100
AcDbEntity
  8
SK3
  6
SLD-Dashed
370
    18
100
AcDbSpline
210
0.0
220
0.0
230
1.0
 70
     8
 71
     3
 72
     8
 73
     4
 74
     0
 42
0.000000001
 43
0.00000001
 40
0.5625000000000066
 40
0.5625000000000066
 40
0.5625000000000066
 40
0.5625000000000066
 40
0.5781250000000064
 40
0.5781250000000064
 40
0.5781250000000064
 40
0.5781250000000064
 10
56.02079567380959
 20
19.72087468895109
 30
0.0
 10
55.91141659346786
 20
19.67652712368353
 30
0.0
 10
55.78818497161321
 20
19.62732702474775
 30
0.0
 10
55.6542013679605
 20
19.57510826414227
 30
0.0
  0
SPLINE
  5
201
330
1F
100
AcDbEntity
  8
SK3
  6
SLD-Dashed
370
    18
100
AcDbSpline
210
0.0
220
0.0
230
1.0
 70
     8
 71
     3
 72
     8
 73
     4
 74
     0
 42
0.000000001
 43
0.00000001
 40
0.5781250000000064
 40
0.5781250000000064
 40
0.5781250000000064
 40
0.5781250000000064
 40
0.5937500000000063
 40
0.5937500000000063
 40
0.5937500000000063
 40
0.5937500000000063
 10
55.6542013679605
 20
19.57510826414227
 30
0.0
 10
55.52021776430781
 20
19.5228895035368
 30
0.0
 10
55.37504740397177
 20
19.46746833609116
 30
0.0
 10
55.21893390544126
 20
19.40960677282919
 30
0.0
  0
SPLINE
  5
202
330
1F
100
AcDbEntity
  8
SK3
  6
SLD-Dashed
370
    18
100
AcDbSpline
210
0.0
220
0.0
230
1.0
 70
     8
 71
     3
 72
     8
 73
     4
 74
     0
 42
0.000000001
 43
0.00000001
 40
0.5937500000000063
 40
0.5937500000000063
 40
0.5937500000000063
 40
0.5937500000000063
 40
0.6093750000000062
 40
0.6093750000000062
 40
0.6093750000000062
 40
0.6093750000000062
 10
55.21893390544126
 20
19.40960677282919
 30
0.0
 10
55.06282040691075
 20
19.35174520956723
 30
0.0
 10
54.89576309558185
 20
19.29143978905709
 30
0.0
 10
54.71763407139572
 20
19.22944359188812
 30
0.0
  0
SPLINE
  5
203
330
1F
100
AcDbEntity
  8
SK3
  6
SLD-Dashed
370
    18
100
AcDbSpline
210
0.0
220
0.0
230
1.0
 70
     8
 71
     3
 72
     8
 73
     4
 74
     0
 42
0.000000001
 43
0.00000001
 40
0.6093750000000062
 40
0.6093750000000062
 40
0.6093750000000062
 40
0.6093750000000062
 40
0.625000000000006
 40
0.625000000000006
 40
0.625000000000006
 40
0.625000000000006
 10
54.71763407139572
 20
19.22944359188812
 30
0.0
 10
54.5395050472096
 20
19.16744739471915
 30
0.0
 10
54.34925585464993
 20
19.10342723449297
 30
0.0
 10
54.15045771868702
 20
19.03946906569146
 30
0.0
  0
SPLINE
  5
204
330
1F
100
AcDbEntity
  8
SK3
  6
SLD-Dashed
370
    18
100
AcDbSpline
210
0.0
220
0.0
230
1.0
 70
     8
 71
     3
 72
     8
 73
     4
 74
     0
 42
0.000000001
 43
0.00000001
 40
0.625000000000006
 40
0.625000000000006
 40
0.625000000000006
 40
0.625000000000006
 40
0.6562500000000056
 40
0.6562500000000056
 40
0.6562500000000056
 40
0.6562500000000056
 10
54.15045771868702
 20
19.03946906569146
 30
0.0
 10
53.7528614467611
 20
18.91155272808842
 30
0.0
 10
53.32220569959047
 20
18.78401801996016
 30
0.0
 10
52.85780745369014
 20
18.66376644529295
 30
0.0
  0
SPLINE
  5
205
330
1F
100
AcDbEntity
  8
SK3
  6
SLD-Dashed
370
    18
100
AcDbSpline
210
0.0
220
0.0
230
1.0
 70
     8
 71
     3
 72
     8
 73
     4
 74
     0
 42
0.000000001
 43
0.00000001
 40
0.6562500000000056
 40
0.6562500000000056
 40
0.6562500000000056
 40
0.6562500000000056
 40
0.6718750000000053
 40
0.6718750000000053
 40
0.6718750000000053
 40
0.6718750000000053
 10
52.85780745369014
 20
18.66376644529295
 30
0.0
 10
52.62560833073992
 20
18.60364065795933
 30
0.0
 10
52.38490627003982
 20
18.54534033654147
 30
0.0
 10
52.13517375633768
 20
18.48982634713715
 30
0.0
  0
SPLINE
  5
206
330
1F
100
AcDbEntity
  8
SK3
  6
SLD-Dashed
370
    18
100
AcDbSpline
210
0.0
220
0.0
230
1.0
 70
     8
 71
     3
 72
     8
 73
     4
 74
     0
 42
0.000000001
 43
0.00000001
 40
0.6718750000000053
 40
0.6718750000000053
 40
0.6718750000000053
 40
0.6718750000000053
 40
0.6875000000000051
 40
0.6875000000000051
 40
0.6875000000000051
 40
0.6875000000000051
 10
52.13517375633768
 20
18.48982634713715
 30
0.0
 10
51.88544124263557
 20
18.43431235773282
 30
0.0
 10
51.62857939188102
 20
18.38206490176744
 30
0.0
 10
51.36803915886691
 20
18.33455919452981
 30
0.0
  0
SPLINE
  5
207
330
1F
100
AcDbEntity
  8
SK3
  6
SLD-Dashed
370
    18
100
AcDbSpline
210
0.0
220
0.0
230
1.0
 70
     8
 71
     3
 72
     8
 73
     4
 74
     0
 42
0.000000001
 43
0.00000001
 40
0.6875000000000051
 40
0.6875000000000051
 40
0.6875000000000051
 40
0.6875000000000051
 40
0.7187500000000043
 40
0.7187500000000043
 40
0.7187500000000043
 40
0.7187500000000043
 10
51.36803915886691
 20
18.33455919452981
 30
0.0
 10
50.84695869283871
 20
18.23954778005454
 30
0.0
 10
50.30716664595715
 20
18.16254092498844
 30
0.0
 10
49.74736620437807
 20
18.10929858890135
 30
0.0
  0
SPLINE
  5
208
330
1F
100
AcDbEntity
  8
SK3
  6
SLD-Dashed
370
    18
100
AcDbSpline
210
0.0
220
0.0
230
1.0
 70
     8
 71
     3
 72
     8
 73
     4
 74
     0
 42
0.000000001
 43
0.00000001
 40
0.7187500000000043
 40
0.7187500000000043
 40
0.7187500000000043
 40
0.7187500000000043
 40
0.734375000000004
 40
0.734375000000004
 40
0.734375000000004
 40
0.734375000000004
 10
49.74736620437807
 20
18.10929858890135
 30
0.0
 10
49.46746598358852
 20
18.08267742085778
 30
0.0
 10
49.18057275760564
 20
18.06193331303373
 30
0.0
 10
48.89377313058966
 20
18.04812779189118
 30
0.0
  0
SPLINE
  5
209
330
1F
100
AcDbEntity
  8
SK3
  6
SLD-Dashed
370
    18
100
AcDbSpline
210
0.0
220
0.0
230
1.0
 70
     8
 71
     3
 72
     8
 73
     4
 74
     0
 42
0.000000001
 43
0.00000001
 40
0.734375000000004
 40
0.734375000000004
 40
0.734375000000004
 40
0.734375000000004
 40
0.7500000000000037
 40
0.7500000000000037
 40
0.7500000000000037
 40
0.7500000000000037
 10
48.89377313058966
 20
18.04812779189118
 30
0.0
 10
48.60697350357372
 20
18.0343222707486
 30
0.0
 10
48.32072017421311
 20
18.02736710848439
 30
0.0
 10
48.03500069203669
 20
18.02720860404741
 30
0.0
  0
SPLINE
  5
20A
330
1F
100
AcDbEntity
  8
SK3
  6
SLD-Dashed
370
    18
100
AcDbSpline
210
0.0
220
0.0
230
1.0
 70
     8
 71
     3
 72
     8
 73
     4
 74
     0
 42
0.000000001
 43
0.00000001
 40
0.7500000000000037
 40
0.7500000000000037
 40
0.7500000000000037
 40
0.7500000000000037
 40
0.7812500000000033
 40
0.7812500000000033
 40
0.7812500000000033
 40
0.7812500000000033
 10
48.03500069203669
 20
18.02720860404741
 30
0.0
 10
47.4635617276838
 20
18.02689159517346
 30
0.0
 10
46.89321038192933
 20
18.05390494506839
 30
0.0
 10
46.32714378789306
 20
18.1069838945361
 30
0.0
  0
SPLINE
  5
20B
330
1F
100
AcDbEntity
  8
SK3
  6
SLD-Dashed
370
    18
100
AcDbSpline
210
0.0
220
0.0
230
1.0
 70
     8
 71
     3
 72
     8
 73
     4
 74
     0
 42
0.000000001
 43
0.00000001
 40
0.7812500000000033
 40
0.7812500000000033
 40
0.7812500000000033
 40
0.7812500000000033
 40
0.812500000000003
 40
0.812500000000003
 40
0.812500000000003
 40
0.812500000000003
 10
46.32714378789306
 20
18.1069838945361
 30
0.0
 10
45.76107719385676
 20
18.16006284400381
 30
0.0
 10
45.21795992540397
 20
18.23721192164199
 30
0.0
 10
44.69573376997139
 20
18.33205290387327
 30
0.0
  0
SPLINE
  5
20C
330
1F
100
AcDbEntity
  8
SK3
  6
SLD-Dashed
370
    18
100
AcDbSpline
210
0.0
220
0.0
230
1.0
 70
     8
 71
     3
 72
     8
 73
     4
 74
     0
 42
0.000000001
 43
0.00000001
 40
0.812500000000003
 40
0.812500000000003
 40
0.812500000000003
 40
0.812500000000003
 40
0.8437500000000027
 40
0.8437500000000027
 40
0.8437500000000027
 40
0.8437500000000027
 10
44.69573376997139
 20
18.33205290387327
 30
0.0
 10
44.17350761453882
 20
18.42689388610457
 30
0.0
 10
43.66883601579756
 20
18.54059595724963
 30
0.0
 10
43.20288134997728
 20
18.66100153568658
 30
0.0
  0
SPLINE
  5
20D
330
1F
100
AcDbEntity
  8
SK3
  6
SLD-Dashed
370
    18
100
AcDbSpline
210
0.0
220
0.0
230
1.0
 70
     8
 71
     3
 72
     8
 73
     4
 74
     0
 42
0.000000001
 43
0.00000001
 40
0.8437500000000027
 40
0.8437500000000027
 40
0.8437500000000027
 40
0.8437500000000027
 40
0.8750000000000022
 40
0.8750000000000022
 40
0.8750000000000022
 40
0.8750000000000022
 10
43.20288134997728
 20
18.66100153568658
 30
0.0
 10
42.73692668415701
 20
18.78140711412352
 30
0.0
 10
42.30509941330103
 20
18.90912493050696
 30
0.0
 10
41.90658815884778
 20
19.03720340538367
 30
0.0
  0
SPLINE
  5
20E
330
1F
100
AcDbEntity
  8
SK3
  6
SLD-Dashed
370
    18
100
AcDbSpline
210
0.0
220
0.0
230
1.0
 70
     8
 71
     3
 72
     8
 73
     4
 74
     0
 42
0.000000001
 43
0.00000001
 40
0.8750000000000022
 40
0.8750000000000022
 40
0.8750000000000022
 40
0.8750000000000022
 40
0.8906250000000019
 40
0.8906250000000019
 40
0.8906250000000019
 40
0.8906250000000019
 10
41.90658815884778
 20
19.03720340538367
 30
0.0
 10
41.70733253162116
 20
19.10124264282201
 30
0.0
 10
41.51697872188055
 20
19.16524405351096
 30
0.0
 10
41.33879075964612
 20
19.22720843091355
 30
0.0
  0
SPLINE
  5
20F
330
1F
100
AcDbEntity
  8
SK3
  6
SLD-Dashed
370
    18
100
AcDbSpline
210
0.0
220
0.0
230
1.0
 70
     8
 71
     3
 72
     8
 73
     4
 74
     0
 42
0.000000001
 43
0.00000001
 40
0.8906250000000019
 40
0.8906250000000019
 40
0.8906250000000019
 40
0.8906250000000019
 40
0.9062500000000016
 40
0.9062500000000016
 40
0.9062500000000016
 40
0.9062500000000016
 10
41.33879075964612
 20
19.22720843091355
 30
0.0
 10
41.16060279741173
 20
19.28917280831613
 30
0.0
 10
40.99354913163893
 20
19.34942973740239
 30
0.0
 10
40.83746685590488
 20
19.40723531926858
 30
0.0
  0
SPLINE
  5
210
330
1F
100
AcDbEntity
  8
SK3
  6
SLD-Dashed
370
    18
100
AcDbSpline
210
0.0
220
0.0
230
1.0
 70
     8
 71
     3
 72
     8
 73
     4
 74
     0
 42
0.000000001
 43
0.00000001
 40
0.9062500000000016
 40
0.9062500000000016
 40
0.9062500000000016
 40
0.9062500000000016
 40
0.9218750000000012
 40
0.9218750000000012
 40
0.9218750000000012
 40
0.9218750000000012
 10
40.83746685590488
 20
19.40723531926858
 30
0.0
 10
40.6813845801708
 20
19.46504090113477
 30
0.0
 10
40.53627341917036
 20
19.52039852183562
 30
0.0
 10
40.40233988988327
 20
19.57255980178281
 30
0.0
  0
SPLINE
  5
211
330
1F
100
AcDbEntity
  8
SK3
  6
SLD-Dashed
370
    18
100
AcDbSpline
210
0.0
220
0.0
230
1.0
 70
     8
 71
     3
 72
     8
 73
     4
 74
     0
 42
0.000000001
 43
0.00000001
 40
0.9218750000000012
 40
0.9218750000000012
 40
0.9218750000000012
 40
0.9218750000000012
 40
0.9375000000000009
 40
0.9375000000000009
 40
0.9375000000000009
 40
0.9375000000000009
 10
40.40233988988327
 20
19.57255980178281
 30
0.0
 10
40.26840636059616
 20
19.62472108172999
 30
0.0
 10
40.14511054404137
 20
19.67390794633356
 30
0.0
 10
40.03488924355995
 20
19.71857043348173
 30
0.0
  0
SPLINE
  5
212
330
1F
100
AcDbEntity
  8
SK3
  6
SLD-Dashed
370
    18
100
AcDbSpline
210
0.0
220
0.0
230
1.0
 70
     8
 71
     3
 72
     8
 73
     4
 74
     0
 42
0.000000001
 43
0.00000001
 40
0.9375000000000009
 40
0.9375000000000009
 40
0.9375000000000009
 40
0.9375000000000009
 40
0.9687500000000004
 40
0.9687500000000004
 40
0.9687500000000004
 40
0.9687500000000004
 10
40.03488924355995
 20
19.71857043348173
 30
0.0
 10
39.8144466425971
 20
19.80789540777804
 30
0.0
 10
39.64816924412869
 20
19.87815467160538
 30
0.0
 10
39.53538979583902
 20
19.92620464259549
 30
0.0
  0
SPLINE
  5
213
330
1F
100
AcDbEntity
  8
SK3
  6
SLD-Dashed
370
    18
100
AcDbSpline
210
0.0
220
0.0
230
1.0
 70
     8
 71
     3
 72
     8
 73
     4
 74
     0
 42
0.000000001
 43
0.00000001
 40
0.9687500000000004
 40
0.9687500000000004
 40
0.9687500000000004
 40
0.9687500000000004
 40
0.9843750000000002
 40
0.9843750000000002
 40
0.9843750000000002
 40
0.9843750000000002
 10
39.53538979583902
 20
19.92620464259549
 30
0.0
 10
39.47900007169418
 20
19.95022962809054
 30
0.0
 10
39.43608461834653
 20
19.96869895366943
 30
0.0
 10
39.40719048355333
 20
19.98116089975152
 30
0.0
  0
SPLINE
  5
214
330
1F
100
AcDbEntity
  8
SK3
  6
SLD-Dashed
370
    18
100
AcDbSpline
210
0.0
220
0.0
230
1.0
 70
     8
 71
     2
 72
     6
 73
     3
 74
     0
 42
0.000000001
 43
0.00000001
 40
0.9843750000000002
 40
0.9843750000000002
 40
0.9843750000000002
 40
1.0
 40
1.0
 40
1.0
 10
39.40719048355333
 20
19.98116089975152
 30
0.0
 10
39.37829634876015
 20
19.99362284583361
 30
0.0
 10
39.36360000000001
 20
20.0
 30
0.0
  0
SPLINE
  5
215
330
1F
100
AcDbEntity
  8
SK3
  6
SLD-Dashed
370
    18
100
AcDbSpline
210
0.0
220
0.0
230
1.0
 70
     8
 71
     2
 72
     6
 73
     3
 74
     0
 42
0.000000001
 43
0.00000001
 40
0.0
 40
0.0
 40
0.0
 40
0.0312500000000013
 40
0.0312500000000013
 40
0.0312500000000013
 10
39.36360000000001
 20
20.0
 30
0.0
 10
39.42121011272505
 20
19.9748602310944
 30
0.0
 10
39.53344476870672
 20
19.9270334040495
 30
0.0
  0
SPLINE
  5
216
330
1F
100
AcDbEntity
  8
SK3
  6
SLD-Dashed
370
    18
100
AcDbSpline
210
0.0
220
0.0
230
1.0
 70
     8
 71
     3
 72
     8
 73
     4
 74
     0
 42
0.000000001
 43
0.00000001
 40
0.0312500000000013
 40
0.0312500000000013
 40
0.0312500000000013
 40
0.0312500000000013
 40
0.046875000000002
 40
0.046875000000002
 40
0.046875000000002
 40
0.046875000000002
 10
39.53344476870672
 20
19.9270334040495
 30
0.0
 10
39.58956209669755
 20
19.90311999052705
 30
0.0
 10
39.65944293435462
 20
19.87352213695009
 30
0.0
 10
39.74334601577788
 20
19.83849648421931
 30
0.0
  0
SPLINE
  5
217
330
1F
100
AcDbEntity
  8
SK3
  6
SLD-Dashed
370
    18
100
AcDbSpline
210
0.0
220
0.0
230
1.0
 70
     8
 71
     3
 72
     8
 73
     4
 74
     0
 42
0.000000001
 43
0.00000001
 40
0.046875000000002
 40
0.046875000000002
 40
0.046875000000002
 40
0.046875000000002
 40
0.0625000000000026
 40
0.0625000000000026
 40
0.0625000000000026
 40
0.0625000000000026
 10
39.74334601577788
 20
19.83849648421931
 30
0.0
 10
39.82724909720108
 20
19.80347083148854
 30
0.0
 10
39.92497670514665
 20
19.76311028108953
 30
0.0
 10
40.03435709862797
 20
19.71878606855014
 30
0.0
  0
SPLINE
  5
218
330
1F
100
AcDbEntity
  8
SK3
  6
SLD-Dashed
370
    18
100
AcDbSpline
210
0.0
220
0.0
230
1.0
 70
     8
 71
     3
 72
     8
 73
     4
 74
     0
 42
0.000000001
 43
0.00000001
 40
0.0625000000000026
 40
0.0625000000000026
 40
0.0625000000000026
 40
0.0625000000000026
 40
0.0937500000000039
 40
0.0937500000000039
 40
0.0937500000000039
 40
0.0937500000000039
 10
40.03435709862797
 20
19.71878606855014
 30
0.0
 10
40.25311788559065
 20
19.63013764347138
 30
0.0
 10
40.51981093237659
 20
19.52492810328535
 30
0.0
 10
40.83405851294302
 20
19.40849786846672
 30
0.0
  0
SPLINE
  5
219
330
1F
100
AcDbEntity
  8
SK3
  6
SLD-Dashed
370
    18
100
AcDbSpline
210
0.0
220
0.0
230
1.0
 70
     8
 71
     3
 72
     8
 73
     4
 74
     0
 42
0.000000001
 43
0.00000001
 40
0.0937500000000039
 40
0.0937500000000039
 40
0.0937500000000039
 40
0.0937500000000039
 40
0.1093750000000045
 40
0.1093750000000045
 40
0.1093750000000045
 40
0.1093750000000045
 10
40.83405851294302
 20
19.40849786846672
 30
0.0
 10
40.99118230322622
 20
19.35028275105741
 30
0.0
 10
41.16092111099783
 20
19.289057252925
 30
0.0
 10
41.33938770318422
 20
19.22700085357397
 30
0.0
  0
SPLINE
  5
21A
330
1F
100
AcDbEntity
  8
SK3
  6
SLD-Dashed
370
    18
100
AcDbSpline
210
0.0
220
0.0
230
1.0
 70
     8
 71
     3
 72
     8
 73
     4
 74
     0
 42
0.000000001
 43
0.00000001
 40
0.1093750000000045
 40
0.1093750000000045
 40
0.1093750000000045
 40
0.1093750000000045
 40
0.1250000000000052
 40
0.1250000000000052
 40
0.1250000000000052
 40
0.1250000000000052
 10
41.33938770318422
 20
19.22700085357397
 30
0.0
 10
41.51785429537063
 20
19.16494445422291
 30
0.0
 10
41.70571258211258
 20
19.10179796602637
 30
0.0
 10
41.90288807940907
 20
19.03839290508108
 30
0.0
  0
SPLINE
  5
21B
330
1F
100
AcDbEntity
  8
SK3
  6
SLD-Dashed
370
    18
100
AcDbSpline
210
0.0
220
0.0
230
1.0
 70
     8
 71
     3
 72
     8
 73
     4
 74
     0
 42
0.000000001
 43
0.00000001
 40
0.1250000000000052
 40
0.1250000000000052
 40
0.1250000000000052
 40
0.1250000000000052
 40
0.1406250000000058
 40
0.1406250000000058
 40
0.1406250000000058
 40
0.1406250000000058
 10
41.90288807940907
 20
19.03839290508108
 30
0.0
 10
42.10006357670552
 20
18.97498784413578
 30
0.0
 10
42.30655604809118
 20
18.91132067162517
 30
0.0
 10
42.5226115204367
 20
18.84824737263471
 30
0.0
  0
SPLINE
  5
21C
330
1F
100
AcDbEntity
  8
SK3
  6
SLD-Dashed
370
    18
100
AcDbSpline
210
0.0
220
0.0
230
1.0
 70
     8
 71
     3
 72
     8
 73
     4
 74
     0
 42
0.000000001
 43
0.00000001
 40
0.1406250000000058
 40
0.1406250000000058
 40
0.1406250000000058
 40
0.1406250000000058
 40
0.1562500000000064
 40
0.1562500000000064
 40
0.1562500000000064
 40
0.1562500000000064
 10
42.5226115204367
 20
18.84824737263471
 30
0.0
 10
42.73866699278221
 20
18.78517407364425
 30
0.0
 10
42.96527951208058
 20
18.72243685215915
 30
0.0
 10
43.19970169444355
 20
18.66182343120858
 30
0.0
  0
SPLINE
  5
21D
330
1F
100
AcDbEntity
  8
SK3
  6
SLD-Dashed
370
    18
100
AcDbSpline
210
0.0
220
0.0
230
1.0
 70
     8
 71
     3
 72
     8
 73
     4
 74
     0
 42
0.000000001
 43
0.00000001
 40
0.1562500000000064
 40
0.1562500000000064
 40
0.1562500000000064
 40
0.1562500000000064
 40
0.1875000000000077
 40
0.1875000000000077
 40
0.1875000000000077
 40
0.1875000000000077
 10
43.19970169444355
 20
18.66182343120858
 30
0.0
 10
43.66854605916955
 20
18.54059658930743
 30
0.0
 10
44.16210342221934
 20
18.42936942748127
 30
0.0
 10
44.68116408016583
 20
18.334704488995
 30
0.0
  0
SPLINE
  5
21E
330
1F
100
AcDbEntity
  8
SK3
  6
SLD-Dashed
370
    18
100
AcDbSpline
210
0.0
220
0.0
230
1.0
 70
     8
 71
     3
 72
     8
 73
     4
 74
     0
 42
0.000000001
 43
0.00000001
 40
0.1875000000000077
 40
0.1875000000000077
 40
0.1875000000000077
 40
0.1875000000000077
 40
0.2031250000000081
 40
0.2031250000000081
 40
0.2031250000000081
 40
0.2031250000000081
 10
44.68116408016583
 20
18.334704488995
 30
0.0
 10
44.94069440913905
 20
18.28737201975186
 30
0.0
 10
45.20664694008335
 20
18.24418571540792
 30
0.0
 10
45.47942196846909
 20
18.20604618127211
 30
0.0
  0
SPLINE
  5
21F
330
1F
100
AcDbEntity
  8
SK3
  6
SLD-Dashed
370
    18
100
AcDbSpline
210
0.0
220
0.0
230
1.0
 70
     8
 71
     3
 72
     8
 73
     4
 74
     0
 42
0.000000001
 43
0.00000001
 40
0.2031250000000081
 40
0.2031250000000081
 40
0.2031250000000081
 40
0.2031250000000081
 40
0.2187500000000085
 40
0.2187500000000085
 40
0.2187500000000085
 40
0.2187500000000085
 10
45.47942196846909
 20
18.20604618127211
 30
0.0
 10
45.7521969968548
 20
18.1679066471363
 30
0.0
 10
46.03248802957476
 20
18.13484138487184
 30
0.0
 10
46.31263752140362
 20
18.10834987783549
 30
0.0
  0
SPLINE
  5
220
330
1F
100
AcDbEntity
  8
SK3
  6
SLD-Dashed
370
    18
100
AcDbSpline
210
0.0
220
0.0
230
1.0
 70
     8
 71
     3
 72
     8
 73
     4
 74
     0
 42
0.000000001
 43
0.00000001
 40
0.2187500000000085
 40
0.2187500000000085
 40
0.2187500000000085
 40
0.2187500000000085
 40
0.2500000000000091
 40
0.2500000000000091
 40
0.2500000000000091
 40
0.2500000000000091
 10
46.31263752140362
 20
18.10834987783549
 30
0.0
 10
46.87293650506132
 20
18.05536686376277
 30
0.0
 10
47.43946502693581
 20
18.02761229245502
 30
0.0
 10
48.0123493426826
 20
18.0272102688999
 30
0.0
  0
SPLINE
  5
221
330
1F
100
AcDbEntity
  8
SK3
  6
SLD-Dashed
370
    18
100
AcDbSpline
210
0.0
220
0.0
230
1.0
 70
     8
 71
     3
 72
     8
 73
     4
 74
     0
 42
0.000000001
 43
0.00000001
 40
0.2500000000000091
 40
0.2500000000000091
 40
0.2500000000000091
 40
0.2500000000000091
 40
0.2656250000000092
 40
0.2656250000000092
 40
0.2656250000000092
 40
0.2656250000000092
 10
48.0123493426826
 20
18.0272102688999
 30
0.0
 10
48.29879150055595
 20
18.02700925712235
 30
0.0
 10
48.5885217305612
 20
18.03373024186454
 30
0.0
 10
48.87568643374292
 20
18.04726620429127
 30
0.0
  0
SPLINE
  5
222
330
1F
100
AcDbEntity
  8
SK3
  6
SLD-Dashed
370
    18
100
AcDbSpline
210
0.0
220
0.0
230
1.0
 70
     8
 71
     3
 72
     8
 73
     4
 74
     0
 42
0.000000001
 43
0.00000001
 40
0.2656250000000092
 40
0.2656250000000092
 40
0.2656250000000092
 40
0.2656250000000092
 40
0.2812500000000093
 40
0.2812500000000093
 40
0.2812500000000093
 40
0.2812500000000093
 10
48.87568643374292
 20
18.04726620429127
 30
0.0
 10
49.16285113692463
 20
18.060802166718
 30
0.0
 10
49.44603217448253
 20
18.08098770585564
 30
0.0
 10
49.72541435337562
 20
18.10722394551871
 30
0.0
  0
SPLINE
  5
223
330
1F
100
AcDbEntity
  8
SK3
  6
SLD-Dashed
370
    18
100
AcDbSpline
210
0.0
220
0.0
230
1.0
 70
     8
 71
     3
 72
     8
 73
     4
 74
     0
 42
0.000000001
 43
0.00000001
 40
0.2812500000000093
 40
0.2812500000000093
 40
0.2812500000000093
 40
0.2812500000000093
 40
0.312500000000009
 40
0.312500000000009
 40
0.312500000000009
 40
0.312500000000009
 10
49.72541435337562
 20
18.10722394551871
 30
0.0
 10
50.28417871116174
 20
18.15969642484479
 30
0.0
 10
50.82991941582036
 20
18.23676628091117
 30
0.0
 10
51.35644944057745
 20
18.33244952032115
 30
0.0
  0
SPLINE
  5
224
330
1F
100
AcDbEntity
  8
SK3
  6
SLD-Dashed
370
    18
100
AcDbSpline
210
0.0
220
0.0
230
1.0
 70
     8
 71
     3
 72
     8
 73
     4
 74
     0
 42
0.000000001
 43
0.00000001
 40
0.312500000000009
 40
0.312500000000009
 40
0.312500000000009
 40
0.312500000000009
 40
0.3437500000000088
 40
0.3437500000000088
 40
0.3437500000000088
 40
0.3437500000000088
 10
51.35644944057745
 20
18.33244952032115
 30
0.0
 10
51.88297946533459
 20
18.42813275973114
 30
0.0
 10
52.37777894822264
 20
18.5398029677684
 30
0.0
 10
52.84362400441454
 20
18.66009880295172
 30
0.0
  0
SPLINE
  5
225
330
1F
100
AcDbEntity
  8
SK3
  6
SLD-Dashed
370
    18
100
AcDbSpline
210
0.0
220
0.0
230
1.0
 70
     8
 71
     3
 72
     8
 73
     4
 74
     0
 42
0.000000001
 43
0.00000001
 40
0.3437500000000088
 40
0.3437500000000088
 40
0.3437500000000088
 40
0.3437500000000088
 40
0.3750000000000086
 40
0.3750000000000086
 40
0.3750000000000086
 40
0.3750000000000086
 10
52.84362400441454
 20
18.66009880295172
 30
0.0
 10
53.30946906060645
 20
18.78039463813502
 30
0.0
 10
53.74905479782659
 20
18.91044129602186
 30
0.0
 10
54.14442085203704
 20
19.03752771775646
 30
0.0
  0
SPLINE
  5
226
330
1F
100
AcDbEntity
  8
SK3
  6
SLD-Dashed
370
    18
100
AcDbSpline
210
0.0
220
0.0
230
1.0
 70
     8
 71
     3
 72
     8
 73
     4
 74
     0
 42
0.000000001
 43
0.00000001
 40
0.3750000000000086
 40
0.3750000000000086
 40
0.3750000000000086
 40
0.3750000000000086
 40
0.4062500000000084
 40
0.4062500000000084
 40
0.4062500000000084
 40
0.4062500000000084
 10
54.14442085203704
 20
19.03752771775646
 30
0.0
 10
54.53978690624751
 20
19.16461413949107
 30
0.0
 10
54.8949461701058
 20
19.28965550332613
 30
0.0
 10
55.20971918273302
 20
19.40619333549813
 30
0.0
  0
SPLINE
  5
227
330
1F
100
AcDbEntity
  8
SK3
  6
SLD-Dashed
370
    18
100
AcDbSpline
210
0.0
220
0.0
230
1.0
 70
     8
 71
     3
 72
     8
 73
     4
 74
     0
 42
0.000000001
 43
0.00000001
 40
0.4062500000000084
 40
0.4062500000000084
 40
0.4062500000000084
 40
0.4062500000000084
 40
0.4218750000000083
 40
0.4218750000000083
 40
0.4218750000000083
 40
0.4218750000000083
 10
55.20971918273302
 20
19.40619333549813
 30
0.0
 10
55.36710568904664
 20
19.46446225158412
 30
0.0
 10
55.51474169828689
 20
19.52078687139458
 30
0.0
 10
55.64886876840559
 20
19.57303055323498
 30
0.0
  0
SPLINE
  5
228
330
1F
100
AcDbEntity
  8
SK3
  6
SLD-Dashed
370
    18
100
AcDbSpline
210
0.0
220
0.0
230
1.0
 70
     8
 71
     3
 72
     8
 73
     4
 74
     0
 42
0.000000001
 43
0.00000001
 40
0.4218750000000083
 40
0.4218750000000083
 40
0.4218750000000083
 40
0.4218750000000083
 40
0.4375000000000081
 40
0.4375000000000081
 40
0.4375000000000081
 40
0.4375000000000081
 10
55.64886876840559
 20
19.57303055323498
 30
0.0
 10
55.78299583852429
 20
19.62527423507537
 30
0.0
 10
55.90443229933987
 20
19.67373098514269
 30
0.0
 10
56.01333113993532
 20
19.71784938681853
 30
0.0
  0
SPLINE
  5
229
330
1F
100
AcDbEntity
  8
SK3
  6
SLD-Dashed
370
    18
100
AcDbSpline
210
0.0
220
0.0
230
1.0
 70
     8
 71
     3
 72
     8
 73
     4
 74
     0
 42
0.000000001
 43
0.00000001
 40
0.4375000000000081
 40
0.4375000000000081
 40
0.4375000000000081
 40
0.4375000000000081
 40
0.4687500000000077
 40
0.4687500000000077
 40
0.4687500000000077
 40
0.4687500000000077
 10
56.01333113993532
 20
19.71784938681853
 30
0.0
 10
56.23112882112623
 20
19.80608619017023
 30
0.0
 10
56.39920328248952
 20
19.87703860530945
 30
0.0
 10
56.51389595506954
 20
19.92590034542971
 30
0.0
  0
SPLINE
  5
22A
330
1F
100
AcDbEntity
  8
SK3
  6
SLD-Dashed
370
    18
100
AcDbSpline
210
0.0
220
0.0
230
1.0
 70
     8
 71
     3
 72
     8
 73
     4
 74
     0
 42
0.000000001
 43
0.00000001
 40
0.4687500000000077
 40
0.4687500000000077
 40
0.4687500000000077
 40
0.4687500000000077
 40
0.5000000000000073
 40
0.5000000000000073
 40
0.5000000000000073
 40
0.5000000000000073
 10
56.51389595506954
 20
19.92590034542971
 30
0.0
 10
56.62858862764956
 20
19.97476208554998
 30
0.0
 10
56.68551788715277
 20
19.99961798374894
 30
0.0
 10
56.68638990411738
 20
19.99999562777815
 30
0.0
  0
SPLINE
  5
22B
330
1F
100
AcDbEntity
  8
SK3
  6
SLD-Dashed
370
    18
100
AcDbSpline
210
0.0
220
0.0
230
1.0
 70
     8
 71
     3
 72
     8
 73
     4
 74
     0
 42
0.000000001
 43
0.00000001
 40
0.5156250000000071
 40
0.5156250000000071
 40
0.5156250000000071
 40
0.5156250000000071
 40
0.5312500000000069
 40
0.5312500000000069
 40
0.5312500000000069
 40
0.5312500000000069
 10
56.64507182810836
 20
19.98213673163476
 30
0.0
 10
56.61696723259941
 20
19.97001272131289
 30
0.0
 10
56.57416424527
 20
19.95158577826594
 30
0.0
 10
56.51796947531569
 20
19.92763610036684
 30
0.0
  0
SPLINE
  5
22C
330
1F
100
AcDbEntity
  8
SK3
  6
SLD-Dashed
370
    18
100
AcDbSpline
210
0.0
220
0.0
230
1.0
 70
     8
 71
     3
 72
     8
 73
     4
 74
     0
 42
0.000000001
 43
0.00000001
 40
0.5312500000000069
 40
0.5312500000000069
 40
0.5312500000000069
 40
0.5312500000000069
 40
0.5625000000000066
 40
0.5625000000000066
 40
0.5625000000000066
 40
0.5625000000000066
 10
56.51796947531569
 20
19.92763610036684
 30
0.0
 10
56.40557993540708
 20
19.87973674456864
 30
0.0
 10
56.23955383449304
 20
19.80956981948621
 30
0.0
 10
56.02079567380959
 20
19.72087468895109
 30
0.0
  0
SPLINE
  5
22D
330
1F
100
AcDbEntity
  8
SK3
  6
SLD-Dashed
370
    18
100
AcDbSpline
210
0.0
220
0.0
230
1.0
 70
     8
 71
     3
 72
     8
 73
     4
 74
     0
 42
0.000000001
 43
0.00000001
 40
0.5625000000000066
 40
0.5625000000000066
 40
0.5625000000000066
 40
0.5625000000000066
 40
0.5781250000000064
 40
0.5781250000000064
 40
0.5781250000000064
 40
0.5781250000000064
 10
56.02079567380959
 20
19.72087468895109
 30
0.0
 10
55.91141659346786
 20
19.67652712368353
 30
0.0
 10
55.78818497161321
 20
19.62732702474775
 30
0.0
 10
55.6542013679605
 20
19.57510826414227
 30
0.0
  0
SPLINE
  5
22E
330
1F
100
AcDbEntity
  8
SK3
  6
SLD-Dashed
370
    18
100
AcDbSpline
210
0.0
220
0.0
230
1.0
 70
     8
 71
     3
 72
     8
 73
     4
 74
     0
 42
0.000000001
 43
0.00000001
 40
0.5781250000000064
 40
0.5781250000000064
 40
0.5781250000000064
 40
0.5781250000000064
 40
0.5937500000000063
 40
0.5937500000000063
 40
0.5937500000000063
 40
0.5937500000000063
 10
55.6542013679605
 20
19.57510826414227
 30
0.0
 10
55.52021776430781
 20
19.5228895035368
 30
0.0
 10
55.37504740397177
 20
19.46746833609116
 30
0.0
 10
55.21893390544126
 20
19.40960677282919
 30
0.0
  0
SPLINE
  5
22F
330
1F
100
AcDbEntity
  8
SK3
  6
SLD-Dashed
370
    18
100
AcDbSpline
210
0.0
220
0.0
230
1.0
 70
     8
 71
     3
 72
     8
 73
     4
 74
     0
 42
0.000000001
 43
0.00000001
 40
0.5937500000000063
 40
0.5937500000000063
 40
0.5937500000000063
 40
0.5937500000000063
 40
0.6093750000000062
 40
0.6093750000000062
 40
0.6093750000000062
 40
0.6093750000000062
 10
55.21893390544126
 20
19.40960677282919
 30
0.0
 10
55.06282040691075
 20
19.35174520956723
 30
0.0
 10
54.89576309558185
 20
19.29143978905709
 30
0.0
 10
54.71763407139572
 20
19.22944359188812
 30
0.0
  0
SPLINE
  5
230
330
1F
100
AcDbEntity
  8
SK3
  6
SLD-Dashed
370
    18
100
AcDbSpline
210
0.0
220
0.0
230
1.0
 70
     8
 71
     3
 72
     8
 73
     4
 74
     0
 42
0.000000001
 43
0.00000001
 40
0.6093750000000062
 40
0.6093750000000062
 40
0.6093750000000062
 40
0.6093750000000062
 40
0.625000000000006
 40
0.625000000000006
 40
0.625000000000006
 40
0.625000000000006
 10
54.71763407139572
 20
19.22944359188812
 30
0.0
 10
54.5395050472096
 20
19.16744739471915
 30
0.0
 10
54.34925585464993
 20
19.10342723449297
 30
0.0
 10
54.15045771868702
 20
19.03946906569146
 30
0.0
  0
SPLINE
  5
231
330
1F
100
AcDbEntity
  8
SK3
  6
SLD-Dashed
370
    18
100
AcDbSpline
210
0.0
220
0.0
230
1.0
 70
     8
 71
     3
 72
     8
 73
     4
 74
     0
 42
0.000000001
 43
0.00000001
 40
0.625000000000006
 40
0.625000000000006
 40
0.625000000000006
 40
0.625000000000006
 40
0.6562500000000056
 40
0.6562500000000056
 40
0.6562500000000056
 40
0.6562500000000056
 10
54.15045771868702
 20
19.03946906569146
 30
0.0
 10
53.7528614467611
 20
18.91155272808842
 30
0.0
 10
53.32220569959047
 20
18.78401801996016
 30
0.0
 10
52.85780745369014
 20
18.66376644529295
 30
0.0
  0
SPLINE
  5
232
330
1F
100
AcDbEntity
  8
SK3
  6
SLD-Dashed
370
    18
100
AcDbSpline
210
0.0
220
0.0
230
1.0
 70
     8
 71
     3
 72
     8
 73
     4
 74
     0
 42
0.000000001
 43
0.00000001
 40
0.6562500000000056
 40
0.6562500000000056
 40
0.6562500000000056
 40
0.6562500000000056
 40
0.6718750000000053
 40
0.6718750000000053
 40
0.6718750000000053
 40
0.6718750000000053
 10
52.85780745369014
 20
18.66376644529295
 30
0.0
 10
52.62560833073992
 20
18.60364065795933
 30
0.0
 10
52.38490627003982
 20
18.54534033654147
 30
0.0
 10
52.13517375633768
 20
18.48982634713715
 30
0.0
  0
SPLINE
  5
233
330
1F
100
AcDbEntity
  8
SK3
  6
SLD-Dashed
370
    18
100
AcDbSpline
210
0.0
220
0.0
230
1.0
 70
     8
 71
     3
 72
     8
 73
     4
 74
     0
 42
0.000000001
 43
0.00000001
 40
0.6718750000000053
 40
0.6718750000000053
 40
0.6718750000000053
 40
0.6718750000000053
 40
0.6875000000000051
 40
0.6875000000000051
 40
0.6875000000000051
 40
0.6875000000000051
 10
52.13517375633768
 20
18.48982634713715
 30
0.0
 10
51.88544124263557
 20
18.43431235773282
 30
0.0
 10
51.62857939188102
 20
18.38206490176744
 30
0.0
 10
51.36803915886691
 20
18.33455919452981
 30
0.0
  0
SPLINE
  5
234
330
1F
100
AcDbEntity
  8
SK3
  6
SLD-Dashed
370
    18
100
AcDbSpline
210
0.0
220
0.0
230
1.0
 70
     8
 71
     3
 72
     8
 73
     4
 74
     0
 42
0.000000001
 43
0.00000001
 40
0.6875000000000051
 40
0.6875000000000051
 40
0.6875000000000051
 40
0.6875000000000051
 40
0.7187500000000043
 40
0.7187500000000043
 40
0.7187500000000043
 40
0.7187500000000043
 10
51.36803915886691
 20
18.33455919452981
 30
0.0
 10
50.84695869283871
 20
18.23954778005454
 30
0.0
 10
50.30716664595715
 20
18.16254092498844
 30
0.0
 10
49.74736620437807
 20
18.10929858890135
 30
0.0
  0
SPLINE
  5
235
330
1F
100
AcDbEntity
  8
SK3
  6
SLD-Dashed
370
    18
100
AcDbSpline
210
0.0
220
0.0
230
1.0
 70
     8
 71
     3
 72
     8
 73
     4
 74
     0
 42
0.000000001
 43
0.00000001
 40
0.7187500000000043
 40
0.7187500000000043
 40
0.7187500000000043
 40
0.7187500000000043
 40
0.734375000000004
 40
0.734375000000004
 40
0.734375000000004
 40
0.734375000000004
 10
49.74736620437807
 20
18.10929858890135
 30
0.0
 10
49.46746598358852
 20
18.08267742085778
 30
0.0
 10
49.18057275760564
 20
18.06193331303373
 30
0.0
 10
48.89377313058966
 20
18.04812779189118
 30
0.0
  0
SPLINE
  5
236
330
1F
100
AcDbEntity
  8
SK3
  6
SLD-Dashed
370
    18
100
AcDbSpline
210
0.0
220
0.0
230
1.0
 70
     8
 71
     3
 72
     8
 73
     4
 74
     0
 42
0.000000001
 43
0.00000001
 40
0.734375000000004
 40
0.734375000000004
 40
0.734375000000004
 40
0.734375000000004
 40
0.7500000000000037
 40
0.7500000000000037
 40
0.7500000000000037
 40
0.7500000000000037
 10
48.89377313058966
 20
18.04812779189118
 30
0.0
 10
48.60697350357372
 20
18.0343222707486
 30
0.0
 10
48.32072017421311
 20
18.02736710848439
 30
0.0
 10
48.03500069203669
 20
18.02720860404741
 30
0.0
  0
SPLINE
  5
237
330
1F
100
AcDbEntity
  8
SK3
  6
SLD-Dashed
370
    18
100
AcDbSpline
210
0.0
220
0.0
230
1.0
 70
     8
 71
     3
 72
     8
 73
     4
 74
     0
 42
0.000000001
 43
0.00000001
 40
0.7500000000000037
 40
0.7500000000000037
 40
0.7500000000000037
 40
0.7500000000000037
 40
0.7812500000000033
 40
0.7812500000000033
 40
0.7812500000000033
 40
0.7812500000000033
 10
48.03500069203669
 20
18.02720860404741
 30
0.0
 10
47.4635617276838
 20
18.02689159517346
 30
0.0
 10
46.89321038192933
 20
18.05390494506839
 30
0.0
 10
46.32714378789306
 20
18.1069838945361
 30
0.0
  0
SPLINE
  5
238
330
1F
100
AcDbEntity
  8
SK3
  6
SLD-Dashed
370
    18
100
AcDbSpline
210
0.0
220
0.0
230
1.0
 70
     8
 71
     3
 72
     8
 73
     4
 74
     0
 42
0.000000001
 43
0.00000001
 40
0.7812500000000033
 40
0.7812500000000033
 40
0.7812500000000033
 40
0.7812500000000033
 40
0.812500000000003
 40
0.812500000000003
 40
0.812500000000003
 40
0.812500000000003
 10
46.32714378789306
 20
18.1069838945361
 30
0.0
 10
45.76107719385676
 20
18.16006284400381
 30
0.0
 10
45.21795992540397
 20
18.23721192164199
 30
0.0
 10
44.69573376997139
 20
18.33205290387327
 30
0.0
  0
SPLINE
  5
239
330
1F
100
AcDbEntity
  8
SK3
  6
SLD-Dashed
370
    18
100
AcDbSpline
210
0.0
220
0.0
230
1.0
 70
     8
 71
     3
 72
     8
 73
     4
 74
     0
 42
0.000000001
 43
0.00000001
 40
0.812500000000003
 40
0.812500000000003
 40
0.812500000000003
 40
0.812500000000003
 40
0.8437500000000027
 40
0.8437500000000027
 40
0.8437500000000027
 40
0.8437500000000027
 10
44.69573376997139
 20
18.33205290387327
 30
0.0
 10
44.17350761453882
 20
18.42689388610457
 30
0.0
 10
43.66883601579756
 20
18.54059595724963
 30
0.0
 10
43.20288134997728
 20
18.66100153568658
 30
0.0
  0
SPLINE
  5
23A
330
1F
100
AcDbEntity
  8
SK3
  6
SLD-Dashed
370
    18
100
AcDbSpline
210
0.0
220
0.0
230
1.0
 70
     8
 71
     3
 72
     8
 73
     4
 74
     0
 42
0.000000001
 43
0.00000001
 40
0.8437500000000027
 40
0.8437500000000027
 40
0.8437500000000027
 40
0.8437500000000027
 40
0.8750000000000022
 40
0.8750000000000022
 40
0.8750000000000022
 40
0.8750000000000022
 10
43.20288134997728
 20
18.66100153568658
 30
0.0
 10
42.73692668415701
 20
18.78140711412352
 30
0.0
 10
42.30509941330103
 20
18.90912493050696
 30
0.0
 10
41.90658815884778
 20
19.03720340538367
 30
0.0
  0
SPLINE
  5
23B
330
1F
100
AcDbEntity
  8
SK3
  6
SLD-Dashed
370
    18
100
AcDbSpline
210
0.0
220
0.0
230
1.0
 70
     8
 71
     3
 72
     8
 73
     4
 74
     0
 42
0.000000001
 43
0.00000001
 40
0.8750000000000022
 40
0.8750000000000022
 40
0.8750000000000022
 40
0.8750000000000022
 40
0.8906250000000019
 40
0.8906250000000019
 40
0.8906250000000019
 40
0.8906250000000019
 10
41.90658815884778
 20
19.03720340538367
 30
0.0
 10
41.70733253162116
 20
19.10124264282201
 30
0.0
 10
41.51697872188055
 20
19.16524405351096
 30
0.0
 10
41.33879075964612
 20
19.22720843091355
 30
0.0
  0
SPLINE
  5
23C
330
1F
100
AcDbEntity
  8
SK3
  6
SLD-Dashed
370
    18
100
AcDbSpline
210
0.0
220
0.0
230
1.0
 70
     8
 71
     3
 72
     8
 73
     4
 74
     0
 42
0.000000001
 43
0.00000001
 40
0.8906250000000019
 40
0.8906250000000019
 40
0.8906250000000019
 40
0.8906250000000019
 40
0.9062500000000016
 40
0.9062500000000016
 40
0.9062500000000016
 40
0.9062500000000016
 10
41.33879075964612
 20
19.22720843091355
 30
0.0
 10
41.16060279741173
 20
19.28917280831613
 30
0.0
 10
40.99354913163893
 20
19.34942973740239
 30
0.0
 10
40.83746685590488
 20
19.40723531926858
 30
0.0
  0
SPLINE
  5
23D
330
1F
100
AcDbEntity
  8
SK3
  6
SLD-Dashed
370
    18
100
AcDbSpline
210
0.0
220
0.0
230
1.0
 70
     8
 71
     3
 72
     8
 73
     4
 74
     0
 42
0.000000001
 43
0.00000001
 40
0.9062500000000016
 40
0.9062500000000016
 40
0.9062500000000016
 40
0.9062500000000016
 40
0.9218750000000012
 40
0.9218750000000012
 40
0.9218750000000012
 40
0.9218750000000012
 10
40.83746685590488
 20
19.40723531926858
 30
0.0
 10
40.6813845801708
 20
19.46504090113477
 30
0.0
 10
40.53627341917036
 20
19.52039852183562
 30
0.0
 10
40.40233988988327
 20
19.57255980178281
 30
0.0
  0
SPLINE
  5
23E
330
1F
100
AcDbEntity
  8
SK3
  6
SLD-Dashed
370
    18
100
AcDbSpline
210
0.0
220
0.0
230
1.0
 70
     8
 71
     3
 72
     8
 73
     4
 74
     0
 42
0.000000001
 43
0.00000001
 40
0.9218750000000012
 40
0.9218750000000012
 40
0.9218750000000012
 40
0.9218750000000012
 40
0.9375000000000009
 40
0.9375000000000009
 40
0.9375000000000009
 40
0.9375000000000009
 10
40.40233988988327
 20
19.57255980178281
 30
0.0
 10
40.26840636059616
 20
19.62472108172999
 30
0.0
 10
40.14511054404137
 20
19.67390794633356
 30
0.0
 10
40.03488924355995
 20
19.71857043348173
 30
0.0
  0
SPLINE
  5
23F
330
1F
100
AcDbEntity
  8
SK3
  6
SLD-Dashed
370
    18
100
AcDbSpline
210
0.0
220
0.0
230
1.0
 70
     8
 71
     3
 72
     8
 73
     4
 74
     0
 42
0.000000001
 43
0.00000001
 40
0.9375000000000009
 40
0.9375000000000009
 40
0.9375000000000009
 40
0.9375000000000009
 40
0.9687500000000004
 40
0.9687500000000004
 40
0.9687500000000004
 40
0.9687500000000004
 10
40.03488924355995
 20
19.71857043348173
 30
0.0
 10
39.8144466425971
 20
19.80789540777804
 30
0.0
 10
39.64816924412869
 20
19.87815467160538
 30
0.0
 10
39.53538979583902
 20
19.92620464259549
 30
0.0
  0
SPLINE
  5
240
330
1F
100
AcDbEntity
  8
SK3
  6
SLD-Dashed
370
    18
100
AcDbSpline
210
0.0
220
0.0
230
1.0
 70
     8
 71
     3
 72
     8
 73
     4
 74
     0
 42
0.000000001
 43
0.00000001
 40
0.9687500000000004
 40
0.9687500000000004
 40
0.9687500000000004
 40
0.9687500000000004
 40
0.9843750000000002
 40
0.9843750000000002
 40
0.9843750000000002
 40
0.9843750000000002
 10
39.53538979583902
 20
19.92620464259549
 30
0.0
 10
39.47900007169418
 20
19.95022962809054
 30
0.0
 10
39.43608461834653
 20
19.96869895366943
 30
0.0
 10
39.40719048355333
 20
19.98116089975152
 30
0.0
  0
SPLINE
  5
241
330
1F
100
AcDbEntity
  8
SK3
  6
SLD-Dashed
370
    18
100
AcDbSpline
210
0.0
220
0.0
230
1.0
 70
     8
 71
     2
 72
     6
 73
     3
 74
     0
 42
0.000000001
 43
0.00000001
 40
0.9843750000000002
 40
0.9843750000000002
 40
0.9843750000000002
 40
1.0
 40
1.0
 40
1.0
 10
39.40719048355333
 20
19.98116089975152
 30
0.0
 10
39.37829634876015
 20
19.99362284583361
 30
0.0
 10
39.36360000000001
 20
20.0
 30
0.0
  0
SPLINE
  5
242
330
1F
100
AcDbEntity
  8
SK3
  6
SLD-Dashed
370
    18
100
AcDbSpline
210
0.0
220
0.0
230
1.0
 70
     8
 71
     2
 72
     6
 73
     3
 74
     0
 42
0.000000001
 43
0.00000001
 40
0.0
 40
0.0
 40
0.0
 40
0.0312499999999993
 40
0.0312499999999993
 40
0.0312499999999993
 10
64.3636
 20
20.0
 30
0.0
 10
64.42121011272502
 20
19.9748602310944
 30
0.0
 10
64.53344476870669
 20
19.92703340404949
 30
0.0
  0
SPLINE
  5
243
330
1F
100
AcDbEntity
  8
SK3
  6
SLD-Dashed
370
    18
100
AcDbSpline
210
0.0
220
0.0
230
1.0
 70
     8
 71
     3
 72
     8
 73
     4
 74
     0
 42
0.000000001
 43
0.00000001
 40
0.0312499999999993
 40
0.0312499999999993
 40
0.0312499999999993
 40
0.0312499999999993
 40
0.0468749999999989
 40
0.0468749999999989
 40
0.0468749999999989
 40
0.0468749999999989
 10
64.53344476870669
 20
19.92703340404949
 30
0.0
 10
64.58956209669755
 20
19.90311999052703
 30
0.0
 10
64.65944293435459
 20
19.87352213695011
 30
0.0
 10
64.74334601577787
 20
19.83849648421931
 30
0.0
  0
SPLINE
  5
244
330
1F
100
AcDbEntity
  8
SK3
  6
SLD-Dashed
370
    18
100
AcDbSpline
210
0.0
220
0.0
230
1.0
 70
     8
 71
     3
 72
     8
 73
     4
 74
     0
 42
0.000000001
 43
0.00000001
 40
0.0468749999999989
 40
0.0468749999999989
 40
0.0468749999999989
 40
0.0468749999999989
 40
0.0624999999999985
 40
0.0624999999999985
 40
0.0624999999999985
 40
0.0624999999999985
 10
64.74334601577787
 20
19.83849648421931
 30
0.0
 10
64.82724909720113
 20
19.80347083148854
 30
0.0
 10
64.92497670514665
 20
19.76311028108953
 30
0.0
 10
65.03435709862796
 20
19.71878606855014
 30
0.0
  0
SPLINE
  5
245
330
1F
100
AcDbEntity
  8
SK3
  6
SLD-Dashed
370
    18
100
AcDbSpline
210
0.0
220
0.0
230
1.0
 70
     8
 71
     3
 72
     8
 73
     4
 74
     0
 42
0.000000001
 43
0.00000001
 40
0.0624999999999985
 40
0.0624999999999985
 40
0.0624999999999985
 40
0.0624999999999985
 40
0.093749999999998
 40
0.093749999999998
 40
0.093749999999998
 40
0.093749999999998
 10
65.03435709862796
 20
19.71878606855014
 30
0.0
 10
65.25311788559067
 20
19.63013764347138
 30
0.0
 10
65.5198109323765
 20
19.52492810328535
 30
0.0
 10
65.83405851294297
 20
19.40849786846671
 30
0.0
  0
SPLINE
  5
246
330
1F
100
AcDbEntity
  8
SK3
  6
SLD-Dashed
370
    18
100
AcDbSpline
210
0.0
220
0.0
230
1.0
 70
     8
 71
     3
 72
     8
 73
     4
 74
     0
 42
0.000000001
 43
0.00000001
 40
0.093749999999998
 40
0.093749999999998
 40
0.093749999999998
 40
0.093749999999998
 40
0.1093749999999979
 40
0.1093749999999979
 40
0.1093749999999979
 40
0.1093749999999979
 10
65.83405851294297
 20
19.40849786846671
 30
0.0
 10
65.99118230322624
 20
19.35028275105741
 30
0.0
 10
66.16092111099785
 20
19.289057252925
 30
0.0
 10
66.33938770318422
 20
19.22700085357397
 30
0.0
  0
SPLINE
  5
247
330
1F
100
AcDbEntity
  8
SK3
  6
SLD-Dashed
370
    18
100
AcDbSpline
210
0.0
220
0.0
230
1.0
 70
     8
 71
     3
 72
     8
 73
     4
 74
     0
 42
0.000000001
 43
0.00000001
 40
0.1093749999999979
 40
0.1093749999999979
 40
0.1093749999999979
 40
0.1093749999999979
 40
0.1249999999999979
 40
0.1249999999999979
 40
0.1249999999999979
 40
0.1249999999999979
 10
66.33938770318422
 20
19.22700085357397
 30
0.0
 10
66.51785429537061
 20
19.16494445422293
 30
0.0
 10
66.70571258211262
 20
19.10179796602637
 30
0.0
 10
66.90288807940907
 20
19.0383929050811
 30
0.0
  0
SPLINE
  5
248
330
1F
100
AcDbEntity
  8
SK3
  6
SLD-Dashed
370
    18
100
AcDbSpline
210
0.0
220
0.0
230
1.0
 70
     8
 71
     3
 72
     8
 73
     4
 74
     0
 42
0.000000001
 43
0.00000001
 40
0.1249999999999979
 40
0.1249999999999979
 40
0.1249999999999979
 40
0.1249999999999979
 40
0.1406249999999978
 40
0.1406249999999978
 40
0.1406249999999978
 40
0.1406249999999978
 10
66.90288807940907
 20
19.0383929050811
 30
0.0
 10
67.10006357670552
 20
18.9749878441358
 30
0.0
 10
67.30655604809114
 20
18.91132067162517
 30
0.0
 10
67.52261152043667
 20
18.8482473726347
 30
0.0
  0
SPLINE
  5
249
330
1F
100
AcDbEntity
  8
SK3
  6
SLD-Dashed
370
    18
100
AcDbSpline
210
0.0
220
0.0
230
1.0
 70
     8
 71
     3
 72
     8
 73
     4
 74
     0
 42
0.000000001
 43
0.00000001
 40
0.1406249999999978
 40
0.1406249999999978
 40
0.1406249999999978
 40
0.1406249999999978
 40
0.1562499999999977
 40
0.1562499999999977
 40
0.1562499999999977
 40
0.1562499999999977
 10
67.52261152043667
 20
18.8482473726347
 30
0.0
 10
67.7386669927822
 20
18.78517407364423
 30
0.0
 10
67.96527951208057
 20
18.72243685215915
 30
0.0
 10
68.19970169444358
 20
18.66182343120858
 30
0.0
  0
SPLINE
  5
24A
330
1F
100
AcDbEntity
  8
SK3
  6
SLD-Dashed
370
    18
100
AcDbSpline
210
0.0
220
0.0
230
1.0
 70
     8
 71
     3
 72
     8
 73
     4
 74
     0
 42
0.000000001
 43
0.00000001
 40
0.1562499999999977
 40
0.1562499999999977
 40
0.1562499999999977
 40
0.1562499999999977
 40
0.1874999999999976
 40
0.1874999999999976
 40
0.1874999999999976
 40
0.1874999999999976
 10
68.19970169444358
 20
18.66182343120858
 30
0.0
 10
68.66854605916957
 20
18.54059658930744
 30
0.0
 10
69.16210342221933
 20
18.42936942748124
 30
0.0
 10
69.68116408016583
 20
18.33470448899499
 30
0.0
  0
SPLINE
  5
24B
330
1F
100
AcDbEntity
  8
SK3
  6
SLD-Dashed
370
    18
100
AcDbSpline
210
0.0
220
0.0
230
1.0
 70
     8
 71
     3
 72
     8
 73
     4
 74
     0
 42
0.000000001
 43
0.00000001
 40
0.1874999999999976
 40
0.1874999999999976
 40
0.1874999999999976
 40
0.1874999999999976
 40
0.2031249999999975
 40
0.2031249999999975
 40
0.2031249999999975
 40
0.2031249999999975
 10
69.68116408016583
 20
18.33470448899499
 30
0.0
 10
69.94069440913904
 20
18.28737201975186
 30
0.0
 10
70.20664694008335
 20
18.24418571540792
 30
0.0
 10
70.47942196846905
 20
18.20604618127211
 30
0.0
  0
SPLINE
  5
24C
330
1F
100
AcDbEntity
  8
SK3
  6
SLD-Dashed
370
    18
100
AcDbSpline
210
0.0
220
0.0
230
1.0
 70
     8
 71
     3
 72
     8
 73
     4
 74
     0
 42
0.000000001
 43
0.00000001
 40
0.2031249999999975
 40
0.2031249999999975
 40
0.2031249999999975
 40
0.2031249999999975
 40
0.2187499999999975
 40
0.2187499999999975
 40
0.2187499999999975
 40
0.2187499999999975
 10
70.47942196846905
 20
18.20604618127211
 30
0.0
 10
70.75219699685479
 20
18.16790664713629
 30
0.0
 10
71.03248802957478
 20
18.13484138487184
 30
0.0
 10
71.31263752140364
 20
18.10834987783548
 30
0.0
  0
SPLINE
  5
24D
330
1F
100
AcDbEntity
  8
SK3
  6
SLD-Dashed
370
    18
100
AcDbSpline
210
0.0
220
0.0
230
1.0
 70
     8
 71
     3
 72
     8
 73
     4
 74
     0
 42
0.000000001
 43
0.00000001
 40
0.2187499999999975
 40
0.2187499999999975
 40
0.2187499999999975
 40
0.2187499999999975
 40
0.2499999999999973
 40
0.2499999999999973
 40
0.2499999999999973
 40
0.2499999999999973
 10
71.31263752140364
 20
18.10834987783548
 30
0.0
 10
71.8729365050613
 20
18.05536686376276
 30
0.0
 10
72.43946502693578
 20
18.027612292455
 30
0.0
 10
73.01234934268254
 20
18.02721026889989
 30
0.0
  0
SPLINE
  5
24E
330
1F
100
AcDbEntity
  8
SK3
  6
SLD-Dashed
370
    18
100
AcDbSpline
210
0.0
220
0.0
230
1.0
 70
     8
 71
     3
 72
     8
 73
     4
 74
     0
 42
0.000000001
 43
0.00000001
 40
0.2499999999999973
 40
0.2499999999999973
 40
0.2499999999999973
 40
0.2499999999999973
 40
0.2656249999999969
 40
0.2656249999999969
 40
0.2656249999999969
 40
0.2656249999999969
 10
73.01234934268254
 20
18.02721026889989
 30
0.0
 10
73.29879150055595
 20
18.02700925712236
 30
0.0
 10
73.58852173056123
 20
18.03373024186455
 30
0.0
 10
73.87568643374291
 20
18.04726620429127
 30
0.0
  0
SPLINE
  5
24F
330
1F
100
AcDbEntity
  8
SK3
  6
SLD-Dashed
370
    18
100
AcDbSpline
210
0.0
220
0.0
230
1.0
 70
     8
 71
     3
 72
     8
 73
     4
 74
     0
 42
0.000000001
 43
0.00000001
 40
0.2656249999999969
 40
0.2656249999999969
 40
0.2656249999999969
 40
0.2656249999999969
 40
0.2812499999999965
 40
0.2812499999999965
 40
0.2812499999999965
 40
0.2812499999999965
 10
73.87568643374291
 20
18.04726620429127
 30
0.0
 10
74.16285113692463
 20
18.060802166718
 30
0.0
 10
74.44603217448255
 20
18.08098770585564
 30
0.0
 10
74.72541435337558
 20
18.1072239455187
 30
0.0
  0
SPLINE
  5
250
330
1F
100
AcDbEntity
  8
SK3
  6
SLD-Dashed
370
    18
100
AcDbSpline
210
0.0
220
0.0
230
1.0
 70
     8
 71
     3
 72
     8
 73
     4
 74
     0
 42
0.000000001
 43
0.00000001
 40
0.2812499999999965
 40
0.2812499999999965
 40
0.2812499999999965
 40
0.2812499999999965
 40
0.3124999999999963
 40
0.3124999999999963
 40
0.3124999999999963
 40
0.3124999999999963
 10
74.72541435337558
 20
18.1072239455187
 30
0.0
 10
75.28417871116176
 20
18.15969642484479
 30
0.0
 10
75.82991941582033
 20
18.23676628091118
 30
0.0
 10
76.35644944057746
 20
18.33244952032118
 30
0.0
  0
SPLINE
  5
251
330
1F
100
AcDbEntity
  8
SK3
  6
SLD-Dashed
370
    18
100
AcDbSpline
210
0.0
220
0.0
230
1.0
 70
     8
 71
     3
 72
     8
 73
     4
 74
     0
 42
0.000000001
 43
0.00000001
 40
0.3124999999999963
 40
0.3124999999999963
 40
0.3124999999999963
 40
0.3124999999999963
 40
0.3437499999999962
 40
0.3437499999999962
 40
0.3437499999999962
 40
0.3437499999999962
 10
76.35644944057746
 20
18.33244952032118
 30
0.0
 10
76.88297946533459
 20
18.42813275973115
 30
0.0
 10
77.37777894822266
 20
18.5398029677684
 30
0.0
 10
77.84362400441454
 20
18.66009880295172
 30
0.0
  0
SPLINE
  5
252
330
1F
100
AcDbEntity
  8
SK3
  6
SLD-Dashed
370
    18
100
AcDbSpline
210
0.0
220
0.0
230
1.0
 70
     8
 71
     3
 72
     8
 73
     4
 74
     0
 42
0.000000001
 43
0.00000001
 40
0.3437499999999962
 40
0.3437499999999962
 40
0.3437499999999962
 40
0.3437499999999962
 40
0.3749999999999959
 40
0.3749999999999959
 40
0.3749999999999959
 40
0.3749999999999959
 10
77.84362400441454
 20
18.66009880295172
 30
0.0
 10
78.30946906060645
 20
18.78039463813502
 30
0.0
 10
78.7490547978266
 20
18.91044129602186
 30
0.0
 10
79.14442085203703
 20
19.03752771775646
 30
0.0
  0
SPLINE
  5
253
330
1F
100
AcDbEntity
  8
SK3
  6
SLD-Dashed
370
    18
100
AcDbSpline
210
0.0
220
0.0
230
1.0
 70
     8
 71
     3
 72
     8
 73
     4
 74
     0
 42
0.000000001
 43
0.00000001
 40
0.3749999999999959
 40
0.3749999999999959
 40
0.3749999999999959
 40
0.3749999999999959
 40
0.4062499999999958
 40
0.4062499999999958
 40
0.4062499999999958
 40
0.4062499999999958
 10
79.14442085203703
 20
19.03752771775646
 30
0.0
 10
79.53978690624751
 20
19.16461413949107
 30
0.0
 10
79.89494617010577
 20
19.28965550332613
 30
0.0
 10
80.209719182733
 20
19.40619333549813
 30
0.0
  0
SPLINE
  5
254
330
1F
100
AcDbEntity
  8
SK3
  6
SLD-Dashed
370
    18
100
AcDbSpline
210
0.0
220
0.0
230
1.0
 70
     8
 71
     3
 72
     8
 73
     4
 74
     0
 42
0.000000001
 43
0.00000001
 40
0.4062499999999958
 40
0.4062499999999958
 40
0.4062499999999958
 40
0.4062499999999958
 40
0.4218749999999957
 40
0.4218749999999957
 40
0.4218749999999957
 40
0.4218749999999957
 10
80.209719182733
 20
19.40619333549813
 30
0.0
 10
80.36710568904664
 20
19.46446225158412
 30
0.0
 10
80.51474169828685
 20
19.52078687139458
 30
0.0
 10
80.64886876840559
 20
19.57303055323498
 30
0.0
  0
SPLINE
  5
255
330
1F
100
AcDbEntity
  8
SK3
  6
SLD-Dashed
370
    18
100
AcDbSpline
210
0.0
220
0.0
230
1.0
 70
     8
 71
     3
 72
     8
 73
     4
 74
     0
 42
0.000000001
 43
0.00000001
 40
0.4218749999999957
 40
0.4218749999999957
 40
0.4218749999999957
 40
0.4218749999999957
 40
0.4374999999999956
 40
0.4374999999999956
 40
0.4374999999999956
 40
0.4374999999999956
 10
80.64886876840559
 20
19.57303055323498
 30
0.0
 10
80.78299583852431
 20
19.62527423507539
 30
0.0
 10
80.90443229933993
 20
19.6737309851427
 30
0.0
 10
81.01333113993535
 20
19.71784938681856
 30
0.0
  0
SPLINE
  5
256
330
1F
100
AcDbEntity
  8
SK3
  6
SLD-Dashed
370
    18
100
AcDbSpline
210
0.0
220
0.0
230
1.0
 70
     8
 71
     3
 72
     8
 73
     4
 74
     0
 42
0.000000001
 43
0.00000001
 40
0.4374999999999956
 40
0.4374999999999956
 40
0.4374999999999956
 40
0.4374999999999956
 40
0.4687499999999954
 40
0.4687499999999954
 40
0.4687499999999954
 40
0.4687499999999954
 10
81.01333113993535
 20
19.71784938681856
 30
0.0
 10
81.23112882112619
 20
19.80608619017021
 30
0.0
 10
81.39920328248955
 20
19.87703860530947
 30
0.0
 10
81.51389595506957
 20
19.92590034542974
 30
0.0
  0
SPLINE
  5
257
330
1F
100
AcDbEntity
  8
SK3
  6
SLD-Dashed
370
    18
100
AcDbSpline
210
0.0
220
0.0
230
1.0
 70
     8
 71
     3
 72
     8
 73
     4
 74
     0
 42
0.000000001
 43
0.00000001
 40
0.4687499999999954
 40
0.4687499999999954
 40
0.4687499999999954
 40
0.4687499999999954
 40
0.4999999999999952
 40
0.4999999999999952
 40
0.4999999999999952
 40
0.4999999999999952
 10
81.51389595506957
 20
19.92590034542974
 30
0.0
 10
81.62858862764959
 20
19.97476208554999
 30
0.0
 10
81.68551788715274
 20
19.99961798374893
 30
0.0
 10
81.68638990411732
 20
19.99999562777815
 30
0.0
  0
SPLINE
  5
258
330
1F
100
AcDbEntity
  8
SK3
  6
SLD-Dashed
370
    18
100
AcDbSpline
210
0.0
220
0.0
230
1.0
 70
     8
 71
     3
 72
     8
 73
     4
 74
     0
 42
0.000000001
 43
0.00000001
 40
0.5156249999999951
 40
0.5156249999999951
 40
0.5156249999999951
 40
0.5156249999999951
 40
0.5312499999999949
 40
0.5312499999999949
 40
0.5312499999999949
 40
0.5312499999999949
 10
81.64507182810839
 20
19.98213673163476
 30
0.0
 10
81.61696723259941
 20
19.97001272131289
 30
0.0
 10
81.57416424527001
 20
19.95158577826594
 30
0.0
 10
81.51796947531571
 20
19.92763610036685
 30
0.0
  0
SPLINE
  5
259
330
1F
100
AcDbEntity
  8
SK3
  6
SLD-Dashed
370
    18
100
AcDbSpline
210
0.0
220
0.0
230
1.0
 70
     8
 71
     3
 72
     8
 73
     4
 74
     0
 42
0.000000001
 43
0.00000001
 40
0.5312499999999949
 40
0.5312499999999949
 40
0.5312499999999949
 40
0.5312499999999949
 40
0.5624999999999949
 40
0.5624999999999949
 40
0.5624999999999949
 40
0.5624999999999949
 10
81.51796947531571
 20
19.92763610036685
 30
0.0
 10
81.40557993540708
 20
19.87973674456864
 30
0.0
 10
81.23955383449301
 20
19.80956981948621
 30
0.0
 10
81.02079567380959
 20
19.72087468895109
 30
0.0
  0
SPLINE
  5
25A
330
1F
100
AcDbEntity
  8
SK3
  6
SLD-Dashed
370
    18
100
AcDbSpline
210
0.0
220
0.0
230
1.0
 70
     8
 71
     3
 72
     8
 73
     4
 74
     0
 42
0.000000001
 43
0.00000001
 40
0.5624999999999949
 40
0.5624999999999949
 40
0.5624999999999949
 40
0.5624999999999949
 40
0.5781249999999948
 40
0.5781249999999948
 40
0.5781249999999948
 40
0.5781249999999948
 10
81.02079567380959
 20
19.72087468895109
 30
0.0
 10
80.91141659346789
 20
19.67652712368352
 30
0.0
 10
80.78818497161326
 20
19.62732702474775
 30
0.0
 10
80.65420136796057
 20
19.57510826414227
 30
0.0
  0
SPLINE
  5
25B
330
1F
100
AcDbEntity
  8
SK3
  6
SLD-Dashed
370
    18
100
AcDbSpline
210
0.0
220
0.0
230
1.0
 70
     8
 71
     3
 72
     8
 73
     4
 74
     0
 42
0.000000001
 43
0.00000001
 40
0.5781249999999948
 40
0.5781249999999948
 40
0.5781249999999948
 40
0.5781249999999948
 40
0.5937499999999948
 40
0.5937499999999948
 40
0.5937499999999948
 40
0.5937499999999948
 10
80.65420136796057
 20
19.57510826414227
 30
0.0
 10
80.52021776430783
 20
19.5228895035368
 30
0.0
 10
80.37504740397179
 20
19.46746833609116
 30
0.0
 10
80.21893390544129
 20
19.4096067728292
 30
0.0
  0
SPLINE
  5
25C
330
1F
100
AcDbEntity
  8
SK3
  6
SLD-Dashed
370
    18
100
AcDbSpline
210
0.0
220
0.0
230
1.0
 70
     8
 71
     3
 72
     8
 73
     4
 74
     0
 42
0.000000001
 43
0.00000001
 40
0.5937499999999948
 40
0.5937499999999948
 40
0.5937499999999948
 40
0.5937499999999948
 40
0.6093749999999948
 40
0.6093749999999948
 40
0.6093749999999948
 40
0.6093749999999948
 10
80.21893390544129
 20
19.4096067728292
 30
0.0
 10
80.06282040691075
 20
19.35174520956726
 30
0.0
 10
79.89576309558181
 20
19.29143978905709
 30
0.0
 10
79.71763407139572
 20
19.22944359188812
 30
0.0
  0
SPLINE
  5
25D
330
1F
100
AcDbEntity
  8
SK3
  6
SLD-Dashed
370
    18
100
AcDbSpline
210
0.0
220
0.0
230
1.0
 70
     8
 71
     3
 72
     8
 73
     4
 74
     0
 42
0.000000001
 43
0.00000001
 40
0.6093749999999948
 40
0.6093749999999948
 40
0.6093749999999948
 40
0.6093749999999948
 40
0.6249999999999947
 40
0.6249999999999947
 40
0.6249999999999947
 40
0.6249999999999947
 10
79.71763407139572
 20
19.22944359188812
 30
0.0
 10
79.53950504720962
 20
19.16744739471915
 30
0.0
 10
79.34925585464993
 20
19.10342723449299
 30
0.0
 10
79.15045771868697
 20
19.03946906569146
 30
0.0
  0
SPLINE
  5
25E
330
1F
100
AcDbEntity
  8
SK3
  6
SLD-Dashed
370
    18
100
AcDbSpline
210
0.0
220
0.0
230
1.0
 70
     8
 71
     3
 72
     8
 73
     4
 74
     0
 42
0.000000001
 43
0.00000001
 40
0.6249999999999947
 40
0.6249999999999947
 40
0.6249999999999947
 40
0.6249999999999947
 40
0.6562499999999953
 40
0.6562499999999953
 40
0.6562499999999953
 40
0.6562499999999953
 10
79.15045771868697
 20
19.03946906569146
 30
0.0
 10
78.75286144676112
 20
18.91155272808842
 30
0.0
 10
78.3222056995904
 20
18.78401801996016
 30
0.0
 10
77.85780745369007
 20
18.66376644529291
 30
0.0
  0
SPLINE
  5
25F
330
1F
100
AcDbEntity
  8
SK3
  6
SLD-Dashed
370
    18
100
AcDbSpline
210
0.0
220
0.0
230
1.0
 70
     8
 71
     3
 72
     8
 73
     4
 74
     0
 42
0.000000001
 43
0.00000001
 40
0.6562499999999953
 40
0.6562499999999953
 40
0.6562499999999953
 40
0.6562499999999953
 40
0.6718749999999952
 40
0.6718749999999952
 40
0.6718749999999952
 40
0.6718749999999952
 10
77.85780745369007
 20
18.66376644529291
 30
0.0
 10
77.62560833073994
 20
18.60364065795932
 30
0.0
 10
77.38490627003983
 20
18.54534033654147
 30
0.0
 10
77.13517375633774
 20
18.48982634713715
 30
0.0
  0
SPLINE
  5
260
330
1F
100
AcDbEntity
  8
SK3
  6
SLD-Dashed
370
    18
100
AcDbSpline
210
0.0
220
0.0
230
1.0
 70
     8
 71
     3
 72
     8
 73
     4
 74
     0
 42
0.000000001
 43
0.00000001
 40
0.6718749999999952
 40
0.6718749999999952
 40
0.6718749999999952
 40
0.6718749999999952
 40
0.6874999999999952
 40
0.6874999999999952
 40
0.6874999999999952
 40
0.6874999999999952
 10
77.13517375633774
 20
18.48982634713715
 30
0.0
 10
76.88544124263557
 20
18.43431235773282
 30
0.0
 10
76.62857939188105
 20
18.38206490176744
 30
0.0
 10
76.36803915886696
 20
18.33455919452981
 30
0.0
  0
SPLINE
  5
261
330
1F
100
AcDbEntity
  8
SK3
  6
SLD-Dashed
370
    18
100
AcDbSpline
210
0.0
220
0.0
230
1.0
 70
     8
 71
     3
 72
     8
 73
     4
 74
     0
 42
0.000000001
 43
0.00000001
 40
0.6874999999999952
 40
0.6874999999999952
 40
0.6874999999999952
 40
0.6874999999999952
 40
0.7187499999999944
 40
0.7187499999999944
 40
0.7187499999999944
 40
0.7187499999999944
 10
76.36803915886696
 20
18.33455919452981
 30
0.0
 10
75.84695869283877
 20
18.23954778005454
 30
0.0
 10
75.30716664595717
 20
18.1625409249884
 30
0.0
 10
74.74736620437804
 20
18.10929858890134
 30
0.0
  0
SPLINE
  5
262
330
1F
100
AcDbEntity
  8
SK3
  6
SLD-Dashed
370
    18
100
AcDbSpline
210
0.0
220
0.0
230
1.0
 70
     8
 71
     3
 72
     8
 73
     4
 74
     0
 42
0.000000001
 43
0.00000001
 40
0.7187499999999944
 40
0.7187499999999944
 40
0.7187499999999944
 40
0.7187499999999944
 40
0.7343749999999944
 40
0.7343749999999944
 40
0.7343749999999944
 40
0.7343749999999944
 10
74.74736620437804
 20
18.10929858890134
 30
0.0
 10
74.46746598358848
 20
18.08267742085778
 30
0.0
 10
74.18057275760569
 20
18.06193331303373
 30
0.0
 10
73.8937731305897
 20
18.04812779189118
 30
0.0
  0
SPLINE
  5
263
330
1F
100
AcDbEntity
  8
SK3
  6
SLD-Dashed
370
    18
100
AcDbSpline
210
0.0
220
0.0
230
1.0
 70
     8
 71
     3
 72
     8
 73
     4
 74
     0
 42
0.000000001
 43
0.00000001
 40
0.7343749999999944
 40
0.7343749999999944
 40
0.7343749999999944
 40
0.7343749999999944
 40
0.7499999999999943
 40
0.7499999999999943
 40
0.7499999999999943
 40
0.7499999999999943
 10
73.8937731305897
 20
18.04812779189118
 30
0.0
 10
73.60697350357368
 20
18.0343222707486
 30
0.0
 10
73.32072017421314
 20
18.02736710848438
 30
0.0
 10
73.03500069203668
 20
18.0272086040474
 30
0.0
  0
SPLINE
  5
264
330
1F
100
AcDbEntity
  8
SK3
  6
SLD-Dashed
370
    18
100
AcDbSpline
210
0.0
220
0.0
230
1.0
 70
     8
 71
     3
 72
     8
 73
     4
 74
     0
 42
0.000000001
 43
0.00000001
 40
0.7499999999999943
 40
0.7499999999999943
 40
0.7499999999999943
 40
0.7499999999999943
 40
0.7812499999999951
 40
0.7812499999999951
 40
0.7812499999999951
 40
0.7812499999999951
 10
73.03500069203668
 20
18.0272086040474
 30
0.0
 10
72.4635617276838
 20
18.02689159517346
 30
0.0
 10
71.89321038192938
 20
18.05390494506841
 30
0.0
 10
71.32714378789308
 20
18.1069838945361
 30
0.0
  0
SPLINE
  5
265
330
1F
100
AcDbEntity
  8
SK3
  6
SLD-Dashed
370
    18
100
AcDbSpline
210
0.0
220
0.0
230
1.0
 70
     8
 71
     3
 72
     8
 73
     4
 74
     0
 42
0.000000001
 43
0.00000001
 40
0.7812499999999951
 40
0.7812499999999951
 40
0.7812499999999951
 40
0.7812499999999951
 40
0.8124999999999958
 40
0.8124999999999958
 40
0.8124999999999958
 40
0.8124999999999958
 10
71.32714378789308
 20
18.1069838945361
 30
0.0
 10
70.76107719385678
 20
18.16006284400381
 30
0.0
 10
70.2179599254039
 20
18.23721192164199
 30
0.0
 10
69.69573376997135
 20
18.33205290387327
 30
0.0
  0
SPLINE
  5
266
330
1F
100
AcDbEntity
  8
SK3
  6
SLD-Dashed
370
    18
100
AcDbSpline
210
0.0
220
0.0
230
1.0
 70
     8
 71
     3
 72
     8
 73
     4
 74
     0
 42
0.000000001
 43
0.00000001
 40
0.8124999999999958
 40
0.8124999999999958
 40
0.8124999999999958
 40
0.8124999999999958
 40
0.8437499999999964
 40
0.8437499999999964
 40
0.8437499999999964
 40
0.8437499999999964
 10
69.69573376997135
 20
18.33205290387327
 30
0.0
 10
69.17350761453882
 20
18.42689388610457
 30
0.0
 10
68.66883601579755
 20
18.54059595724962
 30
0.0
 10
68.20288134997728
 20
18.66100153568658
 30
0.0
  0
SPLINE
  5
267
330
1F
100
AcDbEntity
  8
SK3
  6
SLD-Dashed
370
    18
100
AcDbSpline
210
0.0
220
0.0
230
1.0
 70
     8
 71
     3
 72
     8
 73
     4
 74
     0
 42
0.000000001
 43
0.00000001
 40
0.8437499999999964
 40
0.8437499999999964
 40
0.8437499999999964
 40
0.8437499999999964
 40
0.8749999999999972
 40
0.8749999999999972
 40
0.8749999999999972
 40
0.8749999999999972
 10
68.20288134997728
 20
18.66100153568658
 30
0.0
 10
67.736926684157
 20
18.78140711412352
 30
0.0
 10
67.30509941330097
 20
18.90912493050695
 30
0.0
 10
66.90658815884771
 20
19.03720340538365
 30
0.0
  0
SPLINE
  5
268
330
1F
100
AcDbEntity
  8
SK3
  6
SLD-Dashed
370
    18
100
AcDbSpline
210
0.0
220
0.0
230
1.0
 70
     8
 71
     3
 72
     8
 73
     4
 74
     0
 42
0.000000001
 43
0.00000001
 40
0.8749999999999972
 40
0.8749999999999972
 40
0.8749999999999972
 40
0.8749999999999972
 40
0.8906249999999976
 40
0.8906249999999976
 40
0.8906249999999976
 40
0.8906249999999976
 10
66.90658815884771
 20
19.03720340538365
 30
0.0
 10
66.70733253162113
 20
19.10124264282201
 30
0.0
 10
66.51697872188055
 20
19.16524405351096
 30
0.0
 10
66.33879075964614
 20
19.22720843091355
 30
0.0
  0
SPLINE
  5
269
330
1F
100
AcDbEntity
  8
SK3
  6
SLD-Dashed
370
    18
100
AcDbSpline
210
0.0
220
0.0
230
1.0
 70
     8
 71
     3
 72
     8
 73
     4
 74
     0
 42
0.000000001
 43
0.00000001
 40
0.8906249999999976
 40
0.8906249999999976
 40
0.8906249999999976
 40
0.8906249999999976
 40
0.906249999999998
 40
0.906249999999998
 40
0.906249999999998
 40
0.906249999999998
 10
66.33879075964614
 20
19.22720843091355
 30
0.0
 10
66.16060279741174
 20
19.28917280831613
 30
0.0
 10
65.99354913163894
 20
19.34942973740239
 30
0.0
 10
65.83746685590489
 20
19.40723531926858
 30
0.0
  0
SPLINE
  5
26A
330
1F
100
AcDbEntity
  8
SK3
  6
SLD-Dashed
370
    18
100
AcDbSpline
210
0.0
220
0.0
230
1.0
 70
     8
 71
     3
 72
     8
 73
     4
 74
     0
 42
0.000000001
 43
0.00000001
 40
0.906249999999998
 40
0.906249999999998
 40
0.906249999999998
 40
0.906249999999998
 40
0.9218749999999984
 40
0.9218749999999984
 40
0.9218749999999984
 40
0.9218749999999984
 10
65.83746685590489
 20
19.40723531926858
 30
0.0
 10
65.68138458017089
 20
19.46504090113477
 30
0.0
 10
65.53627341917036
 20
19.52039852183562
 30
0.0
 10
65.40233988988327
 20
19.57255980178282
 30
0.0
  0
SPLINE
  5
26B
330
1F
100
AcDbEntity
  8
SK3
  6
SLD-Dashed
370
    18
100
AcDbSpline
210
0.0
220
0.0
230
1.0
 70
     8
 71
     3
 72
     8
 73
     4
 74
     0
 42
0.000000001
 43
0.00000001
 40
0.9218749999999984
 40
0.9218749999999984
 40
0.9218749999999984
 40
0.9218749999999984
 40
0.9374999999999987
 40
0.9374999999999987
 40
0.9374999999999987
 40
0.9374999999999987
 10
65.40233988988327
 20
19.57255980178282
 30
0.0
 10
65.26840636059615
 20
19.62472108173001
 30
0.0
 10
65.14511054404136
 20
19.67390794633354
 30
0.0
 10
65.03488924355992
 20
19.71857043348169
 30
0.0
  0
SPLINE
  5
26C
330
1F
100
AcDbEntity
  8
SK3
  6
SLD-Dashed
370
    18
100
AcDbSpline
210
0.0
220
0.0
230
1.0
 70
     8
 71
     3
 72
     8
 73
     4
 74
     0
 42
0.000000001
 43
0.00000001
 40
0.9374999999999987
 40
0.9374999999999987
 40
0.9374999999999987
 40
0.9374999999999987
 40
0.9687499999999994
 40
0.9687499999999994
 40
0.9687499999999994
 40
0.9687499999999994
 10
65.03488924355992
 20
19.71857043348169
 30
0.0
 10
64.8144466425971
 20
19.80789540777803
 30
0.0
 10
64.64816924412871
 20
19.87815467160539
 30
0.0
 10
64.535389795839
 20
19.92620464259548
 30
0.0
  0
SPLINE
  5
26D
330
1F
100
AcDbEntity
  8
SK3
  6
SLD-Dashed
370
    18
100
AcDbSpline
210
0.0
220
0.0
230
1.0
 70
     8
 71
     3
 72
     8
 73
     4
 74
     0
 42
0.000000001
 43
0.00000001
 40
0.9687499999999994
 40
0.9687499999999994
 40
0.9687499999999994
 40
0.9687499999999994
 40
0.9843749999999997
 40
0.9843749999999997
 40
0.9843749999999997
 40
0.9843749999999997
 10
64.535389795839
 20
19.92620464259548
 30
0.0
 10
64.47900007169414
 20
19.95022962809054
 30
0.0
 10
64.43608461834656
 20
19.96869895366941
 30
0.0
 10
64.40719048355332
 20
19.98116089975151
 30
0.0
  0
SPLINE
  5
26E
330
1F
100
AcDbEntity
  8
SK3
  6
SLD-Dashed
370
    18
100
AcDbSpline
210
0.0
220
0.0
230
1.0
 70
     8
 71
     2
 72
     6
 73
     3
 74
     0
 42
0.000000001
 43
0.00000001
 40
0.9843749999999997
 40
0.9843749999999997
 40
0.9843749999999997
 40
1.0
 40
1.0
 40
1.0
 10
64.40719048355332
 20
19.98116089975151
 30
0.0
 10
64.37829634876012
 20
19.99362284583361
 30
0.0
 10
64.3636
 20
20.0
 30
0.0
  0
SPLINE
  5
26F
330
1F
100
AcDbEntity
  8
SK3
  6
SLD-Dashed
370
    18
100
AcDbSpline
210
0.0
220
0.0
230
1.0
 70
     8
 71
     3
 72
    18
 73
    14
 74
     0
 42
0.000000001
 43
0.00000001
 40
0.0
 40
0.0
 40
0.0
 40
0.0
 40
0.0501962867734974
 40
0.1000306214437302
 40
0.1855667331187636
 40
0.250182389232072
 40
0.3747066158220824
 40
0.4998232982189783
 40
0.6247294758455333
 40
0.7494251058857277
 40
0.8746331028690638
 40
0.9372230808189287
 40
1.0
 40
1.0
 40
1.0
 40
1.0
 10
18.30000000000003
 20
46.81625358782996
 30
0.0
 10
18.30669951182796
 20
46.81609127853697
 30
0.0
 10
18.32005022708195
 20
46.81576783032029
 30
0.0
 10
18.34463922095193
 20
46.81256776526223
 30
0.0
 10
18.37067201462224
 20
46.80630579793129
 30
0.0
 10
18.40500150194895
 20
46.79331555547191
 30
0.0
 10
18.44173939749912
 20
46.77247000397297
 30
0.0
 10
18.47965549617257
 20
46.73942242416845
 30
0.0
 10
18.5104128194908
 20
46.69961163074884
 30
0.0
 10
18.53306634505931
 20
46.65468875110024
 30
0.0
 10
18.54452340204195
 20
46.61434662644387
 30
0.0
 10
18.54932467505756
 20
46.58119847829342
 30
0.0
 10
18.5497746680164
 20
46.56446483112381
 30
0.0
 10
18.55
 20
46.55608553132448
 30
0.0
  0
SPLINE
  5
270
330
1F
100
AcDbEntity
  8
SK3
  6
SLD-Dashed
370
    18
100
AcDbSpline
210
0.0
220
0.0
230
1.0
 70
     8
 71
     3
 72
    18
 73
    14
 74
     0
 42
0.000000001
 43
0.00000001
 40
0.0
 40
0.0
 40
0.0
 40
0.0
 40
0.0502196103872103
 40
0.1000870260924036
 40
0.1855086368940136
 40
0.2501550808791957
 40
0.3746583157461303
 40
0.4998570853792911
 40
0.6242312608259597
 40
0.7494324099488388
 40
0.874036659617996
 40
0.9370350243166863
 40
1.0
 40
1.0
 40
1.0
 40
1.0
 10
3.699999999999996
 20
46.55608553132444
 30
0.0
 10
3.700143854852928
 20
46.56278755186003
 30
0.0
 10
3.700430555691609
 20
46.57614459105337
 30
0.0
 10
3.703274054818809
 20
46.6007608523934
 30
0.0
 10
3.708850025263334
 20
46.62692328764685
 30
0.0
 10
3.720514169271342
 20
46.66169890756608
 30
0.0
 10
3.73945659241666
 20
46.69941980690709
 30
0.0
 10
3.770128279112287
 20
46.73918434013714
 30
0.0
 10
3.808028636439615
 20
46.77229285140235
 30
0.0
 10
3.851698646431312
 20
46.79720148409474
 30
0.0
 10
3.891711812143344
 20
46.81006094110494
 30
0.0
 10
3.924780356068899
 20
46.81548545401076
 30
0.0
 10
3.94159493769948
 20
46.81599758847392
 30
0.0
 10
3.950000000000009
 20
46.81625358782994
 30
0.0
  0
SPLINE
  5
271
330
1F
100
AcDbEntity
  8
SK3
  6
SLD-Dashed
370
    18
100
AcDbSpline
210
0.0
220
0.0
230
1.0
 70
     8
 71
     3
 72
    30
 73
    26
 74
     0
 42
0.000000001
 43
0.00000001
 40
0.4999999999999986
 40
0.4999999999999986
 40
0.4999999999999986
 40
0.4999999999999986
 40
0.5624999999999986
 40
0.5624999999999986
 40
0.6249999999999986
 40
0.6249999999999986
 40
0.6562499999999987
 40
0.6562499999999987
 40
0.6874999999999989
 40
0.6874999999999989
 40
0.718749999999999
 40
0.718749999999999
 40
0.7499999999999991
 40
0.7499999999999991
 40
0.7812499999999993
 40
0.7812499999999993
 40
0.8124999999999994
 40
0.8124999999999994
 40
0.8437499999999997
 40
0.8437499999999997
 40
0.8749999999999998
 40
0.8749999999999998
 40
0.9374999999999999
 40
0.9374999999999999
 40
1.0
 40
1.0
 40
1.0
 40
1.0
 10
11.12436591328743
 20
5.309061551556943
 30
0.0
 10
11.33987168856153
 20
5.30913512189414
 30
0.0
 10
11.55726809392076
 20
5.270777053767758
 30
0.0
 10
11.954542895422
 20
5.12408212790752
 30
0.0
 10
12.13838112079804
 20
5.014350511864017
 30
0.0
 10
12.36674314194754
 20
4.80840405199183
 30
0.0
 10
12.43642969974143
 20
4.731543474868142
 30
0.0
 10
12.55617157969231
 20
4.568463540703789
 30
0.0
 10
12.60695049438682
 20
4.481836472086075
 30
0.0
 10
12.69006011488473
 20
4.297948630822702
 30
0.0
 10
12.72188943066091
 20
4.201137306228627
 30
0.0
 10
12.76406792100183
 20
4.004999015154096
 30
0.0
 10
12.77490668888516
 20
3.904499034786603
 30
0.0
 10
12.77509211872524
 20
3.699534720125436
 30
0.0
 10
12.76447599657451
 20
3.598169916606802
 30
0.0
 10
12.7226542834703
 20
3.397643705646352
 30
0.0
 10
12.69091026767075
 20
3.297408274791254
 30
0.0
 10
12.60826636161165
 20
3.105879249911001
 30
0.0
 10
12.55766906368548
 20
3.014523490936158
 30
0.0
 10
12.43800593838744
 20
2.840798433450351
 30
0.0
 10
12.3685247374065
 20
2.758380635546169
 30
0.0
 10
12.14080554014711
 20
2.535838019871832
 30
0.0
 10
11.95704204690291
 20
2.414653532234794
 30
0.0
 10
11.56023146512519
 20
2.251755559321188
 30
0.0
 10
11.34333742006517
 20
2.208076011197144
 30
0.0
 10
11.125
 20
2.208076011197144
 30
0.0
  0
SPLINE
  5
272
330
1F
100
AcDbEntity
  8
SK3
  6
SLD-Dashed
370
    18
100
AcDbSpline
210
0.0
220
0.0
230
1.0
 70
     8
 71
     3
 72
    34
 73
    30
 74
     0
 42
0.000000001
 43
0.00000001
 40
0.0
 40
0.0
 40
0.0
 40
0.0
 40
0.0312499999999998
 40
0.0312499999999998
 40
0.0624999999999997
 40
0.0624999999999997
 40
0.0937499999999995
 40
0.0937499999999995
 40
0.1249999999999993
 40
0.1249999999999993
 40
0.1874999999999989
 40
0.1874999999999989
 40
0.2499999999999986
 40
0.2499999999999986
 40
0.2812499999999986
 40
0.2812499999999986
 40
0.3124999999999986
 40
0.3124999999999986
 40
0.3437499999999986
 40
0.3437499999999986
 40
0.3749999999999986
 40
0.3749999999999986
 40
0.4062499999999986
 40
0.4062499999999986
 40
0.4374999999999986
 40
0.4374999999999986
 40
0.4687499999999986
 40
0.4687499999999986
 40
0.4999999999999986
 40
0.4999999999999986
 40
0.4999999999999986
 40
0.4999999999999986
 10
11.125
 20
2.208076011197144
 30
0.0
 10
11.01583128996742
 20
2.208076011197144
 30
0.0
 10
10.90851747443068
 20
2.218712438100942
 30
0.0
 10
10.69743839976837
 20
2.260296858835595
 30
0.0
 10
10.59256796952454
 20
2.291759353259954
 30
0.0
 10
10.39282801405939
 20
2.373555205373634
 30
0.0
 10
10.29811782955152
 20
2.42350962822617
 30
0.0
 10
10.11887542494275
 20
2.541114583907885
 30
0.0
 10
10.03412703573854
 20
2.60929484585426
 30
0.0
 10
9.806182200157387
 20
2.831771837438372
 30
0.0
 10
9.683294833250006
 20
3.010016554592661
 30
0.0
 10
9.518613327833602
 20
3.390759943898578
 30
0.0
 10
9.475122079642004
 20
3.597272475835481
 30
0.0
 10
9.474939355443745
 20
3.901097591317404
 30
0.0
 10
9.48568518560869
 20
4.003434499602353
 30
0.0
 10
9.527840731096388
 20
4.200293854804624
 30
0.0
 10
9.559029712058424
 20
4.295473899993289
 30
0.0
 10
9.641780605110354
 20
4.479477843829412
 30
0.0
 10
9.693378168396896
 20
4.56772201717838
 30
0.0
 10
9.81271879481424
 20
4.730510706064034
 30
0.0
 10
9.881024517103528
 20
4.806208116124394
 30
0.0
 10
10.03474791503923
 20
4.945204256680408
 30
0.0
 10
10.11790941669588
 20
5.006521730708591
 30
0.0
 10
10.29642492313947
 20
5.113728914877727
 30
0.0
 10
10.39294641915067
 20
5.159988239582892
 30
0.0
 10
10.59259055817322
 20
5.233890455420359
 30
0.0
 10
10.69543180415419
 20
5.261724005488285
 30
0.0
 10
10.90715408445175
 20
5.299397422676648
 30
0.0
 10
11.01661302565036
 20
5.309024766388331
 30
0.0
 10
11.12436591328743
 20
5.309061551556943
 30
0.0
  0
SPLINE
  5
273
330
1F
100
AcDbEntity
  8
SK3
  6
SLD-Dashed
370
    18
100
AcDbSpline
210
0.0
220
0.0
230
1.0
 70
     8
 71
     3
 72
    34
 73
    30
 74
     0
 42
0.000000001
 43
0.00000001
 40
0.499999999999998
 40
0.499999999999998
 40
0.499999999999998
 40
0.499999999999998
 40
0.5312499999999979
 40
0.5312499999999979
 40
0.5624999999999978
 40
0.5624999999999978
 40
0.5937499999999976
 40
0.5937499999999976
 40
0.6249999999999974
 40
0.6249999999999974
 40
0.6562499999999973
 40
0.6562499999999973
 40
0.6874999999999972
 40
0.6874999999999972
 40
0.7499999999999969
 40
0.7499999999999969
 40
0.8124999999999973
 40
0.8124999999999973
 40
0.8437499999999978
 40
0.8437499999999978
 40
0.8749999999999982
 40
0.8749999999999982
 40
0.9062499999999987
 40
0.9062499999999987
 40
0.937499999999999
 40
0.937499999999999
 40
0.9687499999999994
 40
0.9687499999999994
 40
1.0
 40
1.0
 40
1.0
 40
1.0
 10
9.638805742161708
 20
10.95392502366163
 30
0.0
 10
9.6938811607363
 20
10.84705887039521
 30
0.0
 10
9.763179283156648
 20
10.74439645836096
 30
0.0
 10
9.923515798149971
 20
10.55592715127708
 30
0.0
 10
10.01390276352453
 20
10.47020735344792
 30
0.0
 10
10.21445694949211
 20
10.31296552728877
 30
0.0
 10
10.32267837600209
 20
10.24333508542229
 30
0.0
 10
10.54307526498122
 20
10.12288935951391
 30
0.0
 10
10.65791658596822
 20
10.07070374731722
 30
0.0
 10
10.8781987114099
 20
9.984463182040868
 30
0.0
 10
10.98608094611136
 20
9.949205279737832
 30
0.0
 10
11.18968749579594
 20
9.892304259468993
 30
0.0
 10
11.28527842069084
 20
9.870580048613824
 30
0.0
 10
11.55898297450221
 20
9.820769890309986
 30
0.0
 10
11.72337034356695
 20
9.808096789548735
 30
0.0
 10
12.02194861504764
 20
9.821477532699769
 30
0.0
 10
12.15920875119765
 20
9.847310188176722
 30
0.0
 10
12.34760730605758
 20
9.927824692744434
 30
0.0
 10
12.40688352391457
 20
9.961503747003372
 30
0.0
 10
12.51780294837551
 20
10.0474980864718
 30
0.0
 10
12.56969006353044
 20
10.1002182908583
 30
0.0
 10
12.65991931900841
 20
10.22933776798929
 30
0.0
 10
12.69929072119648
 20
10.30748393412818
 30
0.0
 10
12.75586568636479
 20
10.49302732041031
 30
0.0
 10
12.77303399215493
 20
10.60290348381506
 30
0.0
 10
12.7766331974026
 20
10.83901366027914
 30
0.0
 10
12.7630699394838
 20
10.96766771108132
 30
0.0
 10
12.7117084196995
 20
11.21837738140154
 30
0.0
 10
12.67469993892523
 20
11.34057418425335
 30
0.0
 10
12.63040931107558
 20
11.45745606890564
 30
0.0
  0
SPLINE
  5
274
330
1F
100
AcDbEntity
  8
SK3
  6
SLD-Dashed
370
    18
100
AcDbSpline
210
0.0
220
0.0
230
1.0
 70
     8
 71
     3
 72
    26
 73
    22
 74
     0
 42
0.000000001
 43
0.00000001
 40
0.0
 40
0.0
 40
0.0
 40
0.0
 40
0.0624999999999995
 40
0.0624999999999995
 40
0.124999999999999
 40
0.124999999999999
 40
0.1874999999999986
 40
0.1874999999999986
 40
0.2499999999999981
 40
0.2499999999999981
 40
0.281249999999998
 40
0.281249999999998
 40
0.3124999999999979
 40
0.3124999999999979
 40
0.3749999999999981
 40
0.3749999999999981
 40
0.4374999999999984
 40
0.4374999999999984
 40
0.4687499999999982
 40
0.4687499999999982
 40
0.499999999999998
 40
0.499999999999998
 40
0.499999999999998
 40
0.499999999999998
 10
12.63040931107559
 20
11.45745606890564
 30
0.0
 10
12.54182805537631
 20
11.6912198382102
 30
0.0
 10
12.43200682775376
 20
11.89056157115177
 30
0.0
 10
12.18419932759159
 20
12.25514411813748
 30
0.0
 10
12.0483452292692
 20
12.41463399152624
 30
0.0
 10
11.75314013646128
 20
12.69173524411806
 30
0.0
 10
11.59091385222424
 20
12.81202758601131
 30
0.0
 10
11.23004729019511
 20
12.99241430793247
 30
0.0
 10
11.02728334192551
 20
13.05343833574649
 30
0.0
 10
10.69987000905186
 20
13.05646994226838
 30
0.0
 10
10.58531472788944
 20
13.0419760700552
 30
0.0
 10
10.36396153134629
 20
12.97944613660278
 30
0.0
 10
10.25449961952681
 20
12.93102694430327
 30
0.0
 10
9.947578697971318
 20
12.73948161914289
 30
0.0
 10
9.776646578307194
 20
12.55346040827497
 30
0.0
 10
9.542451961566181
 20
12.12678030999252
 30
0.0
 10
9.478612055377923
 20
11.88580640702584
 30
0.0
 10
9.473421112414268
 20
11.52565520755326
 30
0.0
 10
9.486345898652646
 20
11.40749361566878
 30
0.0
 10
9.541390615621022
 20
11.1745915190869
 30
0.0
 10
9.583730323587114
 20
11.06079117692804
 30
0.0
 10
9.638805742161708
 20
10.95392502366163
 30
0.0
  0
SPLINE
  5
275
330
1F
100
AcDbEntity
  8
SK3
  6
SLD-Dashed
370
    18
100
AcDbSpline
210
0.0
220
0.0
230
1.0
 70
     8
 71
     3
 72
    18
 73
    14
 74
     0
 42
0.000000001
 43
0.00000001
 40
0.0
 40
0.0
 40
0.0
 40
0.0
 40
0.0501962867734932
 40
0.1000306214437242
 40
0.185566733118763
 40
0.2501823892320759
 40
0.3747066158220738
 40
0.499823298218966
 40
0.6247294758455325
 40
0.7494251058857301
 40
0.8746331028690641
 40
0.9372230808189376
 40
1.0
 40
1.0
 40
1.0
 40
1.0
 10
3.949999999999995
 20
46.81625358782993
 30
0.0
 10
3.943300488172041
 20
46.81609127853697
 30
0.0
 10
3.929949772918065
 20
46.81576783032028
 30
0.0
 10
3.905360779048073
 20
46.8125677652622
 30
0.0
 10
3.879327985377795
 20
46.80630579793131
 30
0.0
 10
3.844998498051089
 20
46.79331555547188
 30
0.0
 10
3.808260602500904
 20
46.77247000397297
 30
0.0
 10
3.770344503827447
 20
46.73942242416842
 30
0.0
 10
3.739587180509249
 20
46.69961163074884
 30
0.0
 10
3.716933654940746
 20
46.65468875110018
 30
0.0
 10
3.705476597958113
 20
46.61434662644387
 30
0.0
 10
3.700675324942518
 20
46.58119847829342
 30
0.0
 10
3.70022533198365
 20
46.56446483112381
 30
0.0
 10
3.700000000000037
 20
46.55608553132448
 30
0.0
  0
SPLINE
  5
276
330
1F
100
AcDbEntity
  8
SK3
  6
SLD-Dashed
370
    18
100
AcDbSpline
210
0.0
220
0.0
230
1.0
 70
     8
 71
     3
 72
    18
 73
    14
 74
     0
 42
0.000000001
 43
0.00000001
 40
0.0
 40
0.0
 40
0.0
 40
0.0
 40
0.0502196103872228
 40
0.1000870260924098
 40
0.1855086368940469
 40
0.2501550808791907
 40
0.3746583157461306
 40
0.4998570853792907
 40
0.6242312608259453
 40
0.7494324099488449
 40
0.8740366596180048
 40
0.9370350243166926
 40
1.0
 40
1.0
 40
1.0
 40
1.0
 10
18.55000000000006
 20
46.55608553132441
 30
0.0
 10
18.54985614514717
 20
46.56278755186001
 30
0.0
 10
18.54956944430847
 20
46.57614459105337
 30
0.0
 10
18.54672594518125
 20
46.60076085239337
 30
0.0
 10
18.54114997473674
 20
46.62692328764688
 30
0.0
 10
18.52948583072875
 20
46.66169890756605
 30
0.0
 10
18.51054340758341
 20
46.69941980690709
 30
0.0
 10
18.47987172088778
 20
46.73918434013714
 30
0.0
 10
18.44197136356047
 20
46.77229285140238
 30
0.0
 10
18.39830135356875
 20
46.79720148409476
 30
0.0
 10
18.35828818785674
 20
46.81006094110496
 30
0.0
 10
18.32521964393115
 20
46.81548545401082
 30
0.0
 10
18.30840506230057
 20
46.81599758847396
 30
0.0
 10
18.30000000000003
 20
46.81625358782996
 30
0.0
  0
SPLINE
  5
277
330
1F
100
AcDbEntity
  8
1
  6
SLD-Dashed
370
    18
100
AcDbSpline
210
0.0
220
0.0
230
1.0
 70
     8
 71
     3
 72
     8
 73
     4
 74
     0
 42
0.000000001
 43
0.00000001
 40
0.0
 40
0.0
 40
0.0
 40
0.0
 40
1.0
 40
1.0
 40
1.0
 40
1.0
 10
9.200000000002017
 20
44.5790106634328
 30
0.0
 10
8.786353866861463
 20
45.32508460154085
 30
0.0
 10
8.372088490924062
 20
46.07082082932835
 30
0.0
 10
7.957289380062154
 20
46.81625358782994
 30
0.0
  0
SPLINE
  5
278
330
1F
100
AcDbEntity
  8
1
  6
SLD-Dashed
370
    18
100
AcDbSpline
210
0.0
220
0.0
230
1.0
 70
     8
 71
     3
 72
    10
 73
     6
 74
     0
 42
0.000000001
 43
0.00000001
 40
0.0
 40
0.0
 40
0.0
 40
0.0
 40
0.5
 40
0.5
 40
1.0
 40
1.0
 40
1.0
 40
1.0
 10
9.95000000000124
 20
43.76943596849411
 30
0.0
 10
9.74877153622242
 20
43.76943596849379
 30
0.0
 10
9.550990673892246
 20
43.85856672856773
 30
0.0
 10
9.277097785724
 20
44.15022946993273
 30
0.0
 10
9.20000000000032
 20
44.34957328976746
 30
0.0
 10
9.199999999999985
 20
44.55102159322499
 30
0.0
  0
SPLINE
  5
279
330
1F
100
AcDbEntity
  8
1
  6
SLD-Dashed
370
    18
100
AcDbSpline
210
0.0
220
0.0
230
1.0
 70
     8
 71
     3
 72
    12
 73
     8
 74
     0
 42
0.000000001
 43
0.00000001
 40
0.0
 40
0.0
 40
0.0
 40
0.0
 40
0.5000000000000048
 40
0.5000000000000048
 40
0.7500000000000023
 40
0.7500000000000023
 40
1.0
 40
1.0
 40
1.0
 40
1.0
 10
13.02999999999992
 20
44.55102159322492
 30
0.0
 10
13.0299999999999
 20
44.35104831812322
 30
0.0
 10
12.95399603318285
 20
44.15150826736609
 30
0.0
 10
12.74724095984754
 20
43.93116827138053
 30
0.0
 10
12.66314206268637
 20
43.87128621650959
 30
0.0
 10
12.48048875274076
 20
43.79084228716532
 30
0.0
 10
12.37984375713169
 20
43.76943596849291
 30
0.0
 10
12.28000000000001
 20
43.76943596849289
 30
0.0
  0
SPLINE
  5
27A
330
1F
100
AcDbEntity
  8
1
  6
SLD-Dashed
370
    18
100
AcDbSpline
210
0.0
220
0.0
230
1.0
 70
     8
 71
     3
 72
     8
 73
     4
 74
     0
 42
0.000000001
 43
0.00000001
 40
0.0
 40
0.0
 40
0.0
 40
0.0
 40
1.0
 40
1.0
 40
1.0
 40
1.0
 10
14.27271061995092
 20
46.81625358783779
 30
0.0
 10
13.85791150908531
 20
46.07082082933483
 30
0.0
 10
13.44364613314423
 20
45.32508460154596
 30
0.0
 10
13.02999999999999
 20
44.57901066343648
 30
0.0
  0
SPLINE
  5
27B
330
1F
100
AcDbEntity
  8
1
  6
SLD-Dashed
370
    18
100
AcDbSpline
210
0.0
220
0.0
230
1.0
 70
     8
 71
     3
 72
    12
 73
     8
 74
     0
 42
0.000000001
 43
0.00000001
 40
0.0
 40
0.0
 40
0.0
 40
0.0
 40
0.2499999999999967
 40
0.2499999999999967
 40
0.4999999999999933
 40
0.4999999999999933
 40
1.0
 40
1.0
 40
1.0
 40
1.0
 10
3.1999999999998
 20
-46.69763484374749
 30
0.0
 10
3.199999999999842
 20
-46.79851095846151
 30
0.0
 10
3.218629406337783
 20
-46.89733966428926
 30
0.0
 10
3.291844246696873
 20
-47.08411469648331
 30
0.0
 10
3.345979173512772
 20
-47.16991322229986
 30
0.0
 10
3.551871853062272
 20
-47.38753444472503
 30
0.0
 10
3.74802685678137
 20
-47.47548419974255
 30
0.0
 10
3.950000000000009
 20
-47.4754841997425
 30
0.0
  0
SPLINE
  5
27C
330
1F
100
AcDbEntity
  8
1
  6
SLD-Dashed
370
    18
100
AcDbSpline
210
0.0
220
0.0
230
1.0
 70
     8
 71
     3
 72
    12
 73
     8
 74
     0
 42
0.000000001
 43
0.00000001
 40
0.0
 40
0.0
 40
0.0
 40
0.0
 40
0.2499999999999985
 40
0.2499999999999985
 40
0.499999999999997
 40
0.499999999999997
 40
1.0
 40
1.0
 40
1.0
 40
1.0
 10
18.30000000000033
 20
-47.47548419974279
 30
0.0
 10
18.40091596910972
 20
-47.47548419974275
 30
0.0
 10
18.50002158252286
 20
-47.45437693482727
 30
0.0
 10
18.6831522699248
 20
-47.3742689705784
 30
0.0
 10
18.76654490405293
 20
-47.31511647588048
 30
0.0
 10
18.97195148872762
 20
-47.09831987092238
 30
0.0
 10
19.05000000000011
 20
-46.89926900274104
 30
0.0
 10
19.05
 20
-46.69763484374771
 30
0.0
  0
SPLINE
  5
27D
330
1F
100
AcDbEntity
  8
1
  6
SLD-Dashed
370
    18
100
AcDbSpline
210
0.0
220
0.0
230
1.0
 70
     8
 71
     3
 72
     8
 73
     4
 74
     0
 42
0.000000001
 43
0.00000001
 40
0.0
 40
0.0
 40
0.0
 40
0.0
 40
1.0
 40
1.0
 40
1.0
 40
1.0
 10
14.63972339340268
 20
-47.4754841997425
 30
0.0
 10
14.10222500453558
 20
-46.5104965471081
 30
0.0
 10
13.56559195163211
 20
-45.54503249842018
 30
0.0
 10
13.02999999999999
 20
-44.57901066343648
 30
0.0
  0
SPLINE
  5
27E
330
1F
100
AcDbEntity
  8
1
  6
SLD-Dashed
370
    18
100
AcDbSpline
210
0.0
220
0.0
230
1.0
 70
     8
 71
     3
 72
    12
 73
     8
 74
     0
 42
0.000000001
 43
0.00000001
 40
0.0
 40
0.0
 40
0.0
 40
0.0
 40
0.5
 40
0.5
 40
0.75
 40
0.75
 40
1.0
 40
1.0
 40
1.0
 40
1.0
 10
13.03000000000026
 20
-44.55102159322526
 30
0.0
 10
13.03000000000032
 20
-44.35094747116184
 30
0.0
 10
12.9523869298502
 20
-44.14958800989083
 30
0.0
 10
12.74748896269966
 20
-43.93153570225748
 30
0.0
 10
12.66372770014787
 20
-43.87162606259754
 30
0.0
 10
12.48090790509572
 20
-43.79094541821721
 30
0.0
 10
12.3805733178244
 20
-43.76943596849286
 30
0.0
 10
12.28000000000001
 20
-43.76943596849289
 30
0.0
  0
SPLINE
  5
27F
330
1F
100
AcDbEntity
  8
1
  6
SLD-Dashed
370
    18
100
AcDbSpline
210
0.0
220
0.0
230
1.0
 70
     8
 71
     3
 72
    12
 73
     8
 74
     0
 42
0.000000001
 43
0.00000001
 40
0.0
 40
0.0
 40
0.0
 40
0.0
 40
0.2500000000000039
 40
0.2500000000000039
 40
0.5000000000000078
 40
0.5000000000000078
 40
1.0
 40
1.0
 40
1.0
 40
1.0
 10
9.949999999999834
 20
-43.76943596849305
 30
0.0
 10
9.85003039535881
 20
-43.76943596849309
 30
0.0
 10
9.75011497476623
 20
-43.79051518316424
 30
0.0
 10
9.565507057761256
 20
-43.87194262843707
 30
0.0
 10
9.482715011846734
 20
-43.93126060501225
 30
0.0
 10
9.276579660402879
 20
-44.15080408372874
 30
0.0
 10
9.200000000000028
 20
-44.35163254795803
 30
0.0
 10
9.199999999999985
 20
-44.55102159322499
 30
0.0
  0
SPLINE
  5
280
330
1F
100
AcDbEntity
  8
1
  6
SLD-Dashed
370
    18
100
AcDbSpline
210
0.0
220
0.0
230
1.0
 70
     8
 71
     3
 72
     8
 73
     4
 74
     0
 42
0.000000001
 43
0.00000001
 40
0.0
 40
0.0
 40
0.0
 40
0.0
 40
1.0
 40
1.0
 40
1.0
 40
1.0
 10
9.199999999999985
 20
-44.57901066343648
 30
0.0
 10
8.664408048367891
 20
-45.54503249842017
 30
0.0
 10
8.127774995464437
 20
-46.51049654710808
 30
0.0
 10
7.590276606597349
 20
-47.47548419974248
 30
0.0
  0
SPLINE
  5
281
330
1F
100
AcDbEntity
  8
SK3
  6
SLD-Dashed
370
    18
100
AcDbSpline
210
0.0
220
0.0
230
1.0
 70
     8
 71
     3
 72
    34
 73
    30
 74
     0
 42
0.000000001
 43
0.00000001
 40
0.5000000000000003
 40
0.5000000000000003
 40
0.5000000000000003
 40
0.5000000000000003
 40
0.5625000000000013
 40
0.5625000000000013
 40
0.5937500000000011
 40
0.5937500000000011
 40
0.625000000000001
 40
0.625000000000001
 40
0.6562500000000009
 40
0.6562500000000009
 40
0.6875000000000008
 40
0.6875000000000008
 40
0.7187500000000007
 40
0.7187500000000007
 40
0.7500000000000004
 40
0.7500000000000004
 40
0.7812500000000003
 40
0.7812500000000003
 40
0.8125000000000002
 40
0.8125000000000002
 40
0.8437500000000001
 40
0.8437500000000001
 40
0.875
 40
0.875
 40
0.9062499999999999
 40
0.9062499999999999
 40
0.9374999999999997
 40
0.9374999999999997
 40
1.0
 40
1.0
 40
1.0
 40
1.0
 10
10.60808274902045
 20
14.67518531385664
 30
0.0
 10
10.7714399435272
 20
14.66271400222903
 30
0.0
 10
10.9539607682107
 20
14.63137977172278
 30
0.0
 10
11.25812245907615
 20
14.54691770596561
 30
0.0
 10
11.36641585866906
 20
14.51171888144388
 30
0.0
 10
11.58574352105284
 20
14.42634662926307
 30
0.0
 10
11.69715944869879
 20
14.37625545607607
 30
0.0
 10
11.92117180667888
 20
14.25483711630821
 30
0.0
 10
12.02893523597722
 20
14.18587333985283
 30
0.0
 10
12.22961030853029
 20
14.02983333564747
 30
0.0
 10
12.32267742835867
 20
13.94226901556095
 30
0.0
 10
12.48372543018653
 20
13.75415019217112
 30
0.0
 10
12.553660539161
 20
13.65130323099262
 30
0.0
 10
12.66489321927143
 20
13.43691773984447
 30
0.0
 10
12.70717730188428
 20
13.32435113894571
 30
0.0
 10
12.76326417564931
 20
13.08988167819453
 30
0.0
 10
12.7763551192606
 20
12.9714903905775
 30
0.0
 10
12.77342672652903
 20
12.73211084337569
 30
0.0
 10
12.75684979458239
 20
12.61060743991048
 30
0.0
 10
12.69552150102995
 20
12.37773497196915
 30
0.0
 10
12.65033349294085
 20
12.26373909474826
 30
0.0
 10
12.53298957942556
 20
12.04909612932804
 30
0.0
 10
12.4621453620085
 20
11.95022400081662
 30
0.0
 10
12.29651277322139
 20
11.77143410287179
 30
0.0
 10
12.20150676240368
 20
11.69219588739501
 30
0.0
 10
11.99926684334574
 20
11.56533020093842
 30
0.0
 10
11.88885801145313
 20
11.5158749716928
 30
0.0
 10
11.55399205333034
 20
11.42069275726626
 30
0.0
 10
11.32716468948122
 20
11.42871083881322
 30
0.0
 10
11.12500000000001
 20
11.48273236161758
 30
0.0
  0
SPLINE
  5
282
330
1F
100
AcDbEntity
  8
SK3
  6
SLD-Dashed
370
    18
100
AcDbSpline
210
0.0
220
0.0
230
1.0
 70
     8
 71
     3
 72
    30
 73
    26
 74
     0
 42
0.000000001
 43
0.00000001
 40
0.0
 40
0.0
 40
0.0
 40
0.0
 40
0.0624999999999997
 40
0.0624999999999997
 40
0.1249999999999995
 40
0.1249999999999995
 40
0.1562499999999993
 40
0.1562499999999993
 40
0.1874999999999992
 40
0.1874999999999992
 40
0.2187499999999991
 40
0.2187499999999991
 40
0.2499999999999989
 40
0.2499999999999989
 40
0.2812499999999988
 40
0.2812499999999988
 40
0.3124999999999987
 40
0.3124999999999987
 40
0.3437499999999986
 40
0.3437499999999986
 40
0.3749999999999984
 40
0.3749999999999984
 40
0.4374999999999994
 40
0.4374999999999994
 40
0.5000000000000003
 40
0.5000000000000003
 40
0.5000000000000003
 40
0.5000000000000003
 10
11.12500000000001
 20
11.48273236161758
 30
0.0
 10
10.92283531051878
 20
11.53675388442192
 30
0.0
 10
10.74714710048237
 20
11.63024516394925
 30
0.0
 10
10.42066988662173
 20
11.86454434722231
 30
0.0
 10
10.27375737476434
 20
12.00407384287208
 30
0.0
 10
10.07148943268485
 20
12.2417783920363
 30
0.0
 10
10.00699015299672
 20
12.32609339770681
 30
0.0
 10
9.883509956371203
 20
12.50701007175131
 30
0.0
 10
9.824268573097857
 20
12.60415729348405
 30
0.0
 10
9.715154706090342
 20
12.80934651131552
 30
0.0
 10
9.664396735733465
 20
12.91903622889809
 30
0.0
 10
9.576981863499132
 20
13.14891853741637
 30
0.0
 10
9.540303532497504
 20
13.26831266228051
 30
0.0
 10
9.487704529937997
 20
13.52080982106196
 30
0.0
 10
9.473745253197983
 20
13.64846695671307
 30
0.0
 10
9.476438089560556
 20
13.88700257856813
 30
0.0
 10
9.49319789642801
 20
13.99682053671473
 30
0.0
 10
9.549353346861217
 20
14.18374939795269
 30
0.0
 10
9.588589477848034
 20
14.2623151046244
 30
0.0
 10
9.678480018824306
 20
14.39201189392007
 30
0.0
 10
9.730204466999167
 20
14.44496665500975
 30
0.0
 10
9.89634859518447
 20
14.57471258814565
 30
0.0
 10
10.02083275682618
 20
14.62455209347292
 30
0.0
 10
10.29708420272973
 20
14.68178062150165
 30
0.0
 10
10.4447255545137
 20
14.68765662548426
 30
0.0
 10
10.60808274902045
 20
14.67518531385664
 30
0.0
  0
DIMENSION
  5
283
330
1F
100
AcDbEntity
  8
2
100
AcDbDimension
  2
_D
 10
101.6
 20
75.133598337
 30
0.0
 11
38.7278781722
 21
75.133598337
 31
0.0
 70
   160
  1
<>
 71
     2
 42
-1.0
  3
SLDDIMSTYLE0
100
AcDbAlignedDimension
 13
0.0
 23
34.925
 33
0.0
 14
101.6
 24
24.125
 34
0.0
 50
0.0
100
AcDbRotatedDimension
  0
DIMENSION
  5
298
330
1F
100
AcDbEntity
  8
SK2
100
AcDbDimension
  2
_D_1
 10
101.6
 20
60.7605397181
 30
0.0
 11
44.857985886
 21
60.7605397181
 31
0.0
 70
   160
  1
<>
 71
     2
 42
-1.0
  3
SLDDIMSTYLE0
100
AcDbAlignedDimension
 13
19.05
 23
46.5560855313
 33
0.0
 14
101.6
 24
24.125
 34
0.0
 50
0.0
100
AcDbRotatedDimension
  0
DIMENSION
  5
2AB
330
1F
100
AcDbEntity
  8
SK2
100
AcDbDimension
  2
_D_2
 10
73.025
 20
45.7738268846
 30
0.0
 11
85.8456944922
 21
45.7738268846
 31
0.0
 70
   160
  1
<>
 71
     2
 42
-1.0
  3
SLDDIMSTYLE0
100
AcDbAlignedDimension
 13
101.6
 23
24.125
 33
0.0
 14
73.025
 24
34.825
 34
0.0
100
AcDbRotatedDimension
  0
DIMENSION
  5
2BE
330
1F
100
AcDbEntity
  8
SK2
100
AcDbDimension
  2
_D_3
 10
73.025
 20
45.7738268846
 30
0.0
 11
61.7739297722
 21
45.7738268846
 31
0.0
 70
   160
  1
<>
 71
     2
 42
-1.0
  3
SLDDIMSTYLE0
100
AcDbAlignedDimension
 13
48.025
 23
34.825
 33
0.0
 14
73.025
 24
34.825
 34
0.0
100
AcDbRotatedDimension
  0
DIMENSION
  5
2D1
330
1F
100
AcDbEntity
  8
SK2
100
AcDbDimension
  2
_D_4
 10
19.05
 20
60.7605397181
 30
0.0
 11
9.3356873721
 21
60.7605397181
 31
0.0
 70
   160
  1
<>
 71
     2
 42
-1.0
  3
SLDDIMSTYLE1
100
AcDbAlignedDimension
 13
0.0
 23
34.925
 33
0.0
 14
19.05
 24
46.5560855313
 34
0.0
100
AcDbRotatedDimension
  0
DIMENSION
  5
2DC
330
1F
100
AcDbEntity
  8
SK2
100
AcDbDimension
  2
_D_5
 10
117.5192261759
 20
-20.0
 30
0.0
 11
117.5192261759
 21
0.4511980214
 31
0.0
 70
   160
  1
%%c<>
 71
     2
 42
-1.0
  3
SLDDIMSTYLE2
100
AcDbAlignedDimension
 13
100.6
 23
20.0
 33
0.0
 14
100.6
 24
-20.0
 34
0.0
 50
90.0
100
AcDbRotatedDimension
  0
DIMENSION
  5
2EF
330
1F
100
AcDbEntity
  8
SK2
100
AcDbDimension
  2
_D_6
 10
132.0193105636
 20
-24.125
 30
0.0
 11
132.0193105636
 21
0.4511980214
 31
0.0
 70
   160
  1
%%c<>
 71
     2
 42
-1.0
  3
SLDDIMSTYLE0
100
AcDbAlignedDimension
 13
101.6
 23
24.125
 33
0.0
 14
101.6
 24
-24.125
 34
0.0
 50
90.0
100
AcDbRotatedDimension
  0
DIMENSION
  5
301
330
1F
100
AcDbEntity
  8
SK2
100
AcDbDimension
  2
_D_7
 10
144.5116909591
 20
-34.925
 30
0.0
 11
144.5116909591
 21
0.4511980214
 31
0.0
 70
   160
  1
%%c<>
 71
     2
 42
-1.0
  3
SLDDIMSTYLE0
100
AcDbAlignedDimension
 13
90.8
 23
34.925
 33
0.0
 14
90.8
 24
-34.925
 34
0.0
 50
90.0
100
AcDbRotatedDimension
  0
DIMENSION
  5
313
330
1F
100
AcDbEntity
  8
SK2
100
AcDbDimension
  2
_D_8
 10
101.6
 20
-69.8184417034
 30
0.0
 11
-15.6584719691
 21
-69.8184417034
 31
0.0
 70
   160
  1
<>
 71
     2
 42
-1.0
  3
SLDDIMSTYLE0
100
AcDbAlignedDimension
 13
-101.6
 23
-18.2922326599
 33
0.0
 14
101.6
 24
-24.125
 34
0.0
100
AcDbRotatedDimension
  0
DIMENSION
  5
326
330
1F
100
AcDbEntity
  8
SK2
100
AcDbDimension
  2
_D_9
 10
101.6
 20
-56.8931102092
 30
0.0
 11
61.7739297722
 21
-56.8931102092
 31
0.0
 70
   160
  1
<>
 71
     2
 42
-1.0
  3
SLDDIMSTYLE0
100
AcDbAlignedDimension
 13
24.05
 23
-20.25
 33
0.0
 14
101.6
 24
-24.125
 34
0.0
100
AcDbRotatedDimension
  0
DIMENSION
  5
339
330
1F
100
AcDbEntity
  8
SK2
100
AcDbDimension
  2
_D_10
 10
101.6
 20
-46.2713334199
 30
0.0
 11
83.5269752475
 21
-46.2713334199
 31
0.0
 70
   160
  1
<>
 71
     2
 42
-1.0
  3
SLDDIMSTYLE3
100
AcDbAlignedDimension
 13
90.8
 23
-34.925
 33
0.0
 14
101.6
 24
-24.125
 34
0.0
100
AcDbRotatedDimension
  0
DIMENSION
  5
346
330
1F
100
AcDbEntity
  8
SK2
100
AcDbDimension
  2
_D_11
 10
-119.4938038398
 20
-47.4754841997
 30
0.0
 11
-119.4938038398
 21
2.7336822219
 31
0.0
 70
   160
  1
%%c<>
 71
     2
 42
-1.0
  3
SLDDIMSTYLE1
100
AcDbAlignedDimension
 13
5.7701383033
 23
47.2968145978
 33
0.0
 14
7.5902766066
 24
-47.4754841997
 34
0.0
 50
90.0
100
AcDbRotatedDimension
  0
DIMENSION
  5
351
330
1F
100
AcDbEntity
  8
SK2
100
AcDbDimension
  2
_D_12
 10
-110.0790471402
 20
-12.6999998465
 30
0.0
 11
-110.0790471402
 21
2.7336822219
 31
0.0
 70
   160
  1
<>
 71
     2
 42
-1.0
  3
SLDDIMSTYLE1
100
AcDbAlignedDimension
 13
-94.967097044
 23
12.6999998465
 33
0.0
 14
-94.967097044
 24
-12.6999998465
 34
0.0
 50
90.0
100
AcDbRotatedDimension
  0
MTEXT
  5
35C
330
1F
100
AcDbEntity
  8
SK6
 62
     5
100
AcDbMText
 10
-50.1188663935
 20
-37.0152644309
 30
0.0
 40
3.5
 41
0.0
 71
     1
 72
     1
  1
392.45520-50 40 100
  7
SLDTEXTSTYLE0
 73
     1
 44
1.0
  0
MTEXT
  5
35D
330
1F
100
AcDbEntity
  8
SK6
 62
     5
100
AcDbMText
 10
-52.9115749692
 20
41.7790070246
 30
0.0
 40
3.5
 41
0.0
 71
     1
 72
     1
  1
ASME B5.50 CAT 50
  7
SLDTEXTSTYLE0
 73
     1
 44
1.0
  0
ENDSEC
  0
SECTION
  2
OBJECTS
  0
DICTIONARY
  5
C
330
0
100
AcDbDictionary
281
     1
  3
ACAD_GROUP
350
D
  3
ACAD_LAYOUT
350
1A
  3
ACAD_MLINESTYLE
350
17
  3
ACAD_PLOTSETTINGS
350
19
  3
ACAD_PLOTSTYLENAME
350
E
  3
ACAD_SCALELIST
350
47
  0
DICTIONARY
  5
D
102
{ACAD_REACTORS
330
C
102
}
330
C
100
AcDbDictionary
281
     1
  0
DICTIONARY
  5
1A
102
{ACAD_REACTORS
330
C
102
}
330
C
100
AcDbDictionary
281
     1
  3
Layout1
350
1E
  3
Layout2
350
26
  3
Model
350
22
  0
DICTIONARY
  5
17
102
{ACAD_REACTORS
330
C
102
}
330
C
100
AcDbDictionary
281
     1
  3
Standard
350
18
  0
DICTIONARY
  5
19
102
{ACAD_REACTORS
330
C
102
}
330
C
100
AcDbDictionary
281
     1
  0
ACDBDICTIONARYWDFLT
  5
E
102
{ACAD_REACTORS
330
C
102
}
330
C
100
AcDbDictionary
281
     1
  3
Normal
350
F
100
AcDbDictionaryWithDefault
340
F
  0
DICTIONARY
  5
47
102
{ACAD_REACTORS
330
C
102
}
330
C
100
AcDbDictionary
281
     1
  3
A0
350
48
  3
A1
350
49
  3
A2
350
4A
  3
A3
350
4B
  3
A4
350
4C
  3
A5
350
4D
  3
A6
350
4E
  3
A7
350
4F
  3
A8
350
50
  3
A9
350
51
  3
B0
350
52
  3
B1
350
53
  3
B2
350
54
  3
B3
350
55
  3
B4
350
56
  3
B5
350
57
  3
B6
350
58
  3
B7
350
59
  3
B8
350
5A
  3
B9
350
5B
  3
C0
350
5C
  3
C1
350
5D
  3
C2
350
5E
  3
C3
350
5F
  3
C4
350
60
  3
C5
350
61
  3
C6
350
62
  3
C7
350
63
  3
C8
350
64
  3
C9
350
65
  3
D0
350
66
  3
D1
350
67
  3
D2
350
68
  0
LAYOUT
  5
1E
102
{ACAD_REACTORS
330
1A
102
}
330
1A
100
AcDbPlotSettings
  1

  2
none_device
  4

  6

 40
0.0
 41
0.0
 42
0.0
 43
0.0
 44
0.0
 45
0.0
 46
0.0
 47
0.0
 48
0.0
 49
0.0
140
0.0
141
0.0
142
1.0
143
1.0
 70
   688
 72
     1
 73
     0
 74
     5
  7

 75
    16
147
1.0
148
0.0
149
0.0
100
AcDbLayout
  1
Layout1
 70
     1
 71
     1
 10
0.0
 20
0.0
 11
420.0
 21
297.0
 12
0.0
 22
0.0
 32
0.0
 14
1.0000000000E+20
 24
1.0000000000E+20
 34
1.0000000000E+20
 15
-1.0000000000E+20
 25
-1.0000000000E+20
 35
-1.0000000000E+20
146
0.0
 13
0.0
 23
0.0
 33
0.0
 16
1.0
 26
0.0
 36
0.0
 17
0.0
 27
1.0
 37
0.0
 76
     0
330
1B
  0
LAYOUT
  5
26
102
{ACAD_REACTORS
330
1A
102
}
330
1A
100
AcDbPlotSettings
  1

  2
none_device
  4

  6

 40
0.0
 41
0.0
 42
0.0
 43
0.0
 44
0.0
 45
0.0
 46
0.0
 47
0.0
 48
0.0
 49
0.0
140
0.0
141
0.0
142
1.0
143
1.0
 70
   688
 72
     1
 73
     0
 74
     5
  7

 75
    16
147
1.0
148
0.0
149
0.0
100
AcDbLayout
  1
Layout2
 70
     1
 71
     2
 10
0.0
 20
0.0
 11
0.0
 21
0.0
 12
0.0
 22
0.0
 32
0.0
 14
0.0
 24
0.0
 34
0.0
 15
0.0
 25
0.0
 35
0.0
146
0.0
 13
0.0
 23
0.0
 33
0.0
 16
1.0
 26
0.0
 36
0.0
 17
0.0
 27
1.0
 37
0.0
 76
     0
330
23
  0
LAYOUT
  5
22
102
{ACAD_REACTORS
330
1A
102
}
330
1A
100
AcDbPlotSettings
  1

  2
none_device
  4
Letter_(8.50_x_11.00_Inches)
  6

 40
6.35
 41
6.35
 42
6.35000508
 43
6.35000508
 44
215.9
 45
279.4
 46
0.0
 47
0.0
 48
0.0
 49
0.0
140
0.0
141
0.0
142
1.0
143
1.0
 70
  1712
 72
     1
 73
     0
 74
     0
  7

 75
     0
147
1.0
148
0.0
149
0.0
100
AcDbLayout
  1
Model
 70
     1
 71
     0
 10
0.0
 20
0.0
 11
297.0
 21
210.0
 12
0.0
 22
0.0
 32
0.0
 14
0.0
 24
0.0
 34
0.0
 15
297.0
 25
210.0
 35
0.0
146
0.0
 13
0.0
 23
0.0
 33
0.0
 16
1.0
 26
0.0
 36
0.0
 17
0.0
 27
1.0
 37
0.0
 76
     0
330
1F
331
29
  0
MLINESTYLE
  5
18
102
{ACAD_REACTORS
330
17
102
}
330
17
100
AcDbMlineStyle
  2
Standard
 70
     0
  3

 62
   256
 51
90.0
 52
90.0
 71
     2
 49
0.5
 62
   256
  6
BYLAYER
 49
-0.5
 62
   256
  6
BYLAYER
  0
ACDBPLACEHOLDER
  5
F
102
{ACAD_REACTORS
330
E
102
}
330
E
  0
SCALE
  5
48
102
{ACAD_REACTORS
330
47
102
}
330
47
100
AcDbScale
 70
     0
300
1:1
140
1.0
141
1.0
290
     1
  0
SCALE
  5
49
102
{ACAD_REACTORS
330
47
102
}
330
47
100
AcDbScale
 70
     0
300
1:2
140
1.0
141
2.0
290
     0
  0
SCALE
  5
4A
102
{ACAD_REACTORS
330
47
102
}
330
47
100
AcDbScale
 70
     0
300
1:4
140
1.0
141
4.0
290
     0
  0
SCALE
  5
4B
102
{ACAD_REACTORS
330
47
102
}
330
47
100
AcDbScale
 70
     0
300
1:5
140
1.0
141
5.0
290
     0
  0
SCALE
  5
4C
102
{ACAD_REACTORS
330
47
102
}
330
47
100
AcDbScale
 70
     0
300
1:8
140
1.0
141
8.0
290
     0
  0
SCALE
  5
4D
102
{ACAD_REACTORS
330
47
102
}
330
47
100
AcDbScale
 70
     0
300
1:10
140
1.0
141
10.0
290
     0
  0
SCALE
  5
4E
102
{ACAD_REACTORS
330
47
102
}
330
47
100
AcDbScale
 70
     0
300
1:16
140
1.0
141
16.0
290
     0
  0
SCALE
  5
4F
102
{ACAD_REACTORS
330
47
102
}
330
47
100
AcDbScale
 70
     0
300
1:20
140
1.0
141
20.0
290
     0
  0
SCALE
  5
50
102
{ACAD_REACTORS
330
47
102
}
330
47
100
AcDbScale
 70
     0
300
1:30
140
1.0
141
30.0
290
     0
  0
SCALE
  5
51
102
{ACAD_REACTORS
330
47
102
}
330
47
100
AcDbScale
 70
     0
300
1:40
140
1.0
141
40.0
290
     0
  0
SCALE
  5
52
102
{ACAD_REACTORS
330
47
102
}
330
47
100
AcDbScale
 70
     0
300
1:50
140
1.0
141
50.0
290
     0
  0
SCALE
  5
53
102
{ACAD_REACTORS
330
47
102
}
330
47
100
AcDbScale
 70
     0
300
1:100
140
1.0
141
100.0
290
     0
  0
SCALE
  5
54
102
{ACAD_REACTORS
330
47
102
}
330
47
100
AcDbScale
 70
     0
300
2:1
140
2.0
141
1.0
290
     0
  0
SCALE
  5
55
102
{ACAD_REACTORS
330
47
102
}
330
47
100
AcDbScale
 70
     0
300
4:1
140
4.0
141
1.0
290
     0
  0
SCALE
  5
56
102
{ACAD_REACTORS
330
47
102
}
330
47
100
AcDbScale
 70
     0
300
8:1
140
8.0
141
1.0
290
     0
  0
SCALE
  5
57
102
{ACAD_REACTORS
330
47
102
}
330
47
100
AcDbScale
 70
     0
300
10:1
140
10.0
141
1.0
290
     0
  0
SCALE
  5
58
102
{ACAD_REACTORS
330
47
102
}
330
47
100
AcDbScale
 70
     0
300
100:1
140
100.0
141
1.0
290
     0
  0
SCALE
  5
59
102
{ACAD_REACTORS
330
47
102
}
330
47
100
AcDbScale
 70
     0
300
1/128" = 1'-0"
140
0.0078125
141
12.0
290
     0
  0
SCALE
  5
5A
102
{ACAD_REACTORS
330
47
102
}
330
47
100
AcDbScale
 70
     0
300
1/64" = 1'-0"
140
0.015625
141
12.0
290
     0
  0
SCALE
  5
5B
102
{ACAD_REACTORS
330
47
102
}
330
47
100
AcDbScale
 70
     0
300
1/32" = 1'-0"
140
0.03125
141
12.0
290
     0
  0
SCALE
  5
5C
102
{ACAD_REACTORS
330
47
102
}
330
47
100
AcDbScale
 70
     0
300
1/16" = 1'-0"
140
0.0625
141
12.0
290
     0
  0
SCALE
  5
5D
102
{ACAD_REACTORS
330
47
102
}
330
47
100
AcDbScale
 70
     0
300
3/32" = 1'-0"
140
0.09375
141
12.0
290
     0
  0
SCALE
  5
5E
102
{ACAD_REACTORS
330
47
102
}
330
47
100
AcDbScale
 70
     0
300
1/8" = 1'-0"
140
0.125
141
12.0
290
     0
  0
SCALE
  5
5F
102
{ACAD_REACTORS
330
47
102
}
330
47
100
AcDbScale
 70
     0
300
3/16" = 1'-0"
140
0.1875
141
12.0
290
     0
  0
SCALE
  5
60
102
{ACAD_REACTORS
330
47
102
}
330
47
100
AcDbScale
 70
     0
300
1/4" = 1'-0"
140
0.25
141
12.0
290
     0
  0
SCALE
  5
61
102
{ACAD_REACTORS
330
47
102
}
330
47
100
AcDbScale
 70
     0
300
3/8" = 1'-0"
140
0.375
141
12.0
290
     0
  0
SCALE
  5
62
102
{ACAD_REACTORS
330
47
102
}
330
47
100
AcDbScale
 70
     0
300
1/2" = 1'-0"
140
0.5
141
12.0
290
     0
  0
SCALE
  5
63
102
{ACAD_REACTORS
330
47
102
}
330
47
100
AcDbScale
 70
     0
300
3/4" = 1'-0"
140
0.75
141
12.0
290
     0
  0
SCALE
  5
64
102
{ACAD_REACTORS
330
47
102
}
330
47
100
AcDbScale
 70
     0
300
1" = 1'-0"
140
1.0
141
12.0
290
     0
  0
SCALE
  5
65
102
{ACAD_REACTORS
330
47
102
}
330
47
100
AcDbScale
 70
     0
300
1-1/2" = 1'-0"
140
1.5
141
12.0
290
     0
  0
SCALE
  5
66
102
{ACAD_REACTORS
330
47
102
}
330
47
100
AcDbScale
 70
     0
300
3" = 1'-0"
140
3.0
141
12.0
290
     0
  0
SCALE
  5
67
102
{ACAD_REACTORS
330
47
102
}
330
47
100
AcDbScale
 70
     0
300
6" = 1'-0"
140
6.0
141
12.0
290
     0
  0
SCALE
  5
68
102
{ACAD_REACTORS
330
47
102
}
330
47
100
AcDbScale
 70
     0
300
1'-0" = 1'-0"
140
12.0
141
12.0
290
     0
  0
ENDSEC
  0
EOF
