  0
SECTION
  2
HEADER
  9
$ACADVER
  1
AC1015
  9
$ACADMAINTVER
 70
     6
  9
$DWGCODEPAGE
  3
ANSI_1250
  9
$INSBASE
 10
0.0
 20
0.0
 30
0.0
  9
$EXTMIN
 10
0.0
 20
0.0
 30
0.0
  9
$EXTMAX
 10
297.0
 20
210.0
 30
0.0
  9
$LIMMIN
 10
0.0
 20
0.0
  9
$LIMMAX
 10
297.0
 20
210.0
  9
$ORTHOMODE
 70
     0
  9
$REGENMODE
 70
     1
  9
$FILLMODE
 70
     1
  9
$QTEXTMODE
 70
     0
  9
$MIRRTEXT
 70
     1
  9
$LTSCALE
 40
1.0
  9
$ATTMODE
 70
     1
  9
$TEXTSIZE
 40
3.5
  9
$TRACEWID
 40
1.0
  9
$TEXTSTYLE
  7
Standard
  9
$CLAYER
  8
0
  9
$CELTYPE
  6
ByLayer
  9
$CECOLOR
 62
   256
  9
$CELTSCALE
 40
1.0
  9
$DISPSILH
 70
     0
  9
$DIMSCALE
 40
1.0
  9
$DIMASZ
 40
3.302
  9
$DIMEXO
 40
1.0
  9
$DIMDLI
 40
3.75
  9
$DIMRND
 40
0.0
  9
$DIMDLE
 40
0.0
  9
$DIMEXE
 40
1.0
  9
$DIMTP
 40
0.0
  9
$DIMTM
 40
0.0
  9
$DIMTXT
 40
3.5
  9
$DIMCEN
 40
2.5
  9
$DIMTSZ
 40
0.0
  9
$DIMTOL
 70
     0
  9
$DIMLIM
 70
     0
  9
$DIMTIH
 70
     1
  9
$DIMTOH
 70
     1
  9
$DIMSE1
 70
     0
  9
$DIMSE2
 70
     0
  9
$DIMTAD
 70
     1
  9
$DIMZIN
 70
     0
  9
$DIMBLK
  1

  9
$DIMASO
 70
     1
  9
$DIMSHO
 70
     1
  9
$DIMPOST
  1

  9
$DIMAPOST
  1

  9
$DIMALT
 70
     0
  9
$DIMALTD
 70
     3
  9
$DIMALTF
 40
0.0393700787
  9
$DIMLFAC
 40
1.0
  9
$DIMTOFL
 70
     1
  9
$DIMTVP
 40
0.0
  9
$DIMTIX
 70
     0
  9
$DIMSOXD
 70
     0
  9
$DIMSAH
 70
     0
  9
$DIMBLK1
  1

  9
$DIMBLK2
  1

  9
$DIMSTYLE
  2
ISO-25
  9
$DIMCLRD
 70
     0
  9
$DIMCLRE
 70
     0
  9
$DIMCLRT
 70
     0
  9
$DIMTFAC
 40
1.0
  9
$DIMGAP
 40
1.524
  9
$DIMJUST
 70
     0
  9
$DIMSD1
 70
     0
  9
$DIMSD2
 70
     0
  9
$DIMTOLJ
 70
     0
  9
$DIMTZIN
 70
     0
  9
$DIMALTZ
 70
     0
  9
$DIMALTTZ
 70
     0
  9
$DIMUPT
 70
     0
  9
$DIMDEC
 70
     2
  9
$DIMTDEC
 70
     2
  9
$DIMALTU
 70
     2
  9
$DIMALTTD
 70
     3
  9
$DIMTXSTY
  7
Standard
  9
$DIMAUNIT
 70
     0
  9
$DIMADEC
 70
     2
  9
$DIMALTRND
 40
0.0
  9
$DIMAZIN
 70
     0
  9
$DIMDSEP
 70
    44
  9
$DIMATFIT
 70
     3
  9
$DIMFRAC
 70
     0
  9
$DIMLDRBLK
  1

  9
$DIMLUNIT
 70
     2
  9
$DIMLWD
 70
    -2
  9
$DIMLWE
 70
    -2
  9
$DIMTMOVE
 70
     0
  9
$LUNITS
 70
     2
  9
$LUPREC
 70
     2
  9
$SKETCHINC
 40
1.0
  9
$FILLETRAD
 40
10.0
  9
$AUNITS
 70
     0
  9
$AUPREC
 70
     2
  9
$MENU
  1
.
  9
$ELEVATION
 40
0.0
  9
$PELEVATION
 40
0.0
  9
$THICKNESS
 40
0.0
  9
$LIMCHECK
 70
     0
  9
$CHAMFERA
 40
0.0
  9
$CHAMFERB
 40
0.0
  9
$CHAMFERC
 40
0.0
  9
$CHAMFERD
 40
0.0
  9
$SKPOLY
 70
     0
  9
$TDCREATE
 40
2459278.333629109
  9
$TDUCREATE
 40
2459278.291962442
  9
$TDUPDATE
 40
2459278.333631146
  9
$TDUUPDATE
 40
2459278.291964479
  9
$TDINDWG
 40
0.0000000116
  9
$TDUSRTIMER
 40
0.0000000116
  9
$USRTIMER
 70
     1
  9
$ANGBASE
 50
0.0
  9
$ANGDIR
 70
     0
  9
$PDMODE
 70
     0
  9
$PDSIZE
 40
-1.0
  9
$PLINEWID
 40
0.0
  9
$SPLFRAME
 70
     0
  9
$SPLINETYPE
 70
     6
  9
$SPLINESEGS
 70
     8
  9
$HANDSEED
  5
36D
  9
$SURFTAB1
 70
     6
  9
$SURFTAB2
 70
     6
  9
$SURFTYPE
 70
     6
  9
$SURFU
 70
     6
  9
$SURFV
 70
     6
  9
$UCSBASE
  2

  9
$UCSNAME
  2

  9
$UCSORG
 10
0.0
 20
0.0
 30
0.0
  9
$UCSXDIR
 10
1.0
 20
0.0
 30
0.0
  9
$UCSYDIR
 10
0.0
 20
1.0
 30
0.0
  9
$UCSORTHOREF
  2

  9
$UCSORTHOVIEW
 70
     0
  9
$UCSORGTOP
 10
0.0
 20
0.0
 30
0.0
  9
$UCSORGBOTTOM
 10
0.0
 20
0.0
 30
0.0
  9
$UCSORGLEFT
 10
0.0
 20
0.0
 30
0.0
  9
$UCSORGRIGHT
 10
0.0
 20
0.0
 30
0.0
  9
$UCSORGFRONT
 10
0.0
 20
0.0
 30
0.0
  9
$UCSORGBACK
 10
0.0
 20
0.0
 30
0.0
  9
$PUCSBASE
  2

  9
$PUCSNAME
  2

  9
$PUCSORG
 10
0.0
 20
0.0
 30
0.0
  9
$PUCSXDIR
 10
1.0
 20
0.0
 30
0.0
  9
$PUCSYDIR
 10
0.0
 20
1.0
 30
0.0
  9
$PUCSORTHOREF
  2

  9
$PUCSORTHOVIEW
 70
     0
  9
$PUCSORGTOP
 10
0.0
 20
0.0
 30
0.0
  9
$PUCSORGBOTTOM
 10
0.0
 20
0.0
 30
0.0
  9
$PUCSORGLEFT
 10
0.0
 20
0.0
 30
0.0
  9
$PUCSORGRIGHT
 10
0.0
 20
0.0
 30
0.0
  9
$PUCSORGFRONT
 10
0.0
 20
0.0
 30
0.0
  9
$PUCSORGBACK
 10
0.0
 20
0.0
 30
0.0
  9
$USERI1
 70
     0
  9
$USERI2
 70
     0
  9
$USERI3
 70
     0
  9
$USERI4
 70
     0
  9
$USERI5
 70
     0
  9
$USERR1
 40
0.0
  9
$USERR2
 40
0.0
  9
$USERR3
 40
0.0
  9
$USERR4
 40
0.0
  9
$USERR5
 40
0.0
  9
$WORLDVIEW
 70
     1
  9
$SHADEDGE
 70
     3
  9
$SHADEDIF
 70
    70
  9
$TILEMODE
 70
     1
  9
$MAXACTVP
 70
    64
  9
$PINSBASE
 10
0.0
 20
0.0
 30
0.0
  9
$PLIMCHECK
 70
     0
  9
$PEXTMIN
 10
1.0000000000E+20
 20
1.0000000000E+20
 30
1.0000000000E+20
  9
$PEXTMAX
 10
-1.0000000000E+20
 20
-1.0000000000E+20
 30
-1.0000000000E+20
  9
$PLIMMIN
 10
0.0
 20
0.0
  9
$PLIMMAX
 10
420.0
 20
297.0
  9
$UNITMODE
 70
     0
  9
$VISRETAIN
 70
     1
  9
$PLINEGEN
 70
     0
  9
$PSLTSCALE
 70
     1
  9
$TREEDEPTH
 70
  3020
  9
$CMLSTYLE
  2
Standard
  9
$CMLJUST
 70
     0
  9
$CMLSCALE
 40
20.0
  9
$PROXYGRAPHICS
 70
     1
  9
$MEASUREMENT
 70
     1
  9
$CELWEIGHT
370
    -1
  9
$ENDCAPS
280
     0
  9
$JOINSTYLE
280
     0
  9
$LWDISPLAY
290
     1
  9
$INSUNITS
 70
     4
  9
$HYPERLINKBASE
  1

  9
$STYLESHEET
  1

  9
$XEDIT
290
     1
  9
$CEPSNTYPE
380
     0
  9
$PSTYLEMODE
290
     1
  9
$FINGERPRINTGUID
  2
{33B935A7-4E2B-4080-923C-713AD4D7BBDF}
  9
$VERSIONGUID
  2
{FAEB1C32-E019-11D5-929B-00C0DF256EC4}
  9
$EXTNAMES
290
     1
  9
$PSVPSCALE
 40
0.0
  9
$OLESTARTUP
290
     0
  0
ENDSEC
  0
SECTION
  2
CLASSES
  0
CLASS
  1
ACDBDICTIONARYWDFLT
  2
AcDbDictionaryWithDefault
  3
ObjectDBX Classes
 90
        0
280
     0
281
     0
  0
CLASS
  1
VISUALSTYLE
  2
AcDbVisualStyle
  3
ObjectDBX Classes
 90
     4095
280
     0
281
     0
  0
CLASS
  1
MATERIAL
  2
AcDbMaterial
  3
ObjectDBX Classes
 90
     1153
280
     0
281
     0
  0
CLASS
  1
SCALE
  2
AcDbScale
  3
ObjectDBX Classes
 90
     1153
280
     0
281
     0
  0
CLASS
  1
TABLESTYLE
  2
AcDbTableStyle
  3
ObjectDBX Classes
 90
     4095
280
     0
281
     0
  0
CLASS
  1
MLEADERSTYLE
  2
AcDbMLeaderStyle
  3
ACDB_MLEADERSTYLE_CLASS
 90
     4095
280
     0
281
     0
  0
CLASS
  1
SUN
  2
AcDbSun
  3
SCENEOE
 90
     1153
280
     0
281
     0
  0
CLASS
  1
ACDBPLACEHOLDER
  2
AcDbPlaceHolder
  3
ObjectDBX Classes
 90
        0
280
     0
281
     0
  0
CLASS
  1
LAYOUT
  2
AcDbLayout
  3
ObjectDBX Classes
 90
        0
280
     0
281
     0
  0
ENDSEC
  0
SECTION
  2
TABLES
  0
TABLE
  2
VPORT
  5
8
330
0
100
AcDbSymbolTable
 70
     1
  0
VPORT
  5
29
330
8
100
AcDbSymbolTableRecord
100
AcDbViewportTableRecord
  2
*Active
 70
     0
 10
0.0
 20
0.0
 11
1.0
 21
1.0
 12
148.5
 22
105.0
 13
0.0
 23
0.0
 14
10.0
 24
10.0
 15
10.0
 25
10.0
 16
0.0
 26
0.0
 36
1.0
 17
0.0
 27
0.0
 37
0.0
 40
210.0
 41
1.4142857143
 42
50.0
 43
0.0
 44
0.0
 50
0.0
 51
0.0
 71
     0
 72
  2000
 73
     1
 74
     3
 75
     0
 76
     0
 77
     0
 78
     0
281
     0
 65
     1
110
0.0
120
0.0
130
0.0
111
1.0
121
0.0
131
0.0
112
0.0
122
1.0
132
0.0
 79
     0
146
0.0
  0
ENDTAB
  0
TABLE
  2
LTYPE
  5
5
330
0
100
AcDbSymbolTable
 70
     8
  0
LTYPE
  5
14
330
5
100
AcDbSymbolTableRecord
100
AcDbLinetypeTableRecord
  2
ByBlock
 70
     0
  3

 72
    65
 73
     0
 40
0.0
  0
LTYPE
  5
15
330
5
100
AcDbSymbolTableRecord
100
AcDbLinetypeTableRecord
  2
ByLayer
 70
     0
  3

 72
    65
 73
     0
 40
0.0
  0
LTYPE
  5
16
330
5
100
AcDbSymbolTableRecord
100
AcDbLinetypeTableRecord
  2
Continuous
 70
     0
  3
Solid line
 72
    65
 73
     0
 40
0.0
  0
LTYPE
  5
6E
330
5
100
AcDbSymbolTableRecord
100
AcDbLinetypeTableRecord
  2
SLD-Solid
 70
     0
  3
SolidWorks Line Style
 72
    65
 73
     0
 40
0.0
  0
LTYPE
  5
6F
330
5
100
AcDbSymbolTableRecord
100
AcDbLinetypeTableRecord
  2
SLD-Dashed
 70
     0
  3
SolidWorks Line Style
 72
    65
 73
     2
 40
1.905
 49
1.27
 74
     0
 49
-0.635
 74
     0
  0
LTYPE
  5
70
330
5
100
AcDbSymbolTableRecord
100
AcDbLinetypeTableRecord
  2
SLD-Phantom
 70
     0
  3
SolidWorks Line Style
 72
    65
 73
     6
 40
12.7
 49
6.35
 74
     0
 49
-1.27
 74
     0
 49
1.27
 74
     0
 49
-1.27
 74
     0
 49
1.27
 74
     0
 49
-1.27
 74
     0
  0
LTYPE
  5
71
330
5
100
AcDbSymbolTableRecord
100
AcDbLinetypeTableRecord
  2
SLD-Chain
 70
     0
  3
SolidWorks Line Style
 72
    65
 73
     4
 40
10.16
 49
6.35
 74
     0
 49
-1.27
 74
     0
 49
1.27
 74
     0
 49
-1.27
 74
     0
  0
LTYPE
  5
72
330
5
100
AcDbSymbolTableRecord
100
AcDbLinetypeTableRecord
  2
SLD-Center
 70
     0
  3
SolidWorks Line Style
 72
    65
 73
     4
 40
19.05
 49
15.24
 74
     0
 49
-1.27
 74
     0
 49
1.27
 74
     0
 49
-1.27
 74
     0
  0
LTYPE
  5
73
330
5
100
AcDbSymbolTableRecord
100
AcDbLinetypeTableRecord
  2
SLD-Stitch
 70
     0
  3
SolidWorks Line Style
 72
    65
 73
     2
 40
0.635
 49
0.0
 74
     0
 49
-0.635
 74
     0
  0
LTYPE
  5
74
330
5
100
AcDbSymbolTableRecord
100
AcDbLinetypeTableRecord
  2
SLD-Thin-Thick-Chain
 70
     0
  3
SolidWorks Line Style
 72
    65
 73
     4
 40
10.16
 49
6.35
 74
     0
 49
-1.27
 74
     0
 49
1.27
 74
     0
 49
-1.27
 74
     0
  0
ENDTAB
  0
TABLE
  2
LAYER
  5
2
330
0
100
AcDbSymbolTable
 70
    14
  0
LAYER
  5
10
330
2
100
AcDbSymbolTableRecord
100
AcDbLayerTableRecord
  2
0
 70
     0
 62
     7
  6
Continuous
370
    -3
390
F
  0
LAYER
  5
75
330
2
100
AcDbSymbolTableRecord
100
AcDbLayerTableRecord
  2
SLD-0
 70
     0
 62
   179
  6
SLD-Solid
370
    -3
390
F
  0
LAYER
  5
76
330
2
100
AcDbSymbolTableRecord
100
AcDbLayerTableRecord
  2
80
 70
     0
 62
    -6
  6
SLD-Solid
290
     0
370
    -3
390
F
  0
LAYER
  5
77
330
2
100
AcDbSymbolTableRecord
100
AcDbLayerTableRecord
  2
81
 70
     0
 62
    -3
  6
SLD-Solid
290
     0
370
    -3
390
F
  0
LAYER
  5
78
330
2
100
AcDbSymbolTableRecord
100
AcDbLayerTableRecord
  2
1
 70
     0
 62
     4
  6
SLD-Solid
290
     0
370
    -3
390
F
  0
LAYER
  5
79
330
2
100
AcDbSymbolTableRecord
100
AcDbLayerTableRecord
  2
4
 70
     0
 62
    -2
  6
SLD-Chain
290
     0
370
    -3
390
F
  0
LAYER
  5
7A
330
2
100
AcDbSymbolTableRecord
100
AcDbLayerTableRecord
  2
2
 70
     0
 62
     7
  6
SLD-Solid
290
     0
370
    -3
390
F
  0
LAYER
  5
7B
330
2
100
AcDbSymbolTableRecord
100
AcDbLayerTableRecord
  2
SK3
 70
     0
 62
     1
  6
SLD-Dashed
290
     0
370
    -3
390
F
  0
LAYER
  5
7C
330
2
100
AcDbSymbolTableRecord
100
AcDbLayerTableRecord
  2
SK4
 70
     0
 62
     2
  6
SLD-Chain
290
     0
370
    -3
390
F
  0
LAYER
  5
7D
330
2
100
AcDbSymbolTableRecord
100
AcDbLayerTableRecord
  2
SK2
 70
     0
 62
     7
  6
SLD-Solid
290
     0
370
    -3
390
F
  0
LAYER
  5
7E
330
2
100
AcDbSymbolTableRecord
100
AcDbLayerTableRecord
  2
SK6
 70
     0
 62
     5
  6
SLD-Solid
290
     0
370
    -3
390
F
  0
LAYER
  5
7F
330
2
100
AcDbSymbolTableRecord
100
AcDbLayerTableRecord
  2
6
 70
     0
 62
     5
  6
SLD-Solid
370
    -3
390
F
  0
LAYER
  5
80
330
2
100
AcDbSymbolTableRecord
100
AcDbLayerTableRecord
  2
SK1
 70
     0
 62
     4
  6
SLD-Solid
370
    -3
390
F
  0
LAYER
  5
81
330
2
100
AcDbSymbolTableRecord
100
AcDbLayerTableRecord
  2
LAYER5
 70
     0
 62
   218
  6
SLD-Solid
370
    -3
390
F
  0
ENDTAB
  0
TABLE
  2
STYLE
  5
3
330
0
100
AcDbSymbolTable
 70
     3
  0
STYLE
  5
11
330
3
100
AcDbSymbolTableRecord
100
AcDbTextStyleTableRecord
  2
Standard
 70
     0
 40
0.0
 41
1.0
 50
0.0
 71
     0
 42
3.5
  3
txt
  4

  0
STYLE
  5
27D
330
3
100
AcDbSymbolTableRecord
100
AcDbTextStyleTableRecord
  2
SLDTEXTSTYLE0
 70
     0
 40
0.0
 41
0.75
 50
0.0
 71
     0
 42
3.5
  3
TXT
  4

  0
STYLE
  5
369
330
3
100
AcDbSymbolTableRecord
100
AcDbTextStyleTableRecord
  2
SLDTEXTSTYLE1
 70
     0
 40
0.0
 41
0.6666666667
 50
0.0
 71
     0
 42
3.5
  3
TXT
  4

  0
ENDTAB
  0
TABLE
  2
VIEW
  5
6
330
0
100
AcDbSymbolTable
 70
     0
  0
ENDTAB
  0
TABLE
  2
UCS
  5
7
330
0
100
AcDbSymbolTable
 70
     0
  0
ENDTAB
  0
TABLE
  2
APPID
  5
9
330
0
100
AcDbSymbolTable
 70
     1
  0
APPID
  5
12
330
9
100
AcDbSymbolTableRecord
100
AcDbRegAppTableRecord
  2
ACAD
 70
     0
  0
ENDTAB
  0
TABLE
  2
DIMSTYLE
  5
A
330
0
100
AcDbSymbolTable
 70
     6
100
AcDbDimStyleTable
  0
DIMSTYLE
105
27
330
A
100
AcDbSymbolTableRecord
100
AcDbDimStyleTableRecord
  2
ISO-25
 70
     0
 41
2.5
 42
0.625
 43
3.75
 44
1.25
 73
     0
 74
     0
 77
     1
 78
     8
140
2.5
141
2.5
143
0.0393700787
147
0.625
171
     3
172
     1
178
     0
271
     2
272
     2
274
     3
278
    44
283
     0
284
     8
340
11
  0
DIMSTYLE
105
27E
102
{ACAD_REACTORS
330
27C
330
291
330
2A4
330
2C2
330
2D5
330
2FD
330
30F
330
335
102
}
330
A
100
AcDbSymbolTableRecord
100
AcDbDimStyleTableRecord
  2
SLDDIMSTYLE0
 70
     0
 41
3.302
 44
0.0
 45
0.000000001
 73
     0
 74
     0
 77
     1
 78
    12
 79
     3
140
3.5
143
0.0393700787
147
0.875
148
0.000000001
170
     1
173
     1
178
     0
271
     2
272
     2
276
     2
284
    12
340
27D
  0
DIMSTYLE
105
2B8
102
{ACAD_REACTORS
330
2B7
330
355
330
360
102
}
330
A
100
AcDbSymbolTableRecord
100
AcDbDimStyleTableRecord
  2
SLDDIMSTYLE1
 70
     0
 41
3.302
 44
0.0
 45
0.000000001
 73
     0
 74
     0
 77
     1
 78
    12
 79
     3
140
3.5
147
0.875
173
     1
178
     0
271
     2
272
     2
276
     2
284
    12
340
27D
  0
DIMSTYLE
105
2E9
102
{ACAD_REACTORS
330
2E8
102
}
330
A
100
AcDbSymbolTableRecord
100
AcDbDimStyleTableRecord
  2
SLDDIMSTYLE2
 70
     0
 41
3.302
 44
0.0
 45
0.000000001
 73
     0
 74
     0
 77
     1
 78
    12
 79
     3
140
3.5
143
0.0393700787
147
0.875
148
0.000000001
170
     1
171
     3
172
     1
173
     1
178
     0
271
     2
272
     2
274
     3
276
     2
284
    12
289
     0
340
27D
  0
DIMSTYLE
105
322
102
{ACAD_REACTORS
330
321
102
}
330
A
100
AcDbSymbolTableRecord
100
AcDbDimStyleTableRecord
  2
SLDDIMSTYLE3
 70
     0
 41
3.302
 44
0.0
 45
0.000000001
 73
     0
 74
     0
 77
     1
 78
    12
 79
     3
140
3.5
143
0.0393700787
147
0.875
148
0.000000001
170
     1
173
     1
178
     0
271
     3
272
     2
276
     2
284
    12
340
27D
  0
DIMSTYLE
105
349
102
{ACAD_REACTORS
330
348
102
}
330
A
100
AcDbSymbolTableRecord
100
AcDbDimStyleTableRecord
  2
SLDDIMSTYLE4
 70
     0
 41
3.302
 44
0.0
 45
0.000000001
 73
     0
 74
     0
 77
     1
 78
    12
 79
     3
140
3.5
147
0.875
172
     1
173
     1
178
     0
271
     2
272
     2
276
     2
284
    12
289
     0
340
27D
  0
ENDTAB
  0
TABLE
  2
BLOCK_RECORD
  5
1
330
0
100
AcDbSymbolTable
 70
    15
  0
BLOCK_RECORD
  5
1F
330
1
100
AcDbSymbolTableRecord
100
AcDbBlockTableRecord
  2
*Model_Space
340
22
  0
BLOCK_RECORD
  5
1B
330
1
100
AcDbSymbolTableRecord
100
AcDbBlockTableRecord
  2
*Paper_Space
340
1E
  0
BLOCK_RECORD
  5
23
330
1
100
AcDbSymbolTableRecord
100
AcDbBlockTableRecord
  2
*Paper_Space0
340
26
  0
BLOCK_RECORD
  5
27F
330
1
100
AcDbSymbolTableRecord
100
AcDbBlockTableRecord
  2
_D
340
0
  0
BLOCK_RECORD
  5
292
330
1
100
AcDbSymbolTableRecord
100
AcDbBlockTableRecord
  2
_D_1
340
0
  0
BLOCK_RECORD
  5
2A5
330
1
100
AcDbSymbolTableRecord
100
AcDbBlockTableRecord
  2
_D_2
340
0
  0
BLOCK_RECORD
  5
2B9
330
1
100
AcDbSymbolTableRecord
100
AcDbBlockTableRecord
  2
_D_3
340
0
  0
BLOCK_RECORD
  5
2C3
330
1
100
AcDbSymbolTableRecord
100
AcDbBlockTableRecord
  2
_D_4
340
0
  0
BLOCK_RECORD
  5
2D6
330
1
100
AcDbSymbolTableRecord
100
AcDbBlockTableRecord
  2
_D_5
340
0
  0
BLOCK_RECORD
  5
2EA
330
1
100
AcDbSymbolTableRecord
100
AcDbBlockTableRecord
  2
_D_6
340
0
  0
BLOCK_RECORD
  5
2FE
330
1
100
AcDbSymbolTableRecord
100
AcDbBlockTableRecord
  2
_D_7
340
0
  0
BLOCK_RECORD
  5
310
330
1
100
AcDbSymbolTableRecord
100
AcDbBlockTableRecord
  2
_D_8
340
0
  0
BLOCK_RECORD
  5
323
330
1
100
AcDbSymbolTableRecord
100
AcDbBlockTableRecord
  2
_D_9
340
0
  0
BLOCK_RECORD
  5
336
330
1
100
AcDbSymbolTableRecord
100
AcDbBlockTableRecord
  2
_D_10
340
0
  0
BLOCK_RECORD
  5
34A
330
1
100
AcDbSymbolTableRecord
100
AcDbBlockTableRecord
  2
_D_11
340
0
  0
BLOCK_RECORD
  5
356
330
1
100
AcDbSymbolTableRecord
100
AcDbBlockTableRecord
  2
_D_12
340
0
  0
BLOCK_RECORD
  5
361
330
1
100
AcDbSymbolTableRecord
100
AcDbBlockTableRecord
  2
_D_13
340
0
  0
ENDTAB
  0
ENDSEC
  0
SECTION
  2
BLOCKS
  0
BLOCK
  5
20
330
1F
100
AcDbEntity
  8
0
100
AcDbBlockBegin
  2
*Model_Space
 70
     0
 10
0.0
 20
0.0
 30
0.0
  3
*Model_Space
  1

  0
ENDBLK
  5
21
330
1F
100
AcDbEntity
  8
0
100
AcDbBlockEnd
  0
BLOCK
  5
1C
330
1B
100
AcDbEntity
 67
     1
  8
0
100
AcDbBlockBegin
  2
*Paper_Space
 70
     0
 10
0.0
 20
0.0
 30
0.0
  3
*Paper_Space
  1

  0
ENDBLK
  5
1D
330
1B
100
AcDbEntity
 67
     1
  8
0
100
AcDbBlockEnd
  0
BLOCK
  5
24
330
23
100
AcDbEntity
  8
0
100
AcDbBlockBegin
  2
*Paper_Space0
 70
     0
 10
0.0
 20
0.0
 30
0.0
  3
*Paper_Space0
  1

  0
ENDBLK
  5
25
330
23
100
AcDbEntity
  8
0
100
AcDbBlockEnd
  0
BLOCK
  5
280
330
27F
100
AcDbEntity
  8
0
100
AcDbBlockBegin
  2
_D
 70
     0
 10
0.0
 20
0.0
 30
0.0
  3
_D
  1

  0
SOLID
  5
282
330
27F
100
AcDbEntity
  8
2
100
AcDbTrace
 10
0.0
 20
70.6945079386
 30
0.0
 11
3.302
 21
70.1865079386
 31
0.0
 12
3.302
 22
71.2025079386
 32
0.0
 13
3.302
 23
71.2025079386
 33
0.0
  0
SOLID
  5
283
330
27F
100
AcDbEntity
  8
2
100
AcDbTrace
 10
101.6
 20
70.6945079386
 30
0.0
 11
98.298
 21
71.2025079386
 31
0.0
 12
98.298
 22
70.1865079386
 32
0.0
 13
98.298
 23
70.1865079386
 33
0.0
  0
LINE
  5
284
330
27F
100
AcDbEntity
  8
2
100
AcDbLine
 10
31.2747858137
 20
81.4873896547
 30
0.0
 11
30.2083795563
 21
81.4873896547
 31
0.0
  0
LINE
  5
285
330
27F
100
AcDbEntity
  8
2
100
AcDbLine
 10
30.2083795563
 20
81.4873896547
 30
0.0
 11
30.2083795563
 21
75.9311396636
 31
0.0
  0
LINE
  5
286
330
27F
100
AcDbEntity
  8
2
100
AcDbLine
 10
30.2083795563
 20
75.9311396636
 30
0.0
 11
31.2747858137
 21
75.9311396636
 31
0.0
  0
LINE
  5
287
330
27F
100
AcDbEntity
  8
2
100
AcDbLine
 10
40.3261748746
 20
81.4873896547
 30
0.0
 11
41.3925811321
 21
81.4873896547
 31
0.0
  0
LINE
  5
288
330
27F
100
AcDbEntity
  8
2
100
AcDbLine
 10
41.3925811321
 20
81.4873896547
 30
0.0
 11
41.3925811321
 21
75.9311396636
 31
0.0
  0
LINE
  5
289
330
27F
100
AcDbEntity
  8
2
100
AcDbLine
 10
41.3925811321
 20
75.9311396636
 30
0.0
 11
40.3261748746
 21
75.9311396636
 31
0.0
  0
LINE
  5
28A
330
27F
100
AcDbEntity
  8
2
100
AcDbLine
 10
0.0
 20
35.925
 30
0.0
 11
0.0
 21
71.6945079386
 31
0.0
  0
LINE
  5
28B
330
27F
100
AcDbEntity
  8
2
100
AcDbLine
 10
101.6
 20
18.8
 30
0.0
 11
101.6
 21
71.6945079386
 31
0.0
  0
LINE
  5
28C
330
27F
100
AcDbEntity
  8
2
100
AcDbLine
 10
0.0
 20
70.6945079386
 30
0.0
 11
101.6
 21
70.6945079386
 31
0.0
  0
MTEXT
  5
28D
330
27F
100
AcDbEntity
  8
2
100
AcDbMText
 10
29.1614177021
 20
75.2597172045
 30
0.0
 40
3.5
 41
0.0
 71
     1
 72
     1
  1

  7
SLDTEXTSTYLE0
 73
     1
 44
1.0
  0
MTEXT
  5
28E
330
27F
100
AcDbEntity
  8
2
100
AcDbMText
 10
31.2747858137
 20
80.4428765782
 30
0.0
 40
3.5
 41
0.0
 71
     1
 72
     1
  1
4,00
  7
SLDTEXTSTYLE0
 73
     1
 44
1.0
  0
MTEXT
  5
28F
330
27F
100
AcDbEntity
  8
2
100
AcDbMText
 10
29.9817301006
 20
75.2062450278
 30
0.0
 40
3.5
 41
0.0
 71
     1
 72
     1
  1
101,6
  7
SLDTEXTSTYLE0
 73
     1
 44
1.0
  0
MTEXT
  5
290
330
27F
100
AcDbEntity
  8
2
100
AcDbMText
 10
43.771487506
 20
75.2597172045
 30
0.0
 40
3.5
 41
0.0
 71
     1
 72
     1
  1

  7
SLDTEXTSTYLE0
 73
     1
 44
1.0
  0
ENDBLK
  5
281
330
27F
100
AcDbEntity
  8
0
100
AcDbBlockEnd
  0
BLOCK
  5
293
330
292
100
AcDbEntity
  8
0
100
AcDbBlockBegin
  2
_D_1
 70
     0
 10
0.0
 20
0.0
 30
0.0
  3
_D_1
  1

  0
SOLID
  5
295
330
292
100
AcDbEntity
  8
SK2
100
AcDbTrace
 10
19.05
 20
58.7303544377
 30
0.0
 11
22.352
 21
58.2223544377
 31
0.0
 12
22.352
 22
59.2383544377
 32
0.0
 13
22.352
 23
59.2383544377
 33
0.0
  0
SOLID
  5
296
330
292
100
AcDbEntity
  8
SK2
100
AcDbTrace
 10
101.6
 20
58.7303544377
 30
0.0
 11
98.298
 21
59.2383544377
 31
0.0
 12
98.298
 22
58.2223544377
 32
0.0
 13
98.298
 23
58.2223544377
 33
0.0
  0
LINE
  5
297
330
292
100
AcDbEntity
  8
SK2
100
AcDbLine
 10
47.1740759017
 20
69.5232361538
 30
0.0
 11
46.1076696443
 21
69.5232361538
 31
0.0
  0
LINE
  5
298
330
292
100
AcDbEntity
  8
SK2
100
AcDbLine
 10
46.1076696443
 20
69.5232361538
 30
0.0
 11
46.1076696443
 21
63.9669861627
 31
0.0
  0
LINE
  5
299
330
292
100
AcDbEntity
  8
SK2
100
AcDbLine
 10
46.1076696443
 20
63.9669861627
 30
0.0
 11
47.1740759017
 21
63.9669861627
 31
0.0
  0
LINE
  5
29A
330
292
100
AcDbEntity
  8
SK2
100
AcDbLine
 10
56.2254649626
 20
69.5232361538
 30
0.0
 11
57.2918712201
 21
69.5232361538
 31
0.0
  0
LINE
  5
29B
330
292
100
AcDbEntity
  8
SK2
100
AcDbLine
 10
57.2918712201
 20
69.5232361538
 30
0.0
 11
57.2918712201
 21
63.9669861627
 31
0.0
  0
LINE
  5
29C
330
292
100
AcDbEntity
  8
SK2
100
AcDbLine
 10
57.2918712201
 20
63.9669861627
 30
0.0
 11
56.2254649626
 21
63.9669861627
 31
0.0
  0
LINE
  5
29D
330
292
100
AcDbEntity
  8
SK2
100
AcDbLine
 10
19.05
 20
47.5560855313
 30
0.0
 11
19.05
 21
59.7303544377
 31
0.0
  0
LINE
  5
29E
330
292
100
AcDbEntity
  8
SK2
100
AcDbLine
 10
101.6
 20
18.8
 30
0.0
 11
101.6
 21
59.7303544377
 31
0.0
  0
LINE
  5
29F
330
292
100
AcDbEntity
  8
SK2
100
AcDbLine
 10
19.05
 20
58.7303544377
 30
0.0
 11
101.6
 21
58.7303544377
 31
0.0
  0
MTEXT
  5
2A0
330
292
100
AcDbEntity
  8
SK2
100
AcDbMText
 10
45.0607077901
 20
63.2955637036
 30
0.0
 40
3.5
 41
0.0
 71
     1
 72
     1
  1

  7
SLDTEXTSTYLE0
 73
     1
 44
1.0
  0
MTEXT
  5
2A1
330
292
100
AcDbEntity
  8
SK2
100
AcDbMText
 10
47.1740759017
 20
68.4787230773
 30
0.0
 40
3.5
 41
0.0
 71
     1
 72
     1
  1
3,25
  7
SLDTEXTSTYLE0
 73
     1
 44
1.0
  0
MTEXT
  5
2A2
330
292
100
AcDbEntity
  8
SK2
100
AcDbMText
 10
45.8810201885
 20
63.2420915269
 30
0.0
 40
3.5
 41
0.0
 71
     1
 72
     1
  1
82,55
  7
SLDTEXTSTYLE0
 73
     1
 44
1.0
  0
MTEXT
  5
2A3
330
292
100
AcDbEntity
  8
SK2
100
AcDbMText
 10
59.6707775939
 20
63.2955637036
 30
0.0
 40
3.5
 41
0.0
 71
     1
 72
     1
  1

  7
SLDTEXTSTYLE0
 73
     1
 44
1.0
  0
ENDBLK
  5
294
330
292
100
AcDbEntity
  8
0
100
AcDbBlockEnd
  0
BLOCK
  5
2A6
330
2A5
100
AcDbEntity
  8
0
100
AcDbBlockBegin
  2
_D_2
 70
     0
 10
0.0
 20
0.0
 30
0.0
  3
_D_2
  1

  0
SOLID
  5
2A8
330
2A5
100
AcDbEntity
  8
SK2
100
AcDbTrace
 10
35.05
 20
46.8339551576
 30
0.0
 11
38.352
 21
46.3259551576
 31
0.0
 12
38.352
 22
47.3419551576
 32
0.0
 13
38.352
 23
47.3419551576
 33
0.0
  0
SOLID
  5
2A9
330
2A5
100
AcDbEntity
  8
SK2
100
AcDbTrace
 10
101.6
 20
46.8339551576
 30
0.0
 11
98.298
 21
47.3419551576
 31
0.0
 12
98.298
 22
46.3259551576
 32
0.0
 13
98.298
 23
46.3259551576
 33
0.0
  0
LINE
  5
2AA
330
2A5
100
AcDbEntity
  8
SK2
100
AcDbLine
 10
63.3841225988
 20
57.6268368736
 30
0.0
 11
62.3177163414
 21
57.6268368736
 31
0.0
  0
LINE
  5
2AB
330
2A5
100
AcDbEntity
  8
SK2
100
AcDbLine
 10
62.3177163414
 20
57.6268368736
 30
0.0
 11
62.3177163414
 21
52.0705868826
 31
0.0
  0
LINE
  5
2AC
330
2A5
100
AcDbEntity
  8
SK2
100
AcDbLine
 10
62.3177163414
 20
52.0705868826
 30
0.0
 11
63.3841225988
 21
52.0705868826
 31
0.0
  0
LINE
  5
2AD
330
2A5
100
AcDbEntity
  8
SK2
100
AcDbLine
 10
72.4355116598
 20
57.6268368736
 30
0.0
 11
73.5019179172
 21
57.6268368736
 31
0.0
  0
LINE
  5
2AE
330
2A5
100
AcDbEntity
  8
SK2
100
AcDbLine
 10
73.5019179172
 20
57.6268368736
 30
0.0
 11
73.5019179172
 21
52.0705868826
 31
0.0
  0
LINE
  5
2AF
330
2A5
100
AcDbEntity
  8
SK2
100
AcDbLine
 10
73.5019179172
 20
52.0705868826
 30
0.0
 11
72.4355116598
 21
52.0705868826
 31
0.0
  0
LINE
  5
2B0
330
2A5
100
AcDbEntity
  8
SK2
100
AcDbLine
 10
35.05
 20
35.163
 30
0.0
 11
35.05
 21
47.8339551576
 31
0.0
  0
LINE
  5
2B1
330
2A5
100
AcDbEntity
  8
SK2
100
AcDbLine
 10
101.6
 20
18.8
 30
0.0
 11
101.6
 21
47.8339551576
 31
0.0
  0
LINE
  5
2B2
330
2A5
100
AcDbEntity
  8
SK2
100
AcDbLine
 10
35.05
 20
46.8339551576
 30
0.0
 11
101.6
 21
46.8339551576
 31
0.0
  0
MTEXT
  5
2B3
330
2A5
100
AcDbEntity
  8
SK2
100
AcDbMText
 10
61.2707544872
 20
51.3991644235
 30
0.0
 40
3.5
 41
0.0
 71
     1
 72
     1
  1

  7
SLDTEXTSTYLE0
 73
     1
 44
1.0
  0
MTEXT
  5
2B4
330
2A5
100
AcDbEntity
  8
SK2
100
AcDbMText
 10
63.3841225988
 20
56.5823237972
 30
0.0
 40
3.5
 41
0.0
 71
     1
 72
     1
  1
2,62
  7
SLDTEXTSTYLE0
 73
     1
 44
1.0
  0
MTEXT
  5
2B5
330
2A5
100
AcDbEntity
  8
SK2
100
AcDbMText
 10
62.0910668857
 20
51.3456922468
 30
0.0
 40
3.5
 41
0.0
 71
     1
 72
     1
  1
66,55
  7
SLDTEXTSTYLE0
 73
     1
 44
1.0
  0
MTEXT
  5
2B6
330
2A5
100
AcDbEntity
  8
SK2
100
AcDbMText
 10
75.8808242911
 20
51.3991644235
 30
0.0
 40
3.5
 41
0.0
 71
     1
 72
     1
  1

  7
SLDTEXTSTYLE0
 73
     1
 44
1.0
  0
ENDBLK
  5
2A7
330
2A5
100
AcDbEntity
  8
0
100
AcDbBlockEnd
  0
BLOCK
  5
2BA
330
2B9
100
AcDbEntity
  8
0
100
AcDbBlockBegin
  2
_D_3
 70
     0
 10
0.0
 20
0.0
 30
0.0
  3
_D_3
  1

  0
SOLID
  5
2BC
330
2B9
100
AcDbEntity
  8
SK2
100
AcDbTrace
 10
0.0
 20
58.7303544377
 30
0.0
 11
3.302
 21
58.2223544377
 31
0.0
 12
3.302
 22
59.2383544377
 32
0.0
 13
3.302
 23
59.2383544377
 33
0.0
  0
SOLID
  5
2BD
330
2B9
100
AcDbEntity
  8
SK2
100
AcDbTrace
 10
19.05
 20
58.7303544377
 30
0.0
 11
15.748
 21
59.2383544377
 31
0.0
 12
15.748
 22
58.2223544377
 32
0.0
 13
15.748
 23
58.2223544377
 33
0.0
  0
LINE
  5
2BE
330
2B9
100
AcDbEntity
  8
SK2
100
AcDbLine
 10
0.0
 20
35.925
 30
0.0
 11
0.0
 21
59.7303544377
 31
0.0
  0
LINE
  5
2BF
330
2B9
100
AcDbEntity
  8
SK2
100
AcDbLine
 10
19.05
 20
47.5560855313
 30
0.0
 11
19.05
 21
59.7303544377
 31
0.0
  0
LINE
  5
2C0
330
2B9
100
AcDbEntity
  8
SK2
100
AcDbLine
 10
0.0
 20
58.7303544377
 30
0.0
 11
19.05
 21
58.7303544377
 31
0.0
  0
MTEXT
  5
2C1
330
2B9
100
AcDbEntity
  8
SK2
100
AcDbMText
 10
3.660095904
 20
63.2420913523
 30
0.0
 40
3.5
 41
0.0
 71
     1
 72
     1
  1
19,05
  7
SLDTEXTSTYLE0
 73
     1
 44
1.0
  0
ENDBLK
  5
2BB
330
2B9
100
AcDbEntity
  8
0
100
AcDbBlockEnd
  0
BLOCK
  5
2C4
330
2C3
100
AcDbEntity
  8
0
100
AcDbBlockBegin
  2
_D_4
 70
     0
 10
0.0
 20
0.0
 30
0.0
  3
_D_4
  1

  0
SOLID
  5
2C6
330
2C3
100
AcDbEntity
  8
SK2
100
AcDbTrace
 10
73.025
 20
32.6923825358
 30
0.0
 11
76.327
 21
32.1843825358
 31
0.0
 12
76.327
 22
33.2003825358
 32
0.0
 13
76.327
 23
33.2003825358
 33
0.0
  0
SOLID
  5
2C7
330
2C3
100
AcDbEntity
  8
SK2
100
AcDbTrace
 10
101.6
 20
32.6923825358
 30
0.0
 11
98.298
 21
33.2003825358
 31
0.0
 12
98.298
 22
32.1843825358
 32
0.0
 13
98.298
 23
32.1843825358
 33
0.0
  0
LINE
  5
2C8
330
2C3
100
AcDbEntity
  8
SK2
100
AcDbLine
 10
83.3507647402
 20
43.4852642518
 30
0.0
 11
82.2843584828
 21
43.4852642518
 31
0.0
  0
LINE
  5
2C9
330
2C3
100
AcDbEntity
  8
SK2
100
AcDbLine
 10
82.2843584828
 20
43.4852642518
 30
0.0
 11
82.2843584828
 21
37.9290142607
 31
0.0
  0
LINE
  5
2CA
330
2C3
100
AcDbEntity
  8
SK2
100
AcDbLine
 10
82.2843584828
 20
37.9290142607
 30
0.0
 11
83.3507647402
 21
37.9290142607
 31
0.0
  0
LINE
  5
2CB
330
2C3
100
AcDbEntity
  8
SK2
100
AcDbLine
 10
92.4021538011
 20
43.4852642518
 30
0.0
 11
93.4685600586
 21
43.4852642518
 31
0.0
  0
LINE
  5
2CC
330
2C3
100
AcDbEntity
  8
SK2
100
AcDbLine
 10
93.4685600586
 20
43.4852642518
 30
0.0
 11
93.4685600586
 21
37.9290142607
 31
0.0
  0
LINE
  5
2CD
330
2C3
100
AcDbEntity
  8
SK2
100
AcDbLine
 10
93.4685600586
 20
37.9290142607
 30
0.0
 11
92.4021538011
 21
37.9290142607
 31
0.0
  0
LINE
  5
2CE
330
2C3
100
AcDbEntity
  8
SK2
100
AcDbLine
 10
73.025
 20
26.3
 30
0.0
 11
73.025
 21
33.6923825358
 31
0.0
  0
LINE
  5
2CF
330
2C3
100
AcDbEntity
  8
SK2
100
AcDbLine
 10
101.6
 20
18.8
 30
0.0
 11
101.6
 21
33.6923825358
 31
0.0
  0
LINE
  5
2D0
330
2C3
100
AcDbEntity
  8
SK2
100
AcDbLine
 10
73.025
 20
32.6923825358
 30
0.0
 11
101.6
 21
32.6923825358
 31
0.0
  0
MTEXT
  5
2D1
330
2C3
100
AcDbEntity
  8
SK2
100
AcDbMText
 10
81.2373966286
 20
37.2575918016
 30
0.0
 40
3.5
 41
0.0
 71
     1
 72
     1
  1

  7
SLDTEXTSTYLE0
 73
     1
 44
1.0
  0
MTEXT
  5
2D2
330
2C3
100
AcDbEntity
  8
SK2
100
AcDbMText
 10
83.3507647402
 20
42.4407511753
 30
0.0
 40
3.5
 41
0.0
 71
     1
 72
     1
  1
1,13
  7
SLDTEXTSTYLE0
 73
     1
 44
1.0
  0
MTEXT
  5
2D3
330
2C3
100
AcDbEntity
  8
SK2
100
AcDbMText
 10
82.0577090271
 20
37.204119625
 30
0.0
 40
3.5
 41
0.0
 71
     1
 72
     1
  1
28,58
  7
SLDTEXTSTYLE0
 73
     1
 44
1.0
  0
MTEXT
  5
2D4
330
2C3
100
AcDbEntity
  8
SK2
100
AcDbMText
 10
95.8474664325
 20
37.2575918016
 30
0.0
 40
3.5
 41
0.0
 71
     1
 72
     1
  1

  7
SLDTEXTSTYLE0
 73
     1
 44
1.0
  0
ENDBLK
  5
2C5
330
2C3
100
AcDbEntity
  8
0
100
AcDbBlockEnd
  0
BLOCK
  5
2D7
330
2D6
100
AcDbEntity
  8
0
100
AcDbBlockBegin
  2
_D_5
 70
     0
 10
0.0
 20
0.0
 30
0.0
  3
_D_5
  1

  0
SOLID
  5
2D9
330
2D6
100
AcDbEntity
  8
SK2
100
AcDbTrace
 10
48.52060569
 20
32.6923825358
 30
0.0
 11
51.82260569
 21
32.1843825358
 31
0.0
 12
51.82260569
 22
33.2003825358
 32
0.0
 13
51.82260569
 23
33.2003825358
 33
0.0
  0
SOLID
  5
2DA
330
2D6
100
AcDbEntity
  8
SK2
100
AcDbTrace
 10
73.025
 20
32.6923825358
 30
0.0
 11
69.723
 21
33.2003825358
 31
0.0
 12
69.723
 22
32.1843825358
 32
0.0
 13
69.723
 23
32.1843825358
 33
0.0
  0
LINE
  5
2DB
330
2D6
100
AcDbEntity
  8
SK2
100
AcDbLine
 10
53.7910178135
 20
43.4852642518
 30
0.0
 11
52.7246115561
 21
43.4852642518
 31
0.0
  0
LINE
  5
2DC
330
2D6
100
AcDbEntity
  8
SK2
100
AcDbLine
 10
52.7246115561
 20
43.4852642518
 30
0.0
 11
52.7246115561
 21
37.9290142607
 31
0.0
  0
LINE
  5
2DD
330
2D6
100
AcDbEntity
  8
SK2
100
AcDbLine
 10
52.7246115561
 20
37.9290142607
 30
0.0
 11
53.7910178135
 21
37.9290142607
 31
0.0
  0
LINE
  5
2DE
330
2D6
100
AcDbEntity
  8
SK2
100
AcDbLine
 10
62.8424068744
 20
43.4852642518
 30
0.0
 11
63.9088131319
 21
43.4852642518
 31
0.0
  0
LINE
  5
2DF
330
2D6
100
AcDbEntity
  8
SK2
100
AcDbLine
 10
63.9088131319
 20
43.4852642518
 30
0.0
 11
63.9088131319
 21
37.9290142607
 31
0.0
  0
LINE
  5
2E0
330
2D6
100
AcDbEntity
  8
SK2
100
AcDbLine
 10
63.9088131319
 20
37.9290142607
 30
0.0
 11
62.8424068744
 21
37.9290142607
 31
0.0
  0
LINE
  5
2E1
330
2D6
100
AcDbEntity
  8
SK2
100
AcDbLine
 10
48.52060569
 20
24.3
 30
0.0
 11
48.52060569
 21
33.6923825358
 31
0.0
  0
LINE
  5
2E2
330
2D6
100
AcDbEntity
  8
SK2
100
AcDbLine
 10
73.025
 20
26.3
 30
0.0
 11
73.025
 21
33.6923825358
 31
0.0
  0
LINE
  5
2E3
330
2D6
100
AcDbEntity
  8
SK2
100
AcDbLine
 10
48.52060569
 20
32.6923825358
 30
0.0
 11
73.025
 21
32.6923825358
 31
0.0
  0
MTEXT
  5
2E4
330
2D6
100
AcDbEntity
  8
SK2
100
AcDbMText
 10
51.6776497018
 20
37.2575918016
 30
0.0
 40
3.5
 41
0.0
 71
     1
 72
     1
  1

  7
SLDTEXTSTYLE0
 73
     1
 44
1.0
  0
MTEXT
  5
2E5
330
2D6
100
AcDbEntity
  8
SK2
100
AcDbMText
 10
53.7910178135
 20
42.4407511753
 30
0.0
 40
3.5
 41
0.0
 71
     1
 72
     1
  1
0,96
  7
SLDTEXTSTYLE0
 73
     1
 44
1.0
  0
MTEXT
  5
2E6
330
2D6
100
AcDbEntity
  8
SK2
100
AcDbMText
 10
53.7910178135
 20
37.204119625
 30
0.0
 40
3.5
 41
0.0
 71
     1
 72
     1
  1
24,5
  7
SLDTEXTSTYLE0
 73
     1
 44
1.0
  0
MTEXT
  5
2E7
330
2D6
100
AcDbEntity
  8
SK2
100
AcDbMText
 10
66.2877195057
 20
37.2575918016
 30
0.0
 40
3.5
 41
0.0
 71
     1
 72
     1
  1

  7
SLDTEXTSTYLE0
 73
     1
 44
1.0
  0
ENDBLK
  5
2D8
330
2D6
100
AcDbEntity
  8
0
100
AcDbBlockEnd
  0
BLOCK
  5
2EB
330
2EA
100
AcDbEntity
  8
0
100
AcDbBlockBegin
  2
_D_6
 70
     0
 10
0.0
 20
0.0
 30
0.0
  3
_D_6
  1

  0
SOLID
  5
2ED
330
2EA
100
AcDbEntity
  8
SK2
100
AcDbTrace
 10
116.4511346134
 20
-12.5
 30
0.0
 11
115.9431346134
 21
-15.802
 31
0.0
 12
116.9591346134
 22
-15.802
 32
0.0
 13
116.9591346134
 23
-15.802
 33
0.0
  0
SOLID
  5
2EE
330
2EA
100
AcDbEntity
  8
SK2
100
AcDbTrace
 10
116.4511346134
 20
12.5
 30
0.0
 11
116.9591346134
 21
15.802
 31
0.0
 12
115.9431346134
 22
15.802
 32
0.0
 13
115.9431346134
 23
15.802
 33
0.0
  0
LINE
  5
2EF
330
2EA
100
AcDbEntity
  8
SK2
100
AcDbLine
 10
105.6582528973
 20
-5.9518377976
 30
0.0
 11
105.6582528973
 21
-7.018244055
 31
0.0
  0
LINE
  5
2F0
330
2EA
100
AcDbEntity
  8
SK2
100
AcDbLine
 10
105.6582528973
 20
-7.018244055
 30
0.0
 11
111.2145028884
 21
-7.018244055
 31
0.0
  0
LINE
  5
2F1
330
2EA
100
AcDbEntity
  8
SK2
100
AcDbLine
 10
111.2145028884
 20
-7.018244055
 30
0.0
 11
111.2145028884
 21
-5.9518377976
 31
0.0
  0
LINE
  5
2F2
330
2EA
100
AcDbEntity
  8
SK2
100
AcDbLine
 10
105.6582528973
 20
5.6856626897
 30
0.0
 11
105.6582528973
 21
6.7520689471
 31
0.0
  0
LINE
  5
2F3
330
2EA
100
AcDbEntity
  8
SK2
100
AcDbLine
 10
105.6582528973
 20
6.7520689471
 30
0.0
 11
111.2145028884
 21
6.7520689471
 31
0.0
  0
LINE
  5
2F4
330
2EA
100
AcDbEntity
  8
SK2
100
AcDbLine
 10
111.2145028884
 20
6.7520689471
 30
0.0
 11
111.2145028884
 21
5.6856626897
 31
0.0
  0
LINE
  5
2F5
330
2EA
100
AcDbEntity
  8
SK2
100
AcDbLine
 10
101.6
 20
-12.5
 30
0.0
 11
117.4511346134
 21
-12.5
 31
0.0
  0
LINE
  5
2F6
330
2EA
100
AcDbEntity
  8
SK2
100
AcDbLine
 10
101.6
 20
12.5
 30
0.0
 11
117.4511346134
 21
12.5
 31
0.0
  0
LINE
  5
2F7
330
2EA
100
AcDbEntity
  8
SK2
100
AcDbLine
 10
116.4511346134
 20
-12.5
 30
0.0
 11
116.4511346134
 21
-18.85
 31
0.0
  0
LINE
  5
2F8
330
2EA
100
AcDbEntity
  8
SK2
100
AcDbLine
 10
116.4511346134
 20
-12.5
 30
0.0
 11
116.4511346134
 21
12.5
 31
0.0
  0
LINE
  5
2F9
330
2EA
100
AcDbEntity
  8
SK2
100
AcDbLine
 10
116.4511346134
 20
12.5
 30
0.0
 11
116.4511346134
 21
18.85
 31
0.0
  0
MTEXT
  5
2FA
330
2EA
100
AcDbEntity
  8
SK2
100
AcDbMText
 10
106.7027659738
 20
-5.9518377976
 30
0.0
 40
3.5
 41
0.0
 71
     1
 72
     1
  1
0,984
  7
SLDTEXTSTYLE0
 11
6.123233995736766E-17
 21
1.0
 31
0.0
 73
     1
 44
1.0
  0
MTEXT
  5
2FB
330
2EA
100
AcDbEntity
  8
SK2
100
AcDbMText
 10
111.9393975242
 20
-5.3584181452
 30
0.0
 40
3.5
 41
0.0
 71
     1
 72
     1
  1
%%c
  7
SLDTEXTSTYLE0
 11
6.123233995736766E-17
 21
1.0
 31
0.0
 73
     1
 44
1.0
  0
MTEXT
  5
2FC
330
2EA
100
AcDbEntity
  8
SK2
100
AcDbMText
 10
111.9393975242
 20
-0.0799807468
 30
0.0
 40
3.5
 41
0.0
 71
     1
 72
     1
  1
25
  7
SLDTEXTSTYLE0
 11
6.123233995736766E-17
 21
1.0
 31
0.0
 73
     1
 44
1.0
  0
ENDBLK
  5
2EC
330
2EA
100
AcDbEntity
  8
0
100
AcDbBlockEnd
  0
BLOCK
  5
2FF
330
2FE
100
AcDbEntity
  8
0
100
AcDbBlockBegin
  2
_D_7
 70
     0
 10
0.0
 20
0.0
 30
0.0
  3
_D_7
  1

  0
SOLID
  5
301
330
2FE
100
AcDbEntity
  8
SK2
100
AcDbTrace
 10
132.7497030251
 20
17.8
 30
0.0
 11
132.2417030251
 21
14.498
 31
0.0
 12
133.2577030251
 22
14.498
 32
0.0
 13
133.2577030251
 23
14.498
 33
0.0
  0
SOLID
  5
302
330
2FE
100
AcDbEntity
  8
SK2
100
AcDbTrace
 10
132.7497030251
 20
-17.8
 30
0.0
 11
133.2577030251
 21
-14.498
 31
0.0
 12
132.2417030251
 22
-14.498
 32
0.0
 13
132.2417030251
 23
-14.498
 33
0.0
  0
LINE
  5
303
330
2FE
100
AcDbEntity
  8
SK2
100
AcDbLine
 10
121.9568213091
 20
-4.6587825501
 30
0.0
 11
121.9568213091
 21
-5.7251888075
 31
0.0
  0
LINE
  5
304
330
2FE
100
AcDbEntity
  8
SK2
100
AcDbLine
 10
121.9568213091
 20
-5.7251888075
 30
0.0
 11
127.5130713002
 21
-5.7251888075
 31
0.0
  0
LINE
  5
305
330
2FE
100
AcDbEntity
  8
SK2
100
AcDbLine
 10
127.5130713002
 20
-5.7251888075
 30
0.0
 11
127.5130713002
 21
-4.6587825501
 31
0.0
  0
LINE
  5
306
330
2FE
100
AcDbEntity
  8
SK2
100
AcDbLine
 10
121.9568213091
 20
4.3926065108
 30
0.0
 11
121.9568213091
 21
5.4590127683
 31
0.0
  0
LINE
  5
307
330
2FE
100
AcDbEntity
  8
SK2
100
AcDbLine
 10
121.9568213091
 20
5.4590127683
 30
0.0
 11
127.5130713002
 21
5.4590127683
 31
0.0
  0
LINE
  5
308
330
2FE
100
AcDbEntity
  8
SK2
100
AcDbLine
 10
127.5130713002
 20
5.4590127683
 30
0.0
 11
127.5130713002
 21
4.3926065108
 31
0.0
  0
LINE
  5
309
330
2FE
100
AcDbEntity
  8
SK2
100
AcDbLine
 10
102.6
 20
17.8
 30
0.0
 11
133.7497030251
 21
17.8
 31
0.0
  0
LINE
  5
30A
330
2FE
100
AcDbEntity
  8
SK2
100
AcDbLine
 10
102.6
 20
-17.8
 30
0.0
 11
133.7497030251
 21
-17.8
 31
0.0
  0
LINE
  5
30B
330
2FE
100
AcDbEntity
  8
SK2
100
AcDbLine
 10
132.7497030251
 20
17.8
 30
0.0
 11
132.7497030251
 21
-17.8
 31
0.0
  0
MTEXT
  5
30C
330
2FE
100
AcDbEntity
  8
SK2
100
AcDbMText
 10
123.0013343856
 20
-4.6587825501
 30
0.0
 40
3.5
 41
0.0
 71
     1
 72
     1
  1
1,40
  7
SLDTEXTSTYLE0
 11
-7.044195017643634E-15
 21
1.0
 31
0.0
 73
     1
 44
1.0
  0
MTEXT
  5
30D
330
2FE
100
AcDbEntity
  8
SK2
100
AcDbMText
 10
128.2379659359
 20
-7.2980017149
 30
0.0
 40
3.5
 41
0.0
 71
     1
 72
     1
  1
%%c
  7
SLDTEXTSTYLE0
 11
-7.044195017643634E-15
 21
1.0
 31
0.0
 73
     1
 44
1.0
  0
MTEXT
  5
30E
330
2FE
100
AcDbEntity
  8
SK2
100
AcDbMText
 10
128.2379659359
 20
-2.0195643165
 30
0.0
 40
3.5
 41
0.0
 71
     1
 72
     1
  1
35,6
  7
SLDTEXTSTYLE0
 11
-7.044195017643634E-15
 21
1.0
 31
0.0
 73
     1
 44
1.0
  0
ENDBLK
  5
300
330
2FE
100
AcDbEntity
  8
0
100
AcDbBlockEnd
  0
BLOCK
  5
311
330
310
100
AcDbEntity
  8
0
100
AcDbBlockBegin
  2
_D_8
 70
     0
 10
0.0
 20
0.0
 30
0.0
  3
_D_8
  1

  0
SOLID
  5
313
330
310
100
AcDbEntity
  8
SK2
100
AcDbTrace
 10
146.1918213029
 20
25.4
 30
0.0
 11
145.6838213029
 21
22.098
 31
0.0
 12
146.6998213029
 22
22.098
 32
0.0
 13
146.6998213029
 23
22.098
 33
0.0
  0
SOLID
  5
314
330
310
100
AcDbEntity
  8
SK2
100
AcDbTrace
 10
146.1918213029
 20
-25.4
 30
0.0
 11
146.6998213029
 21
-22.098
 31
0.0
 12
145.6838213029
 22
-22.098
 32
0.0
 13
145.6838213029
 23
-22.098
 33
0.0
  0
LINE
  5
315
330
310
100
AcDbEntity
  8
SK2
100
AcDbLine
 10
135.3989395869
 20
-4.6587825501
 30
0.0
 11
135.3989395869
 21
-5.7251888075
 31
0.0
  0
LINE
  5
316
330
310
100
AcDbEntity
  8
SK2
100
AcDbLine
 10
135.3989395869
 20
-5.7251888075
 30
0.0
 11
140.9551895779
 21
-5.7251888075
 31
0.0
  0
LINE
  5
317
330
310
100
AcDbEntity
  8
SK2
100
AcDbLine
 10
140.9551895779
 20
-5.7251888075
 30
0.0
 11
140.9551895779
 21
-4.6587825501
 31
0.0
  0
LINE
  5
318
330
310
100
AcDbEntity
  8
SK2
100
AcDbLine
 10
135.3989395869
 20
4.3926065108
 30
0.0
 11
135.3989395869
 21
5.4590127683
 31
0.0
  0
LINE
  5
319
330
310
100
AcDbEntity
  8
SK2
100
AcDbLine
 10
135.3989395869
 20
5.4590127683
 30
0.0
 11
140.9551895779
 21
5.4590127683
 31
0.0
  0
LINE
  5
31A
330
310
100
AcDbEntity
  8
SK2
100
AcDbLine
 10
140.9551895779
 20
5.4590127683
 30
0.0
 11
140.9551895779
 21
4.3926065108
 31
0.0
  0
LINE
  5
31B
330
310
100
AcDbEntity
  8
SK2
100
AcDbLine
 10
95.0
 20
25.4
 30
0.0
 11
147.1918213029
 21
25.4
 31
0.0
  0
LINE
  5
31C
330
310
100
AcDbEntity
  8
SK2
100
AcDbLine
 10
95.0
 20
-25.4
 30
0.0
 11
147.1918213029
 21
-25.4
 31
0.0
  0
LINE
  5
31D
330
310
100
AcDbEntity
  8
SK2
100
AcDbLine
 10
146.1918213029
 20
25.4
 30
0.0
 11
146.1918213029
 21
-25.4
 31
0.0
  0
MTEXT
  5
31E
330
310
100
AcDbEntity
  8
SK2
100
AcDbMText
 10
136.4434526633
 20
-4.6587825501
 30
0.0
 40
3.5
 41
0.0
 71
     1
 72
     1
  1
2,00
  7
SLDTEXTSTYLE0
 11
-7.044195017643634E-15
 21
1.0
 31
0.0
 73
     1
 44
1.0
  0
MTEXT
  5
31F
330
310
100
AcDbEntity
  8
SK2
100
AcDbMText
 10
141.6800842137
 20
-7.2980017149
 30
0.0
 40
3.5
 41
0.0
 71
     1
 72
     1
  1
%%c
  7
SLDTEXTSTYLE0
 11
-7.044195017643634E-15
 21
1.0
 31
0.0
 73
     1
 44
1.0
  0
MTEXT
  5
320
330
310
100
AcDbEntity
  8
SK2
100
AcDbMText
 10
141.6800842137
 20
-2.0195643165
 30
0.0
 40
3.5
 41
0.0
 71
     1
 72
     1
  1
50,8
  7
SLDTEXTSTYLE0
 11
-7.044195017643634E-15
 21
1.0
 31
0.0
 73
     1
 44
1.0
  0
ENDBLK
  5
312
330
310
100
AcDbEntity
  8
0
100
AcDbBlockEnd
  0
BLOCK
  5
324
330
323
100
AcDbEntity
  8
0
100
AcDbBlockBegin
  2
_D_9
 70
     0
 10
0.0
 20
0.0
 30
0.0
  3
_D_9
  1

  0
SOLID
  5
326
330
323
100
AcDbEntity
  8
SK2
100
AcDbTrace
 10
-101.6
 20
-63.5749812681
 30
0.0
 11
-98.298
 21
-64.0829812681
 31
0.0
 12
-98.298
 22
-63.0669812681
 32
0.0
 13
-98.298
 23
-63.0669812681
 33
0.0
  0
SOLID
  5
327
330
323
100
AcDbEntity
  8
SK2
100
AcDbTrace
 10
101.6
 20
-63.5749812681
 30
0.0
 11
98.298
 21
-63.0669812681
 31
0.0
 12
98.298
 22
-64.0829812681
 32
0.0
 13
98.298
 23
-64.0829812681
 33
0.0
  0
LINE
  5
328
330
323
100
AcDbEntity
  8
SK2
100
AcDbLine
 10
-15.7701006295
 20
-52.7820995521
 30
0.0
 11
-16.836506887
 21
-52.7820995521
 31
0.0
  0
LINE
  5
329
330
323
100
AcDbEntity
  8
SK2
100
AcDbLine
 10
-16.836506887
 20
-52.7820995521
 30
0.0
 11
-16.836506887
 21
-58.3383495431
 31
0.0
  0
LINE
  5
32A
330
323
100
AcDbEntity
  8
SK2
100
AcDbLine
 10
-16.836506887
 20
-58.3383495431
 30
0.0
 11
-15.7701006295
 21
-58.3383495431
 31
0.0
  0
LINE
  5
32B
330
323
100
AcDbEntity
  8
SK2
100
AcDbLine
 10
-6.7187115686
 20
-52.7820995521
 30
0.0
 11
-5.6523053112
 21
-52.7820995521
 31
0.0
  0
LINE
  5
32C
330
323
100
AcDbEntity
  8
SK2
100
AcDbLine
 10
-5.6523053112
 20
-52.7820995521
 30
0.0
 11
-5.6523053112
 21
-58.3383495431
 31
0.0
  0
LINE
  5
32D
330
323
100
AcDbEntity
  8
SK2
100
AcDbLine
 10
-5.6523053112
 20
-58.3383495431
 30
0.0
 11
-6.7187115686
 21
-58.3383495431
 31
0.0
  0
LINE
  5
32E
330
323
100
AcDbEntity
  8
SK2
100
AcDbLine
 10
-101.6
 20
-19.2922326599
 30
0.0
 11
-101.6
 21
-64.5749812681
 31
0.0
  0
LINE
  5
32F
330
323
100
AcDbEntity
  8
SK2
100
AcDbLine
 10
101.6
 20
-18.8
 30
0.0
 11
101.6
 21
-64.5749812681
 31
0.0
  0
LINE
  5
330
330
323
100
AcDbEntity
  8
SK2
100
AcDbLine
 10
-101.6
 20
-63.5749812681
 30
0.0
 11
101.6
 21
-63.5749812681
 31
0.0
  0
MTEXT
  5
331
330
323
100
AcDbEntity
  8
SK2
100
AcDbMText
 10
-17.8834687412
 20
-59.0097720022
 30
0.0
 40
3.5
 41
0.0
 71
     1
 72
     1
  1

  7
SLDTEXTSTYLE0
 73
     1
 44
1.0
  0
MTEXT
  5
332
330
323
100
AcDbEntity
  8
SK2
100
AcDbMText
 10
-15.7701006295
 20
-53.8266126285
 30
0.0
 40
3.5
 41
0.0
 71
     1
 72
     1
  1
8,00
  7
SLDTEXTSTYLE0
 73
     1
 44
1.0
  0
MTEXT
  5
333
330
323
100
AcDbEntity
  8
SK2
100
AcDbMText
 10
-17.0631563427
 20
-59.0632441789
 30
0.0
 40
3.5
 41
0.0
 71
     1
 72
     1
  1
203,2
  7
SLDTEXTSTYLE0
 73
     1
 44
1.0
  0
MTEXT
  5
334
330
323
100
AcDbEntity
  8
SK2
100
AcDbMText
 10
-3.2733989373
 20
-59.0097720022
 30
0.0
 40
3.5
 41
0.0
 71
     1
 72
     1
  1

  7
SLDTEXTSTYLE0
 73
     1
 44
1.0
  0
ENDBLK
  5
325
330
323
100
AcDbEntity
  8
0
100
AcDbBlockEnd
  0
BLOCK
  5
337
330
336
100
AcDbEntity
  8
0
100
AcDbBlockBegin
  2
_D_10
 70
     0
 10
0.0
 20
0.0
 30
0.0
  3
_D_10
  1

  0
SOLID
  5
339
330
336
100
AcDbEntity
  8
SK2
100
AcDbTrace
 10
47.6
 20
-51.998465978
 30
0.0
 11
50.902
 21
-52.506465978
 31
0.0
 12
50.902
 22
-51.490465978
 32
0.0
 13
50.902
 23
-51.490465978
 33
0.0
  0
SOLID
  5
33A
330
336
100
AcDbEntity
  8
SK2
100
AcDbTrace
 10
101.6
 20
-51.998465978
 30
0.0
 11
98.298
 21
-51.490465978
 31
0.0
 12
98.298
 22
-52.506465978
 32
0.0
 13
98.298
 23
-52.506465978
 33
0.0
  0
LINE
  5
33B
330
336
100
AcDbEntity
  8
SK2
100
AcDbLine
 10
70.4988345756
 20
-41.205584262
 30
0.0
 11
69.4324283182
 21
-41.205584262
 31
0.0
  0
LINE
  5
33C
330
336
100
AcDbEntity
  8
SK2
100
AcDbLine
 10
69.4324283182
 20
-41.205584262
 30
0.0
 11
69.4324283182
 21
-46.761834253
 31
0.0
  0
LINE
  5
33D
330
336
100
AcDbEntity
  8
SK2
100
AcDbLine
 10
69.4324283182
 20
-46.761834253
 30
0.0
 11
70.4988345756
 21
-46.761834253
 31
0.0
  0
LINE
  5
33E
330
336
100
AcDbEntity
  8
SK2
100
AcDbLine
 10
79.5502236365
 20
-41.205584262
 30
0.0
 11
80.616629894
 21
-41.205584262
 31
0.0
  0
LINE
  5
33F
330
336
100
AcDbEntity
  8
SK2
100
AcDbLine
 10
80.616629894
 20
-41.205584262
 30
0.0
 11
80.616629894
 21
-46.761834253
 31
0.0
  0
LINE
  5
340
330
336
100
AcDbEntity
  8
SK2
100
AcDbLine
 10
80.616629894
 20
-46.761834253
 30
0.0
 11
79.5502236365
 21
-46.761834253
 31
0.0
  0
LINE
  5
341
330
336
100
AcDbEntity
  8
SK2
100
AcDbLine
 10
47.6
 20
-13.75
 30
0.0
 11
47.6
 21
-52.998465978
 31
0.0
  0
LINE
  5
342
330
336
100
AcDbEntity
  8
SK2
100
AcDbLine
 10
101.6
 20
-18.8
 30
0.0
 11
101.6
 21
-52.998465978
 31
0.0
  0
LINE
  5
343
330
336
100
AcDbEntity
  8
SK2
100
AcDbLine
 10
47.6
 20
-51.998465978
 30
0.0
 11
101.6
 21
-51.998465978
 31
0.0
  0
MTEXT
  5
344
330
336
100
AcDbEntity
  8
SK2
100
AcDbMText
 10
68.385466464
 20
-47.4332567121
 30
0.0
 40
3.5
 41
0.0
 71
     1
 72
     1
  1

  7
SLDTEXTSTYLE0
 73
     1
 44
1.0
  0
MTEXT
  5
345
330
336
100
AcDbEntity
  8
SK2
100
AcDbMText
 10
70.4988345756
 20
-42.2500973384
 30
0.0
 40
3.5
 41
0.0
 71
     1
 72
     1
  1
2,13
  7
SLDTEXTSTYLE0
 73
     1
 44
1.0
  0
MTEXT
  5
346
330
336
100
AcDbEntity
  8
SK2
100
AcDbMText
 10
72.4384179126
 20
-47.4867288888
 30
0.0
 40
3.5
 41
0.0
 71
     1
 72
     1
  1
54
  7
SLDTEXTSTYLE0
 73
     1
 44
1.0
  0
MTEXT
  5
347
330
336
100
AcDbEntity
  8
SK2
100
AcDbMText
 10
82.9955362679
 20
-47.4332567121
 30
0.0
 40
3.5
 41
0.0
 71
     1
 72
     1
  1

  7
SLDTEXTSTYLE0
 73
     1
 44
1.0
  0
ENDBLK
  5
338
330
336
100
AcDbEntity
  8
0
100
AcDbBlockEnd
  0
BLOCK
  5
34B
330
34A
100
AcDbEntity
  8
0
100
AcDbBlockBegin
  2
_D_11
 70
     0
 10
0.0
 20
0.0
 30
0.0
  3
_D_11
  1

  0
SOLID
  5
34D
330
34A
100
AcDbEntity
  8
SK2
100
AcDbTrace
 10
94.0
 20
-38.7304977209
 30
0.0
 11
90.698
 21
-38.2224977209
 31
0.0
 12
90.698
 22
-39.2384977209
 32
0.0
 13
90.698
 23
-39.2384977209
 33
0.0
  0
SOLID
  5
34E
330
34A
100
AcDbEntity
  8
SK2
100
AcDbTrace
 10
101.6
 20
-38.7304977209
 30
0.0
 11
104.902
 21
-39.2384977209
 31
0.0
 12
104.902
 22
-38.2224977209
 32
0.0
 13
104.902
 23
-38.2224977209
 33
0.0
  0
LINE
  5
34F
330
34A
100
AcDbEntity
  8
SK2
100
AcDbLine
 10
94.0
 20
-26.4
 30
0.0
 11
94.0
 21
-39.7304977209
 31
0.0
  0
LINE
  5
350
330
34A
100
AcDbEntity
  8
SK2
100
AcDbLine
 10
101.6
 20
-18.8
 30
0.0
 11
101.6
 21
-39.7304977209
 31
0.0
  0
LINE
  5
351
330
34A
100
AcDbEntity
  8
SK2
100
AcDbLine
 10
94.0
 20
-38.7304977209
 30
0.0
 11
84.6438201042
 21
-38.7304977209
 31
0.0
  0
LINE
  5
352
330
34A
100
AcDbEntity
  8
SK2
100
AcDbLine
 10
94.0
 20
-38.7304977209
 30
0.0
 11
101.6
 21
-38.7304977209
 31
0.0
  0
LINE
  5
353
330
34A
100
AcDbEntity
  8
SK2
100
AcDbLine
 10
101.6
 20
-38.7304977209
 30
0.0
 11
107.95
 21
-38.7304977209
 31
0.0
  0
MTEXT
  5
354
330
34A
100
AcDbEntity
  8
SK2
100
AcDbMText
 10
84.6438201042
 20
-34.2187608064
 30
0.0
 40
3.5
 41
0.0
 71
     1
 72
     1
  1
7,6
  7
SLDTEXTSTYLE0
 73
     1
 44
1.0
  0
ENDBLK
  5
34C
330
34A
100
AcDbEntity
  8
0
100
AcDbBlockEnd
  0
BLOCK
  5
357
330
356
100
AcDbEntity
  8
0
100
AcDbBlockBegin
  2
_D_12
 70
     0
 10
0.0
 20
0.0
 30
0.0
  3
_D_12
  1

  0
SOLID
  5
359
330
356
100
AcDbEntity
  8
SK2
100
AcDbTrace
 10
-122.1714950662
 20
-47.4754841997
 30
0.0
 11
-121.6634950662
 21
-44.1734841997
 31
0.0
 12
-122.6794950662
 22
-44.1734841997
 32
0.0
 13
-122.6794950662
 23
-44.1734841997
 33
0.0
  0
SOLID
  5
35A
330
356
100
AcDbEntity
  8
SK2
100
AcDbTrace
 10
-122.1714950662
 20
47.2968145978
 30
0.0
 11
-122.6794950662
 21
43.9948145978
 31
0.0
 12
-121.6634950662
 22
43.9948145978
 32
0.0
 13
-121.6634950662
 23
43.9948145978
 33
0.0
  0
LINE
  5
35B
330
356
100
AcDbEntity
  8
SK2
100
AcDbLine
 10
2.95
 20
-47.4754841997
 30
0.0
 11
-123.1714950662
 21
-47.4754841997
 31
0.0
  0
LINE
  5
35C
330
356
100
AcDbEntity
  8
SK2
100
AcDbLine
 10
2.95
 20
47.2968145978
 30
0.0
 11
-123.1714950662
 21
47.2968145978
 31
0.0
  0
LINE
  5
35D
330
356
100
AcDbEntity
  8
SK2
100
AcDbLine
 10
-122.1714950662
 20
-47.4754841997
 30
0.0
 11
-122.1714950662
 21
47.2968145978
 31
0.0
  0
MTEXT
  5
35E
330
356
100
AcDbEntity
  8
SK2
100
AcDbMText
 10
-126.6832321554
 20
-8.8820081305
 30
0.0
 40
3.5
 41
0.0
 71
     1
 72
     1
  1
%%c
  7
SLDTEXTSTYLE0
 11
3.835990623682900E-15
 21
1.0
 31
0.0
 73
     1
 44
1.0
  0
MTEXT
  5
35F
330
356
100
AcDbEntity
  8
SK2
100
AcDbMText
 10
-126.7367043321
 20
-3.6035707321
 30
0.0
 40
3.5
 41
0.0
 71
     1
 72
     1
  1
98,42
  7
SLDTEXTSTYLE0
 11
3.835990623682900E-15
 21
1.0
 31
0.0
 73
     1
 44
1.0
  0
ENDBLK
  5
358
330
356
100
AcDbEntity
  8
0
100
AcDbBlockEnd
  0
BLOCK
  5
362
330
361
100
AcDbEntity
  8
0
100
AcDbBlockBegin
  2
_D_13
 70
     0
 10
0.0
 20
0.0
 30
0.0
  3
_D_13
  1

  0
SOLID
  5
364
330
361
100
AcDbEntity
  8
SK2
100
AcDbTrace
 10
-111.8078297842
 20
12.6999998465
 30
0.0
 11
-112.3158297842
 21
9.3979998465
 31
0.0
 12
-111.2998297842
 22
9.3979998465
 32
0.0
 13
-111.2998297842
 23
9.3979998465
 33
0.0
  0
SOLID
  5
365
330
361
100
AcDbEntity
  8
SK2
100
AcDbTrace
 10
-111.8078297842
 20
-12.6999998465
 30
0.0
 11
-111.2998297842
 21
-9.3979998465
 31
0.0
 12
-112.3158297842
 22
-9.3979998465
 32
0.0
 13
-112.3158297842
 23
-9.3979998465
 33
0.0
  0
LINE
  5
366
330
361
100
AcDbEntity
  8
SK2
100
AcDbLine
 10
-95.967097044
 20
12.6999998465
 30
0.0
 11
-112.8078297842
 21
12.6999998465
 31
0.0
  0
LINE
  5
367
330
361
100
AcDbEntity
  8
SK2
100
AcDbLine
 10
-95.967097044
 20
-12.6999998465
 30
0.0
 11
-112.8078297842
 21
-12.6999998465
 31
0.0
  0
LINE
  5
368
330
361
100
AcDbEntity
  8
SK2
100
AcDbLine
 10
-111.8078297842
 20
12.6999998465
 30
0.0
 11
-111.8078297842
 21
-12.6999998465
 31
0.0
  0
MTEXT
  5
36A
330
361
100
AcDbEntity
  8
SK2
100
AcDbMText
 10
-116.3195666987
 20
-10.5844774963
 30
0.0
 40
3.5
 41
0.0
 71
     1
 72
     1
  1
1 - 8 UNC
  7
SLDTEXTSTYLE1
 11
-7.044195017643634E-15
 21
1.0
 31
0.0
 73
     1
 44
1.0
  0
ENDBLK
  5
363
330
361
100
AcDbEntity
  8
0
100
AcDbBlockEnd
  0
ENDSEC
  0
SECTION
  2
ENTITIES
  0
LINE
  5
82
330
1F
100
AcDbEntity
  8
1
  6
SLD-Solid
370
    25
100
AcDbLine
 10
1.7476022729
 20
-34.925
 30
0.0
 11
2.1330363037
 21
-34.7452691597
 31
0.0
  0
LINE
  5
83
330
1F
100
AcDbEntity
  8
1
  6
SLD-Solid
370
    25
100
AcDbLine
 10
2.1330363037
 20
34.7452691597
 30
0.0
 11
1.7476022729
 21
34.925
 31
0.0
  0
LINE
  5
84
330
1F
100
AcDbEntity
  8
1
  6
SLD-Solid
370
    25
100
AcDbLine
 10
1.7476022729
 20
34.925
 30
0.0
 11
0.0
 21
34.925
 31
0.0
  0
LINE
  5
85
330
1F
100
AcDbEntity
  8
1
  6
SLD-Solid
370
    25
100
AcDbLine
 10
0.0
 20
-34.925
 30
0.0
 11
1.7476022729
 21
-34.925
 31
0.0
  0
LINE
  5
86
330
1F
100
AcDbEntity
  8
SK1
  6
SLD-Solid
370
    25
100
AcDbLine
 10
0.0
 20
34.925
 30
0.0
 11
-99.8030472773
 21
20.3702515116
 31
0.0
  0
LINE
  5
87
330
1F
100
AcDbEntity
  8
SK1
  6
SLD-Solid
370
    25
100
AcDbLine
 10
-99.8030472773
 20
-20.3702515116
 30
0.0
 11
0.0
 21
-34.925
 31
0.0
  0
LINE
  5
88
330
1F
100
AcDbEntity
  8
1
  6
SLD-Solid
370
    25
100
AcDbLine
 10
34.288
 20
34.925
 30
0.0
 11
19.812
 21
34.925
 31
0.0
  0
LINE
  5
89
330
1F
100
AcDbEntity
  8
1
  6
SLD-Solid
370
    25
100
AcDbLine
 10
19.812
 20
-34.925
 30
0.0
 11
34.288
 21
-34.925
 31
0.0
  0
LINE
  5
8A
330
1F
100
AcDbEntity
  8
1
  6
SLD-Solid
370
    25
100
AcDbLine
 10
37.9043235347
 20
25.4
 30
0.0
 11
36.574
 21
25.4
 31
0.0
  0
LINE
  5
8B
330
1F
100
AcDbEntity
  8
1
  6
SLD-Solid
370
    25
100
AcDbLine
 10
62.9
 20
25.4
 30
0.0
 11
58.15
 21
25.4
 31
0.0
  0
LINE
  5
8C
330
1F
100
AcDbEntity
  8
1
  6
SLD-Solid
370
    25
100
AcDbLine
 10
94.0
 20
25.4
 30
0.0
 11
83.1472391368
 21
25.4
 31
0.0
  0
LINE
  5
8D
330
1F
100
AcDbEntity
  8
1
  6
SLD-Solid
370
    25
100
AcDbLine
 10
84.0633329906
 20
-25.4
 30
0.0
 11
94.0
 21
-25.4
 31
0.0
  0
LINE
  5
8E
330
1F
100
AcDbEntity
  8
1
  6
SLD-Solid
370
    25
100
AcDbLine
 10
59.0716058136
 20
-25.4
 30
0.0
 11
61.9854470705
 21
-25.4
 31
0.0
  0
LINE
  5
8F
330
1F
100
AcDbEntity
  8
1
  6
SLD-Solid
370
    25
100
AcDbLine
 10
36.574
 20
-25.4
 30
0.0
 11
36.9958313516
 21
-25.4
 31
0.0
  0
LINE
  5
90
330
1F
100
AcDbEntity
  8
1
  6
SLD-Solid
370
    25
100
AcDbLine
 10
94.0
 20
-25.4
 30
0.0
 11
101.6
 21
-17.8
 31
0.0
  0
LINE
  5
91
330
1F
100
AcDbEntity
  8
1
  6
SLD-Solid
370
    25
100
AcDbLine
 10
101.6
 20
17.8
 30
0.0
 11
94.0
 21
25.4
 31
0.0
  0
LINE
  5
92
330
1F
100
AcDbEntity
  8
1
  6
SLD-Solid
370
    25
100
AcDbLine
 10
14.6397233934
 20
-47.4754841997
 30
0.0
 11
18.3
 21
-47.4754841997
 31
0.0
  0
LINE
  5
93
330
1F
100
AcDbEntity
  8
1
  6
SLD-Solid
370
    25
100
AcDbLine
 10
14.6397233934
 20
47.2968145978
 30
0.0
 11
14.6397233934
 21
-47.4754841997
 31
0.0
  0
LINE
  5
94
330
1F
100
AcDbEntity
  8
1
  6
SLD-Solid
370
    25
100
AcDbLine
 10
18.3
 20
47.2968145978
 30
0.0
 11
14.6397233934
 21
47.2968145978
 31
0.0
  0
LINE
  5
95
330
1F
100
AcDbEntity
  8
1
  6
SLD-Solid
370
    25
100
AcDbLine
 10
18.3
 20
-47.4754841997
 30
0.0
 11
18.3
 21
47.2968145978
 31
0.0
  0
LINE
  5
96
330
1F
100
AcDbEntity
  8
1
  6
SLD-Solid
370
    25
100
AcDbLine
 10
3.2
 20
-46.6976348437
 30
0.0
 11
3.2
 21
46.5560855313
 31
0.0
  0
LINE
  5
97
330
1F
100
AcDbEntity
  8
1
  6
SLD-Solid
370
    25
100
AcDbLine
 10
3.95
 20
47.2968145978
 30
0.0
 11
3.95
 21
-47.4754841997
 31
0.0
  0
LINE
  5
98
330
1F
100
AcDbEntity
  8
1
  6
SLD-Solid
370
    25
100
AcDbLine
 10
19.05
 20
46.5560855313
 30
0.0
 11
19.05
 21
-46.6976348437
 31
0.0
  0
LINE
  5
99
330
1F
100
AcDbEntity
  8
1
  6
SLD-Solid
370
    25
100
AcDbLine
 10
3.95
 20
-47.4754841997
 30
0.0
 11
7.5902766066
 21
-47.4754841997
 31
0.0
  0
LINE
  5
9A
330
1F
100
AcDbEntity
  8
1
  6
SLD-Solid
370
    25
100
AcDbLine
 10
7.5902766066
 20
47.2968145978
 30
0.0
 11
3.95
 21
47.2968145978
 31
0.0
  0
LINE
  5
9B
330
1F
100
AcDbEntity
  8
1
  6
SLD-Solid
370
    25
100
AcDbLine
 10
7.5902766066
 20
47.2968145978
 30
0.0
 11
7.5902766066
 21
-47.4754841997
 31
0.0
  0
LINE
  5
9C
330
1F
100
AcDbEntity
  8
1
  6
SLD-Solid
370
    25
100
AcDbLine
 10
9.2
 20
44.5790106634
 30
0.0
 11
9.2
 21
41.9587011964
 31
0.0
  0
LINE
  5
9D
330
1F
100
AcDbEntity
  8
1
  6
SLD-Solid
370
    25
100
AcDbLine
 10
9.2
 20
41.4830129515
 30
0.0
 11
9.2
 21
35.3885961177
 31
0.0
  0
LINE
  5
9E
330
1F
100
AcDbEntity
  8
1
  6
SLD-Solid
370
    25
100
AcDbLine
 10
9.2
 20
34.676688935
 30
0.0
 11
9.2
 21
-44.5790106634
 31
0.0
  0
LINE
  5
9F
330
1F
100
AcDbEntity
  8
1
  6
SLD-Solid
370
    25
100
AcDbLine
 10
13.03
 20
44.5790106634
 30
0.0
 11
13.03
 21
41.9871173317
 31
0.0
  0
LINE
  5
A0
330
1F
100
AcDbEntity
  8
1
  6
SLD-Solid
370
    25
100
AcDbLine
 10
13.03
 20
34.6324292339
 30
0.0
 11
13.03
 21
-44.5790106634
 31
0.0
  0
LINE
  5
A1
330
1F
100
AcDbEntity
  8
1
  6
SLD-Solid
370
    25
100
AcDbLine
 10
13.03
 20
41.453113616
 30
0.0
 11
13.03
 21
35.4316103884
 31
0.0
  0
LINE
  5
A2
330
1F
100
AcDbEntity
  8
1
  6
SLD-Solid
370
    25
100
AcDbLine
 10
12.28
 20
33.3554707167
 30
0.0
 11
12.28
 21
-43.7694359685
 31
0.0
  0
LINE
  5
A3
330
1F
100
AcDbEntity
  8
1
  6
SLD-Solid
370
    25
100
AcDbLine
 10
9.95
 20
33.3652595305
 30
0.0
 11
9.95
 21
-43.7694359685
 31
0.0
  0
LINE
  5
A4
330
1F
100
AcDbEntity
  8
1
  6
SLD-Solid
370
    25
100
AcDbLine
 10
9.95
 20
-43.7694359685
 30
0.0
 11
12.28
 21
-43.7694359685
 31
0.0
  0
LINE
  5
A5
330
1F
100
AcDbEntity
  8
1
  6
SLD-Solid
370
    25
100
AcDbLine
 10
1.7476022729
 20
34.925
 30
0.0
 11
1.7476022729
 21
-34.925
 31
0.0
  0
LINE
  5
A6
330
1F
100
AcDbEntity
  8
1
  6
SLD-Solid
370
    25
100
AcDbLine
 10
0.0
 20
34.925
 30
0.0
 11
0.0
 21
-34.925
 31
0.0
  0
LINE
  5
A7
330
1F
100
AcDbEntity
  8
1
  6
SLD-Solid
370
    25
100
AcDbLine
 10
35.05
 20
0.0
 30
0.0
 11
35.05
 21
-34.163
 31
0.0
  0
LINE
  5
A8
330
1F
100
AcDbEntity
  8
1
  6
SLD-Solid
370
    25
100
AcDbLine
 10
35.05
 20
34.163
 30
0.0
 11
35.05
 21
0.0
 31
0.0
  0
LINE
  5
A9
330
1F
100
AcDbEntity
  8
1
  6
SLD-Solid
370
    25
100
AcDbLine
 10
9.2
 20
35.3885961177
 30
0.0
 11
9.2
 21
35.3683101781
 31
0.0
  0
LINE
  5
AA
330
1F
100
AcDbEntity
  8
1
  6
SLD-Solid
370
    25
100
AcDbLine
 10
13.03
 20
35.4113240881
 30
0.0
 11
13.03
 21
35.4316103884
 31
0.0
  0
LINE
  5
AB
330
1F
100
AcDbEntity
  8
1
  6
SLD-Solid
370
    25
100
AcDbLine
 10
9.95
 20
40.2901760725
 30
0.0
 11
9.95
 21
35.4888548114
 31
0.0
  0
LINE
  5
AC
330
1F
100
AcDbEntity
  8
1
  6
SLD-Solid
370
    25
100
AcDbLine
 10
12.28
 20
40.2834337913
 30
0.0
 11
12.28
 21
35.4978726362
 31
0.0
  0
LINE
  5
AD
330
1F
100
AcDbEntity
  8
1
  6
SLD-Solid
370
    25
100
AcDbLine
 10
47.52939431
 20
23.3
 30
0.0
 11
48.52060569
 21
23.3
 31
0.0
  0
LINE
  5
AE
330
1F
100
AcDbEntity
  8
1
  6
SLD-Solid
370
    25
100
AcDbLine
 10
94.0
 20
25.4
 30
0.0
 11
94.0
 21
-25.4
 31
0.0
  0
LINE
  5
AF
330
1F
100
AcDbEntity
  8
1
  6
SLD-Solid
370
    25
100
AcDbLine
 10
101.6
 20
17.8
 30
0.0
 11
101.6
 21
-17.8
 31
0.0
  0
LINE
  5
B0
330
1F
100
AcDbEntity
  8
1
  6
SLD-Solid
370
    25
100
AcDbLine
 10
9.2
 20
41.9587011964
 30
0.0
 11
9.2
 21
41.9345423912
 31
0.0
  0
LINE
  5
B1
330
1F
100
AcDbEntity
  8
1
  6
SLD-Solid
370
    25
100
AcDbLine
 10
13.03
 20
41.9629580968
 30
0.0
 11
13.03
 21
41.9871173317
 31
0.0
  0
LINE
  5
B2
330
1F
100
AcDbEntity
  8
SK1
  6
SLD-Solid
370
    25
100
AcDbLine
 10
-101.6
 20
-18.2922326599
 30
0.0
 11
-101.6
 21
18.2922326599
 31
0.0
  0
LINE
  5
B3
330
1F
100
AcDbEntity
  8
1
  6
SLD-Solid
370
    25
100
AcDbLine
 10
9.95
 20
43.7694359685
 30
0.0
 11
9.95
 21
41.7091381742
 31
0.0
  0
LINE
  5
B4
330
1F
100
AcDbEntity
  8
1
  6
SLD-Solid
370
    25
100
AcDbLine
 10
12.28
 20
43.7694359685
 30
0.0
 11
12.28
 21
41.714962274
 31
0.0
  0
LINE
  5
B5
330
1F
100
AcDbEntity
  8
1
  6
SLD-Solid
370
    25
100
AcDbLine
 10
9.95
 20
43.7694359685
 30
0.0
 11
12.28
 21
43.7694359685
 31
0.0
  0
LINE
  5
B6
330
1F
100
AcDbEntity
  8
1
  6
SLD-Solid
370
    25
100
AcDbLine
 10
19.812
 20
0.0
 30
0.0
 11
19.812
 21
-34.925
 31
0.0
  0
LINE
  5
B7
330
1F
100
AcDbEntity
  8
1
  6
SLD-Solid
370
    25
100
AcDbLine
 10
19.812
 20
34.925
 30
0.0
 11
19.812
 21
0.0
 31
0.0
  0
LINE
  5
B8
330
1F
100
AcDbEntity
  8
1
  6
SLD-Solid
370
    25
100
AcDbLine
 10
2.1330363037
 20
34.7452691597
 30
0.0
 11
2.1330363037
 21
-34.7452691597
 31
0.0
  0
LINE
  5
B9
330
1F
100
AcDbEntity
  8
SK1
  6
SLD-Solid
370
    25
100
AcDbLine
 10
-99.8030472773
 20
0.0
 30
0.0
 11
-99.8030472773
 21
-20.3702515116
 31
0.0
  0
LINE
  5
BA
330
1F
100
AcDbEntity
  8
SK1
  6
SLD-Solid
370
    25
100
AcDbLine
 10
-99.8030472773
 20
20.3702515116
 30
0.0
 11
-99.8030472773
 21
0.0
 31
0.0
  0
LINE
  5
BB
330
1F
100
AcDbEntity
  8
1
  6
SLD-Solid
370
    25
100
AcDbLine
 10
34.288
 20
0.0
 30
0.0
 11
34.288
 21
34.925
 31
0.0
  0
LINE
  5
BC
330
1F
100
AcDbEntity
  8
1
  6
SLD-Solid
370
    25
100
AcDbLine
 10
34.288
 20
-34.925
 30
0.0
 11
34.288
 21
0.0
 31
0.0
  0
LINE
  5
BD
330
1F
100
AcDbEntity
  8
1
  6
SLD-Solid
370
    25
100
AcDbLine
 10
36.574
 20
0.0
 30
0.0
 11
36.574
 21
-25.4
 31
0.0
  0
LINE
  5
BE
330
1F
100
AcDbEntity
  8
1
  6
SLD-Solid
370
    25
100
AcDbLine
 10
36.574
 20
25.4
 30
0.0
 11
36.574
 21
0.0
 31
0.0
  0
LINE
  5
BF
330
1F
100
AcDbEntity
  8
SK3
  6
SLD-Dashed
370
    18
100
AcDbLine
 10
6.4723069743
 20
-13.9015950424
 30
0.0
 11
6.3056572614
 21
-13.2437532254
 31
0.0
  0
LINE
  5
C0
330
1F
100
AcDbEntity
  8
SK3
  6
SLD-Dashed
370
    18
100
AcDbLine
 10
6.3056572614
 20
-13.2437532254
 30
0.0
 11
6.0455057258
 21
-12.630742241
 31
0.0
  0
LINE
  5
C1
330
1F
100
AcDbEntity
  8
SK3
  6
SLD-Dashed
370
    18
100
AcDbLine
 10
6.0455057258
 20
-12.630742241
 30
0.0
 11
5.7095812647
 21
-12.1043377749
 31
0.0
  0
LINE
  5
C2
330
1F
100
AcDbEntity
  8
SK3
  6
SLD-Dashed
370
    18
100
AcDbLine
 10
5.7095812647
 20
-12.1043377749
 30
0.0
 11
5.3207765751
 21
-11.7004134215
 31
0.0
  0
LINE
  5
C3
330
1F
100
AcDbEntity
  8
SK3
  6
SLD-Dashed
370
    18
100
AcDbLine
 10
5.3207765751
 20
-11.7004134215
 30
0.0
 11
4.905588054
 21
-11.4464959579
 31
0.0
  0
LINE
  5
C4
330
1F
100
AcDbEntity
  8
SK3
  6
SLD-Dashed
370
    18
100
AcDbLine
 10
4.905588054
 20
-11.4464959579
 30
0.0
 11
4.492310113
 21
-11.3598894396
 31
0.0
  0
LINE
  5
C5
330
1F
100
AcDbEntity
  8
SK3
  6
SLD-Dashed
370
    18
100
AcDbLine
 10
4.492310113
 20
-11.3598894396
 30
0.0
 11
4.1091069607
 21
-11.4464959579
 31
0.0
  0
LINE
  5
C6
330
1F
100
AcDbEntity
  8
SK3
  6
SLD-Dashed
370
    18
100
AcDbLine
 10
4.1091069607
 20
-11.4464959579
 30
0.0
 11
3.7820932588
 21
-11.7004134215
 31
0.0
  0
LINE
  5
C7
330
1F
100
AcDbEntity
  8
SK3
  6
SLD-Dashed
370
    18
100
AcDbLine
 10
3.7820932588
 20
-11.7004134215
 30
0.0
 11
3.5335544506
 21
-12.1043377749
 31
0.0
  0
LINE
  5
C8
330
1F
100
AcDbEntity
  8
SK3
  6
SLD-Dashed
370
    18
100
AcDbLine
 10
3.5335544506
 20
-12.1043377749
 30
0.0
 11
3.3804280451
 21
-12.630742241
 31
0.0
  0
LINE
  5
C9
330
1F
100
AcDbEntity
  8
SK3
  6
SLD-Dashed
370
    18
100
AcDbLine
 10
3.3804280451
 20
-12.630742241
 30
0.0
 11
3.3331493539
 21
-13.2437532254
 31
0.0
  0
LINE
  5
CA
330
1F
100
AcDbEntity
  8
SK3
  6
SLD-Dashed
370
    18
100
AcDbLine
 10
3.3331493539
 20
-13.2437532254
 30
0.0
 11
3.3949403416
 21
-13.9015950424
 31
0.0
  0
LINE
  5
CB
330
1F
100
AcDbEntity
  8
SK3
  6
SLD-Dashed
370
    18
100
AcDbLine
 10
3.3949403416
 20
-13.9015950424
 30
0.0
 11
3.5615900545
 21
-14.5594368595
 31
0.0
  0
LINE
  5
CC
330
1F
100
AcDbEntity
  8
SK3
  6
SLD-Dashed
370
    18
100
AcDbLine
 10
3.5615900545
 20
-14.5594368595
 30
0.0
 11
3.8217415901
 21
-15.1724478438
 31
0.0
  0
LINE
  5
CD
330
1F
100
AcDbEntity
  8
SK3
  6
SLD-Dashed
370
    18
100
AcDbLine
 10
3.8217415901
 20
-15.1724478438
 30
0.0
 11
4.1576660511
 21
-15.6988523099
 31
0.0
  0
LINE
  5
CE
330
1F
100
AcDbEntity
  8
SK3
  6
SLD-Dashed
370
    18
100
AcDbLine
 10
4.1576660511
 20
-15.6988523099
 30
0.0
 11
4.5464707407
 21
-16.1027766634
 31
0.0
  0
LINE
  5
CF
330
1F
100
AcDbEntity
  8
SK3
  6
SLD-Dashed
370
    18
100
AcDbLine
 10
4.5464707407
 20
-16.1027766634
 30
0.0
 11
4.9616592619
 21
-16.356694127
 31
0.0
  0
LINE
  5
D0
330
1F
100
AcDbEntity
  8
SK3
  6
SLD-Dashed
370
    18
100
AcDbLine
 10
4.9616592619
 20
-16.356694127
 30
0.0
 11
5.3749372029
 21
-16.4433006452
 31
0.0
  0
LINE
  5
D1
330
1F
100
AcDbEntity
  8
SK3
  6
SLD-Dashed
370
    18
100
AcDbLine
 10
5.3749372029
 20
-16.4433006452
 30
0.0
 11
5.7581403551
 21
-16.356694127
 31
0.0
  0
LINE
  5
D2
330
1F
100
AcDbEntity
  8
SK3
  6
SLD-Dashed
370
    18
100
AcDbLine
 10
5.7581403551
 20
-16.356694127
 30
0.0
 11
6.0851540571
 21
-16.1027766634
 31
0.0
  0
LINE
  5
D3
330
1F
100
AcDbEntity
  8
SK3
  6
SLD-Dashed
370
    18
100
AcDbLine
 10
6.0851540571
 20
-16.1027766634
 30
0.0
 11
6.3336928653
 21
-15.6988523099
 31
0.0
  0
LINE
  5
D4
330
1F
100
AcDbEntity
  8
SK3
  6
SLD-Dashed
370
    18
100
AcDbLine
 10
6.3336928653
 20
-15.6988523099
 30
0.0
 11
6.4868192707
 21
-15.1724478438
 31
0.0
  0
LINE
  5
D5
330
1F
100
AcDbEntity
  8
SK3
  6
SLD-Dashed
370
    18
100
AcDbLine
 10
6.4868192707
 20
-15.1724478438
 30
0.0
 11
6.5340979619
 21
-14.5594368595
 31
0.0
  0
LINE
  5
D6
330
1F
100
AcDbEntity
  8
SK3
  6
SLD-Dashed
370
    18
100
AcDbLine
 10
6.5340979619
 20
-14.5594368595
 30
0.0
 11
6.4723069743
 21
-13.9015950424
 31
0.0
  0
LINE
  5
D7
330
1F
100
AcDbEntity
  8
SK3
  6
SLD-Dashed
370
    18
100
AcDbLine
 10
6.4545594773
 20
-13.8826166832
 30
0.0
 11
6.5129886022
 21
-14.5287984962
 31
0.0
  0
LINE
  5
D8
330
1F
100
AcDbEntity
  8
SK3
  6
SLD-Dashed
370
    18
100
AcDbLine
 10
6.5129886022
 20
-14.5287984962
 30
0.0
 11
6.4595508826
 21
-15.1270559603
 31
0.0
  0
LINE
  5
D9
330
1F
100
AcDbEntity
  8
SK3
  6
SLD-Dashed
370
    18
100
AcDbLine
 10
6.4595508826
 20
-15.1270559603
 30
0.0
 11
6.2982095497
 21
-15.6330190561
 31
0.0
  0
LINE
  5
DA
330
1F
100
AcDbEntity
  8
SK3
  6
SLD-Dashed
370
    18
100
AcDbLine
 10
6.2982095497
 20
-15.6330190561
 30
0.0
 11
6.0409305521
 21
-16.0091628154
 31
0.0
  0
LINE
  5
DB
330
1F
100
AcDbEntity
  8
SK3
  6
SLD-Dashed
370
    18
100
AcDbLine
 10
6.0409305521
 20
-16.0091628154
 30
0.0
 11
5.7067950961
 21
-16.2275903765
 31
0.0
  0
LINE
  5
DC
330
1F
100
AcDbEntity
  8
SK3
  6
SLD-Dashed
370
    18
100
AcDbLine
 10
5.7067950961
 20
-16.2275903765
 30
0.0
 11
5.32058448
 21
-16.2721019662
 31
0.0
  0
LINE
  5
DD
330
1F
100
AcDbEntity
  8
SK3
  6
SLD-Dashed
370
    18
100
AcDbLine
 10
5.32058448
 20
-16.2721019662
 30
0.0
 11
4.9109421782
 21
-16.1393963637
 31
0.0
  0
LINE
  5
DE
330
1F
100
AcDbEntity
  8
SK3
  6
SLD-Dashed
370
    18
100
AcDbLine
 10
4.9109421782
 20
-16.1393963637
 30
0.0
 11
4.5082494863
 21
-15.8393157363
 31
0.0
  0
LINE
  5
DF
330
1F
100
AcDbEntity
  8
SK3
  6
SLD-Dashed
370
    18
100
AcDbLine
 10
4.5082494863
 20
-15.8393157363
 30
0.0
 11
4.1423722791
 21
-15.3941156915
 31
0.0
  0
LINE
  5
E0
330
1F
100
AcDbEntity
  8
SK3
  6
SLD-Dashed
370
    18
100
AcDbLine
 10
4.1423722791
 20
-15.3941156915
 30
0.0
 11
3.8404459953
 21
-14.8368146799
 31
0.0
  0
LINE
  5
E1
330
1F
100
AcDbEntity
  8
SK3
  6
SLD-Dashed
370
    18
100
AcDbLine
 10
3.8404459953
 20
-14.8368146799
 30
0.0
 11
3.6248631261
 21
-14.208745168
 31
0.0
  0
LINE
  5
E2
330
1F
100
AcDbEntity
  8
SK3
  6
SLD-Dashed
370
    18
100
AcDbLine
 10
3.6248631261
 20
-14.208745168
 30
0.0
 11
3.5116124667
 21
-13.5564881983
 31
0.0
  0
LINE
  5
E3
330
1F
100
AcDbEntity
  8
SK3
  6
SLD-Dashed
370
    18
100
AcDbLine
 10
3.5116124667
 20
-13.5564881983
 30
0.0
 11
3.5090933004
 21
-12.9284186865
 31
0.0
  0
LINE
  5
E4
330
1F
100
AcDbEntity
  8
SK3
  6
SLD-Dashed
370
    18
100
AcDbLine
 10
3.5090933004
 20
-12.9284186865
 30
0.0
 11
3.6174924623
 21
-12.3711176748
 31
0.0
  0
LINE
  5
E5
330
1F
100
AcDbEntity
  8
SK3
  6
SLD-Dashed
370
    18
100
AcDbLine
 10
3.6174924623
 20
-12.3711176748
 30
0.0
 11
3.8287704824
 21
-11.92591763
 31
0.0
  0
LINE
  5
E6
330
1F
100
AcDbEntity
  8
SK3
  6
SLD-Dashed
370
    18
100
AcDbLine
 10
3.8287704824
 20
-11.92591763
 30
0.0
 11
4.1272578365
 21
-11.6258370026
 31
0.0
  0
LINE
  5
E7
330
1F
100
AcDbEntity
  8
SK3
  6
SLD-Dashed
370
    18
100
AcDbLine
 10
4.1272578365
 20
-11.6258370026
 30
0.0
 11
4.490817083
 21
-11.4931314001
 31
0.0
  0
LINE
  5
E8
330
1F
100
AcDbEntity
  8
SK3
  6
SLD-Dashed
370
    18
100
AcDbLine
 10
4.490817083
 20
-11.4931314001
 30
0.0
 11
4.8924846959
 21
-11.5376429899
 31
0.0
  0
LINE
  5
E9
330
1F
100
AcDbEntity
  8
SK3
  6
SLD-Dashed
370
    18
100
AcDbLine
 10
4.8924846959
 20
-11.5376429899
 30
0.0
 11
5.3024708256
 21
-11.7560705509
 31
0.0
  0
LINE
  5
EA
330
1F
100
AcDbEntity
  8
SK3
  6
SLD-Dashed
370
    18
100
AcDbLine
 10
5.3024708256
 20
-11.7560705509
 30
0.0
 11
5.6903686767
 21
-12.1322143103
 31
0.0
  0
LINE
  5
EB
330
1F
100
AcDbEntity
  8
SK3
  6
SLD-Dashed
370
    18
100
AcDbLine
 10
5.6903686767
 20
-12.1322143103
 30
0.0
 11
6.0274096399
 21
-12.6381774061
 31
0.0
  0
LINE
  5
EC
330
1F
100
AcDbEntity
  8
SK3
  6
SLD-Dashed
370
    18
100
AcDbLine
 10
6.0274096399
 20
-12.6381774061
 30
0.0
 11
6.2885969289
 21
-13.2364348701
 31
0.0
  0
LINE
  5
ED
330
1F
100
AcDbEntity
  8
SK3
  6
SLD-Dashed
370
    18
100
AcDbLine
 10
6.2885969289
 20
-13.2364348701
 30
0.0
 11
6.4545594773
 21
-13.8826166832
 31
0.0
  0
LINE
  5
EE
330
1F
100
AcDbEntity
  8
SK3
  6
SLD-Dashed
370
    18
100
AcDbLine
 10
17.1792841073
 20
-11.0168048658
 30
0.0
 11
17.0133215589
 21
-10.3706230527
 31
0.0
  0
LINE
  5
EF
330
1F
100
AcDbEntity
  8
SK3
  6
SLD-Dashed
370
    18
100
AcDbLine
 10
17.0133215589
 20
-10.3706230527
 30
0.0
 11
16.7521342699
 21
-9.7723655887
 31
0.0
  0
LINE
  5
F0
330
1F
100
AcDbEntity
  8
SK3
  6
SLD-Dashed
370
    18
100
AcDbLine
 10
16.7521342699
 20
-9.7723655887
 30
0.0
 11
16.4150933067
 21
-9.2664024929
 31
0.0
  0
LINE
  5
F1
330
1F
100
AcDbEntity
  8
SK3
  6
SLD-Dashed
370
    18
100
AcDbLine
 10
16.4150933067
 20
-9.2664024929
 30
0.0
 11
16.0271954557
 21
-8.8902587335
 31
0.0
  0
LINE
  5
F2
330
1F
100
AcDbEntity
  8
SK3
  6
SLD-Dashed
370
    18
100
AcDbLine
 10
16.0271954557
 20
-8.8902587335
 30
0.0
 11
15.6172093259
 21
-8.6718311725
 31
0.0
  0
LINE
  5
F3
330
1F
100
AcDbEntity
  8
SK3
  6
SLD-Dashed
370
    18
100
AcDbLine
 10
15.6172093259
 20
-8.6718311725
 30
0.0
 11
15.2155417131
 21
-8.6273195827
 31
0.0
  0
LINE
  5
F4
330
1F
100
AcDbEntity
  8
SK3
  6
SLD-Dashed
370
    18
100
AcDbLine
 10
15.2155417131
 20
-8.6273195827
 30
0.0
 11
14.8519824665
 21
-8.7600251853
 31
0.0
  0
LINE
  5
F5
330
1F
100
AcDbEntity
  8
SK3
  6
SLD-Dashed
370
    18
100
AcDbLine
 10
14.8519824665
 20
-8.7600251853
 30
0.0
 11
14.5534951125
 21
-9.0601058126
 31
0.0
  0
LINE
  5
F6
330
1F
100
AcDbEntity
  8
SK3
  6
SLD-Dashed
370
    18
100
AcDbLine
 10
14.5534951125
 20
-9.0601058126
 30
0.0
 11
14.3422170924
 21
-9.5053058575
 31
0.0
  0
LINE
  5
F7
330
1F
100
AcDbEntity
  8
SK3
  6
SLD-Dashed
370
    18
100
AcDbLine
 10
14.3422170924
 20
-9.5053058575
 30
0.0
 11
14.2338179305
 21
-10.0626068691
 31
0.0
  0
LINE
  5
F8
330
1F
100
AcDbEntity
  8
SK3
  6
SLD-Dashed
370
    18
100
AcDbLine
 10
14.2338179305
 20
-10.0626068691
 30
0.0
 11
14.2363370967
 21
-10.690676381
 31
0.0
  0
LINE
  5
F9
330
1F
100
AcDbEntity
  8
SK3
  6
SLD-Dashed
370
    18
100
AcDbLine
 10
14.2363370967
 20
-10.690676381
 30
0.0
 11
14.3495877561
 21
-11.3429333506
 31
0.0
  0
LINE
  5
FA
330
1F
100
AcDbEntity
  8
SK3
  6
SLD-Dashed
370
    18
100
AcDbLine
 10
14.3495877561
 20
-11.3429333506
 30
0.0
 11
14.5651706253
 21
-11.9710028625
 31
0.0
  0
LINE
  5
FB
330
1F
100
AcDbEntity
  8
SK3
  6
SLD-Dashed
370
    18
100
AcDbLine
 10
14.5651706253
 20
-11.9710028625
 30
0.0
 11
14.8670969091
 21
-12.5283038741
 31
0.0
  0
LINE
  5
FC
330
1F
100
AcDbEntity
  8
SK3
  6
SLD-Dashed
370
    18
100
AcDbLine
 10
14.8670969091
 20
-12.5283038741
 30
0.0
 11
15.2329741163
 21
-12.9735039189
 31
0.0
  0
LINE
  5
FD
330
1F
100
AcDbEntity
  8
SK3
  6
SLD-Dashed
370
    18
100
AcDbLine
 10
15.2329741163
 20
-12.9735039189
 30
0.0
 11
15.6356668082
 21
-13.2735845463
 31
0.0
  0
LINE
  5
FE
330
1F
100
AcDbEntity
  8
SK3
  6
SLD-Dashed
370
    18
100
AcDbLine
 10
15.6356668082
 20
-13.2735845463
 30
0.0
 11
16.04530911
 21
-13.4062901488
 31
0.0
  0
LINE
  5
FF
330
1F
100
AcDbEntity
  8
SK3
  6
SLD-Dashed
370
    18
100
AcDbLine
 10
16.04530911
 20
-13.4062901488
 30
0.0
 11
16.4315197262
 21
-13.3617785591
 31
0.0
  0
LINE
  5
100
330
1F
100
AcDbEntity
  8
SK3
  6
SLD-Dashed
370
    18
100
AcDbLine
 10
16.4315197262
 20
-13.3617785591
 30
0.0
 11
16.7656551822
 21
-13.1433509981
 31
0.0
  0
LINE
  5
101
330
1F
100
AcDbEntity
  8
SK3
  6
SLD-Dashed
370
    18
100
AcDbLine
 10
16.7656551822
 20
-13.1433509981
 30
0.0
 11
17.0229341797
 21
-12.7672072387
 31
0.0
  0
LINE
  5
102
330
1F
100
AcDbEntity
  8
SK3
  6
SLD-Dashed
370
    18
100
AcDbLine
 10
17.0229341797
 20
-12.7672072387
 30
0.0
 11
17.1842755126
 21
-12.2612441429
 31
0.0
  0
LINE
  5
103
330
1F
100
AcDbEntity
  8
SK3
  6
SLD-Dashed
370
    18
100
AcDbLine
 10
17.1842755126
 20
-12.2612441429
 30
0.0
 11
17.2377132322
 21
-11.6629866788
 31
0.0
  0
LINE
  5
104
330
1F
100
AcDbEntity
  8
SK3
  6
SLD-Dashed
370
    18
100
AcDbLine
 10
17.2377132322
 20
-11.6629866788
 30
0.0
 11
17.1792841073
 21
-11.0168048658
 31
0.0
  0
LINE
  5
105
330
1F
100
AcDbEntity
  8
1
  6
SLD-Dashed
370
    18
100
AcDbLine
 10
48.52060569
 20
23.3
 30
0.0
 11
47.52939431
 21
23.3
 31
0.0
  0
LINE
  5
106
330
1F
100
AcDbEntity
  8
SK3
  6
SLD-Dashed
370
    18
100
AcDbLine
 10
-99.7034043657
 20
-13.19
 30
0.0
 11
-99.7034043657
 21
13.19
 31
0.0
  0
LINE
  5
107
330
1F
100
AcDbEntity
  8
SK3
  6
SLD-Dashed
370
    18
100
AcDbLine
 10
-101.6
 20
-14.2640498169
 30
0.0
 11
-101.6
 21
14.2640498169
 31
0.0
  0
LINE
  5
108
330
1F
100
AcDbEntity
  8
SK3
  6
SLD-Dashed
370
    18
100
AcDbLine
 10
-95.25
 20
-13.19
 30
0.0
 11
-95.25
 21
13.19
 31
0.0
  0
LINE
  5
109
330
1F
100
AcDbEntity
  8
SK3
  6
SLD-Dashed
370
    18
100
AcDbLine
 10
-94.0505548158
 20
-11.1125
 30
0.0
 11
-94.0505548158
 21
11.1125
 31
0.0
  0
LINE
  5
10A
330
1F
100
AcDbEntity
  8
SK3
  6
SLD-Dashed
370
    18
100
AcDbLine
 10
100.6
 20
-12.5
 30
0.0
 11
100.6
 21
12.5
 31
0.0
  0
LINE
  5
10B
330
1F
100
AcDbEntity
  8
SK3
  6
SLD-Dashed
370
    18
100
AcDbLine
 10
101.6
 20
-13.072017232
 30
0.0
 11
101.6
 21
13.072017232
 31
0.0
  0
LINE
  5
10C
330
1F
100
AcDbEntity
  8
SK3
  6
SLD-Dashed
370
    18
100
AcDbLine
 10
3.7
 20
37.875
 30
0.0
 11
3.7
 21
46.5560855313
 31
0.0
  0
LINE
  5
10D
330
1F
100
AcDbEntity
  8
SK3
  6
SLD-Dashed
370
    18
100
AcDbLine
 10
18.55
 20
46.5560855313
 30
0.0
 11
18.55
 21
37.875
 31
0.0
  0
LINE
  5
10E
330
1F
100
AcDbEntity
  8
SK3
  6
SLD-Dashed
370
    18
100
AcDbLine
 10
14.2727106199
 20
46.8162535878
 30
0.0
 11
18.3
 21
46.8162535878
 31
0.0
  0
LINE
  5
10F
330
1F
100
AcDbEntity
  8
SK3
  6
SLD-Dashed
370
    18
100
AcDbLine
 10
3.95
 20
46.8162535878
 30
0.0
 11
7.9572893801
 21
46.8162535878
 31
0.0
  0
LINE
  5
110
330
1F
100
AcDbEntity
  8
1
  6
SLD-Dashed
370
    18
100
AcDbLine
 10
13.03
 20
44.5510215932
 30
0.0
 11
13.03
 21
44.5790106634
 31
0.0
  0
LINE
  5
111
330
1F
100
AcDbEntity
  8
1
  6
SLD-Dashed
370
    18
100
AcDbLine
 10
9.2
 20
44.5790106634
 30
0.0
 11
9.2
 21
44.5510215932
 31
0.0
  0
LINE
  5
112
330
1F
100
AcDbEntity
  8
1
  6
SLD-Dashed
370
    18
100
AcDbLine
 10
9.2
 20
-44.5790106634
 30
0.0
 11
9.2
 21
-44.5510215932
 31
0.0
  0
LINE
  5
113
330
1F
100
AcDbEntity
  8
1
  6
SLD-Dashed
370
    18
100
AcDbLine
 10
13.03
 20
-44.5510215932
 30
0.0
 11
13.03
 21
-44.5790106634
 31
0.0
  0
LINE
  5
114
330
1F
100
AcDbEntity
  8
SK3
  6
SLD-Dashed
370
    18
100
AcDbLine
 10
19.05
 20
-46.6976348437
 30
0.0
 11
19.05
 21
-35.475
 31
0.0
  0
LINE
  5
115
330
1F
100
AcDbEntity
  8
SK3
  6
SLD-Dashed
370
    18
100
AcDbLine
 10
3.2
 20
-35.475
 30
0.0
 11
3.2
 21
-46.6976348437
 31
0.0
  0
LINE
  5
116
330
1F
100
AcDbEntity
  8
SK3
  6
SLD-Dashed
370
    18
100
AcDbLine
 10
19.05
 20
-35.1
 30
0.0
 11
3.2
 21
-35.1
 31
0.0
  0
LINE
  5
117
330
1F
100
AcDbEntity
  8
SK3
  6
SLD-Dashed
370
    18
100
AcDbLine
 10
3.2
 20
-35.475
 30
0.0
 11
19.05
 21
-35.475
 31
0.0
  0
LINE
  5
118
330
1F
100
AcDbEntity
  8
SK3
  6
SLD-Dashed
370
    18
100
AcDbLine
 10
3.7
 20
37.5
 30
0.0
 11
18.55
 21
37.5
 31
0.0
  0
LINE
  5
119
330
1F
100
AcDbEntity
  8
SK3
  6
SLD-Dashed
370
    18
100
AcDbLine
 10
18.55
 20
37.875
 30
0.0
 11
3.7
 21
37.875
 31
0.0
  0
LINE
  5
11A
330
1F
100
AcDbEntity
  8
SK3
  6
SLD-Dashed
370
    18
100
AcDbLine
 10
47.6
 20
9.3660704161
 30
0.0
 11
47.6
 21
-12.75
 31
0.0
  0
LINE
  5
11B
330
1F
100
AcDbEntity
  8
SK3
  6
SLD-Dashed
370
    18
100
AcDbLine
 10
42.6
 20
10.8154183941
 30
0.0
 11
42.6
 21
-12.75
 31
0.0
  0
LINE
  5
11C
330
1F
100
AcDbEntity
  8
SK3
  6
SLD-Dashed
370
    18
100
AcDbLine
 10
47.6
 20
9.0227919759
 30
0.0
 11
47.6
 21
-12.4789945055
 31
0.0
  0
LINE
  5
11D
330
1F
100
AcDbEntity
  8
SK3
  6
SLD-Dashed
370
    18
100
AcDbLine
 10
42.6
 20
8.8260087973
 30
0.0
 11
42.6
 21
-11.1125
 31
0.0
  0
LINE
  5
11E
330
1F
100
AcDbEntity
  8
SK3
  6
SLD-Dashed
370
    18
100
AcDbLine
 10
47.52939431
 20
23.3
 30
0.0
 11
37.9
 21
23.3
 31
0.0
  0
LINE
  5
11F
330
1F
100
AcDbEntity
  8
SK3
  6
SLD-Dashed
370
    18
100
AcDbLine
 10
48.52060569
 20
23.3
 30
0.0
 11
58.15
 21
23.3
 31
0.0
  0
LINE
  5
120
330
1F
100
AcDbEntity
  8
SK3
  6
SLD-Dashed
370
    18
100
AcDbLine
 10
73.52060569
 20
23.3
 30
0.0
 11
83.15
 21
23.3
 31
0.0
  0
LINE
  5
121
330
1F
100
AcDbEntity
  8
SK3
  6
SLD-Dashed
370
    18
100
AcDbLine
 10
72.52939431
 20
23.3
 30
0.0
 11
62.9
 21
23.3
 31
0.0
  0
LINE
  5
122
330
1F
100
AcDbEntity
  8
SK3
  6
SLD-Dashed
370
    18
100
AcDbLine
 10
81.6864
 20
23.3
 30
0.0
 11
64.3846987351
 21
23.3
 31
0.0
  0
LINE
  5
123
330
1F
100
AcDbEntity
  8
SK3
  6
SLD-Dashed
370
    18
100
AcDbLine
 10
39.3636
 20
23.3
 30
0.0
 11
56.6653012649
 21
23.3
 31
0.0
  0
LINE
  5
124
330
1F
100
AcDbEntity
  8
SK3
  6
SLD-Dashed
370
    18
100
AcDbLine
 10
47.6
 20
9.3660704161
 30
0.0
 11
47.6
 21
9.0227919759
 31
0.0
  0
LINE
  5
125
330
1F
100
AcDbEntity
  8
SK3
  6
SLD-Dashed
370
    18
100
AcDbLine
 10
42.6
 20
10.8154183941
 30
0.0
 11
42.6
 21
8.8260087973
 31
0.0
  0
LINE
  5
126
330
1F
100
AcDbEntity
  8
SK3
  6
SLD-Dashed
370
    18
100
AcDbLine
 10
16.1
 20
33.1
 30
0.0
 11
6.1
 21
33.1
 31
0.0
  0
LINE
  5
127
330
1F
100
AcDbEntity
  8
SK3
  6
SLD-Dashed
370
    18
100
AcDbLine
 10
6.1
 20
37.5
 30
0.0
 11
16.1
 21
37.5
 31
0.0
  0
LINE
  5
128
330
1F
100
AcDbEntity
  8
SK3
  6
SLD-Dashed
370
    18
100
AcDbLine
 10
6.4000002988
 20
32.8
 30
0.0
 11
15.8
 21
32.8
 31
0.0
  0
LINE
  5
129
330
1F
100
AcDbEntity
  8
1
  6
SLD-Dashed
370
    18
100
AcDbLine
 10
12.28
 20
43.7694359685
 30
0.0
 11
9.95
 21
43.7694359685
 31
0.0
  0
LINE
  5
12A
330
1F
100
AcDbEntity
  8
1
  6
SLD-Dashed
370
    18
100
AcDbLine
 10
12.28
 20
-43.7694359685
 30
0.0
 11
9.95
 21
-43.7694359685
 31
0.0
  0
LINE
  5
12B
330
1F
100
AcDbEntity
  8
1
  6
SLD-Dashed
370
    18
100
AcDbLine
 10
18.3
 20
-47.4754841997
 30
0.0
 11
14.6397233934
 21
-47.4754841997
 31
0.0
  0
LINE
  5
12C
330
1F
100
AcDbEntity
  8
1
  6
SLD-Dashed
370
    18
100
AcDbLine
 10
7.5902766066
 20
-47.4754841997
 30
0.0
 11
3.95
 21
-47.4754841997
 31
0.0
  0
LINE
  5
12D
330
1F
100
AcDbEntity
  8
SK3
  6
SLD-Dashed
370
    18
100
AcDbLine
 10
3.5547332273
 20
13.8826166832
 30
0.0
 11
3.4963041025
 21
13.2364348701
 31
0.0
  0
LINE
  5
12E
330
1F
100
AcDbEntity
  8
SK3
  6
SLD-Dashed
370
    18
100
AcDbLine
 10
3.4963041025
 20
13.2364348701
 30
0.0
 11
3.5497418221
 21
12.6381774061
 31
0.0
  0
LINE
  5
12F
330
1F
100
AcDbEntity
  8
SK3
  6
SLD-Dashed
370
    18
100
AcDbLine
 10
3.5497418221
 20
12.6381774061
 30
0.0
 11
3.7110831549
 21
12.1322143103
 31
0.0
  0
LINE
  5
130
330
1F
100
AcDbEntity
  8
SK3
  6
SLD-Dashed
370
    18
100
AcDbLine
 10
3.7110831549
 20
12.1322143103
 30
0.0
 11
3.9683621525
 21
11.7560705509
 31
0.0
  0
LINE
  5
131
330
1F
100
AcDbEntity
  8
SK3
  6
SLD-Dashed
370
    18
100
AcDbLine
 10
3.9683621525
 20
11.7560705509
 30
0.0
 11
4.3024976085
 21
11.5376429899
 31
0.0
  0
LINE
  5
132
330
1F
100
AcDbEntity
  8
SK3
  6
SLD-Dashed
370
    18
100
AcDbLine
 10
4.3024976085
 20
11.5376429899
 30
0.0
 11
4.6887082247
 21
11.4931314001
 31
0.0
  0
LINE
  5
133
330
1F
100
AcDbEntity
  8
SK3
  6
SLD-Dashed
370
    18
100
AcDbLine
 10
4.6887082247
 20
11.4931314001
 30
0.0
 11
5.0983505265
 21
11.6258370026
 31
0.0
  0
LINE
  5
134
330
1F
100
AcDbEntity
  8
SK3
  6
SLD-Dashed
370
    18
100
AcDbLine
 10
5.0983505265
 20
11.6258370026
 30
0.0
 11
5.5010432183
 21
11.92591763
 31
0.0
  0
LINE
  5
135
330
1F
100
AcDbEntity
  8
SK3
  6
SLD-Dashed
370
    18
100
AcDbLine
 10
5.5010432183
 20
11.92591763
 30
0.0
 11
5.8669204255
 21
12.3711176748
 31
0.0
  0
LINE
  5
136
330
1F
100
AcDbEntity
  8
SK3
  6
SLD-Dashed
370
    18
100
AcDbLine
 10
5.8669204255
 20
12.3711176748
 30
0.0
 11
6.1688467093
 21
12.9284186865
 31
0.0
  0
LINE
  5
137
330
1F
100
AcDbEntity
  8
SK3
  6
SLD-Dashed
370
    18
100
AcDbLine
 10
6.1688467093
 20
12.9284186865
 30
0.0
 11
6.3844295785
 21
13.5564881983
 31
0.0
  0
LINE
  5
138
330
1F
100
AcDbEntity
  8
SK3
  6
SLD-Dashed
370
    18
100
AcDbLine
 10
6.3844295785
 20
13.5564881983
 30
0.0
 11
6.4976802379
 21
14.208745168
 31
0.0
  0
LINE
  5
139
330
1F
100
AcDbEntity
  8
SK3
  6
SLD-Dashed
370
    18
100
AcDbLine
 10
6.4976802379
 20
14.208745168
 30
0.0
 11
6.5001994042
 21
14.8368146799
 31
0.0
  0
LINE
  5
13A
330
1F
100
AcDbEntity
  8
SK3
  6
SLD-Dashed
370
    18
100
AcDbLine
 10
6.5001994042
 20
14.8368146799
 30
0.0
 11
6.3918002423
 21
15.3941156915
 31
0.0
  0
LINE
  5
13B
330
1F
100
AcDbEntity
  8
SK3
  6
SLD-Dashed
370
    18
100
AcDbLine
 10
6.3918002423
 20
15.3941156915
 30
0.0
 11
6.1805222222
 21
15.8393157363
 31
0.0
  0
LINE
  5
13C
330
1F
100
AcDbEntity
  8
SK3
  6
SLD-Dashed
370
    18
100
AcDbLine
 10
6.1805222222
 20
15.8393157363
 30
0.0
 11
5.8820348681
 21
16.1393963637
 31
0.0
  0
LINE
  5
13D
330
1F
100
AcDbEntity
  8
SK3
  6
SLD-Dashed
370
    18
100
AcDbLine
 10
5.8820348681
 20
16.1393963637
 30
0.0
 11
5.5184756216
 21
16.2721019662
 31
0.0
  0
LINE
  5
13E
330
1F
100
AcDbEntity
  8
SK3
  6
SLD-Dashed
370
    18
100
AcDbLine
 10
5.5184756216
 20
16.2721019662
 30
0.0
 11
5.1168080088
 21
16.2275903765
 31
0.0
  0
LINE
  5
13F
330
1F
100
AcDbEntity
  8
SK3
  6
SLD-Dashed
370
    18
100
AcDbLine
 10
5.1168080088
 20
16.2275903765
 30
0.0
 11
4.706821879
 21
16.0091628154
 31
0.0
  0
LINE
  5
140
330
1F
100
AcDbEntity
  8
SK3
  6
SLD-Dashed
370
    18
100
AcDbLine
 10
4.706821879
 20
16.0091628154
 30
0.0
 11
4.318924028
 21
15.6330190561
 31
0.0
  0
LINE
  5
141
330
1F
100
AcDbEntity
  8
SK3
  6
SLD-Dashed
370
    18
100
AcDbLine
 10
4.318924028
 20
15.6330190561
 30
0.0
 11
3.9818830648
 21
15.1270559603
 31
0.0
  0
LINE
  5
142
330
1F
100
AcDbEntity
  8
SK3
  6
SLD-Dashed
370
    18
100
AcDbLine
 10
3.9818830648
 20
15.1270559603
 30
0.0
 11
3.7206957757
 21
14.5287984962
 31
0.0
  0
LINE
  5
143
330
1F
100
AcDbEntity
  8
SK3
  6
SLD-Dashed
370
    18
100
AcDbLine
 10
3.7206957757
 20
14.5287984962
 30
0.0
 11
3.5547332273
 21
13.8826166832
 31
0.0
  0
LINE
  5
144
330
1F
100
AcDbEntity
  8
SK3
  6
SLD-Dashed
370
    18
100
AcDbLine
 10
14.2794578574
 20
11.0168048658
 30
0.0
 11
14.4454204058
 21
11.6629866788
 31
0.0
  0
LINE
  5
145
330
1F
100
AcDbEntity
  8
SK3
  6
SLD-Dashed
370
    18
100
AcDbLine
 10
14.4454204058
 20
11.6629866788
 30
0.0
 11
14.7066076948
 21
12.2612441429
 31
0.0
  0
LINE
  5
146
330
1F
100
AcDbEntity
  8
SK3
  6
SLD-Dashed
370
    18
100
AcDbLine
 10
14.7066076948
 20
12.2612441429
 30
0.0
 11
15.043648658
 21
12.7672072387
 31
0.0
  0
LINE
  5
147
330
1F
100
AcDbEntity
  8
SK3
  6
SLD-Dashed
370
    18
100
AcDbLine
 10
15.043648658
 20
12.7672072387
 30
0.0
 11
15.431546509
 21
13.1433509981
 31
0.0
  0
LINE
  5
148
330
1F
100
AcDbEntity
  8
SK3
  6
SLD-Dashed
370
    18
100
AcDbLine
 10
15.431546509
 20
13.1433509981
 30
0.0
 11
15.8415326388
 21
13.3617785591
 31
0.0
  0
LINE
  5
149
330
1F
100
AcDbEntity
  8
SK3
  6
SLD-Dashed
370
    18
100
AcDbLine
 10
15.8415326388
 20
13.3617785591
 30
0.0
 11
16.2432002516
 21
13.4062901488
 31
0.0
  0
LINE
  5
14A
330
1F
100
AcDbEntity
  8
SK3
  6
SLD-Dashed
370
    18
100
AcDbLine
 10
16.2432002516
 20
13.4062901488
 30
0.0
 11
16.6067594981
 21
13.2735845463
 31
0.0
  0
LINE
  5
14B
330
1F
100
AcDbEntity
  8
SK3
  6
SLD-Dashed
370
    18
100
AcDbLine
 10
16.6067594981
 20
13.2735845463
 30
0.0
 11
16.9052468522
 21
12.9735039189
 31
0.0
  0
LINE
  5
14C
330
1F
100
AcDbEntity
  8
SK3
  6
SLD-Dashed
370
    18
100
AcDbLine
 10
16.9052468522
 20
12.9735039189
 30
0.0
 11
17.1165248723
 21
12.5283038741
 31
0.0
  0
LINE
  5
14D
330
1F
100
AcDbEntity
  8
SK3
  6
SLD-Dashed
370
    18
100
AcDbLine
 10
17.1165248723
 20
12.5283038741
 30
0.0
 11
17.2249240342
 21
11.9710028625
 31
0.0
  0
LINE
  5
14E
330
1F
100
AcDbEntity
  8
SK3
  6
SLD-Dashed
370
    18
100
AcDbLine
 10
17.2249240342
 20
11.9710028625
 30
0.0
 11
17.2224048679
 21
11.3429333506
 31
0.0
  0
LINE
  5
14F
330
1F
100
AcDbEntity
  8
SK3
  6
SLD-Dashed
370
    18
100
AcDbLine
 10
17.2224048679
 20
11.3429333506
 30
0.0
 11
17.1091542086
 21
10.690676381
 31
0.0
  0
LINE
  5
150
330
1F
100
AcDbEntity
  8
SK3
  6
SLD-Dashed
370
    18
100
AcDbLine
 10
17.1091542086
 20
10.690676381
 30
0.0
 11
16.8935713394
 21
10.0626068691
 31
0.0
  0
LINE
  5
151
330
1F
100
AcDbEntity
  8
SK3
  6
SLD-Dashed
370
    18
100
AcDbLine
 10
16.8935713394
 20
10.0626068691
 30
0.0
 11
16.5916450556
 21
9.5053058575
 31
0.0
  0
LINE
  5
152
330
1F
100
AcDbEntity
  8
SK3
  6
SLD-Dashed
370
    18
100
AcDbLine
 10
16.5916450556
 20
9.5053058575
 30
0.0
 11
16.2257678484
 21
9.0601058126
 31
0.0
  0
LINE
  5
153
330
1F
100
AcDbEntity
  8
SK3
  6
SLD-Dashed
370
    18
100
AcDbLine
 10
16.2257678484
 20
9.0601058126
 30
0.0
 11
15.8230751565
 21
8.7600251853
 31
0.0
  0
LINE
  5
154
330
1F
100
AcDbEntity
  8
SK3
  6
SLD-Dashed
370
    18
100
AcDbLine
 10
15.8230751565
 20
8.7600251853
 30
0.0
 11
15.4134328547
 21
8.6273195827
 31
0.0
  0
LINE
  5
155
330
1F
100
AcDbEntity
  8
SK3
  6
SLD-Dashed
370
    18
100
AcDbLine
 10
15.4134328547
 20
8.6273195827
 30
0.0
 11
15.0272222385
 21
8.6718311725
 31
0.0
  0
LINE
  5
156
330
1F
100
AcDbEntity
  8
SK3
  6
SLD-Dashed
370
    18
100
AcDbLine
 10
15.0272222385
 20
8.6718311725
 30
0.0
 11
14.6930867825
 21
8.8902587335
 31
0.0
  0
LINE
  5
157
330
1F
100
AcDbEntity
  8
SK3
  6
SLD-Dashed
370
    18
100
AcDbLine
 10
14.6930867825
 20
8.8902587335
 30
0.0
 11
14.435807785
 21
9.2664024929
 31
0.0
  0
LINE
  5
158
330
1F
100
AcDbEntity
  8
SK3
  6
SLD-Dashed
370
    18
100
AcDbLine
 10
14.435807785
 20
9.2664024929
 30
0.0
 11
14.2744664521
 21
9.7723655887
 31
0.0
  0
LINE
  5
159
330
1F
100
AcDbEntity
  8
SK3
  6
SLD-Dashed
370
    18
100
AcDbLine
 10
14.2744664521
 20
9.7723655887
 30
0.0
 11
14.2210287325
 21
10.3706230527
 31
0.0
  0
LINE
  5
15A
330
1F
100
AcDbEntity
  8
SK3
  6
SLD-Dashed
370
    18
100
AcDbLine
 10
14.2210287325
 20
10.3706230527
 30
0.0
 11
14.2794578574
 21
11.0168048658
 31
0.0
  0
LINE
  5
15B
330
1F
100
AcDbEntity
  8
SK3
  6
SLD-Dashed
370
    18
100
AcDbLine
 10
3.3949403416
 20
13.9015950424
 30
0.0
 11
3.5615900545
 21
14.5594368595
 31
0.0
  0
LINE
  5
15C
330
1F
100
AcDbEntity
  8
SK3
  6
SLD-Dashed
370
    18
100
AcDbLine
 10
3.5615900545
 20
14.5594368595
 30
0.0
 11
3.8217415901
 21
15.1724478438
 31
0.0
  0
LINE
  5
15D
330
1F
100
AcDbEntity
  8
SK3
  6
SLD-Dashed
370
    18
100
AcDbLine
 10
3.8217415901
 20
15.1724478438
 30
0.0
 11
4.1576660511
 21
15.6988523099
 31
0.0
  0
LINE
  5
15E
330
1F
100
AcDbEntity
  8
SK3
  6
SLD-Dashed
370
    18
100
AcDbLine
 10
4.1576660511
 20
15.6988523099
 30
0.0
 11
4.5464707407
 21
16.1027766634
 31
0.0
  0
LINE
  5
15F
330
1F
100
AcDbEntity
  8
SK3
  6
SLD-Dashed
370
    18
100
AcDbLine
 10
4.5464707407
 20
16.1027766634
 30
0.0
 11
4.9616592619
 21
16.356694127
 31
0.0
  0
LINE
  5
160
330
1F
100
AcDbEntity
  8
SK3
  6
SLD-Dashed
370
    18
100
AcDbLine
 10
4.9616592619
 20
16.356694127
 30
0.0
 11
5.3749372029
 21
16.4433006452
 31
0.0
  0
LINE
  5
161
330
1F
100
AcDbEntity
  8
SK3
  6
SLD-Dashed
370
    18
100
AcDbLine
 10
5.3749372029
 20
16.4433006452
 30
0.0
 11
5.7581403551
 21
16.356694127
 31
0.0
  0
LINE
  5
162
330
1F
100
AcDbEntity
  8
SK3
  6
SLD-Dashed
370
    18
100
AcDbLine
 10
5.7581403551
 20
16.356694127
 30
0.0
 11
6.0851540571
 21
16.1027766634
 31
0.0
  0
LINE
  5
163
330
1F
100
AcDbEntity
  8
SK3
  6
SLD-Dashed
370
    18
100
AcDbLine
 10
6.0851540571
 20
16.1027766634
 30
0.0
 11
6.3336928653
 21
15.6988523099
 31
0.0
  0
LINE
  5
164
330
1F
100
AcDbEntity
  8
SK3
  6
SLD-Dashed
370
    18
100
AcDbLine
 10
6.3336928653
 20
15.6988523099
 30
0.0
 11
6.4868192707
 21
15.1724478438
 31
0.0
  0
LINE
  5
165
330
1F
100
AcDbEntity
  8
SK3
  6
SLD-Dashed
370
    18
100
AcDbLine
 10
6.4868192707
 20
15.1724478438
 30
0.0
 11
6.5340979619
 21
14.5594368595
 31
0.0
  0
LINE
  5
166
330
1F
100
AcDbEntity
  8
SK3
  6
SLD-Dashed
370
    18
100
AcDbLine
 10
6.5340979619
 20
14.5594368595
 30
0.0
 11
6.4723069743
 21
13.9015950424
 31
0.0
  0
LINE
  5
167
330
1F
100
AcDbEntity
  8
SK3
  6
SLD-Dashed
370
    18
100
AcDbLine
 10
6.4723069743
 20
13.9015950424
 30
0.0
 11
6.3056572614
 21
13.2437532254
 31
0.0
  0
LINE
  5
168
330
1F
100
AcDbEntity
  8
SK3
  6
SLD-Dashed
370
    18
100
AcDbLine
 10
6.3056572614
 20
13.2437532254
 30
0.0
 11
6.0455057258
 21
12.630742241
 31
0.0
  0
LINE
  5
169
330
1F
100
AcDbEntity
  8
SK3
  6
SLD-Dashed
370
    18
100
AcDbLine
 10
6.0455057258
 20
12.630742241
 30
0.0
 11
5.7095812647
 21
12.1043377749
 31
0.0
  0
LINE
  5
16A
330
1F
100
AcDbEntity
  8
SK3
  6
SLD-Dashed
370
    18
100
AcDbLine
 10
5.7095812647
 20
12.1043377749
 30
0.0
 11
5.3207765751
 21
11.7004134215
 31
0.0
  0
LINE
  5
16B
330
1F
100
AcDbEntity
  8
SK3
  6
SLD-Dashed
370
    18
100
AcDbLine
 10
5.3207765751
 20
11.7004134215
 30
0.0
 11
4.905588054
 21
11.4464959579
 31
0.0
  0
LINE
  5
16C
330
1F
100
AcDbEntity
  8
SK3
  6
SLD-Dashed
370
    18
100
AcDbLine
 10
4.905588054
 20
11.4464959579
 30
0.0
 11
4.492310113
 21
11.3598894396
 31
0.0
  0
LINE
  5
16D
330
1F
100
AcDbEntity
  8
SK3
  6
SLD-Dashed
370
    18
100
AcDbLine
 10
4.492310113
 20
11.3598894396
 30
0.0
 11
4.1091069607
 21
11.4464959579
 31
0.0
  0
LINE
  5
16E
330
1F
100
AcDbEntity
  8
SK3
  6
SLD-Dashed
370
    18
100
AcDbLine
 10
4.1091069607
 20
11.4464959579
 30
0.0
 11
3.7820932588
 21
11.7004134215
 31
0.0
  0
LINE
  5
16F
330
1F
100
AcDbEntity
  8
SK3
  6
SLD-Dashed
370
    18
100
AcDbLine
 10
3.7820932588
 20
11.7004134215
 30
0.0
 11
3.5335544506
 21
12.1043377749
 31
0.0
  0
LINE
  5
170
330
1F
100
AcDbEntity
  8
SK3
  6
SLD-Dashed
370
    18
100
AcDbLine
 10
3.5335544506
 20
12.1043377749
 30
0.0
 11
3.3804280451
 21
12.630742241
 31
0.0
  0
LINE
  5
171
330
1F
100
AcDbEntity
  8
SK3
  6
SLD-Dashed
370
    18
100
AcDbLine
 10
3.3804280451
 20
12.630742241
 30
0.0
 11
3.3331493539
 21
13.2437532254
 31
0.0
  0
LINE
  5
172
330
1F
100
AcDbEntity
  8
SK3
  6
SLD-Dashed
370
    18
100
AcDbLine
 10
3.3331493539
 20
13.2437532254
 30
0.0
 11
3.3949403416
 21
13.9015950424
 31
0.0
  0
LINE
  5
173
330
1F
100
AcDbEntity
  8
SK3
  6
SLD-Dashed
370
    18
100
AcDbLine
 10
5.6371324082
 20
-16.2495686026
 30
0.0
 11
16.3618570383
 21
-13.3837567853
 31
0.0
  0
LINE
  5
174
330
1F
100
AcDbEntity
  8
SK3
  6
SLD-Dashed
370
    18
100
AcDbLine
 10
15.0968849264
 20
-8.6498529463
 30
0.0
 11
4.3721602964
 21
-11.5156647637
 31
0.0
  0
LINE
  5
175
330
1F
100
AcDbEntity
  8
SK3
  6
SLD-Dashed
370
    18
100
AcDbLine
 10
-101.6
 20
-14.285
 30
0.0
 11
-99.7034043657
 21
-13.19
 31
0.0
  0
LINE
  5
176
330
1F
100
AcDbEntity
  8
SK3
  6
SLD-Dashed
370
    18
100
AcDbLine
 10
-99.7034043657
 20
13.19
 30
0.0
 11
-101.6
 21
14.285
 31
0.0
  0
LINE
  5
177
330
1F
100
AcDbEntity
  8
SK3
  6
SLD-Dashed
370
    18
100
AcDbLine
 10
-99.7034043657
 20
-13.19
 30
0.0
 11
-95.25
 21
-13.19
 31
0.0
  0
LINE
  5
178
330
1F
100
AcDbEntity
  8
SK3
  6
SLD-Dashed
370
    18
100
AcDbLine
 10
-95.25
 20
13.19
 30
0.0
 11
-99.7034043657
 21
13.19
 31
0.0
  0
LINE
  5
179
330
1F
100
AcDbEntity
  8
SK3
  6
SLD-Dashed
370
    18
100
AcDbLine
 10
-95.25
 20
-13.19
 30
0.0
 11
-94.0505548158
 21
-11.1125
 31
0.0
  0
LINE
  5
17A
330
1F
100
AcDbEntity
  8
SK3
  6
SLD-Dashed
370
    18
100
AcDbLine
 10
-94.0505548158
 20
11.1125
 30
0.0
 11
-95.25
 21
13.19
 31
0.0
  0
LINE
  5
17B
330
1F
100
AcDbEntity
  8
SK3
  6
SLD-Dashed
370
    18
100
AcDbLine
 10
101.6
 20
13.0773502692
 30
0.0
 11
100.6
 21
12.5
 31
0.0
  0
LINE
  5
17C
330
1F
100
AcDbEntity
  8
SK3
  6
SLD-Dashed
370
    18
100
AcDbLine
 10
100.6
 20
-12.5
 30
0.0
 11
101.6
 21
-13.0773502692
 31
0.0
  0
LINE
  5
17D
330
1F
100
AcDbEntity
  8
SK3
  6
SLD-Dashed
370
    18
100
AcDbLine
 10
42.6
 20
-12.75
 30
0.0
 11
47.6
 21
-12.75
 31
0.0
  0
LINE
  5
17E
330
1F
100
AcDbEntity
  8
SK3
  6
SLD-Dashed
370
    18
100
AcDbLine
 10
64.3636
 20
12.5
 30
0.0
 11
56.6640824076
 21
12.5
 31
0.0
  0
LINE
  5
17F
330
1F
100
AcDbEntity
  8
SK3
  6
SLD-Dashed
370
    18
100
AcDbLine
 10
100.6
 20
12.5
 30
0.0
 11
81.6629796766
 21
12.5
 31
0.0
  0
LINE
  5
180
330
1F
100
AcDbEntity
  8
SK3
  6
SLD-Dashed
370
    18
100
AcDbLine
 10
47.6
 20
-12.5
 30
0.0
 11
100.6
 21
-12.5
 31
0.0
  0
LINE
  5
181
330
1F
100
AcDbEntity
  8
SK3
  6
SLD-Dashed
370
    18
100
AcDbLine
 10
-94.0505548158
 20
-11.1125
 30
0.0
 11
42.6
 21
-11.1125
 31
0.0
  0
LINE
  5
182
330
1F
100
AcDbEntity
  8
SK3
  6
SLD-Dashed
370
    18
100
AcDbLine
 10
39.3866450002
 20
11.1125
 30
0.0
 11
-94.0505548158
 21
11.1125
 31
0.0
  0
LINE
  5
183
330
1F
100
AcDbEntity
  8
SK3
  6
SLD-Dashed
370
    18
100
AcDbLine
 10
37.9
 20
25.4
 30
0.0
 11
37.9
 21
23.3
 31
0.0
  0
LINE
  5
184
330
1F
100
AcDbEntity
  8
SK3
  6
SLD-Dashed
370
    18
100
AcDbLine
 10
58.15
 20
23.3
 30
0.0
 11
58.15
 21
25.4
 31
0.0
  0
LINE
  5
185
330
1F
100
AcDbEntity
  8
SK3
  6
SLD-Dashed
370
    18
100
AcDbLine
 10
83.15
 20
23.3
 30
0.0
 11
83.15
 21
25.4
 31
0.0
  0
LINE
  5
186
330
1F
100
AcDbEntity
  8
SK3
  6
SLD-Dashed
370
    18
100
AcDbLine
 10
62.9
 20
25.4
 30
0.0
 11
62.9
 21
23.3
 31
0.0
  0
LINE
  5
187
330
1F
100
AcDbEntity
  8
SK3
  6
SLD-Dashed
370
    18
100
AcDbLine
 10
64.3636
 20
23.3
 30
0.0
 11
64.3636
 21
12.5
 31
0.0
  0
LINE
  5
188
330
1F
100
AcDbEntity
  8
SK3
  6
SLD-Dashed
370
    18
100
AcDbLine
 10
81.6864
 20
12.4837846762
 30
0.0
 11
81.6864
 21
23.3
 31
0.0
  0
LINE
  5
189
330
1F
100
AcDbEntity
  8
SK3
  6
SLD-Dashed
370
    18
100
AcDbLine
 10
39.3636
 20
23.3
 30
0.0
 11
39.3636
 21
11.0945601482
 31
0.0
  0
LINE
  5
18A
330
1F
100
AcDbEntity
  8
SK3
  6
SLD-Dashed
370
    18
100
AcDbLine
 10
56.6864
 20
12.4845510768
 30
0.0
 11
56.6864
 21
23.3
 31
0.0
  0
LINE
  5
18B
330
1F
100
AcDbEntity
  8
SK3
  6
SLD-Dashed
370
    18
100
AcDbLine
 10
6.1
 20
37.5
 30
0.0
 11
6.1
 21
33.1
 31
0.0
  0
LINE
  5
18C
330
1F
100
AcDbEntity
  8
SK3
  6
SLD-Dashed
370
    18
100
AcDbLine
 10
16.1
 20
33.1
 30
0.0
 11
16.1
 21
37.5
 31
0.0
  0
LINE
  5
18D
330
1F
100
AcDbEntity
  8
SK3
  6
SLD-Dashed
370
    18
100
AcDbLine
 10
4.3721602964
 20
11.5156647637
 30
0.0
 11
15.0968849264
 21
8.6498529463
 31
0.0
  0
LINE
  5
18E
330
1F
100
AcDbEntity
  8
SK3
  6
SLD-Dashed
370
    18
100
AcDbLine
 10
16.3618570383
 20
13.3837567853
 30
0.0
 11
5.6371324082
 21
16.2495686026
 31
0.0
  0
LINE
  5
18F
330
1F
100
AcDbEntity
  8
SK3
  6
SLD-Solid
370
    18
100
AcDbLine
 10
-55.5999986827
 20
12.6999998465
 30
0.0
 11
-94.967097044
 21
12.6999998465
 31
0.0
  0
LINE
  5
190
330
1F
100
AcDbEntity
  8
SK3
  6
SLD-Solid
370
    18
100
AcDbLine
 10
-94.967097044
 20
-12.6999998465
 30
0.0
 11
-55.5999986827
 21
-12.6999998465
 31
0.0
  0
LINE
  5
191
330
1F
100
AcDbEntity
  8
SK3
  6
SLD-Solid
370
    18
100
AcDbLine
 10
-55.5999986827
 20
0.0
 30
0.0
 11
-55.5999986827
 21
-1.7674983246
 31
0.0
  0
LINE
  5
192
330
1F
100
AcDbEntity
  8
SK3
  6
SLD-Solid
370
    18
100
AcDbLine
 10
-55.5999986827
 20
-1.7674983246
 30
0.0
 11
-55.5999986827
 21
-3.5005945247
 31
0.0
  0
LINE
  5
193
330
1F
100
AcDbEntity
  8
SK3
  6
SLD-Solid
370
    18
100
AcDbLine
 10
-55.5999986827
 20
-3.5005945247
 30
0.0
 11
-55.5999986827
 21
-5.1655555144
 31
0.0
  0
LINE
  5
194
330
1F
100
AcDbEntity
  8
SK3
  6
SLD-Solid
370
    18
100
AcDbLine
 10
-55.5999986827
 20
-5.1655555144
 30
0.0
 11
-55.5999986827
 21
-6.7299748771
 31
0.0
  0
LINE
  5
195
330
1F
100
AcDbEntity
  8
SK3
  6
SLD-Solid
370
    18
100
AcDbLine
 10
-55.5999986827
 20
-6.7299748771
 30
0.0
 11
-55.5999986827
 21
-8.1634027883
 31
0.0
  0
LINE
  5
196
330
1F
100
AcDbEntity
  8
SK3
  6
SLD-Solid
370
    18
100
AcDbLine
 10
-55.5999986827
 20
-8.1634027883
 30
0.0
 11
-55.5999986827
 21
-9.4379391521
 31
0.0
  0
LINE
  5
197
330
1F
100
AcDbEntity
  8
SK3
  6
SLD-Solid
370
    18
100
AcDbLine
 10
-55.5999986827
 20
-9.4379391521
 30
0.0
 11
-55.5999986827
 21
-10.5287767947
 31
0.0
  0
LINE
  5
198
330
1F
100
AcDbEntity
  8
SK3
  6
SLD-Solid
370
    18
100
AcDbLine
 10
-55.5999986827
 20
-10.5287767947
 30
0.0
 11
-55.5999986827
 21
-11.4146843553
 31
0.0
  0
LINE
  5
199
330
1F
100
AcDbEntity
  8
SK3
  6
SLD-Solid
370
    18
100
AcDbLine
 10
-55.5999986827
 20
-11.4146843553
 30
0.0
 11
-55.5999986827
 21
-12.0784174651
 31
0.0
  0
LINE
  5
19A
330
1F
100
AcDbEntity
  8
SK3
  6
SLD-Solid
370
    18
100
AcDbLine
 10
-55.5999986827
 20
-12.0784174651
 30
0.0
 11
-55.5999986827
 21
-12.5070586801
 31
0.0
  0
LINE
  5
19B
330
1F
100
AcDbEntity
  8
SK3
  6
SLD-Solid
370
    18
100
AcDbLine
 10
-55.5999986827
 20
-12.5070586801
 30
0.0
 11
-55.5999986827
 21
-12.6922633499
 31
0.0
  0
LINE
  5
19C
330
1F
100
AcDbEntity
  8
SK3
  6
SLD-Solid
370
    18
100
AcDbLine
 10
-55.5999986827
 20
-12.6922633499
 30
0.0
 11
-55.5999986827
 21
-12.6999998465
 31
0.0
  0
LINE
  5
19D
330
1F
100
AcDbEntity
  8
SK3
  6
SLD-Solid
370
    18
100
AcDbLine
 10
-55.5999986827
 20
12.6999998465
 30
0.0
 11
-55.5999986827
 21
12.6922633499
 31
0.0
  0
LINE
  5
19E
330
1F
100
AcDbEntity
  8
SK3
  6
SLD-Solid
370
    18
100
AcDbLine
 10
-55.5999986827
 20
12.6922633499
 30
0.0
 11
-55.5999986827
 21
12.5070586801
 31
0.0
  0
LINE
  5
19F
330
1F
100
AcDbEntity
  8
SK3
  6
SLD-Solid
370
    18
100
AcDbLine
 10
-55.5999986827
 20
12.5070586801
 30
0.0
 11
-55.5999986827
 21
12.0784174651
 31
0.0
  0
LINE
  5
1A0
330
1F
100
AcDbEntity
  8
SK3
  6
SLD-Solid
370
    18
100
AcDbLine
 10
-55.5999986827
 20
12.0784174651
 30
0.0
 11
-55.5999986827
 21
11.4146843553
 31
0.0
  0
LINE
  5
1A1
330
1F
100
AcDbEntity
  8
SK3
  6
SLD-Solid
370
    18
100
AcDbLine
 10
-55.5999986827
 20
11.4146843553
 30
0.0
 11
-55.5999986827
 21
10.5287767947
 31
0.0
  0
LINE
  5
1A2
330
1F
100
AcDbEntity
  8
SK3
  6
SLD-Solid
370
    18
100
AcDbLine
 10
-55.5999986827
 20
10.5287767947
 30
0.0
 11
-55.5999986827
 21
9.4379391521
 31
0.0
  0
LINE
  5
1A3
330
1F
100
AcDbEntity
  8
SK3
  6
SLD-Solid
370
    18
100
AcDbLine
 10
-55.5999986827
 20
9.4379391521
 30
0.0
 11
-55.5999986827
 21
8.1634027883
 31
0.0
  0
LINE
  5
1A4
330
1F
100
AcDbEntity
  8
SK3
  6
SLD-Solid
370
    18
100
AcDbLine
 10
-55.5999986827
 20
8.1634027883
 30
0.0
 11
-55.5999986827
 21
6.7299748771
 31
0.0
  0
LINE
  5
1A5
330
1F
100
AcDbEntity
  8
SK3
  6
SLD-Solid
370
    18
100
AcDbLine
 10
-55.5999986827
 20
6.7299748771
 30
0.0
 11
-55.5999986827
 21
5.1655555144
 31
0.0
  0
LINE
  5
1A6
330
1F
100
AcDbEntity
  8
SK3
  6
SLD-Solid
370
    18
100
AcDbLine
 10
-55.5999986827
 20
5.1655555144
 30
0.0
 11
-55.5999986827
 21
3.5005945247
 31
0.0
  0
LINE
  5
1A7
330
1F
100
AcDbEntity
  8
SK3
  6
SLD-Solid
370
    18
100
AcDbLine
 10
-55.5999986827
 20
3.5005945247
 30
0.0
 11
-55.5999986827
 21
1.7674983246
 31
0.0
  0
LINE
  5
1A8
330
1F
100
AcDbEntity
  8
SK3
  6
SLD-Solid
370
    18
100
AcDbLine
 10
-55.5999986827
 20
1.7674983246
 30
0.0
 11
-55.5999986827
 21
0.0
 31
0.0
  0
LINE
  5
1A9
330
1F
100
AcDbEntity
  8
SK3
  6
SLD-Solid
370
    18
100
AcDbLine
 10
82.5499966741
 20
12.4916657805
 30
0.0
 11
82.5499966741
 21
23.2999995351
 31
0.0
  0
LINE
  5
1AA
330
1F
100
AcDbEntity
  8
SK3
  6
SLD-Solid
370
    18
100
AcDbLine
 10
63.5000020266
 20
23.2999995351
 30
0.0
 11
63.5000020266
 21
12.4916657805
 31
0.0
  0
LINE
  5
1AB
330
1F
100
AcDbEntity
  8
SK3
  6
SLD-Solid
370
    18
100
AcDbLine
 10
82.5392305851
 20
12.4916657805
 30
0.0
 11
82.5476720929
 21
12.4980704859
 31
0.0
  0
LINE
  5
1AC
330
1F
100
AcDbEntity
  8
SK3
  6
SLD-Solid
370
    18
100
AcDbLine
 10
57.5499981642
 20
12.4844526872
 30
0.0
 11
57.5499981642
 21
23.2999995351
 31
0.0
  0
LINE
  5
1AD
330
1F
100
AcDbEntity
  8
SK3
  6
SLD-Solid
370
    18
100
AcDbLine
 10
38.4999997914
 20
23.2999995351
 30
0.0
 11
38.4999997914
 21
11.0919289291
 31
0.0
  0
LINE
  5
1AE
330
1F
100
AcDbEntity
  8
SK3
  6
SLD-Solid
370
    18
100
AcDbLine
 10
57.5297512114
 20
12.4844526872
 30
0.0
 11
57.4914105237
 21
12.4554121867
 31
0.0
  0
LINE
  5
1AF
330
1F
100
AcDbEntity
  8
4
  6
SLD-Center
370
    18
100
AcDbLine
 10
102.7344188197
 20
0.0
 30
0.0
 11
-0.3495075077
 21
0.0
 31
0.0
  0
LINE
  5
1B0
330
1F
100
AcDbEntity
  8
4
  6
SLD-Center
370
    18
100
AcDbLine
 10
48.025
 20
11.8062249507
 30
0.0
 11
48.025
 21
23.3
 31
0.0
  0
LINE
  5
1B1
330
1F
100
AcDbEntity
  8
4
  6
SLD-Center
370
    18
100
AcDbLine
 10
73.025
 20
10.5
 30
0.0
 11
73.025
 21
25.3
 31
0.0
  0
LINE
  5
1B2
330
1F
100
AcDbEntity
  8
SK4
  6
SLD-Center
370
    18
100
AcDbLine
 10
-101.8613478126
 20
0.0
 30
0.0
 11
103.6
 21
0.0
 31
0.0
  0
LINE
  5
1B3
330
1F
100
AcDbEntity
  8
81
370
    18
100
AcDbLine
 10
101.6
 20
0.0
 30
0.0
 11
105.1355339059
 21
3.5355339059
 31
0.0
  0
LINE
  5
1B4
330
1F
100
AcDbEntity
  8
81
370
    18
100
AcDbLine
 10
101.6
 20
0.0
 30
0.0
 11
98.0644660941
 21
-3.5355339059
 31
0.0
  0
LINE
  5
1B5
330
1F
100
AcDbEntity
  8
81
370
    18
100
AcDbLine
 10
101.6
 20
0.0
 30
0.0
 11
98.0644660941
 21
3.5355339059
 31
0.0
  0
LINE
  5
1B6
330
1F
100
AcDbEntity
  8
81
100
AcDbLine
 10
101.6
 20
0.0
 30
0.0
 11
111.6
 21
0.0
 31
0.0
  0
LINE
  5
1B7
330
1F
100
AcDbEntity
  8
81
370
    18
100
AcDbLine
 10
101.6
 20
0.0
 30
0.0
 11
105.1355339059
 21
-3.5355339059
 31
0.0
  0
LINE
  5
1B8
330
1F
100
AcDbEntity
  8
80
370
    18
100
AcDbLine
 10
0.0
 20
0.0
 30
0.0
 11
-3.5355339059
 21
-3.5355339059
 31
0.0
  0
LINE
  5
1B9
330
1F
100
AcDbEntity
  8
80
370
    18
100
AcDbLine
 10
0.0
 20
0.0
 30
0.0
 11
3.5355339059
 21
3.5355339059
 31
0.0
  0
LINE
  5
1BA
330
1F
100
AcDbEntity
  8
80
370
    18
100
AcDbLine
 10
0.0
 20
0.0
 30
0.0
 11
-3.5355339059
 21
3.5355339059
 31
0.0
  0
LINE
  5
1BB
330
1F
100
AcDbEntity
  8
80
370
    18
100
AcDbLine
 10
0.0
 20
0.0
 30
0.0
 11
-10.0
 21
0.0
 31
0.0
  0
LINE
  5
1BC
330
1F
100
AcDbEntity
  8
80
370
    18
100
AcDbLine
 10
0.0
 20
0.0
 30
0.0
 11
3.5355339059
 21
-3.5355339059
 31
0.0
  0
ARC
  5
1BD
330
1F
100
AcDbEntity
  8
1
  6
SLD-Solid
370
    25
100
AcDbCircle
 10
19.812
 20
-35.687
 30
0.0
 40
0.7620000000000005
100
AcDbArc
 50
90.0
 51
129.6580997298
  0
ARC
  5
1BE
330
1F
100
AcDbEntity
  8
1
  6
SLD-Solid
370
    25
100
AcDbCircle
 10
19.812
 20
35.687
 30
0.0
 40
0.7620000000000005
100
AcDbArc
 50
180.0
 51
270.0
  0
ARC
  5
1BF
330
1F
100
AcDbEntity
  8
1
  6
SLD-Solid
370
    25
100
AcDbCircle
 10
2.45
 20
35.425
 30
0.0
 40
0.7500000000000004
100
AcDbArc
 50
245.0
 51
0.0
  0
ARC
  5
1C0
330
1F
100
AcDbEntity
  8
1
  6
SLD-Solid
370
    25
100
AcDbCircle
 10
2.45
 20
-35.425
 30
0.0
 40
0.7500000000000137
100
AcDbArc
 50
25.5336708908
 51
115.0
  0
ARC
  5
1C1
330
1F
100
AcDbEntity
  8
1
  6
SLD-Solid
370
    25
100
AcDbCircle
 10
34.288
 20
-34.163
 30
0.0
 40
0.7620000000000147
100
AcDbArc
 50
270.0
 51
0.0
  0
ARC
  5
1C2
330
1F
100
AcDbEntity
  8
1
  6
SLD-Solid
370
    25
100
AcDbCircle
 10
34.288
 20
34.163
 30
0.0
 40
0.7620000000000147
100
AcDbArc
 50
0.0
 51
90.0
  0
ARC
  5
1C3
330
1F
100
AcDbEntity
  8
1
  6
SLD-Solid
370
    25
100
AcDbCircle
 10
36.574
 20
-26.924
 30
0.0
 40
1.524000000000001
100
AcDbArc
 50
90.0
 51
180.0
  0
ARC
  5
1C4
330
1F
100
AcDbEntity
  8
1
  6
SLD-Solid
370
    25
100
AcDbCircle
 10
36.574
 20
26.924
 30
0.0
 40
1.524000000000001
100
AcDbArc
 50
180.0
 51
270.0
  0
ARC
  5
1C5
330
1F
100
AcDbEntity
  8
SK1
  6
SLD-Solid
370
    25
100
AcDbCircle
 10
-99.5
 20
18.2922326599
 30
0.0
 40
2.100000000000009
100
AcDbArc
 50
98.2972222222
 51
180.0
  0
ARC
  5
1C6
330
1F
100
AcDbEntity
  8
SK1
  6
SLD-Solid
370
    25
100
AcDbCircle
 10
-99.5
 20
-18.2922326599
 30
0.0
 40
2.100000000000009
100
AcDbArc
 50
180.0
 51
261.7027777778
  0
ARC
  5
1C7
330
1F
100
AcDbEntity
  8
1
370
    18
100
AcDbCircle
 10
73.0248540656
 20
48.1355322636
 30
0.0
 40
24.88809147281484
100
AcDbArc
 50
245.9950725776
 51
293.9987054637
  0
ARC
  5
1C8
330
1F
100
AcDbEntity
  8
1
370
    18
100
AcDbCircle
 10
48.0337185826
 20
-55.1996712121
 30
0.0
 40
31.77822145544952
100
AcDbArc
 50
69.6752198162
 51
110.3247801838
  0
CIRCLE
  5
1C9
330
1F
100
AcDbEntity
  8
81
370
    18
100
AcDbCircle
 10
101.6
 20
0.0
 30
0.0
 40
2.499999999999984
  0
CIRCLE
  5
1CA
330
1F
100
AcDbEntity
  8
80
370
    18
100
AcDbCircle
 10
0.0
 20
0.0
 30
0.0
 40
2.500000000000009
  0
SPLINE
  5
1CB
330
1F
100
AcDbEntity
  8
1
  6
SLD-Solid
370
    25
100
AcDbSpline
210
0.0
220
0.0
230
1.0
 70
     8
 71
     3
 72
    12
 73
     8
 74
     0
 42
0.000000001
 43
0.00000001
 40
0.0
 40
0.0
 40
0.0
 40
0.0
 40
0.249999999999997
 40
0.249999999999997
 40
0.499999999999994
 40
0.499999999999994
 40
1.0
 40
1.0
 40
1.0
 40
1.0
 10
3.950000000000009
 20
-47.4754841997425
 30
0.0
 10
3.849084030890588
 20
-47.47548419974257
 30
0.0
 10
3.749978417477418
 20
-47.45437693482705
 30
0.0
 10
3.566847730075513
 20
-47.37426897057833
 30
0.0
 10
3.483455095947377
 20
-47.31511647588031
 30
0.0
 10
3.278048511272591
 20
-47.09831987092237
 30
0.0
 10
3.200000000000015
 20
-46.89926900274111
 30
0.0
 10
3.200000000000008
 20
-46.69763484374772
 30
0.0
  0
SPLINE
  5
1CC
330
1F
100
AcDbEntity
  8
1
  6
SLD-Solid
370
    25
100
AcDbSpline
210
0.0
220
0.0
230
1.0
 70
     8
 71
     3
 72
    17
 73
    13
 74
     0
 42
0.000000001
 43
0.00000001
 40
0.0
 40
0.0
 40
0.0
 40
0.0
 40
0.0631225276679373
 40
0.1266732404557616
 40
0.190657859823915
 40
0.2550819704917502
 40
0.37796775618313
 40
0.5065287291742231
 40
0.753627574171531
 40
0.8770326867277551
 40
0.929351593520063
 40
0.9999999999999999
 40
0.9999999999999999
 40
0.9999999999999999
 40
0.9999999999999999
 10
3.949999999999894
 20
47.29681459776454
 30
0.0
 10
3.925201491186288
 20
47.29611182214641
 30
0.0
 10
3.875436255446242
 20
47.29470150370425
 30
0.0
 10
3.801280717947996
 20
47.28327895415907
 30
0.0
 10
3.728120549120971
 20
47.26498746189466
 30
0.0
 10
3.63534293331693
 20
47.23149463842284
 30
0.0
 10
3.525682301876096
 20
47.17267397043138
 30
0.0
 10
3.374709300497987
 20
47.04854698611188
 30
0.0
 10
3.264271220664464
 20
46.88235514412616
 30
0.0
 10
3.217384189860743
 20
46.72497704377733
 30
0.0
 10
3.20237676121993
 20
46.63086119229421
 30
0.0
 10
3.200867255990381
 20
46.58337040931761
 30
0.0
 10
3.200000000000008
 20
46.55608553132448
 30
0.0
  0
SPLINE
  5
1CD
330
1F
100
AcDbEntity
  8
1
  6
SLD-Solid
370
    25
100
AcDbSpline
210
0.0
220
0.0
230
1.0
 70
     8
 71
     3
 72
    12
 73
     8
 74
     0
 42
0.000000001
 43
0.00000001
 40
0.0
 40
0.0
 40
0.0
 40
0.0
 40
0.2499999999999983
 40
0.2499999999999983
 40
0.4999999999999967
 40
0.4999999999999967
 40
1.0
 40
1.0
 40
1.0
 40
1.0
 10
19.05
 20
-46.69763484374772
 30
0.0
 10
19.05000000000018
 20
-46.7985109584615
 30
0.0
 10
19.03137059366227
 20
-46.89733966428927
 30
0.0
 10
18.95815575330315
 20
-47.08411469648331
 30
0.0
 10
18.90402082648725
 20
-47.16991322229985
 30
0.0
 10
18.69812814693776
 20
-47.38753444472503
 30
0.0
 10
18.50197314321866
 20
-47.47548419974256
 30
0.0
 10
18.30000000000001
 20
-47.4754841997425
 30
0.0
  0
SPLINE
  5
1CE
330
1F
100
AcDbEntity
  8
1
  6
SLD-Solid
370
    25
100
AcDbSpline
210
0.0
220
0.0
230
1.0
 70
     8
 71
     3
 72
    15
 73
    11
 74
     0
 42
0.000000001
 43
0.00000001
 40
0.0
 40
0.0
 40
0.0
 40
0.0
 40
0.070867546718904
 40
0.1234206290198622
 40
0.2469923695819581
 40
0.4940839350894875
 40
0.6226370203369791
 40
0.7456896564301834
 40
0.8736712713987574
 40
1.0
 40
1.0
 40
1.0
 40
1.0
 10
19.05000000000002
 20
46.55608553132451
 30
0.0
 10
19.04912781744746
 20
46.58344641762078
 30
0.0
 10
19.0476088525017
 20
46.63109725292664
 30
0.0
 10
19.03252103265984
 20
46.72541301613892
 30
0.0
 10
18.98548435274789
 20
46.8828643158683
 30
0.0
 10
18.87493087111876
 20
47.04890219769221
 30
0.0
 10
18.72384724369283
 20
47.17307551094377
 30
0.0
 10
18.59213990211466
 20
47.24320117897881
 30
0.0
 10
18.44967423040802
 20
47.28829435244312
 30
0.0
 10
18.34967476177359
 20
47.29398684875632
 30
0.0
 10
18.30000000000001
 20
47.29681459776458
 30
0.0
  0
SPLINE
  5
1CF
330
1F
100
AcDbEntity
  8
1
  6
SLD-Solid
370
    25
100
AcDbSpline
210
0.0
220
0.0
230
1.0
 70
     8
 71
     3
 72
     8
 73
     4
 74
     0
 42
0.000000001
 43
0.00000001
 40
0.0
 40
0.0
 40
0.0
 40
0.0
 40
1.0
 40
1.0
 40
1.0
 40
1.0
 10
7.590276606597335
 20
-47.4754841997425
 30
0.0
 10
8.12777499546441
 20
-46.5104965471081
 30
0.0
 10
8.664408048367864
 20
-45.54503249842018
 30
0.0
 10
9.199999999999985
 20
-44.57901066343648
 30
0.0
  0
SPLINE
  5
1D0
330
1F
100
AcDbEntity
  8
1
  6
SLD-Solid
370
    25
100
AcDbSpline
210
0.0
220
0.0
230
1.0
 70
     8
 71
     3
 72
     8
 73
     4
 74
     0
 42
0.000000001
 43
0.00000001
 40
0.0000000000000098
 40
0.0000000000000098
 40
0.0000000000000098
 40
0.0000000000000098
 40
0.000879067901516
 40
0.000879067901516
 40
0.000879067901516
 40
0.000879067901516
 10
7.957289380062154
 20
46.81625358782994
 30
0.0
 10
7.835334863860855
 20
46.97654627942824
 30
0.0
 10
7.712991580674063
 20
47.1367321049955
 30
0.0
 10
7.590276606597372
 20
47.29681459776459
 30
0.0
  0
SPLINE
  5
1D1
330
1F
100
AcDbEntity
  8
1
  6
SLD-Solid
370
    25
100
AcDbSpline
210
0.0
220
0.0
230
1.0
 70
     8
 71
     3
 72
     8
 73
     4
 74
     0
 42
0.000000001
 43
0.00000001
 40
0.0
 40
0.0
 40
0.0
 40
0.0
 40
1.0
 40
1.0
 40
1.0
 40
1.0
 10
7.957289380062154
 20
46.81625358782994
 30
0.0
 10
8.372088490919118
 20
46.07082082933729
 30
0.0
 10
8.786353866857974
 20
45.32508460154716
 30
0.0
 10
9.199999999999985
 20
44.57901066343648
 30
0.0
  0
SPLINE
  5
1D2
330
1F
100
AcDbEntity
  8
1
  6
SLD-Solid
370
    25
100
AcDbSpline
210
0.0
220
0.0
230
1.0
 70
     8
 71
     3
 72
    14
 73
    10
 74
     0
 42
0.000000001
 43
0.00000001
 40
0.0
 40
0.0
 40
0.0
 40
0.0
 40
0.25
 40
0.25
 40
0.5
 40
0.5
 40
0.75
 40
0.75
 40
1.0
 40
1.0
 40
1.0
 40
1.0
 10
9.200000000002248
 20
41.48301295145396
 30
0.0
 10
9.176680646156914
 20
41.55645645104905
 30
0.0
 10
9.15795689205554
 20
41.62429306843831
 30
0.0
 10
9.1319276787847
 20
41.74600607925088
 30
0.0
 10
9.12504558236848
 20
41.79860573441294
 30
0.0
 10
9.124954879643761
 20
41.88147815789095
 30
0.0
 10
9.131870505305061
 20
41.91255410941324
 30
0.0
 10
9.157670888230399
 20
41.9512409197013
 30
0.0
 10
9.176601575159566
 20
41.95960923610542
 30
0.0
 10
9.199999999999985
 20
41.95870119642318
 30
0.0
  0
SPLINE
  5
1D3
330
1F
100
AcDbEntity
  8
1
  6
SLD-Solid
370
    25
100
AcDbSpline
210
0.0
220
0.0
230
1.0
 70
     8
 71
     3
 72
    14
 73
    10
 74
     0
 42
0.000000001
 43
0.00000001
 40
0.0
 40
0.0
 40
0.0
 40
0.0
 40
0.25
 40
0.25
 40
0.5
 40
0.5
 40
0.75
 40
0.75
 40
1.0
 40
1.0
 40
1.0
 40
1.0
 10
9.199999999999985
 20
34.67668893498512
 30
0.0
 10
9.17668064615525
 20
34.76218380134755
 30
0.0
 10
9.157956892054479
 20
34.84409122905373
 30
0.0
 10
9.131927678784717
 20
34.99897222909988
 30
0.0
 10
9.125045582368967
 20
35.07047900120375
 30
0.0
 10
9.124954879645037
 20
35.19440944821503
 30
0.0
 10
9.131870505306663
 20
35.24816533561764
 30
0.0
 10
9.157670888232456
 20
35.33309634836898
 30
0.0
 10
9.176601575161747
 20
35.36545280972803
 30
0.0
 10
9.20000000000225
 20
35.38859611770601
 30
0.0
  0
SPLINE
  5
1D4
330
1F
100
AcDbEntity
  8
1
  6
SLD-Solid
370
    25
100
AcDbSpline
210
0.0
220
0.0
230
1.0
 70
     8
 71
     3
 72
    14
 73
    10
 74
     0
 42
0.000000001
 43
0.00000001
 40
0.0
 40
0.0
 40
0.0
 40
0.0
 40
0.25
 40
0.25
 40
0.5
 40
0.5
 40
0.75
 40
0.75
 40
1.0
 40
1.0
 40
1.0
 40
1.0
 10
13.02999999999607
 20
41.98711733167135
 30
0.0
 10
13.05904068228769
 20
41.99358445674419
 30
0.0
 10
13.08275209482984
 20
41.9892355902063
 30
0.0
 10
13.11609658322472
 20
41.95189511103383
 30
0.0
 10
13.1249214006751
 20
41.91935250781673
 30
0.0
 10
13.12507754967823
 20
41.8251138057685
 30
0.0
 10
13.11615053209062
 20
41.76334893396455
 30
0.0
 10
13.08319562521536
 20
41.6208767288557
 30
0.0
 10
13.05911019949628
 20
41.53942138186895
 30
0.0
 10
13.03
 20
41.45311361597065
 30
0.0
  0
SPLINE
  5
1D5
330
1F
100
AcDbEntity
  8
1
  6
SLD-Solid
370
    25
100
AcDbSpline
210
0.0
220
0.0
230
1.0
 70
     8
 71
     3
 72
     8
 73
     4
 74
     0
 42
0.000000001
 43
0.00000001
 40
0.0
 40
0.0
 40
0.0
 40
0.0
 40
1.0
 40
1.0
 40
1.0
 40
1.0
 10
13.02999999999999
 20
44.57901066343648
 30
0.0
 10
13.44364613314278
 20
45.32508460154332
 30
0.0
 10
13.85791150908241
 20
46.07082082932961
 30
0.0
 10
14.2727106199466
 20
46.81625358782996
 30
0.0
  0
SPLINE
  5
1D6
330
1F
100
AcDbEntity
  8
1
  6
SLD-Solid
370
    25
100
AcDbSpline
210
0.0
220
0.0
230
1.0
 70
     8
 71
     3
 72
     8
 73
     4
 74
     0
 42
0.000000001
 43
0.00000001
 40
0.0
 40
0.0
 40
0.0
 40
0.0
 40
0.0008790679015123
 40
0.0008790679015123
 40
0.0008790679015123
 40
0.0008790679015123
 10
14.63972339340267
 20
47.29681459776458
 30
0.0
 10
14.51700841932647
 20
47.13673210499615
 30
0.0
 10
14.3946651361474
 20
46.97654627942756
 30
0.0
 10
14.2727106199466
 20
46.81625358782996
 30
0.0
  0
SPLINE
  5
1D7
330
1F
100
AcDbEntity
  8
1
  6
SLD-Solid
370
    25
100
AcDbSpline
210
0.0
220
0.0
230
1.0
 70
     8
 71
     3
 72
     8
 73
     4
 74
     0
 42
0.000000001
 43
0.00000001
 40
0.0
 40
0.0
 40
0.0
 40
0.0
 40
1.0
 40
1.0
 40
1.0
 40
1.0
 10
13.02999999999999
 20
-44.57901066343648
 30
0.0
 10
13.56559195163211
 20
-45.54503249842018
 30
0.0
 10
14.10222500453558
 20
-46.5104965471081
 30
0.0
 10
14.63972339340267
 20
-47.47548419974251
 30
0.0
  0
SPLINE
  5
1D8
330
1F
100
AcDbEntity
  8
1
  6
SLD-Solid
370
    25
100
AcDbSpline
210
0.0
220
0.0
230
1.0
 70
     8
 71
     3
 72
    14
 73
    10
 74
     0
 42
0.000000001
 43
0.00000001
 40
0.0
 40
0.0
 40
0.0
 40
0.0
 40
0.25
 40
0.25
 40
0.5
 40
0.5
 40
0.75
 40
0.75
 40
1.0
 40
1.0
 40
1.0
 40
1.0
 10
13.03
 20
35.43161038841291
 30
0.0
 10
13.05904068229166
 20
35.4108851273387
 30
0.0
 10
13.08275209483377
 20
35.37953864703776
 30
0.0
 10
13.11609658322839
 20
35.28872072742523
 30
0.0
 10
13.12492140067853
 20
35.23076880196017
 30
0.0
 10
13.12507754968095
 20
35.08956907537858
 30
0.0
 10
13.1161505320929
 20
35.00648906177567
 30
0.0
 10
13.08319562521659
 20
34.8277942102537
 30
0.0
 10
13.0591101994969
 20
34.73111937885587
 30
0.0
 10
13.02999999999999
 20
34.63242923389115
 30
0.0
  0
SPLINE
  5
1D9
330
1F
100
AcDbEntity
  8
1
  6
SLD-Solid
370
    25
100
AcDbSpline
210
0.0
220
0.0
230
1.0
 70
     8
 71
     3
 72
    12
 73
     8
 74
     0
 42
0.000000001
 43
0.00000001
 40
0.0
 40
0.0
 40
0.0
 40
0.0
 40
0.2500000000000032
 40
0.2500000000000032
 40
0.5000000000000063
 40
0.5000000000000063
 40
1.0
 40
1.0
 40
1.0
 40
1.0
 10
12.28000000000001
 20
-43.76943596849289
 30
0.0
 10
12.37996960464106
 20
-43.76943596849289
 30
0.0
 10
12.47988502523367
 20
-43.79051518316405
 30
0.0
 10
12.6644929422387
 20
-43.8719426284369
 30
0.0
 10
12.74728498815325
 20
-43.93126060501208
 30
0.0
 10
12.95342033959715
 20
-44.15080408372864
 30
0.0
 10
13.03
 20
-44.35163254795799
 30
0.0
 10
13.03
 20
-44.55102159322501
 30
0.0
  0
SPLINE
  5
1DA
330
1F
100
AcDbEntity
  8
1
  6
SLD-Solid
370
    25
100
AcDbSpline
210
0.0
220
0.0
230
1.0
 70
     8
 71
     3
 72
    16
 73
    12
 74
     0
 42
0.000000001
 43
0.00000001
 40
0.0
 40
0.0
 40
0.0
 40
0.0
 40
0.1250000000000001
 40
0.1250000000000001
 40
0.2500000000000003
 40
0.2500000000000003
 40
0.5000000000000002
 40
0.5000000000000002
 40
0.7500000000000001
 40
0.7500000000000001
 40
1.0
 40
1.0
 40
1.0
 40
1.0
 10
13.03
 20
34.61214293353755
 30
0.0
 10
13.03
 20
34.56119277402757
 30
0.0
 10
13.0206745626061
 20
34.49413963137994
 30
0.0
 10
12.99367590047851
 20
34.363313381422
 30
0.0
 10
12.97626449755332
 20
34.29908556562461
 30
0.0
 10
12.91545405813532
 20
34.11096290842622
 30
0.0
 10
12.86271449633861
 20
33.99023971150844
 30
0.0
 10
12.73634152951909
 20
33.76817627154974
 30
0.0
 10
12.66098841639739
 20
33.66394234496746
 30
0.0
 10
12.48671204537784
 20
33.48358218869542
 30
0.0
 10
12.38972674335427
 20
33.40848998465462
 30
0.0
 10
12.28000000000001
 20
33.35547071674117
 30
0.0
  0
SPLINE
  5
1DB
330
1F
100
AcDbEntity
  8
1
  6
SLD-Solid
370
    25
100
AcDbSpline
210
0.0
220
0.0
230
1.0
 70
     8
 71
     3
 72
    12
 73
     8
 74
     0
 42
0.000000001
 43
0.00000001
 40
0.0
 40
0.0
 40
0.0
 40
0.0
 40
0.5
 40
0.5
 40
0.75
 40
0.75
 40
1.0
 40
1.0
 40
1.0
 40
1.0
 10
9.199999999999985
 20
-44.551021593225
 30
0.0
 10
9.199999999999985
 20
-44.35094747116168
 30
0.0
 10
9.277613070150112
 20
-44.14958800989077
 30
0.0
 10
9.482511037300565
 20
-43.93153570225752
 30
0.0
 10
9.56627229985231
 20
-43.8716260625976
 30
0.0
 10
9.749092094904377
 20
-43.79094541821727
 30
0.0
 10
9.849426682175643
 20
-43.76943596849291
 30
0.0
 10
9.949999999999987
 20
-43.7694359684929
 30
0.0
  0
SPLINE
  5
1DC
330
1F
100
AcDbEntity
  8
1
  6
SLD-Solid
370
    25
100
AcDbSpline
210
0.0
220
0.0
230
1.0
 70
     8
 71
     3
 72
    16
 73
    12
 74
     0
 42
0.000000001
 43
0.00000001
 40
0.0
 40
0.0
 40
0.0
 40
0.0
 40
0.2499999999999967
 40
0.2499999999999967
 40
0.4999999999999934
 40
0.4999999999999934
 40
0.7499999999999902
 40
0.7499999999999902
 40
0.8749999999999951
 40
0.8749999999999951
 40
1.0
 40
1.0
 40
1.0
 40
1.0
 10
9.949999999999987
 20
33.36525953046024
 30
0.0
 10
9.839257595210663
 20
33.42015914282663
 30
0.0
 10
9.74041673400143
 20
33.49854219709403
 30
0.0
 10
9.564708009184047
 20
33.68553569890509
 30
0.0
 10
9.4908304832661
 20
33.79082769792041
 30
0.0
 10
9.364658348120017
 20
34.019558801257
 30
0.0
 10
9.312951425518134
 20
34.14247439570438
 30
0.0
 10
9.253206550793827
 20
34.3348846178598
 30
0.0
 10
9.236028623043943
 20
34.4012196258066
 30
0.0
 10
9.209723703057046
 20
34.53368853253287
 30
0.0
 10
9.2
 20
34.60516910831215
 30
0.0
 10
9.2
 20
34.65640299543514
 30
0.0
  0
SPLINE
  5
1DD
330
1F
100
AcDbEntity
  8
1
  6
SLD-Solid
370
    25
100
AcDbSpline
210
0.0
220
0.0
230
1.0
 70
     8
 71
     3
 72
    12
 73
     8
 74
     0
 42
0.000000001
 43
0.00000001
 40
0.0
 40
0.0
 40
0.0
 40
0.0
 40
0.2500000000000006
 40
0.2500000000000006
 40
0.5000000000000011
 40
0.5000000000000011
 40
1.0
 40
1.0
 40
1.0
 40
1.0
 10
12.28000000000001
 20
33.35547071674117
 30
0.0
 10
12.10934456477526
 20
33.27301109054179
 30
0.0
 10
11.92465326465504
 20
33.21019284332252
 30
0.0
 10
11.52752277837885
 20
33.12414278909401
 30
0.0
 10
11.32193513118782
 20
33.10278110396342
 30
0.0
 10
10.69948105299426
 20
33.10504385732295
 30
0.0
 10
10.28831449591981
 20
33.19754297491612
 30
0.0
 10
9.949999999999987
 20
33.36525953046024
 30
0.0
  0
SPLINE
  5
1DE
330
1F
100
AcDbEntity
  8
1
  6
SLD-Solid
370
    25
100
AcDbSpline
210
0.0
220
0.0
230
1.0
 70
     8
 71
     3
 72
    16
 73
    12
 74
     0
 42
0.000000001
 43
0.00000001
 40
0.0
 40
0.0
 40
0.0
 40
0.0
 40
0.125
 40
0.125
 40
0.25
 40
0.25
 40
0.5
 40
0.5
 40
0.75
 40
0.75
 40
1.0
 40
1.0
 40
1.0
 40
1.0
 10
9.200000000002248
 20
35.36831017813519
 30
0.0
 10
9.20000000000476
 20
35.31693147873784
 30
0.0
 10
9.209688078863506
 20
35.29149399688278
 30
0.0
 10
9.236073415536907
 20
35.26518486786851
 30
0.0
 10
9.25307062474276
 20
35.26193032552566
 30
0.0
 10
9.313034815215588
 20
35.26168910608484
 30
0.0
 10
9.363922455828067
 20
35.2747715451527
 30
0.0
 10
9.490054525550157
 20
35.3115651964856
 30
0.0
 10
9.56509243004318
 20
35.3362165396002
 30
0.0
 10
9.738924647268874
 20
35.39932894997544
 30
0.0
 10
9.839445946351846
 20
35.43834692831699
 30
0.0
 10
9.949999999999987
 20
35.48885481142474
 30
0.0
  0
SPLINE
  5
1DF
330
1F
100
AcDbEntity
  8
1
  6
SLD-Solid
370
    25
100
AcDbSpline
210
0.0
220
0.0
230
1.0
 70
     8
 71
     3
 72
    12
 73
     8
 74
     0
 42
0.000000001
 43
0.00000001
 40
0.0
 40
0.0
 40
0.0
 40
0.0
 40
0.25
 40
0.25
 40
0.5
 40
0.5
 40
1.0
 40
1.0
 40
1.0
 40
1.0
 10
9.949999999999987
 20
35.48885481142474
 30
0.0
 10
10.11915676939237
 20
35.56613601508452
 30
0.0
 10
10.30270770519946
 20
35.62476545355775
 30
0.0
 10
10.6982656039511
 20
35.70597605697656
 30
0.0
 10
10.9034564783033
 20
35.72681273192288
 30
0.0
 10
11.52590240230555
 20
35.72953904175431
 30
0.0
 10
11.93868796900774
 20
35.64974792445472
 30
0.0
 10
12.28000000000001
 20
35.49787263615899
 30
0.0
  0
SPLINE
  5
1E0
330
1F
100
AcDbEntity
  8
1
  6
SLD-Solid
370
    25
100
AcDbSpline
210
0.0
220
0.0
230
1.0
 70
     8
 71
     3
 72
    16
 73
    12
 74
     0
 42
0.000000001
 43
0.00000001
 40
0.0
 40
0.0
 40
0.0
 40
0.0
 40
0.2499999999999999
 40
0.2499999999999999
 40
0.4999999999999998
 40
0.4999999999999998
 40
0.7499999999999997
 40
0.7499999999999997
 40
0.8749999999999998
 40
0.8749999999999998
 40
1.0
 40
1.0
 40
1.0
 40
1.0
 10
12.28000000000001
 20
35.49787263615899
 30
0.0
 10
12.38938127142807
 20
35.44920071538317
 30
0.0
 10
12.48719790588469
 20
35.41256913935559
 30
0.0
 10
12.66235653858859
 20
35.35237067244711
 30
0.0
 10
12.73630362704299
 20
35.33005450148762
 30
0.0
 10
12.86322577731737
 20
35.29810085202676
 30
0.0
 10
12.91570572130093
 20
35.28773767542292
 30
0.0
 10
12.97658934509431
 20
35.29443860847592
 30
0.0
 10
12.99409980251967
 20
35.30029296727559
 30
0.0
 10
13.02084597296051
 20
35.33271449864374
 30
0.0
 10
13.03
 20
35.36068432142829
 30
0.0
 10
13.03
 20
35.41132408805677
 30
0.0
  0
SPLINE
  5
1E1
330
1F
100
AcDbEntity
  8
1
  6
SLD-Solid
370
    25
100
AcDbSpline
210
0.0
220
0.0
230
1.0
 70
     8
 71
     3
 72
    16
 73
    12
 74
     0
 42
0.000000001
 43
0.00000001
 40
0.0
 40
0.0
 40
0.0
 40
0.0
 40
0.2499999999999998
 40
0.2499999999999998
 40
0.4999999999999996
 40
0.4999999999999996
 40
0.7499999999999993
 40
0.7499999999999993
 40
0.8749999999999997
 40
0.8749999999999997
 40
1.0
 40
1.0
 40
1.0
 40
1.0
 10
9.949999999999987
 20
40.29017607249211
 30
0.0
 10
9.839257595210677
 20
40.32798470963449
 30
0.0
 10
9.740416734001444
 20
40.39081531012378
 30
0.0
 10
9.564708009184061
 20
40.54795546550075
 30
0.0
 10
9.490830483266114
 20
40.63949231484412
 30
0.0
 10
9.364658348120017
 20
40.84247699029051
 30
0.0
 10
9.312951425518134
 20
40.95326880810713
 30
0.0
 10
9.253206550793827
 20
41.13218036853984
 30
0.0
 10
9.236028623043957
 20
41.19470581500534
 30
0.0
 10
9.209723703057046
 20
41.32469951294971
 30
0.0
 10
9.2
 20
41.39783900363281
 30
0.0
 10
9.2
 20
41.45885414630703
 30
0.0
  0
SPLINE
  5
1E2
330
1F
100
AcDbEntity
  8
1
  6
SLD-Solid
370
    25
100
AcDbSpline
210
0.0
220
0.0
230
1.0
 70
     8
 71
     3
 72
    16
 73
    12
 74
     0
 42
0.000000001
 43
0.00000001
 40
0.0
 40
0.0
 40
0.0
 40
0.0
 40
0.1250000000000039
 40
0.1250000000000039
 40
0.2500000000000078
 40
0.2500000000000078
 40
0.5000000000000051
 40
0.5000000000000051
 40
0.7500000000000026
 40
0.7500000000000026
 40
1.0
 40
1.0
 40
1.0
 40
1.0
 10
13.02999999999833
 20
41.42895438114483
 30
0.0
 10
13.02999999999833
 20
41.36827713359743
 30
0.0
 10
13.02067456260444
 20
41.2986012551449
 30
0.0
 10
12.99367590047684
 20
41.16856540733184
 30
0.0
 10
12.97626449755164
 20
41.10738101936695
 30
0.0
 10
12.91545405813366
 20
40.9307974064249
 30
0.0
 10
12.86271449633694
 20
40.82130212611719
 30
0.0
 10
12.73634152951741
 20
40.62320356046918
 30
0.0
 10
12.66098841639572
 20
40.53226162144242
 30
0.0
 10
12.48671204537617
 20
40.38027498384281
 30
0.0
 10
12.38972674335261
 20
40.31995671599527
 30
0.0
 10
12.27999999999835
 20
40.2834337913245
 30
0.0
  0
SPLINE
  5
1E3
330
1F
100
AcDbEntity
  8
1
  6
SLD-Solid
370
    25
100
AcDbSpline
210
0.0
220
0.0
230
1.0
 70
     8
 71
     3
 72
    12
 73
     8
 74
     0
 42
0.000000001
 43
0.00000001
 40
0.0
 40
0.0
 40
0.0
 40
0.0
 40
0.25
 40
0.25
 40
0.5
 40
0.5
 40
1.0
 40
1.0
 40
1.0
 40
1.0
 10
12.27999999999835
 20
40.2834337913245
 30
0.0
 10
12.1093445647736
 20
40.2266305415894
 30
0.0
 10
11.92465326465339
 20
40.18318651206278
 30
0.0
 10
11.52752277837718
 20
40.12362389225036
 30
0.0
 10
11.32193513118616
 20
40.10880147711192
 30
0.0
 10
10.69948105299261
 20
40.11037023230933
 30
0.0
 10
10.28831449592006
 20
40.1746718982731
 30
0.0
 10
9.949999999999987
 20
40.29017607249211
 30
0.0
  0
SPLINE
  5
1E4
330
1F
100
AcDbEntity
  8
1
  6
SLD-Solid
370
    25
100
AcDbSpline
210
0.0
220
0.0
230
1.0
 70
     8
 71
     3
 72
     8
 73
     4
 74
     0
 42
0.000000001
 43
0.00000001
 40
0.0
 40
0.0
 40
0.0
 40
0.0
 40
0.1250000000000019
 40
0.1250000000000019
 40
0.1250000000000019
 40
0.1250000000000019
 10
48.52060569003996
 20
23.3
 30
0.0
 10
49.17501871511195
 20
23.31391977763356
 30
0.0
 10
49.81366644487969
 20
23.35505215422436
 30
0.0
 10
50.43766485371307
 20
23.4193365981264
 30
0.0
  0
SPLINE
  5
1E5
330
1F
100
AcDbEntity
  8
1
  6
SLD-Solid
370
    25
100
AcDbSpline
210
0.0
220
0.0
230
1.0
 70
     8
 71
     3
 72
     8
 73
     4
 74
     0
 42
0.000000001
 43
0.00000001
 40
0.1250000000000019
 40
0.1250000000000019
 40
0.1250000000000019
 40
0.1250000000000019
 40
0.1875000000000022
 40
0.1875000000000022
 40
0.1875000000000022
 40
0.1875000000000022
 10
50.43766485371307
 20
23.4193365981264
 30
0.0
 10
50.74966405812975
 20
23.4514788200774
 30
0.0
 10
51.05797691220365
 20
23.48941022499623
 30
0.0
 10
51.36260439214343
 20
23.53261519845287
 30
0.0
  0
SPLINE
  5
1E6
330
1F
100
AcDbEntity
  8
1
  6
SLD-Solid
370
    25
100
AcDbSpline
210
0.0
220
0.0
230
1.0
 70
     8
 71
     3
 72
     8
 73
     4
 74
     0
 42
0.000000001
 43
0.00000001
 40
0.1875000000000022
 40
0.1875000000000022
 40
0.1875000000000022
 40
0.1875000000000022
 40
0.2500000000000026
 40
0.2500000000000026
 40
0.2500000000000026
 40
0.2500000000000026
 10
51.36260439214343
 20
23.53261519845287
 30
0.0
 10
51.66723187208314
 20
23.57582017190951
 30
0.0
 10
51.96856814334214
 20
23.62443613164235
 30
0.0
 10
52.25983471218937
 20
23.67653268617606
 30
0.0
  0
SPLINE
  5
1E7
330
1F
100
AcDbEntity
  8
1
  6
SLD-Solid
370
    25
100
AcDbSpline
210
0.0
220
0.0
230
1.0
 70
     8
 71
     3
 72
     8
 73
     4
 74
     0
 42
0.000000001
 43
0.00000001
 40
0.2500000000000026
 40
0.2500000000000026
 40
0.2500000000000026
 40
0.2500000000000026
 40
0.375000000000003
 40
0.375000000000003
 40
0.375000000000003
 40
0.375000000000003
 10
52.25983471218937
 20
23.67653268617606
 30
0.0
 10
52.84236784988386
 20
23.7807257952435
 30
0.0
 10
53.39165896794535
 20
23.89965118255233
 30
0.0
 10
53.90950298705521
 20
24.02648019175223
 30
0.0
  0
SPLINE
  5
1E8
330
1F
100
AcDbEntity
  8
1
  6
SLD-Solid
370
    25
100
AcDbSpline
210
0.0
220
0.0
230
1.0
 70
     8
 71
     3
 72
     8
 73
     4
 74
     0
 42
0.000000001
 43
0.00000001
 40
0.375000000000003
 40
0.375000000000003
 40
0.375000000000003
 40
0.375000000000003
 40
0.4375000000000032
 40
0.4375000000000032
 40
0.4375000000000032
 40
0.4375000000000032
 10
53.90950298705521
 20
24.02648019175223
 30
0.0
 10
54.16842499661018
 20
24.08989469635217
 30
0.0
 10
54.42053150113477
 20
24.15560773193806
 30
0.0
 10
54.66173948965344
 20
24.22169866160349
 30
0.0
  0
SPLINE
  5
1E9
330
1F
100
AcDbEntity
  8
1
  6
SLD-Solid
370
    25
100
AcDbSpline
210
0.0
220
0.0
230
1.0
 70
     8
 71
     3
 72
     8
 73
     4
 74
     0
 42
0.000000001
 43
0.00000001
 40
0.4375000000000032
 40
0.4375000000000032
 40
0.4375000000000032
 40
0.4375000000000032
 40
0.5000000000000034
 40
0.5000000000000034
 40
0.5000000000000034
 40
0.5000000000000034
 10
54.66173948965344
 20
24.22169866160349
 30
0.0
 10
54.90294747817209
 20
24.28778959126894
 30
0.0
 10
55.13259149239074
 20
24.35403013758695
 30
0.0
 10
55.35109826760773
 20
24.41958416571923
 30
0.0
  0
SPLINE
  5
1EA
330
1F
100
AcDbEntity
  8
1
  6
SLD-Solid
370
    25
100
AcDbSpline
210
0.0
220
0.0
230
1.0
 70
     8
 71
     3
 72
     8
 73
     4
 74
     0
 42
0.000000001
 43
0.00000001
 40
0.5000000000000034
 40
0.5000000000000034
 40
0.5000000000000034
 40
0.5000000000000034
 40
0.625000000000003
 40
0.625000000000003
 40
0.625000000000003
 40
0.625000000000003
 10
55.35109826760773
 20
24.41958416571923
 30
0.0
 10
55.78811181804172
 20
24.55069222198378
 30
0.0
 10
56.18091772019781
 20
24.67907301373172
 30
0.0
 10
56.52869075080119
 20
24.7983292055183
 30
0.0
  0
SPLINE
  5
1EB
330
1F
100
AcDbEntity
  8
1
  6
SLD-Solid
370
    25
100
AcDbSpline
210
0.0
220
0.0
230
1.0
 70
     8
 71
     3
 72
     8
 73
     4
 74
     0
 42
0.000000001
 43
0.00000001
 40
0.625000000000003
 40
0.625000000000003
 40
0.625000000000003
 40
0.625000000000003
 40
0.6875000000000027
 40
0.6875000000000027
 40
0.6875000000000027
 40
0.6875000000000027
 10
56.52869075080119
 20
24.7983292055183
 30
0.0
 10
56.70257726610292
 20
24.85795730141159
 30
0.0
 10
56.86485661725752
 20
24.91522716560718
 30
0.0
 10
57.01219215624817
 20
24.96825980827115
 30
0.0
  0
SPLINE
  5
1EC
330
1F
100
AcDbEntity
  8
1
  6
SLD-Solid
370
    25
100
AcDbSpline
210
0.0
220
0.0
230
1.0
 70
     8
 71
     3
 72
     8
 73
     4
 74
     0
 42
0.000000001
 43
0.00000001
 40
0.6875000000000027
 40
0.6875000000000027
 40
0.6875000000000027
 40
0.6875000000000027
 40
0.7500000000000024
 40
0.7500000000000024
 40
0.7500000000000024
 40
0.7500000000000024
 10
57.01219215624817
 20
24.96825980827115
 30
0.0
 10
57.15952769523883
 20
25.02129245093514
 30
0.0
 10
57.29292047663298
 20
25.07042926814308
 30
0.0
 10
57.41249886838992
 20
25.11512512419602
 30
0.0
  0
SPLINE
  5
1ED
330
1F
100
AcDbEntity
  8
1
  6
SLD-Solid
370
    25
100
AcDbSpline
210
0.0
220
0.0
230
1.0
 70
     8
 71
     3
 72
     8
 73
     4
 74
     0
 42
0.000000001
 43
0.00000001
 40
0.7500000000000024
 40
0.7500000000000024
 40
0.7500000000000024
 40
0.7500000000000024
 40
0.8750000000000012
 40
0.8750000000000012
 40
0.8750000000000012
 40
0.8750000000000012
 10
57.41249886838992
 20
25.11512512419602
 30
0.0
 10
57.65165565190383
 20
25.20451683630186
 30
0.0
 10
57.83611635797708
 20
25.27625502287193
 30
0.0
 10
57.96154842628803
 20
25.32546879384402
 30
0.0
  0
SPLINE
  5
1EE
330
1F
100
AcDbEntity
  8
1
  6
SLD-Solid
370
    25
100
AcDbSpline
210
0.0
220
0.0
230
1.0
 70
     8
 71
     2
 72
     6
 73
     3
 74
     0
 42
0.000000001
 43
0.00000001
 40
0.8750000000000012
 40
0.8750000000000012
 40
0.8750000000000012
 40
1.0
 40
1.0
 40
1.0
 10
57.96154842628803
 20
25.32546879384402
 30
0.0
 10
58.08698049459904
 20
25.3746825648161
 30
0.0
 10
58.15000000000001
 20
25.40000000000001
 30
0.0
  0
SPLINE
  5
1EF
330
1F
100
AcDbEntity
  8
1
  6
SLD-Solid
370
    25
100
AcDbSpline
210
0.0
220
0.0
230
1.0
 70
     8
 71
     3
 72
    16
 73
    12
 74
     0
 42
0.000000001
 43
0.00000001
 40
0.0
 40
0.0
 40
0.0
 40
0.0
 40
0.1250000000000007
 40
0.1250000000000007
 40
0.2500000000000013
 40
0.2500000000000013
 40
0.5000000000000009
 40
0.5000000000000009
 40
0.7500000000000004
 40
0.7500000000000004
 40
1.0
 40
1.0
 40
1.0
 40
1.0
 10
9.199999999999985
 20
41.93454239124897
 30
0.0
 10
9.200000000002511
 20
41.87335478963722
 30
0.0
 10
9.209688078861245
 20
41.83111047963453
 30
0.0
 10
9.236073415534646
 20
41.77192904688972
 30
0.0
 10
9.253070624740484
 20
41.75174455463429
 30
0.0
 10
9.313034815213324
 20
41.70102846576506
 30
0.0
 10
9.363922455825804
 20
41.68155707128334
 30
0.0
 10
9.490054525547908
 20
41.65587219504387
 30
0.0
 10
9.565092430040917
 20
41.65088437918838
 30
0.0
 10
9.738924647266611
 20
41.66113961911402
 30
0.0
 10
9.839445946349585
 20
41.6765128133174
 30
0.0
 10
9.949999999997724
 20
41.70913817421309
 30
0.0
  0
SPLINE
  5
1F0
330
1F
100
AcDbEntity
  8
1
  6
SLD-Solid
370
    25
100
AcDbSpline
210
0.0
220
0.0
230
1.0
 70
     8
 71
     3
 72
    12
 73
     8
 74
     0
 42
0.000000001
 43
0.00000001
 40
0.0
 40
0.0
 40
0.0
 40
0.0
 40
0.25
 40
0.25
 40
0.5
 40
0.5
 40
1.0
 40
1.0
 40
1.0
 40
1.0
 10
9.949999999997724
 20
41.70913817421309
 30
0.0
 10
10.11915676938996
 20
41.75905765221761
 30
0.0
 10
10.30270770519867
 20
41.79673649998862
 30
0.0
 10
10.69826560394989
 20
41.84886357628233
 30
0.0
 10
10.90345647830175
 20
41.86219397810194
 30
0.0
 10
11.52590240230299
 20
41.86393994691689
 30
0.0
 10
11.93868796900438
 20
41.8130342551801
 30
0.0
 10
12.27999999999609
 20
41.71496227396707
 30
0.0
  0
SPLINE
  5
1F1
330
1F
100
AcDbEntity
  8
1
  6
SLD-Solid
370
    25
100
AcDbSpline
210
0.0
220
0.0
230
1.0
 70
     8
 71
     3
 72
    16
 73
    12
 74
     0
 42
0.000000001
 43
0.00000001
 40
0.0
 40
0.0
 40
0.0
 40
0.0
 40
0.2500000000000007
 40
0.2500000000000007
 40
0.5000000000000013
 40
0.5000000000000013
 40
0.750000000000002
 40
0.750000000000002
 40
0.875000000000001
 40
0.875000000000001
 40
1.0
 40
1.0
 40
1.0
 40
1.0
 10
12.27999999999609
 20
41.71496227396707
 30
0.0
 10
12.38938127142414
 20
41.68353285741419
 30
0.0
 10
12.48719790588076
 20
41.66923447164881
 30
0.0
 10
12.66235653858466
 20
41.66075308180611
 30
0.0
 10
12.73630362703906
 20
41.66679667497376
 30
0.0
 10
12.86322577731344
 20
41.6954223862898
 30
0.0
 10
12.91570572129701
 20
41.71723646207175
 30
0.0
 10
12.97658934509038
 20
41.77277628648039
 30
0.0
 10
12.99409980251576
 20
41.79517110958685
 30
0.0
 10
13.02084597295658
 20
41.85934368895602
 30
0.0
 10
13.02999999999607
 20
41.90265050045377
 30
0.0
 10
13.02999999999607
 20
41.96295809683839
 30
0.0
  0
SPLINE
  5
1F2
330
1F
100
AcDbEntity
  8
1
  6
SLD-Solid
370
    25
100
AcDbSpline
210
0.0
220
0.0
230
1.0
 70
     8
 71
     3
 72
    12
 73
     8
 74
     0
 42
0.000000001
 43
0.00000001
 40
0.0
 40
0.0
 40
0.0
 40
0.0
 40
0.5
 40
0.5
 40
0.75
 40
0.75
 40
1.0
 40
1.0
 40
1.0
 40
1.0
 10
9.199999999999985
 20
44.55102159322501
 30
0.0
 10
9.199999999999985
 20
44.35104831812289
 30
0.0
 10
9.27600396681734
 20
44.1515082673653
 30
0.0
 10
9.482759040153486
 20
43.93116827137958
 30
0.0
 10
9.566857937314932
 20
43.87128621650868
 30
0.0
 10
9.74951124726116
 20
43.79084228716472
 30
0.0
 10
9.850156242870487
 20
43.76943596849256
 30
0.0
 10
9.950000000002401
 20
43.76943596849288
 30
0.0
  0
SPLINE
  5
1F3
330
1F
100
AcDbEntity
  8
1
  6
SLD-Solid
370
    25
100
AcDbSpline
210
0.0
220
0.0
230
1.0
 70
     8
 71
     3
 72
    10
 73
     6
 74
     0
 42
0.000000001
 43
0.00000001
 40
0.0
 40
0.0
 40
0.0
 40
0.0
 40
0.5
 40
0.5
 40
1.0
 40
1.0
 40
1.0
 40
1.0
 10
12.28000000000001
 20
43.76943596849289
 30
0.0
 10
12.48122846377883
 20
43.76943596849291
 30
0.0
 10
12.67900932610887
 20
43.85856672856718
 30
0.0
 10
12.95290221427664
 20
44.1502294699326
 30
0.0
 10
13.03
 20
44.34957328976746
 30
0.0
 10
13.03
 20
44.55102159322501
 30
0.0
  0
SPLINE
  5
1F4
330
1F
100
AcDbEntity
  8
SK3
  6
SLD-Dashed
370
    18
100
AcDbSpline
210
0.0
220
0.0
230
1.0
 70
     8
 71
     3
 72
    30
 73
    26
 74
     0
 42
0.000000001
 43
0.00000001
 40
0.4999999999999934
 40
0.4999999999999934
 40
0.4999999999999934
 40
0.4999999999999934
 40
0.5624999999999941
 40
0.5624999999999941
 40
0.6249999999999949
 40
0.6249999999999949
 40
0.6874999999999956
 40
0.6874999999999956
 40
0.7499999999999962
 40
0.7499999999999962
 40
0.7812499999999968
 40
0.7812499999999968
 40
0.8124999999999972
 40
0.8124999999999972
 40
0.8437499999999977
 40
0.8437499999999977
 40
0.8749999999999981
 40
0.8749999999999981
 40
0.9062499999999986
 40
0.9062499999999986
 40
0.9374999999999991
 40
0.9374999999999991
 40
0.9687499999999996
 40
0.9687499999999996
 40
1.0
 40
1.0
 40
1.0
 40
1.0
 10
9.602846279599758
 20
-14.27915034605704
 30
0.0
 10
9.68645653869378
 20
-14.42125418637641
 30
0.0
 10
9.797407143447803
 20
-14.51131733768216
 30
0.0
 10
10.04010223607202
 20
-14.63242374926582
 30
0.0
 10
10.17571106347531
 20
-14.66434400040093
 30
0.0
 10
10.46843928875954
 20
-14.6878509066433
 30
0.0
 10
10.62555865364897
 20
-14.68003033606002
 30
0.0
 10
10.98145473780839
 20
-14.62436653420487
 30
0.0
 10
11.18157682258662
 20
-14.57632221838472
 30
0.0
 10
11.50801002825755
 20
-14.4586089343655
 30
0.0
 10
11.61873162334194
 20
-14.41242944660509
 30
0.0
 10
11.84220113938104
 20
-14.30063256215536
 30
0.0
 10
11.95412269444689
 20
-14.23490090158665
 30
0.0
 10
12.16107863552153
 20
-14.08747705033184
 30
0.0
 10
12.25901625186734
 20
-14.00366784802364
 30
0.0
 10
12.43052677631516
 20
-13.82249974419394
 30
0.0
 10
12.50593330594164
 20
-13.72350506925876
 30
0.0
 10
12.63000303324958
 20
-13.51367430078406
 30
0.0
 10
12.67841410243614
 20
-13.4039848685676
 30
0.0
 10
12.74789370637348
 20
-13.17359881812364
 30
0.0
 10
12.76810124630629
 20
-13.05468203931826
 30
0.0
 10
12.77891027826543
 20
-12.81644825424548
 30
0.0
 10
12.76940813581851
 20
-12.6944951290838
 30
0.0
 10
12.72129905847914
 20
-12.4581725963389
 30
0.0
 10
12.68301625646431
 20
-12.34304803310331
 30
0.0
 10
12.63040931107567
 20
-12.2323343638947
 30
0.0
  0
SPLINE
  5
1F5
330
1F
100
AcDbEntity
  8
SK3
  6
SLD-Dashed
370
    18
100
AcDbSpline
210
0.0
220
0.0
230
1.0
 70
     8
 71
     3
 72
    30
 73
    26
 74
     0
 42
0.000000001
 43
0.00000001
 40
0.0
 40
0.0
 40
0.0
 40
0.0
 40
0.0312499999999991
 40
0.0312499999999991
 40
0.0624999999999983
 40
0.0624999999999983
 40
0.0937499999999974
 40
0.0937499999999974
 40
0.1249999999999965
 40
0.1249999999999965
 40
0.187499999999996
 40
0.187499999999996
 40
0.2499999999999955
 40
0.2499999999999955
 40
0.312499999999995
 40
0.312499999999995
 40
0.3749999999999944
 40
0.3749999999999944
 40
0.4062499999999942
 40
0.4062499999999942
 40
0.4374999999999939
 40
0.4374999999999939
 40
0.4687499999999937
 40
0.4687499999999937
 40
0.4999999999999934
 40
0.4999999999999934
 40
0.4999999999999934
 40
0.4999999999999934
 10
12.63040931107569
 20
-12.2323343638947
 30
0.0
 10
12.57780236568702
 20
-12.12162069468612
 30
0.0
 10
12.5126720645931
 20
-12.01896209858507
 30
0.0
 10
12.3582150390335
 20
-11.83123217673027
 30
0.0
 10
12.2680065585952
 20
-11.74609765066667
 30
0.0
 10
12.07343499093627
 20
-11.60605794329098
 30
0.0
 10
11.96643370486067
 20
-11.54920121804521
 30
0.0
 10
11.74573264298214
 20
-11.46981719393691
 30
0.0
 10
11.6340655249776
 20
-11.44748668283022
 30
0.0
 10
11.29951801742689
 20
-11.42770686560523
 30
0.0
 10
11.09198428069952
 20
-11.47806879673263
 30
0.0
 10
10.72217844091648
 20
-11.64236243808864
 30
0.0
 10
10.55844908096595
 20
-11.75496051093637
 30
0.0
 10
10.25324958882708
 20
-12.02428585488716
 30
0.0
 10
10.11576882260312
 20
-12.17795893248198
 30
0.0
 10
9.86252561936532
 20
-12.52988094775973
 30
0.0
 10
9.746260896402042
 20
-12.72918710194007
 30
0.0
 10
9.605692660850485
 20
-13.06645756895029
 30
0.0
 10
9.565421636406112
 20
-13.18319961587417
 30
0.0
 10
9.503286004234612
 20
-13.4293677611186
 30
0.0
 10
9.482363995141311
 20
-13.5575206983002
 30
0.0
 10
9.47090841224374
 20
-13.8054679971878
 30
0.0
 10
9.480664817462667
 20
-13.92083957613647
 30
0.0
 10
9.525951505689648
 20
-14.1223947507326
 30
0.0
 10
9.561041150052768
 20
-14.20809842589734
 30
0.0
 10
9.602846279599758
 20
-14.27915034605704
 30
0.0
  0
SPLINE
  5
1F6
330
1F
100
AcDbEntity
  8
SK3
  6
SLD-Dashed
370
    18
100
AcDbSpline
210
0.0
220
0.0
230
1.0
 70
     8
 71
     3
 72
    26
 73
    22
 74
     0
 42
0.000000001
 43
0.00000001
 40
0.5000000000000062
 40
0.5000000000000062
 40
0.5000000000000062
 40
0.5000000000000062
 40
0.5625000000000058
 40
0.5625000000000058
 40
0.6250000000000051
 40
0.6250000000000051
 40
0.6562500000000046
 40
0.6562500000000046
 40
0.687500000000004
 40
0.687500000000004
 40
0.7187500000000034
 40
0.7187500000000034
 40
0.7500000000000029
 40
0.7500000000000029
 40
0.8125000000000022
 40
0.8125000000000022
 40
0.8750000000000014
 40
0.8750000000000014
 40
0.9375000000000008
 40
0.9375000000000008
 40
1.0
 40
1.0
 40
1.0
 40
1.0
 10
11.63869831779571
 20
-9.819390371339235
 30
0.0
 10
11.80317915771349
 20
-9.806594466981586
 30
0.0
 10
11.95081782962318
 20
-9.812432081454693
 30
0.0
 10
12.22616299685252
 20
-9.868839301599
 30
0.0
 10
12.35236515469919
 20
-9.918953620877927
 30
0.0
 10
12.51874661426342
 20
-10.04837289060637
 30
0.0
 10
12.57051953396254
 20
-10.10115000339699
 30
0.0
 10
12.66070184098388
 20
-10.23071744026808
 30
0.0
 10
12.70001796005849
 20
-10.30921538460779
 30
0.0
 10
12.75624339139549
 20
-10.4949325806605
 30
0.0
 10
12.7732316530057
 20
-10.60488156995158
 30
0.0
 10
12.7764946288975
 20
-10.84110300053568
 30
0.0
 10
12.76278670669288
 20
-10.96977043023329
 30
0.0
 10
12.68516730486995
 20
-11.34647137591012
 30
0.0
 10
12.58996305158962
 20
-11.58088814423496
 30
0.0
 10
12.3731560345373
 20
-11.98947715399204
 30
0.0
 10
12.24747178673947
 20
-12.17132846963892
 30
0.0
 10
11.97676737519451
 20
-12.48981349043031
 30
0.0
 10
11.83102686354771
 20
-12.62828009284685
 30
0.0
 10
11.50508373269932
 20
-12.8627635157944
 30
0.0
 10
11.32747339457477
 20
-12.95749122616766
 30
0.0
 10
11.125
 20
-13.01159523973386
 30
0.0
  0
SPLINE
  5
1F7
330
1F
100
AcDbEntity
  8
SK3
  6
SLD-Dashed
370
    18
100
AcDbSpline
210
0.0
220
0.0
230
1.0
 70
     8
 71
     3
 72
    34
 73
    30
 74
     0
 42
0.000000001
 43
0.00000001
 40
0.0
 40
0.0
 40
0.0
 40
0.0
 40
0.0312500000000005
 40
0.0312500000000005
 40
0.0625000000000011
 40
0.0625000000000011
 40
0.0937500000000016
 40
0.0937500000000016
 40
0.1250000000000022
 40
0.1250000000000022
 40
0.1562500000000027
 40
0.1562500000000027
 40
0.1875000000000032
 40
0.1875000000000032
 40
0.2187500000000038
 40
0.2187500000000038
 40
0.2500000000000043
 40
0.2500000000000043
 40
0.2812500000000049
 40
0.2812500000000049
 40
0.3125000000000054
 40
0.3125000000000054
 40
0.3750000000000063
 40
0.3750000000000063
 40
0.4062500000000066
 40
0.4062500000000066
 40
0.4375000000000068
 40
0.4375000000000068
 40
0.5000000000000062
 40
0.5000000000000062
 40
0.5000000000000062
 40
0.5000000000000062
 10
11.125
 20
-13.01159523973386
 30
0.0
 10
11.02376330271263
 20
-13.03864724651695
 30
0.0
 10
10.91875434041334
 20
-13.05441768585465
 30
0.0
 10
10.6998219372948
 20
-13.05649587060872
 30
0.0
 10
10.58565504429784
 20
-13.04203538439392
 30
0.0
 10
10.36433306908852
 20
-12.97958779527628
 30
0.0
 10
10.25386240054305
 20
-12.93066318687884
 30
0.0
 10
10.04998753866612
 20
-12.80335962284303
 30
0.0
 10
9.955887873020986
 20
-12.72514830576758
 30
0.0
 10
9.789076352163569
 20
-12.54575166602605
 30
0.0
 10
9.718022202672067
 20
-12.44674722204856
 30
0.0
 10
9.600536001433193
 20
-12.23250861951093
 30
0.0
 10
9.555159683901207
 20
-12.11851015366411
 30
0.0
 10
9.49353895391432
 20
-11.88585378314764
 30
0.0
 10
9.476799814585949
 20
-11.76451266100636
 30
0.0
 10
9.473480888754688
 20
-11.52533259241783
 30
0.0
 10
9.486354225371821
 20
-11.40705029377199
 30
0.0
 10
9.541906609790429
 20
-11.17282024047877
 30
0.0
 10
9.583939125903788
 20
-11.06025657731945
 30
0.0
 10
9.694361385739578
 20
-10.84625731946299
 30
0.0
 10
9.764046986917323
 20
-10.74326010657128
 30
0.0
 10
10.00399120049174
 20
-10.46156575413967
 30
0.0
 10
10.21277179464264
 20
-10.30327029353937
 30
0.0
 10
10.54446991129009
 20
-10.12219171688679
 30
0.0
 10
10.65925898590057
 20
-10.07012567259635
 30
0.0
 10
10.87934718809656
 20
-9.98406667522589
 30
0.0
 10
10.98764418607852
 20
-9.948726825148164
 30
0.0
 10
11.29210738731387
 20
-9.863765363482678
 30
0.0
 10
11.47421747787791
 20
-9.832186275696882
 30
0.0
 10
11.63869831779571
 20
-9.819390371339235
 30
0.0
  0
SPLINE
  5
1F8
330
1F
100
AcDbEntity
  8
1
  6
SLD-Dashed
370
    18
100
AcDbSpline
210
0.0
220
0.0
230
1.0
 70
    24
 71
     3
 72
    10
 73
     6
 74
     0
 42
0.000000001
 43
0.00000001
 40
0.0
 40
0.0
 40
0.0
 40
0.0
 40
0.0560555825067823
 40
0.826796066494382
 40
1.0
 40
1.0
 40
1.0
 40
1.0
 10
19.05
 20
-35.10000000000001
 30
0.0
 10
19.05021402441966
 20
-35.10000000000002
 30
0.0
 10
19.05337079383307
 20
-35.09999999999999
 30
0.0
 10
19.16747617331639
 20
-35.10000000000002
 30
0.0
 10
19.21674842841274
 20
-35.10000000000001
 30
0.0
 10
19.22578937217727
 20
-35.10000000000001
 30
0.0
  0
SPLINE
  5
1F9
330
1F
100
AcDbEntity
  8
1
  6
SLD-Dashed
370
    18
100
AcDbSpline
210
0.0
220
0.0
230
1.0
 70
    24
 71
     3
 72
     8
 73
     4
 74
     0
 42
0.000000001
 43
0.00000001
 40
0.0
 40
0.0
 40
0.0
 40
0.0
 40
0.5
 40
0.5
 40
0.5
 40
0.5
 10
19.32612109007265
 20
-35.10000000000002
 30
0.0
 10
19.32611593961729
 20
-35.10000000000002
 30
0.0
 10
19.25867341139639
 20
-35.10000000000002
 30
0.0
 10
19.18940244946851
 20
-35.1
 30
0.0
  0
SPLINE
  5
1FA
330
1F
100
AcDbEntity
  8
1
  6
SLD-Dashed
370
    18
100
AcDbSpline
210
0.0
220
0.0
230
1.0
 70
    24
 71
     2
 72
     6
 73
     3
 74
     0
 42
0.000000001
 43
0.00000001
 40
0.5
 40
0.5
 40
0.5
 40
1.0
 40
1.0
 40
1.0
 10
19.18940244946851
 20
-35.1
 30
0.0
 10
19.1201297592261
 20
-35.1
 30
0.0
 10
19.05
 20
-35.10000000000001
 30
0.0
  0
SPLINE
  5
1FB
330
1F
100
AcDbEntity
  8
1
  6
SLD-Dashed
370
    18
100
AcDbSpline
210
0.0
220
0.0
230
1.0
 70
    24
 71
     2
 72
     6
 73
     3
 74
     0
 42
0.000000001
 43
0.00000001
 40
0.0
 40
0.0
 40
0.0
 40
0.25
 40
0.25
 40
0.25
 10
3.199999999986602
 20
-35.09999999999991
 30
0.0
 10
3.178023089471585
 20
-35.09999999999995
 30
0.0
 10
3.159393676864686
 20
-35.09999999999997
 30
0.0
  0
SPLINE
  5
1FC
330
1F
100
AcDbEntity
  8
1
  6
SLD-Dashed
370
    18
100
AcDbSpline
210
0.0
220
0.0
230
1.0
 70
    24
 71
     3
 72
     8
 73
     4
 74
     0
 42
0.000000001
 43
0.00000001
 40
0.25
 40
0.25
 40
0.25
 40
0.25
 40
0.5
 40
0.5
 40
0.5
 40
0.5
 10
3.159393676864686
 20
-35.09999999999997
 30
0.0
 10
3.140764264251639
 20
-35.09999999999999
 30
0.0
 10
3.125935313376446
 20
-35.10000000000001
 30
0.0
 10
3.125925297481347
 20
-35.10000000000001
 30
0.0
  0
SPLINE
  5
1FD
330
1F
100
AcDbEntity
  8
1
  6
SLD-Dashed
370
    18
100
AcDbSpline
210
0.0
220
0.0
230
1.0
 70
    24
 71
     3
 72
     8
 73
     4
 74
     0
 42
0.000000001
 43
0.00000001
 40
0.5
 40
0.5
 40
0.5
 40
0.5
 40
0.75
 40
0.75
 40
0.75
 40
0.75
 10
3.125925297481347
 20
-35.10000000000001
 30
0.0
 10
3.125915281586247
 20
-35.10000000000001
 30
0.0
 10
3.140736475081146
 20
-35.09999999999999
 30
0.0
 10
3.159374026153516
 20
-35.09999999999997
 30
0.0
  0
SPLINE
  5
1FE
330
1F
100
AcDbEntity
  8
1
  6
SLD-Dashed
370
    18
100
AcDbSpline
210
0.0
220
0.0
230
1.0
 70
    24
 71
     2
 72
     6
 73
     3
 74
     0
 42
0.000000001
 43
0.00000001
 40
0.75
 40
0.75
 40
0.75
 40
1.0
 40
1.0
 40
1.0
 10
3.159374026153516
 20
-35.09999999999997
 30
0.0
 10
3.178011577219739
 20
-35.09999999999994
 30
0.0
 10
3.199999999986602
 20
-35.09999999999991
 30
0.0
  0
SPLINE
  5
1FF
330
1F
100
AcDbEntity
  8
SK3
  6
SLD-Dashed
370
    18
100
AcDbSpline
210
0.0
220
0.0
230
1.0
 70
     8
 71
     3
 72
    30
 73
    26
 74
     0
 42
0.000000001
 43
0.00000001
 40
0.4999999999999964
 40
0.4999999999999964
 40
0.4999999999999964
 40
0.4999999999999964
 40
0.5624999999999966
 40
0.5624999999999966
 40
0.6249999999999966
 40
0.6249999999999966
 40
0.6562499999999969
 40
0.6562499999999969
 40
0.6874999999999972
 40
0.6874999999999972
 40
0.7187499999999976
 40
0.7187499999999976
 40
0.7499999999999978
 40
0.7499999999999978
 40
0.7812499999999981
 40
0.7812499999999981
 40
0.8124999999999984
 40
0.8124999999999984
 40
0.8437499999999988
 40
0.8437499999999988
 40
0.8749999999999991
 40
0.8749999999999991
 40
0.9374999999999996
 40
0.9374999999999996
 40
1.0
 40
1.0
 40
1.0
 40
1.0
 10
11.12563408671258
 20
-2.208076131944327
 30
0.0
 10
10.91012831143848
 20
-2.207994055743373
 30
0.0
 10
10.69273190607926
 20
-2.250950739379309
 30
0.0
 10
10.29545710457801
 20
-2.413221511274814
 30
0.0
 10
10.11161887920199
 20
-2.533970605358114
 30
0.0
 10
9.88325685805247
 20
-2.756393500522307
 30
0.0
 10
9.813570300258576
 20
-2.838822643502561
 30
0.0
 10
9.693828420307693
 20
-3.012044829892147
 30
0.0
 10
9.643049505613192
 20
-3.103292515775117
 30
0.0
 10
9.559939885115263
 20
-3.294987142140784
 30
0.0
 10
9.528110569339109
 20
-3.394937637341195
 30
0.0
 10
9.485932078998172
 20
-3.595278526154787
 30
0.0
 10
9.47509331111486
 20
-3.696889173272898
 30
0.0
 10
9.474907881274767
 20
-3.901872321533134
 30
0.0
 10
9.485524003425505
 20
-4.00214903424629
 30
0.0
 10
9.527345716529718
 20
-4.198506717829988
 30
0.0
 10
9.559089732329287
 20
-4.295610098711385
 30
0.0
 10
9.641733638388356
 20
-4.479370670401467
 30
0.0
 10
9.692330936314539
 20
-4.566117382228348
 30
0.0
 10
9.811994061612566
 20
-4.729695673261647
 30
0.0
 10
9.881475262593517
 20
-4.806554854908287
 30
0.0
 10
10.10919445985289
 20
-5.01263959631603
 30
0.0
 10
10.29295795309711
 20
-5.122781885588346
 30
0.0
 10
10.68976853487481
 20
-5.27005508488778
 30
0.0
 10
10.90666257993483
 20
-5.309061659790629
 30
0.0
 10
11.125
 20
-5.309061659790629
 30
0.0
  0
SPLINE
  5
200
330
1F
100
AcDbEntity
  8
SK3
  6
SLD-Dashed
370
    18
100
AcDbSpline
210
0.0
220
0.0
230
1.0
 70
     8
 71
     3
 72
    34
 73
    30
 74
     0
 42
0.000000001
 43
0.00000001
 40
0.0
 40
0.0
 40
0.0
 40
0.0
 40
0.0312499999999999
 40
0.0312499999999999
 40
0.0624999999999997
 40
0.0624999999999997
 40
0.0937499999999996
 40
0.0937499999999996
 40
0.1249999999999995
 40
0.1249999999999995
 40
0.1874999999999987
 40
0.1874999999999987
 40
0.2499999999999979
 40
0.2499999999999979
 40
0.2812499999999977
 40
0.2812499999999977
 40
0.3124999999999975
 40
0.3124999999999975
 40
0.3437499999999973
 40
0.3437499999999973
 40
0.3749999999999972
 40
0.3749999999999972
 40
0.4062499999999969
 40
0.4062499999999969
 40
0.4374999999999968
 40
0.4374999999999968
 40
0.4687499999999966
 40
0.4687499999999966
 40
0.4999999999999964
 40
0.4999999999999964
 40
0.4999999999999964
 40
0.4999999999999964
 10
11.125
 20
-5.309061659790622
 30
0.0
 10
11.23416871003256
 20
-5.309061659790629
 30
0.0
 10
11.34148252556931
 20
-5.299537349621533
 30
0.0
 10
11.55256160023162
 20
-5.262182100287879
 30
0.0
 10
11.65743203047544
 20
-5.233886962156417
 30
0.0
 10
11.85717198594059
 20
-5.159939537795346
 30
0.0
 10
11.95188217044846
 20
-5.114630280030598
 30
0.0
 10
12.13112457505723
 20
-5.007215473783251
 30
0.0
 10
12.21587296426144
 20
-4.94461166328352
 30
0.0
 10
12.44381779984261
 20
-4.738598197540307
 30
0.0
 10
12.56670516674999
 20
-4.571329361139999
 30
0.0
 10
12.7313866721664
 20
-4.206060482656718
 30
0.0
 10
12.77487792035799
 20
-4.004112810281388
 30
0.0
 10
12.77506064455625
 20
-3.700306253597581
 30
0.0
 10
12.76431481439132
 20
-3.596867972028031
 30
0.0
 10
12.72215926890362
 20
-3.395807648785818
 30
0.0
 10
12.69097028794157
 20
-3.29755013169792
 30
0.0
 10
12.60821939488967
 20
-3.105767645319023
 30
0.0
 10
12.55662183160312
 20
-3.012826865172895
 30
0.0
 10
12.43728120518577
 20
-2.839925186415168
 30
0.0
 10
12.36897548289651
 20
-2.758757585038262
 30
0.0
 10
12.21525208496078
 20
-2.608656191484406
 30
0.0
 10
12.13209058330412
 20
-2.541870610032922
 30
0.0
 10
11.95357507686054
 20
-2.424499981749692
 30
0.0
 10
11.85705358084936
 20
-2.373501415354265
 30
0.0
 10
11.6574094418268
 20
-2.291755408436402
 30
0.0
 10
11.55456819584584
 20
-2.260806334720915
 30
0.0
 10
11.34284591554825
 20
-2.218868681349198
 30
0.0
 10
11.23338697434964
 20
-2.208117170044807
 30
0.0
 10
11.12563408671258
 20
-2.208076131944327
 30
0.0
  0
SPLINE
  5
201
330
1F
100
AcDbEntity
  8
1
  6
SLD-Dashed
370
    18
100
AcDbSpline
210
0.0
220
0.0
230
1.0
 70
     8
 71
     3
 72
    39
 73
    35
 74
     0
 42
0.000000001
 43
0.00000001
 40
0.0
 40
0.0
 40
0.0
 40
0.0
 40
0.0147548660678452
 40
0.0494321256079502
 40
0.081479604523438
 40
0.1030306390690768
 40
0.1359710924778274
 40
0.1694252075385143
 40
0.2261322574104506
 40
0.263014679582061
 40
0.294158632686936
 40
0.3255780752458761
 40
0.3666059577537602
 40
0.3941795818700449
 40
0.4362743213801986
 40
0.4804172289416112
 40
0.4933430025502821
 40
0.5065655582441265
 40
0.5101047146683262
 40
0.555510474180114
 40
0.595607867148003
 40
0.6260817996831685
 40
0.6570930198234018
 40
0.6778923166998915
 40
0.7221213870635464
 40
0.7519182374470036
 40
0.7773216088233887
 40
0.7977498124263726
 40
0.8383169977196591
 40
0.8656739623403176
 40
0.9078313161209247
 40
0.9433706366341871
 40
0.9673231476934265
 40
1.0
 40
1.0
 40
1.0
 40
1.0
 10
61.98544707055972
 20
-25.39750799045913
 30
0.0
 10
61.98541015180983
 20
-25.39752097344317
 30
0.0
 10
61.98528646567972
 20
-25.3975644693648
 30
0.0
 10
62.10206373253377
 20
-25.35631937241135
 30
0.0
 10
62.33090290255738
 20
-25.27700919462503
 30
0.0
 10
62.64616810294402
 20
-25.17051303754508
 30
0.0
 10
63.05277682593821
 20
-25.03727684491005
 30
0.0
 10
63.75811076641297
 20
-24.8177959030833
 30
0.0
 10
64.66059768751886
 20
-24.56034084555076
 30
0.0
 10
65.68783090047961
 20
-24.30473640484416
 30
0.0
 10
66.57736801875441
 20
-24.10871473860856
 30
0.0
 10
67.56172452407694
 20
-23.91908643701797
 30
0.0
 10
68.56702912657828
 20
-23.75955899715852
 30
0.0
 10
69.72169075011395
 20
-23.61525769039
 30
0.0
 10
70.94509110329919
 20
-23.50815873555289
 30
0.0
 10
72.03357079680339
 20
-23.45272647877761
 30
0.0
 10
72.80870946423684
 20
-23.45251113745856
 30
0.0
 10
73.13589325692554
 20
-23.4506088695938
 30
0.0
 10
73.8211678390342
 20
-23.4463187688849
 30
0.0
 10
74.8016009909205
 20
-23.49031402929963
 30
0.0
 10
76.05490930826292
 20
-23.58711982689901
 30
0.0
 10
77.12352061266981
 20
-23.71156920447353
 30
0.0
 10
77.96230355911065
 20
-23.83433055914429
 30
0.0
 10
78.9074307817742
 20
-23.9961896347829
 30
0.0
 10
79.79460693767479
 20
-24.17552826624046
 30
0.0
 10
80.6524482585261
 20
-24.37589272350622
 30
0.0
 10
81.25854174153133
 20
-24.53072599139973
 30
0.0
 10
81.90158733344563
 20
-24.70582662514031
 30
0.0
 10
82.48765841914307
 20
-24.87825182125859
 30
0.0
 10
83.1012073707112
 20
-25.07045075731298
 30
0.0
 10
83.56613908543667
 20
-25.22450200963343
 30
0.0
 10
83.8655089716672
 20
-25.32760983984124
 30
0.0
 10
84.03943086160118
 20
-25.38858543729284
 30
0.0
 10
84.05458727977064
 20
-25.39397394963735
 30
0.0
 10
84.0633329906278
 20
-25.3970832839397
 30
0.0
  0
SPLINE
  5
202
330
1F
100
AcDbEntity
  8
1
  6
SLD-Dashed
370
    18
100
AcDbSpline
210
0.0
220
0.0
230
1.0
 70
     8
 71
     3
 72
    23
 73
    19
 74
     0
 42
0.000000001
 43
0.00000001
 40
0.0
 40
0.0
 40
0.0
 40
0.0
 40
0.0518393112767161
 40
0.1308553995244692
 40
0.211484614887247
 40
0.2633239514778755
 40
0.3421618584704482
 40
0.422367248927565
 40
0.4769526290376245
 40
0.5599939351430496
 40
0.6445712451209974
 40
0.7003004081760913
 40
0.7852669640683497
 40
0.8140276539762124
 40
0.8427884768726541
 40
0.8721660826821146
 40
0.9247007515568181
 40
0.9999999999999999
 40
0.9999999999999999
 40
0.9999999999999999
 40
0.9999999999999999
 10
47.52939430996
 20
23.3
 30
0.0
 10
47.26102564212331
 20
23.30847686444097
 30
0.0
 10
46.5835959389746
 20
23.32987459245511
 30
0.0
 10
45.50625516631457
 20
23.42098228475054
 30
0.0
 10
44.46664740331149
 20
23.55852286721911
 30
0.0
 10
43.4732920549902
 20
23.7296383646154
 30
0.0
 10
42.53205088185033
 20
23.92664133020725
 30
0.0
 10
41.6528106498682
 20
24.14653456469228
 30
0.0
 10
40.82963767707279
 20
24.37705717326329
 30
0.0
 10
40.0711518730407
 20
24.61135163672416
 30
0.0
 10
39.41951353894002
 20
24.83161810376373
 30
0.0
 10
38.86516516637342
 20
25.02954117956357
 30
0.0
 10
38.52929496385554
 20
25.15530865897456
 30
0.0
 10
38.30692914346512
 20
25.24045906680204
 30
0.0
 10
38.18981820728967
 20
25.28580554224838
 30
0.0
 10
38.06609537424194
 20
25.33415294167629
 30
0.0
 10
37.93361335947029
 20
25.38655794843686
 30
0.0
 10
37.91518095322372
 20
25.39393546720567
 30
0.0
 10
37.90432353473502
 20
25.398281118425
 30
0.0
  0
SPLINE
  5
203
330
1F
100
AcDbEntity
  8
1
  6
SLD-Dashed
370
    18
100
AcDbSpline
210
0.0
220
0.0
230
1.0
 70
     8
 71
     2
 72
     6
 73
     3
 74
     0
 42
0.000000001
 43
0.00000001
 40
0.0
 40
0.0
 40
0.0
 40
0.124999999999999
 40
0.124999999999999
 40
0.124999999999999
 10
58.15000000000001
 20
25.40000000000001
 30
0.0
 10
58.08701429260432
 20
25.37470688794599
 30
0.0
 10
57.96421619162712
 20
25.3265156210621
 30
0.0
  0
SPLINE
  5
204
330
1F
100
AcDbEntity
  8
1
  6
SLD-Dashed
370
    18
100
AcDbSpline
210
0.0
220
0.0
230
1.0
 70
     8
 71
     3
 72
     8
 73
     4
 74
     0
 42
0.000000001
 43
0.00000001
 40
0.124999999999999
 40
0.124999999999999
 40
0.124999999999999
 40
0.124999999999999
 40
0.1874999999999986
 40
0.1874999999999986
 40
0.1874999999999986
 40
0.1874999999999986
 10
57.96421619162712
 20
25.3265156210621
 30
0.0
 10
57.90281714113851
 20
25.30241998762016
 30
0.0
 10
57.82635500315375
 20
25.27258908812484
 30
0.0
 10
57.73458167932738
 20
25.23728098245788
 30
0.0
  0
SPLINE
  5
205
330
1F
100
AcDbEntity
  8
1
  6
SLD-Dashed
370
    18
100
AcDbSpline
210
0.0
220
0.0
230
1.0
 70
     8
 71
     3
 72
     8
 73
     4
 74
     0
 42
0.000000001
 43
0.00000001
 40
0.1874999999999986
 40
0.1874999999999986
 40
0.1874999999999986
 40
0.1874999999999986
 40
0.2499999999999983
 40
0.2499999999999983
 40
0.2499999999999983
 40
0.2499999999999983
 10
57.73458167932738
 20
25.23728098245788
 30
0.0
 10
57.64280835550098
 20
25.20197287679091
 30
0.0
 10
57.53540785390751
 20
25.1610767902801
 30
0.0
 10
57.41511710770877
 20
25.11610388369352
 30
0.0
  0
SPLINE
  5
206
330
1F
100
AcDbEntity
  8
1
  6
SLD-Dashed
370
    18
100
AcDbSpline
210
0.0
220
0.0
230
1.0
 70
     8
 71
     3
 72
     8
 73
     4
 74
     0
 42
0.000000001
 43
0.00000001
 40
0.2499999999999983
 40
0.2499999999999983
 40
0.2499999999999983
 40
0.2499999999999983
 40
0.374999999999998
 40
0.374999999999998
 40
0.374999999999998
 40
0.374999999999998
 10
57.41511710770877
 20
25.11610388369352
 30
0.0
 10
57.17453561531132
 20
25.0261580705204
 30
0.0
 10
56.880959165608
 20
24.91920883255428
 30
0.0
 10
56.5352876112341
 20
24.80059213458269
 30
0.0
  0
SPLINE
  5
207
330
1F
100
AcDbEntity
  8
1
  6
SLD-Dashed
370
    18
100
AcDbSpline
210
0.0
220
0.0
230
1.0
 70
     8
 71
     3
 72
     8
 73
     4
 74
     0
 42
0.000000001
 43
0.00000001
 40
0.374999999999998
 40
0.374999999999998
 40
0.374999999999998
 40
0.374999999999998
 40
0.4374999999999979
 40
0.4374999999999979
 40
0.4374999999999979
 40
0.4374999999999979
 10
56.5352876112341
 20
24.80059213458269
 30
0.0
 10
56.36245183404711
 20
24.74128378559689
 30
0.0
 10
56.17548594613835
 20
24.67873046364561
 30
0.0
 10
55.97763519485626
 20
24.61480817602417
 30
0.0
  0
SPLINE
  5
208
330
1F
100
AcDbEntity
  8
1
  6
SLD-Dashed
370
    18
100
AcDbSpline
210
0.0
220
0.0
230
1.0
 70
     8
 71
     3
 72
     8
 73
     4
 74
     0
 42
0.000000001
 43
0.00000001
 40
0.4999999999999978
 40
0.4999999999999978
 40
0.4999999999999978
 40
0.4999999999999978
 40
0.6249999999999978
 40
0.6249999999999978
 40
0.6249999999999978
 40
0.6249999999999978
 10
55.35307051944257
 20
24.42017593175616
 30
0.0
 10
54.91614617824931
 20
24.28906252811514
 30
0.0
 10
54.43870720522104
 20
24.15627374533932
 30
0.0
 10
53.91838022836243
 20
24.02865592404314
 30
0.0
  0
SPLINE
  5
209
330
1F
100
AcDbEntity
  8
1
  6
SLD-Dashed
370
    18
100
AcDbSpline
210
0.0
220
0.0
230
1.0
 70
     8
 71
     3
 72
     8
 73
     4
 74
     0
 42
0.000000001
 43
0.00000001
 40
0.6249999999999978
 40
0.6249999999999978
 40
0.6249999999999978
 40
0.6249999999999978
 40
0.6874999999999978
 40
0.6874999999999978
 40
0.6874999999999978
 40
0.6874999999999978
 10
53.91838022836243
 20
24.02865592404314
 30
0.0
 10
53.65821673993312
 20
23.96484701339506
 30
0.0
 10
53.38824000763115
 20
23.90264228876179
 30
0.0
 10
53.11280549824163
 20
23.84387006733466
 30
0.0
  0
SPLINE
  5
20A
330
1F
100
AcDbEntity
  8
1
  6
SLD-Dashed
370
    18
100
AcDbSpline
210
0.0
220
0.0
230
1.0
 70
     8
 71
     3
 72
     8
 73
     4
 74
     0
 42
0.000000001
 43
0.00000001
 40
0.6874999999999978
 40
0.6874999999999978
 40
0.6874999999999978
 40
0.6874999999999978
 40
0.7499999999999977
 40
0.7499999999999977
 40
0.7499999999999977
 40
0.7499999999999977
 10
53.11280549824163
 20
23.84387006733466
 30
0.0
 10
52.83737098885208
 20
23.78509784590752
 30
0.0
 10
52.55526455217377
 20
23.7294523509477
 30
0.0
 10
52.26640393282658
 20
23.6777085530124
 30
0.0
  0
SPLINE
  5
20B
330
1F
100
AcDbEntity
  8
1
  6
SLD-Dashed
370
    18
100
AcDbSpline
210
0.0
220
0.0
230
1.0
 70
     8
 71
     3
 72
     8
 73
     4
 74
     0
 42
0.000000001
 43
0.00000001
 40
0.7499999999999977
 40
0.7499999999999977
 40
0.7499999999999977
 40
0.7499999999999977
 40
0.8749999999999989
 40
0.8749999999999989
 40
0.8749999999999989
 40
0.8749999999999989
 10
52.26640393282658
 20
23.6777085530124
 30
0.0
 10
51.68868269413227
 20
23.57422095714183
 30
0.0
 10
51.08208590004218
 20
23.48605759112546
 30
0.0
 10
50.45000099739325
 20
23.42061068455219
 30
0.0
  0
SPLINE
  5
20C
330
1F
100
AcDbEntity
  8
1
  6
SLD-Dashed
370
    18
100
AcDbSpline
210
0.0
220
0.0
230
1.0
 70
     8
 71
     3
 72
     8
 73
     4
 74
     0
 42
0.000000001
 43
0.00000001
 40
0.8749999999999989
 40
0.8749999999999989
 40
0.8749999999999989
 40
0.8749999999999989
 40
1.0
 40
1.0
 40
1.0
 40
1.0
 10
50.45000099739325
 20
23.42061068455219
 30
0.0
 10
49.81791609474431
 20
23.3551637779789
 30
0.0
 10
49.17490938410752
 20
23.31391745209416
 30
0.0
 10
48.52060569003996
 20
23.3
 30
0.0
  0
SPLINE
  5
20D
330
1F
100
AcDbEntity
  8
SK3
  6
SLD-Dashed
370
    18
100
AcDbSpline
210
0.0
220
0.0
230
1.0
 70
     8
 71
     3
 72
    18
 73
    14
 74
     0
 42
0.000000001
 43
0.00000001
 40
0.0
 40
0.0
 40
0.0
 40
0.0
 40
0.0501962867734974
 40
0.1000306214437302
 40
0.1855667331187636
 40
0.250182389232072
 40
0.3747066158220824
 40
0.4998232982189783
 40
0.6247294758455333
 40
0.7494251058857277
 40
0.8746331028690638
 40
0.9372230808189287
 40
1.0
 40
1.0
 40
1.0
 40
1.0
 10
18.30000000000001
 20
46.81625358782996
 30
0.0
 10
18.30669951182796
 20
46.816091278537
 30
0.0
 10
18.32005022708195
 20
46.8157678303203
 30
0.0
 10
18.34463922095193
 20
46.81256776526226
 30
0.0
 10
18.37067201462223
 20
46.80630579793129
 30
0.0
 10
18.40500150194893
 20
46.79331555547193
 30
0.0
 10
18.44173939749913
 20
46.77247000397297
 30
0.0
 10
18.47965549617259
 20
46.73942242416845
 30
0.0
 10
18.51041281949079
 20
46.69961163074884
 30
0.0
 10
18.5330663450593
 20
46.65468875110024
 30
0.0
 10
18.54452340204194
 20
46.61434662644385
 30
0.0
 10
18.54932467505753
 20
46.58119847829341
 30
0.0
 10
18.54977466801638
 20
46.56446483112379
 30
0.0
 10
18.55
 20
46.55608553132448
 30
0.0
  0
SPLINE
  5
20E
330
1F
100
AcDbEntity
  8
SK3
  6
SLD-Dashed
370
    18
100
AcDbSpline
210
0.0
220
0.0
230
1.0
 70
     8
 71
     3
 72
    18
 73
    14
 74
     0
 42
0.000000001
 43
0.00000001
 40
0.0
 40
0.0
 40
0.0
 40
0.0
 40
0.0502196103872103
 40
0.1000870260924036
 40
0.1855086368940136
 40
0.2501550808791957
 40
0.3746583157461303
 40
0.4998570853792911
 40
0.6242312608259597
 40
0.7494324099488388
 40
0.874036659617996
 40
0.9370350243166863
 40
1.0
 40
1.0
 40
1.0
 40
1.0
 10
3.699999999999996
 20
46.55608553132444
 30
0.0
 10
3.700143854852928
 20
46.56278755186004
 30
0.0
 10
3.700430555691623
 20
46.57614459105336
 30
0.0
 10
3.703274054818809
 20
46.60076085239339
 30
0.0
 10
3.708850025263334
 20
46.62692328764687
 30
0.0
 10
3.720514169271328
 20
46.66169890756609
 30
0.0
 10
3.73945659241666
 20
46.6994198069071
 30
0.0
 10
3.770128279112287
 20
46.73918434013716
 30
0.0
 10
3.808028636439629
 20
46.77229285140235
 30
0.0
 10
3.851698646431326
 20
46.79720148409474
 30
0.0
 10
3.891711812143359
 20
46.81006094110494
 30
0.0
 10
3.924780356068899
 20
46.81548545401078
 30
0.0
 10
3.94159493769948
 20
46.81599758847395
 30
0.0
 10
3.950000000000009
 20
46.81625358782994
 30
0.0
  0
SPLINE
  5
20F
330
1F
100
AcDbEntity
  8
SK3
  6
SLD-Dashed
370
    18
100
AcDbSpline
210
0.0
220
0.0
230
1.0
 70
     8
 71
     3
 72
    16
 73
    12
 74
     0
 42
0.000000001
 43
0.00000001
 40
0.0
 40
0.0
 40
0.0
 40
0.0
 40
0.25
 40
0.25
 40
0.3750000000000001
 40
0.3750000000000001
 40
0.5000000000000002
 40
0.5000000000000002
 40
0.7500000000000001
 40
0.7500000000000001
 40
1.0
 40
1.0
 40
1.0
 40
1.0
 10
47.6
 20
9.36607041613502
 30
0.0
 10
47.12460295514889
 20
9.387642295811863
 30
0.0
 10
46.6631016741979
 20
9.444712018283347
 30
0.0
 10
45.98870996258697
 20
9.572900248153013
 30
0.0
 10
45.76690173330567
 20
9.622725176077033
 30
0.0
 10
45.32890917621602
 20
9.73482089010122
 30
0.0
 10
45.11174147614791
 20
9.797417175372413
 30
0.0
 10
44.47646167985769
 20
9.99867023235896
 30
0.0
 10
44.07522213191722
 20
10.15001460119839
 30
0.0
 10
43.30982843452328
 20
10.47162327861468
 30
0.0
 10
42.94445245841067
 20
10.64264148261117
 30
0.0
 10
42.6
 20
10.81541839412603
 30
0.0
  0
SPLINE
  5
210
330
1F
100
AcDbEntity
  8
SK3
  6
SLD-Dashed
370
    18
100
AcDbSpline
210
0.0
220
0.0
230
1.0
 70
     8
 71
     3
 72
    14
 73
    10
 74
     0
 42
0.000000001
 43
0.00000001
 40
0.0
 40
0.0
 40
0.0
 40
0.0
 40
0.2499999999999998
 40
0.2499999999999998
 40
0.4999999999999997
 40
0.4999999999999997
 40
0.7499999999999998
 40
0.7499999999999998
 40
1.0
 40
1.0
 40
1.0
 40
1.0
 10
42.6
 20
10.81541839412603
 30
0.0
 10
42.94495913000562
 20
10.64238733678875
 30
0.0
 10
43.30770996840536
 20
10.47259474831365
 30
0.0
 10
44.07202941119836
 20
10.15127538766211
 30
0.0
 10
44.47353662627199
 20
9.99965092191351
 30
0.0
 10
45.32364226713315
 20
9.730234327400014
 30
0.0
 10
45.76222117136236
 20
9.616024502443011
 30
0.0
 10
46.66157479897101
 20
9.44492919417899
 30
0.0
 10
47.12356175099361
 20
9.387689542068436
 30
0.0
 10
47.6
 20
9.36607041613502
 30
0.0
  0
SPLINE
  5
211
330
1F
100
AcDbEntity
  8
SK3
  6
SLD-Dashed
370
    18
100
AcDbSpline
210
0.0
220
0.0
230
1.0
 70
     8
 71
     3
 72
    30
 73
    26
 74
     0
 42
0.000000001
 43
0.00000001
 40
0.4999999999999968
 40
0.4999999999999968
 40
0.4999999999999968
 40
0.4999999999999968
 40
0.5312499999999967
 40
0.5312499999999967
 40
0.5624999999999967
 40
0.5624999999999967
 40
0.6249999999999966
 40
0.6249999999999966
 40
0.6562499999999966
 40
0.6562499999999966
 40
0.6874999999999967
 40
0.6874999999999967
 40
0.7499999999999968
 40
0.7499999999999968
 40
0.812499999999997
 40
0.812499999999997
 40
0.8437499999999974
 40
0.8437499999999974
 40
0.8749999999999978
 40
0.8749999999999978
 40
0.9062499999999982
 40
0.9062499999999982
 40
0.9374999999999986
 40
0.9374999999999986
 40
1.0
 40
1.0
 40
1.0
 40
1.0
 10
56.68639495756245
 20
12.49999650603503
 30
0.0
 10
56.68672061977325
 20
12.50022216122056
 30
0.0
 10
56.67131454570645
 20
12.48953140869813
 30
0.0
 10
56.6088052802996
 20
12.44633892659451
 30
0.0
 10
56.5611709698661
 20
12.41347239682099
 30
0.0
 10
56.37391985815115
 20
12.28520822604311
 30
0.0
 10
56.19106997197854
 20
12.16071903849529
 30
0.0
 10
55.83502449034031
 20
11.92554788075619
 30
0.0
 10
55.70284600666636
 20
11.83923465683627
 30
0.0
 10
55.41736922183716
 20
11.65612631492623
 30
0.0
 10
55.26347240165236
 20
11.55892870923043
 30
0.0
 10
54.76916880058175
 20
11.25374442010719
 30
0.0
 10
54.39293988184285
 20
11.03017562739999
 30
0.0
 10
53.57619554894044
 20
10.57969224765544
 30
0.0
 10
53.13445585797957
 20
10.35155127193077
 30
0.0
 10
52.41489266832816
 20
10.02276353168793
 30
0.0
 10
52.16457673035993
 20
9.915187538350308
 30
0.0
 10
51.65244686945705
 20
9.712528980901594
 30
0.0
 10
51.38965180767624
 20
9.616948353349995
 30
0.0
 10
50.84914119778233
 20
9.44142930647228
 30
0.0
 10
50.57143176725956
 20
9.361482610199436
 30
0.0
 10
49.99886846740728
 20
9.222212242319221
 30
0.0
 10
49.70321421355545
 20
9.163018914909122
 30
0.0
 10
48.81503509219451
 20
9.028386128235228
 30
0.0
 10
48.21299867287509
 20
8.993917938146405
 30
0.0
 10
47.6
 20
9.022791975879782
 30
0.0
  0
SPLINE
  5
212
330
1F
100
AcDbEntity
  8
SK3
  6
SLD-Dashed
370
    18
100
AcDbSpline
210
0.0
220
0.0
230
1.0
 70
     8
 71
     3
 72
    30
 73
    26
 74
     0
 42
0.000000001
 43
0.00000001
 40
0.0
 40
0.0
 40
0.0
 40
0.0
 40
0.0624999999999988
 40
0.0624999999999988
 40
0.0937499999999985
 40
0.0937499999999985
 40
0.1249999999999982
 40
0.1249999999999982
 40
0.156249999999998
 40
0.156249999999998
 40
0.1874999999999977
 40
0.1874999999999977
 40
0.2499999999999977
 40
0.2499999999999977
 40
0.2812499999999975
 40
0.2812499999999975
 40
0.3124999999999973
 40
0.3124999999999973
 40
0.3749999999999971
 40
0.3749999999999971
 40
0.4374999999999969
 40
0.4374999999999969
 40
0.4687499999999969
 40
0.4687499999999969
 40
0.4999999999999968
 40
0.4999999999999968
 40
0.4999999999999968
 40
0.4999999999999968
 10
47.59999999999997
 20
9.022791975879775
 30
0.0
 10
48.21208041544167
 20
8.993961190768236
 30
0.0
 10
48.81300462037086
 20
9.028287773168685
 30
0.0
 10
49.69928170885085
 20
9.16231897387055
 30
0.0
 10
49.99422084733482
 20
9.22121740518335
 30
0.0
 10
50.56679716072202
 20
9.360221818650066
 30
0.0
 10
50.84471758854831
 20
9.44009677312932
 30
0.0
 10
51.38595536602583
 20
9.615645624673146
 30
0.0
 10
51.64926725255523
 20
9.711327153277466
 30
0.0
 10
52.16266913055143
 20
9.914376823278301
 30
0.0
 10
52.41233964177605
 20
10.02165456991792
 30
0.0
 10
53.13037949284921
 20
10.3495745995588
 30
0.0
 10
53.57300897914302
 20
10.57796547675032
 30
0.0
 10
54.1886007822748
 20
10.91745504373278
 30
0.0
 10
54.38528649769992
 20
11.03000388415371
 30
0.0
 10
54.75529757337155
 20
11.247428451773
 30
0.0
 10
54.92961932960816
 20
11.352854839436
 30
0.0
 10
55.42090900046121
 20
11.65603704082681
 30
0.0
 10
55.70688201465496
 20
11.84099489320795
 30
0.0
 10
56.18542886641897
 20
12.1569094780615
 30
0.0
 10
56.36891201841276
 20
12.28180137038004
 30
0.0
 10
56.55726083681733
 20
12.41078288425437
 30
0.0
 10
56.60562469951275
 20
12.44414434697444
 30
0.0
 10
56.67001339786887
 20
12.48862942615322
 30
0.0
 10
56.68606929535164
 20
12.49977085084951
 30
0.0
 10
56.68639495756245
 20
12.49999650603503
 30
0.0
  0
SPLINE
  5
213
330
1F
100
AcDbEntity
  8
SK3
  6
SLD-Dashed
370
    18
100
AcDbSpline
210
0.0
220
0.0
230
1.0
 70
     8
 71
     2
 72
     6
 73
     3
 74
     0
 42
0.000000001
 43
0.00000001
 40
0.0
 40
0.0
 40
0.0
 40
0.0312500000000013
 40
0.0312500000000013
 40
0.0312500000000013
 10
64.36359999999999
 20
12.49999999999998
 30
0.0
 10
64.4241560740379
 20
12.45782518631829
 30
0.0
 10
64.54115573157557
 20
12.37763158325847
 30
0.0
  0
SPLINE
  5
214
330
1F
100
AcDbEntity
  8
SK3
  6
SLD-Dashed
370
    18
100
AcDbSpline
210
0.0
220
0.0
230
1.0
 70
     8
 71
     3
 72
     8
 73
     4
 74
     0
 42
0.000000001
 43
0.00000001
 40
0.0312500000000013
 40
0.0312500000000013
 40
0.0312500000000013
 40
0.0312500000000013
 40
0.0625000000000027
 40
0.0625000000000027
 40
0.0625000000000027
 40
0.0625000000000027
 10
64.54115573157557
 20
12.37763158325847
 30
0.0
 10
64.6581553891132
 20
12.29743798019865
 30
0.0
 10
64.83459031808836
 20
12.17723616786364
 30
0.0
 10
65.05745475607868
 20
12.02962706213011
 30
0.0
  0
SPLINE
  5
215
330
1F
100
AcDbEntity
  8
SK3
  6
SLD-Dashed
370
    18
100
AcDbSpline
210
0.0
220
0.0
230
1.0
 70
     8
 71
     3
 72
     8
 73
     4
 74
     0
 42
0.000000001
 43
0.00000001
 40
0.0625000000000027
 40
0.0625000000000027
 40
0.0625000000000027
 40
0.0625000000000027
 40
0.093750000000004
 40
0.093750000000004
 40
0.093750000000004
 40
0.093750000000004
 10
65.05745475607868
 20
12.02962706213011
 30
0.0
 10
65.28031919406898
 20
11.88201795639655
 30
0.0
 10
65.55138488908169
 20
11.70574214951665
 30
0.0
 10
65.86595666871008
 20
11.51008477202856
 30
0.0
  0
SPLINE
  5
216
330
1F
100
AcDbEntity
  8
SK3
  6
SLD-Dashed
370
    18
100
AcDbSpline
210
0.0
220
0.0
230
1.0
 70
     8
 71
     3
 72
     8
 73
     4
 74
     0
 42
0.000000001
 43
0.00000001
 40
0.093750000000004
 40
0.093750000000004
 40
0.093750000000004
 40
0.093750000000004
 40
0.1250000000000053
 40
0.1250000000000053
 40
0.1250000000000053
 40
0.1250000000000053
 10
65.86595666871008
 20
11.51008477202856
 30
0.0
 10
66.18052844833849
 20
11.31442739454044
 30
0.0
 10
66.53174706297027
 20
11.10358762745674
 30
0.0
 10
66.91907069951381
 20
10.8863456982835
 30
0.0
  0
SPLINE
  5
217
330
1F
100
AcDbEntity
  8
SK3
  6
SLD-Dashed
370
    18
100
AcDbSpline
210
0.0
220
0.0
230
1.0
 70
     8
 71
     3
 72
     8
 73
     4
 74
     0
 42
0.000000001
 43
0.00000001
 40
0.1250000000000053
 40
0.1250000000000053
 40
0.1250000000000053
 40
0.1250000000000053
 40
0.1562500000000066
 40
0.1562500000000066
 40
0.1562500000000066
 40
0.1562500000000066
 10
66.91907069951381
 20
10.8863456982835
 30
0.0
 10
67.30639433605731
 20
10.66910376911025
 30
0.0
 10
67.73356519758434
 20
10.44367248487493
 30
0.0
 10
68.18633979709726
 20
10.22950549142795
 30
0.0
  0
SPLINE
  5
218
330
1F
100
AcDbEntity
  8
SK3
  6
SLD-Dashed
370
    18
100
AcDbSpline
210
0.0
220
0.0
230
1.0
 70
     8
 71
     3
 72
     8
 73
     4
 74
     0
 42
0.000000001
 43
0.00000001
 40
0.1562500000000066
 40
0.1562500000000066
 40
0.1562500000000066
 40
0.1562500000000066
 40
0.1875000000000079
 40
0.1875000000000079
 40
0.1875000000000079
 40
0.1875000000000079
 10
68.18633979709726
 20
10.22950549142795
 30
0.0
 10
68.63911439661017
 20
10.01533849798097
 30
0.0
 10
69.11951566322175
 20
9.810775927929408
 30
0.0
 10
69.63374179991924
 20
9.629682352996612
 30
0.0
  0
SPLINE
  5
219
330
1F
100
AcDbEntity
  8
SK3
  6
SLD-Dashed
370
    18
100
AcDbSpline
210
0.0
220
0.0
230
1.0
 70
     8
 71
     3
 72
     8
 73
     4
 74
     0
 42
0.000000001
 43
0.00000001
 40
0.1875000000000079
 40
0.1875000000000079
 40
0.1875000000000079
 40
0.1875000000000079
 40
0.2031250000000083
 40
0.2031250000000083
 40
0.2031250000000083
 40
0.2031250000000083
 10
69.63374179991924
 20
9.629682352996612
 30
0.0
 10
69.89085486826802
 20
9.53913556553023
 30
0.0
 10
70.15818883204314
 20
9.454091934861998
 30
0.0
 10
70.43133374644559
 20
9.378552909421947
 30
0.0
  0
SPLINE
  5
21A
330
1F
100
AcDbEntity
  8
SK3
  6
SLD-Dashed
370
    18
100
AcDbSpline
210
0.0
220
0.0
230
1.0
 70
     8
 71
     3
 72
     8
 73
     4
 74
     0
 42
0.000000001
 43
0.00000001
 40
0.2031250000000083
 40
0.2031250000000083
 40
0.2031250000000083
 40
0.2031250000000083
 40
0.2187500000000087
 40
0.2187500000000087
 40
0.2187500000000087
 40
0.2187500000000087
 10
70.43133374644559
 20
9.378552909421947
 30
0.0
 10
70.70447866084808
 20
9.303013883981887
 30
0.0
 10
70.98211627159182
 20
9.237242017394578
 30
0.0
 10
71.2646352201439
 20
9.183084133239635
 30
0.0
  0
SPLINE
  5
21B
330
1F
100
AcDbEntity
  8
SK3
  6
SLD-Dashed
370
    18
100
AcDbSpline
210
0.0
220
0.0
230
1.0
 70
     8
 71
     3
 72
     8
 73
     4
 74
     0
 42
0.000000001
 43
0.00000001
 40
0.2187500000000087
 40
0.2187500000000087
 40
0.2187500000000087
 40
0.2187500000000087
 40
0.2343750000000091
 40
0.2343750000000091
 40
0.2343750000000091
 40
0.2343750000000091
 10
71.2646352201439
 20
9.183084133239635
 30
0.0
 10
71.54715416869598
 20
9.128926249084707
 30
0.0
 10
71.83455432594629
 20
9.086386766345585
 30
0.0
 10
72.12734866126085
 20
9.057368710941386
 30
0.0
  0
SPLINE
  5
21C
330
1F
100
AcDbEntity
  8
SK3
  6
SLD-Dashed
370
    18
100
AcDbSpline
210
0.0
220
0.0
230
1.0
 70
     8
 71
     3
 72
     8
 73
     4
 74
     0
 42
0.000000001
 43
0.00000001
 40
0.2343750000000091
 40
0.2343750000000091
 40
0.2343750000000091
 40
0.2343750000000091
 40
0.2500000000000095
 40
0.2500000000000095
 40
0.2500000000000095
 40
0.2500000000000095
 10
72.12734866126085
 20
9.057368710941386
 30
0.0
 10
72.42014299657542
 20
9.028350655537185
 30
0.0
 10
72.71844368270702
 20
9.013192205535578
 30
0.0
 10
73.01254102548316
 20
9.01278565517042
 30
0.0
  0
SPLINE
  5
21D
330
1F
100
AcDbEntity
  8
SK3
  6
SLD-Dashed
370
    18
100
AcDbSpline
210
0.0
220
0.0
230
1.0
 70
     8
 71
     3
 72
     8
 73
     4
 74
     0
 42
0.000000001
 43
0.00000001
 40
0.2500000000000095
 40
0.2500000000000095
 40
0.2500000000000095
 40
0.2500000000000095
 40
0.2812500000000095
 40
0.2812500000000095
 40
0.2812500000000095
 40
0.2812500000000095
 10
73.01254102548316
 20
9.01278565517042
 30
0.0
 10
73.60073571103548
 20
9.011972554440133
 30
0.0
 10
74.18360365964432
 20
9.069523690023646
 30
0.0
 10
74.75624801803046
 20
9.177547043733309
 30
0.0
  0
SPLINE
  5
21E
330
1F
100
AcDbEntity
  8
SK3
  6
SLD-Dashed
370
    18
100
AcDbSpline
210
0.0
220
0.0
230
1.0
 70
     8
 71
     3
 72
     8
 73
     4
 74
     0
 42
0.000000001
 43
0.00000001
 40
0.2812500000000095
 40
0.2812500000000095
 40
0.2812500000000095
 40
0.2812500000000095
 40
0.3125000000000096
 40
0.3125000000000096
 40
0.3125000000000096
 40
0.3125000000000096
 10
74.75624801803046
 20
9.177547043733309
 30
0.0
 10
75.32889237641658
 20
9.285570397442974
 30
0.0
 10
75.87151130300204
 20
9.439088699550638
 30
0.0
 10
76.39049260458988
 20
9.620638778768745
 30
0.0
  0
SPLINE
  5
21F
330
1F
100
AcDbEntity
  8
SK3
  6
SLD-Dashed
370
    18
100
AcDbSpline
210
0.0
220
0.0
230
1.0
 70
     8
 71
     3
 72
     8
 73
     4
 74
     0
 42
0.000000001
 43
0.00000001
 40
0.3125000000000096
 40
0.3125000000000096
 40
0.3125000000000096
 40
0.3125000000000096
 40
0.3281250000000096
 40
0.3281250000000096
 40
0.3281250000000096
 40
0.3281250000000096
 10
76.39049260458988
 20
9.620638778768745
 30
0.0
 10
76.64998325538377
 20
9.711413818377805
 30
0.0
 10
76.9034489723808
 20
9.809362206423353
 30
0.0
 10
77.14668256679566
 20
9.910520532314496
 30
0.0
  0
SPLINE
  5
220
330
1F
100
AcDbEntity
  8
SK3
  6
SLD-Dashed
370
    18
100
AcDbSpline
210
0.0
220
0.0
230
1.0
 70
     8
 71
     3
 72
     8
 73
     4
 74
     0
 42
0.000000001
 43
0.00000001
 40
0.3281250000000096
 40
0.3281250000000096
 40
0.3281250000000096
 40
0.3281250000000096
 40
0.3437500000000096
 40
0.3437500000000096
 40
0.3437500000000096
 40
0.3437500000000096
 10
77.14668256679566
 20
9.910520532314496
 30
0.0
 10
77.3899161612105
 20
10.01167885820565
 30
0.0
 10
77.62429823471248
 20
10.11651413975385
 30
0.0
 10
77.85069669879697
 20
10.2233800021705
 30
0.0
  0
SPLINE
  5
221
330
1F
100
AcDbEntity
  8
SK3
  6
SLD-Dashed
370
    18
100
AcDbSpline
210
0.0
220
0.0
230
1.0
 70
     8
 71
     3
 72
     8
 73
     4
 74
     0
 42
0.000000001
 43
0.00000001
 40
0.3437500000000096
 40
0.3437500000000096
 40
0.3437500000000096
 40
0.3437500000000096
 40
0.3750000000000096
 40
0.3750000000000096
 40
0.3750000000000096
 40
0.3750000000000096
 10
77.85069669879697
 20
10.2233800021705
 30
0.0
 10
78.3034936269659
 20
10.43711172700382
 30
0.0
 10
78.72468722431621
 20
10.65885670296286
 30
0.0
 10
79.11645996595773
 20
10.87823673932799
 30
0.0
  0
SPLINE
  5
222
330
1F
100
AcDbEntity
  8
SK3
  6
SLD-Dashed
370
    18
100
AcDbSpline
210
0.0
220
0.0
230
1.0
 70
     8
 71
     3
 72
     8
 73
     4
 74
     0
 42
0.000000001
 43
0.00000001
 40
0.3750000000000096
 40
0.3750000000000096
 40
0.3750000000000096
 40
0.3750000000000096
 40
0.4062500000000097
 40
0.4062500000000097
 40
0.4062500000000097
 40
0.4062500000000097
 10
79.11645996595773
 20
10.87823673932799
 30
0.0
 10
79.50823270759916
 20
11.09761677569313
 30
0.0
 10
79.85973471548242
 20
11.3085857170457
 30
0.0
 10
80.17139666827475
 20
11.50222306253571
 30
0.0
  0
SPLINE
  5
223
330
1F
100
AcDbEntity
  8
SK3
  6
SLD-Dashed
370
    18
100
AcDbSpline
210
0.0
220
0.0
230
1.0
 70
     8
 71
     3
 72
     8
 73
     4
 74
     0
 42
0.000000001
 43
0.00000001
 40
0.4062500000000097
 40
0.4062500000000097
 40
0.4062500000000097
 40
0.4062500000000097
 40
0.4218750000000097
 40
0.4218750000000097
 40
0.4218750000000097
 40
0.4218750000000097
 10
80.17139666827475
 20
11.50222306253571
 30
0.0
 10
80.3272276446709
 20
11.59904173528072
 30
0.0
 10
80.4731147261734
 20
11.6916125299258
 30
0.0
 10
80.6086777258278
 20
11.77889289743381
 30
0.0
  0
SPLINE
  5
224
330
1F
100
AcDbEntity
  8
SK3
  6
SLD-Dashed
370
    18
100
AcDbSpline
210
0.0
220
0.0
230
1.0
 70
     8
 71
     3
 72
     8
 73
     4
 74
     0
 42
0.000000001
 43
0.00000001
 40
0.4218750000000097
 40
0.4218750000000097
 40
0.4218750000000097
 40
0.4218750000000097
 40
0.4375000000000097
 40
0.4375000000000097
 40
0.4375000000000097
 40
0.4375000000000097
 10
80.6086777258278
 20
11.77889289743381
 30
0.0
 10
80.74424072548223
 20
11.86617326494181
 30
0.0
 10
80.87010309178444
 20
11.94858146838874
 30
0.0
 10
80.98324930112338
 20
12.02347212658766
 30
0.0
  0
SPLINE
  5
225
330
1F
100
AcDbEntity
  8
SK3
  6
SLD-Dashed
370
    18
100
AcDbSpline
210
0.0
220
0.0
230
1.0
 70
     8
 71
     3
 72
     8
 73
     4
 74
     0
 42
0.000000001
 43
0.00000001
 40
0.4375000000000097
 40
0.4375000000000097
 40
0.4375000000000097
 40
0.4375000000000097
 40
0.4687500000000094
 40
0.4687500000000094
 40
0.4687500000000094
 40
0.4687500000000094
 10
80.98324930112338
 20
12.02347212658766
 30
0.0
 10
81.20954171980124
 20
12.17325344298549
 30
0.0
 10
81.38368467573746
 20
12.29187516936639
 30
0.0
 10
81.50309088713922
 20
12.37368882470352
 30
0.0
  0
SPLINE
  5
226
330
1F
100
AcDbEntity
  8
SK3
  6
SLD-Dashed
370
    18
100
AcDbSpline
210
0.0
220
0.0
230
1.0
 70
     8
 71
     3
 72
     8
 73
     4
 74
     0
 42
0.000000001
 43
0.00000001
 40
0.4687500000000094
 40
0.4687500000000094
 40
0.4687500000000094
 40
0.4687500000000094
 40
0.4843750000000093
 40
0.4843750000000093
 40
0.4843750000000093
 40
0.4843750000000093
 10
81.50309088713922
 20
12.37368882470352
 30
0.0
 10
81.56279399284008
 20
12.41459565237209
 30
0.0
 10
81.60886245376648
 20
12.44637912968488
 30
0.0
 10
81.63952183118941
 20
12.46756337140656
 30
0.0
  0
SPLINE
  5
227
330
1F
100
AcDbEntity
  8
SK3
  6
SLD-Dashed
370
    18
100
AcDbSpline
210
0.0
220
0.0
230
1.0
 70
     8
 71
     3
 72
     8
 73
     4
 74
     0
 42
0.000000001
 43
0.00000001
 40
0.4843750000000093
 40
0.4843750000000093
 40
0.4843750000000093
 40
0.4843750000000093
 40
0.5000000000000091
 40
0.5000000000000091
 40
0.5000000000000091
 40
0.5000000000000091
 10
81.63952183118941
 20
12.46756337140656
 30
0.0
 10
81.67018120861228
 20
12.48874761312824
 30
0.0
 10
81.68569409188703
 20
12.49951074697309
 30
0.0
 10
81.68637668924802
 20
12.4999837869598
 30
0.0
  0
SPLINE
  5
228
330
1F
100
AcDbEntity
  8
SK3
  6
SLD-Dashed
370
    18
100
AcDbSpline
210
0.0
220
0.0
230
1.0
 70
     8
 71
     3
 72
     8
 73
     4
 74
     0
 42
0.000000001
 43
0.00000001
 40
0.5156250000000089
 40
0.5156250000000089
 40
0.5156250000000089
 40
0.5156250000000089
 40
0.5312500000000087
 40
0.5312500000000087
 40
0.5312500000000087
 40
0.5312500000000087
 10
81.64378565985639
 20
12.47050986489909
 30
0.0
 10
81.61465972165641
 20
12.45037995672311
 30
0.0
 10
81.57006819521925
 20
12.41960230973466
 30
0.0
 10
81.51148741696726
 20
12.37944339291325
 30
0.0
  0
SPLINE
  5
229
330
1F
100
AcDbEntity
  8
SK3
  6
SLD-Dashed
370
    18
100
AcDbSpline
210
0.0
220
0.0
230
1.0
 70
     8
 71
     3
 72
     8
 73
     4
 74
     0
 42
0.000000001
 43
0.00000001
 40
0.5312500000000087
 40
0.5312500000000087
 40
0.5312500000000087
 40
0.5312500000000087
 40
0.5625000000000083
 40
0.5625000000000083
 40
0.5625000000000083
 40
0.5625000000000083
 10
81.51148741696726
 20
12.37944339291325
 30
0.0
 10
81.39432586046335
 20
12.29912555927044
 30
0.0
 10
81.22214014259507
 20
12.1817540268204
 30
0.0
 10
80.99822747275701
 20
12.03339130803643
 30
0.0
  0
SPLINE
  5
22A
330
1F
100
AcDbEntity
  8
SK3
  6
SLD-Dashed
370
    18
100
AcDbSpline
210
0.0
220
0.0
230
1.0
 70
     8
 71
     3
 72
     8
 73
     4
 74
     0
 42
0.000000001
 43
0.00000001
 40
0.5625000000000083
 40
0.5625000000000083
 40
0.5625000000000083
 40
0.5625000000000083
 40
0.5781250000000081
 40
0.5781250000000081
 40
0.5781250000000081
 40
0.5781250000000081
 10
80.99822747275701
 20
12.03339130803643
 30
0.0
 10
80.88627113783795
 20
11.95920994864445
 30
0.0
 10
80.76120573310769
 20
11.87722012851361
 30
0.0
 10
80.62607145199726
 20
11.79009911995518
 30
0.0
  0
SPLINE
  5
22B
330
1F
100
AcDbEntity
  8
SK3
  6
SLD-Dashed
370
    18
100
AcDbSpline
210
0.0
220
0.0
230
1.0
 70
     8
 71
     3
 72
     8
 73
     4
 74
     0
 42
0.000000001
 43
0.00000001
 40
0.5781250000000081
 40
0.5781250000000081
 40
0.5781250000000081
 40
0.5781250000000081
 40
0.5937500000000079
 40
0.5937500000000079
 40
0.5937500000000079
 40
0.5937500000000079
 10
80.62607145199726
 20
11.79009911995518
 30
0.0
 10
80.4909371708869
 20
11.70297811139674
 30
0.0
 10
80.3451536926908
 20
11.61033439855746
 30
0.0
 10
80.18903899113
 20
11.51319263742385
 30
0.0
  0
SPLINE
  5
22C
330
1F
100
AcDbEntity
  8
SK3
  6
SLD-Dashed
370
    18
100
AcDbSpline
210
0.0
220
0.0
230
1.0
 70
     8
 71
     3
 72
     8
 73
     4
 74
     0
 42
0.000000001
 43
0.00000001
 40
0.5937500000000079
 40
0.5937500000000079
 40
0.5937500000000079
 40
0.5937500000000079
 40
0.6093750000000077
 40
0.6093750000000077
 40
0.6093750000000077
 40
0.6093750000000077
 10
80.18903899113
 20
11.51319263742385
 30
0.0
 10
80.03292428956927
 20
11.41605087629023
 30
0.0
 10
79.86647764086
 20
11.3144040986776
 30
0.0
 10
79.68959912300258
 20
11.20923866773863
 30
0.0
  0
SPLINE
  5
22D
330
1F
100
AcDbEntity
  8
SK3
  6
SLD-Dashed
370
    18
100
AcDbSpline
210
0.0
220
0.0
230
1.0
 70
     8
 71
     3
 72
     8
 73
     4
 74
     0
 42
0.000000001
 43
0.00000001
 40
0.6093750000000077
 40
0.6093750000000077
 40
0.6093750000000077
 40
0.6093750000000077
 40
0.6250000000000074
 40
0.6250000000000074
 40
0.6250000000000074
 40
0.6250000000000074
 10
79.68959912300258
 20
11.20923866773863
 30
0.0
 10
79.51272060514519
 20
11.10407323679966
 30
0.0
 10
79.32583752554784
 20
10.99567465468817
 30
0.0
 10
79.13165657493457
 20
10.88675362834082
 30
0.0
  0
SPLINE
  5
22E
330
1F
100
AcDbEntity
  8
SK3
  6
SLD-Dashed
370
    18
100
AcDbSpline
210
0.0
220
0.0
230
1.0
 70
     8
 71
     3
 72
     8
 73
     4
 74
     0
 42
0.000000001
 43
0.00000001
 40
0.6250000000000074
 40
0.6250000000000074
 40
0.6250000000000074
 40
0.6250000000000074
 40
0.6562500000000071
 40
0.6562500000000071
 40
0.6562500000000071
 40
0.6562500000000071
 10
79.13165657493457
 20
10.88675362834082
 30
0.0
 10
78.743294673708
 20
10.66891157564611
 30
0.0
 10
78.32325807063658
 20
10.4470540382257
 30
0.0
 10
77.86810084875337
 20
10.23160671015045
 30
0.0
  0
SPLINE
  5
22F
330
1F
100
AcDbEntity
  8
SK3
  6
SLD-Dashed
370
    18
100
AcDbSpline
210
0.0
220
0.0
230
1.0
 70
     8
 71
     3
 72
     8
 73
     4
 74
     0
 42
0.000000001
 43
0.00000001
 40
0.6562500000000071
 40
0.6562500000000071
 40
0.6562500000000071
 40
0.6562500000000071
 40
0.6718750000000069
 40
0.6718750000000069
 40
0.6718750000000069
 40
0.6718750000000069
 10
77.86810084875337
 20
10.23160671015045
 30
0.0
 10
77.6405222378118
 20
10.12388304611284
 30
0.0
 10
77.40285608739012
 20
10.01731188968226
 30
0.0
 10
77.15873731090439
 20
9.915540035497987
 30
0.0
  0
SPLINE
  5
230
330
1F
100
AcDbEntity
  8
SK3
  6
SLD-Dashed
370
    18
100
AcDbSpline
210
0.0
220
0.0
230
1.0
 70
     8
 71
     3
 72
     8
 73
     4
 74
     0
 42
0.000000001
 43
0.00000001
 40
0.6718750000000069
 40
0.6718750000000069
 40
0.6718750000000069
 40
0.6718750000000069
 40
0.6875000000000067
 40
0.6875000000000067
 40
0.6875000000000067
 40
0.6875000000000067
 10
77.15873731090439
 20
9.915540035497987
 30
0.0
 10
76.91461853441875
 20
9.813768181313707
 30
0.0
 10
76.66422027498353
 20
9.71679259306927
 30
0.0
 10
76.40695601345143
 20
9.626410365080037
 30
0.0
  0
SPLINE
  5
231
330
1F
100
AcDbEntity
  8
SK3
  6
SLD-Dashed
370
    18
100
AcDbSpline
210
0.0
220
0.0
230
1.0
 70
     8
 71
     3
 72
     8
 73
     4
 74
     0
 42
0.000000001
 43
0.00000001
 40
0.6875000000000067
 40
0.6875000000000067
 40
0.6875000000000067
 40
0.6875000000000067
 40
0.7031250000000064
 40
0.7031250000000064
 40
0.7031250000000064
 40
0.7031250000000064
 10
76.40695601345143
 20
9.626410365080037
 30
0.0
 10
76.14969175191935
 20
9.536028137090799
 30
0.0
 10
75.88556605335988
 20
9.4522320509723
 30
0.0
 10
75.61366218472493
 20
9.377170252620171
 30
0.0
  0
SPLINE
  5
232
330
1F
100
AcDbEntity
  8
SK3
  6
SLD-Dashed
370
    18
100
AcDbSpline
210
0.0
220
0.0
230
1.0
 70
     8
 71
     3
 72
     8
 73
     4
 74
     0
 42
0.000000001
 43
0.00000001
 40
0.7031250000000064
 40
0.7031250000000064
 40
0.7031250000000064
 40
0.7031250000000064
 40
0.7187500000000062
 40
0.7187500000000062
 40
0.7187500000000062
 40
0.7187500000000062
 10
75.61366218472493
 20
9.377170252620171
 30
0.0
 10
75.34175831608994
 20
9.302108454268044
 30
0.0
 10
75.06006121873274
 20
9.235430450009915
 30
0.0
 10
74.77474494411868
 20
9.181054264596678
 30
0.0
  0
SPLINE
  5
233
330
1F
100
AcDbEntity
  8
SK3
  6
SLD-Dashed
370
    18
100
AcDbSpline
210
0.0
220
0.0
230
1.0
 70
     8
 71
     3
 72
     8
 73
     4
 74
     0
 42
0.000000001
 43
0.00000001
 40
0.7187500000000062
 40
0.7187500000000062
 40
0.7187500000000062
 40
0.7187500000000062
 40
0.7500000000000058
 40
0.7500000000000058
 40
0.7500000000000058
 40
0.7500000000000058
 10
74.77474494411868
 20
9.181054264596678
 30
0.0
 10
74.20411239489059
 20
9.072301893770195
 30
0.0
 10
73.62241304259756
 20
9.01299651297719
 30
0.0
 10
73.02832021447611
 20
9.012777655297178
 30
0.0
  0
SPLINE
  5
234
330
1F
100
AcDbEntity
  8
SK3
  6
SLD-Dashed
370
    18
100
AcDbSpline
210
0.0
220
0.0
230
1.0
 70
     8
 71
     3
 72
     8
 73
     4
 74
     0
 42
0.000000001
 43
0.00000001
 40
0.7500000000000058
 40
0.7500000000000058
 40
0.7500000000000058
 40
0.7500000000000058
 40
0.7656250000000057
 40
0.7656250000000057
 40
0.7656250000000057
 40
0.7656250000000057
 10
73.02832021447611
 20
9.012777655297178
 30
0.0
 10
72.73127380041544
 20
9.012668226457167
 30
0.0
 10
72.43383623561184
 20
9.027481090814637
 30
0.0
 10
72.142258446061
 20
9.055903195764097
 30
0.0
  0
SPLINE
  5
235
330
1F
100
AcDbEntity
  8
SK3
  6
SLD-Dashed
370
    18
100
AcDbSpline
210
0.0
220
0.0
230
1.0
 70
     8
 71
     3
 72
     8
 73
     4
 74
     0
 42
0.000000001
 43
0.00000001
 40
0.7656250000000057
 40
0.7656250000000057
 40
0.7656250000000057
 40
0.7656250000000057
 40
0.7812500000000056
 40
0.7812500000000056
 40
0.7812500000000056
 40
0.7812500000000056
 10
72.142258446061
 20
9.055903195764097
 30
0.0
 10
71.85068065651015
 20
9.084325300713562
 30
0.0
 10
71.5630138722402
 20
9.126324565008115
 30
0.0
 10
71.2789865972936
 20
9.180343830294722
 30
0.0
  0
SPLINE
  5
236
330
1F
100
AcDbEntity
  8
SK3
  6
SLD-Dashed
370
    18
100
AcDbSpline
210
0.0
220
0.0
230
1.0
 70
     8
 71
     3
 72
     8
 73
     4
 74
     0
 42
0.000000001
 43
0.00000001
 40
0.7812500000000056
 40
0.7812500000000056
 40
0.7812500000000056
 40
0.7812500000000056
 40
0.7968750000000054
 40
0.7968750000000054
 40
0.7968750000000054
 40
0.7968750000000054
 10
71.2789865972936
 20
9.180343830294722
 30
0.0
 10
70.994959322347
 20
9.23436309558133
 30
0.0
 10
70.71280798207604
 20
9.30093763920057
 30
0.0
 10
70.43965270079244
 20
9.37625568644112
 30
0.0
  0
SPLINE
  5
237
330
1F
100
AcDbEntity
  8
SK3
  6
SLD-Dashed
370
    18
100
AcDbSpline
210
0.0
220
0.0
230
1.0
 70
     8
 71
     3
 72
     8
 73
     4
 74
     0
 42
0.000000001
 43
0.00000001
 40
0.7968750000000054
 40
0.7968750000000054
 40
0.7968750000000054
 40
0.7968750000000054
 40
0.8125000000000053
 40
0.8125000000000053
 40
0.8125000000000053
 40
0.8125000000000053
 10
70.43965270079244
 20
9.37625568644112
 30
0.0
 10
70.16649741950884
 20
9.451573733681675
 30
0.0
 10
69.90191314034197
 20
9.535505192026553
 30
0.0
 10
69.64478417979566
 20
9.625799137274758
 30
0.0
  0
SPLINE
  5
238
330
1F
100
AcDbEntity
  8
SK3
  6
SLD-Dashed
370
    18
100
AcDbSpline
210
0.0
220
0.0
230
1.0
 70
     8
 71
     3
 72
     8
 73
     4
 74
     0
 42
0.000000001
 43
0.00000001
 40
0.8125000000000053
 40
0.8125000000000053
 40
0.8125000000000053
 40
0.8125000000000053
 40
0.8437500000000044
 40
0.8437500000000044
 40
0.8437500000000044
 40
0.8437500000000044
 10
69.64478417979566
 20
9.625799137274758
 30
0.0
 10
69.1305282509572
 20
9.806386215663185
 30
0.0
 10
68.64420083278478
 20
10.01293247533669
 30
0.0
 10
68.18633979709726
 20
10.22950549142795
 30
0.0
  0
SPLINE
  5
239
330
1F
100
AcDbEntity
  8
SK3
  6
SLD-Dashed
370
    18
100
AcDbSpline
210
0.0
220
0.0
230
1.0
 70
     8
 71
     3
 72
     8
 73
     4
 74
     0
 42
0.000000001
 43
0.00000001
 40
0.8437500000000044
 40
0.8437500000000044
 40
0.8437500000000044
 40
0.8437500000000044
 40
0.8750000000000036
 40
0.8750000000000036
 40
0.8750000000000036
 40
0.8750000000000036
 10
68.18633979709728
 20
10.22950549142794
 30
0.0
 10
67.72847496545599
 20
10.44608032323879
 30
0.0
 10
67.30775372499825
 20
10.66836260878651
 30
0.0
 10
66.91993841478718
 20
10.88585903818531
 30
0.0
  0
SPLINE
  5
23A
330
1F
100
AcDbEntity
  8
SK3
  6
SLD-Dashed
370
    18
100
AcDbSpline
210
0.0
220
0.0
230
1.0
 70
     8
 71
     3
 72
     8
 73
     4
 74
     0
 42
0.000000001
 43
0.00000001
 40
0.8750000000000036
 40
0.8750000000000036
 40
0.8750000000000036
 40
0.8750000000000036
 40
0.9062500000000027
 40
0.9062500000000027
 40
0.9062500000000027
 40
0.9062500000000027
 10
66.91993841478718
 20
10.88585903818531
 30
0.0
 10
66.53212483198436
 20
11.10335457972117
 30
0.0
 10
66.17459086501928
 20
11.31807132321373
 30
0.0
 10
65.86298201502039
 20
11.51193518298164
 30
0.0
  0
SPLINE
  5
23B
330
1F
100
AcDbEntity
  8
SK3
  6
SLD-Dashed
370
    18
100
AcDbSpline
210
0.0
220
0.0
230
1.0
 70
     8
 71
     3
 72
     8
 73
     4
 74
     0
 42
0.000000001
 43
0.00000001
 40
0.9062500000000027
 40
0.9062500000000027
 40
0.9062500000000027
 40
0.9062500000000027
 40
0.9375000000000018
 40
0.9375000000000018
 40
0.9375000000000018
 40
0.9375000000000018
 10
65.86298201502039
 20
11.51193518298164
 30
0.0
 10
65.55137316502149
 20
11.70579904274954
 30
0.0
 10
65.28295672478934
 20
11.88029807105362
 30
0.0
 10
65.06003707416258
 20
12.02791687907609
 30
0.0
  0
SPLINE
  5
23C
330
1F
100
AcDbEntity
  8
SK3
  6
SLD-Dashed
370
    18
100
AcDbSpline
210
0.0
220
0.0
230
1.0
 70
     8
 71
     3
 72
     8
 73
     4
 74
     0
 42
0.000000001
 43
0.00000001
 40
0.9375000000000018
 40
0.9375000000000018
 40
0.9375000000000018
 40
0.9375000000000018
 40
0.9687500000000009
 40
0.9687500000000009
 40
0.9687500000000009
 40
0.9687500000000009
 10
65.06003707416258
 20
12.02791687907609
 30
0.0
 10
64.83711742353584
 20
12.17553568709857
 30
0.0
 10
64.65943178295791
 20
12.29656726389972
 30
0.0
 10
64.54197690929325
 20
12.37706874819167
 30
0.0
  0
SPLINE
  5
23D
330
1F
100
AcDbEntity
  8
SK3
  6
SLD-Dashed
370
    18
100
AcDbSpline
210
0.0
220
0.0
230
1.0
 70
     8
 71
     2
 72
     6
 73
     3
 74
     0
 42
0.000000001
 43
0.00000001
 40
0.9687500000000009
 40
0.9687500000000009
 40
0.9687500000000009
 40
1.0
 40
1.0
 40
1.0
 10
64.54197690929321
 20
12.3770687481917
 30
0.0
 10
64.42452203562858
 20
12.45757023248365
 30
0.0
 10
64.36359999999999
 20
12.49999999999998
 30
0.0
  0
SPLINE
  5
23E
330
1F
100
AcDbEntity
  8
SK3
  6
SLD-Dashed
370
    18
100
AcDbSpline
210
0.0
220
0.0
230
1.0
 70
     8
 71
     2
 72
     6
 73
     3
 74
     0
 42
0.000000001
 43
0.00000001
 40
0.0
 40
0.0
 40
0.0
 40
0.0312500000000013
 40
0.0312500000000013
 40
0.0312500000000013
 10
64.36359999999999
 20
12.49999999999998
 30
0.0
 10
64.4241560740379
 20
12.45782518631829
 30
0.0
 10
64.54115573157557
 20
12.37763158325847
 30
0.0
  0
SPLINE
  5
23F
330
1F
100
AcDbEntity
  8
SK3
  6
SLD-Dashed
370
    18
100
AcDbSpline
210
0.0
220
0.0
230
1.0
 70
     8
 71
     3
 72
     8
 73
     4
 74
     0
 42
0.000000001
 43
0.00000001
 40
0.0312500000000013
 40
0.0312500000000013
 40
0.0312500000000013
 40
0.0312500000000013
 40
0.0625000000000027
 40
0.0625000000000027
 40
0.0625000000000027
 40
0.0625000000000027
 10
64.54115573157557
 20
12.37763158325847
 30
0.0
 10
64.6581553891132
 20
12.29743798019865
 30
0.0
 10
64.83459031808836
 20
12.17723616786364
 30
0.0
 10
65.05745475607868
 20
12.02962706213011
 30
0.0
  0
SPLINE
  5
240
330
1F
100
AcDbEntity
  8
SK3
  6
SLD-Dashed
370
    18
100
AcDbSpline
210
0.0
220
0.0
230
1.0
 70
     8
 71
     3
 72
     8
 73
     4
 74
     0
 42
0.000000001
 43
0.00000001
 40
0.0625000000000027
 40
0.0625000000000027
 40
0.0625000000000027
 40
0.0625000000000027
 40
0.093750000000004
 40
0.093750000000004
 40
0.093750000000004
 40
0.093750000000004
 10
65.05745475607868
 20
12.02962706213011
 30
0.0
 10
65.28031919406898
 20
11.88201795639655
 30
0.0
 10
65.55138488908169
 20
11.70574214951665
 30
0.0
 10
65.86595666871008
 20
11.51008477202856
 30
0.0
  0
SPLINE
  5
241
330
1F
100
AcDbEntity
  8
SK3
  6
SLD-Dashed
370
    18
100
AcDbSpline
210
0.0
220
0.0
230
1.0
 70
     8
 71
     3
 72
     8
 73
     4
 74
     0
 42
0.000000001
 43
0.00000001
 40
0.093750000000004
 40
0.093750000000004
 40
0.093750000000004
 40
0.093750000000004
 40
0.1250000000000053
 40
0.1250000000000053
 40
0.1250000000000053
 40
0.1250000000000053
 10
65.86595666871008
 20
11.51008477202856
 30
0.0
 10
66.18052844833849
 20
11.31442739454044
 30
0.0
 10
66.53174706297027
 20
11.10358762745674
 30
0.0
 10
66.91907069951381
 20
10.8863456982835
 30
0.0
  0
SPLINE
  5
242
330
1F
100
AcDbEntity
  8
SK3
  6
SLD-Dashed
370
    18
100
AcDbSpline
210
0.0
220
0.0
230
1.0
 70
     8
 71
     3
 72
     8
 73
     4
 74
     0
 42
0.000000001
 43
0.00000001
 40
0.1250000000000053
 40
0.1250000000000053
 40
0.1250000000000053
 40
0.1250000000000053
 40
0.1562500000000066
 40
0.1562500000000066
 40
0.1562500000000066
 40
0.1562500000000066
 10
66.91907069951381
 20
10.8863456982835
 30
0.0
 10
67.30639433605731
 20
10.66910376911025
 30
0.0
 10
67.73356519758434
 20
10.44367248487493
 30
0.0
 10
68.18633979709726
 20
10.22950549142795
 30
0.0
  0
SPLINE
  5
243
330
1F
100
AcDbEntity
  8
SK3
  6
SLD-Dashed
370
    18
100
AcDbSpline
210
0.0
220
0.0
230
1.0
 70
     8
 71
     3
 72
     8
 73
     4
 74
     0
 42
0.000000001
 43
0.00000001
 40
0.1562500000000066
 40
0.1562500000000066
 40
0.1562500000000066
 40
0.1562500000000066
 40
0.1875000000000079
 40
0.1875000000000079
 40
0.1875000000000079
 40
0.1875000000000079
 10
68.18633979709726
 20
10.22950549142795
 30
0.0
 10
68.63911439661017
 20
10.01533849798097
 30
0.0
 10
69.11951566322175
 20
9.810775927929408
 30
0.0
 10
69.63374179991924
 20
9.629682352996612
 30
0.0
  0
SPLINE
  5
244
330
1F
100
AcDbEntity
  8
SK3
  6
SLD-Dashed
370
    18
100
AcDbSpline
210
0.0
220
0.0
230
1.0
 70
     8
 71
     3
 72
     8
 73
     4
 74
     0
 42
0.000000001
 43
0.00000001
 40
0.1875000000000079
 40
0.1875000000000079
 40
0.1875000000000079
 40
0.1875000000000079
 40
0.2031250000000083
 40
0.2031250000000083
 40
0.2031250000000083
 40
0.2031250000000083
 10
69.63374179991924
 20
9.629682352996612
 30
0.0
 10
69.89085486826802
 20
9.53913556553023
 30
0.0
 10
70.15818883204314
 20
9.454091934861998
 30
0.0
 10
70.43133374644559
 20
9.378552909421947
 30
0.0
  0
SPLINE
  5
245
330
1F
100
AcDbEntity
  8
SK3
  6
SLD-Dashed
370
    18
100
AcDbSpline
210
0.0
220
0.0
230
1.0
 70
     8
 71
     3
 72
     8
 73
     4
 74
     0
 42
0.000000001
 43
0.00000001
 40
0.2031250000000083
 40
0.2031250000000083
 40
0.2031250000000083
 40
0.2031250000000083
 40
0.2187500000000087
 40
0.2187500000000087
 40
0.2187500000000087
 40
0.2187500000000087
 10
70.43133374644559
 20
9.378552909421947
 30
0.0
 10
70.70447866084808
 20
9.303013883981887
 30
0.0
 10
70.98211627159182
 20
9.237242017394578
 30
0.0
 10
71.2646352201439
 20
9.183084133239635
 30
0.0
  0
SPLINE
  5
246
330
1F
100
AcDbEntity
  8
SK3
  6
SLD-Dashed
370
    18
100
AcDbSpline
210
0.0
220
0.0
230
1.0
 70
     8
 71
     3
 72
     8
 73
     4
 74
     0
 42
0.000000001
 43
0.00000001
 40
0.2187500000000087
 40
0.2187500000000087
 40
0.2187500000000087
 40
0.2187500000000087
 40
0.2343750000000091
 40
0.2343750000000091
 40
0.2343750000000091
 40
0.2343750000000091
 10
71.2646352201439
 20
9.183084133239635
 30
0.0
 10
71.54715416869598
 20
9.128926249084707
 30
0.0
 10
71.83455432594629
 20
9.086386766345585
 30
0.0
 10
72.12734866126085
 20
9.057368710941386
 30
0.0
  0
SPLINE
  5
247
330
1F
100
AcDbEntity
  8
SK3
  6
SLD-Dashed
370
    18
100
AcDbSpline
210
0.0
220
0.0
230
1.0
 70
     8
 71
     3
 72
     8
 73
     4
 74
     0
 42
0.000000001
 43
0.00000001
 40
0.2343750000000091
 40
0.2343750000000091
 40
0.2343750000000091
 40
0.2343750000000091
 40
0.2500000000000095
 40
0.2500000000000095
 40
0.2500000000000095
 40
0.2500000000000095
 10
72.12734866126085
 20
9.057368710941386
 30
0.0
 10
72.42014299657542
 20
9.028350655537185
 30
0.0
 10
72.71844368270702
 20
9.013192205535578
 30
0.0
 10
73.01254102548316
 20
9.01278565517042
 30
0.0
  0
SPLINE
  5
248
330
1F
100
AcDbEntity
  8
SK3
  6
SLD-Dashed
370
    18
100
AcDbSpline
210
0.0
220
0.0
230
1.0
 70
     8
 71
     3
 72
     8
 73
     4
 74
     0
 42
0.000000001
 43
0.00000001
 40
0.2500000000000095
 40
0.2500000000000095
 40
0.2500000000000095
 40
0.2500000000000095
 40
0.2812500000000095
 40
0.2812500000000095
 40
0.2812500000000095
 40
0.2812500000000095
 10
73.01254102548316
 20
9.01278565517042
 30
0.0
 10
73.60073571103548
 20
9.011972554440133
 30
0.0
 10
74.18360365964432
 20
9.069523690023646
 30
0.0
 10
74.75624801803046
 20
9.177547043733309
 30
0.0
  0
SPLINE
  5
249
330
1F
100
AcDbEntity
  8
SK3
  6
SLD-Dashed
370
    18
100
AcDbSpline
210
0.0
220
0.0
230
1.0
 70
     8
 71
     3
 72
     8
 73
     4
 74
     0
 42
0.000000001
 43
0.00000001
 40
0.2812500000000095
 40
0.2812500000000095
 40
0.2812500000000095
 40
0.2812500000000095
 40
0.3125000000000096
 40
0.3125000000000096
 40
0.3125000000000096
 40
0.3125000000000096
 10
74.75624801803046
 20
9.177547043733309
 30
0.0
 10
75.32889237641658
 20
9.285570397442974
 30
0.0
 10
75.87151130300204
 20
9.439088699550638
 30
0.0
 10
76.39049260458988
 20
9.620638778768745
 30
0.0
  0
SPLINE
  5
24A
330
1F
100
AcDbEntity
  8
SK3
  6
SLD-Dashed
370
    18
100
AcDbSpline
210
0.0
220
0.0
230
1.0
 70
     8
 71
     3
 72
     8
 73
     4
 74
     0
 42
0.000000001
 43
0.00000001
 40
0.3125000000000096
 40
0.3125000000000096
 40
0.3125000000000096
 40
0.3125000000000096
 40
0.3281250000000096
 40
0.3281250000000096
 40
0.3281250000000096
 40
0.3281250000000096
 10
76.39049260458988
 20
9.620638778768745
 30
0.0
 10
76.64998325538377
 20
9.711413818377805
 30
0.0
 10
76.9034489723808
 20
9.809362206423353
 30
0.0
 10
77.14668256679566
 20
9.910520532314496
 30
0.0
  0
SPLINE
  5
24B
330
1F
100
AcDbEntity
  8
SK3
  6
SLD-Dashed
370
    18
100
AcDbSpline
210
0.0
220
0.0
230
1.0
 70
     8
 71
     3
 72
     8
 73
     4
 74
     0
 42
0.000000001
 43
0.00000001
 40
0.3281250000000096
 40
0.3281250000000096
 40
0.3281250000000096
 40
0.3281250000000096
 40
0.3437500000000096
 40
0.3437500000000096
 40
0.3437500000000096
 40
0.3437500000000096
 10
77.14668256679566
 20
9.910520532314496
 30
0.0
 10
77.3899161612105
 20
10.01167885820565
 30
0.0
 10
77.62429823471248
 20
10.11651413975385
 30
0.0
 10
77.85069669879697
 20
10.2233800021705
 30
0.0
  0
SPLINE
  5
24C
330
1F
100
AcDbEntity
  8
SK3
  6
SLD-Dashed
370
    18
100
AcDbSpline
210
0.0
220
0.0
230
1.0
 70
     8
 71
     3
 72
     8
 73
     4
 74
     0
 42
0.000000001
 43
0.00000001
 40
0.3437500000000096
 40
0.3437500000000096
 40
0.3437500000000096
 40
0.3437500000000096
 40
0.3750000000000096
 40
0.3750000000000096
 40
0.3750000000000096
 40
0.3750000000000096
 10
77.85069669879697
 20
10.2233800021705
 30
0.0
 10
78.3034936269659
 20
10.43711172700382
 30
0.0
 10
78.72468722431621
 20
10.65885670296286
 30
0.0
 10
79.11645996595773
 20
10.87823673932799
 30
0.0
  0
SPLINE
  5
24D
330
1F
100
AcDbEntity
  8
SK3
  6
SLD-Dashed
370
    18
100
AcDbSpline
210
0.0
220
0.0
230
1.0
 70
     8
 71
     3
 72
     8
 73
     4
 74
     0
 42
0.000000001
 43
0.00000001
 40
0.3750000000000096
 40
0.3750000000000096
 40
0.3750000000000096
 40
0.3750000000000096
 40
0.4062500000000097
 40
0.4062500000000097
 40
0.4062500000000097
 40
0.4062500000000097
 10
79.11645996595773
 20
10.87823673932799
 30
0.0
 10
79.50823270759916
 20
11.09761677569313
 30
0.0
 10
79.85973471548242
 20
11.3085857170457
 30
0.0
 10
80.17139666827475
 20
11.50222306253571
 30
0.0
  0
SPLINE
  5
24E
330
1F
100
AcDbEntity
  8
SK3
  6
SLD-Dashed
370
    18
100
AcDbSpline
210
0.0
220
0.0
230
1.0
 70
     8
 71
     3
 72
     8
 73
     4
 74
     0
 42
0.000000001
 43
0.00000001
 40
0.4062500000000097
 40
0.4062500000000097
 40
0.4062500000000097
 40
0.4062500000000097
 40
0.4218750000000097
 40
0.4218750000000097
 40
0.4218750000000097
 40
0.4218750000000097
 10
80.17139666827475
 20
11.50222306253571
 30
0.0
 10
80.3272276446709
 20
11.59904173528072
 30
0.0
 10
80.4731147261734
 20
11.6916125299258
 30
0.0
 10
80.6086777258278
 20
11.77889289743381
 30
0.0
  0
SPLINE
  5
24F
330
1F
100
AcDbEntity
  8
SK3
  6
SLD-Dashed
370
    18
100
AcDbSpline
210
0.0
220
0.0
230
1.0
 70
     8
 71
     3
 72
     8
 73
     4
 74
     0
 42
0.000000001
 43
0.00000001
 40
0.4218750000000097
 40
0.4218750000000097
 40
0.4218750000000097
 40
0.4218750000000097
 40
0.4375000000000097
 40
0.4375000000000097
 40
0.4375000000000097
 40
0.4375000000000097
 10
80.6086777258278
 20
11.77889289743381
 30
0.0
 10
80.74424072548223
 20
11.86617326494181
 30
0.0
 10
80.87010309178444
 20
11.94858146838874
 30
0.0
 10
80.98324930112338
 20
12.02347212658766
 30
0.0
  0
SPLINE
  5
250
330
1F
100
AcDbEntity
  8
SK3
  6
SLD-Dashed
370
    18
100
AcDbSpline
210
0.0
220
0.0
230
1.0
 70
     8
 71
     3
 72
     8
 73
     4
 74
     0
 42
0.000000001
 43
0.00000001
 40
0.4375000000000097
 40
0.4375000000000097
 40
0.4375000000000097
 40
0.4375000000000097
 40
0.4687500000000094
 40
0.4687500000000094
 40
0.4687500000000094
 40
0.4687500000000094
 10
80.98324930112338
 20
12.02347212658766
 30
0.0
 10
81.20954171980124
 20
12.17325344298549
 30
0.0
 10
81.38368467573746
 20
12.29187516936639
 30
0.0
 10
81.50309088713922
 20
12.37368882470352
 30
0.0
  0
SPLINE
  5
251
330
1F
100
AcDbEntity
  8
SK3
  6
SLD-Dashed
370
    18
100
AcDbSpline
210
0.0
220
0.0
230
1.0
 70
     8
 71
     3
 72
     8
 73
     4
 74
     0
 42
0.000000001
 43
0.00000001
 40
0.4687500000000094
 40
0.4687500000000094
 40
0.4687500000000094
 40
0.4687500000000094
 40
0.4843750000000093
 40
0.4843750000000093
 40
0.4843750000000093
 40
0.4843750000000093
 10
81.50309088713922
 20
12.37368882470352
 30
0.0
 10
81.56279399284008
 20
12.41459565237209
 30
0.0
 10
81.60886245376648
 20
12.44637912968488
 30
0.0
 10
81.63952183118941
 20
12.46756337140656
 30
0.0
  0
SPLINE
  5
252
330
1F
100
AcDbEntity
  8
SK3
  6
SLD-Dashed
370
    18
100
AcDbSpline
210
0.0
220
0.0
230
1.0
 70
     8
 71
     3
 72
     8
 73
     4
 74
     0
 42
0.000000001
 43
0.00000001
 40
0.4843750000000093
 40
0.4843750000000093
 40
0.4843750000000093
 40
0.4843750000000093
 40
0.5000000000000091
 40
0.5000000000000091
 40
0.5000000000000091
 40
0.5000000000000091
 10
81.63952183118941
 20
12.46756337140656
 30
0.0
 10
81.67018120861228
 20
12.48874761312824
 30
0.0
 10
81.68569409188703
 20
12.49951074697309
 30
0.0
 10
81.68637668924802
 20
12.4999837869598
 30
0.0
  0
SPLINE
  5
253
330
1F
100
AcDbEntity
  8
SK3
  6
SLD-Dashed
370
    18
100
AcDbSpline
210
0.0
220
0.0
230
1.0
 70
     8
 71
     3
 72
     8
 73
     4
 74
     0
 42
0.000000001
 43
0.00000001
 40
0.5156250000000089
 40
0.5156250000000089
 40
0.5156250000000089
 40
0.5156250000000089
 40
0.5312500000000087
 40
0.5312500000000087
 40
0.5312500000000087
 40
0.5312500000000087
 10
81.64378565985639
 20
12.47050986489909
 30
0.0
 10
81.61465972165641
 20
12.45037995672311
 30
0.0
 10
81.57006819521925
 20
12.41960230973466
 30
0.0
 10
81.51148741696726
 20
12.37944339291325
 30
0.0
  0
SPLINE
  5
254
330
1F
100
AcDbEntity
  8
SK3
  6
SLD-Dashed
370
    18
100
AcDbSpline
210
0.0
220
0.0
230
1.0
 70
     8
 71
     3
 72
     8
 73
     4
 74
     0
 42
0.000000001
 43
0.00000001
 40
0.5312500000000087
 40
0.5312500000000087
 40
0.5312500000000087
 40
0.5312500000000087
 40
0.5625000000000083
 40
0.5625000000000083
 40
0.5625000000000083
 40
0.5625000000000083
 10
81.51148741696726
 20
12.37944339291325
 30
0.0
 10
81.39432586046335
 20
12.29912555927044
 30
0.0
 10
81.22214014259507
 20
12.1817540268204
 30
0.0
 10
80.99822747275701
 20
12.03339130803643
 30
0.0
  0
SPLINE
  5
255
330
1F
100
AcDbEntity
  8
SK3
  6
SLD-Dashed
370
    18
100
AcDbSpline
210
0.0
220
0.0
230
1.0
 70
     8
 71
     3
 72
     8
 73
     4
 74
     0
 42
0.000000001
 43
0.00000001
 40
0.5625000000000083
 40
0.5625000000000083
 40
0.5625000000000083
 40
0.5625000000000083
 40
0.5781250000000081
 40
0.5781250000000081
 40
0.5781250000000081
 40
0.5781250000000081
 10
80.99822747275701
 20
12.03339130803643
 30
0.0
 10
80.88627113783795
 20
11.95920994864445
 30
0.0
 10
80.76120573310769
 20
11.87722012851361
 30
0.0
 10
80.62607145199726
 20
11.79009911995518
 30
0.0
  0
SPLINE
  5
256
330
1F
100
AcDbEntity
  8
SK3
  6
SLD-Dashed
370
    18
100
AcDbSpline
210
0.0
220
0.0
230
1.0
 70
     8
 71
     3
 72
     8
 73
     4
 74
     0
 42
0.000000001
 43
0.00000001
 40
0.5781250000000081
 40
0.5781250000000081
 40
0.5781250000000081
 40
0.5781250000000081
 40
0.5937500000000079
 40
0.5937500000000079
 40
0.5937500000000079
 40
0.5937500000000079
 10
80.62607145199726
 20
11.79009911995518
 30
0.0
 10
80.4909371708869
 20
11.70297811139674
 30
0.0
 10
80.3451536926908
 20
11.61033439855746
 30
0.0
 10
80.18903899113
 20
11.51319263742385
 30
0.0
  0
SPLINE
  5
257
330
1F
100
AcDbEntity
  8
SK3
  6
SLD-Dashed
370
    18
100
AcDbSpline
210
0.0
220
0.0
230
1.0
 70
     8
 71
     3
 72
     8
 73
     4
 74
     0
 42
0.000000001
 43
0.00000001
 40
0.5937500000000079
 40
0.5937500000000079
 40
0.5937500000000079
 40
0.5937500000000079
 40
0.6093750000000077
 40
0.6093750000000077
 40
0.6093750000000077
 40
0.6093750000000077
 10
80.18903899113
 20
11.51319263742385
 30
0.0
 10
80.03292428956927
 20
11.41605087629023
 30
0.0
 10
79.86647764086
 20
11.3144040986776
 30
0.0
 10
79.68959912300258
 20
11.20923866773863
 30
0.0
  0
SPLINE
  5
258
330
1F
100
AcDbEntity
  8
SK3
  6
SLD-Dashed
370
    18
100
AcDbSpline
210
0.0
220
0.0
230
1.0
 70
     8
 71
     3
 72
     8
 73
     4
 74
     0
 42
0.000000001
 43
0.00000001
 40
0.6093750000000077
 40
0.6093750000000077
 40
0.6093750000000077
 40
0.6093750000000077
 40
0.6250000000000074
 40
0.6250000000000074
 40
0.6250000000000074
 40
0.6250000000000074
 10
79.68959912300258
 20
11.20923866773863
 30
0.0
 10
79.51272060514519
 20
11.10407323679966
 30
0.0
 10
79.32583752554784
 20
10.99567465468817
 30
0.0
 10
79.13165657493457
 20
10.88675362834082
 30
0.0
  0
SPLINE
  5
259
330
1F
100
AcDbEntity
  8
SK3
  6
SLD-Dashed
370
    18
100
AcDbSpline
210
0.0
220
0.0
230
1.0
 70
     8
 71
     3
 72
     8
 73
     4
 74
     0
 42
0.000000001
 43
0.00000001
 40
0.6250000000000074
 40
0.6250000000000074
 40
0.6250000000000074
 40
0.6250000000000074
 40
0.6562500000000071
 40
0.6562500000000071
 40
0.6562500000000071
 40
0.6562500000000071
 10
79.13165657493457
 20
10.88675362834082
 30
0.0
 10
78.743294673708
 20
10.66891157564611
 30
0.0
 10
78.32325807063658
 20
10.4470540382257
 30
0.0
 10
77.86810084875337
 20
10.23160671015045
 30
0.0
  0
SPLINE
  5
25A
330
1F
100
AcDbEntity
  8
SK3
  6
SLD-Dashed
370
    18
100
AcDbSpline
210
0.0
220
0.0
230
1.0
 70
     8
 71
     3
 72
     8
 73
     4
 74
     0
 42
0.000000001
 43
0.00000001
 40
0.6562500000000071
 40
0.6562500000000071
 40
0.6562500000000071
 40
0.6562500000000071
 40
0.6718750000000069
 40
0.6718750000000069
 40
0.6718750000000069
 40
0.6718750000000069
 10
77.86810084875337
 20
10.23160671015045
 30
0.0
 10
77.6405222378118
 20
10.12388304611284
 30
0.0
 10
77.40285608739012
 20
10.01731188968226
 30
0.0
 10
77.15873731090439
 20
9.915540035497987
 30
0.0
  0
SPLINE
  5
25B
330
1F
100
AcDbEntity
  8
SK3
  6
SLD-Dashed
370
    18
100
AcDbSpline
210
0.0
220
0.0
230
1.0
 70
     8
 71
     3
 72
     8
 73
     4
 74
     0
 42
0.000000001
 43
0.00000001
 40
0.6718750000000069
 40
0.6718750000000069
 40
0.6718750000000069
 40
0.6718750000000069
 40
0.6875000000000067
 40
0.6875000000000067
 40
0.6875000000000067
 40
0.6875000000000067
 10
77.15873731090439
 20
9.915540035497987
 30
0.0
 10
76.91461853441875
 20
9.813768181313707
 30
0.0
 10
76.66422027498353
 20
9.71679259306927
 30
0.0
 10
76.40695601345143
 20
9.626410365080037
 30
0.0
  0
SPLINE
  5
25C
330
1F
100
AcDbEntity
  8
SK3
  6
SLD-Dashed
370
    18
100
AcDbSpline
210
0.0
220
0.0
230
1.0
 70
     8
 71
     3
 72
     8
 73
     4
 74
     0
 42
0.000000001
 43
0.00000001
 40
0.6875000000000067
 40
0.6875000000000067
 40
0.6875000000000067
 40
0.6875000000000067
 40
0.7031250000000064
 40
0.7031250000000064
 40
0.7031250000000064
 40
0.7031250000000064
 10
76.40695601345143
 20
9.626410365080037
 30
0.0
 10
76.14969175191935
 20
9.536028137090799
 30
0.0
 10
75.88556605335988
 20
9.4522320509723
 30
0.0
 10
75.61366218472493
 20
9.377170252620171
 30
0.0
  0
SPLINE
  5
25D
330
1F
100
AcDbEntity
  8
SK3
  6
SLD-Dashed
370
    18
100
AcDbSpline
210
0.0
220
0.0
230
1.0
 70
     8
 71
     3
 72
     8
 73
     4
 74
     0
 42
0.000000001
 43
0.00000001
 40
0.7031250000000064
 40
0.7031250000000064
 40
0.7031250000000064
 40
0.7031250000000064
 40
0.7187500000000062
 40
0.7187500000000062
 40
0.7187500000000062
 40
0.7187500000000062
 10
75.61366218472493
 20
9.377170252620171
 30
0.0
 10
75.34175831608994
 20
9.302108454268044
 30
0.0
 10
75.06006121873274
 20
9.235430450009915
 30
0.0
 10
74.77474494411868
 20
9.181054264596678
 30
0.0
  0
SPLINE
  5
25E
330
1F
100
AcDbEntity
  8
SK3
  6
SLD-Dashed
370
    18
100
AcDbSpline
210
0.0
220
0.0
230
1.0
 70
     8
 71
     3
 72
     8
 73
     4
 74
     0
 42
0.000000001
 43
0.00000001
 40
0.7187500000000062
 40
0.7187500000000062
 40
0.7187500000000062
 40
0.7187500000000062
 40
0.7500000000000058
 40
0.7500000000000058
 40
0.7500000000000058
 40
0.7500000000000058
 10
74.77474494411868
 20
9.181054264596678
 30
0.0
 10
74.20411239489059
 20
9.072301893770195
 30
0.0
 10
73.62241304259756
 20
9.01299651297719
 30
0.0
 10
73.02832021447611
 20
9.012777655297178
 30
0.0
  0
SPLINE
  5
25F
330
1F
100
AcDbEntity
  8
SK3
  6
SLD-Dashed
370
    18
100
AcDbSpline
210
0.0
220
0.0
230
1.0
 70
     8
 71
     3
 72
     8
 73
     4
 74
     0
 42
0.000000001
 43
0.00000001
 40
0.7500000000000058
 40
0.7500000000000058
 40
0.7500000000000058
 40
0.7500000000000058
 40
0.7656250000000057
 40
0.7656250000000057
 40
0.7656250000000057
 40
0.7656250000000057
 10
73.02832021447611
 20
9.012777655297178
 30
0.0
 10
72.73127380041544
 20
9.012668226457167
 30
0.0
 10
72.43383623561184
 20
9.027481090814637
 30
0.0
 10
72.142258446061
 20
9.055903195764097
 30
0.0
  0
SPLINE
  5
260
330
1F
100
AcDbEntity
  8
SK3
  6
SLD-Dashed
370
    18
100
AcDbSpline
210
0.0
220
0.0
230
1.0
 70
     8
 71
     3
 72
     8
 73
     4
 74
     0
 42
0.000000001
 43
0.00000001
 40
0.7656250000000057
 40
0.7656250000000057
 40
0.7656250000000057
 40
0.7656250000000057
 40
0.7812500000000056
 40
0.7812500000000056
 40
0.7812500000000056
 40
0.7812500000000056
 10
72.142258446061
 20
9.055903195764097
 30
0.0
 10
71.85068065651015
 20
9.084325300713562
 30
0.0
 10
71.5630138722402
 20
9.126324565008115
 30
0.0
 10
71.2789865972936
 20
9.180343830294722
 30
0.0
  0
SPLINE
  5
261
330
1F
100
AcDbEntity
  8
SK3
  6
SLD-Dashed
370
    18
100
AcDbSpline
210
0.0
220
0.0
230
1.0
 70
     8
 71
     3
 72
     8
 73
     4
 74
     0
 42
0.000000001
 43
0.00000001
 40
0.7812500000000056
 40
0.7812500000000056
 40
0.7812500000000056
 40
0.7812500000000056
 40
0.7968750000000054
 40
0.7968750000000054
 40
0.7968750000000054
 40
0.7968750000000054
 10
71.2789865972936
 20
9.180343830294722
 30
0.0
 10
70.994959322347
 20
9.23436309558133
 30
0.0
 10
70.71280798207604
 20
9.30093763920057
 30
0.0
 10
70.43965270079244
 20
9.37625568644112
 30
0.0
  0
SPLINE
  5
262
330
1F
100
AcDbEntity
  8
SK3
  6
SLD-Dashed
370
    18
100
AcDbSpline
210
0.0
220
0.0
230
1.0
 70
     8
 71
     3
 72
     8
 73
     4
 74
     0
 42
0.000000001
 43
0.00000001
 40
0.7968750000000054
 40
0.7968750000000054
 40
0.7968750000000054
 40
0.7968750000000054
 40
0.8125000000000053
 40
0.8125000000000053
 40
0.8125000000000053
 40
0.8125000000000053
 10
70.43965270079244
 20
9.37625568644112
 30
0.0
 10
70.16649741950884
 20
9.451573733681675
 30
0.0
 10
69.90191314034197
 20
9.535505192026553
 30
0.0
 10
69.64478417979566
 20
9.625799137274758
 30
0.0
  0
SPLINE
  5
263
330
1F
100
AcDbEntity
  8
SK3
  6
SLD-Dashed
370
    18
100
AcDbSpline
210
0.0
220
0.0
230
1.0
 70
     8
 71
     3
 72
     8
 73
     4
 74
     0
 42
0.000000001
 43
0.00000001
 40
0.8125000000000053
 40
0.8125000000000053
 40
0.8125000000000053
 40
0.8125000000000053
 40
0.8437500000000044
 40
0.8437500000000044
 40
0.8437500000000044
 40
0.8437500000000044
 10
69.64478417979566
 20
9.625799137274758
 30
0.0
 10
69.1305282509572
 20
9.806386215663185
 30
0.0
 10
68.64420083278478
 20
10.01293247533669
 30
0.0
 10
68.18633979709726
 20
10.22950549142795
 30
0.0
  0
SPLINE
  5
264
330
1F
100
AcDbEntity
  8
SK3
  6
SLD-Dashed
370
    18
100
AcDbSpline
210
0.0
220
0.0
230
1.0
 70
     8
 71
     3
 72
     8
 73
     4
 74
     0
 42
0.000000001
 43
0.00000001
 40
0.8437500000000044
 40
0.8437500000000044
 40
0.8437500000000044
 40
0.8437500000000044
 40
0.8750000000000036
 40
0.8750000000000036
 40
0.8750000000000036
 40
0.8750000000000036
 10
68.18633979709728
 20
10.22950549142794
 30
0.0
 10
67.72847496545599
 20
10.44608032323879
 30
0.0
 10
67.30775372499825
 20
10.66836260878651
 30
0.0
 10
66.91993841478718
 20
10.88585903818531
 30
0.0
  0
SPLINE
  5
265
330
1F
100
AcDbEntity
  8
SK3
  6
SLD-Dashed
370
    18
100
AcDbSpline
210
0.0
220
0.0
230
1.0
 70
     8
 71
     3
 72
     8
 73
     4
 74
     0
 42
0.000000001
 43
0.00000001
 40
0.8750000000000036
 40
0.8750000000000036
 40
0.8750000000000036
 40
0.8750000000000036
 40
0.9062500000000027
 40
0.9062500000000027
 40
0.9062500000000027
 40
0.9062500000000027
 10
66.91993841478718
 20
10.88585903818531
 30
0.0
 10
66.53212483198436
 20
11.10335457972117
 30
0.0
 10
66.17459086501928
 20
11.31807132321373
 30
0.0
 10
65.86298201502039
 20
11.51193518298164
 30
0.0
  0
SPLINE
  5
266
330
1F
100
AcDbEntity
  8
SK3
  6
SLD-Dashed
370
    18
100
AcDbSpline
210
0.0
220
0.0
230
1.0
 70
     8
 71
     3
 72
     8
 73
     4
 74
     0
 42
0.000000001
 43
0.00000001
 40
0.9062500000000027
 40
0.9062500000000027
 40
0.9062500000000027
 40
0.9062500000000027
 40
0.9375000000000018
 40
0.9375000000000018
 40
0.9375000000000018
 40
0.9375000000000018
 10
65.86298201502039
 20
11.51193518298164
 30
0.0
 10
65.55137316502149
 20
11.70579904274954
 30
0.0
 10
65.28295672478934
 20
11.88029807105362
 30
0.0
 10
65.06003707416258
 20
12.02791687907609
 30
0.0
  0
SPLINE
  5
267
330
1F
100
AcDbEntity
  8
SK3
  6
SLD-Dashed
370
    18
100
AcDbSpline
210
0.0
220
0.0
230
1.0
 70
     8
 71
     3
 72
     8
 73
     4
 74
     0
 42
0.000000001
 43
0.00000001
 40
0.9375000000000018
 40
0.9375000000000018
 40
0.9375000000000018
 40
0.9375000000000018
 40
0.9687500000000009
 40
0.9687500000000009
 40
0.9687500000000009
 40
0.9687500000000009
 10
65.06003707416258
 20
12.02791687907609
 30
0.0
 10
64.83711742353584
 20
12.17553568709857
 30
0.0
 10
64.65943178295791
 20
12.29656726389972
 30
0.0
 10
64.54197690929325
 20
12.37706874819167
 30
0.0
  0
SPLINE
  5
268
330
1F
100
AcDbEntity
  8
SK3
  6
SLD-Dashed
370
    18
100
AcDbSpline
210
0.0
220
0.0
230
1.0
 70
     8
 71
     2
 72
     6
 73
     3
 74
     0
 42
0.000000001
 43
0.00000001
 40
0.9687500000000009
 40
0.9687500000000009
 40
0.9687500000000009
 40
1.0
 40
1.0
 40
1.0
 10
64.54197690929321
 20
12.3770687481917
 30
0.0
 10
64.42452203562858
 20
12.45757023248365
 30
0.0
 10
64.36359999999999
 20
12.49999999999998
 30
0.0
  0
SPLINE
  5
269
330
1F
100
AcDbEntity
  8
SK3
  6
SLD-Dashed
370
    18
100
AcDbSpline
210
0.0
220
0.0
230
1.0
 70
     8
 71
     3
 72
    30
 73
    26
 74
     0
 42
0.000000001
 43
0.00000001
 40
0.4999999999999986
 40
0.4999999999999986
 40
0.4999999999999986
 40
0.4999999999999986
 40
0.5624999999999986
 40
0.5624999999999986
 40
0.6249999999999986
 40
0.6249999999999986
 40
0.6562499999999987
 40
0.6562499999999987
 40
0.6874999999999989
 40
0.6874999999999989
 40
0.718749999999999
 40
0.718749999999999
 40
0.7499999999999991
 40
0.7499999999999991
 40
0.7812499999999993
 40
0.7812499999999993
 40
0.8124999999999994
 40
0.8124999999999994
 40
0.8437499999999997
 40
0.8437499999999997
 40
0.8749999999999998
 40
0.8749999999999998
 40
0.9374999999999999
 40
0.9374999999999999
 40
1.0
 40
1.0
 40
1.0
 40
1.0
 10
11.12436591328741
 20
5.309061551556929
 30
0.0
 10
11.33987168856153
 20
5.309135121894133
 30
0.0
 10
11.55726809392074
 20
5.270777053767745
 30
0.0
 10
11.954542895422
 20
5.124082127907506
 30
0.0
 10
12.13838112079804
 20
5.01435051186401
 30
0.0
 10
12.36674314194754
 20
4.80840405199183
 30
0.0
 10
12.43642969974143
 20
4.731543474868135
 30
0.0
 10
12.55617157969233
 20
4.568463540703782
 30
0.0
 10
12.60695049438682
 20
4.481836472086068
 30
0.0
 10
12.69006011488473
 20
4.297948630822695
 30
0.0
 10
12.7218894306609
 20
4.201137306228619
 30
0.0
 10
12.76406792100185
 20
4.004999015154088
 30
0.0
 10
12.77490668888516
 20
3.904499034786596
 30
0.0
 10
12.77509211872524
 20
3.699534720125429
 30
0.0
 10
12.76447599657451
 20
3.598169916606796
 30
0.0
 10
12.7226542834703
 20
3.397643705646346
 30
0.0
 10
12.69091026767073
 20
3.297408274791247
 30
0.0
 10
12.60826636161166
 20
3.105879249910994
 30
0.0
 10
12.55766906368547
 20
3.014523490936151
 30
0.0
 10
12.43800593838744
 20
2.840798433450336
 30
0.0
 10
12.3685247374065
 20
2.758380635546162
 30
0.0
 10
12.14080554014711
 20
2.535838019871818
 30
0.0
 10
11.9570420469029
 20
2.41465353223478
 30
0.0
 10
11.56023146512521
 20
2.251755559321181
 30
0.0
 10
11.34333742006517
 20
2.208076011197137
 30
0.0
 10
11.12499999999998
 20
2.208076011197137
 30
0.0
  0
SPLINE
  5
26A
330
1F
100
AcDbEntity
  8
SK3
  6
SLD-Dashed
370
    18
100
AcDbSpline
210
0.0
220
0.0
230
1.0
 70
     8
 71
     3
 72
    34
 73
    30
 74
     0
 42
0.000000001
 43
0.00000001
 40
0.0
 40
0.0
 40
0.0
 40
0.0
 40
0.0312499999999998
 40
0.0312499999999998
 40
0.0624999999999997
 40
0.0624999999999997
 40
0.0937499999999995
 40
0.0937499999999995
 40
0.1249999999999993
 40
0.1249999999999993
 40
0.1874999999999989
 40
0.1874999999999989
 40
0.2499999999999986
 40
0.2499999999999986
 40
0.2812499999999986
 40
0.2812499999999986
 40
0.3124999999999986
 40
0.3124999999999986
 40
0.3437499999999986
 40
0.3437499999999986
 40
0.3749999999999986
 40
0.3749999999999986
 40
0.4062499999999986
 40
0.4062499999999986
 40
0.4374999999999986
 40
0.4374999999999986
 40
0.4687499999999986
 40
0.4687499999999986
 40
0.4999999999999986
 40
0.4999999999999986
 40
0.4999999999999986
 40
0.4999999999999986
 10
11.12499999999998
 20
2.208076011197137
 30
0.0
 10
11.0158312899674
 20
2.208076011197137
 30
0.0
 10
10.90851747443065
 20
2.218712438100935
 30
0.0
 10
10.69743839976835
 20
2.260296858835581
 30
0.0
 10
10.59256796952453
 20
2.291759353259947
 30
0.0
 10
10.39282801405939
 20
2.373555205373634
 30
0.0
 10
10.29811782955151
 20
2.42350962822617
 30
0.0
 10
10.11887542494273
 20
2.541114583907891
 30
0.0
 10
10.03412703573853
 20
2.60929484585426
 30
0.0
 10
9.806182200157373
 20
2.831771837438372
 30
0.0
 10
9.683294833249992
 20
3.010016554592668
 30
0.0
 10
9.518613327833588
 20
3.390759943898578
 30
0.0
 10
9.47512207964199
 20
3.597272475835474
 30
0.0
 10
9.474939355443759
 20
3.901097591317404
 30
0.0
 10
9.485685185608675
 20
4.003434499602353
 30
0.0
 10
9.527840731096388
 20
4.200293854804631
 30
0.0
 10
9.559029712058424
 20
4.295473899993282
 30
0.0
 10
9.641780605110354
 20
4.479477843829412
 30
0.0
 10
9.693378168396896
 20
4.56772201717838
 30
0.0
 10
9.812718794814254
 20
4.730510706064041
 30
0.0
 10
9.881024517103516
 20
4.806208116124394
 30
0.0
 10
10.03474791503922
 20
4.945204256680401
 30
0.0
 10
10.11790941669588
 20
5.006521730708591
 30
0.0
 10
10.29642492313947
 20
5.113728914877727
 30
0.0
 10
10.39294641915067
 20
5.159988239582892
 30
0.0
 10
10.5925905581732
 20
5.233890455420346
 30
0.0
 10
10.69543180415419
 20
5.261724005488279
 30
0.0
 10
10.90715408445175
 20
5.299397422676627
 30
0.0
 10
11.01661302565036
 20
5.309024766388323
 30
0.0
 10
11.12436591328741
 20
5.309061551556929
 30
0.0
  0
SPLINE
  5
26B
330
1F
100
AcDbEntity
  8
SK3
  6
SLD-Dashed
370
    18
100
AcDbSpline
210
0.0
220
0.0
230
1.0
 70
     8
 71
     3
 72
    18
 73
    14
 74
     0
 42
0.000000001
 43
0.00000001
 40
0.0
 40
0.0
 40
0.0
 40
0.0
 40
0.1250000000000004
 40
0.1250000000000004
 40
0.1875000000000003
 40
0.1875000000000003
 40
0.2500000000000001
 40
0.2500000000000001
 40
0.3124999999999999
 40
0.3124999999999999
 40
0.3749999999999998
 40
0.3749999999999998
 40
0.4999999999999996
 40
0.4999999999999996
 40
0.4999999999999996
 40
0.4999999999999996
 10
42.6
 20
8.826008797298995
 30
0.0
 10
42.11950551455024
 20
9.121349833483192
 30
0.0
 10
41.68617783043202
 20
9.411159325326441
 30
0.0
 10
41.10150526583536
 20
9.817481723376071
 30
0.0
 10
40.91767513143974
 20
9.94825154255978
 30
0.0
 10
40.57328798475687
 20
10.19713949717797
 30
0.0
 10
40.41419197826254
 20
10.31421603423473
 30
0.0
 10
40.12778989230983
 20
10.52732545056558
 30
0.0
 10
39.99966121857446
 20
10.62396088048805
 30
0.0
 10
39.77517810891462
 20
10.79453766810414
 30
0.0
 10
39.67826069219646
 20
10.86891886135424
 30
0.0
 10
39.44438499893577
 20
11.04920338737438
 30
0.0
 10
39.36460212098442
 20
11.11171891859865
 30
0.0
 10
39.36360925178231
 20
11.11249278889802
 30
0.0
  0
SPLINE
  5
26C
330
1F
100
AcDbEntity
  8
SK3
  6
SLD-Dashed
370
    18
100
AcDbSpline
210
0.0
220
0.0
230
1.0
 70
     8
 71
     3
 72
    34
 73
    30
 74
     0
 42
0.000000001
 43
0.00000001
 40
0.499999999999998
 40
0.499999999999998
 40
0.499999999999998
 40
0.499999999999998
 40
0.5312499999999979
 40
0.5312499999999979
 40
0.5624999999999978
 40
0.5624999999999978
 40
0.5937499999999976
 40
0.5937499999999976
 40
0.6249999999999974
 40
0.6249999999999974
 40
0.6562499999999973
 40
0.6562499999999973
 40
0.6874999999999972
 40
0.6874999999999972
 40
0.7499999999999969
 40
0.7499999999999969
 40
0.8124999999999973
 40
0.8124999999999973
 40
0.8437499999999978
 40
0.8437499999999978
 40
0.8749999999999982
 40
0.8749999999999982
 40
0.9062499999999987
 40
0.9062499999999987
 40
0.937499999999999
 40
0.937499999999999
 40
0.9687499999999994
 40
0.9687499999999994
 40
1.0
 40
1.0
 40
1.0
 40
1.0
 10
9.638805742161722
 20
10.95392502366162
 30
0.0
 10
9.6938811607363
 20
10.8470588703952
 30
0.0
 10
9.763179283156633
 20
10.74439645836096
 30
0.0
 10
9.923515798149971
 20
10.55592715127707
 30
0.0
 10
10.01390276352453
 20
10.47020735344792
 30
0.0
 10
10.21445694949211
 20
10.31296552728878
 30
0.0
 10
10.32267837600209
 20
10.24333508542227
 30
0.0
 10
10.54307526498122
 20
10.12288935951391
 30
0.0
 10
10.65791658596822
 20
10.07070374731721
 30
0.0
 10
10.87819871140988
 20
9.98446318204086
 30
0.0
 10
10.98608094611136
 20
9.949205279737832
 30
0.0
 10
11.18968749579594
 20
9.892304259468993
 30
0.0
 10
11.28527842069085
 20
9.870580048613817
 30
0.0
 10
11.55898297450221
 20
9.820769890309972
 30
0.0
 10
11.72337034356696
 20
9.808096789548728
 30
0.0
 10
12.02194861504766
 20
9.821477532699769
 30
0.0
 10
12.15920875119765
 20
9.847310188176722
 30
0.0
 10
12.34760730605759
 20
9.92782469274442
 30
0.0
 10
12.40688352391457
 20
9.961503747003366
 30
0.0
 10
12.51780294837551
 20
10.0474980864718
 30
0.0
 10
12.56969006353045
 20
10.1002182908583
 30
0.0
 10
12.65991931900841
 20
10.22933776798929
 30
0.0
 10
12.69929072119648
 20
10.30748393412818
 30
0.0
 10
12.75586568636479
 20
10.4930273204103
 30
0.0
 10
12.77303399215494
 20
10.60290348381505
 30
0.0
 10
12.77663319740259
 20
10.83901366027914
 30
0.0
 10
12.7630699394838
 20
10.96766771108132
 30
0.0
 10
12.71170841969951
 20
11.21837738140153
 30
0.0
 10
12.67469993892523
 20
11.34057418425334
 30
0.0
 10
12.63040931107559
 20
11.45745606890562
 30
0.0
  0
SPLINE
  5
26D
330
1F
100
AcDbEntity
  8
SK3
  6
SLD-Dashed
370
    18
100
AcDbSpline
210
0.0
220
0.0
230
1.0
 70
     8
 71
     3
 72
    26
 73
    22
 74
     0
 42
0.000000001
 43
0.00000001
 40
0.0
 40
0.0
 40
0.0
 40
0.0
 40
0.0624999999999995
 40
0.0624999999999995
 40
0.124999999999999
 40
0.124999999999999
 40
0.1874999999999986
 40
0.1874999999999986
 40
0.2499999999999981
 40
0.2499999999999981
 40
0.281249999999998
 40
0.281249999999998
 40
0.3124999999999979
 40
0.3124999999999979
 40
0.3749999999999981
 40
0.3749999999999981
 40
0.4374999999999984
 40
0.4374999999999984
 40
0.4687499999999982
 40
0.4687499999999982
 40
0.499999999999998
 40
0.499999999999998
 40
0.499999999999998
 40
0.499999999999998
 10
12.6304093110756
 20
11.45745606890562
 30
0.0
 10
12.54182805537632
 20
11.69121983821018
 30
0.0
 10
12.43200682775378
 20
11.89056157115177
 30
0.0
 10
12.1841993275916
 20
12.25514411813747
 30
0.0
 10
12.0483452292692
 20
12.41463399152624
 30
0.0
 10
11.7531401364613
 20
12.69173524411803
 30
0.0
 10
11.59091385222426
 20
12.81202758601129
 30
0.0
 10
11.23004729019514
 20
12.99241430793244
 30
0.0
 10
11.02728334192553
 20
13.05343833574646
 30
0.0
 10
10.69987000905187
 20
13.05646994226837
 30
0.0
 10
10.58531472788944
 20
13.04197607005519
 30
0.0
 10
10.36396153134629
 20
12.97944613660276
 30
0.0
 10
10.25449961952683
 20
12.93102694430324
 30
0.0
 10
9.947578697971347
 20
12.73948161914288
 30
0.0
 10
9.776646578307208
 20
12.55346040827497
 30
0.0
 10
9.54245196156621
 20
12.12678030999251
 30
0.0
 10
9.478612055377935
 20
11.88580640702581
 30
0.0
 10
9.473421112414282
 20
11.52565520755326
 30
0.0
 10
9.486345898652646
 20
11.40749361566879
 30
0.0
 10
9.541390615621037
 20
11.17459151908689
 30
0.0
 10
9.583730323587128
 20
11.06079117692803
 30
0.0
 10
9.638805742161722
 20
10.95392502366162
 30
0.0
  0
SPLINE
  5
26E
330
1F
100
AcDbEntity
  8
SK3
  6
SLD-Dashed
370
    18
100
AcDbSpline
210
0.0
220
0.0
230
1.0
 70
     8
 71
     3
 72
    18
 73
    14
 74
     0
 42
0.000000001
 43
0.00000001
 40
0.0
 40
0.0
 40
0.0
 40
0.0
 40
0.0501962867734932
 40
0.1000306214437242
 40
0.185566733118763
 40
0.2501823892320759
 40
0.3747066158220738
 40
0.499823298218966
 40
0.6247294758455325
 40
0.7494251058857301
 40
0.8746331028690641
 40
0.9372230808189376
 40
1.0
 40
1.0
 40
1.0
 40
1.0
 10
3.949999999999989
 20
46.81625358782992
 30
0.0
 10
3.943300488172035
 20
46.81609127853695
 30
0.0
 10
3.929949772918045
 20
46.81576783032027
 30
0.0
 10
3.905360779048066
 20
46.81256776526219
 30
0.0
 10
3.879327985377789
 20
46.80630579793128
 30
0.0
 10
3.844998498051083
 20
46.79331555547186
 30
0.0
 10
3.808260602500912
 20
46.77247000397297
 30
0.0
 10
3.770344503827428
 20
46.73942242416841
 30
0.0
 10
3.739587180509245
 20
46.69961163074883
 30
0.0
 10
3.71693365494073
 20
46.65468875110017
 30
0.0
 10
3.705476597958097
 20
46.61434662644385
 30
0.0
 10
3.700675324942531
 20
46.58119847829339
 30
0.0
 10
3.70022533198365
 20
46.56446483112379
 30
0.0
 10
3.700000000000037
 20
46.55608553132448
 30
0.0
  0
SPLINE
  5
26F
330
1F
100
AcDbEntity
  8
SK3
  6
SLD-Dashed
370
    18
100
AcDbSpline
210
0.0
220
0.0
230
1.0
 70
     8
 71
     3
 72
    18
 73
    14
 74
     0
 42
0.000000001
 43
0.00000001
 40
0.0
 40
0.0
 40
0.0
 40
0.0
 40
0.0502196103872228
 40
0.1000870260924098
 40
0.1855086368940469
 40
0.2501550808791907
 40
0.3746583157461306
 40
0.4998570853792907
 40
0.6242312608259453
 40
0.7494324099488449
 40
0.8740366596180048
 40
0.9370350243166926
 40
1.0
 40
1.0
 40
1.0
 40
1.0
 10
18.55000000000006
 20
46.55608553132442
 30
0.0
 10
18.54985614514713
 20
46.56278755186002
 30
0.0
 10
18.54956944430845
 20
46.57614459105338
 30
0.0
 10
18.54672594518125
 20
46.60076085239338
 30
0.0
 10
18.54114997473672
 20
46.62692328764689
 30
0.0
 10
18.5294858307287
 20
46.66169890756606
 30
0.0
 10
18.51054340758338
 20
46.6994198069071
 30
0.0
 10
18.47987172088776
 20
46.73918434013713
 30
0.0
 10
18.44197136356044
 20
46.77229285140237
 30
0.0
 10
18.39830135356871
 20
46.79720148409476
 30
0.0
 10
18.35828818785668
 20
46.81006094110494
 30
0.0
 10
18.32521964393112
 20
46.8154854540108
 30
0.0
 10
18.30840506230054
 20
46.81599758847394
 30
0.0
 10
18.30000000000001
 20
46.81625358782996
 30
0.0
  0
SPLINE
  5
270
330
1F
100
AcDbEntity
  8
1
  6
SLD-Dashed
370
    18
100
AcDbSpline
210
0.0
220
0.0
230
1.0
 70
     8
 71
     3
 72
     8
 73
     4
 74
     0
 42
0.000000001
 43
0.00000001
 40
0.0
 40
0.0
 40
0.0
 40
0.0
 40
1.0
 40
1.0
 40
1.0
 40
1.0
 10
9.200000000002026
 20
44.5790106634328
 30
0.0
 10
8.786353866861468
 20
45.32508460154086
 30
0.0
 10
8.372088490924066
 20
46.07082082932835
 30
0.0
 10
7.957289380062154
 20
46.81625358782994
 30
0.0
  0
SPLINE
  5
271
330
1F
100
AcDbEntity
  8
1
  6
SLD-Dashed
370
    18
100
AcDbSpline
210
0.0
220
0.0
230
1.0
 70
     8
 71
     3
 72
    10
 73
     6
 74
     0
 42
0.000000001
 43
0.00000001
 40
0.0
 40
0.0
 40
0.0
 40
0.0
 40
0.5
 40
0.5
 40
1.0
 40
1.0
 40
1.0
 40
1.0
 10
9.950000000001232
 20
43.7694359684941
 30
0.0
 10
9.748771536222414
 20
43.76943596849378
 30
0.0
 10
9.550990673892226
 20
43.85856672856775
 30
0.0
 10
9.277097785723981
 20
44.15022946993273
 30
0.0
 10
9.200000000000305
 20
44.34957328976746
 30
0.0
 10
9.199999999999985
 20
44.55102159322501
 30
0.0
  0
SPLINE
  5
272
330
1F
100
AcDbEntity
  8
1
  6
SLD-Dashed
370
    18
100
AcDbSpline
210
0.0
220
0.0
230
1.0
 70
     8
 71
     3
 72
    12
 73
     8
 74
     0
 42
0.000000001
 43
0.00000001
 40
0.0
 40
0.0
 40
0.0
 40
0.0
 40
0.5000000000000048
 40
0.5000000000000048
 40
0.7500000000000023
 40
0.7500000000000023
 40
1.0
 40
1.0
 40
1.0
 40
1.0
 10
13.02999999999991
 20
44.55102159322491
 30
0.0
 10
13.02999999999989
 20
44.35104831812323
 30
0.0
 10
12.95399603318284
 20
44.15150826736608
 30
0.0
 10
12.74724095984753
 20
43.93116827138052
 30
0.0
 10
12.66314206268637
 20
43.87128621650957
 30
0.0
 10
12.48048875274073
 20
43.79084228716532
 30
0.0
 10
12.37984375713169
 20
43.76943596849289
 30
0.0
 10
12.28000000000001
 20
43.76943596849289
 30
0.0
  0
SPLINE
  5
273
330
1F
100
AcDbEntity
  8
1
  6
SLD-Dashed
370
    18
100
AcDbSpline
210
0.0
220
0.0
230
1.0
 70
     8
 71
     3
 72
     8
 73
     4
 74
     0
 42
0.000000001
 43
0.00000001
 40
0.0
 40
0.0
 40
0.0
 40
0.0
 40
1.0
 40
1.0
 40
1.0
 40
1.0
 10
14.27271061995095
 20
46.81625358783776
 30
0.0
 10
13.85791150908533
 20
46.07082082933481
 30
0.0
 10
13.44364613314423
 20
45.32508460154594
 30
0.0
 10
13.02999999999999
 20
44.57901066343648
 30
0.0
  0
SPLINE
  5
274
330
1F
100
AcDbEntity
  8
1
  6
SLD-Dashed
370
    18
100
AcDbSpline
210
0.0
220
0.0
230
1.0
 70
     8
 71
     3
 72
    12
 73
     8
 74
     0
 42
0.000000001
 43
0.00000001
 40
0.0
 40
0.0
 40
0.0
 40
0.0
 40
0.2499999999999967
 40
0.2499999999999967
 40
0.4999999999999933
 40
0.4999999999999933
 40
1.0
 40
1.0
 40
1.0
 40
1.0
 10
3.19999999999979
 20
-46.69763484374749
 30
0.0
 10
3.199999999999831
 20
-46.79851095846151
 30
0.0
 10
3.218629406337773
 20
-46.89733966428926
 30
0.0
 10
3.291844246696875
 20
-47.08411469648331
 30
0.0
 10
3.34597917351276
 20
-47.16991322229986
 30
0.0
 10
3.551871853062258
 20
-47.38753444472503
 30
0.0
 10
3.748026856781355
 20
-47.47548419974256
 30
0.0
 10
3.950000000000009
 20
-47.4754841997425
 30
0.0
  0
SPLINE
  5
275
330
1F
100
AcDbEntity
  8
1
  6
SLD-Dashed
370
    18
100
AcDbSpline
210
0.0
220
0.0
230
1.0
 70
     8
 71
     3
 72
    12
 73
     8
 74
     0
 42
0.000000001
 43
0.00000001
 40
0.0
 40
0.0
 40
0.0
 40
0.0
 40
0.2499999999999985
 40
0.2499999999999985
 40
0.499999999999997
 40
0.499999999999997
 40
1.0
 40
1.0
 40
1.0
 40
1.0
 10
18.30000000000001
 20
-47.4754841997425
 30
0.0
 10
18.40091596910942
 20
-47.4754841997425
 30
0.0
 10
18.50002158252257
 20
-47.45437693482705
 30
0.0
 10
18.68315226992451
 20
-47.37426897057826
 30
0.0
 10
18.76654490405268
 20
-47.31511647588037
 30
0.0
 10
18.97195148872742
 20
-47.09831987092235
 30
0.0
 10
19.05
 20
-46.89926900274105
 30
0.0
 10
19.05
 20
-46.69763484374772
 30
0.0
  0
SPLINE
  5
276
330
1F
100
AcDbEntity
  8
1
  6
SLD-Dashed
370
    18
100
AcDbSpline
210
0.0
220
0.0
230
1.0
 70
     8
 71
     3
 72
     8
 73
     4
 74
     0
 42
0.000000001
 43
0.00000001
 40
0.0
 40
0.0
 40
0.0
 40
0.0
 40
1.0
 40
1.0
 40
1.0
 40
1.0
 10
14.63972339340267
 20
-47.47548419974251
 30
0.0
 10
14.10222500453559
 20
-46.5104965471081
 30
0.0
 10
13.56559195163211
 20
-45.54503249842019
 30
0.0
 10
13.02999999999999
 20
-44.57901066343649
 30
0.0
  0
SPLINE
  5
277
330
1F
100
AcDbEntity
  8
1
  6
SLD-Dashed
370
    18
100
AcDbSpline
210
0.0
220
0.0
230
1.0
 70
     8
 71
     3
 72
    12
 73
     8
 74
     0
 42
0.000000001
 43
0.00000001
 40
0.0
 40
0.0
 40
0.0
 40
0.0
 40
0.5
 40
0.5
 40
0.75
 40
0.75
 40
1.0
 40
1.0
 40
1.0
 40
1.0
 10
13.03000000000026
 20
-44.55102159322528
 30
0.0
 10
13.03000000000033
 20
-44.35094747116185
 30
0.0
 10
12.9523869298502
 20
-44.14958800989086
 30
0.0
 10
12.74748896269969
 20
-43.9315357022575
 30
0.0
 10
12.66372770014787
 20
-43.87162606259756
 30
0.0
 10
12.48090790509571
 20
-43.79094541821722
 30
0.0
 10
12.3805733178244
 20
-43.76943596849286
 30
0.0
 10
12.28000000000001
 20
-43.76943596849289
 30
0.0
  0
SPLINE
  5
278
330
1F
100
AcDbEntity
  8
1
  6
SLD-Dashed
370
    18
100
AcDbSpline
210
0.0
220
0.0
230
1.0
 70
     8
 71
     3
 72
    12
 73
     8
 74
     0
 42
0.000000001
 43
0.00000001
 40
0.0
 40
0.0
 40
0.0
 40
0.0
 40
0.2500000000000039
 40
0.2500000000000039
 40
0.5000000000000078
 40
0.5000000000000078
 40
1.0
 40
1.0
 40
1.0
 40
1.0
 10
9.949999999999834
 20
-43.76943596849306
 30
0.0
 10
9.850030395358797
 20
-43.7694359684931
 30
0.0
 10
9.750114974766216
 20
-43.79051518316425
 30
0.0
 10
9.565507057761256
 20
-43.87194262843708
 30
0.0
 10
9.482715011846722
 20
-43.93126060501225
 30
0.0
 10
9.276579660402879
 20
-44.15080408372875
 30
0.0
 10
9.200000000000028
 20
-44.35163254795803
 30
0.0
 10
9.199999999999985
 20
-44.551021593225
 30
0.0
  0
SPLINE
  5
279
330
1F
100
AcDbEntity
  8
1
  6
SLD-Dashed
370
    18
100
AcDbSpline
210
0.0
220
0.0
230
1.0
 70
     8
 71
     3
 72
     8
 73
     4
 74
     0
 42
0.000000001
 43
0.00000001
 40
0.0
 40
0.0
 40
0.0
 40
0.0
 40
1.0
 40
1.0
 40
1.0
 40
1.0
 10
9.199999999999985
 20
-44.57901066343648
 30
0.0
 10
8.664408048367878
 20
-45.54503249842018
 30
0.0
 10
8.127774995464424
 20
-46.51049654710809
 30
0.0
 10
7.590276606597349
 20
-47.47548419974249
 30
0.0
  0
SPLINE
  5
27A
330
1F
100
AcDbEntity
  8
SK3
  6
SLD-Dashed
370
    18
100
AcDbSpline
210
0.0
220
0.0
230
1.0
 70
     8
 71
     3
 72
    34
 73
    30
 74
     0
 42
0.000000001
 43
0.00000001
 40
0.5000000000000003
 40
0.5000000000000003
 40
0.5000000000000003
 40
0.5000000000000003
 40
0.5625000000000013
 40
0.5625000000000013
 40
0.5937500000000011
 40
0.5937500000000011
 40
0.625000000000001
 40
0.625000000000001
 40
0.6562500000000009
 40
0.6562500000000009
 40
0.6875000000000008
 40
0.6875000000000008
 40
0.7187500000000007
 40
0.7187500000000007
 40
0.7500000000000004
 40
0.7500000000000004
 40
0.7812500000000003
 40
0.7812500000000003
 40
0.8125000000000002
 40
0.8125000000000002
 40
0.8437500000000001
 40
0.8437500000000001
 40
0.875
 40
0.875
 40
0.9062499999999999
 40
0.9062499999999999
 40
0.9374999999999997
 40
0.9374999999999997
 40
1.0
 40
1.0
 40
1.0
 40
1.0
 10
10.60808274902045
 20
14.67518531385664
 30
0.0
 10
10.7714399435272
 20
14.66271400222903
 30
0.0
 10
10.9539607682107
 20
14.63137977172278
 30
0.0
 10
11.25812245907615
 20
14.5469177059656
 30
0.0
 10
11.36641585866906
 20
14.51171888144388
 30
0.0
 10
11.58574352105282
 20
14.42634662926307
 30
0.0
 10
11.69715944869877
 20
14.37625545607604
 30
0.0
 10
11.92117180667888
 20
14.25483711630818
 30
0.0
 10
12.02893523597722
 20
14.18587333985282
 30
0.0
 10
12.22961030853029
 20
14.02983333564746
 30
0.0
 10
12.32267742835867
 20
13.94226901556094
 30
0.0
 10
12.48372543018651
 20
13.7541501921711
 30
0.0
 10
12.55366053916099
 20
13.6513032309926
 30
0.0
 10
12.66489321927143
 20
13.43691773984445
 30
0.0
 10
12.7071773018843
 20
13.32435113894572
 30
0.0
 10
12.76326417564931
 20
13.08988167819452
 30
0.0
 10
12.7763551192606
 20
12.97149039057748
 30
0.0
 10
12.77342672652903
 20
12.73211084337569
 30
0.0
 10
12.75684979458239
 20
12.61060743991047
 30
0.0
 10
12.69552150102995
 20
12.37773497196915
 30
0.0
 10
12.65033349294087
 20
12.26373909474825
 30
0.0
 10
12.53298957942556
 20
12.04909612932804
 30
0.0
 10
12.46214536200849
 20
11.95022400081661
 30
0.0
 10
12.29651277322139
 20
11.77143410287178
 30
0.0
 10
12.20150676240367
 20
11.69219588739499
 30
0.0
 10
11.99926684334574
 20
11.5653302009384
 30
0.0
 10
11.88885801145315
 20
11.51587497169279
 30
0.0
 10
11.55399205333034
 20
11.42069275726627
 30
0.0
 10
11.32716468948121
 20
11.42871083881322
 30
0.0
 10
11.125
 20
11.48273236161757
 30
0.0
  0
SPLINE
  5
27B
330
1F
100
AcDbEntity
  8
SK3
  6
SLD-Dashed
370
    18
100
AcDbSpline
210
0.0
220
0.0
230
1.0
 70
     8
 71
     3
 72
    30
 73
    26
 74
     0
 42
0.000000001
 43
0.00000001
 40
0.0
 40
0.0
 40
0.0
 40
0.0
 40
0.0624999999999997
 40
0.0624999999999997
 40
0.1249999999999995
 40
0.1249999999999995
 40
0.1562499999999993
 40
0.1562499999999993
 40
0.1874999999999992
 40
0.1874999999999992
 40
0.2187499999999991
 40
0.2187499999999991
 40
0.2499999999999989
 40
0.2499999999999989
 40
0.2812499999999988
 40
0.2812499999999988
 40
0.3124999999999987
 40
0.3124999999999987
 40
0.3437499999999986
 40
0.3437499999999986
 40
0.3749999999999984
 40
0.3749999999999984
 40
0.4374999999999994
 40
0.4374999999999994
 40
0.5000000000000003
 40
0.5000000000000003
 40
0.5000000000000003
 40
0.5000000000000003
 10
11.125
 20
11.48273236161758
 30
0.0
 10
10.92283531051877
 20
11.53675388442191
 30
0.0
 10
10.74714710048236
 20
11.63024516394925
 30
0.0
 10
10.42066988662171
 20
11.86454434722231
 30
0.0
 10
10.27375737476433
 20
12.00407384287208
 30
0.0
 10
10.07148943268482
 20
12.2417783920363
 30
0.0
 10
10.00699015299669
 20
12.32609339770681
 30
0.0
 10
9.883509956371189
 20
12.50701007175131
 30
0.0
 10
9.824268573097845
 20
12.60415729348404
 30
0.0
 10
9.71515470609033
 20
12.80934651131551
 30
0.0
 10
9.664396735733453
 20
12.91903622889808
 30
0.0
 10
9.576981863499118
 20
13.14891853741636
 30
0.0
 10
9.540303532497477
 20
13.26831266228052
 30
0.0
 10
9.487704529937997
 20
13.52080982106194
 30
0.0
 10
9.473745253197968
 20
13.64846695671306
 30
0.0
 10
9.476438089560544
 20
13.88700257856813
 30
0.0
 10
9.493197896428024
 20
13.99682053671473
 30
0.0
 10
9.549353346861217
 20
14.18374939795269
 30
0.0
 10
9.58858947784802
 20
14.2623151046244
 30
0.0
 10
9.678480018824306
 20
14.39201189392008
 30
0.0
 10
9.730204466999167
 20
14.44496665500973
 30
0.0
 10
9.89634859518447
 20
14.57471258814562
 30
0.0
 10
10.02083275682618
 20
14.6245520934729
 30
0.0
 10
10.29708420272973
 20
14.68178062150165
 30
0.0
 10
10.4447255545137
 20
14.68765662548424
 30
0.0
 10
10.60808274902045
 20
14.67518531385664
 30
0.0
  0
DIMENSION
  5
27C
330
1F
100
AcDbEntity
  8
2
100
AcDbDimension
  2
_D
 10
101.6
 20
70.6945079386
 30
0.0
 11
35.8004799949
 21
70.6945079386
 31
0.0
 70
   160
  1
<>
 71
     2
 42
-1.0
  3
SLDDIMSTYLE0
100
AcDbAlignedDimension
 13
0.0
 23
34.925
 33
0.0
 14
101.6
 24
17.8
 34
0.0
100
AcDbRotatedDimension
  0
DIMENSION
  5
291
330
1F
100
AcDbEntity
  8
SK2
100
AcDbDimension
  2
_D_1
 10
101.6
 20
58.7303544377
 30
0.0
 11
51.6997700829
 21
58.7303544377
 31
0.0
 70
   160
  1
<>
 71
     2
 42
-1.0
  3
SLDDIMSTYLE0
100
AcDbAlignedDimension
 13
19.05
 23
46.5560855313
 33
0.0
 14
101.6
 24
17.8
 34
0.0
100
AcDbRotatedDimension
  0
DIMENSION
  5
2A4
330
1F
100
AcDbEntity
  8
SK2
100
AcDbDimension
  2
_D_2
 10
101.6
 20
46.8339551576
 30
0.0
 11
67.9098167801
 21
46.8339551576
 31
0.0
 70
   160
  1
<>
 71
     2
 42
-1.0
  3
SLDDIMSTYLE0
100
AcDbAlignedDimension
 13
35.05
 23
34.163
 33
0.0
 14
101.6
 24
17.8
 34
0.0
100
AcDbRotatedDimension
  0
DIMENSION
  5
2B7
330
1F
100
AcDbEntity
  8
SK2
100
AcDbDimension
  2
_D_3
 10
19.05
 20
58.7303544377
 30
0.0
 11
9.4788461476
 21
58.7303544377
 31
0.0
 70
   160
  1
<>
 71
     2
 42
-1.0
  3
SLDDIMSTYLE1
100
AcDbAlignedDimension
 13
0.0
 23
34.925
 33
0.0
 14
19.05
 24
46.5560855313
 34
0.0
100
AcDbRotatedDimension
  0
DIMENSION
  5
2C2
330
1F
100
AcDbEntity
  8
SK2
100
AcDbDimension
  2
_D_4
 10
101.6
 20
32.6923825358
 30
0.0
 11
87.8764589214
 21
32.6923825358
 31
0.0
 70
   160
  1
<>
 71
     2
 42
-1.0
  3
SLDDIMSTYLE0
100
AcDbAlignedDimension
 13
73.025
 23
25.3
 33
0.0
 14
101.6
 24
17.8
 34
0.0
100
AcDbRotatedDimension
  0
DIMENSION
  5
2D5
330
1F
100
AcDbEntity
  8
SK2
100
AcDbDimension
  2
_D_5
 10
73.025
 20
32.6923825358
 30
0.0
 11
58.3167119947
 21
32.6923825358
 31
0.0
 70
   160
  1
<>
 71
     2
 42
-1.0
  3
SLDDIMSTYLE0
100
AcDbAlignedDimension
 13
48.52060569
 23
23.3
 33
0.0
 14
73.025
 24
25.3
 34
0.0
100
AcDbRotatedDimension
  0
DIMENSION
  5
2E8
330
1F
100
AcDbEntity
  8
SK2
100
AcDbDimension
  2
_D_6
 10
116.4511346134
 20
12.5
 30
0.0
 11
116.4511346134
 21
-0.1330880196
 31
0.0
 70
   160
  1
%%c<>
 71
     2
 42
-1.0
  3
SLDDIMSTYLE2
100
AcDbAlignedDimension
 13
100.6
 23
-12.5
 33
0.0
 14
100.6
 24
12.5
 34
0.0
 50
90.0
100
AcDbRotatedDimension
  0
DIMENSION
  5
2FD
330
1F
100
AcDbEntity
  8
SK2
100
AcDbDimension
  2
_D_7
 10
132.7497030251
 20
-17.8
 30
0.0
 11
132.7497030251
 21
-0.1330880196
 31
0.0
 70
   160
  1
%%c<>
 71
     2
 42
-1.0
  3
SLDDIMSTYLE0
100
AcDbAlignedDimension
 13
101.6
 23
17.8
 33
0.0
 14
101.6
 24
-17.8
 34
0.0
 50
90.0
100
AcDbRotatedDimension
  0
DIMENSION
  5
30F
330
1F
100
AcDbEntity
  8
SK2
100
AcDbDimension
  2
_D_8
 10
146.1918213029
 20
-25.4
 30
0.0
 11
146.1918213029
 21
-0.1330880196
 31
0.0
 70
   160
  1
%%c<>
 71
     2
 42
-1.0
  3
SLDDIMSTYLE0
100
AcDbAlignedDimension
 13
94.0
 23
25.4
 33
0.0
 14
94.0
 24
-25.4
 34
0.0
 50
90.0
100
AcDbRotatedDimension
  0
DIMENSION
  5
321
330
1F
100
AcDbEntity
  8
SK2
100
AcDbDimension
  2
_D_9
 10
101.6
 20
-63.5749812681
 30
0.0
 11
-11.2444064483
 21
-63.5749812681
 31
0.0
 70
   160
  1
<>
 71
     2
 42
-1.0
  3
SLDDIMSTYLE3
100
AcDbAlignedDimension
 13
-101.6
 23
-18.2922326599
 33
0.0
 14
101.6
 24
-17.8
 34
0.0
 50
0.0
100
AcDbRotatedDimension
  0
DIMENSION
  5
335
330
1F
100
AcDbEntity
  8
SK2
100
AcDbDimension
  2
_D_10
 10
101.6
 20
-51.998465978
 30
0.0
 11
75.0245287568
 21
-51.998465978
 31
0.0
 70
   160
  1
<>
 71
     2
 42
-1.0
  3
SLDDIMSTYLE0
100
AcDbAlignedDimension
 13
47.6
 23
-12.75
 33
0.0
 14
101.6
 24
-17.8
 34
0.0
100
AcDbRotatedDimension
  0
DIMENSION
  5
348
330
1F
100
AcDbEntity
  8
SK2
100
AcDbDimension
  2
_D_11
 10
101.6
 20
-38.7304977209
 30
0.0
 11
87.8764589214
 21
-38.7304977209
 31
0.0
 70
   160
  1
<>
 71
     2
 42
-1.0
  3
SLDDIMSTYLE4
100
AcDbAlignedDimension
 13
94.0
 23
-25.4
 33
0.0
 14
101.6
 24
-17.8
 34
0.0
100
AcDbRotatedDimension
  0
DIMENSION
  5
355
330
1F
100
AcDbEntity
  8
SK2
100
AcDbDimension
  2
_D_12
 10
-122.1714950662
 20
47.2968145978
 30
0.0
 11
-122.1714950662
 21
-0.4240391877
 31
0.0
 70
   160
  1
%%c<>
 71
     2
 42
-1.0
  3
SLDDIMSTYLE1
100
AcDbAlignedDimension
 13
3.95
 23
-47.4754841997
 33
0.0
 14
3.95
 24
47.2968145978
 34
0.0
 50
90.0
100
AcDbRotatedDimension
  0
DIMENSION
  5
360
330
1F
100
AcDbEntity
  8
SK2
100
AcDbDimension
  2
_D_13
 10
-111.8078297842
 20
-12.6999998465
 30
0.0
 11
-111.8078297842
 21
-0.1330880196
 31
0.0
 70
   160
  1
<>
 71
     2
 42
-1.0
  3
SLDDIMSTYLE1
100
AcDbAlignedDimension
 13
-94.967097044
 23
12.6999998465
 33
0.0
 14
-94.967097044
 24
-12.6999998465
 34
0.0
 50
90.0
100
AcDbRotatedDimension
  0
MTEXT
  5
36B
330
1F
100
AcDbEntity
  8
SK6
 62
     5
100
AcDbMText
 10
-64.9575127326
 20
-37.2572393076
 30
0.0
 40
3.5
 41
0.0
 71
     1
 72
     1
  1
392.45520-50 25 100
  7
SLDTEXTSTYLE0
 73
     1
 44
1.0
  0
MTEXT
  5
36C
330
1F
100
AcDbEntity
  8
SK6
 62
     5
100
AcDbMText
 10
-66.3724107246
 20
39.7488336867
 30
0.0
 40
3.5
 41
0.0
 71
     1
 72
     1
  1
ASME B5.50 CAT 50
  7
SLDTEXTSTYLE0
 73
     1
 44
1.0
  0
ENDSEC
  0
SECTION
  2
OBJECTS
  0
DICTIONARY
  5
C
330
0
100
AcDbDictionary
281
     1
  3
ACAD_GROUP
350
D
  3
ACAD_LAYOUT
350
1A
  3
ACAD_MLINESTYLE
350
17
  3
ACAD_PLOTSETTINGS
350
19
  3
ACAD_PLOTSTYLENAME
350
E
  3
ACAD_SCALELIST
350
47
  0
DICTIONARY
  5
D
102
{ACAD_REACTORS
330
C
102
}
330
C
100
AcDbDictionary
281
     1
  0
DICTIONARY
  5
1A
102
{ACAD_REACTORS
330
C
102
}
330
C
100
AcDbDictionary
281
     1
  3
Layout1
350
1E
  3
Layout2
350
26
  3
Model
350
22
  0
DICTIONARY
  5
17
102
{ACAD_REACTORS
330
C
102
}
330
C
100
AcDbDictionary
281
     1
  3
Standard
350
18
  0
DICTIONARY
  5
19
102
{ACAD_REACTORS
330
C
102
}
330
C
100
AcDbDictionary
281
     1
  0
ACDBDICTIONARYWDFLT
  5
E
102
{ACAD_REACTORS
330
C
102
}
330
C
100
AcDbDictionary
281
     1
  3
Normal
350
F
100
AcDbDictionaryWithDefault
340
F
  0
DICTIONARY
  5
47
102
{ACAD_REACTORS
330
C
102
}
330
C
100
AcDbDictionary
281
     1
  3
A0
350
48
  3
A1
350
49
  3
A2
350
4A
  3
A3
350
4B
  3
A4
350
4C
  3
A5
350
4D
  3
A6
350
4E
  3
A7
350
4F
  3
A8
350
50
  3
A9
350
51
  3
B0
350
52
  3
B1
350
53
  3
B2
350
54
  3
B3
350
55
  3
B4
350
56
  3
B5
350
57
  3
B6
350
58
  3
B7
350
59
  3
B8
350
5A
  3
B9
350
5B
  3
C0
350
5C
  3
C1
350
5D
  3
C2
350
5E
  3
C3
350
5F
  3
C4
350
60
  3
C5
350
61
  3
C6
350
62
  3
C7
350
63
  3
C8
350
64
  3
C9
350
65
  3
D0
350
66
  3
D1
350
67
  3
D2
350
68
  0
LAYOUT
  5
1E
102
{ACAD_REACTORS
330
1A
102
}
330
1A
100
AcDbPlotSettings
  1

  2
none_device
  4

  6

 40
0.0
 41
0.0
 42
0.0
 43
0.0
 44
0.0
 45
0.0
 46
0.0
 47
0.0
 48
0.0
 49
0.0
140
0.0
141
0.0
142
1.0
143
1.0
 70
   688
 72
     1
 73
     0
 74
     5
  7

 75
    16
147
1.0
148
0.0
149
0.0
100
AcDbLayout
  1
Layout1
 70
     1
 71
     1
 10
0.0
 20
0.0
 11
420.0
 21
297.0
 12
0.0
 22
0.0
 32
0.0
 14
1.0000000000E+20
 24
1.0000000000E+20
 34
1.0000000000E+20
 15
-1.0000000000E+20
 25
-1.0000000000E+20
 35
-1.0000000000E+20
146
0.0
 13
0.0
 23
0.0
 33
0.0
 16
1.0
 26
0.0
 36
0.0
 17
0.0
 27
1.0
 37
0.0
 76
     0
330
1B
  0
LAYOUT
  5
26
102
{ACAD_REACTORS
330
1A
102
}
330
1A
100
AcDbPlotSettings
  1

  2
none_device
  4

  6

 40
0.0
 41
0.0
 42
0.0
 43
0.0
 44
0.0
 45
0.0
 46
0.0
 47
0.0
 48
0.0
 49
0.0
140
0.0
141
0.0
142
1.0
143
1.0
 70
   688
 72
     1
 73
     0
 74
     5
  7

 75
    16
147
1.0
148
0.0
149
0.0
100
AcDbLayout
  1
Layout2
 70
     1
 71
     2
 10
0.0
 20
0.0
 11
0.0
 21
0.0
 12
0.0
 22
0.0
 32
0.0
 14
0.0
 24
0.0
 34
0.0
 15
0.0
 25
0.0
 35
0.0
146
0.0
 13
0.0
 23
0.0
 33
0.0
 16
1.0
 26
0.0
 36
0.0
 17
0.0
 27
1.0
 37
0.0
 76
     0
330
23
  0
LAYOUT
  5
22
102
{ACAD_REACTORS
330
1A
102
}
330
1A
100
AcDbPlotSettings
  1

  2
none_device
  4
Letter_(8.50_x_11.00_Inches)
  6

 40
6.35
 41
6.35
 42
6.35000508
 43
6.35000508
 44
215.9
 45
279.4
 46
0.0
 47
0.0
 48
0.0
 49
0.0
140
0.0
141
0.0
142
1.0
143
1.0
 70
  1712
 72
     1
 73
     0
 74
     0
  7

 75
     0
147
1.0
148
0.0
149
0.0
100
AcDbLayout
  1
Model
 70
     1
 71
     0
 10
0.0
 20
0.0
 11
297.0
 21
210.0
 12
0.0
 22
0.0
 32
0.0
 14
0.0
 24
0.0
 34
0.0
 15
297.0
 25
210.0
 35
0.0
146
0.0
 13
0.0
 23
0.0
 33
0.0
 16
1.0
 26
0.0
 36
0.0
 17
0.0
 27
1.0
 37
0.0
 76
     0
330
1F
331
29
  0
MLINESTYLE
  5
18
102
{ACAD_REACTORS
330
17
102
}
330
17
100
AcDbMlineStyle
  2
Standard
 70
     0
  3

 62
   256
 51
90.0
 52
90.0
 71
     2
 49
0.5
 62
   256
  6
BYLAYER
 49
-0.5
 62
   256
  6
BYLAYER
  0
ACDBPLACEHOLDER
  5
F
102
{ACAD_REACTORS
330
E
102
}
330
E
  0
SCALE
  5
48
102
{ACAD_REACTORS
330
47
102
}
330
47
100
AcDbScale
 70
     0
300
1:1
140
1.0
141
1.0
290
     1
  0
SCALE
  5
49
102
{ACAD_REACTORS
330
47
102
}
330
47
100
AcDbScale
 70
     0
300
1:2
140
1.0
141
2.0
290
     0
  0
SCALE
  5
4A
102
{ACAD_REACTORS
330
47
102
}
330
47
100
AcDbScale
 70
     0
300
1:4
140
1.0
141
4.0
290
     0
  0
SCALE
  5
4B
102
{ACAD_REACTORS
330
47
102
}
330
47
100
AcDbScale
 70
     0
300
1:5
140
1.0
141
5.0
290
     0
  0
SCALE
  5
4C
102
{ACAD_REACTORS
330
47
102
}
330
47
100
AcDbScale
 70
     0
300
1:8
140
1.0
141
8.0
290
     0
  0
SCALE
  5
4D
102
{ACAD_REACTORS
330
47
102
}
330
47
100
AcDbScale
 70
     0
300
1:10
140
1.0
141
10.0
290
     0
  0
SCALE
  5
4E
102
{ACAD_REACTORS
330
47
102
}
330
47
100
AcDbScale
 70
     0
300
1:16
140
1.0
141
16.0
290
     0
  0
SCALE
  5
4F
102
{ACAD_REACTORS
330
47
102
}
330
47
100
AcDbScale
 70
     0
300
1:20
140
1.0
141
20.0
290
     0
  0
SCALE
  5
50
102
{ACAD_REACTORS
330
47
102
}
330
47
100
AcDbScale
 70
     0
300
1:30
140
1.0
141
30.0
290
     0
  0
SCALE
  5
51
102
{ACAD_REACTORS
330
47
102
}
330
47
100
AcDbScale
 70
     0
300
1:40
140
1.0
141
40.0
290
     0
  0
SCALE
  5
52
102
{ACAD_REACTORS
330
47
102
}
330
47
100
AcDbScale
 70
     0
300
1:50
140
1.0
141
50.0
290
     0
  0
SCALE
  5
53
102
{ACAD_REACTORS
330
47
102
}
330
47
100
AcDbScale
 70
     0
300
1:100
140
1.0
141
100.0
290
     0
  0
SCALE
  5
54
102
{ACAD_REACTORS
330
47
102
}
330
47
100
AcDbScale
 70
     0
300
2:1
140
2.0
141
1.0
290
     0
  0
SCALE
  5
55
102
{ACAD_REACTORS
330
47
102
}
330
47
100
AcDbScale
 70
     0
300
4:1
140
4.0
141
1.0
290
     0
  0
SCALE
  5
56
102
{ACAD_REACTORS
330
47
102
}
330
47
100
AcDbScale
 70
     0
300
8:1
140
8.0
141
1.0
290
     0
  0
SCALE
  5
57
102
{ACAD_REACTORS
330
47
102
}
330
47
100
AcDbScale
 70
     0
300
10:1
140
10.0
141
1.0
290
     0
  0
SCALE
  5
58
102
{ACAD_REACTORS
330
47
102
}
330
47
100
AcDbScale
 70
     0
300
100:1
140
100.0
141
1.0
290
     0
  0
SCALE
  5
59
102
{ACAD_REACTORS
330
47
102
}
330
47
100
AcDbScale
 70
     0
300
1/128" = 1'-0"
140
0.0078125
141
12.0
290
     0
  0
SCALE
  5
5A
102
{ACAD_REACTORS
330
47
102
}
330
47
100
AcDbScale
 70
     0
300
1/64" = 1'-0"
140
0.015625
141
12.0
290
     0
  0
SCALE
  5
5B
102
{ACAD_REACTORS
330
47
102
}
330
47
100
AcDbScale
 70
     0
300
1/32" = 1'-0"
140
0.03125
141
12.0
290
     0
  0
SCALE
  5
5C
102
{ACAD_REACTORS
330
47
102
}
330
47
100
AcDbScale
 70
     0
300
1/16" = 1'-0"
140
0.0625
141
12.0
290
     0
  0
SCALE
  5
5D
102
{ACAD_REACTORS
330
47
102
}
330
47
100
AcDbScale
 70
     0
300
3/32" = 1'-0"
140
0.09375
141
12.0
290
     0
  0
SCALE
  5
5E
102
{ACAD_REACTORS
330
47
102
}
330
47
100
AcDbScale
 70
     0
300
1/8" = 1'-0"
140
0.125
141
12.0
290
     0
  0
SCALE
  5
5F
102
{ACAD_REACTORS
330
47
102
}
330
47
100
AcDbScale
 70
     0
300
3/16" = 1'-0"
140
0.1875
141
12.0
290
     0
  0
SCALE
  5
60
102
{ACAD_REACTORS
330
47
102
}
330
47
100
AcDbScale
 70
     0
300
1/4" = 1'-0"
140
0.25
141
12.0
290
     0
  0
SCALE
  5
61
102
{ACAD_REACTORS
330
47
102
}
330
47
100
AcDbScale
 70
     0
300
3/8" = 1'-0"
140
0.375
141
12.0
290
     0
  0
SCALE
  5
62
102
{ACAD_REACTORS
330
47
102
}
330
47
100
AcDbScale
 70
     0
300
1/2" = 1'-0"
140
0.5
141
12.0
290
     0
  0
SCALE
  5
63
102
{ACAD_REACTORS
330
47
102
}
330
47
100
AcDbScale
 70
     0
300
3/4" = 1'-0"
140
0.75
141
12.0
290
     0
  0
SCALE
  5
64
102
{ACAD_REACTORS
330
47
102
}
330
47
100
AcDbScale
 70
     0
300
1" = 1'-0"
140
1.0
141
12.0
290
     0
  0
SCALE
  5
65
102
{ACAD_REACTORS
330
47
102
}
330
47
100
AcDbScale
 70
     0
300
1-1/2" = 1'-0"
140
1.5
141
12.0
290
     0
  0
SCALE
  5
66
102
{ACAD_REACTORS
330
47
102
}
330
47
100
AcDbScale
 70
     0
300
3" = 1'-0"
140
3.0
141
12.0
290
     0
  0
SCALE
  5
67
102
{ACAD_REACTORS
330
47
102
}
330
47
100
AcDbScale
 70
     0
300
6" = 1'-0"
140
6.0
141
12.0
290
     0
  0
SCALE
  5
68
102
{ACAD_REACTORS
330
47
102
}
330
47
100
AcDbScale
 70
     0
300
1'-0" = 1'-0"
140
12.0
141
12.0
290
     0
  0
ENDSEC
  0
EOF
