  0
SECTION
  2
HEADER
  9
$ACADVER
  1
AC1015
  9
$ACADMAINTVER
 70
     6
  9
$DWGCODEPAGE
  3
ANSI_1250
  9
$INSBASE
 10
0.0
 20
0.0
 30
0.0
  9
$EXTMIN
 10
0.0
 20
0.0
 30
0.0
  9
$EXTMAX
 10
297.0
 20
210.0
 30
0.0
  9
$LIMMIN
 10
0.0
 20
0.0
  9
$LIMMAX
 10
297.0
 20
210.0
  9
$ORTHOMODE
 70
     0
  9
$REGENMODE
 70
     1
  9
$FILLMODE
 70
     1
  9
$QTEXTMODE
 70
     0
  9
$MIRRTEXT
 70
     1
  9
$LTSCALE
 40
1.0
  9
$ATTMODE
 70
     1
  9
$TEXTSIZE
 40
3.5
  9
$TRACEWID
 40
1.0
  9
$TEXTSTYLE
  7
Standard
  9
$CLAYER
  8
0
  9
$CELTYPE
  6
ByLayer
  9
$CECOLOR
 62
   256
  9
$CELTSCALE
 40
1.0
  9
$DISPSILH
 70
     0
  9
$DIMSCALE
 40
1.0
  9
$DIMASZ
 40
3.302
  9
$DIMEXO
 40
1.0
  9
$DIMDLI
 40
3.75
  9
$DIMRND
 40
0.0
  9
$DIMDLE
 40
0.0
  9
$DIMEXE
 40
1.0
  9
$DIMTP
 40
0.0
  9
$DIMTM
 40
0.0
  9
$DIMTXT
 40
3.5
  9
$DIMCEN
 40
2.5
  9
$DIMTSZ
 40
0.0
  9
$DIMTOL
 70
     0
  9
$DIMLIM
 70
     0
  9
$DIMTIH
 70
     1
  9
$DIMTOH
 70
     1
  9
$DIMSE1
 70
     0
  9
$DIMSE2
 70
     0
  9
$DIMTAD
 70
     1
  9
$DIMZIN
 70
     0
  9
$DIMBLK
  1

  9
$DIMASO
 70
     1
  9
$DIMSHO
 70
     1
  9
$DIMPOST
  1

  9
$DIMAPOST
  1

  9
$DIMALT
 70
     0
  9
$DIMALTD
 70
     3
  9
$DIMALTF
 40
0.0393700787
  9
$DIMLFAC
 40
1.0
  9
$DIMTOFL
 70
     1
  9
$DIMTVP
 40
0.0
  9
$DIMTIX
 70
     0
  9
$DIMSOXD
 70
     0
  9
$DIMSAH
 70
     0
  9
$DIMBLK1
  1

  9
$DIMBLK2
  1

  9
$DIMSTYLE
  2
ISO-25
  9
$DIMCLRD
 70
     0
  9
$DIMCLRE
 70
     0
  9
$DIMCLRT
 70
     0
  9
$DIMTFAC
 40
1.0
  9
$DIMGAP
 40
1.524
  9
$DIMJUST
 70
     0
  9
$DIMSD1
 70
     0
  9
$DIMSD2
 70
     0
  9
$DIMTOLJ
 70
     0
  9
$DIMTZIN
 70
     0
  9
$DIMALTZ
 70
     0
  9
$DIMALTTZ
 70
     0
  9
$DIMUPT
 70
     0
  9
$DIMDEC
 70
     2
  9
$DIMTDEC
 70
     2
  9
$DIMALTU
 70
     2
  9
$DIMALTTD
 70
     3
  9
$DIMTXSTY
  7
Standard
  9
$DIMAUNIT
 70
     0
  9
$DIMADEC
 70
     2
  9
$DIMALTRND
 40
0.0
  9
$DIMAZIN
 70
     0
  9
$DIMDSEP
 70
    44
  9
$DIMATFIT
 70
     3
  9
$DIMFRAC
 70
     0
  9
$DIMLDRBLK
  1

  9
$DIMLUNIT
 70
     2
  9
$DIMLWD
 70
    -2
  9
$DIMLWE
 70
    -2
  9
$DIMTMOVE
 70
     0
  9
$LUNITS
 70
     2
  9
$LUPREC
 70
     2
  9
$SKETCHINC
 40
1.0
  9
$FILLETRAD
 40
10.0
  9
$AUNITS
 70
     0
  9
$AUPREC
 70
     2
  9
$MENU
  1
.
  9
$ELEVATION
 40
0.0
  9
$PELEVATION
 40
0.0
  9
$THICKNESS
 40
0.0
  9
$LIMCHECK
 70
     0
  9
$CHAMFERA
 40
0.0
  9
$CHAMFERB
 40
0.0
  9
$CHAMFERC
 40
0.0
  9
$CHAMFERD
 40
0.0
  9
$SKPOLY
 70
     0
  9
$TDCREATE
 40
2459278.311233114
  9
$TDUCREATE
 40
2459278.269566447
  9
$TDUPDATE
 40
2459278.311235162
  9
$TDUUPDATE
 40
2459278.269568495
  9
$TDINDWG
 40
0.0000000116
  9
$TDUSRTIMER
 40
0.0000000116
  9
$USRTIMER
 70
     1
  9
$ANGBASE
 50
0.0
  9
$ANGDIR
 70
     0
  9
$PDMODE
 70
     0
  9
$PDSIZE
 40
-1.0
  9
$PLINEWID
 40
0.0
  9
$SPLFRAME
 70
     0
  9
$SPLINETYPE
 70
     6
  9
$SPLINESEGS
 70
     8
  9
$HANDSEED
  5
397
  9
$SURFTAB1
 70
     6
  9
$SURFTAB2
 70
     6
  9
$SURFTYPE
 70
     6
  9
$SURFU
 70
     6
  9
$SURFV
 70
     6
  9
$UCSBASE
  2

  9
$UCSNAME
  2

  9
$UCSORG
 10
0.0
 20
0.0
 30
0.0
  9
$UCSXDIR
 10
1.0
 20
0.0
 30
0.0
  9
$UCSYDIR
 10
0.0
 20
1.0
 30
0.0
  9
$UCSORTHOREF
  2

  9
$UCSORTHOVIEW
 70
     0
  9
$UCSORGTOP
 10
0.0
 20
0.0
 30
0.0
  9
$UCSORGBOTTOM
 10
0.0
 20
0.0
 30
0.0
  9
$UCSORGLEFT
 10
0.0
 20
0.0
 30
0.0
  9
$UCSORGRIGHT
 10
0.0
 20
0.0
 30
0.0
  9
$UCSORGFRONT
 10
0.0
 20
0.0
 30
0.0
  9
$UCSORGBACK
 10
0.0
 20
0.0
 30
0.0
  9
$PUCSBASE
  2

  9
$PUCSNAME
  2

  9
$PUCSORG
 10
0.0
 20
0.0
 30
0.0
  9
$PUCSXDIR
 10
1.0
 20
0.0
 30
0.0
  9
$PUCSYDIR
 10
0.0
 20
1.0
 30
0.0
  9
$PUCSORTHOREF
  2

  9
$PUCSORTHOVIEW
 70
     0
  9
$PUCSORGTOP
 10
0.0
 20
0.0
 30
0.0
  9
$PUCSORGBOTTOM
 10
0.0
 20
0.0
 30
0.0
  9
$PUCSORGLEFT
 10
0.0
 20
0.0
 30
0.0
  9
$PUCSORGRIGHT
 10
0.0
 20
0.0
 30
0.0
  9
$PUCSORGFRONT
 10
0.0
 20
0.0
 30
0.0
  9
$PUCSORGBACK
 10
0.0
 20
0.0
 30
0.0
  9
$USERI1
 70
     0
  9
$USERI2
 70
     0
  9
$USERI3
 70
     0
  9
$USERI4
 70
     0
  9
$USERI5
 70
     0
  9
$USERR1
 40
0.0
  9
$USERR2
 40
0.0
  9
$USERR3
 40
0.0
  9
$USERR4
 40
0.0
  9
$USERR5
 40
0.0
  9
$WORLDVIEW
 70
     1
  9
$SHADEDGE
 70
     3
  9
$SHADEDIF
 70
    70
  9
$TILEMODE
 70
     1
  9
$MAXACTVP
 70
    64
  9
$PINSBASE
 10
0.0
 20
0.0
 30
0.0
  9
$PLIMCHECK
 70
     0
  9
$PEXTMIN
 10
1.0000000000E+20
 20
1.0000000000E+20
 30
1.0000000000E+20
  9
$PEXTMAX
 10
-1.0000000000E+20
 20
-1.0000000000E+20
 30
-1.0000000000E+20
  9
$PLIMMIN
 10
0.0
 20
0.0
  9
$PLIMMAX
 10
420.0
 20
297.0
  9
$UNITMODE
 70
     0
  9
$VISRETAIN
 70
     1
  9
$PLINEGEN
 70
     0
  9
$PSLTSCALE
 70
     1
  9
$TREEDEPTH
 70
  3020
  9
$CMLSTYLE
  2
Standard
  9
$CMLJUST
 70
     0
  9
$CMLSCALE
 40
20.0
  9
$PROXYGRAPHICS
 70
     1
  9
$MEASUREMENT
 70
     1
  9
$CELWEIGHT
370
    -1
  9
$ENDCAPS
280
     0
  9
$JOINSTYLE
280
     0
  9
$LWDISPLAY
290
     1
  9
$INSUNITS
 70
     4
  9
$HYPERLINKBASE
  1

  9
$STYLESHEET
  1

  9
$XEDIT
290
     1
  9
$CEPSNTYPE
380
     0
  9
$PSTYLEMODE
290
     1
  9
$FINGERPRINTGUID
  2
{2A38D36B-16A3-44AD-9523-9DE716593E08}
  9
$VERSIONGUID
  2
{FAEB1C32-E019-11D5-929B-00C0DF256EC4}
  9
$EXTNAMES
290
     1
  9
$PSVPSCALE
 40
0.0
  9
$OLESTARTUP
290
     0
  0
ENDSEC
  0
SECTION
  2
CLASSES
  0
CLASS
  1
ACDBDICTIONARYWDFLT
  2
AcDbDictionaryWithDefault
  3
ObjectDBX Classes
 90
        0
280
     0
281
     0
  0
CLASS
  1
VISUALSTYLE
  2
AcDbVisualStyle
  3
ObjectDBX Classes
 90
     4095
280
     0
281
     0
  0
CLASS
  1
MATERIAL
  2
AcDbMaterial
  3
ObjectDBX Classes
 90
     1153
280
     0
281
     0
  0
CLASS
  1
SCALE
  2
AcDbScale
  3
ObjectDBX Classes
 90
     1153
280
     0
281
     0
  0
CLASS
  1
TABLESTYLE
  2
AcDbTableStyle
  3
ObjectDBX Classes
 90
     4095
280
     0
281
     0
  0
CLASS
  1
MLEADERSTYLE
  2
AcDbMLeaderStyle
  3
ACDB_MLEADERSTYLE_CLASS
 90
     4095
280
     0
281
     0
  0
CLASS
  1
SUN
  2
AcDbSun
  3
SCENEOE
 90
     1153
280
     0
281
     0
  0
CLASS
  1
ACDBPLACEHOLDER
  2
AcDbPlaceHolder
  3
ObjectDBX Classes
 90
        0
280
     0
281
     0
  0
CLASS
  1
LAYOUT
  2
AcDbLayout
  3
ObjectDBX Classes
 90
        0
280
     0
281
     0
  0
ENDSEC
  0
SECTION
  2
TABLES
  0
TABLE
  2
VPORT
  5
8
330
0
100
AcDbSymbolTable
 70
     1
  0
VPORT
  5
29
330
8
100
AcDbSymbolTableRecord
100
AcDbViewportTableRecord
  2
*Active
 70
     0
 10
0.0
 20
0.0
 11
1.0
 21
1.0
 12
148.5
 22
105.0
 13
0.0
 23
0.0
 14
10.0
 24
10.0
 15
10.0
 25
10.0
 16
0.0
 26
0.0
 36
1.0
 17
0.0
 27
0.0
 37
0.0
 40
210.0
 41
1.4142857143
 42
50.0
 43
0.0
 44
0.0
 50
0.0
 51
0.0
 71
     0
 72
  2000
 73
     1
 74
     3
 75
     0
 76
     0
 77
     0
 78
     0
281
     0
 65
     1
110
0.0
120
0.0
130
0.0
111
1.0
121
0.0
131
0.0
112
0.0
122
1.0
132
0.0
 79
     0
146
0.0
  0
ENDTAB
  0
TABLE
  2
LTYPE
  5
5
330
0
100
AcDbSymbolTable
 70
     8
  0
LTYPE
  5
14
330
5
100
AcDbSymbolTableRecord
100
AcDbLinetypeTableRecord
  2
ByBlock
 70
     0
  3

 72
    65
 73
     0
 40
0.0
  0
LTYPE
  5
15
330
5
100
AcDbSymbolTableRecord
100
AcDbLinetypeTableRecord
  2
ByLayer
 70
     0
  3

 72
    65
 73
     0
 40
0.0
  0
LTYPE
  5
16
330
5
100
AcDbSymbolTableRecord
100
AcDbLinetypeTableRecord
  2
Continuous
 70
     0
  3
Solid line
 72
    65
 73
     0
 40
0.0
  0
LTYPE
  5
6E
330
5
100
AcDbSymbolTableRecord
100
AcDbLinetypeTableRecord
  2
SLD-Solid
 70
     0
  3
SolidWorks Line Style
 72
    65
 73
     0
 40
0.0
  0
LTYPE
  5
6F
330
5
100
AcDbSymbolTableRecord
100
AcDbLinetypeTableRecord
  2
SLD-Dashed
 70
     0
  3
SolidWorks Line Style
 72
    65
 73
     2
 40
1.905
 49
1.27
 74
     0
 49
-0.635
 74
     0
  0
LTYPE
  5
70
330
5
100
AcDbSymbolTableRecord
100
AcDbLinetypeTableRecord
  2
SLD-Phantom
 70
     0
  3
SolidWorks Line Style
 72
    65
 73
     6
 40
12.7
 49
6.35
 74
     0
 49
-1.27
 74
     0
 49
1.27
 74
     0
 49
-1.27
 74
     0
 49
1.27
 74
     0
 49
-1.27
 74
     0
  0
LTYPE
  5
71
330
5
100
AcDbSymbolTableRecord
100
AcDbLinetypeTableRecord
  2
SLD-Chain
 70
     0
  3
SolidWorks Line Style
 72
    65
 73
     4
 40
10.16
 49
6.35
 74
     0
 49
-1.27
 74
     0
 49
1.27
 74
     0
 49
-1.27
 74
     0
  0
LTYPE
  5
72
330
5
100
AcDbSymbolTableRecord
100
AcDbLinetypeTableRecord
  2
SLD-Center
 70
     0
  3
SolidWorks Line Style
 72
    65
 73
     4
 40
19.05
 49
15.24
 74
     0
 49
-1.27
 74
     0
 49
1.27
 74
     0
 49
-1.27
 74
     0
  0
LTYPE
  5
73
330
5
100
AcDbSymbolTableRecord
100
AcDbLinetypeTableRecord
  2
SLD-Stitch
 70
     0
  3
SolidWorks Line Style
 72
    65
 73
     2
 40
0.635
 49
0.0
 74
     0
 49
-0.635
 74
     0
  0
LTYPE
  5
74
330
5
100
AcDbSymbolTableRecord
100
AcDbLinetypeTableRecord
  2
SLD-Thin-Thick-Chain
 70
     0
  3
SolidWorks Line Style
 72
    65
 73
     4
 40
10.16
 49
6.35
 74
     0
 49
-1.27
 74
     0
 49
1.27
 74
     0
 49
-1.27
 74
     0
  0
ENDTAB
  0
TABLE
  2
LAYER
  5
2
330
0
100
AcDbSymbolTable
 70
    14
  0
LAYER
  5
10
330
2
100
AcDbSymbolTableRecord
100
AcDbLayerTableRecord
  2
0
 70
     0
 62
     7
  6
Continuous
370
    -3
390
F
  0
LAYER
  5
75
330
2
100
AcDbSymbolTableRecord
100
AcDbLayerTableRecord
  2
SLD-0
 70
     0
 62
   179
  6
SLD-Solid
370
    -3
390
F
  0
LAYER
  5
76
330
2
100
AcDbSymbolTableRecord
100
AcDbLayerTableRecord
  2
80
 70
     0
 62
    -6
  6
SLD-Solid
290
     0
370
    -3
390
F
  0
LAYER
  5
77
330
2
100
AcDbSymbolTableRecord
100
AcDbLayerTableRecord
  2
81
 70
     0
 62
    -3
  6
SLD-Solid
290
     0
370
    -3
390
F
  0
LAYER
  5
78
330
2
100
AcDbSymbolTableRecord
100
AcDbLayerTableRecord
  2
1
 70
     0
 62
     4
  6
SLD-Solid
290
     0
370
    -3
390
F
  0
LAYER
  5
79
330
2
100
AcDbSymbolTableRecord
100
AcDbLayerTableRecord
  2
4
 70
     0
 62
    -2
  6
SLD-Chain
290
     0
370
    -3
390
F
  0
LAYER
  5
7A
330
2
100
AcDbSymbolTableRecord
100
AcDbLayerTableRecord
  2
2
 70
     0
 62
     7
  6
SLD-Solid
290
     0
370
    -3
390
F
  0
LAYER
  5
7B
330
2
100
AcDbSymbolTableRecord
100
AcDbLayerTableRecord
  2
SK3
 70
     0
 62
     1
  6
SLD-Dashed
290
     0
370
    -3
390
F
  0
LAYER
  5
7C
330
2
100
AcDbSymbolTableRecord
100
AcDbLayerTableRecord
  2
SK4
 70
     0
 62
     2
  6
SLD-Chain
290
     0
370
    -3
390
F
  0
LAYER
  5
7D
330
2
100
AcDbSymbolTableRecord
100
AcDbLayerTableRecord
  2
SK2
 70
     0
 62
     7
  6
SLD-Solid
290
     0
370
    -3
390
F
  0
LAYER
  5
7E
330
2
100
AcDbSymbolTableRecord
100
AcDbLayerTableRecord
  2
SK6
 70
     0
 62
     5
  6
SLD-Solid
290
     0
370
    -3
390
F
  0
LAYER
  5
7F
330
2
100
AcDbSymbolTableRecord
100
AcDbLayerTableRecord
  2
6
 70
     0
 62
     5
  6
SLD-Solid
370
    -3
390
F
  0
LAYER
  5
80
330
2
100
AcDbSymbolTableRecord
100
AcDbLayerTableRecord
  2
SK1
 70
     0
 62
     4
  6
SLD-Solid
370
    -3
390
F
  0
LAYER
  5
81
330
2
100
AcDbSymbolTableRecord
100
AcDbLayerTableRecord
  2
LAYER5
 70
     0
 62
   218
  6
SLD-Solid
370
    -3
390
F
  0
ENDTAB
  0
TABLE
  2
STYLE
  5
3
330
0
100
AcDbSymbolTable
 70
     3
  0
STYLE
  5
11
330
3
100
AcDbSymbolTableRecord
100
AcDbTextStyleTableRecord
  2
Standard
 70
     0
 40
0.0
 41
1.0
 50
0.0
 71
     0
 42
3.5
  3
txt
  4

  0
STYLE
  5
2A6
330
3
100
AcDbSymbolTableRecord
100
AcDbTextStyleTableRecord
  2
SLDTEXTSTYLE0
 70
     0
 40
0.0
 41
0.75
 50
0.0
 71
     0
 42
3.5
  3
TXT
  4

  0
STYLE
  5
393
330
3
100
AcDbSymbolTableRecord
100
AcDbTextStyleTableRecord
  2
SLDTEXTSTYLE1
 70
     0
 40
0.0
 41
0.6875
 50
0.0
 71
     0
 42
3.5
  3
TXT
  4

  0
ENDTAB
  0
TABLE
  2
VIEW
  5
6
330
0
100
AcDbSymbolTable
 70
     0
  0
ENDTAB
  0
TABLE
  2
UCS
  5
7
330
0
100
AcDbSymbolTable
 70
     0
  0
ENDTAB
  0
TABLE
  2
APPID
  5
9
330
0
100
AcDbSymbolTable
 70
     1
  0
APPID
  5
12
330
9
100
AcDbSymbolTableRecord
100
AcDbRegAppTableRecord
  2
ACAD
 70
     0
  0
ENDTAB
  0
TABLE
  2
DIMSTYLE
  5
A
330
0
100
AcDbSymbolTable
 70
     7
100
AcDbDimStyleTable
  0
DIMSTYLE
105
27
330
A
100
AcDbSymbolTableRecord
100
AcDbDimStyleTableRecord
  2
ISO-25
 70
     0
 41
2.5
 42
0.625
 43
3.75
 44
1.25
 73
     0
 74
     0
 77
     1
 78
     8
140
2.5
141
2.5
143
0.0393700787
147
0.625
171
     3
172
     1
178
     0
271
     2
272
     2
274
     3
278
    44
283
     0
284
     8
340
11
  0
DIMSTYLE
105
2A7
102
{ACAD_REACTORS
330
2A5
330
2BA
330
2D8
330
2EB
330
2FE
330
324
330
336
330
35C
102
}
330
A
100
AcDbSymbolTableRecord
100
AcDbDimStyleTableRecord
  2
SLDDIMSTYLE0
 70
     0
 41
3.302
 44
0.0
 45
0.000000001
 73
     0
 74
     0
 77
     1
 78
    12
 79
     3
140
3.5
143
0.0393700787
147
0.875
148
0.000000001
170
     1
173
     1
178
     0
271
     2
272
     2
276
     2
284
    12
340
2A6
  0
DIMSTYLE
105
2CE
102
{ACAD_REACTORS
330
2CD
330
37C
102
}
330
A
100
AcDbSymbolTableRecord
100
AcDbDimStyleTableRecord
  2
SLDDIMSTYLE1
 70
     0
 41
3.302
 44
0.0
 45
0.000000001
 73
     0
 74
     0
 77
     1
 78
    12
 79
     3
140
3.5
147
0.875
173
     1
178
     0
271
     2
272
     2
276
     2
284
    12
340
2A6
  0
DIMSTYLE
105
312
102
{ACAD_REACTORS
330
311
102
}
330
A
100
AcDbSymbolTableRecord
100
AcDbDimStyleTableRecord
  2
SLDDIMSTYLE2
 70
     0
 41
3.302
 44
0.0
 45
0.000000001
 73
     0
 74
     0
 77
     1
 78
    12
 79
     3
140
3.5
143
0.0393700787
147
0.875
148
0.000000001
170
     1
171
     3
173
     1
178
     0
271
     2
272
     2
274
     3
276
     2
284
    12
340
2A6
  0
DIMSTYLE
105
349
102
{ACAD_REACTORS
330
348
102
}
330
A
100
AcDbSymbolTableRecord
100
AcDbDimStyleTableRecord
  2
SLDDIMSTYLE3
 70
     0
 41
3.302
 44
0.0
 45
0.000000001
 73
     0
 74
     0
 77
     1
 78
    12
 79
     3
140
3.5
143
0.0393700787
147
0.875
148
0.000000001
170
     1
171
     3
173
     1
178
     0
271
     3
272
     2
274
     3
276
     2
284
    12
340
2A6
  0
DIMSTYLE
105
370
102
{ACAD_REACTORS
330
36F
102
}
330
A
100
AcDbSymbolTableRecord
100
AcDbDimStyleTableRecord
  2
SLDDIMSTYLE4
 70
     0
 41
3.302
 44
0.0
 45
0.000000001
 73
     0
 74
     0
 77
     1
 78
    12
 79
     3
140
3.5
147
0.875
172
     1
173
     1
178
     0
271
     2
272
     2
276
     2
284
    12
289
     0
340
2A6
  0
DIMSTYLE
105
388
102
{ACAD_REACTORS
330
387
102
}
330
A
100
AcDbSymbolTableRecord
100
AcDbDimStyleTableRecord
  2
SLDDIMSTYLE5
 70
     0
 41
3.302
 44
0.0
 45
0.000000001
 73
     0
 74
     0
 77
     1
 78
    12
 79
     3
140
3.5
147
0.875
172
     1
173
     1
178
     0
271
     6
272
     2
276
     2
284
    12
289
     0
340
2A6
  0
ENDTAB
  0
TABLE
  2
BLOCK_RECORD
  5
1
330
0
100
AcDbSymbolTable
 70
    15
  0
BLOCK_RECORD
  5
1F
330
1
100
AcDbSymbolTableRecord
100
AcDbBlockTableRecord
  2
*Model_Space
340
22
  0
BLOCK_RECORD
  5
1B
330
1
100
AcDbSymbolTableRecord
100
AcDbBlockTableRecord
  2
*Paper_Space
340
1E
  0
BLOCK_RECORD
  5
23
330
1
100
AcDbSymbolTableRecord
100
AcDbBlockTableRecord
  2
*Paper_Space0
340
26
  0
BLOCK_RECORD
  5
2A8
330
1
100
AcDbSymbolTableRecord
100
AcDbBlockTableRecord
  2
_D
340
0
  0
BLOCK_RECORD
  5
2BB
330
1
100
AcDbSymbolTableRecord
100
AcDbBlockTableRecord
  2
_D_1
340
0
  0
BLOCK_RECORD
  5
2CF
330
1
100
AcDbSymbolTableRecord
100
AcDbBlockTableRecord
  2
_D_2
340
0
  0
BLOCK_RECORD
  5
2D9
330
1
100
AcDbSymbolTableRecord
100
AcDbBlockTableRecord
  2
_D_3
340
0
  0
BLOCK_RECORD
  5
2EC
330
1
100
AcDbSymbolTableRecord
100
AcDbBlockTableRecord
  2
_D_4
340
0
  0
BLOCK_RECORD
  5
2FF
330
1
100
AcDbSymbolTableRecord
100
AcDbBlockTableRecord
  2
_D_5
340
0
  0
BLOCK_RECORD
  5
313
330
1
100
AcDbSymbolTableRecord
100
AcDbBlockTableRecord
  2
_D_6
340
0
  0
BLOCK_RECORD
  5
325
330
1
100
AcDbSymbolTableRecord
100
AcDbBlockTableRecord
  2
_D_7
340
0
  0
BLOCK_RECORD
  5
337
330
1
100
AcDbSymbolTableRecord
100
AcDbBlockTableRecord
  2
_D_8
340
0
  0
BLOCK_RECORD
  5
34A
330
1
100
AcDbSymbolTableRecord
100
AcDbBlockTableRecord
  2
_D_9
340
0
  0
BLOCK_RECORD
  5
35D
330
1
100
AcDbSymbolTableRecord
100
AcDbBlockTableRecord
  2
_D_10
340
0
  0
BLOCK_RECORD
  5
371
330
1
100
AcDbSymbolTableRecord
100
AcDbBlockTableRecord
  2
_D_11
340
0
  0
BLOCK_RECORD
  5
37D
330
1
100
AcDbSymbolTableRecord
100
AcDbBlockTableRecord
  2
_D_12
340
0
  0
BLOCK_RECORD
  5
389
330
1
100
AcDbSymbolTableRecord
100
AcDbBlockTableRecord
  2
_D_13
340
0
  0
ENDTAB
  0
ENDSEC
  0
SECTION
  2
BLOCKS
  0
BLOCK
  5
20
330
1F
100
AcDbEntity
  8
0
100
AcDbBlockBegin
  2
*Model_Space
 70
     0
 10
0.0
 20
0.0
 30
0.0
  3
*Model_Space
  1

  0
ENDBLK
  5
21
330
1F
100
AcDbEntity
  8
0
100
AcDbBlockEnd
  0
BLOCK
  5
1C
330
1B
100
AcDbEntity
 67
     1
  8
0
100
AcDbBlockBegin
  2
*Paper_Space
 70
     0
 10
0.0
 20
0.0
 30
0.0
  3
*Paper_Space
  1

  0
ENDBLK
  5
1D
330
1B
100
AcDbEntity
 67
     1
  8
0
100
AcDbBlockEnd
  0
BLOCK
  5
24
330
23
100
AcDbEntity
  8
0
100
AcDbBlockBegin
  2
*Paper_Space0
 70
     0
 10
0.0
 20
0.0
 30
0.0
  3
*Paper_Space0
  1

  0
ENDBLK
  5
25
330
23
100
AcDbEntity
  8
0
100
AcDbBlockEnd
  0
BLOCK
  5
2A9
330
2A8
100
AcDbEntity
  8
0
100
AcDbBlockBegin
  2
_D
 70
     0
 10
0.0
 20
0.0
 30
0.0
  3
_D
  1

  0
SOLID
  5
2AB
330
2A8
100
AcDbEntity
  8
SK2
100
AcDbTrace
 10
0.0
 20
78.0813211719
 30
0.0
 11
3.302
 21
77.5733211719
 31
0.0
 12
3.302
 22
78.5893211719
 32
0.0
 13
3.302
 23
78.5893211719
 33
0.0
  0
SOLID
  5
2AC
330
2A8
100
AcDbEntity
  8
SK2
100
AcDbTrace
 10
101.6
 20
78.0813211719
 30
0.0
 11
98.298
 21
78.5893211719
 31
0.0
 12
98.298
 22
77.5733211719
 32
0.0
 13
98.298
 23
77.5733211719
 33
0.0
  0
LINE
  5
2AD
330
2A8
100
AcDbEntity
  8
SK2
100
AcDbLine
 10
22.1576601311
 20
88.8742028879
 30
0.0
 11
21.0912538736
 21
88.8742028879
 31
0.0
  0
LINE
  5
2AE
330
2A8
100
AcDbEntity
  8
SK2
100
AcDbLine
 10
21.0912538736
 20
88.8742028879
 30
0.0
 11
21.0912538736
 21
83.3179528968
 31
0.0
  0
LINE
  5
2AF
330
2A8
100
AcDbEntity
  8
SK2
100
AcDbLine
 10
21.0912538736
 20
83.3179528968
 30
0.0
 11
22.1576601311
 21
83.3179528968
 31
0.0
  0
LINE
  5
2B0
330
2A8
100
AcDbEntity
  8
SK2
100
AcDbLine
 10
31.209049192
 20
88.8742028879
 30
0.0
 11
32.2754554494
 21
88.8742028879
 31
0.0
  0
LINE
  5
2B1
330
2A8
100
AcDbEntity
  8
SK2
100
AcDbLine
 10
32.2754554494
 20
88.8742028879
 30
0.0
 11
32.2754554494
 21
83.3179528968
 31
0.0
  0
LINE
  5
2B2
330
2A8
100
AcDbEntity
  8
SK2
100
AcDbLine
 10
32.2754554494
 20
83.3179528968
 30
0.0
 11
31.209049192
 21
83.3179528968
 31
0.0
  0
LINE
  5
2B3
330
2A8
100
AcDbEntity
  8
SK2
100
AcDbLine
 10
0.0
 20
23.225
 30
0.0
 11
0.0
 21
79.0813211719
 31
0.0
  0
LINE
  5
2B4
330
2A8
100
AcDbEntity
  8
SK2
100
AcDbLine
 10
101.6
 20
21.95
 30
0.0
 11
101.6
 21
79.0813211719
 31
0.0
  0
LINE
  5
2B5
330
2A8
100
AcDbEntity
  8
SK2
100
AcDbLine
 10
0.0
 20
78.0813211719
 30
0.0
 11
101.6
 21
78.0813211719
 31
0.0
  0
MTEXT
  5
2B6
330
2A8
100
AcDbEntity
  8
SK2
100
AcDbMText
 10
20.0442920194
 20
82.6465304377
 30
0.0
 40
3.5
 41
0.0
 71
     1
 72
     1
  1

  7
SLDTEXTSTYLE0
 73
     1
 44
1.0
  0
MTEXT
  5
2B7
330
2A8
100
AcDbEntity
  8
SK2
100
AcDbMText
 10
22.1576601311
 20
87.8296898114
 30
0.0
 40
3.5
 41
0.0
 71
     1
 72
     1
  1
4,00
  7
SLDTEXTSTYLE0
 73
     1
 44
1.0
  0
MTEXT
  5
2B8
330
2A8
100
AcDbEntity
  8
SK2
100
AcDbMText
 10
20.8646044179
 20
82.5930582611
 30
0.0
 40
3.5
 41
0.0
 71
     1
 72
     1
  1
101,6
  7
SLDTEXTSTYLE0
 73
     1
 44
1.0
  0
MTEXT
  5
2B9
330
2A8
100
AcDbEntity
  8
SK2
100
AcDbMText
 10
34.6543618233
 20
82.6465304377
 30
0.0
 40
3.5
 41
0.0
 71
     1
 72
     1
  1

  7
SLDTEXTSTYLE0
 73
     1
 44
1.0
  0
ENDBLK
  5
2AA
330
2A8
100
AcDbEntity
  8
0
100
AcDbBlockEnd
  0
BLOCK
  5
2BC
330
2BB
100
AcDbEntity
  8
0
100
AcDbBlockBegin
  2
_D_1
 70
     0
 10
0.0
 20
0.0
 30
0.0
  3
_D_1
  1

  0
SOLID
  5
2BE
330
2BB
100
AcDbEntity
  8
2
100
AcDbTrace
 10
19.05
 20
65.752455128
 30
0.0
 11
22.352
 21
65.244455128
 31
0.0
 12
22.352
 22
66.260455128
 32
0.0
 13
22.352
 23
66.260455128
 33
0.0
  0
SOLID
  5
2BF
330
2BB
100
AcDbEntity
  8
2
100
AcDbTrace
 10
101.6
 20
65.752455128
 30
0.0
 11
98.298
 21
66.260455128
 31
0.0
 12
98.298
 22
65.244455128
 32
0.0
 13
98.298
 23
65.244455128
 33
0.0
  0
LINE
  5
2C0
330
2BB
100
AcDbEntity
  8
2
100
AcDbLine
 10
47.3447618746
 20
76.5453368441
 30
0.0
 11
46.2783556172
 21
76.5453368441
 31
0.0
  0
LINE
  5
2C1
330
2BB
100
AcDbEntity
  8
2
100
AcDbLine
 10
46.2783556172
 20
76.5453368441
 30
0.0
 11
46.2783556172
 21
70.989086853
 31
0.0
  0
LINE
  5
2C2
330
2BB
100
AcDbEntity
  8
2
100
AcDbLine
 10
46.2783556172
 20
70.989086853
 30
0.0
 11
47.3447618746
 21
70.989086853
 31
0.0
  0
LINE
  5
2C3
330
2BB
100
AcDbEntity
  8
2
100
AcDbLine
 10
56.3961509355
 20
76.5453368441
 30
0.0
 11
57.462557193
 21
76.5453368441
 31
0.0
  0
LINE
  5
2C4
330
2BB
100
AcDbEntity
  8
2
100
AcDbLine
 10
57.462557193
 20
76.5453368441
 30
0.0
 11
57.462557193
 21
70.989086853
 31
0.0
  0
LINE
  5
2C5
330
2BB
100
AcDbEntity
  8
2
100
AcDbLine
 10
57.462557193
 20
70.989086853
 30
0.0
 11
56.3961509355
 21
70.989086853
 31
0.0
  0
LINE
  5
2C6
330
2BB
100
AcDbEntity
  8
2
100
AcDbLine
 10
19.05
 20
30.8048664484
 30
0.0
 11
19.05
 21
66.752455128
 31
0.0
  0
LINE
  5
2C7
330
2BB
100
AcDbEntity
  8
2
100
AcDbLine
 10
101.6
 20
21.95
 30
0.0
 11
101.6
 21
66.752455128
 31
0.0
  0
LINE
  5
2C8
330
2BB
100
AcDbEntity
  8
2
100
AcDbLine
 10
19.05
 20
65.752455128
 30
0.0
 11
101.6
 21
65.752455128
 31
0.0
  0
MTEXT
  5
2C9
330
2BB
100
AcDbEntity
  8
2
100
AcDbMText
 10
45.231393763
 20
70.3176643939
 30
0.0
 40
3.5
 41
0.0
 71
     1
 72
     1
  1

  7
SLDTEXTSTYLE0
 73
     1
 44
1.0
  0
MTEXT
  5
2CA
330
2BB
100
AcDbEntity
  8
2
100
AcDbMText
 10
47.3447618746
 20
75.5008237676
 30
0.0
 40
3.5
 41
0.0
 71
     1
 72
     1
  1
3,25
  7
SLDTEXTSTYLE0
 73
     1
 44
1.0
  0
MTEXT
  5
2CB
330
2BB
100
AcDbEntity
  8
2
100
AcDbMText
 10
46.0517061614
 20
70.2641922172
 30
0.0
 40
3.5
 41
0.0
 71
     1
 72
     1
  1
82,55
  7
SLDTEXTSTYLE0
 73
     1
 44
1.0
  0
MTEXT
  5
2CC
330
2BB
100
AcDbEntity
  8
2
100
AcDbMText
 10
59.8414635668
 20
70.3176643939
 30
0.0
 40
3.5
 41
0.0
 71
     1
 72
     1
  1

  7
SLDTEXTSTYLE0
 73
     1
 44
1.0
  0
ENDBLK
  5
2BD
330
2BB
100
AcDbEntity
  8
0
100
AcDbBlockEnd
  0
BLOCK
  5
2D0
330
2CF
100
AcDbEntity
  8
0
100
AcDbBlockBegin
  2
_D_2
 70
     0
 10
0.0
 20
0.0
 30
0.0
  3
_D_2
  1

  0
SOLID
  5
2D2
330
2CF
100
AcDbEntity
  8
2
100
AcDbTrace
 10
19.05
 20
65.752455128
 30
0.0
 11
15.748
 21
66.260455128
 31
0.0
 12
15.748
 22
65.244455128
 32
0.0
 13
15.748
 23
65.244455128
 33
0.0
  0
SOLID
  5
2D3
330
2CF
100
AcDbEntity
  8
2
100
AcDbTrace
 10
0.0
 20
65.752455128
 30
0.0
 11
3.302
 21
65.244455128
 31
0.0
 12
3.302
 22
66.260455128
 32
0.0
 13
3.302
 23
66.260455128
 33
0.0
  0
LINE
  5
2D4
330
2CF
100
AcDbEntity
  8
2
100
AcDbLine
 10
19.05
 20
23.987
 30
0.0
 11
19.05
 21
66.752455128
 31
0.0
  0
LINE
  5
2D5
330
2CF
100
AcDbEntity
  8
2
100
AcDbLine
 10
0.0
 20
23.225
 30
0.0
 11
0.0
 21
66.752455128
 31
0.0
  0
LINE
  5
2D6
330
2CF
100
AcDbEntity
  8
2
100
AcDbLine
 10
19.05
 20
65.752455128
 30
0.0
 11
0.0
 21
65.752455128
 31
0.0
  0
MTEXT
  5
2D7
330
2CF
100
AcDbEntity
  8
2
100
AcDbMText
 10
0.6196647963
 20
70.2641920426
 30
0.0
 40
3.5
 41
0.0
 71
     1
 72
     1
  1
19,05
  7
SLDTEXTSTYLE0
 73
     1
 44
1.0
  0
ENDBLK
  5
2D1
330
2CF
100
AcDbEntity
  8
0
100
AcDbBlockEnd
  0
BLOCK
  5
2DA
330
2D9
100
AcDbEntity
  8
0
100
AcDbBlockBegin
  2
_D_3
 70
     0
 10
0.0
 20
0.0
 30
0.0
  3
_D_3
  1

  0
SOLID
  5
2DC
330
2D9
100
AcDbEntity
  8
2
100
AcDbTrace
 10
35.05
 20
53.9002753763
 30
0.0
 11
38.352
 21
53.3922753763
 31
0.0
 12
38.352
 22
54.4082753763
 32
0.0
 13
38.352
 23
54.4082753763
 33
0.0
  0
SOLID
  5
2DD
330
2D9
100
AcDbEntity
  8
2
100
AcDbTrace
 10
101.6
 20
53.9002753763
 30
0.0
 11
98.298
 21
54.4082753763
 31
0.0
 12
98.298
 22
53.3922753763
 32
0.0
 13
98.298
 23
53.3922753763
 33
0.0
  0
LINE
  5
2DE
330
2D9
100
AcDbEntity
  8
2
100
AcDbLine
 10
67.0897064902
 20
64.6931570923
 30
0.0
 11
66.0233002328
 21
64.6931570923
 31
0.0
  0
LINE
  5
2DF
330
2D9
100
AcDbEntity
  8
2
100
AcDbLine
 10
66.0233002328
 20
64.6931570923
 30
0.0
 11
66.0233002328
 21
59.1369071012
 31
0.0
  0
LINE
  5
2E0
330
2D9
100
AcDbEntity
  8
2
100
AcDbLine
 10
66.0233002328
 20
59.1369071012
 30
0.0
 11
67.0897064902
 21
59.1369071012
 31
0.0
  0
LINE
  5
2E1
330
2D9
100
AcDbEntity
  8
2
100
AcDbLine
 10
76.1410955511
 20
64.6931570923
 30
0.0
 11
77.2075018086
 21
64.6931570923
 31
0.0
  0
LINE
  5
2E2
330
2D9
100
AcDbEntity
  8
2
100
AcDbLine
 10
77.2075018086
 20
64.6931570923
 30
0.0
 11
77.2075018086
 21
59.1369071012
 31
0.0
  0
LINE
  5
2E3
330
2D9
100
AcDbEntity
  8
2
100
AcDbLine
 10
77.2075018086
 20
59.1369071012
 30
0.0
 11
76.1410955511
 21
59.1369071012
 31
0.0
  0
LINE
  5
2E4
330
2D9
100
AcDbEntity
  8
2
100
AcDbLine
 10
35.05
 20
29.58
 30
0.0
 11
35.05
 21
54.9002753763
 31
0.0
  0
LINE
  5
2E5
330
2D9
100
AcDbEntity
  8
2
100
AcDbLine
 10
101.6
 20
21.95
 30
0.0
 11
101.6
 21
54.9002753763
 31
0.0
  0
LINE
  5
2E6
330
2D9
100
AcDbEntity
  8
2
100
AcDbLine
 10
35.05
 20
53.9002753763
 30
0.0
 11
101.6
 21
53.9002753763
 31
0.0
  0
MTEXT
  5
2E7
330
2D9
100
AcDbEntity
  8
2
100
AcDbMText
 10
64.9763383785
 20
58.4654846421
 30
0.0
 40
3.5
 41
0.0
 71
     1
 72
     1
  1

  7
SLDTEXTSTYLE0
 73
     1
 44
1.0
  0
MTEXT
  5
2E8
330
2D9
100
AcDbEntity
  8
2
100
AcDbMText
 10
67.0897064902
 20
63.6486440158
 30
0.0
 40
3.5
 41
0.0
 71
     1
 72
     1
  1
2,62
  7
SLDTEXTSTYLE0
 73
     1
 44
1.0
  0
MTEXT
  5
2E9
330
2D9
100
AcDbEntity
  8
2
100
AcDbMText
 10
65.796650777
 20
58.4120124655
 30
0.0
 40
3.5
 41
0.0
 71
     1
 72
     1
  1
66,55
  7
SLDTEXTSTYLE0
 73
     1
 44
1.0
  0
MTEXT
  5
2EA
330
2D9
100
AcDbEntity
  8
2
100
AcDbMText
 10
79.5864081824
 20
58.4654846421
 30
0.0
 40
3.5
 41
0.0
 71
     1
 72
     1
  1

  7
SLDTEXTSTYLE0
 73
     1
 44
1.0
  0
ENDBLK
  5
2DB
330
2D9
100
AcDbEntity
  8
0
100
AcDbBlockEnd
  0
BLOCK
  5
2ED
330
2EC
100
AcDbEntity
  8
0
100
AcDbBlockBegin
  2
_D_4
 70
     0
 10
0.0
 20
0.0
 30
0.0
  3
_D_4
  1

  0
SOLID
  5
2EF
330
2EC
100
AcDbEntity
  8
2
100
AcDbTrace
 10
73.025
 20
40.3522502731
 30
0.0
 11
76.327
 21
39.8442502731
 31
0.0
 12
76.327
 22
40.8602502731
 32
0.0
 13
76.327
 23
40.8602502731
 33
0.0
  0
SOLID
  5
2F0
330
2EC
100
AcDbEntity
  8
2
100
AcDbTrace
 10
101.6
 20
40.3522502731
 30
0.0
 11
98.298
 21
40.8602502731
 31
0.0
 12
98.298
 22
39.8442502731
 32
0.0
 13
98.298
 23
39.8442502731
 33
0.0
  0
LINE
  5
2F1
330
2EC
100
AcDbEntity
  8
2
100
AcDbLine
 10
83.933197159
 20
51.1451319891
 30
0.0
 11
82.8667909016
 21
51.1451319891
 31
0.0
  0
LINE
  5
2F2
330
2EC
100
AcDbEntity
  8
2
100
AcDbLine
 10
82.8667909016
 20
51.1451319891
 30
0.0
 11
82.8667909016
 21
45.5888819981
 31
0.0
  0
LINE
  5
2F3
330
2EC
100
AcDbEntity
  8
2
100
AcDbLine
 10
82.8667909016
 20
45.5888819981
 30
0.0
 11
83.933197159
 21
45.5888819981
 31
0.0
  0
LINE
  5
2F4
330
2EC
100
AcDbEntity
  8
2
100
AcDbLine
 10
92.9845862199
 20
51.1451319891
 30
0.0
 11
94.0509924774
 21
51.1451319891
 31
0.0
  0
LINE
  5
2F5
330
2EC
100
AcDbEntity
  8
2
100
AcDbLine
 10
94.0509924774
 20
51.1451319891
 30
0.0
 11
94.0509924774
 21
45.5888819981
 31
0.0
  0
LINE
  5
2F6
330
2EC
100
AcDbEntity
  8
2
100
AcDbLine
 10
94.0509924774
 20
45.5888819981
 30
0.0
 11
92.9845862199
 21
45.5888819981
 31
0.0
  0
LINE
  5
2F7
330
2EC
100
AcDbEntity
  8
2
100
AcDbLine
 10
73.025
 20
32.65
 30
0.0
 11
73.025
 21
41.3522502731
 31
0.0
  0
LINE
  5
2F8
330
2EC
100
AcDbEntity
  8
2
100
AcDbLine
 10
101.6
 20
21.95
 30
0.0
 11
101.6
 21
41.3522502731
 31
0.0
  0
LINE
  5
2F9
330
2EC
100
AcDbEntity
  8
2
100
AcDbLine
 10
73.025
 20
40.3522502731
 30
0.0
 11
101.6
 21
40.3522502731
 31
0.0
  0
MTEXT
  5
2FA
330
2EC
100
AcDbEntity
  8
2
100
AcDbMText
 10
81.8198290474
 20
44.9174595389
 30
0.0
 40
3.5
 41
0.0
 71
     1
 72
     1
  1

  7
SLDTEXTSTYLE0
 73
     1
 44
1.0
  0
MTEXT
  5
2FB
330
2EC
100
AcDbEntity
  8
2
100
AcDbMText
 10
83.933197159
 20
50.1006189126
 30
0.0
 40
3.5
 41
0.0
 71
     1
 72
     1
  1
1,13
  7
SLDTEXTSTYLE0
 73
     1
 44
1.0
  0
MTEXT
  5
2FC
330
2EC
100
AcDbEntity
  8
2
100
AcDbMText
 10
82.6401414458
 20
44.8639873623
 30
0.0
 40
3.5
 41
0.0
 71
     1
 72
     1
  1
28,58
  7
SLDTEXTSTYLE0
 73
     1
 44
1.0
  0
MTEXT
  5
2FD
330
2EC
100
AcDbEntity
  8
2
100
AcDbMText
 10
96.4298988513
 20
44.9174595389
 30
0.0
 40
3.5
 41
0.0
 71
     1
 72
     1
  1

  7
SLDTEXTSTYLE0
 73
     1
 44
1.0
  0
ENDBLK
  5
2EE
330
2EC
100
AcDbEntity
  8
0
100
AcDbBlockEnd
  0
BLOCK
  5
300
330
2FF
100
AcDbEntity
  8
0
100
AcDbBlockBegin
  2
_D_5
 70
     0
 10
0.0
 20
0.0
 30
0.0
  3
_D_5
  1

  0
SOLID
  5
302
330
2FF
100
AcDbEntity
  8
2
100
AcDbTrace
 10
48.025
 20
40.3522502731
 30
0.0
 11
51.327
 21
39.8442502731
 31
0.0
 12
51.327
 22
40.8602502731
 32
0.0
 13
51.327
 23
40.8602502731
 33
0.0
  0
SOLID
  5
303
330
2FF
100
AcDbEntity
  8
2
100
AcDbTrace
 10
73.025
 20
40.3522502731
 30
0.0
 11
69.723
 21
40.8602502731
 31
0.0
 12
69.723
 22
39.8442502731
 32
0.0
 13
69.723
 23
39.8442502731
 33
0.0
  0
LINE
  5
304
330
2FF
100
AcDbEntity
  8
2
100
AcDbLine
 10
54.0298985079
 20
51.1451319891
 30
0.0
 11
52.9634922504
 21
51.1451319891
 31
0.0
  0
LINE
  5
305
330
2FF
100
AcDbEntity
  8
2
100
AcDbLine
 10
52.9634922504
 20
51.1451319891
 30
0.0
 11
52.9634922504
 21
45.5888819981
 31
0.0
  0
LINE
  5
306
330
2FF
100
AcDbEntity
  8
2
100
AcDbLine
 10
52.9634922504
 20
45.5888819981
 30
0.0
 11
54.0298985079
 21
45.5888819981
 31
0.0
  0
LINE
  5
307
330
2FF
100
AcDbEntity
  8
2
100
AcDbLine
 10
63.0812875688
 20
51.1451319891
 30
0.0
 11
64.1476938262
 21
51.1451319891
 31
0.0
  0
LINE
  5
308
330
2FF
100
AcDbEntity
  8
2
100
AcDbLine
 10
64.1476938262
 20
51.1451319891
 30
0.0
 11
64.1476938262
 21
45.5888819981
 31
0.0
  0
LINE
  5
309
330
2FF
100
AcDbEntity
  8
2
100
AcDbLine
 10
64.1476938262
 20
45.5888819981
 30
0.0
 11
63.0812875688
 21
45.5888819981
 31
0.0
  0
LINE
  5
30A
330
2FF
100
AcDbEntity
  8
2
100
AcDbLine
 10
48.025
 20
32.65
 30
0.0
 11
48.025
 21
41.3522502731
 31
0.0
  0
LINE
  5
30B
330
2FF
100
AcDbEntity
  8
2
100
AcDbLine
 10
73.025
 20
32.65
 30
0.0
 11
73.025
 21
41.3522502731
 31
0.0
  0
LINE
  5
30C
330
2FF
100
AcDbEntity
  8
2
100
AcDbLine
 10
48.025
 20
40.3522502731
 30
0.0
 11
73.025
 21
40.3522502731
 31
0.0
  0
MTEXT
  5
30D
330
2FF
100
AcDbEntity
  8
2
100
AcDbMText
 10
51.9165303962
 20
44.9174595389
 30
0.0
 40
3.5
 41
0.0
 71
     1
 72
     1
  1

  7
SLDTEXTSTYLE0
 73
     1
 44
1.0
  0
MTEXT
  5
30E
330
2FF
100
AcDbEntity
  8
2
100
AcDbMText
 10
54.0298985079
 20
50.1006189126
 30
0.0
 40
3.5
 41
0.0
 71
     1
 72
     1
  1
0,98
  7
SLDTEXTSTYLE0
 73
     1
 44
1.0
  0
MTEXT
  5
30F
330
2FF
100
AcDbEntity
  8
2
100
AcDbMText
 10
55.9694818448
 20
44.8639873623
 30
0.0
 40
3.5
 41
0.0
 71
     1
 72
     1
  1
25
  7
SLDTEXTSTYLE0
 73
     1
 44
1.0
  0
MTEXT
  5
310
330
2FF
100
AcDbEntity
  8
2
100
AcDbMText
 10
66.5266002001
 20
44.9174595389
 30
0.0
 40
3.5
 41
0.0
 71
     1
 72
     1
  1

  7
SLDTEXTSTYLE0
 73
     1
 44
1.0
  0
ENDBLK
  5
301
330
2FF
100
AcDbEntity
  8
0
100
AcDbBlockEnd
  0
BLOCK
  5
314
330
313
100
AcDbEntity
  8
0
100
AcDbBlockBegin
  2
_D_6
 70
     0
 10
0.0
 20
0.0
 30
0.0
  3
_D_6
  1

  0
SOLID
  5
316
330
313
100
AcDbEntity
  8
2
100
AcDbTrace
 10
119.6207163168
 20
-16.0
 30
0.0
 11
120.1287163168
 21
-12.698
 31
0.0
 12
119.1127163168
 22
-12.698
 32
0.0
 13
119.1127163168
 23
-12.698
 33
0.0
  0
SOLID
  5
317
330
313
100
AcDbEntity
  8
2
100
AcDbTrace
 10
119.6207163168
 20
16.0
 30
0.0
 11
119.1127163168
 21
12.698
 31
0.0
 12
120.1287163168
 22
12.698
 32
0.0
 13
120.1287163168
 23
12.698
 33
0.0
  0
LINE
  5
318
330
313
100
AcDbEntity
  8
2
100
AcDbLine
 10
108.8278346007
 20
-5.4895527621
 30
0.0
 11
108.8278346007
 21
-6.5559590195
 31
0.0
  0
LINE
  5
319
330
313
100
AcDbEntity
  8
2
100
AcDbLine
 10
108.8278346007
 20
-6.5559590195
 30
0.0
 11
114.3840845918
 21
-6.5559590195
 31
0.0
  0
LINE
  5
31A
330
313
100
AcDbEntity
  8
2
100
AcDbLine
 10
114.3840845918
 20
-6.5559590195
 30
0.0
 11
114.3840845918
 21
-5.4895527621
 31
0.0
  0
LINE
  5
31B
330
313
100
AcDbEntity
  8
2
100
AcDbLine
 10
108.8278346007
 20
6.1479477252
 30
0.0
 11
108.8278346007
 21
7.2143539827
 31
0.0
  0
LINE
  5
31C
330
313
100
AcDbEntity
  8
2
100
AcDbLine
 10
108.8278346007
 20
7.2143539827
 30
0.0
 11
114.3840845918
 21
7.2143539827
 31
0.0
  0
LINE
  5
31D
330
313
100
AcDbEntity
  8
2
100
AcDbLine
 10
114.3840845918
 20
7.2143539827
 30
0.0
 11
114.3840845918
 21
6.1479477252
 31
0.0
  0
LINE
  5
31E
330
313
100
AcDbEntity
  8
2
100
AcDbLine
 10
101.6
 20
-16.0
 30
0.0
 11
120.6207163168
 21
-16.0
 31
0.0
  0
LINE
  5
31F
330
313
100
AcDbEntity
  8
2
100
AcDbLine
 10
101.6
 20
16.0
 30
0.0
 11
120.6207163168
 21
16.0
 31
0.0
  0
LINE
  5
320
330
313
100
AcDbEntity
  8
2
100
AcDbLine
 10
119.6207163168
 20
-16.0
 30
0.0
 11
119.6207163168
 21
16.0
 31
0.0
  0
MTEXT
  5
321
330
313
100
AcDbEntity
  8
2
100
AcDbMText
 10
109.8723476772
 20
-5.4895527621
 30
0.0
 40
3.5
 41
0.0
 71
     1
 72
     1
  1
1,260
  7
SLDTEXTSTYLE0
 11
6.123233995736766E-17
 21
1.0
 31
0.0
 73
     1
 44
1.0
  0
MTEXT
  5
322
330
313
100
AcDbEntity
  8
2
100
AcDbMText
 10
115.1089792276
 20
-4.8961331096
 30
0.0
 40
3.5
 41
0.0
 71
     1
 72
     1
  1
%%c
  7
SLDTEXTSTYLE0
 11
6.123233995736766E-17
 21
1.0
 31
0.0
 73
     1
 44
1.0
  0
MTEXT
  5
323
330
313
100
AcDbEntity
  8
2
100
AcDbMText
 10
115.1089792276
 20
0.3823042887
 30
0.0
 40
3.5
 41
0.0
 71
     1
 72
     1
  1
32
  7
SLDTEXTSTYLE0
 11
6.123233995736766E-17
 21
1.0
 31
0.0
 73
     1
 44
1.0
  0
ENDBLK
  5
315
330
313
100
AcDbEntity
  8
0
100
AcDbBlockEnd
  0
BLOCK
  5
326
330
325
100
AcDbEntity
  8
0
100
AcDbBlockBegin
  2
_D_7
 70
     0
 10
0.0
 20
0.0
 30
0.0
  3
_D_7
  1

  0
SOLID
  5
328
330
325
100
AcDbEntity
  8
2
100
AcDbTrace
 10
132.4110618977
 20
20.95
 30
0.0
 11
131.9030618977
 21
17.648
 31
0.0
 12
132.9190618977
 22
17.648
 32
0.0
 13
132.9190618977
 23
17.648
 33
0.0
  0
SOLID
  5
329
330
325
100
AcDbEntity
  8
2
100
AcDbTrace
 10
132.4110618977
 20
-20.95
 30
0.0
 11
132.9190618977
 21
-17.648
 31
0.0
 12
131.9030618977
 22
-17.648
 32
0.0
 13
131.9030618977
 23
-17.648
 33
0.0
  0
LINE
  5
32A
330
325
100
AcDbEntity
  8
2
100
AcDbLine
 10
121.6181801817
 20
-4.1964975146
 30
0.0
 11
121.6181801817
 21
-5.262903772
 31
0.0
  0
LINE
  5
32B
330
325
100
AcDbEntity
  8
2
100
AcDbLine
 10
121.6181801817
 20
-5.262903772
 30
0.0
 11
127.1744301727
 21
-5.262903772
 31
0.0
  0
LINE
  5
32C
330
325
100
AcDbEntity
  8
2
100
AcDbLine
 10
127.1744301727
 20
-5.262903772
 30
0.0
 11
127.1744301727
 21
-4.1964975146
 31
0.0
  0
LINE
  5
32D
330
325
100
AcDbEntity
  8
2
100
AcDbLine
 10
121.6181801817
 20
4.8548915464
 30
0.0
 11
121.6181801817
 21
5.9212978038
 31
0.0
  0
LINE
  5
32E
330
325
100
AcDbEntity
  8
2
100
AcDbLine
 10
121.6181801817
 20
5.9212978038
 30
0.0
 11
127.1744301727
 21
5.9212978038
 31
0.0
  0
LINE
  5
32F
330
325
100
AcDbEntity
  8
2
100
AcDbLine
 10
127.1744301727
 20
5.9212978038
 30
0.0
 11
127.1744301727
 21
4.8548915464
 31
0.0
  0
LINE
  5
330
330
325
100
AcDbEntity
  8
2
100
AcDbLine
 10
102.6
 20
20.95
 30
0.0
 11
133.4110618977
 21
20.95
 31
0.0
  0
LINE
  5
331
330
325
100
AcDbEntity
  8
2
100
AcDbLine
 10
102.6
 20
-20.95
 30
0.0
 11
133.4110618977
 21
-20.95
 31
0.0
  0
LINE
  5
332
330
325
100
AcDbEntity
  8
2
100
AcDbLine
 10
132.4110618977
 20
20.95
 30
0.0
 11
132.4110618977
 21
-20.95
 31
0.0
  0
MTEXT
  5
333
330
325
100
AcDbEntity
  8
2
100
AcDbMText
 10
122.6626932581
 20
-4.1964975146
 30
0.0
 40
3.5
 41
0.0
 71
     1
 72
     1
  1
1,65
  7
SLDTEXTSTYLE0
 11
-7.044195017643634E-15
 21
1.0
 31
0.0
 73
     1
 44
1.0
  0
MTEXT
  5
334
330
325
100
AcDbEntity
  8
2
100
AcDbMText
 10
127.8993248085
 20
-6.8357166794
 30
0.0
 40
3.5
 41
0.0
 71
     1
 72
     1
  1
%%c
  7
SLDTEXTSTYLE0
 11
-7.044195017643634E-15
 21
1.0
 31
0.0
 73
     1
 44
1.0
  0
MTEXT
  5
335
330
325
100
AcDbEntity
  8
2
100
AcDbMText
 10
127.8993248085
 20
-1.557279281
 30
0.0
 40
3.5
 41
0.0
 71
     1
 72
     1
  1
41,9
  7
SLDTEXTSTYLE0
 11
-7.044195017643634E-15
 21
1.0
 31
0.0
 73
     1
 44
1.0
  0
ENDBLK
  5
327
330
325
100
AcDbEntity
  8
0
100
AcDbBlockEnd
  0
BLOCK
  5
338
330
337
100
AcDbEntity
  8
0
100
AcDbBlockBegin
  2
_D_8
 70
     0
 10
0.0
 20
0.0
 30
0.0
  3
_D_8
  1

  0
SOLID
  5
33A
330
337
100
AcDbEntity
  8
2
100
AcDbTrace
 10
147.0126630175
 20
31.75
 30
0.0
 11
146.5046630175
 21
28.448
 31
0.0
 12
147.5206630175
 22
28.448
 32
0.0
 13
147.5206630175
 23
28.448
 33
0.0
  0
SOLID
  5
33B
330
337
100
AcDbEntity
  8
2
100
AcDbTrace
 10
147.0126630175
 20
-31.75
 30
0.0
 11
147.5206630175
 21
-28.448
 31
0.0
 12
146.5046630175
 22
-28.448
 32
0.0
 13
146.5046630175
 23
-28.448
 33
0.0
  0
LINE
  5
33C
330
337
100
AcDbEntity
  8
2
100
AcDbLine
 10
136.2197813014
 20
-4.1964975146
 30
0.0
 11
136.2197813014
 21
-5.262903772
 31
0.0
  0
LINE
  5
33D
330
337
100
AcDbEntity
  8
2
100
AcDbLine
 10
136.2197813014
 20
-5.262903772
 30
0.0
 11
141.7760312925
 21
-5.262903772
 31
0.0
  0
LINE
  5
33E
330
337
100
AcDbEntity
  8
2
100
AcDbLine
 10
141.7760312925
 20
-5.262903772
 30
0.0
 11
141.7760312925
 21
-4.1964975146
 31
0.0
  0
LINE
  5
33F
330
337
100
AcDbEntity
  8
2
100
AcDbLine
 10
136.2197813014
 20
4.8548915464
 30
0.0
 11
136.2197813014
 21
5.9212978038
 31
0.0
  0
LINE
  5
340
330
337
100
AcDbEntity
  8
2
100
AcDbLine
 10
136.2197813014
 20
5.9212978038
 30
0.0
 11
141.7760312925
 21
5.9212978038
 31
0.0
  0
LINE
  5
341
330
337
100
AcDbEntity
  8
2
100
AcDbLine
 10
141.7760312925
 20
5.9212978038
 30
0.0
 11
141.7760312925
 21
4.8548915464
 31
0.0
  0
LINE
  5
342
330
337
100
AcDbEntity
  8
2
100
AcDbLine
 10
91.8
 20
31.75
 30
0.0
 11
148.0126630175
 21
31.75
 31
0.0
  0
LINE
  5
343
330
337
100
AcDbEntity
  8
2
100
AcDbLine
 10
91.8
 20
-31.75
 30
0.0
 11
148.0126630175
 21
-31.75
 31
0.0
  0
LINE
  5
344
330
337
100
AcDbEntity
  8
2
100
AcDbLine
 10
147.0126630175
 20
31.75
 30
0.0
 11
147.0126630175
 21
-31.75
 31
0.0
  0
MTEXT
  5
345
330
337
100
AcDbEntity
  8
2
100
AcDbMText
 10
137.2642943779
 20
-4.1964975146
 30
0.0
 40
3.5
 41
0.0
 71
     1
 72
     1
  1
2,50
  7
SLDTEXTSTYLE0
 11
-7.044195017643634E-15
 21
1.0
 31
0.0
 73
     1
 44
1.0
  0
MTEXT
  5
346
330
337
100
AcDbEntity
  8
2
100
AcDbMText
 10
142.5009259283
 20
-6.8357166794
 30
0.0
 40
3.5
 41
0.0
 71
     1
 72
     1
  1
%%c
  7
SLDTEXTSTYLE0
 11
-7.044195017643634E-15
 21
1.0
 31
0.0
 73
     1
 44
1.0
  0
MTEXT
  5
347
330
337
100
AcDbEntity
  8
2
100
AcDbMText
 10
142.5009259283
 20
-1.557279281
 30
0.0
 40
3.5
 41
0.0
 71
     1
 72
     1
  1
63,5
  7
SLDTEXTSTYLE0
 11
-7.044195017643634E-15
 21
1.0
 31
0.0
 73
     1
 44
1.0
  0
ENDBLK
  5
339
330
337
100
AcDbEntity
  8
0
100
AcDbBlockEnd
  0
BLOCK
  5
34B
330
34A
100
AcDbEntity
  8
0
100
AcDbBlockBegin
  2
_D_9
 70
     0
 10
0.0
 20
0.0
 30
0.0
  3
_D_9
  1

  0
SOLID
  5
34D
330
34A
100
AcDbEntity
  8
2
100
AcDbTrace
 10
-68.25
 20
-65.4176743538
 30
0.0
 11
-64.948
 21
-65.9256743538
 31
0.0
 12
-64.948
 22
-64.9096743538
 32
0.0
 13
-64.948
 23
-64.9096743538
 33
0.0
  0
SOLID
  5
34E
330
34A
100
AcDbEntity
  8
2
100
AcDbTrace
 10
101.6
 20
-65.4176743538
 30
0.0
 11
98.298
 21
-64.9096743538
 31
0.0
 12
98.298
 22
-65.9256743538
 32
0.0
 13
98.298
 23
-65.9256743538
 33
0.0
  0
LINE
  5
34F
330
34A
100
AcDbEntity
  8
2
100
AcDbLine
 10
-5.5914551312
 20
-54.6247926377
 30
0.0
 11
-6.6578613886
 21
-54.6247926377
 31
0.0
  0
LINE
  5
350
330
34A
100
AcDbEntity
  8
2
100
AcDbLine
 10
-6.6578613886
 20
-54.6247926377
 30
0.0
 11
-6.6578613886
 21
-60.1810426288
 31
0.0
  0
LINE
  5
351
330
34A
100
AcDbEntity
  8
2
100
AcDbLine
 10
-6.6578613886
 20
-60.1810426288
 30
0.0
 11
-5.5914551312
 21
-60.1810426288
 31
0.0
  0
LINE
  5
352
330
34A
100
AcDbEntity
  8
2
100
AcDbLine
 10
6.0460453561
 20
-54.6247926377
 30
0.0
 11
7.1124516135
 21
-54.6247926377
 31
0.0
  0
LINE
  5
353
330
34A
100
AcDbEntity
  8
2
100
AcDbLine
 10
7.1124516135
 20
-54.6247926377
 30
0.0
 11
7.1124516135
 21
-60.1810426288
 31
0.0
  0
LINE
  5
354
330
34A
100
AcDbEntity
  8
2
100
AcDbLine
 10
7.1124516135
 20
-60.1810426288
 30
0.0
 11
6.0460453561
 21
-60.1810426288
 31
0.0
  0
LINE
  5
355
330
34A
100
AcDbEntity
  8
2
100
AcDbLine
 10
-68.25
 20
-12.1476148288
 30
0.0
 11
-68.25
 21
-66.4176743538
 31
0.0
  0
LINE
  5
356
330
34A
100
AcDbEntity
  8
2
100
AcDbLine
 10
101.6
 20
-21.95
 30
0.0
 11
101.6
 21
-66.4176743538
 31
0.0
  0
LINE
  5
357
330
34A
100
AcDbEntity
  8
2
100
AcDbLine
 10
-68.25
 20
-65.4176743538
 30
0.0
 11
101.6
 21
-65.4176743538
 31
0.0
  0
MTEXT
  5
358
330
34A
100
AcDbEntity
  8
2
100
AcDbMText
 10
-7.7048232429
 20
-60.8524650879
 30
0.0
 40
3.5
 41
0.0
 71
     1
 72
     1
  1

  7
SLDTEXTSTYLE0
 73
     1
 44
1.0
  0
MTEXT
  5
359
330
34A
100
AcDbEntity
  8
2
100
AcDbMText
 10
-5.5914551312
 20
-55.6693057142
 30
0.0
 40
3.5
 41
0.0
 71
     1
 72
     1
  1
6,687
  7
SLDTEXTSTYLE0
 73
     1
 44
1.0
  0
MTEXT
  5
35A
330
34A
100
AcDbEntity
  8
2
100
AcDbMText
 10
-6.88451131
 20
-60.9059372646
 30
0.0
 40
3.5
 41
0.0
 71
     1
 72
     1
  1
169,85
  7
SLDTEXTSTYLE0
 73
     1
 44
1.0
  0
MTEXT
  5
35B
330
34A
100
AcDbEntity
  8
2
100
AcDbMText
 10
9.4913570561
 20
-60.8524650879
 30
0.0
 40
3.5
 41
0.0
 71
     1
 72
     1
  1

  7
SLDTEXTSTYLE0
 73
     1
 44
1.0
  0
ENDBLK
  5
34C
330
34A
100
AcDbEntity
  8
0
100
AcDbBlockEnd
  0
BLOCK
  5
35E
330
35D
100
AcDbEntity
  8
0
100
AcDbBlockBegin
  2
_D_10
 70
     0
 10
0.0
 20
0.0
 30
0.0
  3
_D_10
  1

  0
SOLID
  5
360
330
35D
100
AcDbEntity
  8
2
100
AcDbTrace
 10
40.56
 20
-57.6732941888
 30
0.0
 11
43.862
 21
-58.1812941888
 31
0.0
 12
43.862
 22
-57.1652941888
 32
0.0
 13
43.862
 23
-57.1652941888
 33
0.0
  0
SOLID
  5
361
330
35D
100
AcDbEntity
  8
2
100
AcDbTrace
 10
101.6
 20
-57.6732941888
 30
0.0
 11
98.298
 21
-57.1652941888
 31
0.0
 12
98.298
 22
-58.1812941888
 32
0.0
 13
98.298
 23
-58.1812941888
 33
0.0
  0
LINE
  5
362
330
35D
100
AcDbEntity
  8
2
100
AcDbLine
 10
61.5524743102
 20
-46.8804124728
 30
0.0
 11
60.4860680527
 21
-46.8804124728
 31
0.0
  0
LINE
  5
363
330
35D
100
AcDbEntity
  8
2
100
AcDbLine
 10
60.4860680527
 20
-46.8804124728
 30
0.0
 11
60.4860680527
 21
-52.4366624638
 31
0.0
  0
LINE
  5
364
330
35D
100
AcDbEntity
  8
2
100
AcDbLine
 10
60.4860680527
 20
-52.4366624638
 30
0.0
 11
61.5524743102
 21
-52.4366624638
 31
0.0
  0
LINE
  5
365
330
35D
100
AcDbEntity
  8
2
100
AcDbLine
 10
70.6038633711
 20
-46.8804124728
 30
0.0
 11
71.6702696285
 21
-46.8804124728
 31
0.0
  0
LINE
  5
366
330
35D
100
AcDbEntity
  8
2
100
AcDbLine
 10
71.6702696285
 20
-46.8804124728
 30
0.0
 11
71.6702696285
 21
-52.4366624638
 31
0.0
  0
LINE
  5
367
330
35D
100
AcDbEntity
  8
2
100
AcDbLine
 10
71.6702696285
 20
-52.4366624638
 30
0.0
 11
70.6038633711
 21
-52.4366624638
 31
0.0
  0
LINE
  5
368
330
35D
100
AcDbEntity
  8
2
100
AcDbLine
 10
40.56
 20
-17.25
 30
0.0
 11
40.56
 21
-58.6732941888
 31
0.0
  0
LINE
  5
369
330
35D
100
AcDbEntity
  8
2
100
AcDbLine
 10
101.6
 20
-21.95
 30
0.0
 11
101.6
 21
-58.6732941888
 31
0.0
  0
LINE
  5
36A
330
35D
100
AcDbEntity
  8
2
100
AcDbLine
 10
40.56
 20
-57.6732941888
 30
0.0
 11
101.6
 21
-57.6732941888
 31
0.0
  0
MTEXT
  5
36B
330
35D
100
AcDbEntity
  8
2
100
AcDbMText
 10
59.4391061985
 20
-53.1080849229
 30
0.0
 40
3.5
 41
0.0
 71
     1
 72
     1
  1

  7
SLDTEXTSTYLE0
 73
     1
 44
1.0
  0
MTEXT
  5
36C
330
35D
100
AcDbEntity
  8
2
100
AcDbMText
 10
61.5524743102
 20
-47.9249255492
 30
0.0
 40
3.5
 41
0.0
 71
     1
 72
     1
  1
2,40
  7
SLDTEXTSTYLE0
 73
     1
 44
1.0
  0
MTEXT
  5
36D
330
35D
100
AcDbEntity
  8
2
100
AcDbMText
 10
60.259418597
 20
-53.1615570996
 30
0.0
 40
3.5
 41
0.0
 71
     1
 72
     1
  1
61,04
  7
SLDTEXTSTYLE0
 73
     1
 44
1.0
  0
MTEXT
  5
36E
330
35D
100
AcDbEntity
  8
2
100
AcDbMText
 10
74.0491760024
 20
-53.1080849229
 30
0.0
 40
3.5
 41
0.0
 71
     1
 72
     1
  1

  7
SLDTEXTSTYLE0
 73
     1
 44
1.0
  0
ENDBLK
  5
35F
330
35D
100
AcDbEntity
  8
0
100
AcDbBlockEnd
  0
BLOCK
  5
372
330
371
100
AcDbEntity
  8
0
100
AcDbBlockBegin
  2
_D_11
 70
     0
 10
0.0
 20
0.0
 30
0.0
  3
_D_11
  1

  0
SOLID
  5
374
330
371
100
AcDbEntity
  8
2
100
AcDbTrace
 10
90.8
 20
-45.0018939766
 30
0.0
 11
87.498
 21
-44.4938939766
 31
0.0
 12
87.498
 22
-45.5098939766
 32
0.0
 13
87.498
 23
-45.5098939766
 33
0.0
  0
SOLID
  5
375
330
371
100
AcDbEntity
  8
2
100
AcDbTrace
 10
101.6
 20
-45.0018939766
 30
0.0
 11
104.902
 21
-45.5098939766
 31
0.0
 12
104.902
 22
-44.4938939766
 32
0.0
 13
104.902
 23
-44.4938939766
 33
0.0
  0
LINE
  5
376
330
371
100
AcDbEntity
  8
2
100
AcDbLine
 10
90.8
 20
-32.75
 30
0.0
 11
90.8
 21
-46.0018939766
 31
0.0
  0
LINE
  5
377
330
371
100
AcDbEntity
  8
2
100
AcDbLine
 10
101.6
 20
-21.95
 30
0.0
 11
101.6
 21
-46.0018939766
 31
0.0
  0
LINE
  5
378
330
371
100
AcDbEntity
  8
2
100
AcDbLine
 10
90.8
 20
-45.0018939766
 30
0.0
 11
79.877268114
 21
-45.0018939766
 31
0.0
  0
LINE
  5
379
330
371
100
AcDbEntity
  8
2
100
AcDbLine
 10
90.8
 20
-45.0018939766
 30
0.0
 11
101.6
 21
-45.0018939766
 31
0.0
  0
LINE
  5
37A
330
371
100
AcDbEntity
  8
2
100
AcDbLine
 10
101.6
 20
-45.0018939766
 30
0.0
 11
107.95
 21
-45.0018939766
 31
0.0
  0
MTEXT
  5
37B
330
371
100
AcDbEntity
  8
2
100
AcDbMText
 10
79.877268114
 20
-40.490157062
 30
0.0
 40
3.5
 41
0.0
 71
     1
 72
     1
  1
10,8
  7
SLDTEXTSTYLE0
 73
     1
 44
1.0
  0
ENDBLK
  5
373
330
371
100
AcDbEntity
  8
0
100
AcDbBlockEnd
  0
BLOCK
  5
37E
330
37D
100
AcDbEntity
  8
0
100
AcDbBlockBegin
  2
_D_12
 70
     0
 10
0.0
 20
0.0
 30
0.0
  3
_D_12
  1

  0
SOLID
  5
380
330
37D
100
AcDbEntity
  8
2
100
AcDbTrace
 10
-88.1230248602
 20
30.5578899967
 30
0.0
 11
-88.6310248602
 21
27.2558899967
 31
0.0
 12
-87.6150248602
 22
27.2558899967
 32
0.0
 13
-87.6150248602
 23
27.2558899967
 33
0.0
  0
SOLID
  5
381
330
37D
100
AcDbEntity
  8
2
100
AcDbTrace
 10
-88.1230248602
 20
-30.5579086614
 30
0.0
 11
-87.6150248602
 21
-27.2559086614
 31
0.0
 12
-88.6310248602
 22
-27.2559086614
 32
0.0
 13
-88.6310248602
 23
-27.2559086614
 33
0.0
  0
LINE
  5
382
330
37D
100
AcDbEntity
  8
2
100
AcDbLine
 10
6.5888736454
 20
30.5578899967
 30
0.0
 11
-89.1230248602
 21
30.5578899967
 31
0.0
  0
LINE
  5
383
330
37D
100
AcDbEntity
  8
2
100
AcDbLine
 10
2.95
 20
-30.5579086614
 30
0.0
 11
-89.1230248602
 21
-30.5579086614
 31
0.0
  0
LINE
  5
384
330
37D
100
AcDbEntity
  8
2
100
AcDbLine
 10
-88.1230248602
 20
30.5578899967
 30
0.0
 11
-88.1230248602
 21
-30.5579086614
 31
0.0
  0
MTEXT
  5
385
330
37D
100
AcDbEntity
  8
2
100
AcDbMText
 10
-92.6347619494
 20
-6.8357166794
 30
0.0
 40
3.5
 41
0.0
 71
     1
 72
     1
  1
%%c
  7
SLDTEXTSTYLE0
 11
-8.820551857043885E-15
 21
1.0
 31
0.0
 73
     1
 44
1.0
  0
MTEXT
  5
386
330
37D
100
AcDbEntity
  8
2
100
AcDbMText
 10
-92.688234126
 20
-1.557279281
 30
0.0
 40
3.5
 41
0.0
 71
     1
 72
     1
  1
63,5
  7
SLDTEXTSTYLE0
 11
-8.820551857043885E-15
 21
1.0
 31
0.0
 73
     1
 44
1.0
  0
ENDBLK
  5
37F
330
37D
100
AcDbEntity
  8
0
100
AcDbBlockEnd
  0
BLOCK
  5
38A
330
389
100
AcDbEntity
  8
0
100
AcDbBlockBegin
  2
_D_13
 70
     0
 10
0.0
 20
0.0
 30
0.0
  3
_D_13
  1

  0
SOLID
  5
38C
330
389
100
AcDbEntity
  8
2
100
AcDbTrace
 10
-77.5960154531
 20
7.9375002533
 30
0.0
 11
-77.0880154531
 21
11.2395002533
 31
0.0
 12
-78.1040154531
 22
11.2395002533
 32
0.0
 13
-78.1040154531
 23
11.2395002533
 33
0.0
  0
SOLID
  5
38D
330
389
100
AcDbEntity
  8
2
100
AcDbTrace
 10
-77.5960154531
 20
-7.9375002533
 30
0.0
 11
-78.1040154531
 21
-11.2395002533
 31
0.0
 12
-77.0880154531
 22
-11.2395002533
 32
0.0
 13
-77.0880154531
 23
-11.2395002533
 33
0.0
  0
LINE
  5
38E
330
389
100
AcDbEntity
  8
2
100
AcDbLine
 10
-64.3082389832
 20
7.9375002533
 30
0.0
 11
-78.5960154531
 21
7.9375002533
 31
0.0
  0
LINE
  5
38F
330
389
100
AcDbEntity
  8
2
100
AcDbLine
 10
-64.3082389832
 20
-7.9375002533
 30
0.0
 11
-78.5960154531
 21
-7.9375002533
 31
0.0
  0
LINE
  5
390
330
389
100
AcDbEntity
  8
2
100
AcDbLine
 10
-77.5960154531
 20
7.9375002533
 30
0.0
 11
-77.5960154531
 21
14.2875002533
 31
0.0
  0
LINE
  5
391
330
389
100
AcDbEntity
  8
2
100
AcDbLine
 10
-77.5960154531
 20
7.9375002533
 30
0.0
 11
-77.5960154531
 21
-7.9375002533
 31
0.0
  0
LINE
  5
392
330
389
100
AcDbEntity
  8
2
100
AcDbLine
 10
-77.5960154531
 20
-7.9375002533
 30
0.0
 11
-77.5960154531
 21
-14.2875002533
 31
0.0
  0
MTEXT
  5
394
330
389
100
AcDbEntity
  8
2
100
AcDbMText
 10
-82.1077523677
 20
-13.7291358744
 30
0.0
 40
3.5
 41
0.0
 71
     1
 72
     1
  1
5/8 - 11 UNC
  7
SLDTEXTSTYLE1
 11
-7.044195017643634E-15
 21
1.0
 31
0.0
 73
     1
 44
1.0
  0
ENDBLK
  5
38B
330
389
100
AcDbEntity
  8
0
100
AcDbBlockEnd
  0
ENDSEC
  0
SECTION
  2
ENTITIES
  0
LINE
  5
82
330
1F
100
AcDbEntity
  8
1
  6
SLD-Solid
370
    25
100
AcDbLine
 10
62.9
 20
31.75
 30
0.0
 11
58.15
 21
31.75
 31
0.0
  0
LINE
  5
83
330
1F
100
AcDbEntity
  8
1
  6
SLD-Solid
370
    25
100
AcDbLine
 10
90.8
 20
31.75
 30
0.0
 11
83.1437168197
 21
31.75
 31
0.0
  0
LINE
  5
84
330
1F
100
AcDbEntity
  8
1
  6
SLD-Solid
370
    25
100
AcDbLine
 10
87.2912213766
 20
-31.75
 30
0.0
 11
90.8
 21
-31.75
 31
0.0
  0
LINE
  5
85
330
1F
100
AcDbEntity
  8
1
  6
SLD-Solid
370
    25
100
AcDbLine
 10
61.9247244505
 20
-31.7499932875
 30
0.0
 11
65.0822349927
 21
-31.7499932875
 31
0.0
  0
LINE
  5
86
330
1F
100
AcDbEntity
  8
1
  6
SLD-Solid
370
    25
100
AcDbLine
 10
38.22
 20
-31.75
 30
0.0
 11
39.6913884969
 21
-31.75
 31
0.0
  0
LINE
  5
87
330
1F
100
AcDbEntity
  8
1
  6
SLD-Solid
370
    25
100
AcDbLine
 10
90.8
 20
-31.75
 30
0.0
 11
101.6
 21
-20.95
 31
0.0
  0
LINE
  5
88
330
1F
100
AcDbEntity
  8
1
  6
SLD-Solid
370
    25
100
AcDbLine
 10
101.6
 20
20.95
 30
0.0
 11
90.8
 21
31.75
 31
0.0
  0
LINE
  5
89
330
1F
100
AcDbEntity
  8
1
  6
SLD-Solid
370
    25
100
AcDbLine
 10
34.24
 20
22.225
 30
0.0
 11
19.812
 21
22.225
 31
0.0
  0
LINE
  5
8A
330
1F
100
AcDbEntity
  8
1
  6
SLD-Solid
370
    25
100
AcDbLine
 10
19.812
 20
-22.225
 30
0.0
 11
34.24
 21
-22.225
 31
0.0
  0
LINE
  5
8B
330
1F
100
AcDbEntity
  8
SK1
  6
SLD-Solid
370
    25
100
AcDbLine
 10
0.0
 20
22.225
 30
0.0
 11
-67.1376006954
 21
12.4340074512
 31
0.0
  0
LINE
  5
8C
330
1F
100
AcDbEntity
  8
SK1
  6
SLD-Solid
370
    25
100
AcDbLine
 10
-67.1376006954
 20
-12.4340074512
 30
0.0
 11
0.0
 21
-22.225
 31
0.0
  0
LINE
  5
8D
330
1F
100
AcDbEntity
  8
1
  6
SLD-Solid
370
    25
100
AcDbLine
 10
1.8869952227
 20
-22.225
 30
0.0
 11
2.1330363037
 21
-22.1102691597
 31
0.0
  0
LINE
  5
8E
330
1F
100
AcDbEntity
  8
1
  6
SLD-Solid
370
    25
100
AcDbLine
 10
2.1330363037
 20
22.1102691597
 30
0.0
 11
1.8869952227
 21
22.225
 31
0.0
  0
LINE
  5
8F
330
1F
100
AcDbEntity
  8
1
  6
SLD-Solid
370
    25
100
AcDbLine
 10
1.8869952227
 20
22.225
 30
0.0
 11
0.0
 21
22.225
 31
0.0
  0
LINE
  5
90
330
1F
100
AcDbEntity
  8
1
  6
SLD-Solid
370
    25
100
AcDbLine
 10
0.0
 20
-22.225
 30
0.0
 11
1.8869952227
 21
-22.225
 31
0.0
  0
LINE
  5
91
330
1F
100
AcDbEntity
  8
1
  6
SLD-Solid
370
    25
100
AcDbLine
 10
3.95
 20
-30.5579086614
 30
0.0
 11
7.5888736454
 21
-30.5579086614
 31
0.0
  0
LINE
  5
92
330
1F
100
AcDbEntity
  8
1
  6
SLD-Solid
370
    25
100
AcDbLine
 10
3.95
 20
30.5578899967
 30
0.0
 11
3.95
 21
-30.5579086614
 31
0.0
  0
LINE
  5
93
330
1F
100
AcDbEntity
  8
1
  6
SLD-Solid
370
    25
100
AcDbLine
 10
7.5888736454
 20
30.5578899967
 30
0.0
 11
3.95
 21
30.5578899967
 31
0.0
  0
LINE
  5
94
330
1F
100
AcDbEntity
  8
1
  6
SLD-Solid
370
    25
100
AcDbLine
 10
7.5888736454
 20
30.5578899967
 30
0.0
 11
7.5888736454
 21
-30.5579086614
 31
0.0
  0
LINE
  5
95
330
1F
100
AcDbEntity
  8
1
  6
SLD-Solid
370
    25
100
AcDbLine
 10
18.3
 20
-30.5578899967
 30
0.0
 11
18.3
 21
30.5579086614
 31
0.0
  0
LINE
  5
96
330
1F
100
AcDbEntity
  8
1
  6
SLD-Solid
370
    25
100
AcDbLine
 10
19.05
 20
29.8048664484
 30
0.0
 11
19.05
 21
-29.8048552742
 31
0.0
  0
LINE
  5
97
330
1F
100
AcDbEntity
  8
1
  6
SLD-Solid
370
    25
100
AcDbLine
 10
3.2
 20
-29.8048664484
 30
0.0
 11
3.2
 21
29.8048552742
 31
0.0
  0
LINE
  5
98
330
1F
100
AcDbEntity
  8
1
  6
SLD-Solid
370
    25
100
AcDbLine
 10
18.3
 20
30.5579086614
 30
0.0
 11
14.6411263546
 21
30.5579086614
 31
0.0
  0
LINE
  5
99
330
1F
100
AcDbEntity
  8
1
  6
SLD-Solid
370
    25
100
AcDbLine
 10
14.6411263546
 20
-30.5578899967
 30
0.0
 11
18.3
 21
-30.5578899967
 31
0.0
  0
LINE
  5
9A
330
1F
100
AcDbEntity
  8
1
  6
SLD-Solid
370
    25
100
AcDbLine
 10
14.6411263546
 20
30.5579086614
 30
0.0
 11
14.6411263546
 21
-30.5578899967
 31
0.0
  0
LINE
  5
9B
330
1F
100
AcDbEntity
  8
1
  6
SLD-Solid
370
    25
100
AcDbLine
 10
90.8
 20
31.75
 30
0.0
 11
90.8
 21
-31.75
 31
0.0
  0
LINE
  5
9C
330
1F
100
AcDbEntity
  8
1
  6
SLD-Solid
370
    25
100
AcDbLine
 10
35.05
 20
-28.58
 30
0.0
 11
35.05
 21
28.58
 31
0.0
  0
LINE
  5
9D
330
1F
100
AcDbEntity
  8
1
  6
SLD-Solid
370
    25
100
AcDbLine
 10
9.2
 20
27.8050456342
 30
0.0
 11
9.2
 21
25.8569131114
 31
0.0
  0
LINE
  5
9E
330
1F
100
AcDbEntity
  8
1
  6
SLD-Solid
370
    25
100
AcDbLine
 10
9.2
 20
25.2705433174
 30
0.0
 11
9.2
 21
-27.8050456342
 31
0.0
  0
LINE
  5
9F
330
1F
100
AcDbEntity
  8
1
  6
SLD-Solid
370
    25
100
AcDbLine
 10
13.03
 20
25.319242438
 30
0.0
 11
13.03
 21
-27.8050456342
 31
0.0
  0
LINE
  5
A0
330
1F
100
AcDbEntity
  8
1
  6
SLD-Solid
370
    25
100
AcDbLine
 10
13.03
 20
27.8050456342
 30
0.0
 11
13.03
 21
25.8117178836
 31
0.0
  0
LINE
  5
A1
330
1F
100
AcDbEntity
  8
1
  6
SLD-Solid
370
    25
100
AcDbLine
 10
101.6
 20
20.95
 30
0.0
 11
101.6
 21
-20.95
 31
0.0
  0
LINE
  5
A2
330
1F
100
AcDbEntity
  8
1
  6
SLD-Solid
370
    25
100
AcDbLine
 10
9.95
 20
24.066859753
 30
0.0
 11
9.95
 21
-26.9870635676
 31
0.0
  0
LINE
  5
A3
330
1F
100
AcDbEntity
  8
1
  6
SLD-Solid
370
    25
100
AcDbLine
 10
12.28
 20
24.0780506352
 30
0.0
 11
12.28
 21
-26.9870635676
 31
0.0
  0
LINE
  5
A4
330
1F
100
AcDbEntity
  8
1
  6
SLD-Solid
370
    25
100
AcDbLine
 10
9.95
 20
-26.9870635676
 30
0.0
 11
12.28
 21
-26.9870635676
 31
0.0
  0
LINE
  5
A5
330
1F
100
AcDbEntity
  8
1
  6
SLD-Solid
370
    25
100
AcDbLine
 10
0.0
 20
22.225
 30
0.0
 11
0.0
 21
-22.225
 31
0.0
  0
LINE
  5
A6
330
1F
100
AcDbEntity
  8
1
  6
SLD-Solid
370
    25
100
AcDbLine
 10
1.8869952227
 20
22.225
 30
0.0
 11
1.8869952227
 21
-22.225
 31
0.0
  0
LINE
  5
A7
330
1F
100
AcDbEntity
  8
1
  6
SLD-Solid
370
    25
100
AcDbLine
 10
9.2
 20
25.8569131114
 30
0.0
 11
9.2
 21
25.8264908709
 31
0.0
  0
LINE
  5
A8
330
1F
100
AcDbEntity
  8
1
  6
SLD-Solid
370
    25
100
AcDbLine
 10
13.03
 20
25.7812977304
 30
0.0
 11
13.03
 21
25.8117178836
 31
0.0
  0
LINE
  5
A9
330
1F
100
AcDbEntity
  8
1
  6
SLD-Solid
370
    25
100
AcDbLine
 10
9.95
 20
26.9870635676
 30
0.0
 11
9.95
 21
25.6032587904
 31
0.0
  0
LINE
  5
AA
330
1F
100
AcDbEntity
  8
1
  6
SLD-Solid
370
    25
100
AcDbLine
 10
12.28
 20
26.9870635676
 30
0.0
 11
12.28
 21
25.5942620881
 31
0.0
  0
LINE
  5
AB
330
1F
100
AcDbEntity
  8
SK1
  6
SLD-Solid
370
    25
100
AcDbLine
 10
-68.25
 20
-11.1476148288
 30
0.0
 11
-68.25
 21
11.1476148288
 31
0.0
  0
LINE
  5
AC
330
1F
100
AcDbEntity
  8
1
  6
SLD-Solid
370
    25
100
AcDbLine
 10
9.95
 20
26.9870635676
 30
0.0
 11
12.28
 21
26.9870635676
 31
0.0
  0
LINE
  5
AD
330
1F
100
AcDbEntity
  8
1
  6
SLD-Solid
370
    25
100
AcDbLine
 10
38.22
 20
31.6494059976
 30
0.0
 11
38.22
 21
-31.75
 31
0.0
  0
LINE
  5
AE
330
1F
100
AcDbEntity
  8
1
  6
SLD-Solid
370
    25
100
AcDbLine
 10
34.24
 20
-22.225
 30
0.0
 11
34.24
 21
22.225
 31
0.0
  0
LINE
  5
AF
330
1F
100
AcDbEntity
  8
1
  6
SLD-Solid
370
    25
100
AcDbLine
 10
19.812
 20
0.0
 30
0.0
 11
19.812
 21
-22.225
 31
0.0
  0
LINE
  5
B0
330
1F
100
AcDbEntity
  8
1
  6
SLD-Solid
370
    25
100
AcDbLine
 10
19.812
 20
22.225
 30
0.0
 11
19.812
 21
0.0
 31
0.0
  0
LINE
  5
B1
330
1F
100
AcDbEntity
  8
1
  6
SLD-Solid
370
    25
100
AcDbLine
 10
2.1330363037
 20
22.1102691597
 30
0.0
 11
2.1330363037
 21
-22.1102691597
 31
0.0
  0
LINE
  5
B2
330
1F
100
AcDbEntity
  8
SK1
  6
SLD-Solid
370
    25
100
AcDbLine
 10
-67.1376006954
 20
0.0
 30
0.0
 11
-67.1376006954
 21
-12.4340074512
 31
0.0
  0
LINE
  5
B3
330
1F
100
AcDbEntity
  8
SK1
  6
SLD-Solid
370
    25
100
AcDbLine
 10
-67.1376006954
 20
12.4340074512
 30
0.0
 11
-67.1376006954
 21
0.0
 31
0.0
  0
LINE
  5
B4
330
1F
100
AcDbEntity
  8
SK3
  6
SLD-Dashed
370
    18
100
AcDbLine
 10
5.7322709434
 20
-8.8686354442
 30
0.0
 11
5.6023378001
 21
-8.3631302075
 31
0.0
  0
LINE
  5
B5
330
1F
100
AcDbEntity
  8
SK3
  6
SLD-Dashed
370
    18
100
AcDbLine
 10
5.6023378001
 20
-8.3631302075
 30
0.0
 11
5.3987233678
 21
-7.8920743173
 31
0.0
  0
LINE
  5
B6
330
1F
100
AcDbEntity
  8
SK3
  6
SLD-Dashed
370
    18
100
AcDbLine
 10
5.3987233678
 20
-7.8920743173
 30
0.0
 11
5.1353036336
 21
-7.487569454
 31
0.0
  0
LINE
  5
B7
330
1F
100
AcDbEntity
  8
SK3
  6
SLD-Dashed
370
    18
100
AcDbLine
 10
5.1353036336
 20
-7.487569454
 30
0.0
 11
4.8300302171
 21
-7.1771819557
 31
0.0
  0
LINE
  5
B8
330
1F
100
AcDbEntity
  8
SK3
  6
SLD-Dashed
370
    18
100
AcDbLine
 10
4.8300302171
 20
-7.1771819557
 30
0.0
 11
4.5037069971
 21
-6.9820642173
 31
0.0
  0
LINE
  5
B9
330
1F
100
AcDbEntity
  8
SK3
  6
SLD-Dashed
370
    18
100
AcDbLine
 10
4.5037069971
 20
-6.9820642173
 30
0.0
 11
4.1785723618
 21
-6.9155131903
 31
0.0
  0
LINE
  5
BA
330
1F
100
AcDbEntity
  8
SK3
  6
SLD-Dashed
370
    18
100
AcDbLine
 10
4.1785723618
 20
-6.9155131903
 30
0.0
 11
3.8767836993
 21
-6.9820642173
 31
0.0
  0
LINE
  5
BB
330
1F
100
AcDbEntity
  8
SK3
  6
SLD-Dashed
370
    18
100
AcDbLine
 10
3.8767836993
 20
-6.9820642173
 30
0.0
 11
3.6189074082
 21
-7.1771819557
 31
0.0
  0
LINE
  5
BC
330
1F
100
AcDbEntity
  8
SK3
  6
SLD-Dashed
370
    18
100
AcDbLine
 10
3.6189074082
 20
-7.1771819557
 30
0.0
 11
3.4225173315
 21
-7.487569454
 31
0.0
  0
LINE
  5
BD
330
1F
100
AcDbEntity
  8
SK3
  6
SLD-Dashed
370
    18
100
AcDbLine
 10
3.4225173315
 20
-7.487569454
 30
0.0
 11
3.3009971285
 21
-7.8920743173
 31
0.0
  0
LINE
  5
BE
330
1F
100
AcDbEntity
  8
SK3
  6
SLD-Dashed
370
    18
100
AcDbLine
 10
3.3009971285
 20
-7.8920743173
 30
0.0
 11
3.2626282002
 21
-8.3631302075
 31
0.0
  0
LINE
  5
BF
330
1F
100
AcDbEntity
  8
SK3
  6
SLD-Dashed
370
    18
100
AcDbLine
 10
3.2626282002
 20
-8.3631302075
 30
0.0
 11
3.3100253255
 21
-8.8686354442
 31
0.0
  0
LINE
  5
C0
330
1F
100
AcDbEntity
  8
SK3
  6
SLD-Dashed
370
    18
100
AcDbLine
 10
3.3100253255
 20
-8.8686354442
 30
0.0
 11
3.4399584689
 21
-9.3741406809
 31
0.0
  0
LINE
  5
C1
330
1F
100
AcDbEntity
  8
SK3
  6
SLD-Dashed
370
    18
100
AcDbLine
 10
3.4399584689
 20
-9.3741406809
 30
0.0
 11
3.6435729011
 21
-9.8451965711
 31
0.0
  0
LINE
  5
C2
330
1F
100
AcDbEntity
  8
SK3
  6
SLD-Dashed
370
    18
100
AcDbLine
 10
3.6435729011
 20
-9.8451965711
 30
0.0
 11
3.9069926353
 21
-10.2497014344
 31
0.0
  0
LINE
  5
C3
330
1F
100
AcDbEntity
  8
SK3
  6
SLD-Dashed
370
    18
100
AcDbLine
 10
3.9069926353
 20
-10.2497014344
 30
0.0
 11
4.2122660518
 21
-10.5600889327
 31
0.0
  0
LINE
  5
C4
330
1F
100
AcDbEntity
  8
SK3
  6
SLD-Dashed
370
    18
100
AcDbLine
 10
4.2122660518
 20
-10.5600889327
 30
0.0
 11
4.5385892718
 21
-10.7552066711
 31
0.0
  0
LINE
  5
C5
330
1F
100
AcDbEntity
  8
SK3
  6
SLD-Dashed
370
    18
100
AcDbLine
 10
4.5385892718
 20
-10.7552066711
 30
0.0
 11
4.8637239071
 21
-10.8217576981
 31
0.0
  0
LINE
  5
C6
330
1F
100
AcDbEntity
  8
SK3
  6
SLD-Dashed
370
    18
100
AcDbLine
 10
4.8637239071
 20
-10.8217576981
 30
0.0
 11
5.1655125697
 21
-10.7552066711
 31
0.0
  0
LINE
  5
C7
330
1F
100
AcDbEntity
  8
SK3
  6
SLD-Dashed
370
    18
100
AcDbLine
 10
5.1655125697
 20
-10.7552066711
 30
0.0
 11
5.4233888608
 21
-10.5600889327
 31
0.0
  0
LINE
  5
C8
330
1F
100
AcDbEntity
  8
SK3
  6
SLD-Dashed
370
    18
100
AcDbLine
 10
5.4233888608
 20
-10.5600889327
 30
0.0
 11
5.6197789374
 21
-10.2497014344
 31
0.0
  0
LINE
  5
C9
330
1F
100
AcDbEntity
  8
SK3
  6
SLD-Dashed
370
    18
100
AcDbLine
 10
5.6197789374
 20
-10.2497014344
 30
0.0
 11
5.7412991405
 21
-9.8451965711
 31
0.0
  0
LINE
  5
CA
330
1F
100
AcDbEntity
  8
SK3
  6
SLD-Dashed
370
    18
100
AcDbLine
 10
5.7412991405
 20
-9.8451965711
 30
0.0
 11
5.7796680688
 21
-9.3741406809
 31
0.0
  0
LINE
  5
CB
330
1F
100
AcDbEntity
  8
SK3
  6
SLD-Dashed
370
    18
100
AcDbLine
 10
5.7796680688
 20
-9.3741406809
 30
0.0
 11
5.7322709434
 21
-8.8686354442
 31
0.0
  0
LINE
  5
CC
330
1F
100
AcDbEntity
  8
SK3
  6
SLD-Dashed
370
    18
100
AcDbLine
 10
5.7253406934
 20
-8.8621689747
 30
0.0
 11
5.7715528906
 21
-9.3550365805
 31
0.0
  0
LINE
  5
CD
330
1F
100
AcDbEntity
  8
SK3
  6
SLD-Dashed
370
    18
100
AcDbLine
 10
5.7715528906
 20
-9.3550365805
 30
0.0
 11
5.7341431855
 21
-9.8143160735
 31
0.0
  0
LINE
  5
CE
330
1F
100
AcDbEntity
  8
SK3
  6
SLD-Dashed
370
    18
100
AcDbLine
 10
5.7341431855
 20
-9.8143160735
 30
0.0
 11
5.6156609875
 21
-10.2087083151
 31
0.0
  0
LINE
  5
CF
330
1F
100
AcDbEntity
  8
SK3
  6
SLD-Dashed
370
    18
100
AcDbLine
 10
5.6156609875
 20
-10.2087083151
 30
0.0
 11
5.4241806628
 21
-10.511336126
 31
0.0
  0
LINE
  5
D0
330
1F
100
AcDbEntity
  8
SK3
  6
SLD-Dashed
370
    18
100
AcDbLine
 10
5.4241806628
 20
-10.511336126
 30
0.0
 11
5.1727512789
 21
-10.7015759209
 31
0.0
  0
LINE
  5
D1
330
1F
100
AcDbEntity
  8
SK3
  6
SLD-Dashed
370
    18
100
AcDbLine
 10
5.1727512789
 20
-10.7015759209
 30
0.0
 11
4.878507333
 21
-10.7664631722
 31
0.0
  0
LINE
  5
D2
330
1F
100
AcDbEntity
  8
SK3
  6
SLD-Dashed
370
    18
100
AcDbLine
 10
4.878507333
 20
-10.7664631722
 30
0.0
 11
4.5615010636
 21
-10.7015759209
 31
0.0
  0
LINE
  5
D3
330
1F
100
AcDbEntity
  8
SK3
  6
SLD-Dashed
370
    18
100
AcDbLine
 10
4.5615010636
 20
-10.7015759209
 30
0.0
 11
4.2433359241
 21
-10.511336126
 31
0.0
  0
LINE
  5
D4
330
1F
100
AcDbEntity
  8
SK3
  6
SLD-Dashed
370
    18
100
AcDbLine
 10
4.2433359241
 20
-10.511336126
 30
0.0
 11
3.945694343
 21
-10.2087083151
 31
0.0
  0
LINE
  5
D5
330
1F
100
AcDbEntity
  8
SK3
  6
SLD-Dashed
370
    18
100
AcDbLine
 10
3.945694343
 20
-10.2087083151
 30
0.0
 11
3.6888601022
 21
-9.8143160735
 31
0.0
  0
LINE
  5
D6
330
1F
100
AcDbEntity
  8
SK3
  6
SLD-Dashed
370
    18
100
AcDbLine
 10
3.6888601022
 20
-9.8143160735
 30
0.0
 11
3.4903360307
 21
-9.3550365805
 31
0.0
  0
LINE
  5
D7
330
1F
100
AcDbEntity
  8
SK3
  6
SLD-Dashed
370
    18
100
AcDbLine
 10
3.4903360307
 20
-9.3550365805
 30
0.0
 11
3.3636512159
 21
-8.8621689747
 31
0.0
  0
LINE
  5
D8
330
1F
100
AcDbEntity
  8
SK3
  6
SLD-Dashed
370
    18
100
AcDbLine
 10
3.3636512159
 20
-8.8621689747
 30
0.0
 11
3.3174390187
 21
-8.3693013689
 31
0.0
  0
LINE
  5
D9
330
1F
100
AcDbEntity
  8
SK3
  6
SLD-Dashed
370
    18
100
AcDbLine
 10
3.3174390187
 20
-8.3693013689
 30
0.0
 11
3.3548487238
 21
-7.9100218759
 31
0.0
  0
LINE
  5
DA
330
1F
100
AcDbEntity
  8
SK3
  6
SLD-Dashed
370
    18
100
AcDbLine
 10
3.3548487238
 20
-7.9100218759
 30
0.0
 11
3.4733309218
 21
-7.5156296343
 31
0.0
  0
LINE
  5
DB
330
1F
100
AcDbEntity
  8
SK3
  6
SLD-Dashed
370
    18
100
AcDbLine
 10
3.4733309218
 20
-7.5156296343
 30
0.0
 11
3.6648112465
 21
-7.2130018234
 31
0.0
  0
LINE
  5
DC
330
1F
100
AcDbEntity
  8
SK3
  6
SLD-Dashed
370
    18
100
AcDbLine
 10
3.6648112465
 20
-7.2130018234
 30
0.0
 11
3.9162406304
 21
-7.0227620285
 31
0.0
  0
LINE
  5
DD
330
1F
100
AcDbEntity
  8
SK3
  6
SLD-Dashed
370
    18
100
AcDbLine
 10
3.9162406304
 20
-7.0227620285
 30
0.0
 11
4.2104845763
 21
-6.9578747772
 31
0.0
  0
LINE
  5
DE
330
1F
100
AcDbEntity
  8
SK3
  6
SLD-Dashed
370
    18
100
AcDbLine
 10
4.2104845763
 20
-6.9578747772
 30
0.0
 11
4.5274908457
 21
-7.0227620285
 31
0.0
  0
LINE
  5
DF
330
1F
100
AcDbEntity
  8
SK3
  6
SLD-Dashed
370
    18
100
AcDbLine
 10
4.5274908457
 20
-7.0227620285
 30
0.0
 11
4.8456559852
 21
-7.2130018234
 31
0.0
  0
LINE
  5
E0
330
1F
100
AcDbEntity
  8
SK3
  6
SLD-Dashed
370
    18
100
AcDbLine
 10
4.8456559852
 20
-7.2130018234
 30
0.0
 11
5.1432975663
 21
-7.5156296343
 31
0.0
  0
LINE
  5
E1
330
1F
100
AcDbEntity
  8
SK3
  6
SLD-Dashed
370
    18
100
AcDbLine
 10
5.1432975663
 20
-7.5156296343
 30
0.0
 11
5.4001318071
 21
-7.9100218759
 31
0.0
  0
LINE
  5
E2
330
1F
100
AcDbEntity
  8
SK3
  6
SLD-Dashed
370
    18
100
AcDbLine
 10
5.4001318071
 20
-7.9100218759
 30
0.0
 11
5.5986558786
 21
-8.3693013689
 31
0.0
  0
LINE
  5
E3
330
1F
100
AcDbEntity
  8
SK3
  6
SLD-Dashed
370
    18
100
AcDbLine
 10
5.5986558786
 20
-8.3693013689
 30
0.0
 11
5.7253406934
 21
-8.8621689747
 31
0.0
  0
LINE
  5
E4
330
1F
100
AcDbEntity
  8
SK3
  6
SLD-Dashed
370
    18
100
AcDbLine
 10
16.3488925452
 20
-5.9198440145
 30
0.0
 11
16.2222077304
 21
-5.4269764087
 31
0.0
  0
LINE
  5
E5
330
1F
100
AcDbEntity
  8
SK3
  6
SLD-Dashed
370
    18
100
AcDbLine
 10
16.2222077304
 20
-5.4269764087
 30
0.0
 11
16.0236836589
 21
-4.9676969157
 31
0.0
  0
LINE
  5
E6
330
1F
100
AcDbEntity
  8
SK3
  6
SLD-Dashed
370
    18
100
AcDbLine
 10
16.0236836589
 20
-4.9676969157
 30
0.0
 11
15.7668494181
 21
-4.573304674
 31
0.0
  0
LINE
  5
E7
330
1F
100
AcDbEntity
  8
SK3
  6
SLD-Dashed
370
    18
100
AcDbLine
 10
15.7668494181
 20
-4.573304674
 30
0.0
 11
15.469207837
 21
-4.2706768632
 31
0.0
  0
LINE
  5
E8
330
1F
100
AcDbEntity
  8
SK3
  6
SLD-Dashed
370
    18
100
AcDbLine
 10
15.469207837
 20
-4.2706768632
 30
0.0
 11
15.1510426975
 21
-4.0804370683
 31
0.0
  0
LINE
  5
E9
330
1F
100
AcDbEntity
  8
SK3
  6
SLD-Dashed
370
    18
100
AcDbLine
 10
15.1510426975
 20
-4.0804370683
 30
0.0
 11
14.8340364281
 21
-4.015549817
 31
0.0
  0
LINE
  5
EA
330
1F
100
AcDbEntity
  8
SK3
  6
SLD-Dashed
370
    18
100
AcDbLine
 10
14.8340364281
 20
-4.015549817
 30
0.0
 11
14.5397924821
 21
-4.0804370683
 31
0.0
  0
LINE
  5
EB
330
1F
100
AcDbEntity
  8
SK3
  6
SLD-Dashed
370
    18
100
AcDbLine
 10
14.5397924821
 20
-4.0804370683
 30
0.0
 11
14.2883630983
 21
-4.2706768632
 31
0.0
  0
LINE
  5
EC
330
1F
100
AcDbEntity
  8
SK3
  6
SLD-Dashed
370
    18
100
AcDbLine
 10
14.2883630983
 20
-4.2706768632
 30
0.0
 11
14.0968827735
 21
-4.573304674
 31
0.0
  0
LINE
  5
ED
330
1F
100
AcDbEntity
  8
SK3
  6
SLD-Dashed
370
    18
100
AcDbLine
 10
14.0968827735
 20
-4.573304674
 30
0.0
 11
13.9784005756
 21
-4.9676969157
 31
0.0
  0
LINE
  5
EE
330
1F
100
AcDbEntity
  8
SK3
  6
SLD-Dashed
370
    18
100
AcDbLine
 10
13.9784005756
 20
-4.9676969157
 30
0.0
 11
13.9409908705
 21
-5.4269764087
 31
0.0
  0
LINE
  5
EF
330
1F
100
AcDbEntity
  8
SK3
  6
SLD-Dashed
370
    18
100
AcDbLine
 10
13.9409908705
 20
-5.4269764087
 30
0.0
 11
13.9872030677
 21
-5.9198440145
 31
0.0
  0
LINE
  5
F0
330
1F
100
AcDbEntity
  8
SK3
  6
SLD-Dashed
370
    18
100
AcDbLine
 10
13.9872030677
 20
-5.9198440145
 30
0.0
 11
14.1138878825
 21
-6.4127116203
 31
0.0
  0
LINE
  5
F1
330
1F
100
AcDbEntity
  8
SK3
  6
SLD-Dashed
370
    18
100
AcDbLine
 10
14.1138878825
 20
-6.4127116203
 30
0.0
 11
14.3124119539
 21
-6.8719911132
 31
0.0
  0
LINE
  5
F2
330
1F
100
AcDbEntity
  8
SK3
  6
SLD-Dashed
370
    18
100
AcDbLine
 10
14.3124119539
 20
-6.8719911132
 30
0.0
 11
14.5692461948
 21
-7.2663833549
 31
0.0
  0
LINE
  5
F3
330
1F
100
AcDbEntity
  8
SK3
  6
SLD-Dashed
370
    18
100
AcDbLine
 10
14.5692461948
 20
-7.2663833549
 30
0.0
 11
14.8668877759
 21
-7.5690111658
 31
0.0
  0
LINE
  5
F4
330
1F
100
AcDbEntity
  8
SK3
  6
SLD-Dashed
370
    18
100
AcDbLine
 10
14.8668877759
 20
-7.5690111658
 30
0.0
 11
15.1850529154
 21
-7.7592509607
 31
0.0
  0
LINE
  5
F5
330
1F
100
AcDbEntity
  8
SK3
  6
SLD-Dashed
370
    18
100
AcDbLine
 10
15.1850529154
 20
-7.7592509607
 30
0.0
 11
15.5020591848
 21
-7.824138212
 31
0.0
  0
LINE
  5
F6
330
1F
100
AcDbEntity
  8
SK3
  6
SLD-Dashed
370
    18
100
AcDbLine
 10
15.5020591848
 20
-7.824138212
 30
0.0
 11
15.7963031307
 21
-7.7592509607
 31
0.0
  0
LINE
  5
F7
330
1F
100
AcDbEntity
  8
SK3
  6
SLD-Dashed
370
    18
100
AcDbLine
 10
15.7963031307
 20
-7.7592509607
 30
0.0
 11
16.0477325146
 21
-7.5690111658
 31
0.0
  0
LINE
  5
F8
330
1F
100
AcDbEntity
  8
SK3
  6
SLD-Dashed
370
    18
100
AcDbLine
 10
16.0477325146
 20
-7.5690111658
 30
0.0
 11
16.2392128393
 21
-7.2663833549
 31
0.0
  0
LINE
  5
F9
330
1F
100
AcDbEntity
  8
SK3
  6
SLD-Dashed
370
    18
100
AcDbLine
 10
16.2392128393
 20
-7.2663833549
 30
0.0
 11
16.3576950373
 21
-6.8719911132
 31
0.0
  0
LINE
  5
FA
330
1F
100
AcDbEntity
  8
SK3
  6
SLD-Dashed
370
    18
100
AcDbLine
 10
16.3576950373
 20
-6.8719911132
 30
0.0
 11
16.3951047424
 21
-6.4127116203
 31
0.0
  0
LINE
  5
FB
330
1F
100
AcDbEntity
  8
SK3
  6
SLD-Dashed
370
    18
100
AcDbLine
 10
16.3951047424
 20
-6.4127116203
 30
0.0
 11
16.3488925452
 21
-5.9198440145
 31
0.0
  0
LINE
  5
FC
330
1F
100
AcDbEntity
  8
SK3
  6
SLD-Dashed
370
    18
100
AcDbLine
 10
100.6
 20
-16.0
 30
0.0
 11
100.6
 21
16.0
 31
0.0
  0
LINE
  5
FD
330
1F
100
AcDbEntity
  8
SK3
  6
SLD-Dashed
370
    18
100
AcDbLine
 10
101.6
 20
-16.5606579805
 30
0.0
 11
101.6
 21
16.5606579805
 31
0.0
  0
LINE
  5
FE
330
1F
100
AcDbEntity
  8
SK3
  6
SLD-Dashed
370
    18
100
AcDbLine
 10
35.56
 20
-16.25
 30
0.0
 11
35.56
 21
16.25
 31
0.0
  0
LINE
  5
FF
330
1F
100
AcDbEntity
  8
SK3
  6
SLD-Dashed
370
    18
100
AcDbLine
 10
40.56
 20
15.6450910844
 30
0.0
 11
40.56
 21
-16.25
 31
0.0
  0
LINE
  5
100
330
1F
100
AcDbEntity
  8
SK3
  6
SLD-Dashed
370
    18
100
AcDbLine
 10
40.56
 20
15.3852648674
 30
0.0
 11
40.56
 21
-15.9834755669
 31
0.0
  0
LINE
  5
101
330
1F
100
AcDbEntity
  8
SK3
  6
SLD-Dashed
370
    18
100
AcDbLine
 10
37.9
 20
29.65
 30
0.0
 11
58.15
 21
29.65
 31
0.0
  0
LINE
  5
102
330
1F
100
AcDbEntity
  8
SK3
  6
SLD-Dashed
370
    18
100
AcDbLine
 10
83.15
 20
29.65
 30
0.0
 11
62.9
 21
29.65
 31
0.0
  0
LINE
  5
103
330
1F
100
AcDbEntity
  8
SK3
  6
SLD-Dashed
370
    18
100
AcDbLine
 10
-66.6824940192
 20
-8.235
 30
0.0
 11
-66.6824940192
 21
8.235
 31
0.0
  0
LINE
  5
104
330
1F
100
AcDbEntity
  8
SK3
  6
SLD-Dashed
370
    18
100
AcDbLine
 10
-68.25
 20
-9.14
 30
0.0
 11
-68.25
 21
9.14
 31
0.0
  0
LINE
  5
105
330
1F
100
AcDbEntity
  8
SK3
  6
SLD-Dashed
370
    18
100
AcDbLine
 10
81.6864
 20
29.65
 30
0.0
 11
64.3800278285
 21
29.65
 31
0.0
  0
LINE
  5
106
330
1F
100
AcDbEntity
  8
SK3
  6
SLD-Dashed
370
    18
100
AcDbLine
 10
39.3636
 20
29.65
 30
0.0
 11
56.6699721715
 21
29.65
 31
0.0
  0
LINE
  5
107
330
1F
100
AcDbEntity
  8
SK3
  6
SLD-Dashed
370
    18
100
AcDbLine
 10
40.56
 20
15.6450910844
 30
0.0
 11
40.56
 21
15.3852648674
 31
0.0
  0
LINE
  5
108
330
1F
100
AcDbEntity
  8
SK3
  6
SLD-Dashed
370
    18
100
AcDbLine
 10
-63.48
 20
-8.235
 30
0.0
 11
-63.48
 21
8.235
 31
0.0
  0
LINE
  5
109
330
1F
100
AcDbEntity
  8
SK3
  6
SLD-Dashed
370
    18
100
AcDbLine
 10
-62.6204640132
 20
-6.74624
 30
0.0
 11
-62.6204640132
 21
6.74624
 31
0.0
  0
LINE
  5
10A
330
1F
100
AcDbEntity
  8
SK3
  6
SLD-Dashed
370
    18
100
AcDbLine
 10
3.5452916241
 20
-29.8048664484
 30
0.0
 11
3.5452916241
 21
-22.785
 31
0.0
  0
LINE
  5
10B
330
1F
100
AcDbEntity
  8
SK3
  6
SLD-Dashed
370
    18
100
AcDbLine
 10
18.704611155
 20
-22.785
 30
0.0
 11
18.704611155
 21
-29.8048552742
 31
0.0
  0
LINE
  5
10C
330
1F
100
AcDbEntity
  8
1
  6
SLD-Dashed
370
    18
100
AcDbLine
 10
7.8539870535
 20
-30.2255814201
 30
0.0
 11
3.95
 21
-30.2255814201
 31
0.0
  0
LINE
  5
10D
330
1F
100
AcDbEntity
  8
1
  6
SLD-Dashed
370
    18
100
AcDbLine
 10
18.3
 20
-30.2254693878
 30
0.0
 11
14.3759504666
 21
-30.2254693878
 31
0.0
  0
LINE
  5
10E
330
1F
100
AcDbEntity
  8
1
  6
SLD-Dashed
370
    18
100
AcDbLine
 10
9.2
 20
-27.8050456342
 30
0.0
 11
9.2
 21
-27.7691663541
 31
0.0
  0
LINE
  5
10F
330
1F
100
AcDbEntity
  8
1
  6
SLD-Dashed
370
    18
100
AcDbLine
 10
13.03
 20
-27.7691663541
 30
0.0
 11
13.03
 21
-27.8050456342
 31
0.0
  0
LINE
  5
110
330
1F
100
AcDbEntity
  8
SK3
  6
SLD-Dashed
370
    18
100
AcDbLine
 10
18.7047083759
 20
29.8048664484
 30
0.0
 11
18.7047083759
 21
25.5791202528
 31
0.0
  0
LINE
  5
111
330
1F
100
AcDbEntity
  8
SK3
  6
SLD-Dashed
370
    18
100
AcDbLine
 10
3.545388845
 20
25.5789825872
 30
0.0
 11
3.545388845
 21
29.8048552742
 31
0.0
  0
LINE
  5
112
330
1F
100
AcDbEntity
  8
SK3
  6
SLD-Dashed
370
    18
100
AcDbLine
 10
14.3760129465
 20
30.2255814201
 30
0.0
 11
18.3
 21
30.2255814201
 31
0.0
  0
LINE
  5
113
330
1F
100
AcDbEntity
  8
SK3
  6
SLD-Dashed
370
    18
100
AcDbLine
 10
3.95
 20
30.2254693878
 30
0.0
 11
7.8540495334
 21
30.2254693878
 31
0.0
  0
LINE
  5
114
330
1F
100
AcDbEntity
  8
1
  6
SLD-Dashed
370
    18
100
AcDbLine
 10
9.2
 20
27.8050456342
 30
0.0
 11
9.2
 21
27.7691663541
 31
0.0
  0
LINE
  5
115
330
1F
100
AcDbEntity
  8
1
  6
SLD-Dashed
370
    18
100
AcDbLine
 10
13.03
 20
27.7691663541
 30
0.0
 11
13.03
 21
27.8050456342
 31
0.0
  0
LINE
  5
116
330
1F
100
AcDbEntity
  8
SK3
  6
SLD-Dashed
370
    18
100
AcDbLine
 10
18.704611155
 20
-22.41
 30
0.0
 11
3.5452916241
 21
-22.41
 31
0.0
  0
LINE
  5
117
330
1F
100
AcDbEntity
  8
SK3
  6
SLD-Dashed
370
    18
100
AcDbLine
 10
3.5452916241
 20
-22.785
 30
0.0
 11
18.704611155
 21
-22.785
 31
0.0
  0
LINE
  5
118
330
1F
100
AcDbEntity
  8
SK3
  6
SLD-Dashed
370
    18
100
AcDbLine
 10
3.7
 20
24.83
 30
0.0
 11
18.55
 21
24.83
 31
0.0
  0
LINE
  5
119
330
1F
100
AcDbEntity
  8
SK3
  6
SLD-Dashed
370
    18
100
AcDbLine
 10
18.55
 20
25.205
 30
0.0
 11
3.7
 21
25.205
 31
0.0
  0
LINE
  5
11A
330
1F
100
AcDbEntity
  8
SK3
  6
SLD-Dashed
370
    18
100
AcDbLine
 10
35.56
 20
6.7421303729
 30
0.0
 11
35.56
 21
-6.7421303729
 31
0.0
  0
LINE
  5
11B
330
1F
100
AcDbEntity
  8
SK3
  6
SLD-Dashed
370
    18
100
AcDbLine
 10
6.4000000641
 20
20.13
 30
0.0
 11
15.8
 21
20.13
 31
0.0
  0
LINE
  5
11C
330
1F
100
AcDbEntity
  8
SK3
  6
SLD-Dashed
370
    18
100
AcDbLine
 10
16.1
 20
20.43
 30
0.0
 11
6.1
 21
20.43
 31
0.0
  0
LINE
  5
11D
330
1F
100
AcDbEntity
  8
SK3
  6
SLD-Dashed
370
    18
100
AcDbLine
 10
6.1
 20
24.83
 30
0.0
 11
16.1
 21
24.83
 31
0.0
  0
LINE
  5
11E
330
1F
100
AcDbEntity
  8
SK3
  6
SLD-Dashed
370
    18
100
AcDbLine
 10
18.7047083759
 20
-22.785
 30
0.0
 11
3.545388845
 21
-22.785
 31
0.0
  0
LINE
  5
11F
330
1F
100
AcDbEntity
  8
SK3
  6
SLD-Dashed
370
    18
100
AcDbLine
 10
3.545388845
 20
-22.41
 30
0.0
 11
18.7047083759
 21
-22.41
 31
0.0
  0
LINE
  5
120
330
1F
100
AcDbEntity
  8
SK3
  6
SLD-Dashed
370
    18
100
AcDbLine
 10
3.545388845
 20
-22.785
 30
0.0
 11
3.545388845
 21
-29.8048552742
 31
0.0
  0
LINE
  5
121
330
1F
100
AcDbEntity
  8
1
  6
SLD-Dashed
370
    18
100
AcDbLine
 10
14.3760129465
 20
-30.2255814201
 30
0.0
 11
18.3
 21
-30.2255814201
 31
0.0
  0
LINE
  5
122
330
1F
100
AcDbEntity
  8
1
  6
SLD-Dashed
370
    18
100
AcDbLine
 10
12.28
 20
-26.9870635676
 30
0.0
 11
9.95
 21
-26.9870635676
 31
0.0
  0
LINE
  5
123
330
1F
100
AcDbEntity
  8
1
  6
SLD-Dashed
370
    18
100
AcDbLine
 10
3.95
 20
-30.2254693878
 30
0.0
 11
7.8540495334
 21
-30.2254693878
 31
0.0
  0
LINE
  5
124
330
1F
100
AcDbEntity
  8
SK3
  6
SLD-Dashed
370
    18
100
AcDbLine
 10
18.7047083759
 20
-29.8048664484
 30
0.0
 11
18.7047083759
 21
-22.785
 31
0.0
  0
LINE
  5
125
330
1F
100
AcDbEntity
  8
SK3
  6
SLD-Dashed
370
    18
100
AcDbLine
 10
18.704611155
 20
25.5789825872
 30
0.0
 11
18.704611155
 21
29.8048552742
 31
0.0
  0
LINE
  5
126
330
1F
100
AcDbEntity
  8
SK3
  6
SLD-Dashed
370
    18
100
AcDbLine
 10
18.3
 20
30.2254693878
 30
0.0
 11
14.3759504666
 21
30.2254693878
 31
0.0
  0
LINE
  5
127
330
1F
100
AcDbEntity
  8
SK3
  6
SLD-Dashed
370
    18
100
AcDbLine
 10
3.5452916241
 20
29.8048664484
 30
0.0
 11
3.5452916241
 21
25.5791202528
 31
0.0
  0
LINE
  5
128
330
1F
100
AcDbEntity
  8
SK3
  6
SLD-Dashed
370
    18
100
AcDbLine
 10
7.8539870535
 20
30.2255814201
 30
0.0
 11
3.95
 21
30.2255814201
 31
0.0
  0
LINE
  5
129
330
1F
100
AcDbEntity
  8
1
  6
SLD-Dashed
370
    18
100
AcDbLine
 10
12.28
 20
26.9870635676
 30
0.0
 11
9.95
 21
26.9870635676
 31
0.0
  0
LINE
  5
12A
330
1F
100
AcDbEntity
  8
SK3
  6
SLD-Dashed
370
    18
100
AcDbLine
 10
3.3636512159
 20
8.8621689747
 30
0.0
 11
3.3174390187
 21
8.3693013689
 31
0.0
  0
LINE
  5
12B
330
1F
100
AcDbEntity
  8
SK3
  6
SLD-Dashed
370
    18
100
AcDbLine
 10
3.3174390187
 20
8.3693013689
 30
0.0
 11
3.3548487238
 21
7.9100218759
 31
0.0
  0
LINE
  5
12C
330
1F
100
AcDbEntity
  8
SK3
  6
SLD-Dashed
370
    18
100
AcDbLine
 10
3.3548487238
 20
7.9100218759
 30
0.0
 11
3.4733309218
 21
7.5156296343
 31
0.0
  0
LINE
  5
12D
330
1F
100
AcDbEntity
  8
SK3
  6
SLD-Dashed
370
    18
100
AcDbLine
 10
3.4733309218
 20
7.5156296343
 30
0.0
 11
3.6648112465
 21
7.2130018234
 31
0.0
  0
LINE
  5
12E
330
1F
100
AcDbEntity
  8
SK3
  6
SLD-Dashed
370
    18
100
AcDbLine
 10
3.6648112465
 20
7.2130018234
 30
0.0
 11
3.9162406304
 21
7.0227620285
 31
0.0
  0
LINE
  5
12F
330
1F
100
AcDbEntity
  8
SK3
  6
SLD-Dashed
370
    18
100
AcDbLine
 10
3.9162406304
 20
7.0227620285
 30
0.0
 11
4.2104845763
 21
6.9578747772
 31
0.0
  0
LINE
  5
130
330
1F
100
AcDbEntity
  8
SK3
  6
SLD-Dashed
370
    18
100
AcDbLine
 10
4.2104845763
 20
6.9578747772
 30
0.0
 11
4.5274908457
 21
7.0227620285
 31
0.0
  0
LINE
  5
131
330
1F
100
AcDbEntity
  8
SK3
  6
SLD-Dashed
370
    18
100
AcDbLine
 10
4.5274908457
 20
7.0227620285
 30
0.0
 11
4.8456559852
 21
7.2130018234
 31
0.0
  0
LINE
  5
132
330
1F
100
AcDbEntity
  8
SK3
  6
SLD-Dashed
370
    18
100
AcDbLine
 10
4.8456559852
 20
7.2130018234
 30
0.0
 11
5.1432975663
 21
7.5156296343
 31
0.0
  0
LINE
  5
133
330
1F
100
AcDbEntity
  8
SK3
  6
SLD-Dashed
370
    18
100
AcDbLine
 10
5.1432975663
 20
7.5156296343
 30
0.0
 11
5.4001318071
 21
7.9100218759
 31
0.0
  0
LINE
  5
134
330
1F
100
AcDbEntity
  8
SK3
  6
SLD-Dashed
370
    18
100
AcDbLine
 10
5.4001318071
 20
7.9100218759
 30
0.0
 11
5.5986558786
 21
8.3693013689
 31
0.0
  0
LINE
  5
135
330
1F
100
AcDbEntity
  8
SK3
  6
SLD-Dashed
370
    18
100
AcDbLine
 10
5.5986558786
 20
8.3693013689
 30
0.0
 11
5.7253406934
 21
8.8621689747
 31
0.0
  0
LINE
  5
136
330
1F
100
AcDbEntity
  8
SK3
  6
SLD-Dashed
370
    18
100
AcDbLine
 10
5.7253406934
 20
8.8621689747
 30
0.0
 11
5.7715528906
 21
9.3550365805
 31
0.0
  0
LINE
  5
137
330
1F
100
AcDbEntity
  8
SK3
  6
SLD-Dashed
370
    18
100
AcDbLine
 10
5.7715528906
 20
9.3550365805
 30
0.0
 11
5.7341431855
 21
9.8143160735
 31
0.0
  0
LINE
  5
138
330
1F
100
AcDbEntity
  8
SK3
  6
SLD-Dashed
370
    18
100
AcDbLine
 10
5.7341431855
 20
9.8143160735
 30
0.0
 11
5.6156609875
 21
10.2087083151
 31
0.0
  0
LINE
  5
139
330
1F
100
AcDbEntity
  8
SK3
  6
SLD-Dashed
370
    18
100
AcDbLine
 10
5.6156609875
 20
10.2087083151
 30
0.0
 11
5.4241806628
 21
10.511336126
 31
0.0
  0
LINE
  5
13A
330
1F
100
AcDbEntity
  8
SK3
  6
SLD-Dashed
370
    18
100
AcDbLine
 10
5.4241806628
 20
10.511336126
 30
0.0
 11
5.1727512789
 21
10.7015759209
 31
0.0
  0
LINE
  5
13B
330
1F
100
AcDbEntity
  8
SK3
  6
SLD-Dashed
370
    18
100
AcDbLine
 10
5.1727512789
 20
10.7015759209
 30
0.0
 11
4.878507333
 21
10.7664631722
 31
0.0
  0
LINE
  5
13C
330
1F
100
AcDbEntity
  8
SK3
  6
SLD-Dashed
370
    18
100
AcDbLine
 10
4.878507333
 20
10.7664631722
 30
0.0
 11
4.5615010636
 21
10.7015759209
 31
0.0
  0
LINE
  5
13D
330
1F
100
AcDbEntity
  8
SK3
  6
SLD-Dashed
370
    18
100
AcDbLine
 10
4.5615010636
 20
10.7015759209
 30
0.0
 11
4.2433359241
 21
10.511336126
 31
0.0
  0
LINE
  5
13E
330
1F
100
AcDbEntity
  8
SK3
  6
SLD-Dashed
370
    18
100
AcDbLine
 10
4.2433359241
 20
10.511336126
 30
0.0
 11
3.945694343
 21
10.2087083151
 31
0.0
  0
LINE
  5
13F
330
1F
100
AcDbEntity
  8
SK3
  6
SLD-Dashed
370
    18
100
AcDbLine
 10
3.945694343
 20
10.2087083151
 30
0.0
 11
3.6888601022
 21
9.8143160735
 31
0.0
  0
LINE
  5
140
330
1F
100
AcDbEntity
  8
SK3
  6
SLD-Dashed
370
    18
100
AcDbLine
 10
3.6888601022
 20
9.8143160735
 30
0.0
 11
3.4903360307
 21
9.3550365805
 31
0.0
  0
LINE
  5
141
330
1F
100
AcDbEntity
  8
SK3
  6
SLD-Dashed
370
    18
100
AcDbLine
 10
3.4903360307
 20
9.3550365805
 30
0.0
 11
3.3636512159
 21
8.8621689747
 31
0.0
  0
LINE
  5
142
330
1F
100
AcDbEntity
  8
SK3
  6
SLD-Dashed
370
    18
100
AcDbLine
 10
13.9872030677
 20
5.9198440145
 30
0.0
 11
14.1138878825
 21
6.4127116203
 31
0.0
  0
LINE
  5
143
330
1F
100
AcDbEntity
  8
SK3
  6
SLD-Dashed
370
    18
100
AcDbLine
 10
14.1138878825
 20
6.4127116203
 30
0.0
 11
14.3124119539
 21
6.8719911132
 31
0.0
  0
LINE
  5
144
330
1F
100
AcDbEntity
  8
SK3
  6
SLD-Dashed
370
    18
100
AcDbLine
 10
14.3124119539
 20
6.8719911132
 30
0.0
 11
14.5692461948
 21
7.2663833549
 31
0.0
  0
LINE
  5
145
330
1F
100
AcDbEntity
  8
SK3
  6
SLD-Dashed
370
    18
100
AcDbLine
 10
14.5692461948
 20
7.2663833549
 30
0.0
 11
14.8668877759
 21
7.5690111658
 31
0.0
  0
LINE
  5
146
330
1F
100
AcDbEntity
  8
SK3
  6
SLD-Dashed
370
    18
100
AcDbLine
 10
14.8668877759
 20
7.5690111658
 30
0.0
 11
15.1850529154
 21
7.7592509607
 31
0.0
  0
LINE
  5
147
330
1F
100
AcDbEntity
  8
SK3
  6
SLD-Dashed
370
    18
100
AcDbLine
 10
15.1850529154
 20
7.7592509607
 30
0.0
 11
15.5020591848
 21
7.824138212
 31
0.0
  0
LINE
  5
148
330
1F
100
AcDbEntity
  8
SK3
  6
SLD-Dashed
370
    18
100
AcDbLine
 10
15.5020591848
 20
7.824138212
 30
0.0
 11
15.7963031307
 21
7.7592509607
 31
0.0
  0
LINE
  5
149
330
1F
100
AcDbEntity
  8
SK3
  6
SLD-Dashed
370
    18
100
AcDbLine
 10
15.7963031307
 20
7.7592509607
 30
0.0
 11
16.0477325146
 21
7.5690111658
 31
0.0
  0
LINE
  5
14A
330
1F
100
AcDbEntity
  8
SK3
  6
SLD-Dashed
370
    18
100
AcDbLine
 10
16.0477325146
 20
7.5690111658
 30
0.0
 11
16.2392128393
 21
7.2663833549
 31
0.0
  0
LINE
  5
14B
330
1F
100
AcDbEntity
  8
SK3
  6
SLD-Dashed
370
    18
100
AcDbLine
 10
16.2392128393
 20
7.2663833549
 30
0.0
 11
16.3576950373
 21
6.8719911132
 31
0.0
  0
LINE
  5
14C
330
1F
100
AcDbEntity
  8
SK3
  6
SLD-Dashed
370
    18
100
AcDbLine
 10
16.3576950373
 20
6.8719911132
 30
0.0
 11
16.3951047424
 21
6.4127116203
 31
0.0
  0
LINE
  5
14D
330
1F
100
AcDbEntity
  8
SK3
  6
SLD-Dashed
370
    18
100
AcDbLine
 10
16.3951047424
 20
6.4127116203
 30
0.0
 11
16.3488925452
 21
5.9198440145
 31
0.0
  0
LINE
  5
14E
330
1F
100
AcDbEntity
  8
SK3
  6
SLD-Dashed
370
    18
100
AcDbLine
 10
16.3488925452
 20
5.9198440145
 30
0.0
 11
16.2222077304
 21
5.4269764087
 31
0.0
  0
LINE
  5
14F
330
1F
100
AcDbEntity
  8
SK3
  6
SLD-Dashed
370
    18
100
AcDbLine
 10
16.2222077304
 20
5.4269764087
 30
0.0
 11
16.0236836589
 21
4.9676969157
 31
0.0
  0
LINE
  5
150
330
1F
100
AcDbEntity
  8
SK3
  6
SLD-Dashed
370
    18
100
AcDbLine
 10
16.0236836589
 20
4.9676969157
 30
0.0
 11
15.7668494181
 21
4.573304674
 31
0.0
  0
LINE
  5
151
330
1F
100
AcDbEntity
  8
SK3
  6
SLD-Dashed
370
    18
100
AcDbLine
 10
15.7668494181
 20
4.573304674
 30
0.0
 11
15.469207837
 21
4.2706768632
 31
0.0
  0
LINE
  5
152
330
1F
100
AcDbEntity
  8
SK3
  6
SLD-Dashed
370
    18
100
AcDbLine
 10
15.469207837
 20
4.2706768632
 30
0.0
 11
15.1510426975
 21
4.0804370683
 31
0.0
  0
LINE
  5
153
330
1F
100
AcDbEntity
  8
SK3
  6
SLD-Dashed
370
    18
100
AcDbLine
 10
15.1510426975
 20
4.0804370683
 30
0.0
 11
14.8340364281
 21
4.015549817
 31
0.0
  0
LINE
  5
154
330
1F
100
AcDbEntity
  8
SK3
  6
SLD-Dashed
370
    18
100
AcDbLine
 10
14.8340364281
 20
4.015549817
 30
0.0
 11
14.5397924821
 21
4.0804370683
 31
0.0
  0
LINE
  5
155
330
1F
100
AcDbEntity
  8
SK3
  6
SLD-Dashed
370
    18
100
AcDbLine
 10
14.5397924821
 20
4.0804370683
 30
0.0
 11
14.2883630983
 21
4.2706768632
 31
0.0
  0
LINE
  5
156
330
1F
100
AcDbEntity
  8
SK3
  6
SLD-Dashed
370
    18
100
AcDbLine
 10
14.2883630983
 20
4.2706768632
 30
0.0
 11
14.0968827735
 21
4.573304674
 31
0.0
  0
LINE
  5
157
330
1F
100
AcDbEntity
  8
SK3
  6
SLD-Dashed
370
    18
100
AcDbLine
 10
14.0968827735
 20
4.573304674
 30
0.0
 11
13.9784005756
 21
4.9676969157
 31
0.0
  0
LINE
  5
158
330
1F
100
AcDbEntity
  8
SK3
  6
SLD-Dashed
370
    18
100
AcDbLine
 10
13.9784005756
 20
4.9676969157
 30
0.0
 11
13.9409908705
 21
5.4269764087
 31
0.0
  0
LINE
  5
159
330
1F
100
AcDbEntity
  8
SK3
  6
SLD-Dashed
370
    18
100
AcDbLine
 10
13.9409908705
 20
5.4269764087
 30
0.0
 11
13.9872030677
 21
5.9198440145
 31
0.0
  0
LINE
  5
15A
330
1F
100
AcDbEntity
  8
SK3
  6
SLD-Dashed
370
    18
100
AcDbLine
 10
3.3100253255
 20
8.8686354442
 30
0.0
 11
3.4399584689
 21
9.3741406809
 31
0.0
  0
LINE
  5
15B
330
1F
100
AcDbEntity
  8
SK3
  6
SLD-Dashed
370
    18
100
AcDbLine
 10
3.4399584689
 20
9.3741406809
 30
0.0
 11
3.6435729011
 21
9.8451965711
 31
0.0
  0
LINE
  5
15C
330
1F
100
AcDbEntity
  8
SK3
  6
SLD-Dashed
370
    18
100
AcDbLine
 10
3.6435729011
 20
9.8451965711
 30
0.0
 11
3.9069926353
 21
10.2497014344
 31
0.0
  0
LINE
  5
15D
330
1F
100
AcDbEntity
  8
SK3
  6
SLD-Dashed
370
    18
100
AcDbLine
 10
3.9069926353
 20
10.2497014344
 30
0.0
 11
4.2122660518
 21
10.5600889327
 31
0.0
  0
LINE
  5
15E
330
1F
100
AcDbEntity
  8
SK3
  6
SLD-Dashed
370
    18
100
AcDbLine
 10
4.2122660518
 20
10.5600889327
 30
0.0
 11
4.5385892718
 21
10.7552066711
 31
0.0
  0
LINE
  5
15F
330
1F
100
AcDbEntity
  8
SK3
  6
SLD-Dashed
370
    18
100
AcDbLine
 10
4.5385892718
 20
10.7552066711
 30
0.0
 11
4.8637239071
 21
10.8217576981
 31
0.0
  0
LINE
  5
160
330
1F
100
AcDbEntity
  8
SK3
  6
SLD-Dashed
370
    18
100
AcDbLine
 10
4.8637239071
 20
10.8217576981
 30
0.0
 11
5.1655125697
 21
10.7552066711
 31
0.0
  0
LINE
  5
161
330
1F
100
AcDbEntity
  8
SK3
  6
SLD-Dashed
370
    18
100
AcDbLine
 10
5.1655125697
 20
10.7552066711
 30
0.0
 11
5.4233888608
 21
10.5600889327
 31
0.0
  0
LINE
  5
162
330
1F
100
AcDbEntity
  8
SK3
  6
SLD-Dashed
370
    18
100
AcDbLine
 10
5.4233888608
 20
10.5600889327
 30
0.0
 11
5.6197789374
 21
10.2497014344
 31
0.0
  0
LINE
  5
163
330
1F
100
AcDbEntity
  8
SK3
  6
SLD-Dashed
370
    18
100
AcDbLine
 10
5.6197789374
 20
10.2497014344
 30
0.0
 11
5.7412991405
 21
9.8451965711
 31
0.0
  0
LINE
  5
164
330
1F
100
AcDbEntity
  8
SK3
  6
SLD-Dashed
370
    18
100
AcDbLine
 10
5.7412991405
 20
9.8451965711
 30
0.0
 11
5.7796680688
 21
9.3741406809
 31
0.0
  0
LINE
  5
165
330
1F
100
AcDbEntity
  8
SK3
  6
SLD-Dashed
370
    18
100
AcDbLine
 10
5.7796680688
 20
9.3741406809
 30
0.0
 11
5.7322709434
 21
8.8686354442
 31
0.0
  0
LINE
  5
166
330
1F
100
AcDbEntity
  8
SK3
  6
SLD-Dashed
370
    18
100
AcDbLine
 10
5.7322709434
 20
8.8686354442
 30
0.0
 11
5.6023378001
 21
8.3631302075
 31
0.0
  0
LINE
  5
167
330
1F
100
AcDbEntity
  8
SK3
  6
SLD-Dashed
370
    18
100
AcDbLine
 10
5.6023378001
 20
8.3631302075
 30
0.0
 11
5.3987233678
 21
7.8920743173
 31
0.0
  0
LINE
  5
168
330
1F
100
AcDbEntity
  8
SK3
  6
SLD-Dashed
370
    18
100
AcDbLine
 10
5.3987233678
 20
7.8920743173
 30
0.0
 11
5.1353036336
 21
7.487569454
 31
0.0
  0
LINE
  5
169
330
1F
100
AcDbEntity
  8
SK3
  6
SLD-Dashed
370
    18
100
AcDbLine
 10
5.1353036336
 20
7.487569454
 30
0.0
 11
4.8300302171
 21
7.1771819557
 31
0.0
  0
LINE
  5
16A
330
1F
100
AcDbEntity
  8
SK3
  6
SLD-Dashed
370
    18
100
AcDbLine
 10
4.8300302171
 20
7.1771819557
 30
0.0
 11
4.5037069971
 21
6.9820642173
 31
0.0
  0
LINE
  5
16B
330
1F
100
AcDbEntity
  8
SK3
  6
SLD-Dashed
370
    18
100
AcDbLine
 10
4.5037069971
 20
6.9820642173
 30
0.0
 11
4.1785723618
 21
6.9155131903
 31
0.0
  0
LINE
  5
16C
330
1F
100
AcDbEntity
  8
SK3
  6
SLD-Dashed
370
    18
100
AcDbLine
 10
4.1785723618
 20
6.9155131903
 30
0.0
 11
3.8767836993
 21
6.9820642173
 31
0.0
  0
LINE
  5
16D
330
1F
100
AcDbEntity
  8
SK3
  6
SLD-Dashed
370
    18
100
AcDbLine
 10
3.8767836993
 20
6.9820642173
 30
0.0
 11
3.6189074082
 21
7.1771819557
 31
0.0
  0
LINE
  5
16E
330
1F
100
AcDbEntity
  8
SK3
  6
SLD-Dashed
370
    18
100
AcDbLine
 10
3.6189074082
 20
7.1771819557
 30
0.0
 11
3.4225173315
 21
7.487569454
 31
0.0
  0
LINE
  5
16F
330
1F
100
AcDbEntity
  8
SK3
  6
SLD-Dashed
370
    18
100
AcDbLine
 10
3.4225173315
 20
7.487569454
 30
0.0
 11
3.3009971285
 21
7.8920743173
 31
0.0
  0
LINE
  5
170
330
1F
100
AcDbEntity
  8
SK3
  6
SLD-Dashed
370
    18
100
AcDbLine
 10
3.3009971285
 20
7.8920743173
 30
0.0
 11
3.2626282002
 21
8.3631302075
 31
0.0
  0
LINE
  5
171
330
1F
100
AcDbEntity
  8
SK3
  6
SLD-Dashed
370
    18
100
AcDbLine
 10
3.2626282002
 20
8.3631302075
 30
0.0
 11
3.3100253255
 21
8.8686354442
 31
0.0
  0
LINE
  5
172
330
1F
100
AcDbEntity
  8
SK3
  6
SLD-Dashed
370
    18
100
AcDbLine
 10
5.06497889
 20
-10.7414234849
 30
0.0
 11
15.6885307418
 21
-7.7990985247
 31
0.0
  0
LINE
  5
173
330
1F
100
AcDbEntity
  8
SK3
  6
SLD-Dashed
370
    18
100
AcDbLine
 10
14.6475648711
 20
-4.0405895043
 30
0.0
 11
4.0240130193
 21
-6.9829144645
 31
0.0
  0
LINE
  5
174
330
1F
100
AcDbEntity
  8
SK3
  6
SLD-Dashed
370
    18
100
AcDbLine
 10
101.6
 20
16.5773502692
 30
0.0
 11
100.6
 21
16.0
 31
0.0
  0
LINE
  5
175
330
1F
100
AcDbEntity
  8
SK3
  6
SLD-Dashed
370
    18
100
AcDbLine
 10
100.6
 20
-16.0
 30
0.0
 11
101.6
 21
-16.5773502692
 31
0.0
  0
LINE
  5
176
330
1F
100
AcDbEntity
  8
SK3
  6
SLD-Dashed
370
    18
100
AcDbLine
 10
39.3907418103
 20
16.25
 30
0.0
 11
35.56
 21
16.25
 31
0.0
  0
LINE
  5
177
330
1F
100
AcDbEntity
  8
SK3
  6
SLD-Dashed
370
    18
100
AcDbLine
 10
35.56
 20
-16.25
 30
0.0
 11
40.56
 21
-16.25
 31
0.0
  0
LINE
  5
178
330
1F
100
AcDbEntity
  8
SK3
  6
SLD-Dashed
370
    18
100
AcDbLine
 10
64.3636
 20
16.0
 30
0.0
 11
56.6685430014
 21
16.0
 31
0.0
  0
LINE
  5
179
330
1F
100
AcDbEntity
  8
SK3
  6
SLD-Dashed
370
    18
100
AcDbLine
 10
100.6
 20
16.0
 30
0.0
 11
81.6850231947
 21
16.0
 31
0.0
  0
LINE
  5
17A
330
1F
100
AcDbEntity
  8
SK3
  6
SLD-Dashed
370
    18
100
AcDbLine
 10
40.56
 20
-16.0
 30
0.0
 11
100.6
 21
-16.0
 31
0.0
  0
LINE
  5
17B
330
1F
100
AcDbEntity
  8
SK3
  6
SLD-Dashed
370
    18
100
AcDbLine
 10
58.15
 20
29.65
 30
0.0
 11
58.15
 21
31.75
 31
0.0
  0
LINE
  5
17C
330
1F
100
AcDbEntity
  8
SK3
  6
SLD-Dashed
370
    18
100
AcDbLine
 10
37.9
 20
31.7266844861
 30
0.0
 11
37.9
 21
29.65
 31
0.0
  0
LINE
  5
17D
330
1F
100
AcDbEntity
  8
SK3
  6
SLD-Dashed
370
    18
100
AcDbLine
 10
62.9
 20
31.75
 30
0.0
 11
62.9
 21
29.65
 31
0.0
  0
LINE
  5
17E
330
1F
100
AcDbEntity
  8
SK3
  6
SLD-Dashed
370
    18
100
AcDbLine
 10
83.15
 20
29.65
 30
0.0
 11
83.15
 21
31.75
 31
0.0
  0
LINE
  5
17F
330
1F
100
AcDbEntity
  8
SK3
  6
SLD-Dashed
370
    18
100
AcDbLine
 10
-68.25
 20
-9.14
 30
0.0
 11
-66.6824940192
 21
-8.235
 31
0.0
  0
LINE
  5
180
330
1F
100
AcDbEntity
  8
SK3
  6
SLD-Dashed
370
    18
100
AcDbLine
 10
-66.6824940192
 20
8.235
 30
0.0
 11
-68.25
 21
9.14
 31
0.0
  0
LINE
  5
181
330
1F
100
AcDbEntity
  8
SK3
  6
SLD-Dashed
370
    18
100
AcDbLine
 10
64.3636
 20
29.65
 30
0.0
 11
64.3636
 21
16.0
 31
0.0
  0
LINE
  5
182
330
1F
100
AcDbEntity
  8
SK3
  6
SLD-Dashed
370
    18
100
AcDbLine
 10
81.6864
 20
15.9992562743
 30
0.0
 11
81.6864
 21
29.65
 31
0.0
  0
LINE
  5
183
330
1F
100
AcDbEntity
  8
SK3
  6
SLD-Dashed
370
    18
100
AcDbLine
 10
39.3636
 20
29.65
 30
0.0
 11
39.3636
 21
16.2355523945
 31
0.0
  0
LINE
  5
184
330
1F
100
AcDbEntity
  8
SK3
  6
SLD-Dashed
370
    18
100
AcDbLine
 10
56.6864
 20
15.9903852013
 30
0.0
 11
56.6864
 21
29.65
 31
0.0
  0
LINE
  5
185
330
1F
100
AcDbEntity
  8
SK3
  6
SLD-Dashed
370
    18
100
AcDbLine
 10
-66.6824940192
 20
-8.235
 30
0.0
 11
-63.48
 21
-8.235
 31
0.0
  0
LINE
  5
186
330
1F
100
AcDbEntity
  8
SK3
  6
SLD-Dashed
370
    18
100
AcDbLine
 10
-63.48
 20
8.235
 30
0.0
 11
-66.6824940192
 21
8.235
 31
0.0
  0
LINE
  5
187
330
1F
100
AcDbEntity
  8
SK3
  6
SLD-Dashed
370
    18
100
AcDbLine
 10
-63.48
 20
-8.235
 30
0.0
 11
-62.6204640132
 21
-6.74624
 31
0.0
  0
LINE
  5
188
330
1F
100
AcDbEntity
  8
SK3
  6
SLD-Dashed
370
    18
100
AcDbLine
 10
-62.6204640132
 20
6.74624
 30
0.0
 11
-63.48
 21
8.235
 31
0.0
  0
LINE
  5
189
330
1F
100
AcDbEntity
  8
SK3
  6
SLD-Dashed
370
    18
100
AcDbLine
 10
-62.6204640132
 20
-6.74624
 30
0.0
 11
35.56
 21
-6.74624
 31
0.0
  0
LINE
  5
18A
330
1F
100
AcDbEntity
  8
SK3
  6
SLD-Dashed
370
    18
100
AcDbLine
 10
35.56
 20
6.74624
 30
0.0
 11
-62.6204640132
 21
6.74624
 31
0.0
  0
LINE
  5
18B
330
1F
100
AcDbEntity
  8
SK3
  6
SLD-Dashed
370
    18
100
AcDbLine
 10
6.1
 20
24.83
 30
0.0
 11
6.1
 21
20.43
 31
0.0
  0
LINE
  5
18C
330
1F
100
AcDbEntity
  8
SK3
  6
SLD-Dashed
370
    18
100
AcDbLine
 10
16.1
 20
20.43
 30
0.0
 11
16.1
 21
24.83
 31
0.0
  0
LINE
  5
18D
330
1F
100
AcDbEntity
  8
SK3
  6
SLD-Dashed
370
    18
100
AcDbLine
 10
4.0240130193
 20
6.9829144645
 30
0.0
 11
14.6475648711
 21
4.0405895043
 31
0.0
  0
LINE
  5
18E
330
1F
100
AcDbEntity
  8
SK3
  6
SLD-Dashed
370
    18
100
AcDbLine
 10
15.6885307418
 20
7.7990985247
 30
0.0
 11
5.06497889
 21
10.7414234849
 31
0.0
  0
LINE
  5
18F
330
1F
100
AcDbEntity
  8
SK3
  6
SLD-Solid
370
    18
100
AcDbLine
 10
-38.2499992847
 20
7.9375002533
 30
0.0
 11
-63.3082389832
 21
7.9375002533
 31
0.0
  0
LINE
  5
190
330
1F
100
AcDbEntity
  8
SK3
  6
SLD-Solid
370
    18
100
AcDbLine
 10
-63.3082389832
 20
-7.9375002533
 30
0.0
 11
-38.2499992847
 21
-7.9375002533
 31
0.0
  0
LINE
  5
191
330
1F
100
AcDbEntity
  8
SK3
  6
SLD-Solid
370
    18
100
AcDbLine
 10
-38.2499992847
 20
0.0
 30
0.0
 11
-38.2499992847
 21
-1.2416985119
 31
0.0
  0
LINE
  5
192
330
1F
100
AcDbEntity
  8
SK3
  6
SLD-Solid
370
    18
100
AcDbLine
 10
-38.2499992847
 20
-1.2416985119
 30
0.0
 11
-38.2499992847
 21
-2.4528224021
 31
0.0
  0
LINE
  5
193
330
1F
100
AcDbEntity
  8
SK3
  6
SLD-Solid
370
    18
100
AcDbLine
 10
-38.2499992847
 20
-2.4528224021
 30
0.0
 11
-38.2499992847
 21
-3.6035496742
 31
0.0
  0
LINE
  5
194
330
1F
100
AcDbEntity
  8
SK3
  6
SLD-Solid
370
    18
100
AcDbLine
 10
-38.2499992847
 20
-3.6035496742
 30
0.0
 11
-38.2499992847
 21
-4.6655456536
 31
0.0
  0
LINE
  5
195
330
1F
100
AcDbEntity
  8
SK3
  6
SLD-Solid
370
    18
100
AcDbLine
 10
-38.2499992847
 20
-4.6655456536
 30
0.0
 11
-38.2499992847
 21
-5.6126601994
 31
0.0
  0
LINE
  5
196
330
1F
100
AcDbEntity
  8
SK3
  6
SLD-Solid
370
    18
100
AcDbLine
 10
-38.2499992847
 20
-5.6126601994
 30
0.0
 11
-38.2499992847
 21
-6.4215725288
 31
0.0
  0
LINE
  5
197
330
1F
100
AcDbEntity
  8
SK3
  6
SLD-Solid
370
    18
100
AcDbLine
 10
-38.2499992847
 20
-6.4215725288
 30
0.0
 11
-38.2499992847
 21
-7.0723644458
 31
0.0
  0
LINE
  5
198
330
1F
100
AcDbEntity
  8
SK3
  6
SLD-Solid
370
    18
100
AcDbLine
 10
-38.2499992847
 20
-7.0723644458
 30
0.0
 11
-38.2499992847
 21
-7.5490111485
 31
0.0
  0
LINE
  5
199
330
1F
100
AcDbEntity
  8
SK3
  6
SLD-Solid
370
    18
100
AcDbLine
 10
-38.2499992847
 20
-7.5490111485
 30
0.0
 11
-38.2499992847
 21
-7.8397765756
 31
0.0
  0
LINE
  5
19A
330
1F
100
AcDbEntity
  8
SK3
  6
SLD-Solid
370
    18
100
AcDbLine
 10
-38.2499992847
 20
-7.8397765756
 30
0.0
 11
-38.2499992847
 21
-7.9375002533
 31
0.0
  0
LINE
  5
19B
330
1F
100
AcDbEntity
  8
SK3
  6
SLD-Solid
370
    18
100
AcDbLine
 10
-38.2499992847
 20
7.9375002533
 30
0.0
 11
-38.2499992847
 21
7.8397765756
 31
0.0
  0
LINE
  5
19C
330
1F
100
AcDbEntity
  8
SK3
  6
SLD-Solid
370
    18
100
AcDbLine
 10
-38.2499992847
 20
7.8397765756
 30
0.0
 11
-38.2499992847
 21
7.5490111485
 31
0.0
  0
LINE
  5
19D
330
1F
100
AcDbEntity
  8
SK3
  6
SLD-Solid
370
    18
100
AcDbLine
 10
-38.2499992847
 20
7.5490111485
 30
0.0
 11
-38.2499992847
 21
7.0723644458
 31
0.0
  0
LINE
  5
19E
330
1F
100
AcDbEntity
  8
SK3
  6
SLD-Solid
370
    18
100
AcDbLine
 10
-38.2499992847
 20
7.0723644458
 30
0.0
 11
-38.2499992847
 21
6.4215725288
 31
0.0
  0
LINE
  5
19F
330
1F
100
AcDbEntity
  8
SK3
  6
SLD-Solid
370
    18
100
AcDbLine
 10
-38.2499992847
 20
6.4215725288
 30
0.0
 11
-38.2499992847
 21
5.6126601994
 31
0.0
  0
LINE
  5
1A0
330
1F
100
AcDbEntity
  8
SK3
  6
SLD-Solid
370
    18
100
AcDbLine
 10
-38.2499992847
 20
5.6126601994
 30
0.0
 11
-38.2499992847
 21
4.6655456536
 31
0.0
  0
LINE
  5
1A1
330
1F
100
AcDbEntity
  8
SK3
  6
SLD-Solid
370
    18
100
AcDbLine
 10
-38.2499992847
 20
4.6655456536
 30
0.0
 11
-38.2499992847
 21
3.6035496742
 31
0.0
  0
LINE
  5
1A2
330
1F
100
AcDbEntity
  8
SK3
  6
SLD-Solid
370
    18
100
AcDbLine
 10
-38.2499992847
 20
3.6035496742
 30
0.0
 11
-38.2499992847
 21
2.4528224021
 31
0.0
  0
LINE
  5
1A3
330
1F
100
AcDbEntity
  8
SK3
  6
SLD-Solid
370
    18
100
AcDbLine
 10
-38.2499992847
 20
2.4528224021
 30
0.0
 11
-38.2499992847
 21
1.2416985119
 31
0.0
  0
LINE
  5
1A4
330
1F
100
AcDbEntity
  8
SK3
  6
SLD-Solid
370
    18
100
AcDbLine
 10
-38.2499992847
 20
1.2416985119
 30
0.0
 11
-38.2499992847
 21
0.0
 31
0.0
  0
LINE
  5
1A5
330
1F
100
AcDbEntity
  8
SK3
  6
SLD-Solid
370
    18
100
AcDbLine
 10
82.5499966741
 20
15.9873832017
 30
0.0
 11
82.5499966741
 21
29.6500008553
 31
0.0
  0
LINE
  5
1A6
330
1F
100
AcDbEntity
  8
SK3
  6
SLD-Solid
370
    18
100
AcDbLine
 10
63.5000020266
 20
29.6500008553
 30
0.0
 11
63.5000020266
 21
15.9873832017
 31
0.0
  0
LINE
  5
1A7
330
1F
100
AcDbEntity
  8
SK3
  6
SLD-Solid
370
    18
100
AcDbLine
 10
64.6142587066
 20
15.3627768159
 30
0.0
 11
64.0449002385
 21
15.68155922
 31
0.0
  0
LINE
  5
1A8
330
1F
100
AcDbEntity
  8
SK3
  6
SLD-Solid
370
    18
100
AcDbLine
 10
82.5290903449
 20
15.9873832017
 30
0.0
 11
82.4849754572
 21
15.9613750875
 31
0.0
  0
LINE
  5
1A9
330
1F
100
AcDbEntity
  8
SK3
  6
SLD-Solid
370
    18
100
AcDbLine
 10
81.4356621858
 20
15.3627768159
 30
0.0
 11
64.6142587066
 21
15.3627768159
 31
0.0
  0
LINE
  5
1AA
330
1F
100
AcDbEntity
  8
SK3
  6
SLD-Solid
370
    18
100
AcDbLine
 10
64.0448745844
 20
15.68155922
 30
0.0
 11
63.669398427
 21
15.8997364342
 31
0.0
  0
LINE
  5
1AB
330
1F
100
AcDbEntity
  8
SK3
  6
SLD-Solid
370
    18
100
AcDbLine
 10
63.669398427
 20
15.8997364342
 30
0.0
 11
63.5073035955
 21
15.9954093397
 31
0.0
  0
LINE
  5
1AC
330
1F
100
AcDbEntity
  8
SK3
  6
SLD-Solid
370
    18
100
AcDbLine
 10
63.5073035955
 20
15.9954093397
 30
0.0
 11
63.5209158063
 21
15.9873832017
 31
0.0
  0
LINE
  5
1AD
330
1F
100
AcDbEntity
  8
SK3
  6
SLD-Solid
370
    18
100
AcDbLine
 10
57.5499981642
 20
15.9872658551
 30
0.0
 11
57.5499981642
 21
29.6500008553
 31
0.0
  0
LINE
  5
1AE
330
1F
100
AcDbEntity
  8
SK3
  6
SLD-Solid
370
    18
100
AcDbLine
 10
38.4999997914
 20
29.6500008553
 30
0.0
 11
38.4999997914
 21
16.2375699729
 31
0.0
  0
LINE
  5
1AF
330
1F
100
AcDbEntity
  8
SK3
  6
SLD-Solid
370
    18
100
AcDbLine
 10
40.1079878211
 20
15.3628112748
 30
0.0
 11
39.4010953605
 21
15.7387610525
 31
0.0
  0
LINE
  5
1B0
330
1F
100
AcDbEntity
  8
SK3
  6
SLD-Solid
370
    18
100
AcDbLine
 10
57.5285740197
 20
15.9872658551
 30
0.0
 11
57.4849583209
 21
15.9613657743
 31
0.0
  0
LINE
  5
1B1
330
1F
100
AcDbEntity
  8
SK3
  6
SLD-Solid
370
    18
100
AcDbLine
 10
56.4357456323
 20
15.3628112748
 30
0.0
 11
40.1079878211
 21
15.3628112748
 31
0.0
  0
LINE
  5
1B2
330
1F
100
AcDbEntity
  8
4
  6
SLD-Center
370
    18
100
AcDbLine
 10
103.6
 20
0.0
 30
0.0
 11
-0.253356129
 21
0.0
 31
0.0
  0
LINE
  5
1B3
330
1F
100
AcDbEntity
  8
4
  6
SLD-Center
370
    18
100
AcDbLine
 10
48.025
 20
14.125
 30
0.0
 11
48.025
 21
31.65
 31
0.0
  0
LINE
  5
1B4
330
1F
100
AcDbEntity
  8
4
  6
SLD-Center
370
    18
100
AcDbLine
 10
73.025
 20
14.0
 30
0.0
 11
73.025
 21
31.65
 31
0.0
  0
LINE
  5
1B5
330
1F
100
AcDbEntity
  8
SK4
  6
SLD-Center
370
    18
100
AcDbLine
 10
-69.1376006954
 20
0.0
 30
0.0
 11
101.9932326014
 21
0.0
 31
0.0
  0
LINE
  5
1B6
330
1F
100
AcDbEntity
  8
81
370
    18
100
AcDbLine
 10
101.6
 20
0.0
 30
0.0
 11
105.1355339059
 21
3.5355339059
 31
0.0
  0
LINE
  5
1B7
330
1F
100
AcDbEntity
  8
81
370
    18
100
AcDbLine
 10
101.6
 20
0.0
 30
0.0
 11
98.0644660941
 21
-3.5355339059
 31
0.0
  0
LINE
  5
1B8
330
1F
100
AcDbEntity
  8
81
370
    18
100
AcDbLine
 10
101.6
 20
0.0
 30
0.0
 11
98.0644660941
 21
3.5355339059
 31
0.0
  0
LINE
  5
1B9
330
1F
100
AcDbEntity
  8
81
100
AcDbLine
 10
101.6
 20
0.0
 30
0.0
 11
111.6
 21
0.0
 31
0.0
  0
LINE
  5
1BA
330
1F
100
AcDbEntity
  8
81
370
    18
100
AcDbLine
 10
101.6
 20
0.0
 30
0.0
 11
105.1355339059
 21
-3.5355339059
 31
0.0
  0
LINE
  5
1BB
330
1F
100
AcDbEntity
  8
80
370
    18
100
AcDbLine
 10
0.0
 20
0.0
 30
0.0
 11
-3.5355339059
 21
-3.5355339059
 31
0.0
  0
LINE
  5
1BC
330
1F
100
AcDbEntity
  8
80
370
    18
100
AcDbLine
 10
0.0
 20
0.0
 30
0.0
 11
3.5355339059
 21
3.5355339059
 31
0.0
  0
LINE
  5
1BD
330
1F
100
AcDbEntity
  8
80
370
    18
100
AcDbLine
 10
0.0
 20
0.0
 30
0.0
 11
-3.5355339059
 21
3.5355339059
 31
0.0
  0
LINE
  5
1BE
330
1F
100
AcDbEntity
  8
80
370
    18
100
AcDbLine
 10
0.0
 20
0.0
 30
0.0
 11
-10.0
 21
0.0
 31
0.0
  0
LINE
  5
1BF
330
1F
100
AcDbEntity
  8
80
370
    18
100
AcDbLine
 10
0.0
 20
0.0
 30
0.0
 11
3.5355339059
 21
-3.5355339059
 31
0.0
  0
ARC
  5
1C0
330
1F
100
AcDbEntity
  8
1
  6
SLD-Solid
370
    25
100
AcDbCircle
 10
38.22
 20
28.58
 30
0.0
 40
3.170000000000009
100
AcDbArc
 50
95.2284965405
 51
180.0
  0
ARC
  5
1C1
330
1F
100
AcDbEntity
  8
1
  6
SLD-Solid
370
    25
100
AcDbCircle
 10
38.22
 20
-28.58
 30
0.0
 40
3.170000000000009
100
AcDbArc
 50
180.0
 51
270.0
  0
ARC
  5
1C2
330
1F
100
AcDbEntity
  8
1
  6
SLD-Solid
370
    25
100
AcDbCircle
 10
34.24
 20
23.035
 30
0.0
 40
0.8100000000000058
100
AcDbArc
 50
270.0
 51
0.0
  0
ARC
  5
1C3
330
1F
100
AcDbEntity
  8
1
  6
SLD-Solid
370
    25
100
AcDbCircle
 10
34.24
 20
-23.035
 30
0.0
 40
0.8100000000000023
100
AcDbArc
 50
0.0
 51
90.0
  0
ARC
  5
1C4
330
1F
100
AcDbEntity
  8
1
  6
SLD-Solid
370
    25
100
AcDbCircle
 10
19.812
 20
-22.987
 30
0.0
 40
0.7620000000000021
100
AcDbArc
 50
90.0
 51
130.8150921312
  0
ARC
  5
1C5
330
1F
100
AcDbEntity
  8
1
  6
SLD-Solid
370
    25
100
AcDbCircle
 10
19.812
 20
22.987
 30
0.0
 40
0.7620000000000147
100
AcDbArc
 50
180.0
 51
270.0
  0
ARC
  5
1C6
330
1F
100
AcDbEntity
  8
1
  6
SLD-Solid
370
    25
100
AcDbCircle
 10
2.45
 20
22.79
 30
0.0
 40
0.7500000000000043
100
AcDbArc
 50
245.0
 51
0.0
  0
ARC
  5
1C7
330
1F
100
AcDbEntity
  8
1
  6
SLD-Solid
370
    25
100
AcDbCircle
 10
2.45
 20
-22.79
 30
0.0
 40
0.7500000000000039
100
AcDbArc
 50
30.4400371691
 51
115.0
  0
ARC
  5
1C8
330
1F
100
AcDbEntity
  8
SK1
  6
SLD-Solid
370
    25
100
AcDbCircle
 10
-66.95
 20
11.1476148288
 30
0.0
 40
1.299999999999997
100
AcDbArc
 50
98.2972222222
 51
180.0
  0
ARC
  5
1C9
330
1F
100
AcDbEntity
  8
SK1
  6
SLD-Solid
370
    25
100
AcDbCircle
 10
-66.95
 20
-11.1476148288
 30
0.0
 40
1.299999999999999
100
AcDbArc
 50
180.0
 51
261.7027777778
  0
ARC
  5
1CA
330
1F
100
AcDbEntity
  8
1
370
    18
100
AcDbCircle
 10
76.1833181052
 20
-68.2911815437
 30
0.0
 40
38.19219113504297
100
AcDbArc
 50
73.0916122395
 51
106.8976942026
  0
ARC
  5
1CB
330
1F
100
AcDbEntity
  8
1
370
    18
100
AcDbCircle
 10
73.0248105005
 20
61.727795251
 30
0.0
 40
31.64142847252014
100
AcDbArc
 50
251.3379287125
 51
288.6507871546
  0
CIRCLE
  5
1CC
330
1F
100
AcDbEntity
  8
81
370
    18
100
AcDbCircle
 10
101.6
 20
0.0
 30
0.0
 40
2.499999999999984
  0
CIRCLE
  5
1CD
330
1F
100
AcDbEntity
  8
80
370
    18
100
AcDbCircle
 10
0.0
 20
0.0
 30
0.0
 40
2.500000000000009
  0
ARC
  5
1CE
330
1F
100
AcDbEntity
  8
SK3
  6
SLD-Solid
370
    18
100
AcDbCircle
 10
64.7151202865
 20
45.8889029973
 30
0.0
 40
34.80550966510635
100
AcDbArc
 50
298.7116291249
 51
300.7002213183
  0
ARC
  5
1CF
330
1F
100
AcDbEntity
  8
SK3
  6
SLD-Solid
370
    18
100
AcDbCircle
 10
56.7338842659
 20
47.3353054722
 30
0.0
 40
36.03844117163499
100
AcDbArc
 50
239.6442887428
 51
241.2522438085
  0
ARC
  5
1D0
330
1F
100
AcDbEntity
  8
SK3
  6
SLD-Solid
370
    18
100
AcDbCircle
 10
39.4247440232
 20
46.3972034803
 30
0.0
 40
35.39081362157746
100
AcDbArc
 50
298.7287238851
 51
300.6842483398
  0
SPLINE
  5
1D1
330
1F
100
AcDbEntity
  8
1
  6
SLD-Solid
370
    25
100
AcDbSpline
210
0.0
220
0.0
230
1.0
 70
     8
 71
     3
 72
    18
 73
    14
 74
     0
 42
0.000000001
 43
0.00000001
 40
0.0
 40
0.0
 40
0.0
 40
0.0
 40
0.0627054734815585
 40
0.1258180026435944
 40
0.1893518955758989
 40
0.2533210967871997
 40
0.3760223802380994
 40
0.5042027350874037
 40
0.6287442443905509
 40
0.7524970007335178
 40
0.8762904256225891
 40
0.9301814553533038
 40
1.0
 40
1.0
 40
1.0
 40
1.0
 10
18.30000000000002
 20
-30.55788999666614
 30
0.0
 10
18.32475189251029
 20
-30.55717815032796
 30
0.0
 10
18.37441635566444
 20
-30.55574983666592
 30
0.0
 10
18.44840700700194
 20
-30.54418621918458
 30
0.0
 10
18.52137928311721
 20
-30.52568315689515
 30
0.0
 10
18.61414871610722
 20
-30.49172081055996
 30
0.0
 10
18.72382631062689
 20
-30.4320633120142
 30
0.0
 10
18.83789060104975
 20
-30.33670781031285
 30
0.0
 10
18.9309656757062
 20
-30.22063090164697
 30
0.0
 10
18.99906840635738
 20
-30.09053486574008
 30
0.0
 10
19.03266226172083
 20
-29.97656054635133
 30
0.0
 10
19.04765434845164
 20
-29.88065972774422
 30
0.0
 10
19.04915376650082
 20
-29.83220301390153
 30
0.0
 10
19.05000000000001
 20
-29.80485527419841
 30
0.0
  0
SPLINE
  5
1D2
330
1F
100
AcDbEntity
  8
1
  6
SLD-Solid
370
    25
100
AcDbSpline
210
0.0
220
0.0
230
1.0
 70
     8
 71
     3
 72
    16
 73
    12
 74
     0
 42
0.000000001
 43
0.00000001
 40
0.0
 40
0.0
 40
0.0
 40
0.0
 40
0.069814031064149
 40
0.1237498965154266
 40
0.2475836018648968
 40
0.371376536255524
 40
0.4959583438678432
 40
0.62413948620796
 40
0.7469207609697971
 40
0.8742805094910139
 40
1.0
 40
1.0
 40
1.0
 40
1.0
 10
19.05000000000001
 20
29.80486644841628
 30
0.0
 10
19.04915437967804
 20
29.83220375694687
 30
0.0
 10
19.0476554628308
 20
29.88066090875587
 30
0.0
 10
19.03266526234905
 20
29.97656337346559
 30
0.0
 10
18.9990687612394
 20
30.09054703967058
 30
0.0
 10
18.93096439399842
 20
30.22065301278144
 30
0.0
 10
18.8379055033088
 20
30.3366860902548
 30
0.0
 10
18.7238212796448
 20
30.43216876423577
 30
0.0
 10
18.5921637601932
 20
30.50338604964251
 30
0.0
 10
18.44966044222825
 20
30.54924901227126
 30
0.0
 10
18.34967079633339
 20
30.55503461089692
 30
0.0
 10
18.3
 20
30.55790866138916
 30
0.0
  0
SPLINE
  5
1D3
330
1F
100
AcDbEntity
  8
1
  6
SLD-Solid
370
    25
100
AcDbSpline
210
0.0
220
0.0
230
1.0
 70
     8
 71
     3
 72
    16
 73
    12
 74
     0
 42
0.000000001
 43
0.00000001
 40
0.0
 40
0.0
 40
0.0
 40
0.0
 40
0.0695972585631702
 40
0.1233277320974721
 40
0.247039555460377
 40
0.370625409937532
 40
0.4955039070586293
 40
0.6236892810562452
 40
0.7463896350927952
 40
0.874029172385884
 40
1.0
 40
1.0
 40
1.0
 40
1.0
 10
3.200000000000008
 20
-29.80486644841631
 30
0.0
 10
3.200840331068336
 20
-29.8321187437415
 30
0.0
 10
3.202329414503629
 20
-29.88041035531206
 30
0.0
 10
3.217237155250588
 20
-29.97610817340507
 30
0.0
 10
3.250688715768016
 20
-30.08991350869657
 30
0.0
 10
3.318652551688006
 20
-30.22007249881833
 30
0.0
 10
3.411627067179679
 20
-30.33622596976964
 30
0.0
 10
3.525709306310159
 20
-30.43184457715033
 30
0.0
 10
3.657379123027604
 20
-30.50320141671877
 30
0.0
 10
3.800029806285368
 20
-30.54921347619221
 30
0.0
 10
3.900229701070776
 20
-30.55502300820851
 30
0.0
 10
3.949999999999926
 20
-30.55790866138918
 30
0.0
  0
SPLINE
  5
1D4
330
1F
100
AcDbEntity
  8
1
  6
SLD-Solid
370
    25
100
AcDbSpline
210
0.0
220
0.0
230
1.0
 70
     8
 71
     3
 72
    18
 73
    14
 74
     0
 42
0.000000001
 43
0.00000001
 40
0.0
 40
0.0
 40
0.0
 40
0.0
 40
0.0628280480421825
 40
0.1260701253970792
 40
0.1897406253785904
 40
0.2538535710757105
 40
0.3764737521324676
 40
0.5046580328934662
 40
0.6294958758641306
 40
0.7530413720168776
 40
0.8767127000651272
 40
0.9303985995609487
 40
1.0
 40
1.0
 40
1.0
 40
1.0
 10
3.949999999999926
 20
30.55788999666615
 30
0.0
 10
3.925199676033192
 20
30.55717534525744
 30
0.0
 10
3.875435596934693
 20
30.55574133297285
 30
0.0
 10
3.801295881396189
 20
30.54413094373271
 30
0.0
 10
3.728175768565503
 20
30.52555103963994
 30
0.0
 10
3.635356745735146
 20
30.4914938924503
 30
0.0
 10
3.525704227685292
 20
30.43173903699994
 30
0.0
 10
3.411641971522855
 20
30.33624779546198
 30
0.0
 10
3.318651270434195
 20
30.22005039304358
 30
0.0
 10
3.250689072054502
 20
30.08990134371377
 30
0.0
 10
3.217240115096234
 20
29.97610524198125
 30
0.0
 10
3.202330512999688
 20
29.88040905934516
 30
0.0
 10
3.20084093556651
 20
29.83211788338436
 30
0.0
 10
3.200000000000008
 20
29.80485527419838
 30
0.0
  0
SPLINE
  5
1D5
330
1F
100
AcDbEntity
  8
1
  6
SLD-Solid
370
    25
100
AcDbSpline
210
0.0
220
0.0
230
1.0
 70
     8
 71
     3
 72
     8
 73
     4
 74
     0
 42
0.000000001
 43
0.00000001
 40
0.0
 40
0.0
 40
0.0
 40
0.0
 40
0.0625000000000001
 40
0.0625000000000001
 40
0.0625000000000001
 40
0.0625000000000001
 10
38.22000000000001
 20
31.64940599758549
 30
0.0
 10
38.3726153984017
 20
31.60212567954594
 30
0.0
 10
38.57696432413874
 20
31.5396966810985
 30
0.0
 10
38.83263064645981
 20
31.46500483603814
 30
0.0
  0
SPLINE
  5
1D6
330
1F
100
AcDbEntity
  8
1
  6
SLD-Solid
370
    25
100
AcDbSpline
210
0.0
220
0.0
230
1.0
 70
     8
 71
     3
 72
     8
 73
     4
 74
     0
 42
0.000000001
 43
0.00000001
 40
0.0625000000000001
 40
0.0625000000000001
 40
0.0625000000000001
 40
0.0625000000000001
 40
0.0937499999999999
 40
0.0937499999999999
 40
0.0937499999999999
 40
0.0937499999999999
 10
38.83263064645981
 20
31.46500483603814
 30
0.0
 10
38.96046380762034
 20
31.42765891350798
 30
0.0
 10
39.10199852016122
 20
31.38702501026113
 30
0.0
 10
39.25469730959155
 20
31.34429907146411
 30
0.0
  0
SPLINE
  5
1D7
330
1F
100
AcDbEntity
  8
1
  6
SLD-Solid
370
    25
100
AcDbSpline
210
0.0
220
0.0
230
1.0
 70
     8
 71
     3
 72
     8
 73
     4
 74
     0
 42
0.000000001
 43
0.00000001
 40
0.0937499999999999
 40
0.0937499999999999
 40
0.0937499999999999
 40
0.0937499999999999
 40
0.1249999999999998
 40
0.1249999999999998
 40
0.1249999999999998
 40
0.1249999999999998
 10
39.25469730959155
 20
31.34429907146411
 30
0.0
 10
39.40739609902187
 20
31.30157313266709
 30
0.0
 10
39.57094943011724
 20
31.25683379815895
 30
0.0
 10
39.7450784882019
 20
31.21063881501845
 30
0.0
  0
SPLINE
  5
1D8
330
1F
100
AcDbEntity
  8
1
  6
SLD-Solid
370
    25
100
AcDbSpline
210
0.0
220
0.0
230
1.0
 70
     8
 71
     3
 72
     8
 73
     4
 74
     0
 42
0.000000001
 43
0.00000001
 40
0.1249999999999998
 40
0.1249999999999998
 40
0.1249999999999998
 40
0.1249999999999998
 40
0.1874999999999993
 40
0.1874999999999993
 40
0.1874999999999993
 40
0.1874999999999993
 10
39.7450784882019
 20
31.21063881501845
 30
0.0
 10
40.09333660437121
 20
31.11824884873745
 30
0.0
 10
40.48361656447987
 20
31.02001499615514
 30
0.0
 10
40.91713716957084
 20
30.92035881124599
 30
0.0
  0
SPLINE
  5
1D9
330
1F
100
AcDbEntity
  8
1
  6
SLD-Solid
370
    25
100
AcDbSpline
210
0.0
220
0.0
230
1.0
 70
     8
 71
     3
 72
     8
 73
     4
 74
     0
 42
0.000000001
 43
0.00000001
 40
0.1874999999999993
 40
0.1874999999999993
 40
0.1874999999999993
 40
0.1874999999999993
 40
0.2187499999999993
 40
0.2187499999999993
 40
0.2187499999999993
 40
0.2187499999999993
 10
40.91713716957084
 20
30.92035881124599
 30
0.0
 10
41.13389747211632
 20
30.8705307187914
 30
0.0
 10
41.36163463273848
 20
30.82036377662902
 30
0.0
 10
41.59591129961944
 20
30.77141622540896
 30
0.0
  0
SPLINE
  5
1DA
330
1F
100
AcDbEntity
  8
1
  6
SLD-Solid
370
    25
100
AcDbSpline
210
0.0
220
0.0
230
1.0
 70
     8
 71
     3
 72
     8
 73
     4
 74
     0
 42
0.000000001
 43
0.00000001
 40
0.2187499999999993
 40
0.2187499999999993
 40
0.2187499999999993
 40
0.2187499999999993
 40
0.2499999999999994
 40
0.2499999999999994
 40
0.2499999999999994
 40
0.2499999999999994
 10
41.59591129961944
 20
30.77141622540896
 30
0.0
 10
41.83018796650038
 20
30.72246867418888
 30
0.0
 10
42.07205478261328
 20
30.67449066529674
 30
0.0
 10
42.32147716819022
 20
30.62804348457431
 30
0.0
  0
SPLINE
  5
1DB
330
1F
100
AcDbEntity
  8
1
  6
SLD-Solid
370
    25
100
AcDbSpline
210
0.0
220
0.0
230
1.0
 70
     8
 71
     3
 72
     8
 73
     4
 74
     0
 42
0.000000001
 43
0.00000001
 40
0.2499999999999994
 40
0.2499999999999994
 40
0.2499999999999994
 40
0.2499999999999994
 40
0.3124999999999997
 40
0.3124999999999997
 40
0.3124999999999997
 40
0.3124999999999997
 10
42.32147716819022
 20
30.62804348457431
 30
0.0
 10
42.82032193934411
 20
30.53514912312945
 30
0.0
 10
43.34917982709457
 20
30.4483369565051
 30
0.0
 10
43.91018114665944
 20
30.37233295609356
 30
0.0
  0
SPLINE
  5
1DC
330
1F
100
AcDbEntity
  8
1
  6
SLD-Solid
370
    25
100
AcDbSpline
210
0.0
220
0.0
230
1.0
 70
     8
 71
     3
 72
     8
 73
     4
 74
     0
 42
0.000000001
 43
0.00000001
 40
0.3124999999999997
 40
0.3124999999999997
 40
0.3124999999999997
 40
0.3124999999999997
 40
0.375
 40
0.375
 40
0.375
 40
0.375
 10
43.91018114665944
 20
30.37233295609356
 30
0.0
 10
44.47118246622432
 20
30.29632895568202
 30
0.0
 10
45.05031274821494
 20
30.23323011179408
 30
0.0
 10
45.64159590096587
 20
30.18654485195835
 30
0.0
  0
SPLINE
  5
1DD
330
1F
100
AcDbEntity
  8
1
  6
SLD-Solid
370
    25
100
AcDbSpline
210
0.0
220
0.0
230
1.0
 70
     8
 71
     3
 72
     8
 73
     4
 74
     0
 42
0.000000001
 43
0.00000001
 40
0.375
 40
0.375
 40
0.375
 40
0.375
 40
0.4375000000000003
 40
0.4375000000000003
 40
0.4375000000000003
 40
0.4375000000000003
 10
45.64159590096587
 20
30.18654485195835
 30
0.0
 10
46.23287905371681
 20
30.13985959212274
 30
0.0
 10
46.84045506920123
 20
30.10927677173442
 30
0.0
 10
47.45820041486824
 20
30.09764337568187
 30
0.0
  0
SPLINE
  5
1DE
330
1F
100
AcDbEntity
  8
1
  6
SLD-Solid
370
    25
100
AcDbSpline
210
0.0
220
0.0
230
1.0
 70
     8
 71
     3
 72
     8
 73
     4
 74
     0
 42
0.000000001
 43
0.00000001
 40
0.4375000000000003
 40
0.4375000000000003
 40
0.4375000000000003
 40
0.4375000000000003
 40
0.5000000000000007
 40
0.5000000000000007
 40
0.5000000000000007
 40
0.5000000000000007
 10
47.45820041486824
 20
30.09764337568187
 30
0.0
 10
48.07594576053523
 20
30.08600997962909
 30
0.0
 10
48.68762405476601
 20
30.09351315139945
 30
0.0
 10
49.29348122685184
 20
30.11902919456195
 30
0.0
  0
SPLINE
  5
1DF
330
1F
100
AcDbEntity
  8
1
  6
SLD-Solid
370
    25
100
AcDbSpline
210
0.0
220
0.0
230
1.0
 70
     8
 71
     3
 72
     8
 73
     4
 74
     0
 42
0.000000001
 43
0.00000001
 40
0.5000000000000007
 40
0.5000000000000007
 40
0.5000000000000007
 40
0.5000000000000007
 40
0.5312500000000008
 40
0.5312500000000008
 40
0.5312500000000008
 40
0.5312500000000008
 10
49.29348122685184
 20
30.11902919456195
 30
0.0
 10
49.59640981289473
 20
30.13178721614326
 30
0.0
 10
49.8978747768042
 20
30.14904662005198
 30
0.0
 10
50.19785741396946
 20
30.17065104271769
 30
0.0
  0
SPLINE
  5
1E0
330
1F
100
AcDbEntity
  8
1
  6
SLD-Solid
370
    25
100
AcDbSpline
210
0.0
220
0.0
230
1.0
 70
     8
 71
     3
 72
     8
 73
     4
 74
     0
 42
0.000000001
 43
0.00000001
 40
0.5312500000000008
 40
0.5312500000000008
 40
0.5312500000000008
 40
0.5312500000000008
 40
0.562500000000001
 40
0.562500000000001
 40
0.562500000000001
 40
0.562500000000001
 10
50.19785741396946
 20
30.17065104271769
 30
0.0
 10
50.49784005113468
 20
30.19225546538339
 30
0.0
 10
50.79731903428934
 20
30.21834266592765
 30
0.0
 10
51.08932842362333
 20
30.24792527906378
 30
0.0
  0
SPLINE
  5
1E1
330
1F
100
AcDbEntity
  8
1
  6
SLD-Solid
370
    25
100
AcDbSpline
210
0.0
220
0.0
230
1.0
 70
     8
 71
     3
 72
     8
 73
     4
 74
     0
 42
0.000000001
 43
0.00000001
 40
0.562500000000001
 40
0.562500000000001
 40
0.562500000000001
 40
0.562500000000001
 40
0.6250000000000008
 40
0.6250000000000008
 40
0.6250000000000008
 40
0.6250000000000008
 10
51.08932842362333
 20
30.24792527906378
 30
0.0
 10
51.6733472022912
 20
30.30709050533604
 30
0.0
 10
52.23315328309609
 20
30.38049441908197
 30
0.0
 10
52.76978500369387
 20
30.46407490358567
 30
0.0
  0
SPLINE
  5
1E2
330
1F
100
AcDbEntity
  8
1
  6
SLD-Solid
370
    25
100
AcDbSpline
210
0.0
220
0.0
230
1.0
 70
     8
 71
     3
 72
     8
 73
     4
 74
     0
 42
0.000000001
 43
0.00000001
 40
0.6250000000000008
 40
0.6250000000000008
 40
0.6250000000000008
 40
0.6250000000000008
 40
0.6875000000000006
 40
0.6875000000000006
 40
0.6875000000000006
 40
0.6875000000000006
 10
52.76978500369387
 20
30.46407490358567
 30
0.0
 10
53.30641672429161
 20
30.54765538808937
 30
0.0
 10
53.82297574773064
 20
30.64224257642704
 30
0.0
 10
54.2981286689026
 20
30.73920978646991
 30
0.0
  0
SPLINE
  5
1E3
330
1F
100
AcDbEntity
  8
1
  6
SLD-Solid
370
    25
100
AcDbSpline
210
0.0
220
0.0
230
1.0
 70
     8
 71
     3
 72
     8
 73
     4
 74
     0
 42
0.000000001
 43
0.00000001
 40
0.6875000000000006
 40
0.6875000000000006
 40
0.6875000000000006
 40
0.6875000000000006
 40
0.7500000000000001
 40
0.7500000000000001
 40
0.7500000000000001
 40
0.7500000000000001
 10
54.2981286689026
 20
30.73920978646991
 30
0.0
 10
54.77328159007455
 20
30.83617699651277
 30
0.0
 10
55.21156397432322
 20
30.93609318791662
 30
0.0
 10
55.61326317899702
 20
31.03431347836974
 30
0.0
  0
SPLINE
  5
1E4
330
1F
100
AcDbEntity
  8
1
  6
SLD-Solid
370
    25
100
AcDbSpline
210
0.0
220
0.0
230
1.0
 70
     8
 71
     3
 72
     8
 73
     4
 74
     0
 42
0.000000001
 43
0.00000001
 40
0.7500000000000001
 40
0.7500000000000001
 40
0.7500000000000001
 40
0.7500000000000001
 40
0.78125
 40
0.78125
 40
0.78125
 40
0.78125
 10
55.61326317899702
 20
31.03431347836974
 30
0.0
 10
55.81411278133394
 20
31.08342362359632
 30
0.0
 10
56.00663924310208
 20
31.13234896056516
 30
0.0
 10
56.18696226509103
 20
31.17955264298656
 30
0.0
  0
SPLINE
  5
1E5
330
1F
100
AcDbEntity
  8
1
  6
SLD-Solid
370
    25
100
AcDbSpline
210
0.0
220
0.0
230
1.0
 70
     8
 71
     3
 72
     8
 73
     4
 74
     0
 42
0.000000001
 43
0.00000001
 40
0.78125
 40
0.78125
 40
0.78125
 40
0.78125
 40
0.8124999999999998
 40
0.8124999999999998
 40
0.8124999999999998
 40
0.8124999999999998
 10
56.18696226509103
 20
31.17955264298656
 30
0.0
 10
56.36728528707997
 20
31.22675632540796
 30
0.0
 10
56.5355203081495
 20
31.27224381150934
 30
0.0
 10
56.6919569764497
 20
31.3155395647533
 30
0.0
  0
SPLINE
  5
1E6
330
1F
100
AcDbEntity
  8
1
  6
SLD-Solid
370
    25
100
AcDbSpline
210
0.0
220
0.0
230
1.0
 70
     8
 71
     3
 72
     8
 73
     4
 74
     0
 42
0.000000001
 43
0.00000001
 40
0.8124999999999998
 40
0.8124999999999998
 40
0.8124999999999998
 40
0.8124999999999998
 40
0.8749999999999999
 40
0.8749999999999999
 40
0.8749999999999999
 40
0.8749999999999999
 10
56.6919569764497
 20
31.3155395647533
 30
0.0
 10
57.00483031305011
 20
31.40213107124124
 30
0.0
 10
57.27082003606613
 20
31.4799769923193
 30
0.0
 10
57.48847893174553
 20
31.54527394859002
 30
0.0
  0
SPLINE
  5
1E7
330
1F
100
AcDbEntity
  8
1
  6
SLD-Solid
370
    25
100
AcDbSpline
210
0.0
220
0.0
230
1.0
 70
     8
 71
     3
 72
     8
 73
     4
 74
     0
 42
0.000000001
 43
0.00000001
 40
0.8749999999999999
 40
0.8749999999999999
 40
0.8749999999999999
 40
0.8749999999999999
 40
0.90625
 40
0.90625
 40
0.90625
 40
0.90625
 10
57.48847893174553
 20
31.54527394859002
 30
0.0
 10
57.59730837958521
 20
31.57792242672537
 30
0.0
 10
57.69416697529181
 20
31.60749123977834
 30
0.0
 10
57.77668774104787
 20
31.63293044912064
 30
0.0
  0
SPLINE
  5
1E8
330
1F
100
AcDbEntity
  8
1
  6
SLD-Solid
370
    25
100
AcDbSpline
210
0.0
220
0.0
230
1.0
 70
     8
 71
     3
 72
     8
 73
     4
 74
     0
 42
0.000000001
 43
0.00000001
 40
0.90625
 40
0.90625
 40
0.90625
 40
0.90625
 40
0.9375
 40
0.9375
 40
0.9375
 40
0.9375
 10
57.77668774104787
 20
31.63293044912064
 30
0.0
 10
57.85920850680385
 20
31.65836965846289
 30
0.0
 10
57.92796463500511
 20
31.67984908886775
 30
0.0
 10
57.98315429209953
 20
31.69718776019823
 30
0.0
  0
SPLINE
  5
1E9
330
1F
100
AcDbEntity
  8
1
  6
SLD-Solid
370
    25
100
AcDbSpline
210
0.0
220
0.0
230
1.0
 70
     8
 71
     2
 72
     6
 73
     3
 74
     0
 42
0.000000001
 43
0.00000001
 40
0.9375
 40
0.9375
 40
0.9375
 40
1.0
 40
1.0
 40
1.0
 10
57.98315429209953
 20
31.69718776019823
 30
0.0
 10
58.09353360628838
 20
31.73186510285917
 30
0.0
 10
58.15000000000003
 20
31.75000000000001
 30
0.0
  0
SPLINE
  5
1EA
330
1F
100
AcDbEntity
  8
1
  6
SLD-Solid
370
    25
100
AcDbSpline
210
0.0
220
0.0
230
1.0
 70
     8
 71
     3
 72
     9
 73
     5
 74
     0
 42
0.000000001
 43
0.00000001
 40
0.0
 40
0.0
 40
0.0
 40
0.0
 40
0.2634952729059833
 40
1.0
 40
1.0
 40
1.0
 40
1.0
 10
37.93197354871089
 20
31.72668252343793
 30
0.0
 10
37.92365600158125
 20
31.72875922536802
 30
0.0
 10
37.89208979153906
 20
31.73664058850289
 30
0.0
 10
38.08092325875897
 20
31.68640485372124
 30
0.0
 10
38.22000000000001
 20
31.64940599758549
 30
0.0
  0
SPLINE
  5
1EB
330
1F
100
AcDbEntity
  8
1
  6
SLD-Solid
370
    25
100
AcDbSpline
210
0.0
220
0.0
230
1.0
 70
     8
 71
     3
 72
     8
 73
     4
 74
     0
 42
0.000000001
 43
0.00000001
 40
0.0
 40
0.0
 40
0.0
 40
0.0
 40
1.0
 40
1.0
 40
1.0
 40
1.0
 10
7.853987053479575
 20
-30.22558142012364
 30
0.0
 10
8.303659523846735
 20
-29.41927694377147
 30
0.0
 10
8.752412641282667
 20
-28.6124760333551
 30
0.0
 10
9.199999999998862
 20
-27.80504563417608
 30
0.0
  0
SPLINE
  5
1EC
330
1F
100
AcDbEntity
  8
1
  6
SLD-Solid
370
    25
100
AcDbSpline
210
0.0
220
0.0
230
1.0
 70
     8
 71
     3
 72
     8
 73
     4
 74
     0
 42
0.000000001
 43
0.00000001
 40
0.0
 40
0.0
 40
0.0
 40
0.0
 40
0.0006742907251988
 40
0.0006742907251988
 40
0.0006742907251988
 40
0.0006742907251988
 10
7.588873645443195
 20
-30.55790866138918
 30
0.0
 10
7.677688780848527
 20
-30.44723498609788
 30
0.0
 10
7.766067686727843
 20
-30.33646040446866
 30
0.0
 10
7.853987053479575
 20
-30.22558142012364
 30
0.0
  0
SPLINE
  5
1ED
330
1F
100
AcDbEntity
  8
1
  6
SLD-Solid
370
    25
100
AcDbSpline
210
0.0
220
0.0
230
1.0
 70
     8
 71
     3
 72
     8
 73
     4
 74
     0
 42
0.000000001
 43
0.00000001
 40
0.0
 40
0.0
 40
0.0
 40
0.0
 40
0.0006744126776058
 40
0.0006744126776058
 40
0.0006744126776058
 40
0.0006744126776058
 10
7.854049533407245
 20
30.22546938779911
 30
0.0
 10
7.766109415733156
 20
30.33637953005825
 30
0.0
 10
7.677709680299338
 20
30.44718523342127
 30
0.0
 10
7.588873645443195
 20
30.55788999666612
 30
0.0
  0
SPLINE
  5
1EE
330
1F
100
AcDbEntity
  8
1
  6
SLD-Solid
370
    25
100
AcDbSpline
210
0.0
220
0.0
230
1.0
 70
     8
 71
     3
 72
     8
 73
     4
 74
     0
 42
0.000000001
 43
0.00000001
 40
0.0
 40
0.0
 40
0.0
 40
0.0
 40
1.0
 40
1.0
 40
1.0
 40
1.0
 10
7.854049533407236
 20
30.22546938779912
 30
0.0
 10
8.303692188804737
 20
29.41921817244961
 30
0.0
 10
8.752424212806629
 20
28.61245515876932
 30
0.0
 10
9.199999999999985
 20
27.8050456341729
 30
0.0
  0
SPLINE
  5
1EF
330
1F
100
AcDbEntity
  8
1
  6
SLD-Solid
370
    25
100
AcDbSpline
210
0.0
220
0.0
230
1.0
 70
     8
 71
     3
 72
    14
 73
    10
 74
     0
 42
0.000000001
 43
0.00000001
 40
0.0
 40
0.0
 40
0.0
 40
0.0
 40
0.25
 40
0.25
 40
0.5
 40
0.5
 40
0.75
 40
0.75
 40
1.0
 40
1.0
 40
1.0
 40
1.0
 10
9.199999999998862
 20
25.27054331738513
 30
0.0
 10
9.169610391132135
 20
25.36219671402947
 30
0.0
 10
9.14465241950957
 20
25.44797517411546
 30
0.0
 10
9.109411114929511
 20
25.60359055831215
 30
0.0
 10
9.100075894724881
 20
25.669594402047
 30
0.0
 10
9.099925023949789
 20
25.77434199055133
 30
0.0
 10
9.109375914768826
 20
25.81145009587544
 30
0.0
 10
9.14427272266385
 20
25.85500935243904
 30
0.0
 10
9.169555752624232
 20
25.86176202446132
 30
0.0
 10
9.199999999999994
 20
25.85691311136567
 30
0.0
  0
SPLINE
  5
1F0
330
1F
100
AcDbEntity
  8
1
  6
SLD-Solid
370
    25
100
AcDbSpline
210
0.0
220
0.0
230
1.0
 70
     8
 71
     3
 72
     8
 73
     4
 74
     0
 42
0.000000001
 43
0.00000001
 40
0.0
 40
0.0
 40
0.0
 40
0.0
 40
1.0
 40
1.0
 40
1.0
 40
1.0
 10
13.03000000000001
 20
27.8050456341729
 30
0.0
 10
13.47759651810104
 20
28.61249255653033
 30
0.0
 10
13.92634937951633
 20
29.41929290832669
 30
0.0
 10
14.3760129465226
 20
30.22558142012639
 30
0.0
  0
SPLINE
  5
1F1
330
1F
100
AcDbEntity
  8
1
  6
SLD-Solid
370
    25
100
AcDbSpline
210
0.0
220
0.0
230
1.0
 70
     8
 71
     3
 72
     8
 73
     4
 74
     0
 42
0.000000001
 43
0.00000001
 40
0.0
 40
0.0
 40
0.0
 40
0.0
 40
0.0006742907251946
 40
0.0006742907251946
 40
0.0006742907251946
 40
0.0006742907251946
 10
14.6411263545568
 20
30.55790866138915
 30
0.0
 10
14.5523112191522
 20
30.44723498609876
 30
0.0
 10
14.46393231327361
 20
30.33646040447047
 30
0.0
 10
14.3760129465226
 20
30.22558142012639
 30
0.0
  0
SPLINE
  5
1F2
330
1F
100
AcDbEntity
  8
1
  6
SLD-Solid
370
    25
100
AcDbSpline
210
0.0
220
0.0
230
1.0
 70
     8
 71
     3
 72
     8
 73
     4
 74
     0
 42
0.000000001
 43
0.00000001
 40
0.0
 40
0.0
 40
0.0
 40
0.0
 40
0.0006744126776058
 40
0.0006744126776058
 40
0.0006744126776058
 40
0.0006744126776058
 10
14.37595046659277
 20
-30.22546938779916
 30
0.0
 10
14.46389058426688
 20
-30.3363795300583
 30
0.0
 10
14.55229031970069
 20
-30.44718523342133
 30
0.0
 10
14.64112635455681
 20
-30.55788999666616
 30
0.0
  0
SPLINE
  5
1F3
330
1F
100
AcDbEntity
  8
1
  6
SLD-Solid
370
    25
100
AcDbSpline
210
0.0
220
0.0
230
1.0
 70
     8
 71
     3
 72
     8
 73
     4
 74
     0
 42
0.000000001
 43
0.00000001
 40
0.0
 40
0.0
 40
0.0
 40
0.0
 40
1.0
 40
1.0
 40
1.0
 40
1.0
 10
13.03000000000003
 20
-27.8050456341729
 30
0.0
 10
13.47756662864429
 20
-28.61243863709861
 30
0.0
 10
13.92629890859749
 20
-29.41920220926157
 30
0.0
 10
14.37595046659276
 20
-30.22546938779916
 30
0.0
  0
SPLINE
  5
1F4
330
1F
100
AcDbEntity
  8
1
  6
SLD-Solid
370
    25
100
AcDbSpline
210
0.0
220
0.0
230
1.0
 70
     8
 71
     3
 72
    14
 73
    10
 74
     0
 42
0.000000001
 43
0.00000001
 40
0.0
 40
0.0
 40
0.0
 40
0.0
 40
0.25
 40
0.25
 40
0.5
 40
0.5
 40
0.75
 40
0.75
 40
1.0
 40
1.0
 40
1.0
 40
1.0
 10
13.03000000000001
 20
25.81171788356632
 30
0.0
 10
13.05182784069895
 20
25.80868166763941
 30
0.0
 10
13.06930451588749
 20
25.79706282581693
 30
0.0
 10
13.09355241467169
 20
25.75265705035273
 30
0.0
 10
13.09996413738392
 20
25.71975400624287
 30
0.0
 10
13.10003555457991
 20
25.63443445773251
 30
0.0
 10
13.09360869858517
 20
25.58073121692831
 30
0.0
 10
13.06953031995432
 20
25.4597665160328
 30
0.0
 10
13.05190366619466
 20
25.39187340765437
 30
0.0
 10
13.03000000000003
 20
25.31924243797493
 30
0.0
  0
SPLINE
  5
1F5
330
1F
100
AcDbEntity
  8
1
  6
SLD-Solid
370
    25
100
AcDbSpline
210
0.0
220
0.0
230
1.0
 70
     8
 71
     3
 72
    14
 73
    10
 74
     0
 42
0.000000001
 43
0.00000001
 40
0.0
 40
0.0
 40
0.0
 40
0.0
 40
0.25
 40
0.25
 40
0.5
 40
0.5
 40
0.75
 40
0.75
 40
1.0
 40
1.0
 40
1.0
 40
1.0
 10
9.2
 20
-27.76916635406977
 30
0.0
 10
9.2
 20
-27.66854183645166
 30
0.0
 10
9.218753722673597
 20
-27.56842327754112
 30
0.0
 10
9.291517535812325
 20
-27.38167264562872
 30
0.0
 10
9.345885298656015
 20
-27.29482655372887
 30
0.0
 10
9.4827134536752
 20
-27.14914073715224
 30
0.0
 10
9.566479996683725
 20
-27.08925426891757
 30
0.0
 10
9.74908978763267
 20
-27.00861553825999
 30
0.0
 10
9.849941180320524
 20
-26.98706356756864
 30
0.0
 10
9.950000000001264
 20
-26.98706356756881
 30
0.0
  0
SPLINE
  5
1F6
330
1F
100
AcDbEntity
  8
1
  6
SLD-Solid
370
    25
100
AcDbSpline
210
0.0
220
0.0
230
1.0
 70
     8
 71
     3
 72
    16
 73
    12
 74
     0
 42
0.000000001
 43
0.00000001
 40
0.0
 40
0.0
 40
0.0
 40
0.0
 40
0.2500000000000015
 40
0.2500000000000015
 40
0.500000000000003
 40
0.500000000000003
 40
0.7500000000000044
 40
0.7500000000000044
 40
0.8750000000000022
 40
0.8750000000000022
 40
1.0
 40
1.0
 40
1.0
 40
1.0
 10
9.950000000001264
 20
24.0668597530442
 30
0.0
 10
9.840493351282328
 20
24.10694414130934
 30
0.0
 10
9.742786160773454
 20
24.17117631338134
 30
0.0
 10
9.567840382590676
 20
24.3309608363147
 30
0.0
 10
9.49398825402853
 20
24.42340952890756
 30
0.0
 10
9.367115049351005
 20
24.62793394074499
 30
0.0
 10
9.314523965070084
 20
24.73961559875878
 30
0.0
 10
9.253446937619675
 20
24.91971397324646
 30
0.0
 10
9.235893303124604
 20
24.98231479864244
 30
0.0
 10
9.209102989073667
 20
25.11253703191866
 30
0.0
 10
9.200000000001262
 20
25.18114365477766
 30
0.0
 10
9.200000000001262
 20
25.24012107693848
 30
0.0
  0
SPLINE
  5
1F7
330
1F
100
AcDbEntity
  8
1
  6
SLD-Solid
370
    25
100
AcDbSpline
210
0.0
220
0.0
230
1.0
 70
     8
 71
     3
 72
    12
 73
     8
 74
     0
 42
0.000000001
 43
0.00000001
 40
0.0
 40
0.0
 40
0.0
 40
0.0
 40
0.2499999999999984
 40
0.2499999999999984
 40
0.4999999999999969
 40
0.4999999999999969
 40
1.0
 40
1.0
 40
1.0
 40
1.0
 10
12.28000000000003
 20
-26.98706356756882
 30
0.0
 10
12.37975762515878
 20
-26.98706356756883
 30
0.0
 10
12.48041217798164
 20
-27.00843624414832
 30
0.0
 10
12.66352022573503
 20
-27.08921384437031
 30
0.0
 10
12.74662210573628
 20
-27.14844080533419
 30
0.0
 10
12.95377706693951
 20
-27.3689835197036
 30
0.0
 10
13.03
 20
-27.5690278551815
 30
0.0
 10
13.03000000000003
 20
-27.76916635406971
 30
0.0
  0
SPLINE
  5
1F8
330
1F
100
AcDbEntity
  8
1
  6
SLD-Solid
370
    25
100
AcDbSpline
210
0.0
220
0.0
230
1.0
 70
     8
 71
     3
 72
    18
 73
    14
 74
     0
 42
0.000000001
 43
0.00000001
 40
0.0
 40
0.0
 40
0.0
 40
0.0
 40
0.0625000000000008
 40
0.0625000000000008
 40
0.1250000000000017
 40
0.1250000000000017
 40
0.2500000000000039
 40
0.2500000000000039
 40
0.5000000000000026
 40
0.5000000000000026
 40
0.7500000000000013
 40
0.7500000000000013
 40
1.0
 40
1.0
 40
1.0
 40
1.0
 10
13.03000000000128
 20
25.28882228478154
 30
0.0
 10
13.03000000000126
 20
25.25845422870299
 30
0.0
 10
13.02749489038239
 20
25.22358442434113
 30
0.0
 10
13.01920268672324
 20
25.15482296737403
 30
0.0
 10
13.01359186101023
 20
25.12104898565183
 30
0.0
 10
12.99361738711199
 20
25.02074756626908
 30
0.0
 10
12.97668865169317
 20
24.95779435947978
 30
0.0
 10
12.91737158574274
 20
24.77496256517826
 30
0.0
 10
12.86564177104009
 20
24.66011878167448
 30
0.0
 10
12.74049543384748
 20
24.45045700081711
 30
0.0
 10
12.66639130892219
 20
24.35409856583109
 30
0.0
 10
12.49025684706097
 20
24.18769951882028
 30
0.0
 10
12.39180028213162
 20
24.12054595344059
 30
0.0
 10
12.28000000000129
 20
24.07805063523435
 30
0.0
  0
SPLINE
  5
1F9
330
1F
100
AcDbEntity
  8
1
  6
SLD-Solid
370
    25
100
AcDbSpline
210
0.0
220
0.0
230
1.0
 70
     8
 71
     3
 72
    12
 73
     8
 74
     0
 42
0.000000001
 43
0.00000001
 40
0.0
 40
0.0
 40
0.0
 40
0.0
 40
0.25
 40
0.25
 40
0.5
 40
0.5
 40
1.0
 40
1.0
 40
1.0
 40
1.0
 10
12.28000000000129
 20
24.07805063523435
 30
0.0
 10
12.1112556565391
 20
24.01391086354244
 30
0.0
 10
11.92801760594736
 20
23.96418277266271
 30
0.0
 10
11.53284005751315
 20
23.89473625632987
 30
0.0
 10
11.3277419038663
 20
23.87652150272299
 30
0.0
 10
10.70517895587213
 20
23.87317080568451
 30
0.0
 10
10.29199014189995
 20
23.94167588712289
 30
0.0
 10
9.950000000001264
 20
24.0668597530442
 30
0.0
  0
SPLINE
  5
1FA
330
1F
100
AcDbEntity
  8
1
  6
SLD-Solid
370
    25
100
AcDbSpline
210
0.0
220
0.0
230
1.0
 70
     8
 71
     3
 72
    16
 73
    12
 74
     0
 42
0.000000001
 43
0.00000001
 40
0.0
 40
0.0
 40
0.0
 40
0.0
 40
0.125
 40
0.125
 40
0.25
 40
0.25
 40
0.5
 40
0.5
 40
0.75
 40
0.75
 40
1.0
 40
1.0
 40
1.0
 40
1.0
 10
9.199999999999994
 20
25.82649087091906
 30
0.0
 10
9.199999999999994
 20
25.76704453528219
 30
0.0
 10
9.209309779240208
 20
25.72460913603001
 30
0.0
 10
9.23628553908993
 20
25.66309575968362
 30
0.0
 10
9.253818395994063
 20
25.64221451078867
 30
0.0
 10
9.31473261235084
 20
25.59089236418539
 30
0.0
 10
9.36758635054245
 20
25.57162638804161
 30
0.0
 10
9.493923269647565
 20
25.54782523997987
 30
0.0
 10
9.568606186754755
 20
25.54380204926681
 30
0.0
 10
9.743190718990308
 20
25.55566084202214
 30
0.0
 10
9.840260492227273
 20
25.57101227172015
 30
0.0
 10
9.949999999999998
 20
25.603258790376
 30
0.0
  0
SPLINE
  5
1FB
330
1F
100
AcDbEntity
  8
1
  6
SLD-Solid
370
    25
100
AcDbSpline
210
0.0
220
0.0
230
1.0
 70
     8
 71
     3
 72
    12
 73
     8
 74
     0
 42
0.000000001
 43
0.00000001
 40
0.0
 40
0.0
 40
0.0
 40
0.0
 40
0.2499999999999994
 40
0.2499999999999994
 40
0.4999999999999989
 40
0.4999999999999989
 40
1.0
 40
1.0
 40
1.0
 40
1.0
 10
9.949999999999983
 20
25.603258790376
 30
0.0
 10
10.12099348269379
 20
25.65350454636332
 30
0.0
 10
10.30594493731544
 20
25.6908700749012
 30
0.0
 10
10.70348914958044
 20
25.74162454002533
 30
0.0
 10
10.90918343641379
 20
25.7539131306725
 30
0.0
 10
11.53176214943038
 20
25.75179790476195
 30
0.0
 10
11.94250893135798
 20
25.6975414000343
 30
0.0
 10
12.28000000000001
 20
25.59426208810603
 30
0.0
  0
SPLINE
  5
1FC
330
1F
100
AcDbEntity
  8
1
  6
SLD-Solid
370
    25
100
AcDbSpline
210
0.0
220
0.0
230
1.0
 70
     8
 71
     3
 72
    18
 73
    14
 74
     0
 42
0.000000001
 43
0.00000001
 40
0.0
 40
0.0
 40
0.0
 40
0.0
 40
0.2500000000000003
 40
0.2500000000000003
 40
0.5000000000000006
 40
0.5000000000000006
 40
0.7500000000000009
 40
0.7500000000000009
 40
0.8750000000000017
 40
0.8750000000000017
 40
0.9375000000000008
 40
0.9375000000000008
 40
1.0
 40
1.0
 40
1.0
 40
1.0
 10
12.28000000000003
 20
25.59426208810603
 30
0.0
 10
12.39154339480307
 20
25.56012748089478
 30
0.0
 10
12.49076613158667
 20
25.54318981789732
 30
0.0
 10
12.66653346245913
 20
25.52816909760166
 30
0.0
 10
12.74028542340615
 20
25.53041158029682
 30
0.0
 10
12.86605076853517
 20
25.54934151941309
 30
0.0
 10
12.91749996660363
 20
25.56531541934167
 30
0.0
 10
12.97688531868164
 20
25.6090846994035
 30
0.0
 10
12.99394905986489
 20
25.62703563897608
 30
0.0
 10
13.01360803438729
 20
25.66754728332326
 30
0.0
 10
13.01926149413285
 20
25.68358803034144
 30
0.0
 10
13.02752275857843
 20
25.72506394381625
 30
0.0
 10
13.03
 20
25.75103822857545
 30
0.0
 10
13.03000000000001
 20
25.78129773037292
 30
0.0
  0
SPLINE
  5
1FD
330
1F
100
AcDbEntity
  8
1
  6
SLD-Solid
370
    25
100
AcDbSpline
210
0.0
220
0.0
230
1.0
 70
     8
 71
     3
 72
    12
 73
     8
 74
     0
 42
0.000000001
 43
0.00000001
 40
0.0
 40
0.0
 40
0.0
 40
0.0
 40
0.2499999999999991
 40
0.2499999999999991
 40
0.4999999999999982
 40
0.4999999999999982
 40
1.0
 40
1.0
 40
1.0
 40
1.0
 10
9.2
 20
27.76916635406975
 30
0.0
 10
9.2
 20
27.66809333683724
 30
0.0
 10
9.218583298377242
 20
27.56892641339131
 30
0.0
 10
9.291549937975763
 20
27.38152387214674
 30
0.0
 10
9.34549688093282
 20
27.29531750692792
 30
0.0
 10
9.55107104167538
 20
27.07620366276164
 30
0.0
 10
9.748220416740102
 20
26.98706356756881
 30
0.0
 10
9.950000000000001
 20
26.98706356756882
 30
0.0
  0
SPLINE
  5
1FE
330
1F
100
AcDbEntity
  8
1
  6
SLD-Solid
370
    25
100
AcDbSpline
210
0.0
220
0.0
230
1.0
 70
     8
 71
     3
 72
    14
 73
    10
 74
     0
 42
0.000000001
 43
0.00000001
 40
0.0
 40
0.0
 40
0.0
 40
0.0
 40
0.25
 40
0.25
 40
0.5
 40
0.5
 40
0.75
 40
0.75
 40
1.0
 40
1.0
 40
1.0
 40
1.0
 10
12.28000000000003
 20
26.98706356756882
 30
0.0
 10
12.38041018140386
 20
26.98706356756881
 30
0.0
 10
12.48007417771603
 20
27.00821121867971
 30
0.0
 10
12.66478364882751
 20
27.08984749877595
 30
0.0
 10
12.74772062670421
 20
27.14949852632651
 30
0.0
 10
12.88443521562223
 20
27.29527278596964
 30
0.0
 10
12.93853405055465
 20
27.3816979113053
 30
0.0
 10
13.01142030969678
 20
27.56897740148014
 30
0.0
 10
13.03000000000001
 20
27.66812420510655
 30
0.0
 10
13.03000000000001
 20
27.76916635406975
 30
0.0
  0
SPLINE
  5
1FF
330
1F
100
AcDbEntity
  8
1
  6
SLD-Dashed
370
    18
100
AcDbSpline
210
0.0
220
0.0
230
1.0
 70
     8
 71
     2
 72
     6
 73
     3
 74
     0
 42
0.000000001
 43
0.00000001
 40
0.0
 40
0.0
 40
0.0
 40
0.0625000000000004
 40
0.0625000000000004
 40
0.0625000000000004
 10
58.15000000000003
 20
31.75000000000001
 30
0.0
 10
58.09353545990626
 20
31.73186608456068
 30
0.0
 10
57.98328160468274
 20
31.69722775761569
 30
0.0
  0
SPLINE
  5
200
330
1F
100
AcDbEntity
  8
1
  6
SLD-Dashed
370
    18
100
AcDbSpline
210
0.0
220
0.0
230
1.0
 70
     8
 71
     3
 72
     8
 73
     4
 74
     0
 42
0.000000001
 43
0.00000001
 40
0.0625000000000004
 40
0.0625000000000004
 40
0.0625000000000004
 40
0.0625000000000004
 40
0.0937500000000006
 40
0.0937500000000006
 40
0.0937500000000006
 40
0.0937500000000006
 10
57.98328160468274
 20
31.69722775761569
 30
0.0
 10
57.92815467707099
 20
31.67990859414319
 30
0.0
 10
57.85949193317105
 20
31.6584580333791
 30
0.0
 10
57.77711148982545
 20
31.63306108346115
 30
0.0
  0
SPLINE
  5
201
330
1F
100
AcDbEntity
  8
1
  6
SLD-Dashed
370
    18
100
AcDbSpline
210
0.0
220
0.0
230
1.0
 70
     8
 71
     3
 72
     8
 73
     4
 74
     0
 42
0.000000001
 43
0.00000001
 40
0.0937500000000006
 40
0.0937500000000006
 40
0.0937500000000006
 40
0.0937500000000006
 40
0.1250000000000008
 40
0.1250000000000008
 40
0.1250000000000008
 40
0.1250000000000008
 10
57.77711148982545
 20
31.63306108346115
 30
0.0
 10
57.69473104647982
 20
31.60766413354322
 30
0.0
 10
57.59801094977751
 20
31.5781350845154
 30
0.0
 10
57.48907842461639
 20
31.54545379967278
 30
0.0
  0
SPLINE
  5
202
330
1F
100
AcDbEntity
  8
1
  6
SLD-Dashed
370
    18
100
AcDbSpline
210
0.0
220
0.0
230
1.0
 70
     8
 71
     3
 72
     8
 73
     4
 74
     0
 42
0.000000001
 43
0.00000001
 40
0.1250000000000008
 40
0.1250000000000008
 40
0.1250000000000008
 40
0.1250000000000008
 40
0.1875000000000011
 40
0.1875000000000011
 40
0.1875000000000011
 40
0.1875000000000011
 10
57.48907842461639
 20
31.54545379967278
 30
0.0
 10
57.27121337429411
 20
31.48009122998756
 30
0.0
 10
57.00485475654277
 20
31.40213289321068
 30
0.0
 10
56.69142168762114
 20
31.3153914212751
 30
0.0
  0
SPLINE
  5
203
330
1F
100
AcDbEntity
  8
1
  6
SLD-Dashed
370
    18
100
AcDbSpline
210
0.0
220
0.0
230
1.0
 70
     8
 71
     3
 72
     8
 73
     4
 74
     0
 42
0.000000001
 43
0.00000001
 40
0.1875000000000011
 40
0.1875000000000011
 40
0.1875000000000011
 40
0.1875000000000011
 40
0.2187500000000011
 40
0.2187500000000011
 40
0.2187500000000011
 40
0.2187500000000011
 10
56.69142168762114
 20
31.3153914212751
 30
0.0
 10
56.53470515316037
 20
31.27202068530733
 30
0.0
 10
56.36614213556282
 20
31.22644887465304
 30
0.0
 10
56.18543605004919
 20
31.17915315602626
 30
0.0
  0
SPLINE
  5
204
330
1F
100
AcDbEntity
  8
1
  6
SLD-Dashed
370
    18
100
AcDbSpline
210
0.0
220
0.0
230
1.0
 70
     8
 71
     3
 72
     8
 73
     4
 74
     0
 42
0.000000001
 43
0.00000001
 40
0.2187500000000011
 40
0.2187500000000011
 40
0.2187500000000011
 40
0.2187500000000011
 40
0.2500000000000012
 40
0.2500000000000012
 40
0.2500000000000012
 40
0.2500000000000012
 10
56.18543605004919
 20
31.17915315602626
 30
0.0
 10
56.00472996453554
 20
31.13185743739947
 30
0.0
 10
55.81255798319727
 20
31.083035089625
 30
0.0
 10
55.61188220347528
 20
31.03397584212195
 30
0.0
  0
SPLINE
  5
205
330
1F
100
AcDbEntity
  8
1
  6
SLD-Dashed
370
    18
100
AcDbSpline
210
0.0
220
0.0
230
1.0
 70
     8
 71
     3
 72
     8
 73
     4
 74
     0
 42
0.000000001
 43
0.00000001
 40
0.2500000000000012
 40
0.2500000000000012
 40
0.2500000000000012
 40
0.2500000000000012
 40
0.3125000000000007
 40
0.3125000000000007
 40
0.3125000000000007
 40
0.3125000000000007
 10
55.61188220347528
 20
31.03397584212195
 30
0.0
 10
55.21053064403131
 20
30.93585734711592
 30
0.0
 10
54.77236210981309
 20
30.83597136685909
 30
0.0
 10
54.29691374774566
 20
30.73896187347843
 30
0.0
  0
SPLINE
  5
206
330
1F
100
AcDbEntity
  8
1
  6
SLD-Dashed
370
    18
100
AcDbSpline
210
0.0
220
0.0
230
1.0
 70
     8
 71
     3
 72
     8
 73
     4
 74
     0
 42
0.000000001
 43
0.00000001
 40
0.3125000000000007
 40
0.3125000000000007
 40
0.3125000000000007
 40
0.3125000000000007
 40
0.3750000000000003
 40
0.3750000000000003
 40
0.3750000000000003
 40
0.3750000000000003
 10
54.29691374774566
 20
30.73896187347843
 30
0.0
 10
53.82146538567822
 20
30.64195238009777
 30
0.0
 10
53.30471250384608
 20
30.54737598351994
 30
0.0
 10
52.76897014678126
 20
30.46394800011238
 30
0.0
  0
SPLINE
  5
207
330
1F
100
AcDbEntity
  8
1
  6
SLD-Dashed
370
    18
100
AcDbSpline
210
0.0
220
0.0
230
1.0
 70
     8
 71
     3
 72
     8
 73
     4
 74
     0
 42
0.000000001
 43
0.00000001
 40
0.3750000000000003
 40
0.3750000000000003
 40
0.3750000000000003
 40
0.3750000000000003
 40
0.4374999999999999
 40
0.4374999999999999
 40
0.4374999999999999
 40
0.4374999999999999
 10
52.76897014678126
 20
30.46394800011238
 30
0.0
 10
52.23322778971642
 20
30.38052001670483
 30
0.0
 10
51.67462943599966
 20
30.30727565207014
 30
0.0
 10
51.09222036172491
 20
30.2482183896404
 30
0.0
  0
SPLINE
  5
208
330
1F
100
AcDbEntity
  8
1
  6
SLD-Dashed
370
    18
100
AcDbSpline
210
0.0
220
0.0
230
1.0
 70
     8
 71
     3
 72
     8
 73
     4
 74
     0
 42
0.000000001
 43
0.00000001
 40
0.4374999999999999
 40
0.4374999999999999
 40
0.4374999999999999
 40
0.4374999999999999
 40
0.4687499999999997
 40
0.4687499999999997
 40
0.4687499999999997
 40
0.4687499999999997
 10
51.09222036172491
 20
30.2482183896404
 30
0.0
 10
50.80101582458753
 20
30.21868975842553
 30
0.0
 10
50.50215991281443
 20
30.19260247377312
 30
0.0
 10
50.20145634052398
 20
30.17091044702177
 30
0.0
  0
SPLINE
  5
209
330
1F
100
AcDbEntity
  8
1
  6
SLD-Dashed
370
    18
100
AcDbSpline
210
0.0
220
0.0
230
1.0
 70
     8
 71
     3
 72
     8
 73
     4
 74
     0
 42
0.000000001
 43
0.00000001
 40
0.4687499999999997
 40
0.4687499999999997
 40
0.4687499999999997
 40
0.4687499999999997
 40
0.4999999999999995
 40
0.4999999999999995
 40
0.4999999999999995
 40
0.4999999999999995
 10
50.20145634052398
 20
30.17091044702177
 30
0.0
 10
49.90075276823354
 20
30.1492184202704
 30
0.0
 10
49.59889014132229
 20
30.13191596868458
 30
0.0
 10
49.2958906454163
 20
30.11913076489107
 30
0.0
  0
SPLINE
  5
20A
330
1F
100
AcDbEntity
  8
1
  6
SLD-Dashed
370
    18
100
AcDbSpline
210
0.0
220
0.0
230
1.0
 70
     8
 71
     3
 72
     8
 73
     4
 74
     0
 42
0.000000001
 43
0.00000001
 40
0.4999999999999995
 40
0.4999999999999995
 40
0.4999999999999995
 40
0.4999999999999995
 40
0.5624999999999991
 40
0.5624999999999991
 40
0.5624999999999991
 40
0.5624999999999991
 10
49.2958906454163
 20
30.11913076489107
 30
0.0
 10
48.68989165360429
 20
30.09356035730402
 30
0.0
 10
48.07937022150344
 20
30.08606863064314
 30
0.0
 10
47.46419800193216
 20
30.09753102633232
 30
0.0
  0
SPLINE
  5
20B
330
1F
100
AcDbEntity
  8
1
  6
SLD-Dashed
370
    18
100
AcDbSpline
210
0.0
220
0.0
230
1.0
 70
     8
 71
     3
 72
     8
 73
     4
 74
     0
 42
0.000000001
 43
0.00000001
 40
0.5624999999999991
 40
0.5624999999999991
 40
0.5624999999999991
 40
0.5624999999999991
 40
0.5937499999999992
 40
0.5937499999999992
 40
0.5937499999999992
 40
0.5937499999999992
 10
47.46419800193216
 20
30.09753102633232
 30
0.0
 10
47.15661189214655
 20
30.1032622241769
 30
0.0
 10
46.84716812855029
 20
30.1138176248175
 30
0.0
 10
46.5432365419214
 20
30.12876529075987
 30
0.0
  0
SPLINE
  5
20C
330
1F
100
AcDbEntity
  8
1
  6
SLD-Dashed
370
    18
100
AcDbSpline
210
0.0
220
0.0
230
1.0
 70
     8
 71
     3
 72
     8
 73
     4
 74
     0
 42
0.000000001
 43
0.00000001
 40
0.5937499999999992
 40
0.5937499999999992
 40
0.5937499999999992
 40
0.5937499999999992
 40
0.6249999999999994
 40
0.6249999999999994
 40
0.6249999999999994
 40
0.6249999999999994
 10
46.5432365419214
 20
30.12876529075987
 30
0.0
 10
46.2393049552925
 20
30.14371295670224
 30
0.0
 10
45.93923693050077
 20
30.16305733326028
 30
0.0
 10
45.64292350794526
 20
30.18644005864223
 30
0.0
  0
SPLINE
  5
20D
330
1F
100
AcDbEntity
  8
1
  6
SLD-Dashed
370
    18
100
AcDbSpline
210
0.0
220
0.0
230
1.0
 70
     8
 71
     3
 72
     8
 73
     4
 74
     0
 42
0.000000001
 43
0.00000001
 40
0.6249999999999994
 40
0.6249999999999994
 40
0.6249999999999994
 40
0.6249999999999994
 40
0.6874999999999998
 40
0.6874999999999998
 40
0.6874999999999998
 40
0.6874999999999998
 10
45.64292350794526
 20
30.18644005864223
 30
0.0
 10
45.05029666283425
 20
30.23320550940612
 30
0.0
 10
44.47162109347045
 20
30.29626751771836
 30
0.0
 10
43.91007021804964
 20
30.37234798480983
 30
0.0
  0
SPLINE
  5
20E
330
1F
100
AcDbEntity
  8
1
  6
SLD-Dashed
370
    18
100
AcDbSpline
210
0.0
220
0.0
230
1.0
 70
     8
 71
     3
 72
     8
 73
     4
 74
     0
 42
0.000000001
 43
0.00000001
 40
0.6874999999999998
 40
0.6874999999999998
 40
0.6874999999999998
 40
0.6874999999999998
 40
0.75
 40
0.75
 40
0.75
 40
0.75
 10
43.91007021804964
 20
30.37234798480983
 30
0.0
 10
43.34851934262885
 20
30.4484284519013
 30
0.0
 10
42.81895828547061
 20
30.53536935098652
 30
0.0
 10
42.31933177555543
 20
30.62844306992175
 30
0.0
  0
SPLINE
  5
20F
330
1F
100
AcDbEntity
  8
1
  6
SLD-Dashed
370
    18
100
AcDbSpline
210
0.0
220
0.0
230
1.0
 70
     8
 71
     3
 72
     8
 73
     4
 74
     0
 42
0.000000001
 43
0.00000001
 40
0.75
 40
0.75
 40
0.75
 40
0.75
 40
0.7812500000000002
 40
0.7812500000000002
 40
0.7812500000000002
 40
0.7812500000000002
 10
42.31933177555543
 20
30.62844306992175
 30
0.0
 10
42.06951852059785
 20
30.67497992938936
 30
0.0
 10
41.82724084535036
 20
30.72306002008119
 30
0.0
 10
41.59254220131326
 20
30.7721203093301
 30
0.0
  0
SPLINE
  5
210
330
1F
100
AcDbEntity
  8
1
  6
SLD-Dashed
370
    18
100
AcDbSpline
210
0.0
220
0.0
230
1.0
 70
     8
 71
     3
 72
     8
 73
     4
 74
     0
 42
0.000000001
 43
0.00000001
 40
0.7812500000000002
 40
0.7812500000000002
 40
0.7812500000000002
 40
0.7812500000000002
 40
0.8125000000000004
 40
0.8125000000000004
 40
0.8125000000000004
 40
0.8125000000000004
 10
41.59254220131326
 20
30.7721203093301
 30
0.0
 10
41.35784355727618
 20
30.82118059857899
 30
0.0
 10
41.12991499237373
 20
30.87142311966567
 30
0.0
 10
40.91362534500896
 20
30.9211662859545
 30
0.0
  0
SPLINE
  5
211
330
1F
100
AcDbEntity
  8
1
  6
SLD-Dashed
370
    18
100
AcDbSpline
210
0.0
220
0.0
230
1.0
 70
     8
 71
     3
 72
     8
 73
     4
 74
     0
 42
0.000000001
 43
0.00000001
 40
0.8125000000000004
 40
0.8125000000000004
 40
0.8125000000000004
 40
0.8125000000000004
 40
0.8750000000000004
 40
0.8750000000000004
 40
0.8750000000000004
 40
0.8750000000000004
 10
40.91362534500896
 20
30.9211662859545
 30
0.0
 10
40.48104605027942
 20
31.02065261853215
 30
0.0
 10
40.09128142538124
 20
31.11877559719311
 30
0.0
 10
39.74329157931089
 20
31.21111291455838
 30
0.0
  0
SPLINE
  5
212
330
1F
100
AcDbEntity
  8
1
  6
SLD-Dashed
370
    18
100
AcDbSpline
210
0.0
220
0.0
230
1.0
 70
     8
 71
     3
 72
     8
 73
     4
 74
     0
 42
0.000000001
 43
0.00000001
 40
0.8750000000000004
 40
0.8750000000000004
 40
0.8750000000000004
 40
0.8750000000000004
 40
0.9062500000000004
 40
0.9062500000000004
 40
0.9062500000000004
 40
0.9062500000000004
 10
39.74329157931089
 20
31.21111291455838
 30
0.0
 10
39.56929665627573
 20
31.25728157324103
 30
0.0
 10
39.40581467575446
 20
31.30200868771486
 30
0.0
 10
39.25314449027022
 20
31.34473359407567
 30
0.0
  0
SPLINE
  5
213
330
1F
100
AcDbEntity
  8
1
  6
SLD-Dashed
370
    18
100
AcDbSpline
210
0.0
220
0.0
230
1.0
 70
     8
 71
     3
 72
     8
 73
     4
 74
     0
 42
0.000000001
 43
0.00000001
 40
0.9062500000000004
 40
0.9062500000000004
 40
0.9062500000000004
 40
0.9062500000000004
 40
0.9375000000000003
 40
0.9375000000000003
 40
0.9375000000000003
 40
0.9375000000000003
 10
39.25314449027022
 20
31.34473359407567
 30
0.0
 10
39.10047430478598
 20
31.3874585004365
 30
0.0
 10
38.95904750429722
 20
31.42806808898951
 30
0.0
 10
38.83138725284004
 20
31.46536811074587
 30
0.0
  0
SPLINE
  5
214
330
1F
100
AcDbEntity
  8
1
  6
SLD-Dashed
370
    18
100
AcDbSpline
210
0.0
220
0.0
230
1.0
 70
     8
 71
     3
 72
     8
 73
     4
 74
     0
 42
0.000000001
 43
0.00000001
 40
0.9375000000000003
 40
0.9375000000000003
 40
0.9375000000000003
 40
0.9375000000000003
 40
1.0
 40
1.0
 40
1.0
 40
1.0
 10
38.83138725284004
 20
31.46536811074587
 30
0.0
 10
38.57606674992566
 20
31.53996815425857
 30
0.0
 10
38.37222592365873
 20
31.60224633899388
 30
0.0
 10
38.22000000000001
 20
31.64940599758549
 30
0.0
  0
SPLINE
  5
215
330
1F
100
AcDbEntity
  8
1
  6
SLD-Dashed
370
    18
100
AcDbSpline
210
0.0
220
0.0
230
1.0
 70
     8
 71
     3
 72
    29
 73
    25
 74
     0
 42
0.000000001
 43
0.00000001
 40
0.0
 40
0.0
 40
0.0
 40
0.0
 40
0.0458348016138504
 40
0.0480498856001968
 40
0.0928876141014944
 40
0.1389519335126244
 40
0.185287865410532
 40
0.2327803317995547
 40
0.2828843546768777
 40
0.334218260412548
 40
0.3887596077192917
 40
0.4447092564826217
 40
0.4727757581732619
 40
0.501326333740166
 40
0.502495282471536
 40
0.5618917536722046
 40
0.6207567046546971
 40
0.6813945511012968
 40
0.7389804981151333
 40
0.7984755347879654
 40
0.852102661055568
 40
0.9076282070561242
 40
0.9560748130895865
 40
1.0
 40
1.0
 40
1.0
 40
1.0
 10
61.92472445049322
 20
-31.74999328751221
 30
0.0
 10
61.88001451071013
 20
-31.7367986990714
 30
0.0
 10
61.83314384876484
 20
-31.72296644840599
 30
0.0
 10
61.74800911641384
 20
-31.69781418727194
 30
0.0
 10
61.42956324064738
 20
-31.6049877448135
 30
0.0
 10
60.84111554005494
 20
-31.44156447601488
 30
0.0
 10
59.99480965532336
 20
-31.22243885701034
 30
0.0
 10
58.93518733808756
 20
-30.97516452714803
 30
0.0
 10
57.65677232678204
 20
-30.71704856134452
 30
0.0
 10
56.16192829532374
 20
-30.4693898258616
 30
0.0
 10
54.48072373336812
 20
-30.26811932937012
 30
0.0
 10
52.96953296551813
 20
-30.14076047170068
 30
0.0
 10
51.70789920966978
 20
-30.12319767086753
 30
0.0
 10
51.06352807358149
 20
-30.10604427035559
 30
0.0
 10
50.06857859886665
 20
-30.08206795517185
 30
0.0
 10
48.72685175638256
 20
-30.14534447298903
 30
0.0
 10
46.78265094071789
 20
-30.29497098739088
 30
0.0
 10
44.97047012519096
 20
-30.53853828618752
 30
0.0
 10
43.32549029126155
 20
-30.8331187253202
 30
0.0
 10
41.96473237888647
 20
-31.1333370579955
 30
0.0
 10
40.88303236895231
 20
-31.40708768178155
 30
0.0
 10
40.16119374856653
 20
-31.60740705639687
 30
0.0
 10
39.74045302975429
 20
-31.73052117043892
 30
0.0
 10
39.70720079722448
 20
-31.74048881883846
 30
0.0
 10
39.69138849692686
 20
-31.74522869456301
 30
0.0
  0
SPLINE
  5
216
330
1F
100
AcDbEntity
  8
1
  6
SLD-Dashed
370
    18
100
AcDbSpline
210
0.0
220
0.0
230
1.0
 70
     8
 71
     3
 72
     9
 73
     5
 74
     0
 42
0.000000001
 43
0.00000001
 40
0.0
 40
0.0
 40
0.0
 40
0.0
 40
0.6229987883679534
 40
0.9999999999999999
 40
0.9999999999999999
 40
0.9999999999999999
 40
0.9999999999999999
 10
38.22000000000001
 20
31.64940599758549
 30
0.0
 10
38.10248948372029
 20
31.68127691983236
 30
0.0
 10
37.91386870552013
 20
31.73243419789124
 30
0.0
 10
37.92701672822181
 20
31.72825724117926
 30
0.0
 10
37.93197354871089
 20
31.72668252343793
 30
0.0
  0
SPLINE
  5
217
330
1F
100
AcDbEntity
  8
SK3
  6
SLD-Dashed
370
    18
100
AcDbSpline
210
0.0
220
0.0
230
1.0
 70
     8
 71
     3
 72
    30
 73
    26
 74
     0
 42
0.000000001
 43
0.00000001
 40
0.4999999999999971
 40
0.4999999999999971
 40
0.4999999999999971
 40
0.4999999999999971
 40
0.5624999999999977
 40
0.5624999999999977
 40
0.6249999999999981
 40
0.6249999999999981
 40
0.6562499999999984
 40
0.6562499999999984
 40
0.6874999999999987
 40
0.6874999999999987
 40
0.718749999999999
 40
0.718749999999999
 40
0.7499999999999992
 40
0.7499999999999992
 40
0.7812499999999994
 40
0.7812499999999994
 40
0.8124999999999998
 40
0.8124999999999998
 40
0.8749999999999998
 40
0.8749999999999998
 40
0.9374999999999999
 40
0.9374999999999999
 40
0.96875
 40
0.96875
 40
1.0
 40
1.0
 40
1.0
 40
1.0
 10
11.75479658556572
 20
-4.901433547105934
 30
0.0
 10
11.89746294966132
 20
-4.886411197664711
 30
0.0
 10
12.02884136644408
 20
-4.886974229786192
 30
0.0
 10
12.27243240561785
 20
-4.932317536304451
 30
0.0
 10
12.3857403709436
 20
-4.975421209748234
 30
0.0
 10
12.53947570845301
 20
-5.103559339222873
 30
0.0
 10
12.58638543677659
 20
-5.156028957061215
 30
0.0
 10
12.66795201157342
 20
-5.291134993494214
 30
0.0
 10
12.70317196931761
 20
-5.375974586482819
 30
0.0
 10
12.74713654526595
 20
-5.58286198491411
 30
0.0
 10
12.75526091463636
 20
-5.705696917838725
 30
0.0
 10
12.73739776164137
 20
-5.968523156861118
 30
0.0
 10
12.71224833739216
 20
-6.103419156624206
 30
0.0
 10
12.64408666407788
 20
-6.357264662683472
 30
0.0
 10
12.60068164729126
 20
-6.478993458595601
 30
0.0
 10
12.50600924552238
 20
-6.704610974826192
 30
0.0
 10
12.45441331137413
 20
-6.809727668320977
 30
0.0
 10
12.28990621332258
 20
-7.109437894498888
 30
0.0
 10
12.17017846713216
 20
-7.284103436407841
 30
0.0
 10
11.91483731616863
 20
-7.597298819669203
 30
0.0
 10
11.77767665531765
 20
-7.737818016165223
 30
0.0
 10
11.5495115897996
 20
-7.918374112026484
 30
0.0
 10
11.46985276967112
 20
-7.973291374430626
 30
0.0
 10
11.29758630900469
 20
-8.069225810891215
 30
0.0
 10
11.20406269051034
 20
-8.110848935776543
 30
0.0
 10
11.1
 20
-8.139670393607954
 30
0.0
  0
SPLINE
  5
218
330
1F
100
AcDbEntity
  8
SK3
  6
SLD-Dashed
370
    18
100
AcDbSpline
210
0.0
220
0.0
230
1.0
 70
     8
 71
     3
 72
    34
 73
    30
 74
     0
 42
0.000000001
 43
0.00000001
 40
0.0
 40
0.0
 40
0.0
 40
0.0
 40
0.0312499999999996
 40
0.0312499999999996
 40
0.0624999999999992
 40
0.0624999999999992
 40
0.0937499999999988
 40
0.0937499999999988
 40
0.1249999999999985
 40
0.1249999999999985
 40
0.1562499999999982
 40
0.1562499999999982
 40
0.1874999999999979
 40
0.1874999999999979
 40
0.2499999999999979
 40
0.2499999999999979
 40
0.3124999999999978
 40
0.3124999999999978
 40
0.3437499999999977
 40
0.3437499999999977
 40
0.3749999999999976
 40
0.3749999999999976
 40
0.4062499999999975
 40
0.4062499999999975
 40
0.4374999999999973
 40
0.4374999999999973
 40
0.4687499999999972
 40
0.4687499999999972
 40
0.4999999999999971
 40
0.4999999999999971
 40
0.4999999999999971
 40
0.4999999999999971
 10
11.1
 20
-8.139670393607954
 30
0.0
 10
10.99593730948965
 20
-8.168491851439363
 30
0.0
 10
10.88327240143053
 20
-8.183619230956756
 30
0.0
 10
10.64024603173769
 20
-8.169996197171645
 30
0.0
 10
10.51600003630448
 20
-8.1409930617651
 30
0.0
 10
10.2754047263383
 20
-8.041511803988634
 30
0.0
 10
10.16352991293558
 20
-7.973785811074559
 30
0.0
 10
9.956641719228346
 20
-7.8088649075203
 30
0.0
 10
9.865140211756094
 20
-7.714409980823928
 30
0.0
 10
9.705479632928782
 20
-7.50567520381875
 30
0.0
 10
9.638640231842272
 20
-7.392601974747761
 30
0.0
 10
9.534145986449444
 20
-7.157373188583893
 30
0.0
 10
9.4956685896182
 20
-7.032517635178808
 30
0.0
 10
9.429144226770047
 20
-6.659799668562686
 30
0.0
 10
9.448570934642728
 20
-6.405979053005113
 30
0.0
 10
9.610438460184723
 20
-5.948466648519224
 30
0.0
 10
9.752910053168169
 20
-5.744009981362486
 30
0.0
 10
10.03367356462019
 20
-5.497500536354748
 30
0.0
 10
10.1372293865233
 20
-5.42554695621291
 30
0.0
 10
10.36592358660668
 20
-5.297018553104084
 30
0.0
 10
10.48785945052917
 20
-5.242562856658077
 30
0.0
 10
10.73642302172964
 20
-5.147912691227143
 30
0.0
 10
10.85648365715394
 20
-5.109640819744181
 30
0.0
 10
11.08061189675419
 20
-5.043111325123112
 30
0.0
 10
11.1802238597534
 20
-5.016231192190864
 30
0.0
 10
11.36576798793607
 20
-4.969815472118951
 30
0.0
 10
11.45055694339849
 20
-4.950785033120381
 30
0.0
 10
11.60916091896928
 20
-4.920394395500217
 30
0.0
 10
11.68346340351792
 20
-4.908944721826542
 30
0.0
 10
11.75479658556572
 20
-4.901433547105934
 30
0.0
  0
SPLINE
  5
219
330
1F
100
AcDbEntity
  8
SK3
  6
SLD-Dashed
370
    18
100
AcDbSpline
210
0.0
220
0.0
230
1.0
 70
     8
 71
     3
 72
    30
 73
    26
 74
     0
 42
0.000000001
 43
0.00000001
 40
0.4999999999999977
 40
0.4999999999999977
 40
0.4999999999999977
 40
0.4999999999999977
 40
0.5312499999999977
 40
0.5312499999999977
 40
0.5624999999999976
 40
0.5624999999999976
 40
0.6249999999999976
 40
0.6249999999999976
 40
0.6874999999999974
 40
0.6874999999999974
 40
0.7187499999999977
 40
0.7187499999999977
 40
0.7499999999999978
 40
0.7499999999999978
 40
0.781249999999998
 40
0.781249999999998
 40
0.8124999999999982
 40
0.8124999999999982
 40
0.8437499999999984
 40
0.8437499999999984
 40
0.8749999999999986
 40
0.8749999999999986
 40
0.9374999999999993
 40
0.9374999999999993
 40
1.0
 40
1.0
 40
1.0
 40
1.0
 10
9.528420299935433
 20
-8.783318638987486
 30
0.0
 10
9.563561233735419
 20
-8.863935054853204
 30
0.0
 10
9.607627266507047
 20
-8.927948620428342
 30
0.0
 10
9.70302702424504
 20
-9.029913156802367
 30
0.0
 10
9.7551658595878
 20
-9.069013533844466
 30
0.0
 10
9.920727180931468
 20
-9.161365608196963
 30
0.0
 10
10.03962982796815
 20
-9.189146893658648
 30
0.0
 10
10.29581948707686
 20
-9.20776112946159
 30
0.0
 10
10.43340974433161
 20
-9.197532970852965
 30
0.0
 10
10.66277322328792
 20
-9.15988746569474
 30
0.0
 10
10.74371097916553
 20
-9.143480319022107
 30
0.0
 10
10.91864535127572
 20
-9.10289441363147
 30
0.0
 10
11.01198337642653
 20
-9.07900587068609
 30
0.0
 10
11.22104536410176
 20
-9.020599106716373
 30
0.0
 10
11.33557343779477
 20
-8.986604712168617
 30
0.0
 10
11.57980302461464
 20
-8.902979810871837
 30
0.0
 10
11.7044559947736
 20
-8.854609275012844
 30
0.0
 10
11.94450363931204
 20
-8.738302937094135
 30
0.0
 10
12.05531700587899
 20
-8.672727087611992
 30
0.0
 10
12.25922745067754
 20
-8.52032559684357
 30
0.0
 10
12.35002701179844
 20
-8.435036721266158
 30
0.0
 10
12.58459907667486
 20
-8.152304640047161
 30
0.0
 10
12.6894417703268
 20
-7.926948099339561
 30
0.0
 10
12.77109851062197
 20
-7.442912699127661
 30
0.0
 10
12.74820534245739
 20
-7.186173862784494
 30
0.0
 10
12.66230763443391
 20
-6.940889607535652
 30
0.0
  0
SPLINE
  5
21A
330
1F
100
AcDbEntity
  8
SK3
  6
SLD-Dashed
370
    18
100
AcDbSpline
210
0.0
220
0.0
230
1.0
 70
     8
 71
     3
 72
    34
 73
    30
 74
     0
 42
0.000000001
 43
0.00000001
 40
0.0
 40
0.0
 40
0.0
 40
0.0
 40
0.0312499999999997
 40
0.0312499999999997
 40
0.0624999999999995
 40
0.0624999999999995
 40
0.0937499999999992
 40
0.0937499999999992
 40
0.124999999999999
 40
0.124999999999999
 40
0.1562499999999987
 40
0.1562499999999987
 40
0.1874999999999984
 40
0.1874999999999984
 40
0.2499999999999982
 40
0.2499999999999982
 40
0.3124999999999979
 40
0.3124999999999979
 40
0.3437499999999978
 40
0.3437499999999978
 40
0.3749999999999978
 40
0.3749999999999978
 40
0.4062499999999978
 40
0.4062499999999978
 40
0.4374999999999977
 40
0.4374999999999977
 40
0.4687499999999977
 40
0.4687499999999977
 40
0.4999999999999977
 40
0.4999999999999977
 40
0.4999999999999977
 40
0.4999999999999977
 10
12.66230763443391
 20
-6.940889607535652
 30
0.0
 10
12.61935878042216
 20
-6.818247479911236
 30
0.0
 10
12.56229529856066
 20
-6.702062405426229
 30
0.0
 10
12.42103808962698
 20
-6.482980016463475
 30
0.0
 10
12.33595491427449
 20
-6.379752337446496
 30
0.0
 10
12.14618186397767
 20
-6.199831764960508
 30
0.0
 10
12.0392257963649
 20
-6.12067358722531
 30
0.0
 10
11.80824491388434
 20
-5.996443405511913
 30
0.0
 10
11.68389439480549
 20
-5.951950953011098
 30
0.0
 10
11.43804455248934
 20
-5.908952419297806
 30
0.0
 10
11.31731684279021
 20
-5.910654595408939
 30
0.0
 10
11.09745426351666
 20
-5.948127988753965
 30
0.0
 10
10.99815393168725
 20
-5.982607853079427
 30
0.0
 10
10.72267466537657
 20
-6.111713360853574
 30
0.0
 10
10.57189176004732
 20
-6.227019438453239
 30
0.0
 10
10.28857248622242
 20
-6.491284498769505
 30
0.0
 10
10.15786476490367
 20
-6.642104569644404
 30
0.0
 10
9.976005005593564
 20
-6.893749929925863
 30
0.0
 10
9.91763522266624
 20
-6.9822051253388
 30
0.0
 10
9.805404805610374
 20
-7.170924693447025
 30
0.0
 10
9.751060353100568
 20
-7.27211100309056
 30
0.0
 10
9.650448853514279
 20
-7.486812522722701
 30
0.0
 10
9.604326797725646
 20
-7.599530214338817
 30
0.0
 10
9.52438853672935
 20
-7.841923064473684
 30
0.0
 10
9.490665766297285
 20
-7.972450285447922
 30
0.0
 10
9.450224495380091
 20
-8.237810978297462
 30
0.0
 10
9.444739461343568
 20
-8.36989859677506
 30
0.0
 10
9.466585255233792
 20
-8.602871670374164
 30
0.0
 10
9.493279366135448
 20
-8.70270222312177
 30
0.0
 10
9.528420299935433
 20
-8.783318638987486
 30
0.0
  0
SPLINE
  5
21B
330
1F
100
AcDbEntity
  8
1
  6
SLD-Dashed
370
    18
100
AcDbSpline
210
0.0
220
0.0
230
1.0
 70
    24
 71
     3
 72
     9
 73
     5
 74
     0
 42
0.000000001
 43
0.00000001
 40
0.0
 40
0.0
 40
0.0
 40
0.0
 40
0.1328927552131138
 40
1.0
 40
1.0
 40
1.0
 40
1.0
 10
19.05
 20
-22.41000000000001
 30
0.0
 10
19.05077438884516
 20
-22.41000000000001
 30
0.0
 10
19.05660156011504
 20
-22.41000000000001
 30
0.0
 10
19.12491648978973
 20
-22.41000000000001
 30
0.0
 10
19.18415286023775
 20
-22.41000000000001
 30
0.0
  0
SPLINE
  5
21C
330
1F
100
AcDbEntity
  8
1
  6
SLD-Dashed
370
    18
100
AcDbSpline
210
0.0
220
0.0
230
1.0
 70
    24
 71
     3
 72
     8
 73
     4
 74
     0
 42
0.000000001
 43
0.00000001
 40
0.0
 40
0.0
 40
0.0
 40
0.0
 40
0.5000000000000001
 40
0.5000000000000001
 40
0.5000000000000001
 40
0.5000000000000001
 10
19.31428603498328
 20
-22.41000000000071
 30
0.0
 10
19.31428080947859
 20
-22.41000000000071
 30
0.0
 10
19.25023887705603
 20
-22.41000000000036
 30
0.0
 10
19.18387352733414
 20
-22.41000000000001
 30
0.0
  0
SPLINE
  5
21D
330
1F
100
AcDbEntity
  8
1
  6
SLD-Dashed
370
    18
100
AcDbSpline
210
0.0
220
0.0
230
1.0
 70
    24
 71
     2
 72
     6
 73
     3
 74
     0
 42
0.000000001
 43
0.00000001
 40
0.5000000000000001
 40
0.5000000000000001
 40
0.5000000000000001
 40
1.0
 40
1.0
 40
1.0
 10
19.18387352733414
 20
-22.41000000000001
 30
0.0
 10
19.11750603525596
 20
-22.41000000000001
 30
0.0
 10
19.04999999999998
 20
-22.41000000000001
 30
0.0
  0
SPLINE
  5
21E
330
1F
100
AcDbEntity
  8
1
  6
SLD-Dashed
370
    18
100
AcDbSpline
210
0.0
220
0.0
230
1.0
 70
    24
 71
     2
 72
     6
 73
     3
 74
     0
 42
0.000000001
 43
0.00000001
 40
0.0
 40
0.0
 40
0.0
 40
0.25
 40
0.25
 40
0.25
 10
3.200000000000008
 20
-22.41000000000004
 30
0.0
 10
3.17040699581661
 20
-22.41000000000003
 30
0.0
 10
3.14448132470381
 20
-22.41000000000001
 30
0.0
  0
SPLINE
  5
21F
330
1F
100
AcDbEntity
  8
1
  6
SLD-Dashed
370
    18
100
AcDbSpline
210
0.0
220
0.0
230
1.0
 70
    24
 71
     3
 72
     8
 73
     4
 74
     0
 42
0.000000001
 43
0.00000001
 40
0.25
 40
0.25
 40
0.25
 40
0.25
 40
0.5
 40
0.5
 40
0.5
 40
0.5
 10
3.14448132470381
 20
-22.41000000000001
 30
0.0
 10
3.118555653590996
 20
-22.41000000000001
 30
0.0
 10
3.097084490555638
 20
-22.41000000000001
 30
0.0
 10
3.096615422637519
 20
-22.41
 30
0.0
  0
SPLINE
  5
220
330
1F
100
AcDbEntity
  8
1
  6
SLD-Dashed
370
    18
100
AcDbSpline
210
0.0
220
0.0
230
1.0
 70
    24
 71
     3
 72
     8
 73
     4
 74
     0
 42
0.000000001
 43
0.00000001
 40
0.5
 40
0.5
 40
0.5
 40
0.5
 40
0.5625
 40
0.5625
 40
0.5625
 40
0.5625
 10
3.096615422637519
 20
-22.41
 30
0.0
 10
3.096498155657976
 20
-22.41000000000001
 30
0.0
 10
3.097576707176336
 20
-22.41000000000001
 30
0.0
 10
3.099789717980528
 20
-22.41000000000001
 30
0.0
  0
SPLINE
  5
221
330
1F
100
AcDbEntity
  8
1
  6
SLD-Dashed
370
    18
100
AcDbSpline
210
0.0
220
0.0
230
1.0
 70
    24
 71
     3
 72
     8
 73
     4
 74
     0
 42
0.000000001
 43
0.00000001
 40
0.5625
 40
0.5625
 40
0.5625
 40
0.5625
 40
0.625
 40
0.625
 40
0.625
 40
0.625
 10
3.099789717980528
 20
-22.41000000000001
 30
0.0
 10
3.102002728784734
 20
-22.41000000000001
 30
0.0
 10
3.105345908570325
 20
-22.41000000000001
 30
0.0
 10
3.109607407038001
 20
-22.41000000000001
 30
0.0
  0
SPLINE
  5
222
330
1F
100
AcDbEntity
  8
1
  6
SLD-Dashed
370
    18
100
AcDbSpline
210
0.0
220
0.0
230
1.0
 70
    24
 71
     3
 72
     8
 73
     4
 74
     0
 42
0.000000001
 43
0.00000001
 40
0.625
 40
0.625
 40
0.625
 40
0.625
 40
0.75
 40
0.75
 40
0.75
 40
0.75
 10
3.109607407038001
 20
-22.41000000000001
 30
0.0
 10
3.118130403973393
 20
-22.41000000000001
 30
0.0
 10
3.130398007648125
 20
-22.41000000000001
 30
0.0
 10
3.143490990967584
 20
-22.41000000000001
 30
0.0
  0
SPLINE
  5
223
330
1F
100
AcDbEntity
  8
1
  6
SLD-Dashed
370
    18
100
AcDbSpline
210
0.0
220
0.0
230
1.0
 70
    24
 71
     2
 72
     6
 73
     3
 74
     0
 42
0.000000001
 43
0.00000001
 40
0.75
 40
0.75
 40
0.75
 40
1.0
 40
1.0
 40
1.0
 10
3.143490990967584
 20
-22.41000000000001
 30
0.0
 10
3.169676957606518
 20
-22.41000000000003
 30
0.0
 10
3.200000000000008
 20
-22.41000000000004
 30
0.0
  0
SPLINE
  5
224
330
1F
100
AcDbEntity
  8
SK3
  6
SLD-Dashed
370
    18
100
AcDbSpline
210
0.0
220
0.0
230
1.0
 70
     8
 71
     3
 72
    30
 73
    26
 74
     0
 42
0.000000001
 43
0.00000001
 40
0.5000000000000006
 40
0.5000000000000006
 40
0.5000000000000006
 40
0.5000000000000006
 40
0.5625000000000004
 40
0.5625000000000004
 40
0.5937500000000004
 40
0.5937500000000004
 40
0.6250000000000003
 40
0.6250000000000003
 40
0.6562500000000003
 40
0.6562500000000003
 40
0.6875000000000002
 40
0.6875000000000002
 40
0.7500000000000001
 40
0.7500000000000001
 40
0.7812500000000002
 40
0.7812500000000002
 40
0.8125000000000003
 40
0.8125000000000003
 40
0.8750000000000002
 40
0.8750000000000002
 40
0.9375000000000001
 40
0.9375000000000001
 40
0.96875
 40
0.96875
 40
1.0
 40
1.0
 40
1.0
 40
1.0
 10
11.10070155322193
 20
-0.6867806446436281
 30
0.0
 10
10.88487328526099
 20
-0.686686495301167
 30
0.0
 10
10.66695993667192
 20
-0.7314091515492407
 30
0.0
 10
10.36883069489548
 20
-0.8573324036223671
 30
0.0
 10
10.2723266050555
 20
-0.9097769735048333
 30
0.0
 10
10.09316301813307
 20
-1.03088021090679
 30
0.0
 10
10.01035801314715
 20
-1.099273863572378
 30
0.0
 10
9.85809200026895
 20
-1.251261280631556
 30
0.0
 10
9.788700375084932
 20
-1.335215891007227
 30
0.0
 10
9.669334047265762
 20
-1.511088629166782
 30
0.0
 10
9.618452284373927
 20
-1.603797750250983
 30
0.0
 10
9.493171541254702
 20
-1.896347059398756
 30
0.0
 10
9.450117602560926
 20
-2.10192473159683
 30
0.0
 10
9.449941558347344
 20
-2.408808799904342
 30
0.0
 10
9.460551032657124
 20
-2.508823236901839
 30
0.0
 10
9.502621940844946
 20
-2.704498007569868
 30
0.0
 10
9.53460621752955
 20
-2.80087841657483
 30
0.0
 10
9.658478333209805
 20
-3.071908588173945
 30
0.0
 10
9.781198670787736
 20
-3.23500633722694
 30
0.0
 10
10.08392744642476
 20
-3.50163398124493
 30
0.0
 10
10.26708339298825
 20
-3.60794094497386
 30
0.0
 10
10.56490438050341
 20
-3.714664125739023
 30
0.0
 10
10.66997524794504
 20
-3.742182811963958
 30
0.0
 10
10.88266147594884
 20
-3.778571214008569
 30
0.0
 10
10.99054595855783
 20
-3.787766140220146
 30
0.0
 10
11.1
 20
-3.787766140220146
 30
0.0
  0
SPLINE
  5
225
330
1F
100
AcDbEntity
  8
SK3
  6
SLD-Dashed
370
    18
100
AcDbSpline
210
0.0
220
0.0
230
1.0
 70
     8
 71
     3
 72
    32
 73
    28
 74
     0
 42
0.000000001
 43
0.00000001
 40
0.0
 40
0.0
 40
0.0
 40
0.0
 40
0.0312499999999998
 40
0.0312499999999998
 40
0.0624999999999997
 40
0.0624999999999997
 40
0.0937499999999995
 40
0.0937499999999995
 40
0.1249999999999994
 40
0.1249999999999994
 40
0.1874999999999995
 40
0.1874999999999995
 40
0.2499999999999996
 40
0.2499999999999996
 40
0.2812499999999997
 40
0.2812499999999997
 40
0.3124999999999998
 40
0.3124999999999998
 40
0.3749999999999998
 40
0.3749999999999998
 40
0.4062500000000001
 40
0.4062500000000001
 40
0.4375000000000002
 40
0.4375000000000002
 40
0.4687500000000004
 40
0.4687500000000004
 40
0.5000000000000006
 40
0.5000000000000006
 40
0.5000000000000006
 40
0.5000000000000006
 10
11.1
 20
-3.787766140220139
 30
0.0
 10
11.20945404144215
 20
-3.787766140220146
 30
0.0
 10
11.31699251505766
 20
-3.778573328456388
 30
0.0
 10
11.52842270682132
 20
-3.742513465759781
 30
0.0
 10
11.63343468118845
 20
-3.715182626605938
 30
0.0
 10
11.83302988080073
 20
-3.643810849968475
 30
0.0
 10
11.9276291600313
 20
-3.600053719779186
 30
0.0
 10
12.10666204146886
 20
-3.496063555093992
 30
0.0
 10
12.19108958741751
 20
-3.435494674721283
 30
0.0
 10
12.41840943186721
 20
-3.235487194488878
 30
0.0
 10
12.54121280428008
 20
-3.072211780658828
 30
0.0
 10
12.70609668334556
 20
-2.712191703584069
 30
0.0
 10
12.74986581883258
 20
-2.511406281215628
 30
0.0
 10
12.75006661590682
 20
-2.206762191573453
 30
0.0
 10
12.73925303931703
 20
-2.102663743045095
 30
0.0
 10
12.69696665105526
 20
-1.900023631118422
 30
0.0
 10
12.66568409163501
 20
-1.800628375409986
 30
0.0
 10
12.54109332601519
 20
-1.508622388074428
 30
0.0
 10
12.41968488057069
 20
-1.329150513223805
 30
0.0
 10
12.19032108316567
 20
-1.099825633995827
 30
0.0
 10
12.10747830050281
 20
-1.031413659325513
 30
0.0
 10
11.92916892541128
 20
-0.9106890902003186
 30
0.0
 10
11.83255025366053
 20
-0.8580074652528163
 30
0.0
 10
11.63340217743153
 20
-0.7737092118759864
 30
0.0
 10
11.53055350372277
 20
-0.741588922705233
 30
0.0
 10
11.31815535720089
 20
-0.6979755792709263
 30
0.0
 10
11.2086156872024
 20
-0.6868277193148586
 30
0.0
 10
11.10070155322193
 20
-0.6867806446436281
 30
0.0
  0
SPLINE
  5
226
330
1F
100
AcDbEntity
  8
SK3
  6
SLD-Dashed
370
    18
100
AcDbSpline
210
0.0
220
0.0
230
1.0
 70
     8
 71
     3
 72
    14
 73
    10
 74
     0
 42
0.000000001
 43
0.00000001
 40
0.5000000000000002
 40
0.5000000000000002
 40
0.5000000000000002
 40
0.5000000000000002
 40
0.6250000000000001
 40
0.6250000000000001
 40
0.7500000000000001
 40
0.7500000000000001
 40
0.875
 40
0.875
 40
1.0
 40
1.0
 40
1.0
 40
1.0
 10
39.36360381276923
 20
16.24999796775911
 30
0.0
 10
39.3632412148002
 20
16.25019123576276
 30
0.0
 10
39.38919983002575
 20
16.23631018957628
 30
0.0
 10
39.49267519731193
 20
16.1815107618225
 30
0.0
 10
39.56954071853151
 20
16.14094138369953
 30
0.0
 10
39.77157696819515
 20
16.03602783838253
 30
0.0
 10
39.89709305880839
 20
15.97150064574286
 30
0.0
 10
40.19581014867672
 20
15.82157310005416
 30
0.0
 10
40.36713526088531
 20
15.73711581408264
 30
0.0
 10
40.56
 20
15.64509108442643
 30
0.0
  0
SPLINE
  5
227
330
1F
100
AcDbEntity
  8
SK3
  6
SLD-Dashed
370
    18
100
AcDbSpline
210
0.0
220
0.0
230
1.0
 70
     8
 71
     3
 72
    12
 73
     8
 74
     0
 42
0.000000001
 43
0.00000001
 40
0.0
 40
0.0
 40
0.0
 40
0.0
 40
0.2500000000000003
 40
0.2500000000000003
 40
0.3750000000000003
 40
0.3750000000000003
 40
0.5000000000000002
 40
0.5000000000000002
 40
0.5000000000000002
 40
0.5000000000000002
 10
40.56
 20
15.64509108442643
 30
0.0
 10
40.17444444585604
 20
15.82905755647527
 30
0.0
 10
39.87818781754137
 20
15.9806980590343
 30
0.0
 10
39.57174706728431
 20
16.13978045401818
 30
0.0
 10
39.49345361416238
 20
16.18110043187976
 30
0.0
 10
39.3900739276166
 20
16.23584539617224
 30
0.0
 10
39.36396641073828
 20
16.24980469975546
 30
0.0
 10
39.36360381276923
 20
16.24999796775911
 30
0.0
  0
SPLINE
  5
228
330
1F
100
AcDbEntity
  8
SK3
  6
SLD-Dashed
370
    18
100
AcDbSpline
210
0.0
220
0.0
230
1.0
 70
     8
 71
     3
 72
    42
 73
    38
 74
     0
 42
0.000000001
 43
0.00000001
 40
0.0
 40
0.0
 40
0.0
 40
0.0
 40
0.062499999999999
 40
0.062499999999999
 40
0.0781249999999987
 40
0.0781249999999987
 40
0.0937499999999985
 40
0.0937499999999985
 40
0.1249999999999983
 40
0.1249999999999983
 40
0.1406249999999985
 40
0.1406249999999985
 40
0.1562499999999986
 40
0.1562499999999986
 40
0.1874999999999989
 40
0.1874999999999989
 40
0.2187499999999991
 40
0.2187499999999991
 40
0.2499999999999994
 40
0.2499999999999994
 40
0.2656249999999993
 40
0.2656249999999993
 40
0.2812499999999992
 40
0.2812499999999992
 40
0.312499999999999
 40
0.312499999999999
 40
0.3437499999999988
 40
0.3437499999999988
 40
0.3749999999999987
 40
0.3749999999999987
 40
0.4374999999999987
 40
0.4374999999999987
 40
0.4531249999999987
 40
0.4531249999999987
 40
0.4687499999999986
 40
0.4687499999999986
 40
0.4999999999999987
 40
0.4999999999999987
 40
0.4999999999999987
 40
0.4999999999999987
 10
40.56
 20
15.38526486739828
 30
0.0
 10
41.0384389829113
 20
15.15312411205766
 30
0.0
 10
41.62663016977851
 20
14.88306045049696
 30
0.0
 10
42.4999120061177
 20
14.54238237001406
 30
0.0
 10
42.6817747267597
 20
14.47411623806152
 30
0.0
 10
43.05378879780609
 20
14.34095273575436
 30
0.0
 10
43.24469389096519
 20
14.275751897437
 30
0.0
 10
43.83239734343999
 20
14.08618223225148
 30
0.0
 10
44.24404415783746
 20
13.9677680142176
 30
0.0
 10
44.89478348552841
 20
13.81065157811624
 30
0.0
 10
45.11857700205439
 20
13.7614787235074
 30
0.0
 10
45.57067903205138
 20
13.67313765849931
 30
0.0
 10
45.79887471059102
 20
13.63392307586526
 30
0.0
 10
46.48997075245695
 20
13.53250764672507
 30
0.0
 10
46.95934621729692
 20
13.48655318592128
 30
0.0
 10
47.91660595947127
 20
13.44482235360944
 30
0.0
 10
48.40784993217815
 20
13.44990132594422
 30
0.0
 10
49.36243026849148
 20
13.51081016557275
 30
0.0
 10
49.83134750930684
 20
13.56600344662475
 30
0.0
 10
50.52274808241737
 20
13.68090814093069
 30
0.0
 10
50.75168574184399
 20
13.72470795147809
 30
0.0
 10
51.19725582789542
 20
13.82013025467585
 30
0.0
 10
51.41495975915467
 20
13.87190221140715
 30
0.0
 10
52.05376022324959
 20
14.03715904280701
 30
0.0
 10
52.46132531431468
 20
14.16077489810852
 30
0.0
 10
53.23790232495049
 20
14.42293014854974
 30
0.0
 10
53.59926872281497
 20
14.55876304031317
 30
0.0
 10
54.27273455489874
 20
14.82967621151291
 30
0.0
 10
54.58527927760161
 20
14.96503241940606
 30
0.0
 10
55.44493774684081
 20
15.35495849886853
 30
0.0
 10
55.89091049990422
 20
15.58142309375473
 30
0.0
 10
56.2833264875367
 20
15.78529725375423
 30
0.0
 10
56.35314465979965
 20
15.8219969095719
 30
0.0
 10
56.47233249569586
 20
15.88505646904639
 30
0.0
 10
56.52218028552522
 20
15.91166464055808
 30
0.0
 10
56.64273555303459
 20
15.97626086596948
 30
0.0
 10
56.684668053092
 20
15.99906243612229
 30
0.0
 10
56.68634783809076
 20
15.99997176286257
 30
0.0
  0
SPLINE
  5
229
330
1F
100
AcDbEntity
  8
SK3
  6
SLD-Dashed
370
    18
100
AcDbSpline
210
0.0
220
0.0
230
1.0
 70
     8
 71
     2
 72
     6
 73
     3
 74
     0
 42
0.000000001
 43
0.00000001
 40
0.0
 40
0.0
 40
0.0
 40
0.03125
 40
0.03125
 40
0.03125
 10
64.36359999999999
 20
15.99999999999999
 30
0.0
 10
64.42209836592738
 20
15.96811929610503
 30
0.0
 10
64.53571728721036
 20
15.90748474830853
 30
0.0
  0
SPLINE
  5
22A
330
1F
100
AcDbEntity
  8
SK3
  6
SLD-Dashed
370
    18
100
AcDbSpline
210
0.0
220
0.0
230
1.0
 70
     8
 71
     3
 72
     8
 73
     4
 74
     0
 42
0.000000001
 43
0.00000001
 40
0.03125
 40
0.03125
 40
0.03125
 40
0.03125
 40
0.0625000000000001
 40
0.0625000000000001
 40
0.0625000000000001
 40
0.0625000000000001
 10
64.53571728721036
 20
15.90748474830853
 30
0.0
 10
64.64933620849337
 20
15.84685020051203
 30
0.0
 10
64.8212007114903
 20
15.755848954611
 30
0.0
 10
65.04090447532815
 20
15.64371859204471
 30
0.0
  0
SPLINE
  5
22B
330
1F
100
AcDbEntity
  8
SK3
  6
SLD-Dashed
370
    18
100
AcDbSpline
210
0.0
220
0.0
230
1.0
 70
     8
 71
     3
 72
     8
 73
     4
 74
     0
 42
0.000000001
 43
0.00000001
 40
0.0625000000000001
 40
0.0625000000000001
 40
0.0625000000000001
 40
0.0625000000000001
 40
0.0937500000000001
 40
0.0937500000000001
 40
0.0937500000000001
 40
0.0937500000000001
 10
65.04090447532815
 20
15.64371859204471
 30
0.0
 10
65.26060823916602
 20
15.53158822947839
 30
0.0
 10
65.52782317195508
 20
15.39840819483949
 30
0.0
 10
65.84205262066165
 20
15.25040599768884
 30
0.0
  0
SPLINE
  5
22C
330
1F
100
AcDbEntity
  8
SK3
  6
SLD-Dashed
370
    18
100
AcDbSpline
210
0.0
220
0.0
230
1.0
 70
     8
 71
     3
 72
     8
 73
     4
 74
     0
 42
0.000000001
 43
0.00000001
 40
0.0937500000000001
 40
0.0937500000000001
 40
0.0937500000000001
 40
0.0937500000000001
 40
0.1093750000000001
 40
0.1093750000000001
 40
0.1093750000000001
 40
0.1093750000000001
 10
65.84205262066165
 20
15.25040599768884
 30
0.0
 10
65.99916734501492
 20
15.17640489911348
 30
0.0
 10
66.16767344414221
 20
15.09893775199648
 30
0.0
 10
66.34475893096645
 20
15.02017878656583
 30
0.0
  0
SPLINE
  5
22D
330
1F
100
AcDbEntity
  8
SK3
  6
SLD-Dashed
370
    18
100
AcDbSpline
210
0.0
220
0.0
230
1.0
 70
     8
 71
     3
 72
     8
 73
     4
 74
     0
 42
0.000000001
 43
0.00000001
 40
0.1093750000000001
 40
0.1093750000000001
 40
0.1093750000000001
 40
0.1093750000000001
 40
0.1250000000000001
 40
0.1250000000000001
 40
0.1250000000000001
 40
0.1250000000000001
 10
66.34475893096645
 20
15.02017878656583
 30
0.0
 10
66.52184441779069
 20
14.94141982113519
 30
0.0
 10
66.70821057525944
 20
14.86103157547695
 30
0.0
 10
66.90387860800675
 20
14.77999584355547
 30
0.0
  0
SPLINE
  5
22E
330
1F
100
AcDbEntity
  8
SK3
  6
SLD-Dashed
370
    18
100
AcDbSpline
210
0.0
220
0.0
230
1.0
 70
     8
 71
     3
 72
     8
 73
     4
 74
     0
 42
0.000000001
 43
0.00000001
 40
0.1250000000000001
 40
0.1250000000000001
 40
0.1250000000000001
 40
0.1250000000000001
 40
0.1406250000000001
 40
0.1406250000000001
 40
0.1406250000000001
 40
0.1406250000000001
 10
66.90387860800675
 20
14.77999584355547
 30
0.0
 10
67.0995466407541
 20
14.69896011163398
 30
0.0
 10
67.30451506972842
 20
14.61727181832291
 30
0.0
 10
67.51916001249394
 20
14.53597000574852
 30
0.0
  0
SPLINE
  5
22F
330
1F
100
AcDbEntity
  8
SK3
  6
SLD-Dashed
370
    18
100
AcDbSpline
210
0.0
220
0.0
230
1.0
 70
     8
 71
     3
 72
     8
 73
     4
 74
     0
 42
0.000000001
 43
0.00000001
 40
0.1406250000000001
 40
0.1406250000000001
 40
0.1406250000000001
 40
0.1406250000000001
 40
0.15625
 40
0.15625
 40
0.15625
 40
0.15625
 10
67.51916001249394
 20
14.53597000574852
 30
0.0
 10
67.73380495525943
 20
14.45466819317411
 30
0.0
 10
67.95924423479799
 20
14.37339906795847
 30
0.0
 10
68.19066526767182
 20
14.29513701732845
 30
0.0
  0
SPLINE
  5
230
330
1F
100
AcDbEntity
  8
SK3
  6
SLD-Dashed
370
    18
100
AcDbSpline
210
0.0
220
0.0
230
1.0
 70
     8
 71
     3
 72
     8
 73
     4
 74
     0
 42
0.000000001
 43
0.00000001
 40
0.15625
 40
0.15625
 40
0.15625
 40
0.15625
 40
0.1875000000000007
 40
0.1875000000000007
 40
0.1875000000000007
 40
0.1875000000000007
 10
68.19066526767182
 20
14.29513701732845
 30
0.0
 10
68.65350733341951
 20
14.13861291606842
 30
0.0
 10
69.14234143155839
 20
13.99297718360785
 30
0.0
 10
69.65957813338774
 20
13.86745161809737
 30
0.0
  0
SPLINE
  5
231
330
1F
100
AcDbEntity
  8
SK3
  6
SLD-Dashed
370
    18
100
AcDbSpline
210
0.0
220
0.0
230
1.0
 70
     8
 71
     3
 72
     8
 73
     4
 74
     0
 42
0.000000001
 43
0.00000001
 40
0.1875000000000007
 40
0.1875000000000007
 40
0.1875000000000007
 40
0.1875000000000007
 40
0.203125000000001
 40
0.203125000000001
 40
0.203125000000001
 40
0.203125000000001
 10
69.65957813338774
 20
13.86745161809737
 30
0.0
 10
69.91819648430244
 20
13.80468883534212
 30
0.0
 10
70.18397110619779
 20
13.74697623823147
 30
0.0
 10
70.45759601462056
 20
13.69568228545558
 30
0.0
  0
SPLINE
  5
232
330
1F
100
AcDbEntity
  8
SK3
  6
SLD-Dashed
370
    18
100
AcDbSpline
210
0.0
220
0.0
230
1.0
 70
     8
 71
     3
 72
     8
 73
     4
 74
     0
 42
0.000000001
 43
0.00000001
 40
0.203125000000001
 40
0.203125000000001
 40
0.203125000000001
 40
0.203125000000001
 40
0.2187500000000013
 40
0.2187500000000013
 40
0.2187500000000013
 40
0.2187500000000013
 10
70.45759601462056
 20
13.69568228545558
 30
0.0
 10
70.73122092304335
 20
13.6443883326797
 30
0.0
 10
71.01081959382951
 20
13.59999492016869
 30
0.0
 10
71.290986867209
 20
13.56417898675371
 30
0.0
  0
SPLINE
  5
233
330
1F
100
AcDbEntity
  8
SK3
  6
SLD-Dashed
370
    18
100
AcDbSpline
210
0.0
220
0.0
230
1.0
 70
     8
 71
     3
 72
     8
 73
     4
 74
     0
 42
0.000000001
 43
0.00000001
 40
0.2187500000000013
 40
0.2187500000000013
 40
0.2187500000000013
 40
0.2187500000000013
 40
0.2500000000000012
 40
0.2500000000000012
 40
0.2500000000000012
 40
0.2500000000000012
 10
71.290986867209
 20
13.56417898675371
 30
0.0
 10
71.85132141396805
 20
13.49254711992377
 30
0.0
 10
72.42022517163704
 20
13.45406484078226
 30
0.0
 10
72.9981898935107
 20
13.45291302364695
 30
0.0
  0
SPLINE
  5
234
330
1F
100
AcDbEntity
  8
SK3
  6
SLD-Dashed
370
    18
100
AcDbSpline
210
0.0
220
0.0
230
1.0
 70
     8
 71
     3
 72
     8
 73
     4
 74
     0
 42
0.000000001
 43
0.00000001
 40
0.2500000000000012
 40
0.2500000000000012
 40
0.2500000000000012
 40
0.2500000000000012
 40
0.2656250000000014
 40
0.2656250000000014
 40
0.2656250000000014
 40
0.2656250000000014
 10
72.9981898935107
 20
13.45291302364695
 30
0.0
 10
73.28717225444753
 20
13.4523371150793
 30
0.0
 10
73.58051620279271
 20
13.46127088700447
 30
0.0
 10
73.86906581394528
 20
13.47933964028918
 30
0.0
  0
SPLINE
  5
235
330
1F
100
AcDbEntity
  8
SK3
  6
SLD-Dashed
370
    18
100
AcDbSpline
210
0.0
220
0.0
230
1.0
 70
     8
 71
     3
 72
     8
 73
     4
 74
     0
 42
0.000000001
 43
0.00000001
 40
0.2656250000000014
 40
0.2656250000000014
 40
0.2656250000000014
 40
0.2656250000000014
 40
0.2812500000000018
 40
0.2812500000000018
 40
0.2812500000000018
 40
0.2812500000000018
 10
73.86906581394528
 20
13.47933964028918
 30
0.0
 10
74.15761542509789
 20
13.49740839357387
 30
0.0
 10
74.44212370056566
 20
13.52445342842356
 30
0.0
 10
74.72280901481693
 20
13.55959827910818
 30
0.0
  0
SPLINE
  5
236
330
1F
100
AcDbEntity
  8
SK3
  6
SLD-Dashed
370
    18
100
AcDbSpline
210
0.0
220
0.0
230
1.0
 70
     8
 71
     3
 72
     8
 73
     4
 74
     0
 42
0.000000001
 43
0.00000001
 40
0.2812500000000018
 40
0.2812500000000018
 40
0.2812500000000018
 40
0.2812500000000018
 40
0.2968750000000021
 40
0.2968750000000021
 40
0.2968750000000021
 40
0.2968750000000021
 10
74.72280901481693
 20
13.55959827910818
 30
0.0
 10
75.00349432906825
 20
13.59474312979278
 30
0.0
 10
75.2803562460088
 20
13.6379877341337
 30
0.0
 10
75.5535200668552
 20
13.68844636065353
 30
0.0
  0
SPLINE
  5
237
330
1F
100
AcDbEntity
  8
SK3
  6
SLD-Dashed
370
    18
100
AcDbSpline
210
0.0
220
0.0
230
1.0
 70
     8
 71
     3
 72
     8
 73
     4
 74
     0
 42
0.000000001
 43
0.00000001
 40
0.2968750000000021
 40
0.2968750000000021
 40
0.2968750000000021
 40
0.2968750000000021
 40
0.3125000000000023
 40
0.3125000000000023
 40
0.3125000000000023
 40
0.3125000000000023
 10
75.5535200668552
 20
13.68844636065353
 30
0.0
 10
75.8266838877016
 20
13.73890498717337
 30
0.0
 10
76.09719914056507
 20
13.79688741447944
 30
0.0
 10
76.35875879775533
 20
13.85980150513024
 30
0.0
  0
SPLINE
  5
238
330
1F
100
AcDbEntity
  8
SK3
  6
SLD-Dashed
370
    18
100
AcDbSpline
210
0.0
220
0.0
230
1.0
 70
     8
 71
     3
 72
     8
 73
     4
 74
     0
 42
0.000000001
 43
0.00000001
 40
0.3125000000000023
 40
0.3125000000000023
 40
0.3125000000000023
 40
0.3125000000000023
 40
0.3437500000000023
 40
0.3437500000000023
 40
0.3437500000000023
 40
0.3437500000000023
 10
76.35875879775533
 20
13.85980150513024
 30
0.0
 10
76.88187811213581
 20
13.98562968643185
 30
0.0
 10
77.3742521032079
 20
14.13168794361563
 30
0.0
 10
77.83908256936628
 20
14.28830084456079
 30
0.0
  0
SPLINE
  5
239
330
1F
100
AcDbEntity
  8
SK3
  6
SLD-Dashed
370
    18
100
AcDbSpline
210
0.0
220
0.0
230
1.0
 70
     8
 71
     3
 72
     8
 73
     4
 74
     0
 42
0.000000001
 43
0.00000001
 40
0.3437500000000023
 40
0.3437500000000023
 40
0.3437500000000023
 40
0.3437500000000023
 40
0.3593750000000019
 40
0.3593750000000019
 40
0.3593750000000019
 40
0.3593750000000019
 10
77.83908256936628
 20
14.28830084456079
 30
0.0
 10
78.07149780244549
 20
14.36660729503336
 30
0.0
 10
78.29754872305305
 20
14.44784315561518
 30
0.0
 10
78.51286868372593
 20
14.5291724722993
 30
0.0
  0
SPLINE
  5
23A
330
1F
100
AcDbEntity
  8
SK3
  6
SLD-Dashed
370
    18
100
AcDbSpline
210
0.0
220
0.0
230
1.0
 70
     8
 71
     3
 72
     8
 73
     4
 74
     0
 42
0.000000001
 43
0.00000001
 40
0.3593750000000019
 40
0.3593750000000019
 40
0.3593750000000019
 40
0.3593750000000019
 40
0.3750000000000017
 40
0.3750000000000017
 40
0.3750000000000017
 40
0.3750000000000017
 10
78.51286868372593
 20
14.5291724722993
 30
0.0
 10
78.72818864439878
 20
14.61050178898342
 30
0.0
 10
78.93376792333798
 20
14.69223455367594
 30
0.0
 10
79.13000338889267
 20
14.77332787216173
 30
0.0
  0
SPLINE
  5
23B
330
1F
100
AcDbEntity
  8
SK3
  6
SLD-Dashed
370
    18
100
AcDbSpline
210
0.0
220
0.0
230
1.0
 70
     8
 71
     3
 72
     8
 73
     4
 74
     0
 42
0.000000001
 43
0.00000001
 40
0.3750000000000017
 40
0.3750000000000017
 40
0.3750000000000017
 40
0.3750000000000017
 40
0.4062500000000004
 40
0.4062500000000004
 40
0.4062500000000004
 40
0.4062500000000004
 10
79.13000338889267
 20
14.77332787216173
 30
0.0
 10
79.52247432000212
 20
14.93551450913337
 30
0.0
 10
79.87900404348885
 20
15.09568461076834
 30
0.0
 10
80.19513056160133
 20
15.24437346401647
 30
0.0
  0
SPLINE
  5
23C
330
1F
100
AcDbEntity
  8
SK3
  6
SLD-Dashed
370
    18
100
AcDbSpline
210
0.0
220
0.0
230
1.0
 70
     8
 71
     3
 72
     8
 73
     4
 74
     0
 42
0.000000001
 43
0.00000001
 40
0.4062500000000004
 40
0.4062500000000004
 40
0.4062500000000004
 40
0.4062500000000004
 40
0.4374999999999993
 40
0.4374999999999993
 40
0.4374999999999993
 40
0.4374999999999993
 10
80.19513056160133
 20
15.24437346401647
 30
0.0
 10
80.51125707971381
 20
15.39306231726458
 30
0.0
 10
80.77900264844334
 20
15.52639365887266
 30
0.0
 10
80.99897368235712
 20
15.63855512273827
 30
0.0
  0
SPLINE
  5
23D
330
1F
100
AcDbEntity
  8
SK3
  6
SLD-Dashed
370
    18
100
AcDbSpline
210
0.0
220
0.0
230
1.0
 70
     8
 71
     3
 72
     8
 73
     4
 74
     0
 42
0.000000001
 43
0.00000001
 40
0.4374999999999993
 40
0.4374999999999993
 40
0.4374999999999993
 40
0.4374999999999993
 40
0.4531249999999988
 40
0.4531249999999988
 40
0.4531249999999988
 40
0.4531249999999988
 10
80.99897368235712
 20
15.63855512273827
 30
0.0
 10
81.10895919931399
 20
15.69463585467107
 30
0.0
 10
81.20690278284238
 20
15.74542457072593
 30
0.0
 10
81.29225736155522
 20
15.79011381599858
 30
0.0
  0
SPLINE
  5
23E
330
1F
100
AcDbEntity
  8
SK3
  6
SLD-Dashed
370
    18
100
AcDbSpline
210
0.0
220
0.0
230
1.0
 70
     8
 71
     3
 72
     8
 73
     4
 74
     0
 42
0.000000001
 43
0.00000001
 40
0.4531249999999988
 40
0.4531249999999988
 40
0.4531249999999988
 40
0.4531249999999988
 40
0.4687499999999984
 40
0.4687499999999984
 40
0.4687499999999984
 40
0.4687499999999984
 10
81.29225736155522
 20
15.79011381599858
 30
0.0
 10
81.3776119402681
 20
15.83480306127122
 30
0.0
 10
81.45060718027958
 20
15.87351853266343
 30
0.0
 10
81.5087149872902
 20
15.90451413987778
 30
0.0
  0
SPLINE
  5
23F
330
1F
100
AcDbEntity
  8
SK3
  6
SLD-Dashed
370
    18
100
AcDbSpline
210
0.0
220
0.0
230
1.0
 70
     8
 71
     3
 72
     8
 73
     4
 74
     0
 42
0.000000001
 43
0.00000001
 40
0.4687499999999984
 40
0.4687499999999984
 40
0.4687499999999984
 40
0.4687499999999984
 40
0.4999999999999976
 40
0.4999999999999976
 40
0.4999999999999976
 40
0.4999999999999976
 10
81.5087149872902
 20
15.90451413987778
 30
0.0
 10
81.62493060131146
 20
15.96650535430648
 30
0.0
 10
81.68419553855469
 20
15.99880664809526
 30
0.0
 10
81.68634023010682
 20
15.99996764439441
 30
0.0
  0
SPLINE
  5
240
330
1F
100
AcDbEntity
  8
SK3
  6
SLD-Dashed
370
    18
100
AcDbSpline
210
0.0
220
0.0
230
1.0
 70
     8
 71
     3
 72
     8
 73
     4
 74
     0
 42
0.000000001
 43
0.00000001
 40
0.5156249999999971
 40
0.5156249999999971
 40
0.5156249999999971
 40
0.5156249999999971
 40
0.5312499999999967
 40
0.5312499999999967
 40
0.5312499999999967
 40
0.5312499999999967
 10
81.6457568605289
 20
15.97803488819437
 30
0.0
 10
81.61756900083311
 20
15.96282646697383
 30
0.0
 10
81.57507339221503
 20
15.93993872955497
 30
0.0
 10
81.51887180681122
 20
15.90993426480896
 30
0.0
  0
SPLINE
  5
241
330
1F
100
AcDbEntity
  8
SK3
  6
SLD-Dashed
370
    18
100
AcDbSpline
210
0.0
220
0.0
230
1.0
 70
     8
 71
     3
 72
     8
 73
     4
 74
     0
 42
0.000000001
 43
0.00000001
 40
0.5312499999999967
 40
0.5312499999999967
 40
0.5312499999999967
 40
0.5312499999999967
 40
0.5468749999999962
 40
0.5468749999999962
 40
0.5468749999999962
 40
0.5468749999999962
 10
81.51887180681122
 20
15.90993426480896
 30
0.0
 10
81.46267022140741
 20
15.87992980006296
 30
0.0
 10
81.3927593020744
 20
15.84280576779051
 30
0.0
 10
81.3092928969342
 20
15.79903980760205
 30
0.0
  0
SPLINE
  5
242
330
1F
100
AcDbEntity
  8
SK3
  6
SLD-Dashed
370
    18
100
AcDbSpline
210
0.0
220
0.0
230
1.0
 70
     8
 71
     3
 72
     8
 73
     4
 74
     0
 42
0.000000001
 43
0.00000001
 40
0.5468749999999962
 40
0.5468749999999962
 40
0.5468749999999962
 40
0.5468749999999962
 40
0.5624999999999959
 40
0.5624999999999959
 40
0.5624999999999959
 40
0.5624999999999959
 10
81.3092928969342
 20
15.79903980760205
 30
0.0
 10
81.225826491794
 20
15.7552738474136
 30
0.0
 10
81.12831252922645
 20
15.70461239315414
 30
0.0
 10
81.01812434111999
 20
15.64832856162614
 30
0.0
  0
SPLINE
  5
243
330
1F
100
AcDbEntity
  8
SK3
  6
SLD-Dashed
370
    18
100
AcDbSpline
210
0.0
220
0.0
230
1.0
 70
     8
 71
     3
 72
     8
 73
     4
 74
     0
 42
0.000000001
 43
0.00000001
 40
0.5624999999999959
 40
0.5624999999999959
 40
0.5624999999999959
 40
0.5624999999999959
 40
0.5937499999999953
 40
0.5937499999999953
 40
0.5937499999999953
 40
0.5937499999999953
 10
81.01812434111999
 20
15.64832856162614
 30
0.0
 10
80.7977479649071
 20
15.53576089857011
 30
0.0
 10
80.5304736622252
 20
15.40248817633649
 30
0.0
 10
80.21858983186847
 20
15.2554214857919
 30
0.0
  0
SPLINE
  5
244
330
1F
100
AcDbEntity
  8
SK3
  6
SLD-Dashed
370
    18
100
AcDbSpline
210
0.0
220
0.0
230
1.0
 70
     8
 71
     3
 72
     8
 73
     4
 74
     0
 42
0.000000001
 43
0.00000001
 40
0.5937499999999953
 40
0.5937499999999953
 40
0.5937499999999953
 40
0.5937499999999953
 40
0.6249999999999948
 40
0.6249999999999948
 40
0.6249999999999948
 40
0.6249999999999948
 10
80.21858983186847
 20
15.2554214857919
 30
0.0
 10
79.90670600151174
 20
15.10835479524731
 30
0.0
 10
79.54742723766012
 20
14.94641026256872
 30
0.0
 10
79.1557532112207
 20
14.7839874518647
 30
0.0
  0
SPLINE
  5
245
330
1F
100
AcDbEntity
  8
SK3
  6
SLD-Dashed
370
    18
100
AcDbSpline
210
0.0
220
0.0
230
1.0
 70
     8
 71
     3
 72
     8
 73
     4
 74
     0
 42
0.000000001
 43
0.00000001
 40
0.6249999999999948
 40
0.6249999999999948
 40
0.6249999999999948
 40
0.6249999999999948
 40
0.6562499999999943
 40
0.6562499999999943
 40
0.6562499999999943
 40
0.6562499999999943
 10
79.1557532112207
 20
14.7839874518647
 30
0.0
 10
78.7640791847813
 20
14.62156464116066
 30
0.0
 10
78.33762808981021
 20
14.45729492174239
 30
0.0
 10
77.8733314543136
 20
14.29987650054663
 30
0.0
  0
SPLINE
  5
246
330
1F
100
AcDbEntity
  8
SK3
  6
SLD-Dashed
370
    18
100
AcDbSpline
210
0.0
220
0.0
230
1.0
 70
     8
 71
     3
 72
     8
 73
     4
 74
     0
 42
0.000000001
 43
0.00000001
 40
0.6562499999999943
 40
0.6562499999999943
 40
0.6562499999999943
 40
0.6562499999999943
 40
0.671874999999994
 40
0.671874999999994
 40
0.671874999999994
 40
0.671874999999994
 10
77.8733314543136
 20
14.29987650054663
 30
0.0
 10
77.64118313656526
 20
14.22116728994876
 30
0.0
 10
77.39982093387948
 20
14.14439326495651
 30
0.0
 10
77.15373040177192
 20
14.07219118582872
 30
0.0
  0
SPLINE
  5
247
330
1F
100
AcDbEntity
  8
SK3
  6
SLD-Dashed
370
    18
100
AcDbSpline
210
0.0
220
0.0
230
1.0
 70
     8
 71
     3
 72
     8
 73
     4
 74
     0
 42
0.000000001
 43
0.00000001
 40
0.671874999999994
 40
0.671874999999994
 40
0.671874999999994
 40
0.671874999999994
 40
0.6874999999999937
 40
0.6874999999999937
 40
0.6874999999999937
 40
0.6874999999999937
 10
77.15373040177192
 20
14.07219118582872
 30
0.0
 10
76.90763986966437
 20
13.99998910670093
 30
0.0
 10
76.65560460823464
 20
13.93193110702555
 30
0.0
 10
76.39738405985888
 20
13.86914288221121
 30
0.0
  0
SPLINE
  5
248
330
1F
100
AcDbEntity
  8
SK3
  6
SLD-Dashed
370
    18
100
AcDbSpline
210
0.0
220
0.0
230
1.0
 70
     8
 71
     3
 72
     8
 73
     4
 74
     0
 42
0.000000001
 43
0.00000001
 40
0.6874999999999937
 40
0.6874999999999937
 40
0.6874999999999937
 40
0.6874999999999937
 40
0.7187499999999938
 40
0.7187499999999938
 40
0.7187499999999938
 40
0.7187499999999938
 10
76.39738405985888
 20
13.86914288221121
 30
0.0
 10
75.8809429631073
 20
13.74356643258253
 30
0.0
 10
75.33829330918657
 20
13.63869600983395
 30
0.0
 10
74.77014795899656
 20
13.56560693219421
 30
0.0
  0
SPLINE
  5
249
330
1F
100
AcDbEntity
  8
SK3
  6
SLD-Dashed
370
    18
100
AcDbSpline
210
0.0
220
0.0
230
1.0
 70
     8
 71
     3
 72
     8
 73
     4
 74
     0
 42
0.000000001
 43
0.00000001
 40
0.7187499999999938
 40
0.7187499999999938
 40
0.7187499999999938
 40
0.7187499999999938
 40
0.7499999999999939
 40
0.7499999999999939
 40
0.7499999999999939
 40
0.7499999999999939
 10
74.77014795899656
 20
13.56560693219421
 30
0.0
 10
74.20200260880655
 20
13.49251785455446
 30
0.0
 10
73.63020359323374
 20
13.45419167567091
 30
0.0
 10
73.0547477714994
 20
13.45291919881737
 30
0.0
  0
SPLINE
  5
24A
330
1F
100
AcDbEntity
  8
SK3
  6
SLD-Dashed
370
    18
100
AcDbSpline
210
0.0
220
0.0
230
1.0
 70
     8
 71
     3
 72
     8
 73
     4
 74
     0
 42
0.000000001
 43
0.00000001
 40
0.7499999999999939
 40
0.7499999999999939
 40
0.7499999999999939
 40
0.7499999999999939
 40
0.7656249999999944
 40
0.7656249999999944
 40
0.7656249999999944
 40
0.7656249999999944
 10
73.0547477714994
 20
13.45291919881737
 30
0.0
 10
72.76701986063222
 20
13.45228296039061
 30
0.0
 10
72.47837361598123
 20
13.46088446720301
 30
0.0
 10
72.18878325085542
 20
13.47885041431759
 30
0.0
  0
SPLINE
  5
24B
330
1F
100
AcDbEntity
  8
SK3
  6
SLD-Dashed
370
    18
100
AcDbSpline
210
0.0
220
0.0
230
1.0
 70
     8
 71
     3
 72
     8
 73
     4
 74
     0
 42
0.000000001
 43
0.00000001
 40
0.7656249999999944
 40
0.7656249999999944
 40
0.7656249999999944
 40
0.7656249999999944
 40
0.7812499999999949
 40
0.7812499999999949
 40
0.7812499999999949
 40
0.7812499999999949
 10
72.18878325085542
 20
13.47885041431759
 30
0.0
 10
71.8991928857296
 20
13.49681636143218
 30
0.0
 10
71.61036351747747
 20
13.52416447882846
 30
0.0
 10
71.32828653844997
 20
13.55946114750158
 30
0.0
  0
SPLINE
  5
24C
330
1F
100
AcDbEntity
  8
SK3
  6
SLD-Dashed
370
    18
100
AcDbSpline
210
0.0
220
0.0
230
1.0
 70
     8
 71
     3
 72
     8
 73
     4
 74
     0
 42
0.000000001
 43
0.00000001
 40
0.7812499999999949
 40
0.7812499999999949
 40
0.7812499999999949
 40
0.7812499999999949
 40
0.8124999999999958
 40
0.8124999999999958
 40
0.8124999999999958
 40
0.8124999999999958
 10
71.32828653844997
 20
13.55946114750158
 30
0.0
 10
70.7641325803949
 20
13.63005448484781
 30
0.0
 10
70.21952711146076
 20
13.73278921192533
 30
0.0
 10
69.69287635532056
 20
13.85940828547283
 30
0.0
  0
SPLINE
  5
24D
330
1F
100
AcDbEntity
  8
SK3
  6
SLD-Dashed
370
    18
100
AcDbSpline
210
0.0
220
0.0
230
1.0
 70
     8
 71
     3
 72
     8
 73
     4
 74
     0
 42
0.000000001
 43
0.00000001
 40
0.8124999999999958
 40
0.8124999999999958
 40
0.8124999999999958
 40
0.8124999999999958
 40
0.8437499999999967
 40
0.8437499999999967
 40
0.8437499999999967
 40
0.8437499999999967
 10
69.69287635532056
 20
13.85940828547283
 30
0.0
 10
69.16622559918036
 20
13.98602735902032
 30
0.0
 10
68.67170703923117
 20
14.13297290954928
 30
0.0
 10
68.20824903748391
 20
14.28920011319386
 30
0.0
  0
SPLINE
  5
24E
330
1F
100
AcDbEntity
  8
SK3
  6
SLD-Dashed
370
    18
100
AcDbSpline
210
0.0
220
0.0
230
1.0
 70
     8
 71
     3
 72
     8
 73
     4
 74
     0
 42
0.000000001
 43
0.00000001
 40
0.8437499999999967
 40
0.8437499999999967
 40
0.8437499999999967
 40
0.8437499999999967
 40
0.8749999999999977
 40
0.8749999999999977
 40
0.8749999999999977
 40
0.8749999999999977
 10
68.20824903748391
 20
14.28920011319386
 30
0.0
 10
67.74479103573667
 20
14.44542731683842
 30
0.0
 10
67.30830021596148
 20
14.61274594335157
 30
0.0
 10
66.91464500377047
 20
14.77554020061354
 30
0.0
  0
SPLINE
  5
24F
330
1F
100
AcDbEntity
  8
SK3
  6
SLD-Dashed
370
    18
100
AcDbSpline
210
0.0
220
0.0
230
1.0
 70
     8
 71
     3
 72
     8
 73
     4
 74
     0
 42
0.000000001
 43
0.00000001
 40
0.8749999999999977
 40
0.8749999999999977
 40
0.8749999999999977
 40
0.8749999999999977
 40
0.9062499999999986
 40
0.9062499999999986
 40
0.9062499999999986
 40
0.9062499999999986
 10
66.91464500377047
 20
14.77554020061354
 30
0.0
 10
66.52098979157947
 20
14.93833445787549
 30
0.0
 10
66.16696948533443
 20
15.09753973573333
 30
0.0
 10
65.85245067356854
 20
15.24551126988175
 30
0.0
  0
SPLINE
  5
250
330
1F
100
AcDbEntity
  8
SK3
  6
SLD-Dashed
370
    18
100
AcDbSpline
210
0.0
220
0.0
230
1.0
 70
     8
 71
     3
 72
     8
 73
     4
 74
     0
 42
0.000000001
 43
0.00000001
 40
0.9062499999999986
 40
0.9062499999999986
 40
0.9062499999999986
 40
0.9062499999999986
 40
0.9218749999999988
 40
0.9218749999999988
 40
0.9218749999999988
 40
0.9218749999999988
 10
65.85245067356854
 20
15.24551126988175
 30
0.0
 10
65.69519126768562
 20
15.31949703695597
 30
0.0
 10
65.54717271073326
 20
15.39104482048241
 30
0.0
 10
65.4122418663258
 20
15.45749774193166
 30
0.0
  0
SPLINE
  5
251
330
1F
100
AcDbEntity
  8
SK3
  6
SLD-Dashed
370
    18
100
AcDbSpline
210
0.0
220
0.0
230
1.0
 70
     8
 71
     3
 72
     8
 73
     4
 74
     0
 42
0.000000001
 43
0.00000001
 40
0.9218749999999988
 40
0.9218749999999988
 40
0.9218749999999988
 40
0.9218749999999988
 40
0.937499999999999
 40
0.937499999999999
 40
0.937499999999999
 40
0.937499999999999
 10
65.4122418663258
 20
15.45749774193166
 30
0.0
 10
65.27731102191831
 20
15.52395066338091
 30
0.0
 10
65.15503180826728
 20
15.58549444205625
 30
0.0
 10
65.04526792957385
 20
15.64149206296469
 30
0.0
  0
SPLINE
  5
252
330
1F
100
AcDbEntity
  8
SK3
  6
SLD-Dashed
370
    18
100
AcDbSpline
210
0.0
220
0.0
230
1.0
 70
     8
 71
     3
 72
     8
 73
     4
 74
     0
 42
0.000000001
 43
0.00000001
 40
0.937499999999999
 40
0.937499999999999
 40
0.937499999999999
 40
0.937499999999999
 40
0.9687499999999996
 40
0.9687499999999996
 40
0.9687499999999996
 40
0.9687499999999996
 10
65.04526792957385
 20
15.64149206296469
 30
0.0
 10
64.82574017218695
 20
15.75348730478159
 30
0.0
 10
64.65582784678416
 20
15.84340604662644
 30
0.0
 10
64.53951966623367
 20
15.90545587321327
 30
0.0
  0
SPLINE
  5
253
330
1F
100
AcDbEntity
  8
SK3
  6
SLD-Dashed
370
    18
100
AcDbSpline
210
0.0
220
0.0
230
1.0
 70
     8
 71
     2
 72
     6
 73
     3
 74
     0
 42
0.000000001
 43
0.00000001
 40
0.9687499999999996
 40
0.9687499999999996
 40
0.9687499999999996
 40
1.0
 40
1.0
 40
1.0
 10
64.53951966623369
 20
15.90545587321325
 30
0.0
 10
64.42321148568281
 20
15.96750569980008
 30
0.0
 10
64.36359999999999
 20
15.99999999999999
 30
0.0
  0
SPLINE
  5
254
330
1F
100
AcDbEntity
  8
SK3
  6
SLD-Dashed
370
    18
100
AcDbSpline
210
0.0
220
0.0
230
1.0
 70
     8
 71
     2
 72
     6
 73
     3
 74
     0
 42
0.000000001
 43
0.00000001
 40
0.0
 40
0.0
 40
0.0
 40
0.03125
 40
0.03125
 40
0.03125
 10
64.36359999999999
 20
15.99999999999999
 30
0.0
 10
64.42209836592738
 20
15.96811929610503
 30
0.0
 10
64.53571728721036
 20
15.90748474830853
 30
0.0
  0
SPLINE
  5
255
330
1F
100
AcDbEntity
  8
SK3
  6
SLD-Dashed
370
    18
100
AcDbSpline
210
0.0
220
0.0
230
1.0
 70
     8
 71
     3
 72
     8
 73
     4
 74
     0
 42
0.000000001
 43
0.00000001
 40
0.03125
 40
0.03125
 40
0.03125
 40
0.03125
 40
0.0625000000000001
 40
0.0625000000000001
 40
0.0625000000000001
 40
0.0625000000000001
 10
64.53571728721036
 20
15.90748474830853
 30
0.0
 10
64.64933620849337
 20
15.84685020051203
 30
0.0
 10
64.8212007114903
 20
15.755848954611
 30
0.0
 10
65.04090447532815
 20
15.64371859204471
 30
0.0
  0
SPLINE
  5
256
330
1F
100
AcDbEntity
  8
SK3
  6
SLD-Dashed
370
    18
100
AcDbSpline
210
0.0
220
0.0
230
1.0
 70
     8
 71
     3
 72
     8
 73
     4
 74
     0
 42
0.000000001
 43
0.00000001
 40
0.0625000000000001
 40
0.0625000000000001
 40
0.0625000000000001
 40
0.0625000000000001
 40
0.0937500000000001
 40
0.0937500000000001
 40
0.0937500000000001
 40
0.0937500000000001
 10
65.04090447532815
 20
15.64371859204471
 30
0.0
 10
65.26060823916602
 20
15.53158822947839
 30
0.0
 10
65.52782317195508
 20
15.39840819483949
 30
0.0
 10
65.84205262066165
 20
15.25040599768884
 30
0.0
  0
SPLINE
  5
257
330
1F
100
AcDbEntity
  8
SK3
  6
SLD-Dashed
370
    18
100
AcDbSpline
210
0.0
220
0.0
230
1.0
 70
     8
 71
     3
 72
     8
 73
     4
 74
     0
 42
0.000000001
 43
0.00000001
 40
0.0937500000000001
 40
0.0937500000000001
 40
0.0937500000000001
 40
0.0937500000000001
 40
0.1093750000000001
 40
0.1093750000000001
 40
0.1093750000000001
 40
0.1093750000000001
 10
65.84205262066165
 20
15.25040599768884
 30
0.0
 10
65.99916734501492
 20
15.17640489911348
 30
0.0
 10
66.16767344414221
 20
15.09893775199648
 30
0.0
 10
66.34475893096645
 20
15.02017878656583
 30
0.0
  0
SPLINE
  5
258
330
1F
100
AcDbEntity
  8
SK3
  6
SLD-Dashed
370
    18
100
AcDbSpline
210
0.0
220
0.0
230
1.0
 70
     8
 71
     3
 72
     8
 73
     4
 74
     0
 42
0.000000001
 43
0.00000001
 40
0.1093750000000001
 40
0.1093750000000001
 40
0.1093750000000001
 40
0.1093750000000001
 40
0.1250000000000001
 40
0.1250000000000001
 40
0.1250000000000001
 40
0.1250000000000001
 10
66.34475893096645
 20
15.02017878656583
 30
0.0
 10
66.52184441779069
 20
14.94141982113519
 30
0.0
 10
66.70821057525944
 20
14.86103157547695
 30
0.0
 10
66.90387860800675
 20
14.77999584355547
 30
0.0
  0
SPLINE
  5
259
330
1F
100
AcDbEntity
  8
SK3
  6
SLD-Dashed
370
    18
100
AcDbSpline
210
0.0
220
0.0
230
1.0
 70
     8
 71
     3
 72
     8
 73
     4
 74
     0
 42
0.000000001
 43
0.00000001
 40
0.1250000000000001
 40
0.1250000000000001
 40
0.1250000000000001
 40
0.1250000000000001
 40
0.1406250000000001
 40
0.1406250000000001
 40
0.1406250000000001
 40
0.1406250000000001
 10
66.90387860800675
 20
14.77999584355547
 30
0.0
 10
67.0995466407541
 20
14.69896011163398
 30
0.0
 10
67.30451506972842
 20
14.61727181832291
 30
0.0
 10
67.51916001249394
 20
14.53597000574852
 30
0.0
  0
SPLINE
  5
25A
330
1F
100
AcDbEntity
  8
SK3
  6
SLD-Dashed
370
    18
100
AcDbSpline
210
0.0
220
0.0
230
1.0
 70
     8
 71
     3
 72
     8
 73
     4
 74
     0
 42
0.000000001
 43
0.00000001
 40
0.1406250000000001
 40
0.1406250000000001
 40
0.1406250000000001
 40
0.1406250000000001
 40
0.15625
 40
0.15625
 40
0.15625
 40
0.15625
 10
67.51916001249394
 20
14.53597000574852
 30
0.0
 10
67.73380495525943
 20
14.45466819317411
 30
0.0
 10
67.95924423479799
 20
14.37339906795847
 30
0.0
 10
68.19066526767182
 20
14.29513701732845
 30
0.0
  0
SPLINE
  5
25B
330
1F
100
AcDbEntity
  8
SK3
  6
SLD-Dashed
370
    18
100
AcDbSpline
210
0.0
220
0.0
230
1.0
 70
     8
 71
     3
 72
     8
 73
     4
 74
     0
 42
0.000000001
 43
0.00000001
 40
0.15625
 40
0.15625
 40
0.15625
 40
0.15625
 40
0.1875000000000007
 40
0.1875000000000007
 40
0.1875000000000007
 40
0.1875000000000007
 10
68.19066526767182
 20
14.29513701732845
 30
0.0
 10
68.65350733341951
 20
14.13861291606842
 30
0.0
 10
69.14234143155839
 20
13.99297718360785
 30
0.0
 10
69.65957813338774
 20
13.86745161809737
 30
0.0
  0
SPLINE
  5
25C
330
1F
100
AcDbEntity
  8
SK3
  6
SLD-Dashed
370
    18
100
AcDbSpline
210
0.0
220
0.0
230
1.0
 70
     8
 71
     3
 72
     8
 73
     4
 74
     0
 42
0.000000001
 43
0.00000001
 40
0.1875000000000007
 40
0.1875000000000007
 40
0.1875000000000007
 40
0.1875000000000007
 40
0.203125000000001
 40
0.203125000000001
 40
0.203125000000001
 40
0.203125000000001
 10
69.65957813338774
 20
13.86745161809737
 30
0.0
 10
69.91819648430244
 20
13.80468883534212
 30
0.0
 10
70.18397110619779
 20
13.74697623823147
 30
0.0
 10
70.45759601462056
 20
13.69568228545558
 30
0.0
  0
SPLINE
  5
25D
330
1F
100
AcDbEntity
  8
SK3
  6
SLD-Dashed
370
    18
100
AcDbSpline
210
0.0
220
0.0
230
1.0
 70
     8
 71
     3
 72
     8
 73
     4
 74
     0
 42
0.000000001
 43
0.00000001
 40
0.203125000000001
 40
0.203125000000001
 40
0.203125000000001
 40
0.203125000000001
 40
0.2187500000000013
 40
0.2187500000000013
 40
0.2187500000000013
 40
0.2187500000000013
 10
70.45759601462056
 20
13.69568228545558
 30
0.0
 10
70.73122092304335
 20
13.6443883326797
 30
0.0
 10
71.01081959382951
 20
13.59999492016869
 30
0.0
 10
71.290986867209
 20
13.56417898675371
 30
0.0
  0
SPLINE
  5
25E
330
1F
100
AcDbEntity
  8
SK3
  6
SLD-Dashed
370
    18
100
AcDbSpline
210
0.0
220
0.0
230
1.0
 70
     8
 71
     3
 72
     8
 73
     4
 74
     0
 42
0.000000001
 43
0.00000001
 40
0.2187500000000013
 40
0.2187500000000013
 40
0.2187500000000013
 40
0.2187500000000013
 40
0.2500000000000012
 40
0.2500000000000012
 40
0.2500000000000012
 40
0.2500000000000012
 10
71.290986867209
 20
13.56417898675371
 30
0.0
 10
71.85132141396805
 20
13.49254711992377
 30
0.0
 10
72.42022517163704
 20
13.45406484078226
 30
0.0
 10
72.9981898935107
 20
13.45291302364695
 30
0.0
  0
SPLINE
  5
25F
330
1F
100
AcDbEntity
  8
SK3
  6
SLD-Dashed
370
    18
100
AcDbSpline
210
0.0
220
0.0
230
1.0
 70
     8
 71
     3
 72
     8
 73
     4
 74
     0
 42
0.000000001
 43
0.00000001
 40
0.2500000000000012
 40
0.2500000000000012
 40
0.2500000000000012
 40
0.2500000000000012
 40
0.2656250000000014
 40
0.2656250000000014
 40
0.2656250000000014
 40
0.2656250000000014
 10
72.9981898935107
 20
13.45291302364695
 30
0.0
 10
73.28717225444753
 20
13.4523371150793
 30
0.0
 10
73.58051620279271
 20
13.46127088700447
 30
0.0
 10
73.86906581394528
 20
13.47933964028918
 30
0.0
  0
SPLINE
  5
260
330
1F
100
AcDbEntity
  8
SK3
  6
SLD-Dashed
370
    18
100
AcDbSpline
210
0.0
220
0.0
230
1.0
 70
     8
 71
     3
 72
     8
 73
     4
 74
     0
 42
0.000000001
 43
0.00000001
 40
0.2656250000000014
 40
0.2656250000000014
 40
0.2656250000000014
 40
0.2656250000000014
 40
0.2812500000000018
 40
0.2812500000000018
 40
0.2812500000000018
 40
0.2812500000000018
 10
73.86906581394528
 20
13.47933964028918
 30
0.0
 10
74.15761542509789
 20
13.49740839357387
 30
0.0
 10
74.44212370056566
 20
13.52445342842356
 30
0.0
 10
74.72280901481693
 20
13.55959827910818
 30
0.0
  0
SPLINE
  5
261
330
1F
100
AcDbEntity
  8
SK3
  6
SLD-Dashed
370
    18
100
AcDbSpline
210
0.0
220
0.0
230
1.0
 70
     8
 71
     3
 72
     8
 73
     4
 74
     0
 42
0.000000001
 43
0.00000001
 40
0.2812500000000018
 40
0.2812500000000018
 40
0.2812500000000018
 40
0.2812500000000018
 40
0.2968750000000021
 40
0.2968750000000021
 40
0.2968750000000021
 40
0.2968750000000021
 10
74.72280901481693
 20
13.55959827910818
 30
0.0
 10
75.00349432906825
 20
13.59474312979278
 30
0.0
 10
75.2803562460088
 20
13.6379877341337
 30
0.0
 10
75.5535200668552
 20
13.68844636065353
 30
0.0
  0
SPLINE
  5
262
330
1F
100
AcDbEntity
  8
SK3
  6
SLD-Dashed
370
    18
100
AcDbSpline
210
0.0
220
0.0
230
1.0
 70
     8
 71
     3
 72
     8
 73
     4
 74
     0
 42
0.000000001
 43
0.00000001
 40
0.2968750000000021
 40
0.2968750000000021
 40
0.2968750000000021
 40
0.2968750000000021
 40
0.3125000000000023
 40
0.3125000000000023
 40
0.3125000000000023
 40
0.3125000000000023
 10
75.5535200668552
 20
13.68844636065353
 30
0.0
 10
75.8266838877016
 20
13.73890498717337
 30
0.0
 10
76.09719914056507
 20
13.79688741447944
 30
0.0
 10
76.35875879775533
 20
13.85980150513024
 30
0.0
  0
SPLINE
  5
263
330
1F
100
AcDbEntity
  8
SK3
  6
SLD-Dashed
370
    18
100
AcDbSpline
210
0.0
220
0.0
230
1.0
 70
     8
 71
     3
 72
     8
 73
     4
 74
     0
 42
0.000000001
 43
0.00000001
 40
0.3125000000000023
 40
0.3125000000000023
 40
0.3125000000000023
 40
0.3125000000000023
 40
0.3437500000000023
 40
0.3437500000000023
 40
0.3437500000000023
 40
0.3437500000000023
 10
76.35875879775533
 20
13.85980150513024
 30
0.0
 10
76.88187811213581
 20
13.98562968643185
 30
0.0
 10
77.3742521032079
 20
14.13168794361563
 30
0.0
 10
77.83908256936628
 20
14.28830084456079
 30
0.0
  0
SPLINE
  5
264
330
1F
100
AcDbEntity
  8
SK3
  6
SLD-Dashed
370
    18
100
AcDbSpline
210
0.0
220
0.0
230
1.0
 70
     8
 71
     3
 72
     8
 73
     4
 74
     0
 42
0.000000001
 43
0.00000001
 40
0.3437500000000023
 40
0.3437500000000023
 40
0.3437500000000023
 40
0.3437500000000023
 40
0.3593750000000019
 40
0.3593750000000019
 40
0.3593750000000019
 40
0.3593750000000019
 10
77.83908256936628
 20
14.28830084456079
 30
0.0
 10
78.07149780244549
 20
14.36660729503336
 30
0.0
 10
78.29754872305305
 20
14.44784315561518
 30
0.0
 10
78.51286868372593
 20
14.5291724722993
 30
0.0
  0
SPLINE
  5
265
330
1F
100
AcDbEntity
  8
SK3
  6
SLD-Dashed
370
    18
100
AcDbSpline
210
0.0
220
0.0
230
1.0
 70
     8
 71
     3
 72
     8
 73
     4
 74
     0
 42
0.000000001
 43
0.00000001
 40
0.3593750000000019
 40
0.3593750000000019
 40
0.3593750000000019
 40
0.3593750000000019
 40
0.3750000000000017
 40
0.3750000000000017
 40
0.3750000000000017
 40
0.3750000000000017
 10
78.51286868372593
 20
14.5291724722993
 30
0.0
 10
78.72818864439878
 20
14.61050178898342
 30
0.0
 10
78.93376792333798
 20
14.69223455367594
 30
0.0
 10
79.13000338889267
 20
14.77332787216173
 30
0.0
  0
SPLINE
  5
266
330
1F
100
AcDbEntity
  8
SK3
  6
SLD-Dashed
370
    18
100
AcDbSpline
210
0.0
220
0.0
230
1.0
 70
     8
 71
     3
 72
     8
 73
     4
 74
     0
 42
0.000000001
 43
0.00000001
 40
0.3750000000000017
 40
0.3750000000000017
 40
0.3750000000000017
 40
0.3750000000000017
 40
0.4062500000000004
 40
0.4062500000000004
 40
0.4062500000000004
 40
0.4062500000000004
 10
79.13000338889267
 20
14.77332787216173
 30
0.0
 10
79.52247432000212
 20
14.93551450913337
 30
0.0
 10
79.87900404348885
 20
15.09568461076834
 30
0.0
 10
80.19513056160133
 20
15.24437346401647
 30
0.0
  0
SPLINE
  5
267
330
1F
100
AcDbEntity
  8
SK3
  6
SLD-Dashed
370
    18
100
AcDbSpline
210
0.0
220
0.0
230
1.0
 70
     8
 71
     3
 72
     8
 73
     4
 74
     0
 42
0.000000001
 43
0.00000001
 40
0.4062500000000004
 40
0.4062500000000004
 40
0.4062500000000004
 40
0.4062500000000004
 40
0.4374999999999993
 40
0.4374999999999993
 40
0.4374999999999993
 40
0.4374999999999993
 10
80.19513056160133
 20
15.24437346401647
 30
0.0
 10
80.51125707971381
 20
15.39306231726458
 30
0.0
 10
80.77900264844334
 20
15.52639365887266
 30
0.0
 10
80.99897368235712
 20
15.63855512273827
 30
0.0
  0
SPLINE
  5
268
330
1F
100
AcDbEntity
  8
SK3
  6
SLD-Dashed
370
    18
100
AcDbSpline
210
0.0
220
0.0
230
1.0
 70
     8
 71
     3
 72
     8
 73
     4
 74
     0
 42
0.000000001
 43
0.00000001
 40
0.4374999999999993
 40
0.4374999999999993
 40
0.4374999999999993
 40
0.4374999999999993
 40
0.4531249999999988
 40
0.4531249999999988
 40
0.4531249999999988
 40
0.4531249999999988
 10
80.99897368235712
 20
15.63855512273827
 30
0.0
 10
81.10895919931399
 20
15.69463585467107
 30
0.0
 10
81.20690278284238
 20
15.74542457072593
 30
0.0
 10
81.29225736155522
 20
15.79011381599858
 30
0.0
  0
SPLINE
  5
269
330
1F
100
AcDbEntity
  8
SK3
  6
SLD-Dashed
370
    18
100
AcDbSpline
210
0.0
220
0.0
230
1.0
 70
     8
 71
     3
 72
     8
 73
     4
 74
     0
 42
0.000000001
 43
0.00000001
 40
0.4531249999999988
 40
0.4531249999999988
 40
0.4531249999999988
 40
0.4531249999999988
 40
0.4687499999999984
 40
0.4687499999999984
 40
0.4687499999999984
 40
0.4687499999999984
 10
81.29225736155522
 20
15.79011381599858
 30
0.0
 10
81.3776119402681
 20
15.83480306127122
 30
0.0
 10
81.45060718027958
 20
15.87351853266343
 30
0.0
 10
81.5087149872902
 20
15.90451413987778
 30
0.0
  0
SPLINE
  5
26A
330
1F
100
AcDbEntity
  8
SK3
  6
SLD-Dashed
370
    18
100
AcDbSpline
210
0.0
220
0.0
230
1.0
 70
     8
 71
     3
 72
     8
 73
     4
 74
     0
 42
0.000000001
 43
0.00000001
 40
0.4687499999999984
 40
0.4687499999999984
 40
0.4687499999999984
 40
0.4687499999999984
 40
0.4999999999999976
 40
0.4999999999999976
 40
0.4999999999999976
 40
0.4999999999999976
 10
81.5087149872902
 20
15.90451413987778
 30
0.0
 10
81.62493060131146
 20
15.96650535430648
 30
0.0
 10
81.68419553855469
 20
15.99880664809526
 30
0.0
 10
81.68634023010682
 20
15.99996764439441
 30
0.0
  0
SPLINE
  5
26B
330
1F
100
AcDbEntity
  8
SK3
  6
SLD-Dashed
370
    18
100
AcDbSpline
210
0.0
220
0.0
230
1.0
 70
     8
 71
     3
 72
     8
 73
     4
 74
     0
 42
0.000000001
 43
0.00000001
 40
0.5156249999999971
 40
0.5156249999999971
 40
0.5156249999999971
 40
0.5156249999999971
 40
0.5312499999999967
 40
0.5312499999999967
 40
0.5312499999999967
 40
0.5312499999999967
 10
81.6457568605289
 20
15.97803488819437
 30
0.0
 10
81.61756900083311
 20
15.96282646697383
 30
0.0
 10
81.57507339221503
 20
15.93993872955497
 30
0.0
 10
81.51887180681122
 20
15.90993426480896
 30
0.0
  0
SPLINE
  5
26C
330
1F
100
AcDbEntity
  8
SK3
  6
SLD-Dashed
370
    18
100
AcDbSpline
210
0.0
220
0.0
230
1.0
 70
     8
 71
     3
 72
     8
 73
     4
 74
     0
 42
0.000000001
 43
0.00000001
 40
0.5312499999999967
 40
0.5312499999999967
 40
0.5312499999999967
 40
0.5312499999999967
 40
0.5468749999999962
 40
0.5468749999999962
 40
0.5468749999999962
 40
0.5468749999999962
 10
81.51887180681122
 20
15.90993426480896
 30
0.0
 10
81.46267022140741
 20
15.87992980006296
 30
0.0
 10
81.3927593020744
 20
15.84280576779051
 30
0.0
 10
81.3092928969342
 20
15.79903980760205
 30
0.0
  0
SPLINE
  5
26D
330
1F
100
AcDbEntity
  8
SK3
  6
SLD-Dashed
370
    18
100
AcDbSpline
210
0.0
220
0.0
230
1.0
 70
     8
 71
     3
 72
     8
 73
     4
 74
     0
 42
0.000000001
 43
0.00000001
 40
0.5468749999999962
 40
0.5468749999999962
 40
0.5468749999999962
 40
0.5468749999999962
 40
0.5624999999999959
 40
0.5624999999999959
 40
0.5624999999999959
 40
0.5624999999999959
 10
81.3092928969342
 20
15.79903980760205
 30
0.0
 10
81.225826491794
 20
15.7552738474136
 30
0.0
 10
81.12831252922645
 20
15.70461239315414
 30
0.0
 10
81.01812434111999
 20
15.64832856162614
 30
0.0
  0
SPLINE
  5
26E
330
1F
100
AcDbEntity
  8
SK3
  6
SLD-Dashed
370
    18
100
AcDbSpline
210
0.0
220
0.0
230
1.0
 70
     8
 71
     3
 72
     8
 73
     4
 74
     0
 42
0.000000001
 43
0.00000001
 40
0.5624999999999959
 40
0.5624999999999959
 40
0.5624999999999959
 40
0.5624999999999959
 40
0.5937499999999953
 40
0.5937499999999953
 40
0.5937499999999953
 40
0.5937499999999953
 10
81.01812434111999
 20
15.64832856162614
 30
0.0
 10
80.7977479649071
 20
15.53576089857011
 30
0.0
 10
80.5304736622252
 20
15.40248817633649
 30
0.0
 10
80.21858983186847
 20
15.2554214857919
 30
0.0
  0
SPLINE
  5
26F
330
1F
100
AcDbEntity
  8
SK3
  6
SLD-Dashed
370
    18
100
AcDbSpline
210
0.0
220
0.0
230
1.0
 70
     8
 71
     3
 72
     8
 73
     4
 74
     0
 42
0.000000001
 43
0.00000001
 40
0.5937499999999953
 40
0.5937499999999953
 40
0.5937499999999953
 40
0.5937499999999953
 40
0.6249999999999948
 40
0.6249999999999948
 40
0.6249999999999948
 40
0.6249999999999948
 10
80.21858983186847
 20
15.2554214857919
 30
0.0
 10
79.90670600151174
 20
15.10835479524731
 30
0.0
 10
79.54742723766012
 20
14.94641026256872
 30
0.0
 10
79.1557532112207
 20
14.7839874518647
 30
0.0
  0
SPLINE
  5
270
330
1F
100
AcDbEntity
  8
SK3
  6
SLD-Dashed
370
    18
100
AcDbSpline
210
0.0
220
0.0
230
1.0
 70
     8
 71
     3
 72
     8
 73
     4
 74
     0
 42
0.000000001
 43
0.00000001
 40
0.6249999999999948
 40
0.6249999999999948
 40
0.6249999999999948
 40
0.6249999999999948
 40
0.6562499999999943
 40
0.6562499999999943
 40
0.6562499999999943
 40
0.6562499999999943
 10
79.1557532112207
 20
14.7839874518647
 30
0.0
 10
78.7640791847813
 20
14.62156464116066
 30
0.0
 10
78.33762808981021
 20
14.45729492174239
 30
0.0
 10
77.8733314543136
 20
14.29987650054663
 30
0.0
  0
SPLINE
  5
271
330
1F
100
AcDbEntity
  8
SK3
  6
SLD-Dashed
370
    18
100
AcDbSpline
210
0.0
220
0.0
230
1.0
 70
     8
 71
     3
 72
     8
 73
     4
 74
     0
 42
0.000000001
 43
0.00000001
 40
0.6562499999999943
 40
0.6562499999999943
 40
0.6562499999999943
 40
0.6562499999999943
 40
0.671874999999994
 40
0.671874999999994
 40
0.671874999999994
 40
0.671874999999994
 10
77.8733314543136
 20
14.29987650054663
 30
0.0
 10
77.64118313656526
 20
14.22116728994876
 30
0.0
 10
77.39982093387948
 20
14.14439326495651
 30
0.0
 10
77.15373040177192
 20
14.07219118582872
 30
0.0
  0
SPLINE
  5
272
330
1F
100
AcDbEntity
  8
SK3
  6
SLD-Dashed
370
    18
100
AcDbSpline
210
0.0
220
0.0
230
1.0
 70
     8
 71
     3
 72
     8
 73
     4
 74
     0
 42
0.000000001
 43
0.00000001
 40
0.671874999999994
 40
0.671874999999994
 40
0.671874999999994
 40
0.671874999999994
 40
0.6874999999999937
 40
0.6874999999999937
 40
0.6874999999999937
 40
0.6874999999999937
 10
77.15373040177192
 20
14.07219118582872
 30
0.0
 10
76.90763986966437
 20
13.99998910670093
 30
0.0
 10
76.65560460823464
 20
13.93193110702555
 30
0.0
 10
76.39738405985888
 20
13.86914288221121
 30
0.0
  0
SPLINE
  5
273
330
1F
100
AcDbEntity
  8
SK3
  6
SLD-Dashed
370
    18
100
AcDbSpline
210
0.0
220
0.0
230
1.0
 70
     8
 71
     3
 72
     8
 73
     4
 74
     0
 42
0.000000001
 43
0.00000001
 40
0.6874999999999937
 40
0.6874999999999937
 40
0.6874999999999937
 40
0.6874999999999937
 40
0.7187499999999938
 40
0.7187499999999938
 40
0.7187499999999938
 40
0.7187499999999938
 10
76.39738405985888
 20
13.86914288221121
 30
0.0
 10
75.8809429631073
 20
13.74356643258253
 30
0.0
 10
75.33829330918657
 20
13.63869600983395
 30
0.0
 10
74.77014795899656
 20
13.56560693219421
 30
0.0
  0
SPLINE
  5
274
330
1F
100
AcDbEntity
  8
SK3
  6
SLD-Dashed
370
    18
100
AcDbSpline
210
0.0
220
0.0
230
1.0
 70
     8
 71
     3
 72
     8
 73
     4
 74
     0
 42
0.000000001
 43
0.00000001
 40
0.7187499999999938
 40
0.7187499999999938
 40
0.7187499999999938
 40
0.7187499999999938
 40
0.7499999999999939
 40
0.7499999999999939
 40
0.7499999999999939
 40
0.7499999999999939
 10
74.77014795899656
 20
13.56560693219421
 30
0.0
 10
74.20200260880655
 20
13.49251785455446
 30
0.0
 10
73.63020359323374
 20
13.45419167567091
 30
0.0
 10
73.0547477714994
 20
13.45291919881737
 30
0.0
  0
SPLINE
  5
275
330
1F
100
AcDbEntity
  8
SK3
  6
SLD-Dashed
370
    18
100
AcDbSpline
210
0.0
220
0.0
230
1.0
 70
     8
 71
     3
 72
     8
 73
     4
 74
     0
 42
0.000000001
 43
0.00000001
 40
0.7499999999999939
 40
0.7499999999999939
 40
0.7499999999999939
 40
0.7499999999999939
 40
0.7656249999999944
 40
0.7656249999999944
 40
0.7656249999999944
 40
0.7656249999999944
 10
73.0547477714994
 20
13.45291919881737
 30
0.0
 10
72.76701986063222
 20
13.45228296039061
 30
0.0
 10
72.47837361598123
 20
13.46088446720301
 30
0.0
 10
72.18878325085542
 20
13.47885041431759
 30
0.0
  0
SPLINE
  5
276
330
1F
100
AcDbEntity
  8
SK3
  6
SLD-Dashed
370
    18
100
AcDbSpline
210
0.0
220
0.0
230
1.0
 70
     8
 71
     3
 72
     8
 73
     4
 74
     0
 42
0.000000001
 43
0.00000001
 40
0.7656249999999944
 40
0.7656249999999944
 40
0.7656249999999944
 40
0.7656249999999944
 40
0.7812499999999949
 40
0.7812499999999949
 40
0.7812499999999949
 40
0.7812499999999949
 10
72.18878325085542
 20
13.47885041431759
 30
0.0
 10
71.8991928857296
 20
13.49681636143218
 30
0.0
 10
71.61036351747747
 20
13.52416447882846
 30
0.0
 10
71.32828653844997
 20
13.55946114750158
 30
0.0
  0
SPLINE
  5
277
330
1F
100
AcDbEntity
  8
SK3
  6
SLD-Dashed
370
    18
100
AcDbSpline
210
0.0
220
0.0
230
1.0
 70
     8
 71
     3
 72
     8
 73
     4
 74
     0
 42
0.000000001
 43
0.00000001
 40
0.7812499999999949
 40
0.7812499999999949
 40
0.7812499999999949
 40
0.7812499999999949
 40
0.8124999999999958
 40
0.8124999999999958
 40
0.8124999999999958
 40
0.8124999999999958
 10
71.32828653844997
 20
13.55946114750158
 30
0.0
 10
70.7641325803949
 20
13.63005448484781
 30
0.0
 10
70.21952711146076
 20
13.73278921192533
 30
0.0
 10
69.69287635532056
 20
13.85940828547283
 30
0.0
  0
SPLINE
  5
278
330
1F
100
AcDbEntity
  8
SK3
  6
SLD-Dashed
370
    18
100
AcDbSpline
210
0.0
220
0.0
230
1.0
 70
     8
 71
     3
 72
     8
 73
     4
 74
     0
 42
0.000000001
 43
0.00000001
 40
0.8124999999999958
 40
0.8124999999999958
 40
0.8124999999999958
 40
0.8124999999999958
 40
0.8437499999999967
 40
0.8437499999999967
 40
0.8437499999999967
 40
0.8437499999999967
 10
69.69287635532056
 20
13.85940828547283
 30
0.0
 10
69.16622559918036
 20
13.98602735902032
 30
0.0
 10
68.67170703923117
 20
14.13297290954928
 30
0.0
 10
68.20824903748391
 20
14.28920011319386
 30
0.0
  0
SPLINE
  5
279
330
1F
100
AcDbEntity
  8
SK3
  6
SLD-Dashed
370
    18
100
AcDbSpline
210
0.0
220
0.0
230
1.0
 70
     8
 71
     3
 72
     8
 73
     4
 74
     0
 42
0.000000001
 43
0.00000001
 40
0.8437499999999967
 40
0.8437499999999967
 40
0.8437499999999967
 40
0.8437499999999967
 40
0.8749999999999977
 40
0.8749999999999977
 40
0.8749999999999977
 40
0.8749999999999977
 10
68.20824903748391
 20
14.28920011319386
 30
0.0
 10
67.74479103573667
 20
14.44542731683842
 30
0.0
 10
67.30830021596148
 20
14.61274594335157
 30
0.0
 10
66.91464500377047
 20
14.77554020061354
 30
0.0
  0
SPLINE
  5
27A
330
1F
100
AcDbEntity
  8
SK3
  6
SLD-Dashed
370
    18
100
AcDbSpline
210
0.0
220
0.0
230
1.0
 70
     8
 71
     3
 72
     8
 73
     4
 74
     0
 42
0.000000001
 43
0.00000001
 40
0.8749999999999977
 40
0.8749999999999977
 40
0.8749999999999977
 40
0.8749999999999977
 40
0.9062499999999986
 40
0.9062499999999986
 40
0.9062499999999986
 40
0.9062499999999986
 10
66.91464500377047
 20
14.77554020061354
 30
0.0
 10
66.52098979157947
 20
14.93833445787549
 30
0.0
 10
66.16696948533443
 20
15.09753973573333
 30
0.0
 10
65.85245067356854
 20
15.24551126988175
 30
0.0
  0
SPLINE
  5
27B
330
1F
100
AcDbEntity
  8
SK3
  6
SLD-Dashed
370
    18
100
AcDbSpline
210
0.0
220
0.0
230
1.0
 70
     8
 71
     3
 72
     8
 73
     4
 74
     0
 42
0.000000001
 43
0.00000001
 40
0.9062499999999986
 40
0.9062499999999986
 40
0.9062499999999986
 40
0.9062499999999986
 40
0.9218749999999988
 40
0.9218749999999988
 40
0.9218749999999988
 40
0.9218749999999988
 10
65.85245067356854
 20
15.24551126988175
 30
0.0
 10
65.69519126768562
 20
15.31949703695597
 30
0.0
 10
65.54717271073326
 20
15.39104482048241
 30
0.0
 10
65.4122418663258
 20
15.45749774193166
 30
0.0
  0
SPLINE
  5
27C
330
1F
100
AcDbEntity
  8
SK3
  6
SLD-Dashed
370
    18
100
AcDbSpline
210
0.0
220
0.0
230
1.0
 70
     8
 71
     3
 72
     8
 73
     4
 74
     0
 42
0.000000001
 43
0.00000001
 40
0.9218749999999988
 40
0.9218749999999988
 40
0.9218749999999988
 40
0.9218749999999988
 40
0.937499999999999
 40
0.937499999999999
 40
0.937499999999999
 40
0.937499999999999
 10
65.4122418663258
 20
15.45749774193166
 30
0.0
 10
65.27731102191831
 20
15.52395066338091
 30
0.0
 10
65.15503180826728
 20
15.58549444205625
 30
0.0
 10
65.04526792957385
 20
15.64149206296469
 30
0.0
  0
SPLINE
  5
27D
330
1F
100
AcDbEntity
  8
SK3
  6
SLD-Dashed
370
    18
100
AcDbSpline
210
0.0
220
0.0
230
1.0
 70
     8
 71
     3
 72
     8
 73
     4
 74
     0
 42
0.000000001
 43
0.00000001
 40
0.937499999999999
 40
0.937499999999999
 40
0.937499999999999
 40
0.937499999999999
 40
0.9687499999999996
 40
0.9687499999999996
 40
0.9687499999999996
 40
0.9687499999999996
 10
65.04526792957385
 20
15.64149206296469
 30
0.0
 10
64.82574017218695
 20
15.75348730478159
 30
0.0
 10
64.65582784678416
 20
15.84340604662644
 30
0.0
 10
64.53951966623367
 20
15.90545587321327
 30
0.0
  0
SPLINE
  5
27E
330
1F
100
AcDbEntity
  8
SK3
  6
SLD-Dashed
370
    18
100
AcDbSpline
210
0.0
220
0.0
230
1.0
 70
     8
 71
     2
 72
     6
 73
     3
 74
     0
 42
0.000000001
 43
0.00000001
 40
0.9687499999999996
 40
0.9687499999999996
 40
0.9687499999999996
 40
1.0
 40
1.0
 40
1.0
 10
64.53951966623369
 20
15.90545587321325
 30
0.0
 10
64.42321148568281
 20
15.96750569980008
 30
0.0
 10
64.36359999999999
 20
15.99999999999999
 30
0.0
  0
SPLINE
  5
27F
330
1F
100
AcDbEntity
  8
SK3
  6
SLD-Dashed
370
    18
100
AcDbSpline
210
0.0
220
0.0
230
1.0
 70
     8
 71
     3
 72
    10
 73
     6
 74
     0
 42
0.000000001
 43
0.00000001
 40
0.0
 40
0.0
 40
0.0
 40
0.0
 40
0.5
 40
0.5
 40
1.0
 40
1.0
 40
1.0
 40
1.0
 10
18.70470837592285
 20
25.57912025275689
 30
0.0
 10
18.66514338213327
 20
25.52310107590334
 30
0.0
 10
18.62842911249969
 20
25.46562249807947
 30
0.0
 10
18.57073957446638
 20
25.34260791126145
 30
0.0
 10
18.54999999999997
 20
25.27482658978054
 30
0.0
 10
18.54999999999997
 20
25.20500000000004
 30
0.0
  0
SPLINE
  5
280
330
1F
100
AcDbEntity
  8
SK3
  6
SLD-Dashed
370
    18
100
AcDbSpline
210
0.0
220
0.0
230
1.0
 70
     8
 71
     3
 72
    10
 73
     6
 74
     0
 42
0.000000001
 43
0.00000001
 40
0.0
 40
0.0
 40
0.0
 40
0.0
 40
0.5
 40
0.5
 40
1.0
 40
1.0
 40
1.0
 40
1.0
 10
3.699999999999993
 20
25.20500000000004
 30
0.0
 10
3.699999999999977
 20
25.27446188700639
 30
0.0
 10
3.679668344672989
 20
25.34157876899189
 30
0.0
 10
3.621774626393172
 20
25.46534569655893
 30
0.0
 10
3.584972825281711
 20
25.52292618711532
 30
0.0
 10
3.545388844997971
 20
25.57898258716477
 30
0.0
  0
SPLINE
  5
281
330
1F
100
AcDbEntity
  8
1
  6
SLD-Dashed
370
    18
100
AcDbSpline
210
0.0
220
0.0
230
1.0
 70
    24
 71
     3
 72
     8
 73
     4
 74
     0
 42
0.000000001
 43
0.00000001
 40
0.0
 40
0.0
 40
0.0
 40
0.0
 40
0.4999999999999987
 40
0.4999999999999987
 40
0.4999999999999987
 40
0.4999999999999987
 10
19.05
 20
-22.41000000000001
 30
0.0
 10
18.97247827222663
 20
-22.41
 30
0.0
 10
18.89661835205908
 20
-22.41000000000001
 30
0.0
 10
18.83038739399198
 20
-22.41
 30
0.0
  0
SPLINE
  5
282
330
1F
100
AcDbEntity
  8
1
  6
SLD-Dashed
370
    18
100
AcDbSpline
210
0.0
220
0.0
230
1.0
 70
    24
 71
     3
 72
     8
 73
     4
 74
     0
 42
0.000000001
 43
0.00000001
 40
0.4999999999999987
 40
0.4999999999999987
 40
0.4999999999999987
 40
0.4999999999999987
 40
0.7499999999999993
 40
0.7499999999999993
 40
0.7499999999999993
 40
0.7499999999999993
 10
18.83038739399198
 20
-22.41
 30
0.0
 10
18.79727191495842
 20
-22.41
 30
0.0
 10
18.76669863834141
 20
-22.41000000000001
 30
0.0
 10
18.74342192288901
 20
-22.41000000000001
 30
0.0
  0
SPLINE
  5
283
330
1F
100
AcDbEntity
  8
1
  6
SLD-Dashed
370
    18
100
AcDbSpline
210
0.0
220
0.0
230
1.0
 70
    24
 71
     2
 72
     6
 73
     3
 74
     0
 42
0.000000001
 43
0.00000001
 40
0.7499999999999993
 40
0.7499999999999993
 40
0.7499999999999993
 40
1.0
 40
1.0
 40
1.0
 10
18.74342192288901
 20
-22.41000000000001
 30
0.0
 10
18.72014520743662
 20
-22.41000000000001
 30
0.0
 10
18.70461115500192
 20
-22.41000000000001
 30
0.0
  0
SPLINE
  5
284
330
1F
100
AcDbEntity
  8
1
  6
SLD-Dashed
370
    18
100
AcDbSpline
210
0.0
220
0.0
230
1.0
 70
    24
 71
     2
 72
     6
 73
     3
 74
     0
 42
0.000000001
 43
0.00000001
 40
0.0
 40
0.0
 40
0.0
 40
0.2500000000000002
 40
0.2500000000000002
 40
0.2500000000000002
 10
3.545291624077157
 20
-22.41000000000001
 30
0.0
 10
3.529781518569392
 20
-22.41000000000001
 30
0.0
 10
3.506264354048633
 20
-22.41000000000001
 30
0.0
  0
SPLINE
  5
285
330
1F
100
AcDbEntity
  8
1
  6
SLD-Dashed
370
    18
100
AcDbSpline
210
0.0
220
0.0
230
1.0
 70
    24
 71
     3
 72
     8
 73
     4
 74
     0
 42
0.000000001
 43
0.00000001
 40
0.2500000000000002
 40
0.2500000000000002
 40
0.2500000000000002
 40
0.2500000000000002
 40
0.5000000000000004
 40
0.5000000000000004
 40
0.5000000000000004
 40
0.5000000000000004
 10
3.506264354048633
 20
-22.41000000000001
 30
0.0
 10
3.48274718952786
 20
-22.41000000000001
 30
0.0
 10
3.452323510010763
 20
-22.41000000000001
 30
0.0
 10
3.419371480420985
 20
-22.41000000000001
 30
0.0
  0
SPLINE
  5
286
330
1F
100
AcDbEntity
  8
1
  6
SLD-Dashed
370
    18
100
AcDbSpline
210
0.0
220
0.0
230
1.0
 70
    24
 71
     3
 72
     8
 73
     4
 74
     0
 42
0.000000001
 43
0.00000001
 40
0.5000000000000004
 40
0.5000000000000004
 40
0.5000000000000004
 40
0.5000000000000004
 40
1.0
 40
1.0
 40
1.0
 40
1.0
 10
3.419371480420985
 20
-22.41000000000001
 30
0.0
 10
3.353467421241402
 20
-22.41000000000002
 30
0.0
 10
3.27748356546001
 20
-22.41000000000003
 30
0.0
 10
3.200000000000008
 20
-22.41000000000004
 30
0.0
  0
SPLINE
  5
287
330
1F
100
AcDbEntity
  8
1
  6
SLD-Dashed
370
    18
100
AcDbSpline
210
0.0
220
0.0
230
1.0
 70
     8
 71
     3
 72
    40
 73
    36
 74
     0
 42
0.000000001
 43
0.00000001
 40
0.0
 40
0.0
 40
0.0
 40
0.0
 40
0.0126129321449816
 40
0.0314976481339604
 40
0.0629183966702564
 40
0.0880663439714168
 40
0.1258663548219043
 40
0.1545361786951687
 40
0.1972635113751465
 40
0.2185774264758751
 40
0.2505499734499138
 40
0.2790323571745755
 40
0.3220275475257124
 40
0.3436168159336463
 40
0.3758133620275749
 40
0.404289809506831
 40
0.4468993710431156
 40
0.468210972392158
 40
0.5002437124696447
 40
0.5288533887317777
 40
0.5719828275869667
 40
0.5934420637179458
 40
0.6254916984483699
 40
0.6539107272569499
 40
0.6965262692674994
 40
0.7178823906336999
 40
0.7500313093276819
 40
0.7787800102949101
 40
0.8217645159398103
 40
0.8431483194632992
 40
0.8751517844153629
 40
0.9000181010942334
 40
0.9373587731677226
 40
0.9685909586685477
 40
1.0
 40
1.0
 40
1.0
 40
1.0
 10
3.949999999998885
 20
-30.22558142012364
 30
0.0
 10
3.947274304054407
 20
-30.22556434752347
 30
0.0
 10
3.940467559136393
 20
-30.22552171296816
 30
0.0
 10
3.926878079312815
 20
-30.22500449703395
 30
0.0
 10
3.910614550228675
 20
-30.22373214657329
 30
0.0
 10
3.89037736176355
 20
-30.22117483723318
 30
0.0
 10
3.870876571852019
 20
-30.21766990056472
 30
0.0
 10
3.847909402640765
 20
-30.21222207486608
 30
0.0
 10
3.828703761990043
 20
-30.20644931168605
 30
0.0
 10
3.809172441364889
 20
-30.1994388579249
 30
0.0
 10
3.792810014292158
 20
-30.19274290251867
 30
0.0
 10
3.772556787560208
 20
-30.18326307338684
 30
0.0
 10
3.754852229733832
 20
-30.17368149207816
 30
0.0
 10
3.737001129755904
 20
-30.16277896347314
 30
0.0
 10
3.72223793065897
 20
-30.15285978974809
 30
0.0
 10
3.704336292931778
 20
-30.13951958199217
 30
0.0
 10
3.689010882644284
 20
-30.12669241146888
 30
0.0
 10
3.673804931859065
 20
-30.11259090121808
 30
0.0
 10
3.661328526176191
 20
-30.10000934793184
 30
0.0
 10
3.646311367638336
 20
-30.08334675455453
 30
0.0
 10
3.633674708738391
 20
-30.06764146706181
 30
0.0
 10
3.621410566074512
 20
-30.05073531891783
 30
0.0
 10
3.611611223628922
 20
-30.03598007668936
 30
0.0
 10
3.600156512781671
 20
-30.01686769647029
 30
0.0
 10
3.59082975007953
 20
-29.99919574996682
 30
0.0
 10
3.58203581287464
 20
-29.98037484052065
 30
0.0
 10
3.575165778815586
 20
-29.96397246361068
 30
0.0
 10
3.56744982965651
 20
-29.94288522109271
 30
0.0
 10
3.561558066370679
 20
-29.92362739013729
 30
0.0
 10
3.556428567390829
 20
-29.90344062128828
 30
0.0
 10
3.552918981595626
 20
-29.88689085311456
 30
0.0
 10
3.549536425733843
 20
-29.86681061568514
 30
0.0
 10
3.547124737183355
 20
-29.84675343612379
 30
0.0
 10
3.545564419127039
 20
-29.82519260420116
 30
0.0
 10
3.545382726751256
 20
-29.81165457437738
 30
0.0
 10
3.545291624076075
 20
-29.8048664484133
 30
0.0
  0
SPLINE
  5
288
330
1F
100
AcDbEntity
  8
1
  6
SLD-Dashed
370
    18
100
AcDbSpline
210
0.0
220
0.0
230
1.0
 70
     8
 71
     3
 72
    40
 73
    36
 74
     0
 42
0.000000001
 43
0.00000001
 40
0.0
 40
0.0
 40
0.0
 40
0.0
 40
0.0314214559572227
 40
0.0627294389671943
 40
0.0877405066521885
 40
0.125275232669724
 40
0.1539551384600139
 40
0.1970430837597965
 40
0.2184753360378567
 40
0.2505176110611755
 40
0.2789492345937477
 40
0.3216198597593979
 40
0.3430128235413608
 40
0.3752634384750789
 40
0.4040010771804361
 40
0.4468656794915655
 40
0.4682159459362438
 40
0.5002096454815023
 40
0.5286754137344519
 40
0.5715400247765465
 40
0.5931009716299148
 40
0.6253883780511632
 40
0.6539191343952845
 40
0.696591424456682
 40
0.7179237821488482
 40
0.749974649427047
 40
0.7785976316863411
 40
0.795854339812784
 40
0.8217160693566484
 40
0.8431552865480455
 40
0.8751886732441913
 40
0.9000580147531466
 40
0.9373794059838183
 40
0.9685930788650419
 40
0.9999999999999999
 40
0.9999999999999999
 40
0.9999999999999999
 40
0.9999999999999999
 10
18.70461115500192
 20
-29.80485527419841
 30
0.0
 10
18.70451980286349
 20
-29.81164440520548
 30
0.0
 10
18.70433742848853
 20
-29.82519814949179
 30
0.0
 10
18.702967285952
 20
-29.84411564286004
 30
0.0
 10
18.70072137877137
 20
-29.86427043795471
 30
0.0
 10
18.69761618492968
 20
-29.88374590039356
 30
0.0
 10
18.69275878580928
 20
-29.90686111791569
 30
0.0
 10
18.68756401153336
 20
-29.92633239392293
 30
0.0
 10
18.68121966076009
 20
-29.94620899181277
 30
0.0
 10
18.67516357609365
 20
-29.96284451017634
 30
0.0
 10
18.66659391017356
 20
-29.98342104192522
 30
0.0
 10
18.65792216957784
 20
-30.00144320562835
 30
0.0
 10
18.64799759935261
 20
-30.01973532130569
 30
0.0
 10
18.63887055578692
 20
-30.03502499592459
 30
0.0
 10
18.62647938435723
 20
-30.05373739732937
 30
0.0
 10
18.61447418288872
 20
-30.06985792745573
 30
0.0
 10
18.60124205632122
 20
-30.08589113399747
 30
0.0
 10
18.58942860682681
 20
-30.0990495541836
 30
0.0
 10
18.57374043191444
 20
-30.11493869793075
 30
0.0
 10
18.55884768057944
 20
-30.12841850147779
 30
0.0
 10
18.54265426161457
 20
-30.14162746302955
 30
0.0
 10
18.52838800292801
 20
-30.15228399886077
 30
0.0
 10
18.50983571493525
 20
-30.16477481501636
 30
0.0
 10
18.49262445031482
 20
-30.17498291257689
 30
0.0
 10
18.47424607318987
 20
-30.18462804605511
 30
0.0
 10
18.45820753870478
 20
-30.19217667946482
 30
0.0
 10
18.44263074348688
 20
-30.19858412922858
 30
0.0
 10
18.4280832437388
 20
-30.20393768674264
 30
0.0
 10
18.41482664955695
 20
-30.2082886119914
 30
0.0
 10
18.39834274985591
 20
-30.21299666641594
 30
0.0
 10
18.38186940102374
 20
-30.21692139734204
 30
0.0
 10
18.36186218647022
 20
-30.22070805123952
 30
0.0
 10
18.34185224742004
 20
-30.22341140280931
 30
0.0
 10
18.32031695323611
 20
-30.22516290854394
 30
0.0
 10
18.30678623642203
 20
-30.22536701808554
 30
0.0
 10
18.30000000000001
 20
-30.22546938779916
 30
0.0
  0
SPLINE
  5
289
330
1F
100
AcDbEntity
  8
SK3
  6
SLD-Dashed
370
    18
100
AcDbSpline
210
0.0
220
0.0
230
1.0
 70
     8
 71
     3
 72
    40
 73
    36
 74
     0
 42
0.000000001
 43
0.00000001
 40
0.0
 40
0.0
 40
0.0
 40
0.0
 40
0.0125929119920853
 40
0.0314096195346373
 40
0.0626234169499198
 40
0.0875147363747587
 40
0.124814412830725
 40
0.1532834083387407
 40
0.1962265830891685
 40
0.2178107992109856
 40
0.2500224951329321
 40
0.2785169301552057
 40
0.3211718523043689
 40
0.3425182663517161
 40
0.3746092478105291
 40
0.4033018002026093
 40
0.4463503818994342
 40
0.4677602234265854
 40
0.4997883410590171
 40
0.5282270395863745
 40
0.5709521530205331
 40
0.5924138618617291
 40
0.6247350591047612
 40
0.6534144483970801
 40
0.6961683199419044
 40
0.7174969314503464
 40
0.7494813527194152
 40
0.7779588669976988
 40
0.8208766717687367
 40
0.8424514691504715
 40
0.874724282179473
 40
0.8997563983109313
 40
0.9372703102803501
 40
0.968578418532575
 40
0.9999999999999999
 40
0.9999999999999999
 40
0.9999999999999999
 40
0.9999999999999999
 10
18.30000000000001
 20
30.22558142012639
 30
0.0
 10
18.30272136951242
 20
30.22556441746849
 30
0.0
 10
18.30950909113324
 20
30.22552200892813
 30
0.0
 10
18.32303491151131
 20
30.22500878447084
 30
0.0
 10
18.33918410220825
 20
30.22374990827883
 30
0.0
 10
18.35921637335285
 20
30.22123374888837
 30
0.0
 10
18.3785174346528
 20
30.21779055348817
 30
0.0
 10
18.4013925941177
 20
30.21241015713828
 30
0.0
 10
18.42066868063113
 20
30.20665667098934
 30
0.0
 10
18.44035778154608
 20
30.1996216006493
 30
0.0
 10
18.45683219318452
 20
30.19290122073893
 30
0.0
 10
18.47707551770183
 20
30.18344563237709
 30
0.0
 10
18.49468238340837
 20
30.17394373601332
 30
0.0
 10
18.51242282863931
 20
30.1631457547134
 30
0.0
 10
18.52718102114117
 20
30.15327064640552
 30
0.0
 10
18.54520190007997
 20
30.13989144466211
 30
0.0
 10
18.56066753372129
 20
30.12697740010819
 30
0.0
 10
18.57597030022938
 20
30.11281096127925
 30
0.0
 10
18.58844277986747
 20
30.10024903998077
 30
0.0
 10
18.60339048841035
 20
30.08369276015744
 30
0.0
 10
18.61596948562734
 20
30.06810049270645
 30
0.0
 10
18.62824307125509
 20
30.05123600708181
 30
0.0
 10
18.63812738344199
 20
30.03639837328908
 30
0.0
 10
18.64967535556761
 20
30.01717281850425
 30
0.0
 10
18.65905060754961
 20
29.99943559548714
 30
0.0
 10
18.66785100498267
 20
29.98063051707892
 30
0.0
 10
18.67469312836917
 20
29.96432508828282
 30
0.0
 10
18.68239354934312
 20
29.94334796470475
 30
0.0
 10
18.68830098830935
 20
29.92412819400952
 30
0.0
 10
18.69347515991064
 20
29.90386495846922
 30
0.0
 10
18.69702701390046
 20
29.88718562683122
 30
0.0
 10
18.70044011360977
 20
29.86697716337642
 30
0.0
 10
18.70287111134992
 20
29.84683182165026
 30
0.0
 10
18.70443405316874
 20
29.82521437831679
 30
0.0
 10
18.70461682479818
 20
29.81165726630968
 30
0.0
 10
18.70470837592286
 20
29.80486644841631
 30
0.0
  0
SPLINE
  5
28A
330
1F
100
AcDbEntity
  8
SK3
  6
SLD-Dashed
370
    18
100
AcDbSpline
210
0.0
220
0.0
230
1.0
 70
     8
 71
     3
 72
    39
 73
    35
 74
     0
 42
0.000000001
 43
0.00000001
 40
0.0
 40
0.0
 40
0.0
 40
0.0
 40
0.0314091160307674
 40
0.0626413758641538
 40
0.0875470935131885
 40
0.1248485138287456
 40
0.1532930400450731
 40
0.1960941157944613
 40
0.2176225947738233
 40
0.2499693772004398
 40
0.2785546285585068
 40
0.3212364873026817
 40
0.3425405354923858
 40
0.3745092858974068
 40
0.4029918411019298
 40
0.4459785689856149
 40
0.4675618916159466
 40
0.4997576608210499
 40
0.5282368343000431
 40
0.5708480092884092
 40
0.5921584935845995
 40
0.6241883328452476
 40
0.6527986190299354
 40
0.6959401501309849
 40
0.7174023419155745
 40
0.7494519752642005
 40
0.7778741158300017
 40
0.8205144520917228
 40
0.8418962920619149
 40
0.8741359236783777
 40
0.8993502252909598
 40
0.9370840470446206
 40
0.9685048711195197
 40
1.0
 40
1.0
 40
1.0
 40
1.0
 10
3.545388844997971
 20
29.80485527419826
 30
0.0
 10
3.545479748550587
 20
29.81164171345386
 30
0.0
 10
3.545661043802606
 20
29.82517637936966
 30
0.0
 10
3.547029433803321
 20
29.84405190465713
 30
0.0
 10
3.549258968233814
 20
29.86411824570159
 30
0.0
 10
3.552336224857527
 20
29.88347227622582
 30
0.0
 10
3.557141779746757
 20
29.90643124843558
 30
0.0
 10
3.562288225622188
 20
29.92581971282427
 30
0.0
 10
3.568614089357704
 20
29.94572790966326
 30
0.0
 10
3.574692956926395
 20
29.96248267210262
 30
0.0
 10
3.583287776048125
 20
29.98315850998393
 30
0.0
 10
3.591955015312252
 20
30.00120090567664
 30
0.0
 10
3.601831018727637
 20
30.01943081107648
 30
0.0
 10
3.610874012133427
 20
30.03461278108225
 30
0.0
 10
3.623189627258752
 20
30.05326734966763
 30
0.0
 10
3.635184378154349
 20
30.0694226175988
 30
0.0
 10
3.648473969075897
 20
30.0855643889811
 30
0.0
 10
3.660340157340357
 20
30.09880574838228
 30
0.0
 10
3.676012531497224
 20
30.1146987788787
 30
0.0
 10
3.690813818886915
 20
30.12812096686811
 30
0.0
 10
3.706862089264404
 20
30.14124723286363
 30
0.0
 10
3.721035740664469
 20
30.15187245989083
 30
0.0
 10
3.739615920455559
 20
30.16443427377516
 30
0.0
 10
3.756939716856906
 20
30.17474090541246
 30
0.0
 10
3.77542231292624
 20
30.18446497823759
 30
0.0
 10
3.791441042936035
 20
30.19201976729603
 30
0.0
 10
3.812039955628079
 20
30.20051935318399
 30
0.0
 10
3.830933874073433
 20
30.20705284128374
 30
0.0
 10
3.850922478500732
 20
30.21280585013027
 30
0.0
 10
3.867492347984378
 20
30.21678677988689
 30
0.0
 10
3.887698638249906
 20
30.22064109222356
 30
0.0
 10
3.907913014965722
 20
30.2233898561806
 30
0.0
 10
3.929600305356967
 20
30.22516034748688
 30
0.0
 10
3.943194750029202
 20
30.22536629328654
 30
0.0
 10
3.949999999999967
 20
30.22546938779911
 30
0.0
  0
SPLINE
  5
28B
330
1F
100
AcDbEntity
  8
SK3
  6
SLD-Dashed
370
    18
100
AcDbSpline
210
0.0
220
0.0
230
1.0
 70
     8
 71
     3
 72
    30
 73
    26
 74
     0
 42
0.000000001
 43
0.00000001
 40
0.4999999999999984
 40
0.4999999999999984
 40
0.4999999999999984
 40
0.4999999999999984
 40
0.5624999999999987
 40
0.5624999999999987
 40
0.5937499999999988
 40
0.5937499999999988
 40
0.6249999999999989
 40
0.6249999999999989
 40
0.6562499999999989
 40
0.6562499999999989
 40
0.687499999999999
 40
0.687499999999999
 40
0.7499999999999991
 40
0.7499999999999991
 40
0.7812499999999992
 40
0.7812499999999992
 40
0.8124999999999993
 40
0.8124999999999993
 40
0.8749999999999996
 40
0.8749999999999996
 40
0.9374999999999999
 40
0.9374999999999999
 40
0.9687499999999999
 40
0.9687499999999999
 40
1.0
 40
1.0
 40
1.0
 40
1.0
 10
11.09929844677808
 20
3.787766012937073
 30
0.0
 10
11.31512671473903
 20
3.787844328548305
 30
0.0
 10
11.53304006332809
 20
3.750889262135744
 30
0.0
 10
11.83116930510451
 20
3.644571484254101
 30
0.0
 10
11.92767339494451
 20
3.600037255497415
 30
0.0
 10
12.10683698186694
 20
3.495952701426823
 30
0.0
 10
12.18964198685285
 20
3.436638281784629
 30
0.0
 10
12.34190799973106
 20
3.302925237097944
 30
0.0
 10
12.41129962491507
 20
3.228176186758913
 30
0.0
 10
12.53066595273425
 20
3.069052612816883
 30
0.0
 10
12.58154771562609
 20
2.98399592143253
 30
0.0
 10
12.7068284587453
 20
2.710883138195793
 30
0.0
 10
12.74988239743907
 20
2.5127555365584
 30
0.0
 10
12.75005844165267
 20
2.205900920979289
 30
0.0
 10
12.73944896734287
 20
2.10409564753928
 30
0.0
 10
12.69737805915507
 20
1.901509184390131
 30
0.0
 10
12.66539378247045
 20
1.799926651541071
 30
0.0
 10
12.54152166679019
 20
1.509668979059631
 30
0.0
 10
12.41880132921228
 20
1.328433854589049
 30
0.0
 10
12.11607255357525
 20
1.025423686659178
 30
0.0
 10
11.93291660701176
 20
0.9007071060448957
 30
0.0
 10
11.6350956194966
 20
0.7743195984551282
 30
0.0
 10
11.53002475205497
 20
0.7414335488037036
 30
0.0
 10
11.31733852405116
 20
0.6978549509474643
 30
0.0
 10
11.20945404144216
 20
0.6867804916266471
 30
0.0
 10
11.1
 20
0.6867804916266471
 30
0.0
  0
SPLINE
  5
28C
330
1F
100
AcDbEntity
  8
SK3
  6
SLD-Dashed
370
    18
100
AcDbSpline
210
0.0
220
0.0
230
1.0
 70
     8
 71
     3
 72
    32
 73
    28
 74
     0
 42
0.000000001
 43
0.00000001
 40
0.0
 40
0.0
 40
0.0
 40
0.0
 40
0.0312499999999999
 40
0.0312499999999999
 40
0.0624999999999997
 40
0.0624999999999997
 40
0.0937499999999996
 40
0.0937499999999996
 40
0.1249999999999994
 40
0.1249999999999994
 40
0.1874999999999992
 40
0.1874999999999992
 40
0.2499999999999989
 40
0.2499999999999989
 40
0.2812499999999989
 40
0.2812499999999989
 40
0.3124999999999989
 40
0.3124999999999989
 40
0.3749999999999988
 40
0.3749999999999988
 40
0.4062499999999988
 40
0.4062499999999988
 40
0.4374999999999987
 40
0.4374999999999987
 40
0.4687499999999986
 40
0.4687499999999986
 40
0.4999999999999984
 40
0.4999999999999984
 40
0.4999999999999984
 40
0.4999999999999984
 10
11.1
 20
0.686780491626654
 30
0.0
 10
10.99054595855783
 20
0.6867804916266471
 30
0.0
 10
10.88300748494232
 20
0.6978519169173747
 30
0.0
 10
10.67157729317865
 20
0.7410380563700192
 30
0.0
 10
10.56656531881152
 20
0.7737031975053668
 30
0.0
 10
10.36697011919924
 20
0.8582303125313356
 30
0.0
 10
10.27237083996867
 20
0.909757304286829
 30
0.0
 10
10.09333795853111
 20
1.030751744013236
 30
0.0
 10
10.00891041258246
 20
1.100583040304352
 30
0.0
 10
9.781590568132783
 20
1.327897234965396
 30
0.0
 10
9.658787195719887
 20
1.509321425019423
 30
0.0
 10
9.493903316654423
 20
1.894927731320266
 30
0.0
 10
9.4501341811674
 20
2.103271213289668
 30
0.0
 10
9.449933384093182
 20
2.407948896887113
 30
0.0
 10
9.46074696068297
 20
2.510222343261252
 30
0.0
 10
9.503033348944728
 20
2.705916590523306
 30
0.0
 10
9.534315908364968
 20
2.800221958421403
 30
0.0
 10
9.658906673984793
 20
3.072888284710952
 30
0.0
 10
9.78031511942931
 20
3.234385799298925
 30
0.0
 10
10.00967891683432
 20
3.436160430175993
 30
0.0
 10
10.0925216994972
 20
3.495489903524468
 30
0.0
 10
10.27083107458872
 20
3.599257582730254
 30
0.0
 10
10.36744974633948
 20
3.64399945907342
 30
0.0
 10
10.56659782256848
 20
3.715177102574754
 30
0.0
 10
10.66944649627723
 20
3.742052781161728
 30
0.0
 10
10.88184464279912
 20
3.77847077937897
 30
0.0
 10
10.9913843127976
 20
3.787726855131457
 30
0.0
 10
11.09929844677808
 20
3.787766012937073
 30
0.0
  0
SPLINE
  5
28D
330
1F
100
AcDbEntity
  8
SK3
  6
SLD-Dashed
370
    18
100
AcDbSpline
210
0.0
220
0.0
230
1.0
 70
     8
 71
     3
 72
    38
 73
    34
 74
     0
 42
0.000000001
 43
0.00000001
 40
0.499999999999998
 40
0.499999999999998
 40
0.499999999999998
 40
0.499999999999998
 40
0.5312499999999979
 40
0.5312499999999979
 40
0.5624999999999978
 40
0.5624999999999978
 40
0.5937499999999978
 40
0.5937499999999978
 40
0.6249999999999977
 40
0.6249999999999977
 40
0.6562499999999977
 40
0.6562499999999977
 40
0.6874999999999976
 40
0.6874999999999976
 40
0.7187499999999976
 40
0.7187499999999976
 40
0.7499999999999974
 40
0.7499999999999974
 40
0.8124999999999982
 40
0.8124999999999982
 40
0.8437499999999984
 40
0.8437499999999984
 40
0.8749999999999988
 40
0.8749999999999988
 40
0.906249999999999
 40
0.906249999999999
 40
0.9374999999999993
 40
0.9374999999999993
 40
0.9687499999999996
 40
0.9687499999999996
 40
0.9843749999999998
 40
0.9843749999999998
 40
1.0
 40
1.0
 40
1.0
 40
1.0
 10
9.547165917302161
 20
6.130078845461997
 30
0.0
 10
9.591669608828735
 20
6.017622124064613
 30
0.0
 10
9.651912210336913
 20
5.910039381771329
 30
0.0
 10
9.796812632231491
 20
5.715206444890271
 30
0.0
 10
9.882567425050462
 20
5.625950668749137
 30
0.0
 10
10.0770713882353
 20
5.46583513556137
 30
0.0
 10
10.18346038260026
 20
5.396630723958358
 30
0.0
 10
10.41491716747872
 20
5.273967848329578
 30
0.0
 10
10.54009168137382
 20
5.221079864175499
 30
0.0
 10
10.78642802631474
 20
5.131319199450715
 30
0.0
 10
10.90588750473029
 20
5.094347448465292
 30
0.0
 10
11.12471660654357
 20
5.030993621355159
 30
0.0
 10
11.22226506040226
 20
5.005212811238495
 30
0.0
 10
11.40290338683522
 20
4.961304046026224
 30
0.0
 10
11.48653843453272
 20
4.943230320262122
 30
0.0
 10
11.64292087602178
 20
4.914958406516963
 30
0.0
 10
11.71620965691779
 20
4.904637420561173
 30
0.0
 10
11.92719226675067
 20
4.88574018144175
 30
0.0
 10
12.05703185085182
 20
4.888799294419003
 30
0.0
 10
12.23947266366206
 20
4.928553216744818
 30
0.0
 10
12.29788111599017
 20
4.947672533286193
 30
0.0
 10
12.4097898608672
 20
5.001691346856623
 30
0.0
 10
12.46364510461582
 20
5.036838190440901
 30
0.0
 10
12.5627134329043
 20
5.128737393306077
 30
0.0
 10
12.60843468736296
 20
5.185584113645413
 30
0.0
 10
12.68612312343485
 20
5.332786429895063
 30
0.0
 10
12.71750492214961
 20
5.423233084513153
 30
0.0
 10
12.7522598594827
 20
5.640299190695281
 30
0.0
 10
12.7546372439699
 20
5.767683503121006
 30
0.0
 10
12.73422628849655
 20
5.96411574042225
 30
0.0
 10
12.72357436485568
 20
6.03079986275442
 30
0.0
 10
12.69687670664382
 20
6.160247296436612
 30
0.0
 10
12.68086259956383
 20
6.223527817320315
 30
0.0
 10
12.66230763443389
 20
6.286790301132335
 30
0.0
  0
SPLINE
  5
28E
330
1F
100
AcDbEntity
  8
SK3
  6
SLD-Dashed
370
    18
100
AcDbSpline
210
0.0
220
0.0
230
1.0
 70
     8
 71
     3
 72
    32
 73
    28
 74
     0
 42
0.000000001
 43
0.00000001
 40
0.0
 40
0.0
 40
0.0
 40
0.0
 40
0.0312499999999997
 40
0.0312499999999997
 40
0.0624999999999995
 40
0.0624999999999995
 40
0.1249999999999989
 40
0.1249999999999989
 40
0.1874999999999984
 40
0.1874999999999984
 40
0.2187499999999984
 40
0.2187499999999984
 40
0.2499999999999984
 40
0.2499999999999984
 40
0.2812499999999984
 40
0.2812499999999984
 40
0.3124999999999984
 40
0.3124999999999984
 40
0.3437499999999984
 40
0.3437499999999984
 40
0.3749999999999984
 40
0.3749999999999984
 40
0.4374999999999982
 40
0.4374999999999982
 40
0.4687499999999981
 40
0.4687499999999981
 40
0.499999999999998
 40
0.499999999999998
 40
0.499999999999998
 40
0.499999999999998
 10
12.66230763443389
 20
6.286790301132335
 30
0.0
 10
12.62519770417402
 20
6.413315268756367
 30
0.0
 10
12.581203021273
 20
6.529338209342129
 30
0.0
 10
12.48471880657841
 20
6.749261649681134
 30
0.0
 10
12.4316588224455
 20
6.853656412382135
 30
0.0
 10
12.26556941339614
 20
7.14682156782774
 30
0.0
 10
12.14616169070409
 20
7.317061421523455
 30
0.0
 10
11.8880894599053
 20
7.625840216913607
 30
0.0
 10
11.7498571862288
 20
7.763778523701685
 30
0.0
 10
11.51944141192589
 20
7.939572233534663
 30
0.0
 10
11.43848400885548
 20
7.99314592976453
 30
0.0
 10
11.26094996715929
 20
8.086113501836016
 30
0.0
 10
11.1654181803697
 20
8.1250258160986
 30
0.0
 10
10.95302844471291
 20
8.175251229353163
 30
0.0
 10
10.83703519791095
 20
8.185597853152482
 30
0.0
 10
10.5913368132058
 20
8.160487774000996
 30
0.0
 10
10.46687270231074
 20
8.125321374609376
 30
0.0
 10
10.22897755356156
 20
8.015351517179303
 30
0.0
 10
10.119593844491
 20
7.943374611664916
 30
0.0
 10
9.919042005980996
 20
7.771958981462483
 30
0.0
 10
9.830027015680656
 20
7.673959535020834
 30
0.0
 10
9.601531880722963
 20
7.354720962768339
 30
0.0
 10
9.501243573240782
 20
7.107453544913906
 30
0.0
 10
9.44727008051531
 20
6.73204300403351
 30
0.0
 10
9.445111331805908
 20
6.607943683149959
 30
0.0
 10
9.472789440891708
 20
6.361880396588818
 30
0.0
 10
9.502662225775588
 20
6.242535566859379
 30
0.0
 10
9.547165917302161
 20
6.130078845461997
 30
0.0
  0
SPLINE
  5
28F
330
1F
100
AcDbEntity
  8
1
  6
SLD-Dashed
370
    18
100
AcDbSpline
210
0.0
220
0.0
230
1.0
 70
    24
 71
     3
 72
     8
 73
     4
 74
     0
 42
0.000000001
 43
0.00000001
 40
0.0
 40
0.0
 40
0.0
 40
0.0
 40
0.5000000000000013
 40
0.5000000000000013
 40
0.5000000000000013
 40
0.5000000000000013
 10
3.200000000000008
 20
-22.41000000000004
 30
0.0
 10
3.277521727773389
 20
-22.41000000000003
 30
0.0
 10
3.353381647940912
 20
-22.41000000000002
 30
0.0
 10
3.419612606008038
 20
-22.41000000000001
 30
0.0
  0
SPLINE
  5
290
330
1F
100
AcDbEntity
  8
1
  6
SLD-Dashed
370
    18
100
AcDbSpline
210
0.0
220
0.0
230
1.0
 70
    24
 71
     3
 72
     8
 73
     4
 74
     0
 42
0.000000001
 43
0.00000001
 40
0.5000000000000013
 40
0.5000000000000013
 40
0.5000000000000013
 40
0.5000000000000013
 40
0.7500000000000007
 40
0.7500000000000007
 40
0.7500000000000007
 40
0.7500000000000007
 10
3.419612606008038
 20
-22.41000000000001
 30
0.0
 10
3.452728085041587
 20
-22.41000000000001
 30
0.0
 10
3.483301361658614
 20
-22.41000000000001
 30
0.0
 10
3.506578077111008
 20
-22.41000000000001
 30
0.0
  0
SPLINE
  5
291
330
1F
100
AcDbEntity
  8
1
  6
SLD-Dashed
370
    18
100
AcDbSpline
210
0.0
220
0.0
230
1.0
 70
    24
 71
     2
 72
     6
 73
     3
 74
     0
 42
0.000000001
 43
0.00000001
 40
0.7500000000000007
 40
0.7500000000000007
 40
0.7500000000000007
 40
1.0
 40
1.0
 40
1.0
 10
3.506578077111008
 20
-22.41000000000001
 30
0.0
 10
3.529854792563389
 20
-22.41000000000001
 30
0.0
 10
3.545388844998096
 20
-22.41000000000001
 30
0.0
  0
SPLINE
  5
292
330
1F
100
AcDbEntity
  8
1
  6
SLD-Dashed
370
    18
100
AcDbSpline
210
0.0
220
0.0
230
1.0
 70
    24
 71
     2
 72
     6
 73
     3
 74
     0
 42
0.000000001
 43
0.00000001
 40
0.0
 40
0.0
 40
0.0
 40
0.2500000000000016
 40
0.2500000000000016
 40
0.2500000000000016
 10
18.70470837592285
 20
-22.41000000000001
 30
0.0
 10
18.72021848143061
 20
-22.41
 30
0.0
 10
18.74373564595137
 20
-22.41000000000001
 30
0.0
  0
SPLINE
  5
293
330
1F
100
AcDbEntity
  8
1
  6
SLD-Dashed
370
    18
100
AcDbSpline
210
0.0
220
0.0
230
1.0
 70
    24
 71
     3
 72
     8
 73
     4
 74
     0
 42
0.000000001
 43
0.00000001
 40
0.2500000000000016
 40
0.2500000000000016
 40
0.2500000000000016
 40
0.2500000000000016
 40
0.5000000000000032
 40
0.5000000000000032
 40
0.5000000000000032
 40
0.5000000000000032
 10
18.74373564595139
 20
-22.41000000000001
 30
0.0
 10
18.76725281047213
 20
-22.41000000000001
 30
0.0
 10
18.79767648998924
 20
-22.41000000000001
 30
0.0
 10
18.83062851957905
 20
-22.41000000000001
 30
0.0
  0
SPLINE
  5
294
330
1F
100
AcDbEntity
  8
1
  6
SLD-Dashed
370
    18
100
AcDbSpline
210
0.0
220
0.0
230
1.0
 70
    24
 71
     3
 72
     8
 73
     4
 74
     0
 42
0.000000001
 43
0.00000001
 40
0.5000000000000032
 40
0.5000000000000032
 40
0.5000000000000032
 40
0.5000000000000032
 40
1.0
 40
1.0
 40
1.0
 40
1.0
 10
18.83062851957905
 20
-22.41000000000001
 30
0.0
 10
18.89653257875862
 20
-22.41000000000001
 30
0.0
 10
18.97251643454001
 20
-22.41000000000001
 30
0.0
 10
19.05
 20
-22.41000000000001
 30
0.0
  0
SPLINE
  5
295
330
1F
100
AcDbEntity
  8
SK3
  6
SLD-Dashed
370
    18
100
AcDbSpline
210
0.0
220
0.0
230
1.0
 70
     8
 71
     3
 72
    10
 73
     6
 74
     0
 42
0.000000001
 43
0.00000001
 40
0.0
 40
0.0
 40
0.0
 40
0.0
 40
0.5
 40
0.5
 40
1.0
 40
1.0
 40
1.0
 40
1.0
 10
3.54529162407714
 20
25.57912025275685
 30
0.0
 10
3.584856617866725
 20
25.52310107590331
 30
0.0
 10
3.621570887500284
 20
25.46562249807945
 30
0.0
 10
3.679260425533583
 20
25.34260791126144
 30
0.0
 10
3.699999999999994
 20
25.27482658978054
 30
0.0
 10
3.699999999999994
 20
25.20500000000004
 30
0.0
  0
SPLINE
  5
296
330
1F
100
AcDbEntity
  8
SK3
  6
SLD-Dashed
370
    18
100
AcDbSpline
210
0.0
220
0.0
230
1.0
 70
     8
 71
     3
 72
    10
 73
     6
 74
     0
 42
0.000000001
 43
0.00000001
 40
0.0
 40
0.0
 40
0.0
 40
0.0
 40
0.5
 40
0.5
 40
1.0
 40
1.0
 40
1.0
 40
1.0
 10
18.54999999999997
 20
25.20500000000004
 30
0.0
 10
18.54999999999997
 20
25.27446188700639
 30
0.0
 10
18.57033165532693
 20
25.34157876899194
 30
0.0
 10
18.62822537360672
 20
25.46534569655899
 30
0.0
 10
18.66502717471819
 20
25.52292618711539
 30
0.0
 10
18.70461115500193
 20
25.57898258716484
 30
0.0
  0
SPLINE
  5
297
330
1F
100
AcDbEntity
  8
1
  6
SLD-Dashed
370
    18
100
AcDbSpline
210
0.0
220
0.0
230
1.0
 70
     8
 71
     3
 72
     8
 73
     4
 74
     0
 42
0.000000001
 43
0.00000001
 40
0.0
 40
0.0
 40
0.0
 40
0.0
 40
1.0
 40
1.0
 40
1.0
 40
1.0
 10
14.37601294652263
 20
-30.22558142012645
 30
0.0
 10
13.92634047615435
 20
-29.41927694377228
 30
0.0
 10
13.4775873587173
 20
-28.61247603335392
 30
0.0
 10
13.03000000000003
 20
-27.8050456341729
 30
0.0
  0
SPLINE
  5
298
330
1F
100
AcDbEntity
  8
1
  6
SLD-Dashed
370
    18
100
AcDbSpline
210
0.0
220
0.0
230
1.0
 70
     8
 71
     3
 72
    10
 73
     6
 74
     0
 42
0.000000001
 43
0.00000001
 40
0.0
 40
0.0
 40
0.0
 40
0.0
 40
0.5
 40
0.5
 40
1.0
 40
1.0
 40
1.0
 40
1.0
 10
13.03000000000005
 20
-27.76916635406973
 30
0.0
 10
13.03000000000003
 20
-27.56948960726648
 30
0.0
 10
12.9530257332551
 20
-27.36838646497956
 30
0.0
 10
12.67905057581468
 20
-27.07630005005161
 30
0.0
 10
12.48172757240075
 20
-26.98706356756882
 30
0.0
 10
12.28000000000003
 20
-26.98706356756882
 30
0.0
  0
SPLINE
  5
299
330
1F
100
AcDbEntity
  8
1
  6
SLD-Dashed
370
    18
100
AcDbSpline
210
0.0
220
0.0
230
1.0
 70
     8
 71
     3
 72
    10
 73
     6
 74
     0
 42
0.000000001
 43
0.00000001
 40
0.0
 40
0.0
 40
0.0
 40
0.0
 40
0.5
 40
0.5
 40
1.0
 40
1.0
 40
1.0
 40
1.0
 10
9.950000000000664
 20
-26.98706356756944
 30
0.0
 10
9.748441495091544
 20
-26.98706356756927
 30
0.0
 10
9.550692481024273
 20
-27.07656444408194
 30
0.0
 10
9.277196882747154
 20
-27.3681586685193
 30
0.0
 10
9.200000000000166
 20
-27.56927498425101
 30
0.0
 10
9.2
 20
-27.76916635406977
 30
0.0
  0
SPLINE
  5
29A
330
1F
100
AcDbEntity
  8
1
  6
SLD-Dashed
370
    18
100
AcDbSpline
210
0.0
220
0.0
230
1.0
 70
     8
 71
     3
 72
     8
 73
     4
 74
     0
 42
0.000000001
 43
0.00000001
 40
0.0
 40
0.0
 40
0.0
 40
0.0
 40
1.0
 40
1.0
 40
1.0
 40
1.0
 10
9.199999999998862
 20
-27.80504563417608
 30
0.0
 10
8.752433371354604
 20
-28.61243863710178
 30
0.0
 10
8.303701091401383
 20
-29.41920220926473
 30
0.0
 10
7.854049533406126
 20
-30.22546938780229
 30
0.0
  0
SPLINE
  5
29B
330
1F
100
AcDbEntity
  8
1
  6
SLD-Dashed
370
    18
100
AcDbSpline
210
0.0
220
0.0
230
1.0
 70
     8
 71
     3
 72
    40
 73
    36
 74
     0
 42
0.000000001
 43
0.00000001
 40
0.0
 40
0.0
 40
0.0
 40
0.0
 40
0.0314214559572178
 40
0.0627294389672004
 40
0.0877405066521895
 40
0.1252752326697184
 40
0.1539551384600108
 40
0.1970430837597873
 40
0.2184753360378477
 40
0.2505176110611737
 40
0.2789492345937391
 40
0.3216198597594042
 40
0.3430128235413673
 40
0.3752634384750793
 40
0.4040010771804458
 40
0.4468656794915723
 40
0.468215945936246
 40
0.5002096454814972
 40
0.528675413734447
 40
0.5715400247765458
 40
0.5931009716299191
 40
0.6253883780511656
 40
0.6539191343952843
 40
0.6965914244566831
 40
0.7179237821488444
 40
0.7499746494270431
 40
0.7785976316863417
 40
0.7958543398127828
 40
0.8217160693566459
 40
0.8431552865480468
 40
0.8751886732441888
 40
0.9000580147531506
 40
0.9373794059838182
 40
0.9685930788650364
 40
1.0
 40
1.0
 40
1.0
 40
1.0
 10
3.545388844996972
 20
-29.80485527420156
 30
0.0
 10
3.545480197135395
 20
-29.81164440520863
 30
0.0
 10
3.545662571510386
 20
-29.82519814949495
 30
0.0
 10
3.547032714046896
 20
-29.84411564286316
 30
0.0
 10
3.549278621227503
 20
-29.86427043795788
 30
0.0
 10
3.552383815069213
 20
-29.8837459003967
 30
0.0
 10
3.557241214189627
 20
-29.90686111791882
 30
0.0
 10
3.562435988465534
 20
-29.92633239392608
 30
0.0
 10
3.568780339238797
 20
-29.94620899181593
 30
0.0
 10
3.574836423905228
 20
-29.96284451017947
 30
0.0
 10
3.583406089825325
 20
-29.98342104192837
 30
0.0
 10
3.592077830421037
 20
-30.00144320563149
 30
0.0
 10
3.602002400646273
 20
-30.01973532130885
 30
0.0
 10
3.611129444211977
 20
-30.03502499592773
 30
0.0
 10
3.623520615641667
 20
-30.05373739733253
 30
0.0
 10
3.635525817110172
 20
-30.06985792745888
 30
0.0
 10
3.64875794367768
 20
-30.08589113400061
 30
0.0
 10
3.660571393172066
 20
-30.09904955418674
 30
0.0
 10
3.676259568084483
 20
-30.11493869793388
 30
0.0
 10
3.691152319419466
 20
-30.12841850148094
 30
0.0
 10
3.707345738384355
 20
-30.14162746303267
 30
0.0
 10
3.721611997070884
 20
-30.15228399886392
 30
0.0
 10
3.740164285063657
 20
-30.16477481501948
 30
0.0
 10
3.757375549684055
 20
-30.17498291258005
 30
0.0
 10
3.775753926809053
 20
-30.18462804605823
 30
0.0
 10
3.79179246129413
 20
-30.19217667946795
 30
0.0
 10
3.807369256512025
 20
-30.19858412923173
 30
0.0
 10
3.821916756260105
 20
-30.20393768674579
 30
0.0
 10
3.83517335044195
 20
-30.20828861199454
 30
0.0
 10
3.851657250142998
 20
-30.21299666641908
 30
0.0
 10
3.868130598975159
 20
-30.21692139734516
 30
0.0
 10
3.888137813528675
 20
-30.22070805124266
 30
0.0
 10
3.908147752578889
 20
-30.22341140281245
 30
0.0
 10
3.929683046762777
 20
-30.22516290854708
 30
0.0
 10
3.943213763576883
 20
-30.22536701808867
 30
0.0
 10
3.949999999998885
 20
-30.22546938780229
 30
0.0
  0
SPLINE
  5
29C
330
1F
100
AcDbEntity
  8
1
  6
SLD-Dashed
370
    18
100
AcDbSpline
210
0.0
220
0.0
230
1.0
 70
     8
 71
     3
 72
    40
 73
    36
 74
     0
 42
0.000000001
 43
0.00000001
 40
0.0
 40
0.0
 40
0.0
 40
0.0
 40
0.0126129321449749
 40
0.0314976481339587
 40
0.0629183966702574
 40
0.0880663439714092
 40
0.1258663548219046
 40
0.1545361786951767
 40
0.1972635113751502
 40
0.2185774264758776
 40
0.250549973449914
 40
0.2790323571745715
 40
0.3220275475257097
 40
0.3436168159336435
 40
0.3758133620275704
 40
0.4042898095068478
 40
0.4468993710431288
 40
0.4682109723921613
 40
0.5002437124696372
 40
0.528853388731771
 40
0.5719828275869605
 40
0.593442063717947
 40
0.6254916984483689
 40
0.6539107272569482
 40
0.6965262692674938
 40
0.7178823906336926
 40
0.7500313093276828
 40
0.7787800102949213
 40
0.8217645159397994
 40
0.8431483194632984
 40
0.8751517844153632
 40
0.9000181010942335
 40
0.937358773167723
 40
0.9685909586685477
 40
1.0
 40
1.0
 40
1.0
 40
1.0
 10
18.30000000000001
 20
-30.22558142012645
 30
0.0
 10
18.30272569594447
 20
-30.22556434752627
 30
0.0
 10
18.30953244086247
 20
-30.22552171297096
 30
0.0
 10
18.32312192068605
 20
-30.22500449703675
 30
0.0
 10
18.33938544977019
 20
-30.22373214657611
 30
0.0
 10
18.35962263823533
 20
-30.22117483723601
 30
0.0
 10
18.37912342814684
 20
-30.21766990056755
 30
0.0
 10
18.40209059735809
 20
-30.2122220748689
 30
0.0
 10
18.42129623800885
 20
-30.20644931168889
 30
0.0
 10
18.440827558634
 20
-30.19943885792773
 30
0.0
 10
18.45718998570672
 20
-30.19274290252153
 30
0.0
 10
18.47744321243867
 20
-30.18326307338971
 30
0.0
 10
18.49514777026506
 20
-30.17368149208103
 30
0.0
 10
18.51299887024299
 20
-30.162778963476
 30
0.0
 10
18.52776206933995
 20
-30.15285978975097
 30
0.0
 10
18.54566370706713
 20
-30.13951958199506
 30
0.0
 10
18.56098911735459
 20
-30.12669241147177
 30
0.0
 10
18.57619506813986
 20
-30.11259090122097
 30
0.0
 10
18.58867147382271
 20
-30.10000934793474
 30
0.0
 10
18.60368863236058
 20
-30.08334675455743
 30
0.0
 10
18.61632529126056
 20
-30.06764146706473
 30
0.0
 10
18.62858943392444
 20
-30.05073531892074
 30
0.0
 10
18.63838877637001
 20
-30.03598007669227
 30
0.0
 10
18.64984348721728
 20
-30.01686769647322
 30
0.0
 10
18.65917024991943
 20
-29.99919574996973
 30
0.0
 10
18.66796418712434
 20
-29.98037484052358
 30
0.0
 10
18.67483422118336
 20
-29.96397246361362
 30
0.0
 10
18.68255017034245
 20
-29.94288522109561
 30
0.0
 10
18.68844193362828
 20
-29.92362739014024
 30
0.0
 10
18.69357143260816
 20
-29.90344062129121
 30
0.0
 10
18.69708101840335
 20
-29.8868908531175
 30
0.0
 10
18.70046357426516
 20
-29.86681061568807
 30
0.0
 10
18.70287526281565
 20
-29.84675343612672
 30
0.0
 10
18.70443558087198
 20
-29.8251926042041
 30
0.0
 10
18.70461727324775
 20
-29.81165457438031
 30
0.0
 10
18.70470837592293
 20
-29.80486644841624
 30
0.0
  0
SPLINE
  5
29D
330
1F
100
AcDbEntity
  8
SK3
  6
SLD-Dashed
370
    18
100
AcDbSpline
210
0.0
220
0.0
230
1.0
 70
     8
 71
     3
 72
    39
 73
    35
 74
     0
 42
0.000000001
 43
0.00000001
 40
0.0
 40
0.0
 40
0.0
 40
0.0
 40
0.0314091160307677
 40
0.062641375864154
 40
0.0875470935131889
 40
0.1248485138287462
 40
0.1532930400450872
 40
0.1960941157944515
 40
0.2176225947738144
 40
0.2499693772004302
 40
0.2785546285585205
 40
0.3212364873026964
 40
0.3425405354923894
 40
0.3745092858974103
 40
0.4029918411019262
 40
0.4459785689856202
 40
0.4675618916159423
 40
0.4997576608210476
 40
0.5282368343000382
 40
0.5708480092883969
 40
0.5921584935845849
 40
0.624188332845246
 40
0.6527986190299447
 40
0.6959401501309724
 40
0.7174023419155647
 40
0.7494519752642036
 40
0.7778741158300034
 40
0.8205144520917296
 40
0.8418962920619176
 40
0.8741359236783779
 40
0.8993502252909584
 40
0.9370840470446232
 40
0.9685048711195082
 40
1.0
 40
1.0
 40
1.0
 40
1.0
 10
18.70461115500985
 20
29.80485527419815
 30
0.0
 10
18.70452025145723
 20
29.81164171345375
 30
0.0
 10
18.70433895620521
 20
29.82517637936957
 30
0.0
 10
18.70297056620448
 20
29.844051904657
 30
0.0
 10
18.70074103177402
 20
29.86411824570148
 30
0.0
 10
18.69766377515031
 20
29.88347227622571
 30
0.0
 10
18.69285822026112
 20
29.90643124843547
 30
0.0
 10
18.68771177438565
 20
29.92581971282415
 30
0.0
 10
18.68138591065013
 20
29.94572790966315
 30
0.0
 10
18.67530704308144
 20
29.96248267210249
 30
0.0
 10
18.66671222395977
 20
29.98315850998383
 30
0.0
 10
18.65804498469564
 20
30.00120090567655
 30
0.0
 10
18.64816898128022
 20
30.01943081107639
 30
0.0
 10
18.63912598787447
 20
30.03461278108215
 30
0.0
 10
18.62681037274912
 20
30.05326734966752
 30
0.0
 10
18.61481562185353
 20
30.06942261759871
 30
0.0
 10
18.60152603093201
 20
30.08556438898102
 30
0.0
 10
18.58965984266754
 20
30.09880574838219
 30
0.0
 10
18.57398746851069
 20
30.11469877887862
 30
0.0
 10
18.55918618112101
 20
30.12812096686803
 30
0.0
 10
18.54313791074351
 20
30.14124723286355
 30
0.0
 10
18.52896425934346
 20
30.15187245989077
 30
0.0
 10
18.51038407955236
 20
30.16443427377508
 30
0.0
 10
18.493060283151
 20
30.1747409054124
 30
0.0
 10
18.47457768708169
 20
30.18446497823753
 30
0.0
 10
18.45855895707192
 20
30.192019767296
 30
0.0
 10
18.43796004437985
 20
30.20051935318394
 30
0.0
 10
18.41906612593451
 20
30.20705284128369
 30
0.0
 10
18.39907752150721
 20
30.21280585013026
 30
0.0
 10
18.38250765202358
 20
30.21678677988687
 30
0.0
 10
18.36230136175804
 20
30.22064109222355
 30
0.0
 10
18.34208698504224
 20
30.2233898561806
 30
0.0
 10
18.32039969465098
 20
30.22516034748687
 30
0.0
 10
18.30680524997875
 20
30.22536629328656
 30
0.0
 10
18.30000000000799
 20
30.22546938779912
 30
0.0
  0
SPLINE
  5
29E
330
1F
100
AcDbEntity
  8
SK3
  6
SLD-Dashed
370
    18
100
AcDbSpline
210
0.0
220
0.0
230
1.0
 70
     8
 71
     3
 72
    40
 73
    36
 74
     0
 42
0.000000001
 43
0.00000001
 40
0.0
 40
0.0
 40
0.0
 40
0.0
 40
0.0125929119920799
 40
0.0314096195346371
 40
0.0626234169499144
 40
0.0875147363747578
 40
0.1248144128307291
 40
0.1532834083387329
 40
0.1962265830891804
 40
0.2178107992109905
 40
0.2500224951329297
 40
0.2785169301551935
 40
0.3211718523043735
 40
0.3425182663517212
 40
0.3746092478105252
 40
0.4033018002026009
 40
0.4463503818994297
 40
0.4677602234265738
 40
0.4997883410590129
 40
0.5282270395863776
 40
0.5709521530205359
 40
0.592413861861735
 40
0.6247350591047609
 40
0.6534144483970886
 40
0.696168319941901
 40
0.717496931450338
 40
0.7494813527194164
 40
0.7779588669976948
 40
0.8208766717687338
 40
0.8424514691504659
 40
0.8747242821794735
 40
0.8997563983109476
 40
0.9372703102803513
 40
0.9685784185325865
 40
1.0
 40
1.0
 40
1.0
 40
1.0
 10
3.950000000000008
 20
30.22558142012638
 30
0.0
 10
3.947278630487604
 20
30.22556441746849
 30
0.0
 10
3.940490908866764
 20
30.22552200892812
 30
0.0
 10
3.926965088488734
 20
30.22500878447085
 30
0.0
 10
3.910815897791769
 20
30.22374990827881
 30
0.0
 10
3.890783626647186
 20
30.22123374888838
 30
0.0
 10
3.871482565347222
 20
30.21779055348817
 30
0.0
 10
3.848607405882331
 20
30.21241015713827
 30
0.0
 10
3.829331319368897
 20
30.20665667098931
 30
0.0
 10
3.80964221845395
 20
30.1996216006493
 30
0.0
 10
3.793167806815502
 20
30.19290122073893
 30
0.0
 10
3.772924482298183
 20
30.18344563237709
 30
0.0
 10
3.755317616591674
 20
30.17394373601331
 30
0.0
 10
3.737577171360708
 20
30.1631457547134
 30
0.0
 10
3.722818978858856
 20
30.15327064640552
 30
0.0
 10
3.704798099920066
 20
30.13989144466211
 30
0.0
 10
3.689332466278726
 20
30.12697740010819
 30
0.0
 10
3.674029699770652
 20
30.11281096127925
 30
0.0
 10
3.661557220132559
 20
30.10024903998078
 30
0.0
 10
3.646609511589681
 20
30.08369276015743
 30
0.0
 10
3.634030514372692
 20
30.06810049270647
 30
0.0
 10
3.62175692874493
 20
30.05123600708179
 30
0.0
 10
3.611872616558027
 20
30.03639837328909
 30
0.0
 10
3.60032464443241
 20
30.01717281850424
 30
0.0
 10
3.590949392450399
 20
29.99943559548713
 30
0.0
 10
3.582148995017323
 20
29.98063051707894
 30
0.0
 10
3.575306871630849
 20
29.96432508828283
 30
0.0
 10
3.567606450656885
 20
29.94334796470472
 30
0.0
 10
3.561699011690647
 20
29.92412819400953
 30
0.0
 10
3.556524840089362
 20
29.90386495846922
 30
0.0
 10
3.552972986099548
 20
29.88718562683122
 30
0.0
 10
3.549559886390243
 20
29.86697716337639
 30
0.0
 10
3.547128888650063
 20
29.84683182165026
 30
0.0
 10
3.545565946831249
 20
29.82521437831679
 30
0.0
 10
3.545383175201807
 20
29.81165726630968
 30
0.0
 10
3.545291624077139
 20
29.80486644841631
 30
0.0
  0
SPLINE
  5
29F
330
1F
100
AcDbEntity
  8
1
  6
SLD-Dashed
370
    18
100
AcDbSpline
210
0.0
220
0.0
230
1.0
 70
     8
 71
     3
 72
     8
 73
     4
 74
     0
 42
0.000000001
 43
0.00000001
 40
0.0
 40
0.0
 40
0.0
 40
0.0
 40
1.0
 40
1.0
 40
1.0
 40
1.0
 10
9.199999999999985
 20
27.8050456341729
 30
0.0
 10
8.752403481898929
 20
28.61249255653033
 30
0.0
 10
8.30365062048366
 20
29.4192929083267
 30
0.0
 10
7.853987053477382
 20
30.2255814201264
 30
0.0
  0
SPLINE
  5
2A0
330
1F
100
AcDbEntity
  8
1
  6
SLD-Dashed
370
    18
100
AcDbSpline
210
0.0
220
0.0
230
1.0
 70
     8
 71
     3
 72
    12
 73
     8
 74
     0
 42
0.000000001
 43
0.00000001
 40
0.0
 40
0.0
 40
0.0
 40
0.0
 40
0.2499999999999984
 40
0.2499999999999984
 40
0.4999999999999969
 40
0.4999999999999969
 40
1.0
 40
1.0
 40
1.0
 40
1.0
 10
9.950000000000001
 20
26.98706356756882
 30
0.0
 10
9.850149452042919
 20
26.98706356756881
 30
0.0
 10
9.748134209428091
 20
27.00887348025307
 30
0.0
 10
9.565410104204558
 20
27.0898925831707
 30
0.0
 10
9.481984824368904
 20
27.14976438531446
 30
0.0
 10
9.27727456740339
 20
27.36818499553368
 30
0.0
 10
9.2
 20
27.56879736260815
 30
0.0
 10
9.2
 20
27.76916635406975
 30
0.0
  0
SPLINE
  5
2A1
330
1F
100
AcDbEntity
  8
1
  6
SLD-Dashed
370
    18
100
AcDbSpline
210
0.0
220
0.0
230
1.0
 70
     8
 71
     3
 72
    12
 73
     8
 74
     0
 42
0.000000001
 43
0.00000001
 40
0.0
 40
0.0
 40
0.0
 40
0.0
 40
0.2500000000000007
 40
0.2500000000000007
 40
0.5000000000000014
 40
0.5000000000000014
 40
1.0
 40
1.0
 40
1.0
 40
1.0
 10
13.03000000000001
 20
27.76916635406974
 30
0.0
 10
13.03000000000001
 20
27.66900663339826
 30
0.0
 10
13.01145353522915
 20
27.56910146598283
 30
0.0
 10
12.93858199206009
 20
27.38178244661979
 30
0.0
 10
12.8852303554246
 20
27.29613295246497
 30
0.0
 10
12.67790477657024
 20
27.0750315281501
 30
0.0
 10
12.47994383972985
 20
26.98706356756884
 30
0.0
 10
12.28000000000003
 20
26.98706356756882
 30
0.0
  0
SPLINE
  5
2A2
330
1F
100
AcDbEntity
  8
1
  6
SLD-Dashed
370
    18
100
AcDbSpline
210
0.0
220
0.0
230
1.0
 70
     8
 71
     3
 72
     8
 73
     4
 74
     0
 42
0.000000001
 43
0.00000001
 40
0.0
 40
0.0
 40
0.0
 40
0.0
 40
1.0
 40
1.0
 40
1.0
 40
1.0
 10
14.37595046659276
 20
30.22546938779912
 30
0.0
 10
13.92630781119526
 20
29.41921817244961
 30
0.0
 10
13.4775757871934
 20
28.61245515876932
 30
0.0
 10
13.03000000000001
 20
27.8050456341729
 30
0.0
  0
SPLINE
  5
2A3
330
1F
100
AcDbEntity
  8
SK3
  6
SLD-Dashed
370
    18
100
AcDbSpline
210
0.0
220
0.0
230
1.0
 70
     8
 71
     3
 72
    34
 73
    30
 74
     0
 42
0.000000001
 43
0.00000001
 40
0.4999999999999964
 40
0.4999999999999964
 40
0.4999999999999964
 40
0.4999999999999964
 40
0.5624999999999961
 40
0.5624999999999961
 40
0.5937499999999962
 40
0.5937499999999962
 40
0.6249999999999963
 40
0.6249999999999963
 40
0.6562499999999964
 40
0.6562499999999964
 40
0.6874999999999966
 40
0.6874999999999966
 40
0.7499999999999971
 40
0.7499999999999971
 40
0.7812499999999974
 40
0.7812499999999974
 40
0.8124999999999978
 40
0.8124999999999978
 40
0.8437499999999982
 40
0.8437499999999982
 40
0.8749999999999986
 40
0.8749999999999986
 40
0.9062499999999989
 40
0.9062499999999989
 40
0.9374999999999992
 40
0.9374999999999992
 40
0.9687499999999997
 40
0.9687499999999997
 40
1.0
 40
1.0
 40
1.0
 40
1.0
 10
10.43489457346453
 20
9.192707275454424
 30
0.0
 10
10.57763203931583
 20
9.178391047657614
 30
0.0
 10
10.73072898252597
 20
9.14878837349329
 30
0.0
 10
11.00846457422353
 20
9.079848161145543
 30
0.0
 10
11.10872720463399
 20
9.052921739824741
 30
0.0
 10
11.33151412887494
 20
8.987194762961344
 30
0.0
 10
11.45288474947191
 20
8.948740399015172
 30
0.0
 10
11.69975803299396
 20
8.855687905200394
 30
0.0
 10
11.82369929941915
 20
8.80103390362743
 30
0.0
 10
12.05254486308013
 20
8.674067238076615
 30
0.0
 10
12.15835137945201
 20
8.601647149158655
 30
0.0
 10
12.44326053814744
 20
8.354209612853907
 30
0.0
 10
12.58579742123003
 20
8.151094935723822
 30
0.0
 10
12.70895241472732
 20
7.809142101035407
 30
0.0
 10
12.73535560308829
 20
7.687003589969613
 30
0.0
 10
12.7552697450104
 20
7.441164323332042
 30
0.0
 10
12.74937513382363
 20
7.315281863556497
 30
0.0
 10
12.70533810945412
 20
7.06394119363997
 30
0.0
 10
12.66802095968714
 20
6.941631000096427
 30
0.0
 10
12.56344952904385
 20
6.704179749394003
 30
0.0
 10
12.49625932456627
 20
6.590217548379684
 30
0.0
 10
12.33809446794182
 20
6.382378293731277
 30
0.0
 10
12.24493473983124
 20
6.285873995051205
 30
0.0
 10
12.04054915126639
 20
6.122156553344173
 30
0.0
 10
11.92932147845091
 20
6.054026580940119
 30
0.0
 10
11.68736550523707
 20
5.952992896783499
 30
0.0
 10
11.56181201416268
 20
5.923411177353247
 30
0.0
 10
11.31821027169287
 20
5.909336941584402
 30
0.0
 10
11.20410590689123
 20
5.924577191512063
 30
0.0
 10
11.1
 20
5.953410618658242
 30
0.0
  0
SPLINE
  5
2A4
330
1F
100
AcDbEntity
  8
SK3
  6
SLD-Dashed
370
    18
100
AcDbSpline
210
0.0
220
0.0
230
1.0
 70
     8
 71
     3
 72
    32
 73
    28
 74
     0
 42
0.000000001
 43
0.00000001
 40
0.0
 40
0.0
 40
0.0
 40
0.0
 40
0.0312499999999998
 40
0.0312499999999998
 40
0.0624999999999996
 40
0.0624999999999996
 40
0.1249999999999991
 40
0.1249999999999991
 40
0.1874999999999986
 40
0.1874999999999986
 40
0.2187499999999983
 40
0.2187499999999983
 40
0.2499999999999979
 40
0.2499999999999979
 40
0.2812499999999978
 40
0.2812499999999978
 40
0.3124999999999976
 40
0.3124999999999976
 40
0.3437499999999974
 40
0.3437499999999974
 40
0.3749999999999972
 40
0.3749999999999972
 40
0.406249999999997
 40
0.406249999999997
 40
0.4374999999999968
 40
0.4374999999999968
 40
0.4999999999999964
 40
0.4999999999999964
 40
0.4999999999999964
 40
0.4999999999999964
 10
11.1
 20
5.953410618658242
 30
0.0
 10
10.99589409310878
 20
5.982244045804435
 30
0.0
 10
10.90407857642198
 20
6.023103286373573
 30
0.0
 10
10.73262137377525
 20
6.118240725872804
 30
0.0
 10
10.65318813797005
 20
6.172784121821907
 30
0.0
 10
10.42547236553634
 20
6.352355611395078
 30
0.0
 10
10.29042057236913
 20
6.490344336420442
 30
0.0
 10
10.03758703563627
 20
6.798492095359341
 30
0.0
 10
9.919813607757956
 20
6.968691620995671
 30
0.0
 10
9.755188160048112
 20
7.264657280293567
 30
0.0
 10
9.702965925809076
 20
7.36952916930763
 30
0.0
 10
9.608196888300558
 20
7.590905988961221
 30
0.0
 10
9.564891013149571
 20
7.708630023759009
 30
0.0
 10
9.493588627253482
 20
7.962877344356841
 30
0.0
 10
9.466892276768474
 20
8.097433676092718
 30
0.0
 10
9.444811777617288
 20
8.35746663645976
 30
0.0
 10
9.450063840888228
 20
8.483405619809336
 30
0.0
 10
9.490124926315847
 20
8.696446913670282
 30
0.0
 10
9.523244242074139
 20
8.782864284801857
 30
0.0
 10
9.604247903804639
 20
8.92514426674946
 30
0.0
 10
9.650743567469144
 20
8.979230676614117
 30
0.0
 10
9.751569607309607
 20
9.067142795898937
 30
0.0
 10
9.806244160784559
 20
9.100654189155017
 30
0.0
 10
9.91929173158787
 20
9.151642126956078
 30
0.0
 10
9.978038231873294
 20
9.169399205425442
 30
0.0
 10
10.16095206270197
 20
9.205547608603656
 30
0.0
 10
10.29215710761321
 20
9.207023503251234
 30
0.0
 10
10.43489457346453
 20
9.192707275454424
 30
0.0
  0
DIMENSION
  5
2A5
330
1F
100
AcDbEntity
  8
SK2
100
AcDbDimension
  2
_D
 10
101.6
 20
78.0813211719
 30
0.0
 11
26.6833543123
 21
78.0813211719
 31
0.0
 70
   160
  1
<>
 71
     2
 42
-1.0
  3
SLDDIMSTYLE0
100
AcDbAlignedDimension
 13
0.0
 23
22.225
 33
0.0
 14
101.6
 24
20.95
 34
0.0
 50
0.0
100
AcDbRotatedDimension
  0
DIMENSION
  5
2BA
330
1F
100
AcDbEntity
  8
2
100
AcDbDimension
  2
_D_1
 10
101.6
 20
65.752455128
 30
0.0
 11
51.8704560558
 21
65.752455128
 31
0.0
 70
   160
  1
<>
 71
     2
 42
-1.0
  3
SLDDIMSTYLE0
100
AcDbAlignedDimension
 13
19.05
 23
29.8048664484
 33
0.0
 14
101.6
 24
20.95
 34
0.0
100
AcDbRotatedDimension
  0
DIMENSION
  5
2CD
330
1F
100
AcDbEntity
  8
2
100
AcDbDimension
  2
_D_2
 10
0.0
 20
65.752455128
 30
0.0
 11
6.4384150399
 21
65.752455128
 31
0.0
 70
   160
  1
<>
 71
     2
 42
-1.0
  3
SLDDIMSTYLE1
100
AcDbAlignedDimension
 13
19.05
 23
22.987
 33
0.0
 14
0.0
 24
22.225
 34
0.0
100
AcDbRotatedDimension
  0
DIMENSION
  5
2D8
330
1F
100
AcDbEntity
  8
2
100
AcDbDimension
  2
_D_3
 10
101.6
 20
53.9002753763
 30
0.0
 11
71.6154006714
 21
53.9002753763
 31
0.0
 70
   160
  1
<>
 71
     2
 42
-1.0
  3
SLDDIMSTYLE0
100
AcDbAlignedDimension
 13
35.05
 23
28.58
 33
0.0
 14
101.6
 24
20.95
 34
0.0
100
AcDbRotatedDimension
  0
DIMENSION
  5
2EB
330
1F
100
AcDbEntity
  8
2
100
AcDbDimension
  2
_D_4
 10
101.6
 20
40.3522502731
 30
0.0
 11
88.4588913402
 21
40.3522502731
 31
0.0
 70
   160
  1
<>
 71
     2
 42
-1.0
  3
SLDDIMSTYLE0
100
AcDbAlignedDimension
 13
73.025
 23
31.65
 33
0.0
 14
101.6
 24
20.95
 34
0.0
100
AcDbRotatedDimension
  0
DIMENSION
  5
2FE
330
1F
100
AcDbEntity
  8
2
100
AcDbDimension
  2
_D_5
 10
73.025
 20
40.3522502731
 30
0.0
 11
58.5555926891
 21
40.3522502731
 31
0.0
 70
   160
  1
<>
 71
     2
 42
-1.0
  3
SLDDIMSTYLE0
100
AcDbAlignedDimension
 13
48.025
 23
31.65
 33
0.0
 14
73.025
 24
31.65
 34
0.0
100
AcDbRotatedDimension
  0
DIMENSION
  5
311
330
1F
100
AcDbEntity
  8
2
100
AcDbDimension
  2
_D_6
 10
119.6207163168
 20
16.0
 30
0.0
 11
119.6207163168
 21
0.3291970159
 31
0.0
 70
   160
  1
%%c<>
 71
     2
 42
-1.0
  3
SLDDIMSTYLE2
100
AcDbAlignedDimension
 13
100.6
 23
-16.0
 33
0.0
 14
100.6
 24
16.0
 34
0.0
 50
90.0
100
AcDbRotatedDimension
  0
DIMENSION
  5
324
330
1F
100
AcDbEntity
  8
2
100
AcDbDimension
  2
_D_7
 10
132.4110618977
 20
-20.95
 30
0.0
 11
132.4110618977
 21
0.3291970159
 31
0.0
 70
   160
  1
%%c<>
 71
     2
 42
-1.0
  3
SLDDIMSTYLE0
100
AcDbAlignedDimension
 13
101.6
 23
20.95
 33
0.0
 14
101.6
 24
-20.95
 34
0.0
 50
90.0
100
AcDbRotatedDimension
  0
DIMENSION
  5
336
330
1F
100
AcDbEntity
  8
2
100
AcDbDimension
  2
_D_8
 10
147.0126630175
 20
-31.75
 30
0.0
 11
147.0126630175
 21
0.3291970159
 31
0.0
 70
   160
  1
%%c<>
 71
     2
 42
-1.0
  3
SLDDIMSTYLE0
100
AcDbAlignedDimension
 13
90.8
 23
31.75
 33
0.0
 14
90.8
 24
-31.75
 34
0.0
 50
90.0
100
AcDbRotatedDimension
  0
DIMENSION
  5
348
330
1F
100
AcDbEntity
  8
2
100
AcDbDimension
  2
_D_9
 10
101.6
 20
-65.4176743538
 30
0.0
 11
0.2272947632
 21
-65.4176743538
 31
0.0
 70
   160
  1
<>
 71
     2
 42
-1.0
  3
SLDDIMSTYLE3
100
AcDbAlignedDimension
 13
-68.25
 23
-11.1476148288
 33
0.0
 14
101.6
 24
-20.95
 34
0.0
 50
0.0
100
AcDbRotatedDimension
  0
DIMENSION
  5
35C
330
1F
100
AcDbEntity
  8
2
100
AcDbDimension
  2
_D_10
 10
101.6
 20
-57.6732941888
 30
0.0
 11
66.0781684914
 21
-57.6732941888
 31
0.0
 70
   160
  1
<>
 71
     2
 42
-1.0
  3
SLDDIMSTYLE0
100
AcDbAlignedDimension
 13
40.56
 23
-16.25
 33
0.0
 14
101.6
 24
-20.95
 34
0.0
100
AcDbRotatedDimension
  0
DIMENSION
  5
36F
330
1F
100
AcDbEntity
  8
2
100
AcDbDimension
  2
_D_11
 10
101.6
 20
-45.0018939766
 30
0.0
 11
84.4029626444
 21
-45.0018939766
 31
0.0
 70
   160
  1
<>
 71
     2
 42
-1.0
  3
SLDDIMSTYLE4
100
AcDbAlignedDimension
 13
90.8
 23
-31.75
 33
0.0
 14
101.6
 24
-20.95
 34
0.0
100
AcDbRotatedDimension
  0
DIMENSION
  5
37C
330
1F
100
AcDbEntity
  8
2
100
AcDbDimension
  2
_D_12
 10
-88.1230248602
 20
-30.5579086614
 30
0.0
 11
-88.1230248602
 21
0.3291970159
 31
0.0
 70
   160
  1
%%c<>
 71
     2
 42
-1.0
  3
SLDDIMSTYLE1
100
AcDbAlignedDimension
 13
7.5888736454
 23
30.5578899967
 33
0.0
 14
3.95
 24
-30.5579086614
 34
0.0
 50
90.0
100
AcDbRotatedDimension
  0
DIMENSION
  5
387
330
1F
100
AcDbEntity
  8
2
100
AcDbDimension
  2
_D_13
 10
-77.5960154531
 20
-7.9375002533
 30
0.0
 11
-77.5960154531
 21
0.3291970159
 31
0.0
 70
   160
  1
<>
 71
     2
 42
-1.0
  3
SLDDIMSTYLE5
100
AcDbAlignedDimension
 13
-63.3082389832
 23
7.9375002533
 33
0.0
 14
-63.3082389832
 24
-7.9375002533
 34
0.0
 50
90.0
100
AcDbRotatedDimension
  0
MTEXT
  5
395
330
1F
100
AcDbEntity
  8
SK6
 62
     5
100
AcDbMText
 10
-52.9748860462
 20
-23.0319379045
 30
0.0
 40
3.5
 41
0.0
 71
     1
 72
     1
  1
392.45520-40 32 100
  7
SLDTEXTSTYLE0
 73
     1
 44
1.0
  0
MTEXT
  5
396
330
1F
100
AcDbEntity
  8
SK6
 62
     5
100
AcDbMText
 10
-53.705962435
 20
27.8342668327
 30
0.0
 40
3.5
 41
0.0
 71
     1
 72
     1
  1
ASME B5.50 CAT 40
  7
SLDTEXTSTYLE0
 73
     1
 44
1.0
  0
ENDSEC
  0
SECTION
  2
OBJECTS
  0
DICTIONARY
  5
C
330
0
100
AcDbDictionary
281
     1
  3
ACAD_GROUP
350
D
  3
ACAD_LAYOUT
350
1A
  3
ACAD_MLINESTYLE
350
17
  3
ACAD_PLOTSETTINGS
350
19
  3
ACAD_PLOTSTYLENAME
350
E
  3
ACAD_SCALELIST
350
47
  0
DICTIONARY
  5
D
102
{ACAD_REACTORS
330
C
102
}
330
C
100
AcDbDictionary
281
     1
  0
DICTIONARY
  5
1A
102
{ACAD_REACTORS
330
C
102
}
330
C
100
AcDbDictionary
281
     1
  3
Layout1
350
1E
  3
Layout2
350
26
  3
Model
350
22
  0
DICTIONARY
  5
17
102
{ACAD_REACTORS
330
C
102
}
330
C
100
AcDbDictionary
281
     1
  3
Standard
350
18
  0
DICTIONARY
  5
19
102
{ACAD_REACTORS
330
C
102
}
330
C
100
AcDbDictionary
281
     1
  0
ACDBDICTIONARYWDFLT
  5
E
102
{ACAD_REACTORS
330
C
102
}
330
C
100
AcDbDictionary
281
     1
  3
Normal
350
F
100
AcDbDictionaryWithDefault
340
F
  0
DICTIONARY
  5
47
102
{ACAD_REACTORS
330
C
102
}
330
C
100
AcDbDictionary
281
     1
  3
A0
350
48
  3
A1
350
49
  3
A2
350
4A
  3
A3
350
4B
  3
A4
350
4C
  3
A5
350
4D
  3
A6
350
4E
  3
A7
350
4F
  3
A8
350
50
  3
A9
350
51
  3
B0
350
52
  3
B1
350
53
  3
B2
350
54
  3
B3
350
55
  3
B4
350
56
  3
B5
350
57
  3
B6
350
58
  3
B7
350
59
  3
B8
350
5A
  3
B9
350
5B
  3
C0
350
5C
  3
C1
350
5D
  3
C2
350
5E
  3
C3
350
5F
  3
C4
350
60
  3
C5
350
61
  3
C6
350
62
  3
C7
350
63
  3
C8
350
64
  3
C9
350
65
  3
D0
350
66
  3
D1
350
67
  3
D2
350
68
  0
LAYOUT
  5
1E
102
{ACAD_REACTORS
330
1A
102
}
330
1A
100
AcDbPlotSettings
  1

  2
none_device
  4

  6

 40
0.0
 41
0.0
 42
0.0
 43
0.0
 44
0.0
 45
0.0
 46
0.0
 47
0.0
 48
0.0
 49
0.0
140
0.0
141
0.0
142
1.0
143
1.0
 70
   688
 72
     1
 73
     0
 74
     5
  7

 75
    16
147
1.0
148
0.0
149
0.0
100
AcDbLayout
  1
Layout1
 70
     1
 71
     1
 10
0.0
 20
0.0
 11
420.0
 21
297.0
 12
0.0
 22
0.0
 32
0.0
 14
1.0000000000E+20
 24
1.0000000000E+20
 34
1.0000000000E+20
 15
-1.0000000000E+20
 25
-1.0000000000E+20
 35
-1.0000000000E+20
146
0.0
 13
0.0
 23
0.0
 33
0.0
 16
1.0
 26
0.0
 36
0.0
 17
0.0
 27
1.0
 37
0.0
 76
     0
330
1B
  0
LAYOUT
  5
26
102
{ACAD_REACTORS
330
1A
102
}
330
1A
100
AcDbPlotSettings
  1

  2
none_device
  4

  6

 40
0.0
 41
0.0
 42
0.0
 43
0.0
 44
0.0
 45
0.0
 46
0.0
 47
0.0
 48
0.0
 49
0.0
140
0.0
141
0.0
142
1.0
143
1.0
 70
   688
 72
     1
 73
     0
 74
     5
  7

 75
    16
147
1.0
148
0.0
149
0.0
100
AcDbLayout
  1
Layout2
 70
     1
 71
     2
 10
0.0
 20
0.0
 11
0.0
 21
0.0
 12
0.0
 22
0.0
 32
0.0
 14
0.0
 24
0.0
 34
0.0
 15
0.0
 25
0.0
 35
0.0
146
0.0
 13
0.0
 23
0.0
 33
0.0
 16
1.0
 26
0.0
 36
0.0
 17
0.0
 27
1.0
 37
0.0
 76
     0
330
23
  0
LAYOUT
  5
22
102
{ACAD_REACTORS
330
1A
102
}
330
1A
100
AcDbPlotSettings
  1

  2
none_device
  4
Letter_(8.50_x_11.00_Inches)
  6

 40
6.35
 41
6.35
 42
6.35000508
 43
6.35000508
 44
215.9
 45
279.4
 46
0.0
 47
0.0
 48
0.0
 49
0.0
140
0.0
141
0.0
142
1.0
143
1.0
 70
  1712
 72
     1
 73
     0
 74
     0
  7

 75
     0
147
1.0
148
0.0
149
0.0
100
AcDbLayout
  1
Model
 70
     1
 71
     0
 10
0.0
 20
0.0
 11
297.0
 21
210.0
 12
0.0
 22
0.0
 32
0.0
 14
0.0
 24
0.0
 34
0.0
 15
297.0
 25
210.0
 35
0.0
146
0.0
 13
0.0
 23
0.0
 33
0.0
 16
1.0
 26
0.0
 36
0.0
 17
0.0
 27
1.0
 37
0.0
 76
     0
330
1F
331
29
  0
MLINESTYLE
  5
18
102
{ACAD_REACTORS
330
17
102
}
330
17
100
AcDbMlineStyle
  2
Standard
 70
     0
  3

 62
   256
 51
90.0
 52
90.0
 71
     2
 49
0.5
 62
   256
  6
BYLAYER
 49
-0.5
 62
   256
  6
BYLAYER
  0
ACDBPLACEHOLDER
  5
F
102
{ACAD_REACTORS
330
E
102
}
330
E
  0
SCALE
  5
48
102
{ACAD_REACTORS
330
47
102
}
330
47
100
AcDbScale
 70
     0
300
1:1
140
1.0
141
1.0
290
     1
  0
SCALE
  5
49
102
{ACAD_REACTORS
330
47
102
}
330
47
100
AcDbScale
 70
     0
300
1:2
140
1.0
141
2.0
290
     0
  0
SCALE
  5
4A
102
{ACAD_REACTORS
330
47
102
}
330
47
100
AcDbScale
 70
     0
300
1:4
140
1.0
141
4.0
290
     0
  0
SCALE
  5
4B
102
{ACAD_REACTORS
330
47
102
}
330
47
100
AcDbScale
 70
     0
300
1:5
140
1.0
141
5.0
290
     0
  0
SCALE
  5
4C
102
{ACAD_REACTORS
330
47
102
}
330
47
100
AcDbScale
 70
     0
300
1:8
140
1.0
141
8.0
290
     0
  0
SCALE
  5
4D
102
{ACAD_REACTORS
330
47
102
}
330
47
100
AcDbScale
 70
     0
300
1:10
140
1.0
141
10.0
290
     0
  0
SCALE
  5
4E
102
{ACAD_REACTORS
330
47
102
}
330
47
100
AcDbScale
 70
     0
300
1:16
140
1.0
141
16.0
290
     0
  0
SCALE
  5
4F
102
{ACAD_REACTORS
330
47
102
}
330
47
100
AcDbScale
 70
     0
300
1:20
140
1.0
141
20.0
290
     0
  0
SCALE
  5
50
102
{ACAD_REACTORS
330
47
102
}
330
47
100
AcDbScale
 70
     0
300
1:30
140
1.0
141
30.0
290
     0
  0
SCALE
  5
51
102
{ACAD_REACTORS
330
47
102
}
330
47
100
AcDbScale
 70
     0
300
1:40
140
1.0
141
40.0
290
     0
  0
SCALE
  5
52
102
{ACAD_REACTORS
330
47
102
}
330
47
100
AcDbScale
 70
     0
300
1:50
140
1.0
141
50.0
290
     0
  0
SCALE
  5
53
102
{ACAD_REACTORS
330
47
102
}
330
47
100
AcDbScale
 70
     0
300
1:100
140
1.0
141
100.0
290
     0
  0
SCALE
  5
54
102
{ACAD_REACTORS
330
47
102
}
330
47
100
AcDbScale
 70
     0
300
2:1
140
2.0
141
1.0
290
     0
  0
SCALE
  5
55
102
{ACAD_REACTORS
330
47
102
}
330
47
100
AcDbScale
 70
     0
300
4:1
140
4.0
141
1.0
290
     0
  0
SCALE
  5
56
102
{ACAD_REACTORS
330
47
102
}
330
47
100
AcDbScale
 70
     0
300
8:1
140
8.0
141
1.0
290
     0
  0
SCALE
  5
57
102
{ACAD_REACTORS
330
47
102
}
330
47
100
AcDbScale
 70
     0
300
10:1
140
10.0
141
1.0
290
     0
  0
SCALE
  5
58
102
{ACAD_REACTORS
330
47
102
}
330
47
100
AcDbScale
 70
     0
300
100:1
140
100.0
141
1.0
290
     0
  0
SCALE
  5
59
102
{ACAD_REACTORS
330
47
102
}
330
47
100
AcDbScale
 70
     0
300
1/128" = 1'-0"
140
0.0078125
141
12.0
290
     0
  0
SCALE
  5
5A
102
{ACAD_REACTORS
330
47
102
}
330
47
100
AcDbScale
 70
     0
300
1/64" = 1'-0"
140
0.015625
141
12.0
290
     0
  0
SCALE
  5
5B
102
{ACAD_REACTORS
330
47
102
}
330
47
100
AcDbScale
 70
     0
300
1/32" = 1'-0"
140
0.03125
141
12.0
290
     0
  0
SCALE
  5
5C
102
{ACAD_REACTORS
330
47
102
}
330
47
100
AcDbScale
 70
     0
300
1/16" = 1'-0"
140
0.0625
141
12.0
290
     0
  0
SCALE
  5
5D
102
{ACAD_REACTORS
330
47
102
}
330
47
100
AcDbScale
 70
     0
300
3/32" = 1'-0"
140
0.09375
141
12.0
290
     0
  0
SCALE
  5
5E
102
{ACAD_REACTORS
330
47
102
}
330
47
100
AcDbScale
 70
     0
300
1/8" = 1'-0"
140
0.125
141
12.0
290
     0
  0
SCALE
  5
5F
102
{ACAD_REACTORS
330
47
102
}
330
47
100
AcDbScale
 70
     0
300
3/16" = 1'-0"
140
0.1875
141
12.0
290
     0
  0
SCALE
  5
60
102
{ACAD_REACTORS
330
47
102
}
330
47
100
AcDbScale
 70
     0
300
1/4" = 1'-0"
140
0.25
141
12.0
290
     0
  0
SCALE
  5
61
102
{ACAD_REACTORS
330
47
102
}
330
47
100
AcDbScale
 70
     0
300
3/8" = 1'-0"
140
0.375
141
12.0
290
     0
  0
SCALE
  5
62
102
{ACAD_REACTORS
330
47
102
}
330
47
100
AcDbScale
 70
     0
300
1/2" = 1'-0"
140
0.5
141
12.0
290
     0
  0
SCALE
  5
63
102
{ACAD_REACTORS
330
47
102
}
330
47
100
AcDbScale
 70
     0
300
3/4" = 1'-0"
140
0.75
141
12.0
290
     0
  0
SCALE
  5
64
102
{ACAD_REACTORS
330
47
102
}
330
47
100
AcDbScale
 70
     0
300
1" = 1'-0"
140
1.0
141
12.0
290
     0
  0
SCALE
  5
65
102
{ACAD_REACTORS
330
47
102
}
330
47
100
AcDbScale
 70
     0
300
1-1/2" = 1'-0"
140
1.5
141
12.0
290
     0
  0
SCALE
  5
66
102
{ACAD_REACTORS
330
47
102
}
330
47
100
AcDbScale
 70
     0
300
3" = 1'-0"
140
3.0
141
12.0
290
     0
  0
SCALE
  5
67
102
{ACAD_REACTORS
330
47
102
}
330
47
100
AcDbScale
 70
     0
300
6" = 1'-0"
140
6.0
141
12.0
290
     0
  0
SCALE
  5
68
102
{ACAD_REACTORS
330
47
102
}
330
47
100
AcDbScale
 70
     0
300
1'-0" = 1'-0"
140
12.0
141
12.0
290
     0
  0
ENDSEC
  0
EOF
