  0
SECTION
  2
HEADER
  9
$ACADVER
  1
AC1015
  9
$ACADMAINTVER
 70
     6
  9
$DWGCODEPAGE
  3
ANSI_1250
  9
$INSBASE
 10
0.0
 20
0.0
 30
0.0
  9
$EXTMIN
 10
0.0
 20
0.0
 30
0.0
  9
$EXTMAX
 10
297.0
 20
210.0
 30
0.0
  9
$LIMMIN
 10
0.0
 20
0.0
  9
$LIMMAX
 10
297.0
 20
210.0
  9
$ORTHOMODE
 70
     0
  9
$REGENMODE
 70
     1
  9
$FILLMODE
 70
     1
  9
$QTEXTMODE
 70
     0
  9
$MIRRTEXT
 70
     1
  9
$LTSCALE
 40
1.0
  9
$ATTMODE
 70
     1
  9
$TEXTSIZE
 40
3.5
  9
$TRACEWID
 40
1.0
  9
$TEXTSTYLE
  7
Standard
  9
$CLAYER
  8
0
  9
$CELTYPE
  6
ByLayer
  9
$CECOLOR
 62
   256
  9
$CELTSCALE
 40
1.0
  9
$DISPSILH
 70
     0
  9
$DIMSCALE
 40
1.0
  9
$DIMASZ
 40
3.302
  9
$DIMEXO
 40
1.0
  9
$DIMDLI
 40
3.75
  9
$DIMRND
 40
0.0
  9
$DIMDLE
 40
0.0
  9
$DIMEXE
 40
1.0
  9
$DIMTP
 40
0.0
  9
$DIMTM
 40
0.0
  9
$DIMTXT
 40
3.5
  9
$DIMCEN
 40
2.5
  9
$DIMTSZ
 40
0.0
  9
$DIMTOL
 70
     0
  9
$DIMLIM
 70
     0
  9
$DIMTIH
 70
     1
  9
$DIMTOH
 70
     1
  9
$DIMSE1
 70
     0
  9
$DIMSE2
 70
     0
  9
$DIMTAD
 70
     1
  9
$DIMZIN
 70
     0
  9
$DIMBLK
  1

  9
$DIMASO
 70
     1
  9
$DIMSHO
 70
     1
  9
$DIMPOST
  1

  9
$DIMAPOST
  1

  9
$DIMALT
 70
     0
  9
$DIMALTD
 70
     3
  9
$DIMALTF
 40
0.0393700787
  9
$DIMLFAC
 40
1.0
  9
$DIMTOFL
 70
     1
  9
$DIMTVP
 40
0.0
  9
$DIMTIX
 70
     0
  9
$DIMSOXD
 70
     0
  9
$DIMSAH
 70
     0
  9
$DIMBLK1
  1

  9
$DIMBLK2
  1

  9
$DIMSTYLE
  2
ISO-25
  9
$DIMCLRD
 70
     0
  9
$DIMCLRE
 70
     0
  9
$DIMCLRT
 70
     0
  9
$DIMTFAC
 40
1.0
  9
$DIMGAP
 40
1.524
  9
$DIMJUST
 70
     0
  9
$DIMSD1
 70
     0
  9
$DIMSD2
 70
     0
  9
$DIMTOLJ
 70
     0
  9
$DIMTZIN
 70
     0
  9
$DIMALTZ
 70
     0
  9
$DIMALTTZ
 70
     0
  9
$DIMUPT
 70
     0
  9
$DIMDEC
 70
     2
  9
$DIMTDEC
 70
     2
  9
$DIMALTU
 70
     2
  9
$DIMALTTD
 70
     3
  9
$DIMTXSTY
  7
Standard
  9
$DIMAUNIT
 70
     0
  9
$DIMADEC
 70
     2
  9
$DIMALTRND
 40
0.0
  9
$DIMAZIN
 70
     0
  9
$DIMDSEP
 70
    44
  9
$DIMATFIT
 70
     3
  9
$DIMFRAC
 70
     0
  9
$DIMLDRBLK
  1

  9
$DIMLUNIT
 70
     2
  9
$DIMLWD
 70
    -2
  9
$DIMLWE
 70
    -2
  9
$DIMTMOVE
 70
     0
  9
$LUNITS
 70
     2
  9
$LUPREC
 70
     2
  9
$SKETCHINC
 40
1.0
  9
$FILLETRAD
 40
10.0
  9
$AUNITS
 70
     0
  9
$AUPREC
 70
     2
  9
$MENU
  1
.
  9
$ELEVATION
 40
0.0
  9
$PELEVATION
 40
0.0
  9
$THICKNESS
 40
0.0
  9
$LIMCHECK
 70
     0
  9
$CHAMFERA
 40
0.0
  9
$CHAMFERB
 40
0.0
  9
$CHAMFERC
 40
0.0
  9
$CHAMFERD
 40
0.0
  9
$SKPOLY
 70
     0
  9
$TDCREATE
 40
2459278.310613276
  9
$TDUCREATE
 40
2459278.268946609
  9
$TDUPDATE
 40
2459278.310615266
  9
$TDUUPDATE
 40
2459278.2689486
  9
$TDINDWG
 40
0.0000000116
  9
$TDUSRTIMER
 40
0.0000000116
  9
$USRTIMER
 70
     1
  9
$ANGBASE
 50
0.0
  9
$ANGDIR
 70
     0
  9
$PDMODE
 70
     0
  9
$PDSIZE
 40
-1.0
  9
$PLINEWID
 40
0.0
  9
$SPLFRAME
 70
     0
  9
$SPLINETYPE
 70
     6
  9
$SPLINESEGS
 70
     8
  9
$HANDSEED
  5
377
  9
$SURFTAB1
 70
     6
  9
$SURFTAB2
 70
     6
  9
$SURFTYPE
 70
     6
  9
$SURFU
 70
     6
  9
$SURFV
 70
     6
  9
$UCSBASE
  2

  9
$UCSNAME
  2

  9
$UCSORG
 10
0.0
 20
0.0
 30
0.0
  9
$UCSXDIR
 10
1.0
 20
0.0
 30
0.0
  9
$UCSYDIR
 10
0.0
 20
1.0
 30
0.0
  9
$UCSORTHOREF
  2

  9
$UCSORTHOVIEW
 70
     0
  9
$UCSORGTOP
 10
0.0
 20
0.0
 30
0.0
  9
$UCSORGBOTTOM
 10
0.0
 20
0.0
 30
0.0
  9
$UCSORGLEFT
 10
0.0
 20
0.0
 30
0.0
  9
$UCSORGRIGHT
 10
0.0
 20
0.0
 30
0.0
  9
$UCSORGFRONT
 10
0.0
 20
0.0
 30
0.0
  9
$UCSORGBACK
 10
0.0
 20
0.0
 30
0.0
  9
$PUCSBASE
  2

  9
$PUCSNAME
  2

  9
$PUCSORG
 10
0.0
 20
0.0
 30
0.0
  9
$PUCSXDIR
 10
1.0
 20
0.0
 30
0.0
  9
$PUCSYDIR
 10
0.0
 20
1.0
 30
0.0
  9
$PUCSORTHOREF
  2

  9
$PUCSORTHOVIEW
 70
     0
  9
$PUCSORGTOP
 10
0.0
 20
0.0
 30
0.0
  9
$PUCSORGBOTTOM
 10
0.0
 20
0.0
 30
0.0
  9
$PUCSORGLEFT
 10
0.0
 20
0.0
 30
0.0
  9
$PUCSORGRIGHT
 10
0.0
 20
0.0
 30
0.0
  9
$PUCSORGFRONT
 10
0.0
 20
0.0
 30
0.0
  9
$PUCSORGBACK
 10
0.0
 20
0.0
 30
0.0
  9
$USERI1
 70
     0
  9
$USERI2
 70
     0
  9
$USERI3
 70
     0
  9
$USERI4
 70
     0
  9
$USERI5
 70
     0
  9
$USERR1
 40
0.0
  9
$USERR2
 40
0.0
  9
$USERR3
 40
0.0
  9
$USERR4
 40
0.0
  9
$USERR5
 40
0.0
  9
$WORLDVIEW
 70
     1
  9
$SHADEDGE
 70
     3
  9
$SHADEDIF
 70
    70
  9
$TILEMODE
 70
     1
  9
$MAXACTVP
 70
    64
  9
$PINSBASE
 10
0.0
 20
0.0
 30
0.0
  9
$PLIMCHECK
 70
     0
  9
$PEXTMIN
 10
1.0000000000E+20
 20
1.0000000000E+20
 30
1.0000000000E+20
  9
$PEXTMAX
 10
-1.0000000000E+20
 20
-1.0000000000E+20
 30
-1.0000000000E+20
  9
$PLIMMIN
 10
0.0
 20
0.0
  9
$PLIMMAX
 10
420.0
 20
297.0
  9
$UNITMODE
 70
     0
  9
$VISRETAIN
 70
     1
  9
$PLINEGEN
 70
     0
  9
$PSLTSCALE
 70
     1
  9
$TREEDEPTH
 70
  3020
  9
$CMLSTYLE
  2
Standard
  9
$CMLJUST
 70
     0
  9
$CMLSCALE
 40
20.0
  9
$PROXYGRAPHICS
 70
     1
  9
$MEASUREMENT
 70
     1
  9
$CELWEIGHT
370
    -1
  9
$ENDCAPS
280
     0
  9
$JOINSTYLE
280
     0
  9
$LWDISPLAY
290
     1
  9
$INSUNITS
 70
     4
  9
$HYPERLINKBASE
  1

  9
$STYLESHEET
  1

  9
$XEDIT
290
     1
  9
$CEPSNTYPE
380
     0
  9
$PSTYLEMODE
290
     1
  9
$FINGERPRINTGUID
  2
{12F43553-4208-4F04-9195-6203B2475448}
  9
$VERSIONGUID
  2
{FAEB1C32-E019-11D5-929B-00C0DF256EC4}
  9
$EXTNAMES
290
     1
  9
$PSVPSCALE
 40
0.0
  9
$OLESTARTUP
290
     0
  0
ENDSEC
  0
SECTION
  2
CLASSES
  0
CLASS
  1
ACDBDICTIONARYWDFLT
  2
AcDbDictionaryWithDefault
  3
ObjectDBX Classes
 90
        0
280
     0
281
     0
  0
CLASS
  1
VISUALSTYLE
  2
AcDbVisualStyle
  3
ObjectDBX Classes
 90
     4095
280
     0
281
     0
  0
CLASS
  1
MATERIAL
  2
AcDbMaterial
  3
ObjectDBX Classes
 90
     1153
280
     0
281
     0
  0
CLASS
  1
SCALE
  2
AcDbScale
  3
ObjectDBX Classes
 90
     1153
280
     0
281
     0
  0
CLASS
  1
TABLESTYLE
  2
AcDbTableStyle
  3
ObjectDBX Classes
 90
     4095
280
     0
281
     0
  0
CLASS
  1
MLEADERSTYLE
  2
AcDbMLeaderStyle
  3
ACDB_MLEADERSTYLE_CLASS
 90
     4095
280
     0
281
     0
  0
CLASS
  1
SUN
  2
AcDbSun
  3
SCENEOE
 90
     1153
280
     0
281
     0
  0
CLASS
  1
ACDBPLACEHOLDER
  2
AcDbPlaceHolder
  3
ObjectDBX Classes
 90
        0
280
     0
281
     0
  0
CLASS
  1
LAYOUT
  2
AcDbLayout
  3
ObjectDBX Classes
 90
        0
280
     0
281
     0
  0
ENDSEC
  0
SECTION
  2
TABLES
  0
TABLE
  2
VPORT
  5
8
330
0
100
AcDbSymbolTable
 70
     1
  0
VPORT
  5
29
330
8
100
AcDbSymbolTableRecord
100
AcDbViewportTableRecord
  2
*Active
 70
     0
 10
0.0
 20
0.0
 11
1.0
 21
1.0
 12
148.5
 22
105.0
 13
0.0
 23
0.0
 14
10.0
 24
10.0
 15
10.0
 25
10.0
 16
0.0
 26
0.0
 36
1.0
 17
0.0
 27
0.0
 37
0.0
 40
210.0
 41
1.4142857143
 42
50.0
 43
0.0
 44
0.0
 50
0.0
 51
0.0
 71
     0
 72
  2000
 73
     1
 74
     3
 75
     0
 76
     0
 77
     0
 78
     0
281
     0
 65
     1
110
0.0
120
0.0
130
0.0
111
1.0
121
0.0
131
0.0
112
0.0
122
1.0
132
0.0
 79
     0
146
0.0
  0
ENDTAB
  0
TABLE
  2
LTYPE
  5
5
330
0
100
AcDbSymbolTable
 70
     8
  0
LTYPE
  5
14
330
5
100
AcDbSymbolTableRecord
100
AcDbLinetypeTableRecord
  2
ByBlock
 70
     0
  3

 72
    65
 73
     0
 40
0.0
  0
LTYPE
  5
15
330
5
100
AcDbSymbolTableRecord
100
AcDbLinetypeTableRecord
  2
ByLayer
 70
     0
  3

 72
    65
 73
     0
 40
0.0
  0
LTYPE
  5
16
330
5
100
AcDbSymbolTableRecord
100
AcDbLinetypeTableRecord
  2
Continuous
 70
     0
  3
Solid line
 72
    65
 73
     0
 40
0.0
  0
LTYPE
  5
6E
330
5
100
AcDbSymbolTableRecord
100
AcDbLinetypeTableRecord
  2
SLD-Solid
 70
     0
  3
SolidWorks Line Style
 72
    65
 73
     0
 40
0.0
  0
LTYPE
  5
6F
330
5
100
AcDbSymbolTableRecord
100
AcDbLinetypeTableRecord
  2
SLD-Dashed
 70
     0
  3
SolidWorks Line Style
 72
    65
 73
     2
 40
1.905
 49
1.27
 74
     0
 49
-0.635
 74
     0
  0
LTYPE
  5
70
330
5
100
AcDbSymbolTableRecord
100
AcDbLinetypeTableRecord
  2
SLD-Phantom
 70
     0
  3
SolidWorks Line Style
 72
    65
 73
     6
 40
12.7
 49
6.35
 74
     0
 49
-1.27
 74
     0
 49
1.27
 74
     0
 49
-1.27
 74
     0
 49
1.27
 74
     0
 49
-1.27
 74
     0
  0
LTYPE
  5
71
330
5
100
AcDbSymbolTableRecord
100
AcDbLinetypeTableRecord
  2
SLD-Chain
 70
     0
  3
SolidWorks Line Style
 72
    65
 73
     4
 40
10.16
 49
6.35
 74
     0
 49
-1.27
 74
     0
 49
1.27
 74
     0
 49
-1.27
 74
     0
  0
LTYPE
  5
72
330
5
100
AcDbSymbolTableRecord
100
AcDbLinetypeTableRecord
  2
SLD-Center
 70
     0
  3
SolidWorks Line Style
 72
    65
 73
     4
 40
19.05
 49
15.24
 74
     0
 49
-1.27
 74
     0
 49
1.27
 74
     0
 49
-1.27
 74
     0
  0
LTYPE
  5
73
330
5
100
AcDbSymbolTableRecord
100
AcDbLinetypeTableRecord
  2
SLD-Stitch
 70
     0
  3
SolidWorks Line Style
 72
    65
 73
     2
 40
0.635
 49
0.0
 74
     0
 49
-0.635
 74
     0
  0
LTYPE
  5
74
330
5
100
AcDbSymbolTableRecord
100
AcDbLinetypeTableRecord
  2
SLD-Thin-Thick-Chain
 70
     0
  3
SolidWorks Line Style
 72
    65
 73
     4
 40
10.16
 49
6.35
 74
     0
 49
-1.27
 74
     0
 49
1.27
 74
     0
 49
-1.27
 74
     0
  0
ENDTAB
  0
TABLE
  2
LAYER
  5
2
330
0
100
AcDbSymbolTable
 70
    14
  0
LAYER
  5
10
330
2
100
AcDbSymbolTableRecord
100
AcDbLayerTableRecord
  2
0
 70
     0
 62
     7
  6
Continuous
370
    -3
390
F
  0
LAYER
  5
75
330
2
100
AcDbSymbolTableRecord
100
AcDbLayerTableRecord
  2
SLD-0
 70
     0
 62
   179
  6
SLD-Solid
370
    -3
390
F
  0
LAYER
  5
76
330
2
100
AcDbSymbolTableRecord
100
AcDbLayerTableRecord
  2
80
 70
     0
 62
    -6
  6
SLD-Solid
290
     0
370
    -3
390
F
  0
LAYER
  5
77
330
2
100
AcDbSymbolTableRecord
100
AcDbLayerTableRecord
  2
81
 70
     0
 62
    -3
  6
SLD-Solid
290
     0
370
    -3
390
F
  0
LAYER
  5
78
330
2
100
AcDbSymbolTableRecord
100
AcDbLayerTableRecord
  2
1
 70
     0
 62
     4
  6
SLD-Solid
290
     0
370
    -3
390
F
  0
LAYER
  5
79
330
2
100
AcDbSymbolTableRecord
100
AcDbLayerTableRecord
  2
4
 70
     0
 62
    -2
  6
SLD-Chain
290
     0
370
    -3
390
F
  0
LAYER
  5
7A
330
2
100
AcDbSymbolTableRecord
100
AcDbLayerTableRecord
  2
2
 70
     0
 62
     7
  6
SLD-Solid
290
     0
370
    -3
390
F
  0
LAYER
  5
7B
330
2
100
AcDbSymbolTableRecord
100
AcDbLayerTableRecord
  2
SK3
 70
     0
 62
     1
  6
SLD-Dashed
290
     0
370
    -3
390
F
  0
LAYER
  5
7C
330
2
100
AcDbSymbolTableRecord
100
AcDbLayerTableRecord
  2
SK4
 70
     0
 62
     2
  6
SLD-Chain
290
     0
370
    -3
390
F
  0
LAYER
  5
7D
330
2
100
AcDbSymbolTableRecord
100
AcDbLayerTableRecord
  2
SK2
 70
     0
 62
     7
  6
SLD-Solid
290
     0
370
    -3
390
F
  0
LAYER
  5
7E
330
2
100
AcDbSymbolTableRecord
100
AcDbLayerTableRecord
  2
SK6
 70
     0
 62
     5
  6
SLD-Solid
290
     0
370
    -3
390
F
  0
LAYER
  5
7F
330
2
100
AcDbSymbolTableRecord
100
AcDbLayerTableRecord
  2
6
 70
     0
 62
     5
  6
SLD-Solid
370
    -3
390
F
  0
LAYER
  5
80
330
2
100
AcDbSymbolTableRecord
100
AcDbLayerTableRecord
  2
SK1
 70
     0
 62
     4
  6
SLD-Solid
370
    -3
390
F
  0
LAYER
  5
81
330
2
100
AcDbSymbolTableRecord
100
AcDbLayerTableRecord
  2
LAYER5
 70
     0
 62
   218
  6
SLD-Solid
370
    -3
390
F
  0
ENDTAB
  0
TABLE
  2
STYLE
  5
3
330
0
100
AcDbSymbolTable
 70
     3
  0
STYLE
  5
11
330
3
100
AcDbSymbolTableRecord
100
AcDbTextStyleTableRecord
  2
Standard
 70
     0
 40
0.0
 41
1.0
 50
0.0
 71
     0
 42
3.5
  3
txt
  4

  0
STYLE
  5
287
330
3
100
AcDbSymbolTableRecord
100
AcDbTextStyleTableRecord
  2
SLDTEXTSTYLE0
 70
     0
 40
0.0
 41
0.75
 50
0.0
 71
     0
 42
3.5
  3
TXT
  4

  0
STYLE
  5
373
330
3
100
AcDbSymbolTableRecord
100
AcDbTextStyleTableRecord
  2
SLDTEXTSTYLE1
 70
     0
 40
0.0
 41
0.6875
 50
0.0
 71
     0
 42
3.5
  3
TXT
  4

  0
ENDTAB
  0
TABLE
  2
VIEW
  5
6
330
0
100
AcDbSymbolTable
 70
     0
  0
ENDTAB
  0
TABLE
  2
UCS
  5
7
330
0
100
AcDbSymbolTable
 70
     0
  0
ENDTAB
  0
TABLE
  2
APPID
  5
9
330
0
100
AcDbSymbolTable
 70
     1
  0
APPID
  5
12
330
9
100
AcDbSymbolTableRecord
100
AcDbRegAppTableRecord
  2
ACAD
 70
     0
  0
ENDTAB
  0
TABLE
  2
DIMSTYLE
  5
A
330
0
100
AcDbSymbolTable
 70
     6
100
AcDbDimStyleTable
  0
DIMSTYLE
105
27
330
A
100
AcDbSymbolTableRecord
100
AcDbDimStyleTableRecord
  2
ISO-25
 70
     0
 41
2.5
 42
0.625
 43
3.75
 44
1.25
 73
     0
 74
     0
 77
     1
 78
     8
140
2.5
141
2.5
143
0.0393700787
147
0.625
171
     3
172
     1
178
     0
271
     2
272
     2
274
     3
278
    44
283
     0
284
     8
340
11
  0
DIMSTYLE
105
288
102
{ACAD_REACTORS
330
286
330
2A6
330
2B9
330
2CC
330
2DF
330
305
330
317
330
33C
102
}
330
A
100
AcDbSymbolTableRecord
100
AcDbDimStyleTableRecord
  2
SLDDIMSTYLE0
 70
     0
 41
3.302
 44
0.0
 45
0.000000001
 73
     0
 74
     0
 77
     1
 78
    12
 79
     3
140
3.5
143
0.0393700787
147
0.875
148
0.000000001
170
     1
173
     1
178
     0
271
     2
272
     2
276
     2
284
    12
340
287
  0
DIMSTYLE
105
29C
102
{ACAD_REACTORS
330
29B
330
35C
102
}
330
A
100
AcDbSymbolTableRecord
100
AcDbDimStyleTableRecord
  2
SLDDIMSTYLE1
 70
     0
 41
3.302
 44
0.0
 45
0.000000001
 73
     0
 74
     0
 77
     1
 78
    12
 79
     3
140
3.5
147
0.875
173
     1
178
     0
271
     2
272
     2
276
     2
284
    12
340
287
  0
DIMSTYLE
105
2F3
102
{ACAD_REACTORS
330
2F2
330
329
102
}
330
A
100
AcDbSymbolTableRecord
100
AcDbDimStyleTableRecord
  2
SLDDIMSTYLE2
 70
     0
 41
3.302
 44
0.0
 45
0.000000001
 73
     0
 74
     0
 77
     1
 78
    12
 79
     3
140
3.5
143
0.0393700787
147
0.875
148
0.000000001
170
     1
171
     3
173
     1
178
     0
271
     3
272
     2
274
     3
276
     2
284
    12
340
287
  0
DIMSTYLE
105
350
102
{ACAD_REACTORS
330
34F
102
}
330
A
100
AcDbSymbolTableRecord
100
AcDbDimStyleTableRecord
  2
SLDDIMSTYLE3
 70
     0
 41
3.302
 44
0.0
 45
0.000000001
 73
     0
 74
     0
 77
     1
 78
    12
 79
     3
140
3.5
147
0.875
172
     1
173
     1
178
     0
271
     2
272
     2
276
     2
284
    12
289
     0
340
287
  0
DIMSTYLE
105
368
102
{ACAD_REACTORS
330
367
102
}
330
A
100
AcDbSymbolTableRecord
100
AcDbDimStyleTableRecord
  2
SLDDIMSTYLE4
 70
     0
 41
3.302
 44
0.0
 45
0.000000001
 73
     0
 74
     0
 77
     1
 78
    12
 79
     3
140
3.5
147
0.875
172
     1
173
     1
178
     0
271
     6
272
     2
276
     2
284
    12
289
     0
340
287
  0
ENDTAB
  0
TABLE
  2
BLOCK_RECORD
  5
1
330
0
100
AcDbSymbolTable
 70
    15
  0
BLOCK_RECORD
  5
1F
330
1
100
AcDbSymbolTableRecord
100
AcDbBlockTableRecord
  2
*Model_Space
340
22
  0
BLOCK_RECORD
  5
1B
330
1
100
AcDbSymbolTableRecord
100
AcDbBlockTableRecord
  2
*Paper_Space
340
1E
  0
BLOCK_RECORD
  5
23
330
1
100
AcDbSymbolTableRecord
100
AcDbBlockTableRecord
  2
*Paper_Space0
340
26
  0
BLOCK_RECORD
  5
289
330
1
100
AcDbSymbolTableRecord
100
AcDbBlockTableRecord
  2
_D
340
0
  0
BLOCK_RECORD
  5
29D
330
1
100
AcDbSymbolTableRecord
100
AcDbBlockTableRecord
  2
_D_1
340
0
  0
BLOCK_RECORD
  5
2A7
330
1
100
AcDbSymbolTableRecord
100
AcDbBlockTableRecord
  2
_D_2
340
0
  0
BLOCK_RECORD
  5
2BA
330
1
100
AcDbSymbolTableRecord
100
AcDbBlockTableRecord
  2
_D_3
340
0
  0
BLOCK_RECORD
  5
2CD
330
1
100
AcDbSymbolTableRecord
100
AcDbBlockTableRecord
  2
_D_4
340
0
  0
BLOCK_RECORD
  5
2E0
330
1
100
AcDbSymbolTableRecord
100
AcDbBlockTableRecord
  2
_D_5
340
0
  0
BLOCK_RECORD
  5
2F4
330
1
100
AcDbSymbolTableRecord
100
AcDbBlockTableRecord
  2
_D_6
340
0
  0
BLOCK_RECORD
  5
306
330
1
100
AcDbSymbolTableRecord
100
AcDbBlockTableRecord
  2
_D_7
340
0
  0
BLOCK_RECORD
  5
318
330
1
100
AcDbSymbolTableRecord
100
AcDbBlockTableRecord
  2
_D_8
340
0
  0
BLOCK_RECORD
  5
32A
330
1
100
AcDbSymbolTableRecord
100
AcDbBlockTableRecord
  2
_D_9
340
0
  0
BLOCK_RECORD
  5
33D
330
1
100
AcDbSymbolTableRecord
100
AcDbBlockTableRecord
  2
_D_10
340
0
  0
BLOCK_RECORD
  5
351
330
1
100
AcDbSymbolTableRecord
100
AcDbBlockTableRecord
  2
_D_11
340
0
  0
BLOCK_RECORD
  5
35D
330
1
100
AcDbSymbolTableRecord
100
AcDbBlockTableRecord
  2
_D_12
340
0
  0
BLOCK_RECORD
  5
369
330
1
100
AcDbSymbolTableRecord
100
AcDbBlockTableRecord
  2
_D_13
340
0
  0
ENDTAB
  0
ENDSEC
  0
SECTION
  2
BLOCKS
  0
BLOCK
  5
20
330
1F
100
AcDbEntity
  8
0
100
AcDbBlockBegin
  2
*Model_Space
 70
     0
 10
0.0
 20
0.0
 30
0.0
  3
*Model_Space
  1

  0
ENDBLK
  5
21
330
1F
100
AcDbEntity
  8
0
100
AcDbBlockEnd
  0
BLOCK
  5
1C
330
1B
100
AcDbEntity
 67
     1
  8
0
100
AcDbBlockBegin
  2
*Paper_Space
 70
     0
 10
0.0
 20
0.0
 30
0.0
  3
*Paper_Space
  1

  0
ENDBLK
  5
1D
330
1B
100
AcDbEntity
 67
     1
  8
0
100
AcDbBlockEnd
  0
BLOCK
  5
24
330
23
100
AcDbEntity
  8
0
100
AcDbBlockBegin
  2
*Paper_Space0
 70
     0
 10
0.0
 20
0.0
 30
0.0
  3
*Paper_Space0
  1

  0
ENDBLK
  5
25
330
23
100
AcDbEntity
  8
0
100
AcDbBlockEnd
  0
BLOCK
  5
28A
330
289
100
AcDbEntity
  8
0
100
AcDbBlockBegin
  2
_D
 70
     0
 10
0.0
 20
0.0
 30
0.0
  3
_D
  1

  0
SOLID
  5
28C
330
289
100
AcDbEntity
  8
2
100
AcDbTrace
 10
0.0
 20
70.8215490434
 30
0.0
 11
3.302
 21
70.3135490434
 31
0.0
 12
3.302
 22
71.3295490434
 32
0.0
 13
3.302
 23
71.3295490434
 33
0.0
  0
SOLID
  5
28D
330
289
100
AcDbEntity
  8
2
100
AcDbTrace
 10
101.6
 20
70.8215490434
 30
0.0
 11
98.298
 21
71.3295490434
 31
0.0
 12
98.298
 22
70.3135490434
 32
0.0
 13
98.298
 23
70.3135490434
 33
0.0
  0
LINE
  5
28E
330
289
100
AcDbEntity
  8
2
100
AcDbLine
 10
22.2647855432
 20
81.6144307595
 30
0.0
 11
21.1983792858
 21
81.6144307595
 31
0.0
  0
LINE
  5
28F
330
289
100
AcDbEntity
  8
2
100
AcDbLine
 10
21.1983792858
 20
81.6144307595
 30
0.0
 11
21.1983792858
 21
76.0581807684
 31
0.0
  0
LINE
  5
290
330
289
100
AcDbEntity
  8
2
100
AcDbLine
 10
21.1983792858
 20
76.0581807684
 30
0.0
 11
22.2647855432
 21
76.0581807684
 31
0.0
  0
LINE
  5
291
330
289
100
AcDbEntity
  8
2
100
AcDbLine
 10
31.3161746042
 20
81.6144307595
 30
0.0
 11
32.3825808616
 21
81.6144307595
 31
0.0
  0
LINE
  5
292
330
289
100
AcDbEntity
  8
2
100
AcDbLine
 10
32.3825808616
 20
81.6144307595
 30
0.0
 11
32.3825808616
 21
76.0581807684
 31
0.0
  0
LINE
  5
293
330
289
100
AcDbEntity
  8
2
100
AcDbLine
 10
32.3825808616
 20
76.0581807684
 30
0.0
 11
31.3161746042
 21
76.0581807684
 31
0.0
  0
LINE
  5
294
330
289
100
AcDbEntity
  8
2
100
AcDbLine
 10
0.0
 20
23.225
 30
0.0
 11
0.0
 21
71.8215490434
 31
0.0
  0
LINE
  5
295
330
289
100
AcDbEntity
  8
2
100
AcDbLine
 10
101.6
 20
18.8
 30
0.0
 11
101.6
 21
71.8215490434
 31
0.0
  0
LINE
  5
296
330
289
100
AcDbEntity
  8
2
100
AcDbLine
 10
0.0
 20
70.8215490434
 30
0.0
 11
101.6
 21
70.8215490434
 31
0.0
  0
MTEXT
  5
297
330
289
100
AcDbEntity
  8
2
100
AcDbMText
 10
20.1514174316
 20
75.3867583093
 30
0.0
 40
3.5
 41
0.0
 71
     1
 72
     1
  1

  7
SLDTEXTSTYLE0
 73
     1
 44
1.0
  0
MTEXT
  5
298
330
289
100
AcDbEntity
  8
2
100
AcDbMText
 10
22.2647855432
 20
80.569917683
 30
0.0
 40
3.5
 41
0.0
 71
     1
 72
     1
  1
4,00
  7
SLDTEXTSTYLE0
 73
     1
 44
1.0
  0
MTEXT
  5
299
330
289
100
AcDbEntity
  8
2
100
AcDbMText
 10
20.9717298301
 20
75.3332861326
 30
0.0
 40
3.5
 41
0.0
 71
     1
 72
     1
  1
101,6
  7
SLDTEXTSTYLE0
 73
     1
 44
1.0
  0
MTEXT
  5
29A
330
289
100
AcDbEntity
  8
2
100
AcDbMText
 10
34.7614872355
 20
75.3867583093
 30
0.0
 40
3.5
 41
0.0
 71
     1
 72
     1
  1

  7
SLDTEXTSTYLE0
 73
     1
 44
1.0
  0
ENDBLK
  5
28B
330
289
100
AcDbEntity
  8
0
100
AcDbBlockEnd
  0
BLOCK
  5
29E
330
29D
100
AcDbEntity
  8
0
100
AcDbBlockBegin
  2
_D_1
 70
     0
 10
0.0
 20
0.0
 30
0.0
  3
_D_1
  1

  0
SOLID
  5
2A0
330
29D
100
AcDbEntity
  8
SK2
100
AcDbTrace
 10
0.0
 20
58.0050040086
 30
0.0
 11
3.302
 21
57.4970040086
 31
0.0
 12
3.302
 22
58.5130040086
 32
0.0
 13
3.302
 23
58.5130040086
 33
0.0
  0
SOLID
  5
2A1
330
29D
100
AcDbEntity
  8
SK2
100
AcDbTrace
 10
19.05
 20
58.0050040086
 30
0.0
 11
15.748
 21
58.5130040086
 31
0.0
 12
15.748
 22
57.4970040086
 32
0.0
 13
15.748
 23
57.4970040086
 33
0.0
  0
LINE
  5
2A2
330
29D
100
AcDbEntity
  8
SK2
100
AcDbLine
 10
0.0
 20
23.225
 30
0.0
 11
0.0
 21
59.0050040086
 31
0.0
  0
LINE
  5
2A3
330
29D
100
AcDbEntity
  8
SK2
100
AcDbLine
 10
19.05
 20
30.8048664484
 30
0.0
 11
19.05
 21
59.0050040086
 31
0.0
  0
LINE
  5
2A4
330
29D
100
AcDbEntity
  8
SK2
100
AcDbLine
 10
0.0
 20
58.0050040086
 30
0.0
 11
19.05
 21
58.0050040086
 31
0.0
  0
MTEXT
  5
2A5
330
29D
100
AcDbEntity
  8
SK2
100
AcDbMText
 10
2.3150898103
 20
62.5167409232
 30
0.0
 40
3.5
 41
0.0
 71
     1
 72
     1
  1
19,05
  7
SLDTEXTSTYLE0
 73
     1
 44
1.0
  0
ENDBLK
  5
29F
330
29D
100
AcDbEntity
  8
0
100
AcDbBlockEnd
  0
BLOCK
  5
2A8
330
2A7
100
AcDbEntity
  8
0
100
AcDbBlockBegin
  2
_D_2
 70
     0
 10
0.0
 20
0.0
 30
0.0
  3
_D_2
  1

  0
SOLID
  5
2AA
330
2A7
100
AcDbEntity
  8
SK2
100
AcDbTrace
 10
19.05
 20
58.0050040086
 30
0.0
 11
22.352
 21
57.4970040086
 31
0.0
 12
22.352
 22
58.5130040086
 32
0.0
 13
22.352
 23
58.5130040086
 33
0.0
  0
SOLID
  5
2AB
330
2A7
100
AcDbEntity
  8
SK2
100
AcDbTrace
 10
101.6
 20
58.0050040086
 30
0.0
 11
98.298
 21
58.5130040086
 31
0.0
 12
98.298
 22
57.4970040086
 32
0.0
 13
98.298
 23
57.4970040086
 33
0.0
  0
LINE
  5
2AC
330
2A7
100
AcDbEntity
  8
SK2
100
AcDbLine
 10
43.6761204546
 20
68.7978857246
 30
0.0
 11
42.6097141972
 21
68.7978857246
 31
0.0
  0
LINE
  5
2AD
330
2A7
100
AcDbEntity
  8
SK2
100
AcDbLine
 10
42.6097141972
 20
68.7978857246
 30
0.0
 11
42.6097141972
 21
63.2416357336
 31
0.0
  0
LINE
  5
2AE
330
2A7
100
AcDbEntity
  8
SK2
100
AcDbLine
 10
42.6097141972
 20
63.2416357336
 30
0.0
 11
43.6761204546
 21
63.2416357336
 31
0.0
  0
LINE
  5
2AF
330
2A7
100
AcDbEntity
  8
SK2
100
AcDbLine
 10
52.7275095155
 20
68.7978857246
 30
0.0
 11
53.793915773
 21
68.7978857246
 31
0.0
  0
LINE
  5
2B0
330
2A7
100
AcDbEntity
  8
SK2
100
AcDbLine
 10
53.793915773
 20
68.7978857246
 30
0.0
 11
53.793915773
 21
63.2416357336
 31
0.0
  0
LINE
  5
2B1
330
2A7
100
AcDbEntity
  8
SK2
100
AcDbLine
 10
53.793915773
 20
63.2416357336
 30
0.0
 11
52.7275095155
 21
63.2416357336
 31
0.0
  0
LINE
  5
2B2
330
2A7
100
AcDbEntity
  8
SK2
100
AcDbLine
 10
19.05
 20
30.8048664484
 30
0.0
 11
19.05
 21
59.0050040086
 31
0.0
  0
LINE
  5
2B3
330
2A7
100
AcDbEntity
  8
SK2
100
AcDbLine
 10
101.6
 20
18.8
 30
0.0
 11
101.6
 21
59.0050040086
 31
0.0
  0
LINE
  5
2B4
330
2A7
100
AcDbEntity
  8
SK2
100
AcDbLine
 10
19.05
 20
58.0050040086
 30
0.0
 11
101.6
 21
58.0050040086
 31
0.0
  0
MTEXT
  5
2B5
330
2A7
100
AcDbEntity
  8
SK2
100
AcDbMText
 10
41.5627523429
 20
62.5702132745
 30
0.0
 40
3.5
 41
0.0
 71
     1
 72
     1
  1

  7
SLDTEXTSTYLE0
 73
     1
 44
1.0
  0
MTEXT
  5
2B6
330
2A7
100
AcDbEntity
  8
SK2
100
AcDbMText
 10
43.6761204546
 20
67.7533726482
 30
0.0
 40
3.5
 41
0.0
 71
     1
 72
     1
  1
3,25
  7
SLDTEXTSTYLE0
 73
     1
 44
1.0
  0
MTEXT
  5
2B7
330
2A7
100
AcDbEntity
  8
SK2
100
AcDbMText
 10
42.3830647414
 20
62.5167410978
 30
0.0
 40
3.5
 41
0.0
 71
     1
 72
     1
  1
82,55
  7
SLDTEXTSTYLE0
 73
     1
 44
1.0
  0
MTEXT
  5
2B8
330
2A7
100
AcDbEntity
  8
SK2
100
AcDbMText
 10
56.1728221468
 20
62.5702132745
 30
0.0
 40
3.5
 41
0.0
 71
     1
 72
     1
  1

  7
SLDTEXTSTYLE0
 73
     1
 44
1.0
  0
ENDBLK
  5
2A9
330
2A7
100
AcDbEntity
  8
0
100
AcDbBlockEnd
  0
BLOCK
  5
2BB
330
2BA
100
AcDbEntity
  8
0
100
AcDbBlockBegin
  2
_D_3
 70
     0
 10
0.0
 20
0.0
 30
0.0
  3
_D_3
  1

  0
SOLID
  5
2BD
330
2BA
100
AcDbEntity
  8
SK2
100
AcDbTrace
 10
35.05
 20
45.3372054805
 30
0.0
 11
38.352
 21
44.8292054805
 31
0.0
 12
38.352
 22
45.8452054805
 32
0.0
 13
38.352
 23
45.8452054805
 33
0.0
  0
SOLID
  5
2BE
330
2BA
100
AcDbEntity
  8
SK2
100
AcDbTrace
 10
101.6
 20
45.3372054805
 30
0.0
 11
98.298
 21
45.8452054805
 31
0.0
 12
98.298
 22
44.8292054805
 32
0.0
 13
98.298
 23
44.8292054805
 33
0.0
  0
LINE
  5
2BF
330
2BA
100
AcDbEntity
  8
SK2
100
AcDbLine
 10
62.4623680085
 20
56.1300871965
 30
0.0
 11
61.3959617511
 21
56.1300871965
 31
0.0
  0
LINE
  5
2C0
330
2BA
100
AcDbEntity
  8
SK2
100
AcDbLine
 10
61.3959617511
 20
56.1300871965
 30
0.0
 11
61.3959617511
 21
50.5738372055
 31
0.0
  0
LINE
  5
2C1
330
2BA
100
AcDbEntity
  8
SK2
100
AcDbLine
 10
61.3959617511
 20
50.5738372055
 30
0.0
 11
62.4623680085
 21
50.5738372055
 31
0.0
  0
LINE
  5
2C2
330
2BA
100
AcDbEntity
  8
SK2
100
AcDbLine
 10
71.5137570694
 20
56.1300871965
 30
0.0
 11
72.5801633269
 21
56.1300871965
 31
0.0
  0
LINE
  5
2C3
330
2BA
100
AcDbEntity
  8
SK2
100
AcDbLine
 10
72.5801633269
 20
56.1300871965
 30
0.0
 11
72.5801633269
 21
50.5738372055
 31
0.0
  0
LINE
  5
2C4
330
2BA
100
AcDbEntity
  8
SK2
100
AcDbLine
 10
72.5801633269
 20
50.5738372055
 30
0.0
 11
71.5137570694
 21
50.5738372055
 31
0.0
  0
LINE
  5
2C5
330
2BA
100
AcDbEntity
  8
SK2
100
AcDbLine
 10
35.05
 20
23.225
 30
0.0
 11
35.05
 21
46.3372054805
 31
0.0
  0
LINE
  5
2C6
330
2BA
100
AcDbEntity
  8
SK2
100
AcDbLine
 10
101.6
 20
18.8
 30
0.0
 11
101.6
 21
46.3372054805
 31
0.0
  0
LINE
  5
2C7
330
2BA
100
AcDbEntity
  8
SK2
100
AcDbLine
 10
35.05
 20
45.3372054805
 30
0.0
 11
101.6
 21
45.3372054805
 31
0.0
  0
MTEXT
  5
2C8
330
2BA
100
AcDbEntity
  8
SK2
100
AcDbMText
 10
60.3489998969
 20
49.9024147463
 30
0.0
 40
3.5
 41
0.0
 71
     1
 72
     1
  1

  7
SLDTEXTSTYLE0
 73
     1
 44
1.0
  0
MTEXT
  5
2C9
330
2BA
100
AcDbEntity
  8
SK2
100
AcDbMText
 10
62.4623680085
 20
55.0855741201
 30
0.0
 40
3.5
 41
0.0
 71
     1
 72
     1
  1
2,62
  7
SLDTEXTSTYLE0
 73
     1
 44
1.0
  0
MTEXT
  5
2CA
330
2BA
100
AcDbEntity
  8
SK2
100
AcDbMText
 10
61.1693122953
 20
49.8489425697
 30
0.0
 40
3.5
 41
0.0
 71
     1
 72
     1
  1
66,55
  7
SLDTEXTSTYLE0
 73
     1
 44
1.0
  0
MTEXT
  5
2CB
330
2BA
100
AcDbEntity
  8
SK2
100
AcDbMText
 10
74.9590697008
 20
49.9024147463
 30
0.0
 40
3.5
 41
0.0
 71
     1
 72
     1
  1

  7
SLDTEXTSTYLE0
 73
     1
 44
1.0
  0
ENDBLK
  5
2BC
330
2BA
100
AcDbEntity
  8
0
100
AcDbBlockEnd
  0
BLOCK
  5
2CE
330
2CD
100
AcDbEntity
  8
0
100
AcDbBlockBegin
  2
_D_4
 70
     0
 10
0.0
 20
0.0
 30
0.0
  3
_D_4
  1

  0
SOLID
  5
2D0
330
2CD
100
AcDbEntity
  8
SK2
100
AcDbTrace
 10
101.6
 20
32.1748986982
 30
0.0
 11
98.298
 21
32.6828986982
 31
0.0
 12
98.298
 22
31.6668986982
 32
0.0
 13
98.298
 23
31.6668986982
 33
0.0
  0
SOLID
  5
2D1
330
2CD
100
AcDbEntity
  8
SK2
100
AcDbTrace
 10
73.025
 20
32.1748986982
 30
0.0
 11
76.327
 21
31.6668986982
 31
0.0
 12
76.327
 22
32.6828986982
 32
0.0
 13
76.327
 23
32.6828986982
 33
0.0
  0
LINE
  5
2D2
330
2CD
100
AcDbEntity
  8
SK2
100
AcDbLine
 10
82.0096572923
 20
42.9677804142
 30
0.0
 11
80.9432510349
 21
42.9677804142
 31
0.0
  0
LINE
  5
2D3
330
2CD
100
AcDbEntity
  8
SK2
100
AcDbLine
 10
80.9432510349
 20
42.9677804142
 30
0.0
 11
80.9432510349
 21
37.4115304232
 31
0.0
  0
LINE
  5
2D4
330
2CD
100
AcDbEntity
  8
SK2
100
AcDbLine
 10
80.9432510349
 20
37.4115304232
 30
0.0
 11
82.0096572923
 21
37.4115304232
 31
0.0
  0
LINE
  5
2D5
330
2CD
100
AcDbEntity
  8
SK2
100
AcDbLine
 10
91.0610463532
 20
42.9677804142
 30
0.0
 11
92.1274526107
 21
42.9677804142
 31
0.0
  0
LINE
  5
2D6
330
2CD
100
AcDbEntity
  8
SK2
100
AcDbLine
 10
92.1274526107
 20
42.9677804142
 30
0.0
 11
92.1274526107
 21
37.4115304232
 31
0.0
  0
LINE
  5
2D7
330
2CD
100
AcDbEntity
  8
SK2
100
AcDbLine
 10
92.1274526107
 20
37.4115304232
 30
0.0
 11
91.0610463532
 21
37.4115304232
 31
0.0
  0
LINE
  5
2D8
330
2CD
100
AcDbEntity
  8
SK2
100
AcDbLine
 10
101.6
 20
18.8
 30
0.0
 11
101.6
 21
33.1748986982
 31
0.0
  0
LINE
  5
2D9
330
2CD
100
AcDbEntity
  8
SK2
100
AcDbLine
 10
73.025
 20
26.3
 30
0.0
 11
73.025
 21
33.1748986982
 31
0.0
  0
LINE
  5
2DA
330
2CD
100
AcDbEntity
  8
SK2
100
AcDbLine
 10
101.6
 20
32.1748986982
 30
0.0
 11
73.025
 21
32.1748986982
 31
0.0
  0
MTEXT
  5
2DB
330
2CD
100
AcDbEntity
  8
SK2
100
AcDbMText
 10
79.8962891806
 20
36.740107964
 30
0.0
 40
3.5
 41
0.0
 71
     1
 72
     1
  1

  7
SLDTEXTSTYLE0
 73
     1
 44
1.0
  0
MTEXT
  5
2DC
330
2CD
100
AcDbEntity
  8
SK2
100
AcDbMText
 10
82.0096572923
 20
41.9232673377
 30
0.0
 40
3.5
 41
0.0
 71
     1
 72
     1
  1
1,13
  7
SLDTEXTSTYLE0
 73
     1
 44
1.0
  0
MTEXT
  5
2DD
330
2CD
100
AcDbEntity
  8
SK2
100
AcDbMText
 10
80.7166015791
 20
36.6866357874
 30
0.0
 40
3.5
 41
0.0
 71
     1
 72
     1
  1
28,58
  7
SLDTEXTSTYLE0
 73
     1
 44
1.0
  0
MTEXT
  5
2DE
330
2CD
100
AcDbEntity
  8
SK2
100
AcDbMText
 10
94.5063589845
 20
36.740107964
 30
0.0
 40
3.5
 41
0.0
 71
     1
 72
     1
  1

  7
SLDTEXTSTYLE0
 73
     1
 44
1.0
  0
ENDBLK
  5
2CF
330
2CD
100
AcDbEntity
  8
0
100
AcDbBlockEnd
  0
BLOCK
  5
2E1
330
2E0
100
AcDbEntity
  8
0
100
AcDbBlockBegin
  2
_D_5
 70
     0
 10
0.0
 20
0.0
 30
0.0
  3
_D_5
  1

  0
SOLID
  5
2E3
330
2E0
100
AcDbEntity
  8
SK2
100
AcDbTrace
 10
48.025
 20
32.1748986982
 30
0.0
 11
51.327
 21
31.6668986982
 31
0.0
 12
51.327
 22
32.6828986982
 32
0.0
 13
51.327
 23
32.6828986982
 33
0.0
  0
SOLID
  5
2E4
330
2E0
100
AcDbEntity
  8
SK2
100
AcDbTrace
 10
73.025
 20
32.1748986982
 30
0.0
 11
69.723
 21
32.6828986982
 31
0.0
 12
69.723
 22
31.6668986982
 32
0.0
 13
69.723
 23
31.6668986982
 33
0.0
  0
LINE
  5
2E5
330
2E0
100
AcDbEntity
  8
SK2
100
AcDbLine
 10
56.0528993271
 20
42.9677804142
 30
0.0
 11
54.9864930697
 21
42.9677804142
 31
0.0
  0
LINE
  5
2E6
330
2E0
100
AcDbEntity
  8
SK2
100
AcDbLine
 10
54.9864930697
 20
42.9677804142
 30
0.0
 11
54.9864930697
 21
37.4115304232
 31
0.0
  0
LINE
  5
2E7
330
2E0
100
AcDbEntity
  8
SK2
100
AcDbLine
 10
54.9864930697
 20
37.4115304232
 30
0.0
 11
56.0528993271
 21
37.4115304232
 31
0.0
  0
LINE
  5
2E8
330
2E0
100
AcDbEntity
  8
SK2
100
AcDbLine
 10
65.104288388
 20
42.9677804142
 30
0.0
 11
66.1706946455
 21
42.9677804142
 31
0.0
  0
LINE
  5
2E9
330
2E0
100
AcDbEntity
  8
SK2
100
AcDbLine
 10
66.1706946455
 20
42.9677804142
 30
0.0
 11
66.1706946455
 21
37.4115304232
 31
0.0
  0
LINE
  5
2EA
330
2E0
100
AcDbEntity
  8
SK2
100
AcDbLine
 10
66.1706946455
 20
37.4115304232
 30
0.0
 11
65.104288388
 21
37.4115304232
 31
0.0
  0
LINE
  5
2EB
330
2E0
100
AcDbEntity
  8
SK2
100
AcDbLine
 10
48.025
 20
26.3
 30
0.0
 11
48.025
 21
33.1748986982
 31
0.0
  0
LINE
  5
2EC
330
2E0
100
AcDbEntity
  8
SK2
100
AcDbLine
 10
73.025
 20
26.3
 30
0.0
 11
73.025
 21
33.1748986982
 31
0.0
  0
LINE
  5
2ED
330
2E0
100
AcDbEntity
  8
SK2
100
AcDbLine
 10
48.025
 20
32.1748986982
 30
0.0
 11
73.025
 21
32.1748986982
 31
0.0
  0
MTEXT
  5
2EE
330
2E0
100
AcDbEntity
  8
SK2
100
AcDbMText
 10
53.9395312155
 20
36.740107964
 30
0.0
 40
3.5
 41
0.0
 71
     1
 72
     1
  1

  7
SLDTEXTSTYLE0
 73
     1
 44
1.0
  0
MTEXT
  5
2EF
330
2E0
100
AcDbEntity
  8
SK2
100
AcDbMText
 10
56.0528993271
 20
41.9232673377
 30
0.0
 40
3.5
 41
0.0
 71
     1
 72
     1
  1
0,98
  7
SLDTEXTSTYLE0
 73
     1
 44
1.0
  0
MTEXT
  5
2F0
330
2E0
100
AcDbEntity
  8
SK2
100
AcDbMText
 10
57.9924826641
 20
36.6866357874
 30
0.0
 40
3.5
 41
0.0
 71
     1
 72
     1
  1
25
  7
SLDTEXTSTYLE0
 73
     1
 44
1.0
  0
MTEXT
  5
2F1
330
2E0
100
AcDbEntity
  8
SK2
100
AcDbMText
 10
68.5496010194
 20
36.740107964
 30
0.0
 40
3.5
 41
0.0
 71
     1
 72
     1
  1

  7
SLDTEXTSTYLE0
 73
     1
 44
1.0
  0
ENDBLK
  5
2E2
330
2E0
100
AcDbEntity
  8
0
100
AcDbBlockEnd
  0
BLOCK
  5
2F5
330
2F4
100
AcDbEntity
  8
0
100
AcDbBlockBegin
  2
_D_6
 70
     0
 10
0.0
 20
0.0
 30
0.0
  3
_D_6
  1

  0
SOLID
  5
2F7
330
2F4
100
AcDbEntity
  8
SK2
100
AcDbTrace
 10
115.4578924374
 20
-12.5
 30
0.0
 11
115.9658924374
 21
-9.198
 31
0.0
 12
114.9498924374
 22
-9.198
 32
0.0
 13
114.9498924374
 23
-9.198
 33
0.0
  0
SOLID
  5
2F8
330
2F4
100
AcDbEntity
  8
SK2
100
AcDbTrace
 10
115.4578924374
 20
12.5
 30
0.0
 11
114.9498924374
 21
9.198
 31
0.0
 12
115.9658924374
 22
9.198
 32
0.0
 13
115.9658924374
 23
9.198
 33
0.0
  0
LINE
  5
2F9
330
2F4
100
AcDbEntity
  8
SK2
100
AcDbLine
 10
104.6650107214
 20
-6.5770594441
 30
0.0
 11
104.6650107214
 21
-7.6434657016
 31
0.0
  0
LINE
  5
2FA
330
2F4
100
AcDbEntity
  8
SK2
100
AcDbLine
 10
104.6650107214
 20
-7.6434657016
 30
0.0
 11
110.2212607124
 21
-7.6434657016
 31
0.0
  0
LINE
  5
2FB
330
2F4
100
AcDbEntity
  8
SK2
100
AcDbLine
 10
110.2212607124
 20
-7.6434657016
 30
0.0
 11
110.2212607124
 21
-6.5770594441
 31
0.0
  0
LINE
  5
2FC
330
2F4
100
AcDbEntity
  8
SK2
100
AcDbLine
 10
104.6650107214
 20
5.0604410431
 30
0.0
 11
104.6650107214
 21
6.1268473006
 31
0.0
  0
LINE
  5
2FD
330
2F4
100
AcDbEntity
  8
SK2
100
AcDbLine
 10
104.6650107214
 20
6.1268473006
 30
0.0
 11
110.2212607124
 21
6.1268473006
 31
0.0
  0
LINE
  5
2FE
330
2F4
100
AcDbEntity
  8
SK2
100
AcDbLine
 10
110.2212607124
 20
6.1268473006
 30
0.0
 11
110.2212607124
 21
5.0604410431
 31
0.0
  0
LINE
  5
2FF
330
2F4
100
AcDbEntity
  8
SK2
100
AcDbLine
 10
101.6
 20
-12.5
 30
0.0
 11
116.4578924374
 21
-12.5
 31
0.0
  0
LINE
  5
300
330
2F4
100
AcDbEntity
  8
SK2
100
AcDbLine
 10
101.6
 20
12.5
 30
0.0
 11
116.4578924374
 21
12.5
 31
0.0
  0
LINE
  5
301
330
2F4
100
AcDbEntity
  8
SK2
100
AcDbLine
 10
115.4578924374
 20
-12.5
 30
0.0
 11
115.4578924374
 21
12.5
 31
0.0
  0
MTEXT
  5
302
330
2F4
100
AcDbEntity
  8
SK2
100
AcDbMText
 10
105.7095237979
 20
-6.5770594441
 30
0.0
 40
3.5
 41
0.0
 71
     1
 72
     1
  1
0,984
  7
SLDTEXTSTYLE0
 11
6.123233995736766E-17
 21
1.0
 31
0.0
 73
     1
 44
1.0
  0
MTEXT
  5
303
330
2F4
100
AcDbEntity
  8
SK2
100
AcDbMText
 10
110.9461553482
 20
-5.9836397917
 30
0.0
 40
3.5
 41
0.0
 71
     1
 72
     1
  1
%%c
  7
SLDTEXTSTYLE0
 11
6.123233995736766E-17
 21
1.0
 31
0.0
 73
     1
 44
1.0
  0
MTEXT
  5
304
330
2F4
100
AcDbEntity
  8
SK2
100
AcDbMText
 10
110.9461553482
 20
-0.7052023933
 30
0.0
 40
3.5
 41
0.0
 71
     1
 72
     1
  1
25
  7
SLDTEXTSTYLE0
 11
6.123233995736766E-17
 21
1.0
 31
0.0
 73
     1
 44
1.0
  0
ENDBLK
  5
2F6
330
2F4
100
AcDbEntity
  8
0
100
AcDbBlockEnd
  0
BLOCK
  5
307
330
306
100
AcDbEntity
  8
0
100
AcDbBlockBegin
  2
_D_7
 70
     0
 10
0.0
 20
0.0
 30
0.0
  3
_D_7
  1

  0
SOLID
  5
309
330
306
100
AcDbEntity
  8
SK2
100
AcDbTrace
 10
131.380945643
 20
17.8
 30
0.0
 11
130.872945643
 21
14.498
 31
0.0
 12
131.888945643
 22
14.498
 32
0.0
 13
131.888945643
 23
14.498
 33
0.0
  0
SOLID
  5
30A
330
306
100
AcDbEntity
  8
SK2
100
AcDbTrace
 10
131.380945643
 20
-17.8
 30
0.0
 11
131.888945643
 21
-14.498
 31
0.0
 12
130.872945643
 22
-14.498
 32
0.0
 13
130.872945643
 23
-14.498
 33
0.0
  0
LINE
  5
30B
330
306
100
AcDbEntity
  8
SK2
100
AcDbLine
 10
120.5880639269
 20
-5.2840041966
 30
0.0
 11
120.5880639269
 21
-6.3504104541
 31
0.0
  0
LINE
  5
30C
330
306
100
AcDbEntity
  8
SK2
100
AcDbLine
 10
120.5880639269
 20
-6.3504104541
 30
0.0
 11
126.144313918
 21
-6.3504104541
 31
0.0
  0
LINE
  5
30D
330
306
100
AcDbEntity
  8
SK2
100
AcDbLine
 10
126.144313918
 20
-6.3504104541
 30
0.0
 11
126.144313918
 21
-5.2840041966
 31
0.0
  0
LINE
  5
30E
330
306
100
AcDbEntity
  8
SK2
100
AcDbLine
 10
120.5880639269
 20
3.7673848643
 30
0.0
 11
120.5880639269
 21
4.8337911218
 31
0.0
  0
LINE
  5
30F
330
306
100
AcDbEntity
  8
SK2
100
AcDbLine
 10
120.5880639269
 20
4.8337911218
 30
0.0
 11
126.144313918
 21
4.8337911218
 31
0.0
  0
LINE
  5
310
330
306
100
AcDbEntity
  8
SK2
100
AcDbLine
 10
126.144313918
 20
4.8337911218
 30
0.0
 11
126.144313918
 21
3.7673848643
 31
0.0
  0
LINE
  5
311
330
306
100
AcDbEntity
  8
SK2
100
AcDbLine
 10
102.6
 20
17.8
 30
0.0
 11
132.380945643
 21
17.8
 31
0.0
  0
LINE
  5
312
330
306
100
AcDbEntity
  8
SK2
100
AcDbLine
 10
102.6
 20
-17.8
 30
0.0
 11
132.380945643
 21
-17.8
 31
0.0
  0
LINE
  5
313
330
306
100
AcDbEntity
  8
SK2
100
AcDbLine
 10
131.380945643
 20
17.8
 30
0.0
 11
131.380945643
 21
-17.8
 31
0.0
  0
MTEXT
  5
314
330
306
100
AcDbEntity
  8
SK2
100
AcDbMText
 10
121.6325770034
 20
-5.2840041966
 30
0.0
 40
3.5
 41
0.0
 71
     1
 72
     1
  1
1,40
  7
SLDTEXTSTYLE0
 11
-7.044195017643634E-15
 21
1.0
 31
0.0
 73
     1
 44
1.0
  0
MTEXT
  5
315
330
306
100
AcDbEntity
  8
SK2
100
AcDbMText
 10
126.8692085538
 20
-7.9232233615
 30
0.0
 40
3.5
 41
0.0
 71
     1
 72
     1
  1
%%c
  7
SLDTEXTSTYLE0
 11
-7.044195017643634E-15
 21
1.0
 31
0.0
 73
     1
 44
1.0
  0
MTEXT
  5
316
330
306
100
AcDbEntity
  8
SK2
100
AcDbMText
 10
126.8692085538
 20
-2.6447859631
 30
0.0
 40
3.5
 41
0.0
 71
     1
 72
     1
  1
35,6
  7
SLDTEXTSTYLE0
 11
-7.044195017643634E-15
 21
1.0
 31
0.0
 73
     1
 44
1.0
  0
ENDBLK
  5
308
330
306
100
AcDbEntity
  8
0
100
AcDbBlockEnd
  0
BLOCK
  5
319
330
318
100
AcDbEntity
  8
0
100
AcDbBlockBegin
  2
_D_8
 70
     0
 10
0.0
 20
0.0
 30
0.0
  3
_D_8
  1

  0
SOLID
  5
31B
330
318
100
AcDbEntity
  8
SK2
100
AcDbTrace
 10
145.5590067164
 20
25.4
 30
0.0
 11
145.0510067164
 21
22.098
 31
0.0
 12
146.0670067164
 22
22.098
 32
0.0
 13
146.0670067164
 23
22.098
 33
0.0
  0
SOLID
  5
31C
330
318
100
AcDbEntity
  8
SK2
100
AcDbTrace
 10
145.5590067164
 20
-25.4
 30
0.0
 11
146.0670067164
 21
-22.098
 31
0.0
 12
145.0510067164
 22
-22.098
 32
0.0
 13
145.0510067164
 23
-22.098
 33
0.0
  0
LINE
  5
31D
330
318
100
AcDbEntity
  8
SK2
100
AcDbLine
 10
134.7661250003
 20
-4.193384114
 30
0.0
 11
134.7661250003
 21
-5.2597903715
 31
0.0
  0
LINE
  5
31E
330
318
100
AcDbEntity
  8
SK2
100
AcDbLine
 10
134.7661250003
 20
-5.2597903715
 30
0.0
 11
140.3223749914
 21
-5.2597903715
 31
0.0
  0
LINE
  5
31F
330
318
100
AcDbEntity
  8
SK2
100
AcDbLine
 10
140.3223749914
 20
-5.2597903715
 30
0.0
 11
140.3223749914
 21
-4.193384114
 31
0.0
  0
LINE
  5
320
330
318
100
AcDbEntity
  8
SK2
100
AcDbLine
 10
134.7661250003
 20
4.8580049469
 30
0.0
 11
134.7661250003
 21
5.9244112043
 31
0.0
  0
LINE
  5
321
330
318
100
AcDbEntity
  8
SK2
100
AcDbLine
 10
134.7661250003
 20
5.9244112043
 30
0.0
 11
140.3223749914
 21
5.9244112043
 31
0.0
  0
LINE
  5
322
330
318
100
AcDbEntity
  8
SK2
100
AcDbLine
 10
140.3223749914
 20
5.9244112043
 30
0.0
 11
140.3223749914
 21
4.8580049469
 31
0.0
  0
LINE
  5
323
330
318
100
AcDbEntity
  8
SK2
100
AcDbLine
 10
95.0
 20
25.4
 30
0.0
 11
146.5590067164
 21
25.4
 31
0.0
  0
LINE
  5
324
330
318
100
AcDbEntity
  8
SK2
100
AcDbLine
 10
95.0
 20
-25.4
 30
0.0
 11
146.5590067164
 21
-25.4
 31
0.0
  0
LINE
  5
325
330
318
100
AcDbEntity
  8
SK2
100
AcDbLine
 10
145.5590067164
 20
25.4
 30
0.0
 11
145.5590067164
 21
-25.4
 31
0.0
  0
MTEXT
  5
326
330
318
100
AcDbEntity
  8
SK2
100
AcDbMText
 10
135.8106380768
 20
-4.193384114
 30
0.0
 40
3.5
 41
0.0
 71
     1
 72
     1
  1
2,00
  7
SLDTEXTSTYLE0
 11
-7.044195017643634E-15
 21
1.0
 31
0.0
 73
     1
 44
1.0
  0
MTEXT
  5
327
330
318
100
AcDbEntity
  8
SK2
100
AcDbMText
 10
141.0472696272
 20
-6.8326032789
 30
0.0
 40
3.5
 41
0.0
 71
     1
 72
     1
  1
%%c
  7
SLDTEXTSTYLE0
 11
-7.044195017643634E-15
 21
1.0
 31
0.0
 73
     1
 44
1.0
  0
MTEXT
  5
328
330
318
100
AcDbEntity
  8
SK2
100
AcDbMText
 10
141.0472696272
 20
-1.5541658805
 30
0.0
 40
3.5
 41
0.0
 71
     1
 72
     1
  1
50,8
  7
SLDTEXTSTYLE0
 11
-7.044195017643634E-15
 21
1.0
 31
0.0
 73
     1
 44
1.0
  0
ENDBLK
  5
31A
330
318
100
AcDbEntity
  8
0
100
AcDbBlockEnd
  0
BLOCK
  5
32B
330
32A
100
AcDbEntity
  8
0
100
AcDbBlockBegin
  2
_D_9
 70
     0
 10
0.0
 20
0.0
 30
0.0
  3
_D_9
  1

  0
SOLID
  5
32D
330
32A
100
AcDbEntity
  8
SK2
100
AcDbTrace
 10
-68.25
 20
-56.0177670929
 30
0.0
 11
-64.948
 21
-56.5257670929
 31
0.0
 12
-64.948
 22
-55.5097670929
 32
0.0
 13
-64.948
 23
-55.5097670929
 33
0.0
  0
SOLID
  5
32E
330
32A
100
AcDbEntity
  8
SK2
100
AcDbTrace
 10
101.6
 20
-56.0177670929
 30
0.0
 11
98.298
 21
-55.5097670929
 31
0.0
 12
98.298
 22
-56.5257670929
 32
0.0
 13
98.298
 23
-56.5257670929
 33
0.0
  0
LINE
  5
32F
330
32A
100
AcDbEntity
  8
SK2
100
AcDbLine
 10
-9.9642189408
 20
-45.2248853768
 30
0.0
 11
-11.0306251982
 21
-45.2248853768
 31
0.0
  0
LINE
  5
330
330
32A
100
AcDbEntity
  8
SK2
100
AcDbLine
 10
-11.0306251982
 20
-45.2248853768
 30
0.0
 11
-11.0306251982
 21
-50.7811353679
 31
0.0
  0
LINE
  5
331
330
32A
100
AcDbEntity
  8
SK2
100
AcDbLine
 10
-11.0306251982
 20
-50.7811353679
 30
0.0
 11
-9.9642189408
 21
-50.7811353679
 31
0.0
  0
LINE
  5
332
330
32A
100
AcDbEntity
  8
SK2
100
AcDbLine
 10
1.6732815465
 20
-45.2248853768
 30
0.0
 11
2.7396878039
 21
-45.2248853768
 31
0.0
  0
LINE
  5
333
330
32A
100
AcDbEntity
  8
SK2
100
AcDbLine
 10
2.7396878039
 20
-45.2248853768
 30
0.0
 11
2.7396878039
 21
-50.7811353679
 31
0.0
  0
LINE
  5
334
330
32A
100
AcDbEntity
  8
SK2
100
AcDbLine
 10
2.7396878039
 20
-50.7811353679
 30
0.0
 11
1.6732815465
 21
-50.7811353679
 31
0.0
  0
LINE
  5
335
330
32A
100
AcDbEntity
  8
SK2
100
AcDbLine
 10
-68.25
 20
-12.1476148288
 30
0.0
 11
-68.25
 21
-57.0177670929
 31
0.0
  0
LINE
  5
336
330
32A
100
AcDbEntity
  8
SK2
100
AcDbLine
 10
101.6
 20
-18.8
 30
0.0
 11
101.6
 21
-57.0177670929
 31
0.0
  0
LINE
  5
337
330
32A
100
AcDbEntity
  8
SK2
100
AcDbLine
 10
-68.25
 20
-56.0177670929
 30
0.0
 11
101.6
 21
-56.0177670929
 31
0.0
  0
MTEXT
  5
338
330
32A
100
AcDbEntity
  8
SK2
100
AcDbMText
 10
-12.0775870525
 20
-51.452557827
 30
0.0
 40
3.5
 41
0.0
 71
     1
 72
     1
  1

  7
SLDTEXTSTYLE0
 73
     1
 44
1.0
  0
MTEXT
  5
339
330
32A
100
AcDbEntity
  8
SK2
100
AcDbMText
 10
-9.9642189408
 20
-46.2693984533
 30
0.0
 40
3.5
 41
0.0
 71
     1
 72
     1
  1
6,687
  7
SLDTEXTSTYLE0
 73
     1
 44
1.0
  0
MTEXT
  5
33A
330
32A
100
AcDbEntity
  8
SK2
100
AcDbMText
 10
-11.2572751196
 20
-51.5060300037
 30
0.0
 40
3.5
 41
0.0
 71
     1
 72
     1
  1
169,85
  7
SLDTEXTSTYLE0
 73
     1
 44
1.0
  0
MTEXT
  5
33B
330
32A
100
AcDbEntity
  8
SK2
100
AcDbMText
 10
5.1185932465
 20
-51.452557827
 30
0.0
 40
3.5
 41
0.0
 71
     1
 72
     1
  1

  7
SLDTEXTSTYLE0
 73
     1
 44
1.0
  0
ENDBLK
  5
32C
330
32A
100
AcDbEntity
  8
0
100
AcDbBlockEnd
  0
BLOCK
  5
33E
330
33D
100
AcDbEntity
  8
0
100
AcDbBlockBegin
  2
_D_10
 70
     0
 10
0.0
 20
0.0
 30
0.0
  3
_D_10
  1

  0
SOLID
  5
340
330
33D
100
AcDbEntity
  8
SK2
100
AcDbTrace
 10
31.75
 20
-46.0233528012
 30
0.0
 11
35.052
 21
-46.5313528012
 31
0.0
 12
35.052
 22
-45.5153528012
 32
0.0
 13
35.052
 23
-45.5153528012
 33
0.0
  0
SOLID
  5
341
330
33D
100
AcDbEntity
  8
SK2
100
AcDbTrace
 10
101.6
 20
-46.0233528012
 30
0.0
 11
98.298
 21
-45.5153528012
 31
0.0
 12
98.298
 22
-46.5313528012
 32
0.0
 13
98.298
 23
-46.5313528012
 33
0.0
  0
LINE
  5
342
330
33D
100
AcDbEntity
  8
SK2
100
AcDbLine
 10
59.5388905146
 20
-35.2304710852
 30
0.0
 11
58.4724842572
 21
-35.2304710852
 31
0.0
  0
LINE
  5
343
330
33D
100
AcDbEntity
  8
SK2
100
AcDbLine
 10
58.4724842572
 20
-35.2304710852
 30
0.0
 11
58.4724842572
 21
-40.7867210762
 31
0.0
  0
LINE
  5
344
330
33D
100
AcDbEntity
  8
SK2
100
AcDbLine
 10
58.4724842572
 20
-40.7867210762
 30
0.0
 11
59.5388905146
 21
-40.7867210762
 31
0.0
  0
LINE
  5
345
330
33D
100
AcDbEntity
  8
SK2
100
AcDbLine
 10
68.5902795755
 20
-35.2304710852
 30
0.0
 11
69.656685833
 21
-35.2304710852
 31
0.0
  0
LINE
  5
346
330
33D
100
AcDbEntity
  8
SK2
100
AcDbLine
 10
69.656685833
 20
-35.2304710852
 30
0.0
 11
69.656685833
 21
-40.7867210762
 31
0.0
  0
LINE
  5
347
330
33D
100
AcDbEntity
  8
SK2
100
AcDbLine
 10
69.656685833
 20
-40.7867210762
 30
0.0
 11
68.5902795755
 21
-40.7867210762
 31
0.0
  0
LINE
  5
348
330
33D
100
AcDbEntity
  8
SK2
100
AcDbLine
 10
31.75
 20
-13.4958558439
 30
0.0
 11
31.75
 21
-47.0233528012
 31
0.0
  0
LINE
  5
349
330
33D
100
AcDbEntity
  8
SK2
100
AcDbLine
 10
101.6
 20
-18.8
 30
0.0
 11
101.6
 21
-47.0233528012
 31
0.0
  0
LINE
  5
34A
330
33D
100
AcDbEntity
  8
SK2
100
AcDbLine
 10
31.75
 20
-46.0233528012
 30
0.0
 11
101.6
 21
-46.0233528012
 31
0.0
  0
MTEXT
  5
34B
330
33D
100
AcDbEntity
  8
SK2
100
AcDbMText
 10
57.4255224029
 20
-41.4581435354
 30
0.0
 40
3.5
 41
0.0
 71
     1
 72
     1
  1

  7
SLDTEXTSTYLE0
 73
     1
 44
1.0
  0
MTEXT
  5
34C
330
33D
100
AcDbEntity
  8
SK2
100
AcDbMText
 10
59.5388905146
 20
-36.2749841617
 30
0.0
 40
3.5
 41
0.0
 71
     1
 72
     1
  1
2,75
  7
SLDTEXTSTYLE0
 73
     1
 44
1.0
  0
MTEXT
  5
34D
330
33D
100
AcDbEntity
  8
SK2
100
AcDbMText
 10
58.2458348014
 20
-41.511615712
 30
0.0
 40
3.5
 41
0.0
 71
     1
 72
     1
  1
69,85
  7
SLDTEXTSTYLE0
 73
     1
 44
1.0
  0
MTEXT
  5
34E
330
33D
100
AcDbEntity
  8
SK2
100
AcDbMText
 10
72.0355922068
 20
-41.4581435354
 30
0.0
 40
3.5
 41
0.0
 71
     1
 72
     1
  1

  7
SLDTEXTSTYLE0
 73
     1
 44
1.0
  0
ENDBLK
  5
33F
330
33D
100
AcDbEntity
  8
0
100
AcDbBlockEnd
  0
BLOCK
  5
352
330
351
100
AcDbEntity
  8
0
100
AcDbBlockBegin
  2
_D_11
 70
     0
 10
0.0
 20
0.0
 30
0.0
  3
_D_11
  1

  0
SOLID
  5
354
330
351
100
AcDbEntity
  8
SK2
100
AcDbTrace
 10
94.0
 20
-36.5396020135
 30
0.0
 11
90.698
 21
-36.0316020135
 31
0.0
 12
90.698
 22
-37.0476020135
 32
0.0
 13
90.698
 23
-37.0476020135
 33
0.0
  0
SOLID
  5
355
330
351
100
AcDbEntity
  8
SK2
100
AcDbTrace
 10
101.6
 20
-36.5396020135
 30
0.0
 11
104.902
 21
-37.0476020135
 31
0.0
 12
104.902
 22
-36.0316020135
 32
0.0
 13
104.902
 23
-36.0316020135
 33
0.0
  0
LINE
  5
356
330
351
100
AcDbEntity
  8
SK2
100
AcDbLine
 10
94.0
 20
-26.4
 30
0.0
 11
94.0
 21
-37.5396020135
 31
0.0
  0
LINE
  5
357
330
351
100
AcDbEntity
  8
SK2
100
AcDbLine
 10
101.6
 20
-18.8
 30
0.0
 11
101.6
 21
-37.5396020135
 31
0.0
  0
LINE
  5
358
330
351
100
AcDbEntity
  8
SK2
100
AcDbLine
 10
94.0
 20
-36.5396020135
 30
0.0
 11
83.3027126562
 21
-36.5396020135
 31
0.0
  0
LINE
  5
359
330
351
100
AcDbEntity
  8
SK2
100
AcDbLine
 10
94.0
 20
-36.5396020135
 30
0.0
 11
101.6
 21
-36.5396020135
 31
0.0
  0
LINE
  5
35A
330
351
100
AcDbEntity
  8
SK2
100
AcDbLine
 10
101.6
 20
-36.5396020135
 30
0.0
 11
107.95
 21
-36.5396020135
 31
0.0
  0
MTEXT
  5
35B
330
351
100
AcDbEntity
  8
SK2
100
AcDbMText
 10
83.3027126562
 20
-32.027865099
 30
0.0
 40
3.5
 41
0.0
 71
     1
 72
     1
  1
7,6
  7
SLDTEXTSTYLE0
 73
     1
 44
1.0
  0
ENDBLK
  5
353
330
351
100
AcDbEntity
  8
0
100
AcDbBlockEnd
  0
BLOCK
  5
35E
330
35D
100
AcDbEntity
  8
0
100
AcDbBlockBegin
  2
_D_12
 70
     0
 10
0.0
 20
0.0
 30
0.0
  3
_D_12
  1

  0
SOLID
  5
360
330
35D
100
AcDbEntity
  8
SK2
100
AcDbTrace
 10
-88.0401875529
 20
30.5578899967
 30
0.0
 11
-88.5481875529
 21
27.2558899967
 31
0.0
 12
-87.5321875529
 22
27.2558899967
 32
0.0
 13
-87.5321875529
 23
27.2558899967
 33
0.0
  0
SOLID
  5
361
330
35D
100
AcDbEntity
  8
SK2
100
AcDbTrace
 10
-88.0401875529
 20
-30.5579086614
 30
0.0
 11
-87.5321875529
 21
-27.2559086614
 31
0.0
 12
-88.5481875529
 22
-27.2559086614
 32
0.0
 13
-88.5481875529
 23
-27.2559086614
 33
0.0
  0
LINE
  5
362
330
35D
100
AcDbEntity
  8
SK2
100
AcDbLine
 10
4.7694368227
 20
30.5578899967
 30
0.0
 11
-89.0401875529
 21
30.5578899967
 31
0.0
  0
LINE
  5
363
330
35D
100
AcDbEntity
  8
SK2
100
AcDbLine
 10
2.95
 20
-30.5579086614
 30
0.0
 11
-89.0401875529
 21
-30.5579086614
 31
0.0
  0
LINE
  5
364
330
35D
100
AcDbEntity
  8
SK2
100
AcDbLine
 10
-88.0401875529
 20
30.5578899967
 30
0.0
 11
-88.0401875529
 21
-30.5579086614
 31
0.0
  0
MTEXT
  5
365
330
35D
100
AcDbEntity
  8
SK2
100
AcDbMText
 10
-92.5519246421
 20
-7.9232233615
 30
0.0
 40
3.5
 41
0.0
 71
     1
 72
     1
  1
%%c
  7
SLDTEXTSTYLE0
 11
-1.148508711614426E-14
 21
1.0
 31
0.0
 73
     1
 44
1.0
  0
MTEXT
  5
366
330
35D
100
AcDbEntity
  8
SK2
100
AcDbMText
 10
-92.6053968187
 20
-2.6447859631
 30
0.0
 40
3.5
 41
0.0
 71
     1
 72
     1
  1
63,5
  7
SLDTEXTSTYLE0
 11
-1.148508711614426E-14
 21
1.0
 31
0.0
 73
     1
 44
1.0
  0
ENDBLK
  5
35F
330
35D
100
AcDbEntity
  8
0
100
AcDbBlockEnd
  0
BLOCK
  5
36A
330
369
100
AcDbEntity
  8
0
100
AcDbBlockBegin
  2
_D_13
 70
     0
 10
0.0
 20
0.0
 30
0.0
  3
_D_13
  1

  0
SOLID
  5
36C
330
369
100
AcDbEntity
  8
SK2
100
AcDbTrace
 10
-75.0912201312
 20
7.9375002533
 30
0.0
 11
-74.5832201312
 21
11.2395002533
 31
0.0
 12
-75.5992201312
 22
11.2395002533
 32
0.0
 13
-75.5992201312
 23
11.2395002533
 33
0.0
  0
SOLID
  5
36D
330
369
100
AcDbEntity
  8
SK2
100
AcDbTrace
 10
-75.0912201312
 20
-7.9375002533
 30
0.0
 11
-75.5992201312
 21
-11.2395002533
 31
0.0
 12
-74.5832201312
 22
-11.2395002533
 32
0.0
 13
-74.5832201312
 23
-11.2395002533
 33
0.0
  0
LINE
  5
36E
330
369
100
AcDbEntity
  8
SK2
100
AcDbLine
 10
-64.3082389832
 20
7.9375002533
 30
0.0
 11
-76.0912201312
 21
7.9375002533
 31
0.0
  0
LINE
  5
36F
330
369
100
AcDbEntity
  8
SK2
100
AcDbLine
 10
-64.3082389832
 20
-7.9375002533
 30
0.0
 11
-76.0912201312
 21
-7.9375002533
 31
0.0
  0
LINE
  5
370
330
369
100
AcDbEntity
  8
SK2
100
AcDbLine
 10
-75.0912201312
 20
7.9375002533
 30
0.0
 11
-75.0912201312
 21
14.2875002533
 31
0.0
  0
LINE
  5
371
330
369
100
AcDbEntity
  8
SK2
100
AcDbLine
 10
-75.0912201312
 20
7.9375002533
 30
0.0
 11
-75.0912201312
 21
-7.9375002533
 31
0.0
  0
LINE
  5
372
330
369
100
AcDbEntity
  8
SK2
100
AcDbLine
 10
-75.0912201312
 20
-7.9375002533
 30
0.0
 11
-75.0912201312
 21
-14.2875002533
 31
0.0
  0
MTEXT
  5
374
330
369
100
AcDbEntity
  8
SK2
100
AcDbMText
 10
-79.6029570458
 20
-12.6629317531
 30
0.0
 40
3.5
 41
0.0
 71
     1
 72
     1
  1
5/8 - 11 UNC
  7
SLDTEXTSTYLE1
 11
-7.044195017643634E-15
 21
1.0
 31
0.0
 73
     1
 44
1.0
  0
ENDBLK
  5
36B
330
369
100
AcDbEntity
  8
0
100
AcDbBlockEnd
  0
ENDSEC
  0
SECTION
  2
ENTITIES
  0
LINE
  5
82
330
1F
100
AcDbEntity
  8
1
  6
SLD-Solid
370
    25
100
AcDbLine
 10
62.9
 20
25.4
 30
0.0
 11
58.15
 21
25.4
 31
0.0
  0
LINE
  5
83
330
1F
100
AcDbEntity
  8
1
  6
SLD-Solid
370
    25
100
AcDbLine
 10
94.0
 20
25.4
 30
0.0
 11
83.1456764653
 21
25.4
 31
0.0
  0
LINE
  5
84
330
1F
100
AcDbEntity
  8
1
  6
SLD-Solid
370
    25
100
AcDbLine
 10
90.6026557892
 20
-25.4
 30
0.0
 11
94.0
 21
-25.4
 31
0.0
  0
LINE
  5
85
330
1F
100
AcDbEntity
  8
1
  6
SLD-Solid
370
    25
100
AcDbLine
 10
65.1819407165
 20
-25.4
 30
0.0
 11
68.5889174419
 21
-25.4
 31
0.0
  0
LINE
  5
86
330
1F
100
AcDbEntity
  8
1
  6
SLD-Solid
370
    25
100
AcDbLine
 10
40.549261314
 20
-25.4
 30
0.0
 11
43.189174663
 21
-25.4
 31
0.0
  0
LINE
  5
87
330
1F
100
AcDbEntity
  8
1
  6
SLD-Solid
370
    25
100
AcDbLine
 10
37.9065659516
 20
23.8742391211
 30
0.0
 11
35.05
 21
22.225
 31
0.0
  0
LINE
  5
88
330
1F
100
AcDbEntity
  8
1
  6
SLD-Solid
370
    25
100
AcDbLine
 10
35.05
 20
-22.225
 30
0.0
 11
40.549261314
 21
-25.4
 31
0.0
  0
LINE
  5
89
330
1F
100
AcDbEntity
  8
1
  6
SLD-Solid
370
    25
100
AcDbLine
 10
94.0
 20
-25.4
 30
0.0
 11
101.6
 21
-17.8
 31
0.0
  0
LINE
  5
8A
330
1F
100
AcDbEntity
  8
1
  6
SLD-Solid
370
    25
100
AcDbLine
 10
101.6
 20
17.8
 30
0.0
 11
94.0
 21
25.4
 31
0.0
  0
LINE
  5
8B
330
1F
100
AcDbEntity
  8
1
  6
SLD-Solid
370
    25
100
AcDbLine
 10
1.8869952227
 20
22.225
 30
0.0
 11
0.0
 21
22.225
 31
0.0
  0
LINE
  5
8C
330
1F
100
AcDbEntity
  8
1
  6
SLD-Solid
370
    25
100
AcDbLine
 10
0.0
 20
-22.225
 30
0.0
 11
1.8869952227
 21
-22.225
 31
0.0
  0
LINE
  5
8D
330
1F
100
AcDbEntity
  8
1
  6
SLD-Solid
370
    25
100
AcDbLine
 10
35.05
 20
22.225
 30
0.0
 11
19.812
 21
22.225
 31
0.0
  0
LINE
  5
8E
330
1F
100
AcDbEntity
  8
1
  6
SLD-Solid
370
    25
100
AcDbLine
 10
19.812
 20
-22.225
 30
0.0
 11
35.05
 21
-22.225
 31
0.0
  0
LINE
  5
8F
330
1F
100
AcDbEntity
  8
SK1
  6
SLD-Solid
370
    25
100
AcDbLine
 10
0.0
 20
22.225
 30
0.0
 11
-67.1376006954
 21
12.4340074512
 31
0.0
  0
LINE
  5
90
330
1F
100
AcDbEntity
  8
SK1
  6
SLD-Solid
370
    25
100
AcDbLine
 10
-67.1376006954
 20
-12.4340074512
 30
0.0
 11
0.0
 21
-22.225
 31
0.0
  0
LINE
  5
91
330
1F
100
AcDbEntity
  8
1
  6
SLD-Solid
370
    25
100
AcDbLine
 10
1.8869952227
 20
-22.225
 30
0.0
 11
2.1330363037
 21
-22.1102691597
 31
0.0
  0
LINE
  5
92
330
1F
100
AcDbEntity
  8
1
  6
SLD-Solid
370
    25
100
AcDbLine
 10
2.1330363037
 20
22.1102691597
 30
0.0
 11
1.8869952227
 21
22.225
 31
0.0
  0
LINE
  5
93
330
1F
100
AcDbEntity
  8
1
  6
SLD-Solid
370
    25
100
AcDbLine
 10
18.3
 20
30.5579086614
 30
0.0
 11
14.6411263546
 21
30.5579086614
 31
0.0
  0
LINE
  5
94
330
1F
100
AcDbEntity
  8
1
  6
SLD-Solid
370
    25
100
AcDbLine
 10
18.3
 20
-30.5578899967
 30
0.0
 11
18.3
 21
30.5579086614
 31
0.0
  0
LINE
  5
95
330
1F
100
AcDbEntity
  8
1
  6
SLD-Solid
370
    25
100
AcDbLine
 10
14.6411263546
 20
-30.5578899967
 30
0.0
 11
18.3
 21
-30.5578899967
 31
0.0
  0
LINE
  5
96
330
1F
100
AcDbEntity
  8
1
  6
SLD-Solid
370
    25
100
AcDbLine
 10
14.6411263546
 20
30.5579086614
 30
0.0
 11
14.6411263546
 21
-30.5578899967
 31
0.0
  0
LINE
  5
97
330
1F
100
AcDbEntity
  8
1
  6
SLD-Solid
370
    25
100
AcDbLine
 10
19.05
 20
29.8048664484
 30
0.0
 11
19.05
 21
-29.8048552742
 31
0.0
  0
LINE
  5
98
330
1F
100
AcDbEntity
  8
1
  6
SLD-Solid
370
    25
100
AcDbLine
 10
3.2
 20
-29.8048664484
 30
0.0
 11
3.2
 21
29.8048552742
 31
0.0
  0
LINE
  5
99
330
1F
100
AcDbEntity
  8
1
  6
SLD-Solid
370
    25
100
AcDbLine
 10
3.95
 20
30.5578899967
 30
0.0
 11
3.95
 21
-30.5579086614
 31
0.0
  0
LINE
  5
9A
330
1F
100
AcDbEntity
  8
1
  6
SLD-Solid
370
    25
100
AcDbLine
 10
3.95
 20
-30.5579086614
 30
0.0
 11
7.5888736454
 21
-30.5579086614
 31
0.0
  0
LINE
  5
9B
330
1F
100
AcDbEntity
  8
1
  6
SLD-Solid
370
    25
100
AcDbLine
 10
7.5888736454
 20
30.5578899967
 30
0.0
 11
3.95
 21
30.5578899967
 31
0.0
  0
LINE
  5
9C
330
1F
100
AcDbEntity
  8
1
  6
SLD-Solid
370
    25
100
AcDbLine
 10
7.5888736454
 20
30.5578899967
 30
0.0
 11
7.5888736454
 21
-30.5579086614
 31
0.0
  0
LINE
  5
9D
330
1F
100
AcDbEntity
  8
1
  6
SLD-Solid
370
    25
100
AcDbLine
 10
13.03
 20
25.319242438
 30
0.0
 11
13.03
 21
-27.8050456342
 31
0.0
  0
LINE
  5
9E
330
1F
100
AcDbEntity
  8
1
  6
SLD-Solid
370
    25
100
AcDbLine
 10
13.03
 20
27.8050456342
 30
0.0
 11
13.03
 21
25.8117178836
 31
0.0
  0
LINE
  5
9F
330
1F
100
AcDbEntity
  8
1
  6
SLD-Solid
370
    25
100
AcDbLine
 10
9.2
 20
27.8050456342
 30
0.0
 11
9.2
 21
25.8569131114
 31
0.0
  0
LINE
  5
A0
330
1F
100
AcDbEntity
  8
1
  6
SLD-Solid
370
    25
100
AcDbLine
 10
9.2
 20
25.2705433174
 30
0.0
 11
9.2
 21
-27.8050456342
 31
0.0
  0
LINE
  5
A1
330
1F
100
AcDbEntity
  8
1
  6
SLD-Solid
370
    25
100
AcDbLine
 10
12.28
 20
24.0780506352
 30
0.0
 11
12.28
 21
-26.9870635676
 31
0.0
  0
LINE
  5
A2
330
1F
100
AcDbEntity
  8
1
  6
SLD-Solid
370
    25
100
AcDbLine
 10
9.95
 20
24.066859753
 30
0.0
 11
9.95
 21
-26.9870635676
 31
0.0
  0
LINE
  5
A3
330
1F
100
AcDbEntity
  8
1
  6
SLD-Solid
370
    25
100
AcDbLine
 10
9.95
 20
-26.9870635676
 30
0.0
 11
12.28
 21
-26.9870635676
 31
0.0
  0
LINE
  5
A4
330
1F
100
AcDbEntity
  8
1
  6
SLD-Solid
370
    25
100
AcDbLine
 10
47.52939431
 20
23.3
 30
0.0
 11
48.52060569
 21
23.3
 31
0.0
  0
LINE
  5
A5
330
1F
100
AcDbEntity
  8
1
  6
SLD-Solid
370
    25
100
AcDbLine
 10
40.549261314
 20
24.4648941118
 30
0.0
 11
40.549261314
 21
-25.4
 31
0.0
  0
LINE
  5
A6
330
1F
100
AcDbEntity
  8
1
  6
SLD-Solid
370
    25
100
AcDbLine
 10
94.0
 20
25.4
 30
0.0
 11
94.0
 21
-25.4
 31
0.0
  0
LINE
  5
A7
330
1F
100
AcDbEntity
  8
1
  6
SLD-Solid
370
    25
100
AcDbLine
 10
35.05
 20
22.225
 30
0.0
 11
35.05
 21
-22.225
 31
0.0
  0
LINE
  5
A8
330
1F
100
AcDbEntity
  8
1
  6
SLD-Solid
370
    25
100
AcDbLine
 10
101.6
 20
17.8
 30
0.0
 11
101.6
 21
-17.8
 31
0.0
  0
LINE
  5
A9
330
1F
100
AcDbEntity
  8
1
  6
SLD-Solid
370
    25
100
AcDbLine
 10
0.0
 20
22.225
 30
0.0
 11
0.0
 21
-22.225
 31
0.0
  0
LINE
  5
AA
330
1F
100
AcDbEntity
  8
1
  6
SLD-Solid
370
    25
100
AcDbLine
 10
1.8869952227
 20
22.225
 30
0.0
 11
1.8869952227
 21
-22.225
 31
0.0
  0
LINE
  5
AB
330
1F
100
AcDbEntity
  8
1
  6
SLD-Solid
370
    25
100
AcDbLine
 10
9.2
 20
25.8569131114
 30
0.0
 11
9.2
 21
25.8264908709
 31
0.0
  0
LINE
  5
AC
330
1F
100
AcDbEntity
  8
1
  6
SLD-Solid
370
    25
100
AcDbLine
 10
13.03
 20
25.7812977304
 30
0.0
 11
13.03
 21
25.8117178836
 31
0.0
  0
LINE
  5
AD
330
1F
100
AcDbEntity
  8
1
  6
SLD-Solid
370
    25
100
AcDbLine
 10
9.95
 20
26.9870635676
 30
0.0
 11
9.95
 21
25.6032587904
 31
0.0
  0
LINE
  5
AE
330
1F
100
AcDbEntity
  8
1
  6
SLD-Solid
370
    25
100
AcDbLine
 10
12.28
 20
26.9870635676
 30
0.0
 11
12.28
 21
25.5942620881
 31
0.0
  0
LINE
  5
AF
330
1F
100
AcDbEntity
  8
SK1
  6
SLD-Solid
370
    25
100
AcDbLine
 10
-68.25
 20
-11.1476148288
 30
0.0
 11
-68.25
 21
11.1476148288
 31
0.0
  0
LINE
  5
B0
330
1F
100
AcDbEntity
  8
1
  6
SLD-Solid
370
    25
100
AcDbLine
 10
9.95
 20
26.9870635676
 30
0.0
 11
12.28
 21
26.9870635676
 31
0.0
  0
LINE
  5
B1
330
1F
100
AcDbEntity
  8
1
  6
SLD-Solid
370
    25
100
AcDbLine
 10
19.812
 20
0.0
 30
0.0
 11
19.812
 21
-22.225
 31
0.0
  0
LINE
  5
B2
330
1F
100
AcDbEntity
  8
1
  6
SLD-Solid
370
    25
100
AcDbLine
 10
19.812
 20
22.225
 30
0.0
 11
19.812
 21
0.0
 31
0.0
  0
LINE
  5
B3
330
1F
100
AcDbEntity
  8
1
  6
SLD-Solid
370
    25
100
AcDbLine
 10
2.1330363037
 20
22.1102691597
 30
0.0
 11
2.1330363037
 21
-22.1102691597
 31
0.0
  0
LINE
  5
B4
330
1F
100
AcDbEntity
  8
SK1
  6
SLD-Solid
370
    25
100
AcDbLine
 10
-67.1376006954
 20
0.0
 30
0.0
 11
-67.1376006954
 21
-12.4340074512
 31
0.0
  0
LINE
  5
B5
330
1F
100
AcDbEntity
  8
SK1
  6
SLD-Solid
370
    25
100
AcDbLine
 10
-67.1376006954
 20
12.4340074512
 30
0.0
 11
-67.1376006954
 21
0.0
 31
0.0
  0
LINE
  5
B6
330
1F
100
AcDbEntity
  8
SK3
  6
SLD-Dashed
370
    18
100
AcDbLine
 10
5.7322709434
 20
-8.8686354442
 30
0.0
 11
5.6023378001
 21
-8.3631302075
 31
0.0
  0
LINE
  5
B7
330
1F
100
AcDbEntity
  8
SK3
  6
SLD-Dashed
370
    18
100
AcDbLine
 10
5.6023378001
 20
-8.3631302075
 30
0.0
 11
5.3987233678
 21
-7.8920743173
 31
0.0
  0
LINE
  5
B8
330
1F
100
AcDbEntity
  8
SK3
  6
SLD-Dashed
370
    18
100
AcDbLine
 10
5.3987233678
 20
-7.8920743173
 30
0.0
 11
5.1353036336
 21
-7.487569454
 31
0.0
  0
LINE
  5
B9
330
1F
100
AcDbEntity
  8
SK3
  6
SLD-Dashed
370
    18
100
AcDbLine
 10
5.1353036336
 20
-7.487569454
 30
0.0
 11
4.8300302171
 21
-7.1771819557
 31
0.0
  0
LINE
  5
BA
330
1F
100
AcDbEntity
  8
SK3
  6
SLD-Dashed
370
    18
100
AcDbLine
 10
4.8300302171
 20
-7.1771819557
 30
0.0
 11
4.5037069971
 21
-6.9820642173
 31
0.0
  0
LINE
  5
BB
330
1F
100
AcDbEntity
  8
SK3
  6
SLD-Dashed
370
    18
100
AcDbLine
 10
4.5037069971
 20
-6.9820642173
 30
0.0
 11
4.1785723618
 21
-6.9155131903
 31
0.0
  0
LINE
  5
BC
330
1F
100
AcDbEntity
  8
SK3
  6
SLD-Dashed
370
    18
100
AcDbLine
 10
4.1785723618
 20
-6.9155131903
 30
0.0
 11
3.8767836993
 21
-6.9820642173
 31
0.0
  0
LINE
  5
BD
330
1F
100
AcDbEntity
  8
SK3
  6
SLD-Dashed
370
    18
100
AcDbLine
 10
3.8767836993
 20
-6.9820642173
 30
0.0
 11
3.6189074082
 21
-7.1771819557
 31
0.0
  0
LINE
  5
BE
330
1F
100
AcDbEntity
  8
SK3
  6
SLD-Dashed
370
    18
100
AcDbLine
 10
3.6189074082
 20
-7.1771819557
 30
0.0
 11
3.4225173315
 21
-7.487569454
 31
0.0
  0
LINE
  5
BF
330
1F
100
AcDbEntity
  8
SK3
  6
SLD-Dashed
370
    18
100
AcDbLine
 10
3.4225173315
 20
-7.487569454
 30
0.0
 11
3.3009971285
 21
-7.8920743173
 31
0.0
  0
LINE
  5
C0
330
1F
100
AcDbEntity
  8
SK3
  6
SLD-Dashed
370
    18
100
AcDbLine
 10
3.3009971285
 20
-7.8920743173
 30
0.0
 11
3.2626282002
 21
-8.3631302075
 31
0.0
  0
LINE
  5
C1
330
1F
100
AcDbEntity
  8
SK3
  6
SLD-Dashed
370
    18
100
AcDbLine
 10
3.2626282002
 20
-8.3631302075
 30
0.0
 11
3.3100253255
 21
-8.8686354442
 31
0.0
  0
LINE
  5
C2
330
1F
100
AcDbEntity
  8
SK3
  6
SLD-Dashed
370
    18
100
AcDbLine
 10
3.3100253255
 20
-8.8686354442
 30
0.0
 11
3.4399584689
 21
-9.3741406809
 31
0.0
  0
LINE
  5
C3
330
1F
100
AcDbEntity
  8
SK3
  6
SLD-Dashed
370
    18
100
AcDbLine
 10
3.4399584689
 20
-9.3741406809
 30
0.0
 11
3.6435729011
 21
-9.8451965711
 31
0.0
  0
LINE
  5
C4
330
1F
100
AcDbEntity
  8
SK3
  6
SLD-Dashed
370
    18
100
AcDbLine
 10
3.6435729011
 20
-9.8451965711
 30
0.0
 11
3.9069926353
 21
-10.2497014344
 31
0.0
  0
LINE
  5
C5
330
1F
100
AcDbEntity
  8
SK3
  6
SLD-Dashed
370
    18
100
AcDbLine
 10
3.9069926353
 20
-10.2497014344
 30
0.0
 11
4.2122660518
 21
-10.5600889327
 31
0.0
  0
LINE
  5
C6
330
1F
100
AcDbEntity
  8
SK3
  6
SLD-Dashed
370
    18
100
AcDbLine
 10
4.2122660518
 20
-10.5600889327
 30
0.0
 11
4.5385892718
 21
-10.7552066711
 31
0.0
  0
LINE
  5
C7
330
1F
100
AcDbEntity
  8
SK3
  6
SLD-Dashed
370
    18
100
AcDbLine
 10
4.5385892718
 20
-10.7552066711
 30
0.0
 11
4.8637239071
 21
-10.8217576981
 31
0.0
  0
LINE
  5
C8
330
1F
100
AcDbEntity
  8
SK3
  6
SLD-Dashed
370
    18
100
AcDbLine
 10
4.8637239071
 20
-10.8217576981
 30
0.0
 11
5.1655125697
 21
-10.7552066711
 31
0.0
  0
LINE
  5
C9
330
1F
100
AcDbEntity
  8
SK3
  6
SLD-Dashed
370
    18
100
AcDbLine
 10
5.1655125697
 20
-10.7552066711
 30
0.0
 11
5.4233888608
 21
-10.5600889327
 31
0.0
  0
LINE
  5
CA
330
1F
100
AcDbEntity
  8
SK3
  6
SLD-Dashed
370
    18
100
AcDbLine
 10
5.4233888608
 20
-10.5600889327
 30
0.0
 11
5.6197789374
 21
-10.2497014344
 31
0.0
  0
LINE
  5
CB
330
1F
100
AcDbEntity
  8
SK3
  6
SLD-Dashed
370
    18
100
AcDbLine
 10
5.6197789374
 20
-10.2497014344
 30
0.0
 11
5.7412991405
 21
-9.8451965711
 31
0.0
  0
LINE
  5
CC
330
1F
100
AcDbEntity
  8
SK3
  6
SLD-Dashed
370
    18
100
AcDbLine
 10
5.7412991405
 20
-9.8451965711
 30
0.0
 11
5.7796680688
 21
-9.3741406809
 31
0.0
  0
LINE
  5
CD
330
1F
100
AcDbEntity
  8
SK3
  6
SLD-Dashed
370
    18
100
AcDbLine
 10
5.7796680688
 20
-9.3741406809
 30
0.0
 11
5.7322709434
 21
-8.8686354442
 31
0.0
  0
LINE
  5
CE
330
1F
100
AcDbEntity
  8
SK3
  6
SLD-Dashed
370
    18
100
AcDbLine
 10
5.7253406934
 20
-8.8621689747
 30
0.0
 11
5.7715528906
 21
-9.3550365805
 31
0.0
  0
LINE
  5
CF
330
1F
100
AcDbEntity
  8
SK3
  6
SLD-Dashed
370
    18
100
AcDbLine
 10
5.7715528906
 20
-9.3550365805
 30
0.0
 11
5.7341431855
 21
-9.8143160735
 31
0.0
  0
LINE
  5
D0
330
1F
100
AcDbEntity
  8
SK3
  6
SLD-Dashed
370
    18
100
AcDbLine
 10
5.7341431855
 20
-9.8143160735
 30
0.0
 11
5.6156609875
 21
-10.2087083151
 31
0.0
  0
LINE
  5
D1
330
1F
100
AcDbEntity
  8
SK3
  6
SLD-Dashed
370
    18
100
AcDbLine
 10
5.6156609875
 20
-10.2087083151
 30
0.0
 11
5.4241806628
 21
-10.511336126
 31
0.0
  0
LINE
  5
D2
330
1F
100
AcDbEntity
  8
SK3
  6
SLD-Dashed
370
    18
100
AcDbLine
 10
5.4241806628
 20
-10.511336126
 30
0.0
 11
5.1727512789
 21
-10.7015759209
 31
0.0
  0
LINE
  5
D3
330
1F
100
AcDbEntity
  8
SK3
  6
SLD-Dashed
370
    18
100
AcDbLine
 10
5.1727512789
 20
-10.7015759209
 30
0.0
 11
4.878507333
 21
-10.7664631722
 31
0.0
  0
LINE
  5
D4
330
1F
100
AcDbEntity
  8
SK3
  6
SLD-Dashed
370
    18
100
AcDbLine
 10
4.878507333
 20
-10.7664631722
 30
0.0
 11
4.5615010636
 21
-10.7015759209
 31
0.0
  0
LINE
  5
D5
330
1F
100
AcDbEntity
  8
SK3
  6
SLD-Dashed
370
    18
100
AcDbLine
 10
4.5615010636
 20
-10.7015759209
 30
0.0
 11
4.2433359241
 21
-10.511336126
 31
0.0
  0
LINE
  5
D6
330
1F
100
AcDbEntity
  8
SK3
  6
SLD-Dashed
370
    18
100
AcDbLine
 10
4.2433359241
 20
-10.511336126
 30
0.0
 11
3.945694343
 21
-10.2087083151
 31
0.0
  0
LINE
  5
D7
330
1F
100
AcDbEntity
  8
SK3
  6
SLD-Dashed
370
    18
100
AcDbLine
 10
3.945694343
 20
-10.2087083151
 30
0.0
 11
3.6888601022
 21
-9.8143160735
 31
0.0
  0
LINE
  5
D8
330
1F
100
AcDbEntity
  8
SK3
  6
SLD-Dashed
370
    18
100
AcDbLine
 10
3.6888601022
 20
-9.8143160735
 30
0.0
 11
3.4903360307
 21
-9.3550365805
 31
0.0
  0
LINE
  5
D9
330
1F
100
AcDbEntity
  8
SK3
  6
SLD-Dashed
370
    18
100
AcDbLine
 10
3.4903360307
 20
-9.3550365805
 30
0.0
 11
3.3636512159
 21
-8.8621689747
 31
0.0
  0
LINE
  5
DA
330
1F
100
AcDbEntity
  8
SK3
  6
SLD-Dashed
370
    18
100
AcDbLine
 10
3.3636512159
 20
-8.8621689747
 30
0.0
 11
3.3174390187
 21
-8.3693013689
 31
0.0
  0
LINE
  5
DB
330
1F
100
AcDbEntity
  8
SK3
  6
SLD-Dashed
370
    18
100
AcDbLine
 10
3.3174390187
 20
-8.3693013689
 30
0.0
 11
3.3548487238
 21
-7.9100218759
 31
0.0
  0
LINE
  5
DC
330
1F
100
AcDbEntity
  8
SK3
  6
SLD-Dashed
370
    18
100
AcDbLine
 10
3.3548487238
 20
-7.9100218759
 30
0.0
 11
3.4733309218
 21
-7.5156296343
 31
0.0
  0
LINE
  5
DD
330
1F
100
AcDbEntity
  8
SK3
  6
SLD-Dashed
370
    18
100
AcDbLine
 10
3.4733309218
 20
-7.5156296343
 30
0.0
 11
3.6648112465
 21
-7.2130018234
 31
0.0
  0
LINE
  5
DE
330
1F
100
AcDbEntity
  8
SK3
  6
SLD-Dashed
370
    18
100
AcDbLine
 10
3.6648112465
 20
-7.2130018234
 30
0.0
 11
3.9162406304
 21
-7.0227620285
 31
0.0
  0
LINE
  5
DF
330
1F
100
AcDbEntity
  8
SK3
  6
SLD-Dashed
370
    18
100
AcDbLine
 10
3.9162406304
 20
-7.0227620285
 30
0.0
 11
4.2104845763
 21
-6.9578747772
 31
0.0
  0
LINE
  5
E0
330
1F
100
AcDbEntity
  8
SK3
  6
SLD-Dashed
370
    18
100
AcDbLine
 10
4.2104845763
 20
-6.9578747772
 30
0.0
 11
4.5274908457
 21
-7.0227620285
 31
0.0
  0
LINE
  5
E1
330
1F
100
AcDbEntity
  8
SK3
  6
SLD-Dashed
370
    18
100
AcDbLine
 10
4.5274908457
 20
-7.0227620285
 30
0.0
 11
4.8456559852
 21
-7.2130018234
 31
0.0
  0
LINE
  5
E2
330
1F
100
AcDbEntity
  8
SK3
  6
SLD-Dashed
370
    18
100
AcDbLine
 10
4.8456559852
 20
-7.2130018234
 30
0.0
 11
5.1432975663
 21
-7.5156296343
 31
0.0
  0
LINE
  5
E3
330
1F
100
AcDbEntity
  8
SK3
  6
SLD-Dashed
370
    18
100
AcDbLine
 10
5.1432975663
 20
-7.5156296343
 30
0.0
 11
5.4001318071
 21
-7.9100218759
 31
0.0
  0
LINE
  5
E4
330
1F
100
AcDbEntity
  8
SK3
  6
SLD-Dashed
370
    18
100
AcDbLine
 10
5.4001318071
 20
-7.9100218759
 30
0.0
 11
5.5986558786
 21
-8.3693013689
 31
0.0
  0
LINE
  5
E5
330
1F
100
AcDbEntity
  8
SK3
  6
SLD-Dashed
370
    18
100
AcDbLine
 10
5.5986558786
 20
-8.3693013689
 30
0.0
 11
5.7253406934
 21
-8.8621689747
 31
0.0
  0
LINE
  5
E6
330
1F
100
AcDbEntity
  8
SK3
  6
SLD-Dashed
370
    18
100
AcDbLine
 10
16.3488925452
 20
-5.9198440145
 30
0.0
 11
16.2222077304
 21
-5.4269764087
 31
0.0
  0
LINE
  5
E7
330
1F
100
AcDbEntity
  8
SK3
  6
SLD-Dashed
370
    18
100
AcDbLine
 10
16.2222077304
 20
-5.4269764087
 30
0.0
 11
16.0236836589
 21
-4.9676969157
 31
0.0
  0
LINE
  5
E8
330
1F
100
AcDbEntity
  8
SK3
  6
SLD-Dashed
370
    18
100
AcDbLine
 10
16.0236836589
 20
-4.9676969157
 30
0.0
 11
15.7668494181
 21
-4.573304674
 31
0.0
  0
LINE
  5
E9
330
1F
100
AcDbEntity
  8
SK3
  6
SLD-Dashed
370
    18
100
AcDbLine
 10
15.7668494181
 20
-4.573304674
 30
0.0
 11
15.469207837
 21
-4.2706768632
 31
0.0
  0
LINE
  5
EA
330
1F
100
AcDbEntity
  8
SK3
  6
SLD-Dashed
370
    18
100
AcDbLine
 10
15.469207837
 20
-4.2706768632
 30
0.0
 11
15.1510426975
 21
-4.0804370683
 31
0.0
  0
LINE
  5
EB
330
1F
100
AcDbEntity
  8
SK3
  6
SLD-Dashed
370
    18
100
AcDbLine
 10
15.1510426975
 20
-4.0804370683
 30
0.0
 11
14.8340364281
 21
-4.015549817
 31
0.0
  0
LINE
  5
EC
330
1F
100
AcDbEntity
  8
SK3
  6
SLD-Dashed
370
    18
100
AcDbLine
 10
14.8340364281
 20
-4.015549817
 30
0.0
 11
14.5397924821
 21
-4.0804370683
 31
0.0
  0
LINE
  5
ED
330
1F
100
AcDbEntity
  8
SK3
  6
SLD-Dashed
370
    18
100
AcDbLine
 10
14.5397924821
 20
-4.0804370683
 30
0.0
 11
14.2883630983
 21
-4.2706768632
 31
0.0
  0
LINE
  5
EE
330
1F
100
AcDbEntity
  8
SK3
  6
SLD-Dashed
370
    18
100
AcDbLine
 10
14.2883630983
 20
-4.2706768632
 30
0.0
 11
14.0968827735
 21
-4.573304674
 31
0.0
  0
LINE
  5
EF
330
1F
100
AcDbEntity
  8
SK3
  6
SLD-Dashed
370
    18
100
AcDbLine
 10
14.0968827735
 20
-4.573304674
 30
0.0
 11
13.9784005756
 21
-4.9676969157
 31
0.0
  0
LINE
  5
F0
330
1F
100
AcDbEntity
  8
SK3
  6
SLD-Dashed
370
    18
100
AcDbLine
 10
13.9784005756
 20
-4.9676969157
 30
0.0
 11
13.9409908705
 21
-5.4269764087
 31
0.0
  0
LINE
  5
F1
330
1F
100
AcDbEntity
  8
SK3
  6
SLD-Dashed
370
    18
100
AcDbLine
 10
13.9409908705
 20
-5.4269764087
 30
0.0
 11
13.9872030677
 21
-5.9198440145
 31
0.0
  0
LINE
  5
F2
330
1F
100
AcDbEntity
  8
SK3
  6
SLD-Dashed
370
    18
100
AcDbLine
 10
13.9872030677
 20
-5.9198440145
 30
0.0
 11
14.1138878825
 21
-6.4127116203
 31
0.0
  0
LINE
  5
F3
330
1F
100
AcDbEntity
  8
SK3
  6
SLD-Dashed
370
    18
100
AcDbLine
 10
14.1138878825
 20
-6.4127116203
 30
0.0
 11
14.3124119539
 21
-6.8719911132
 31
0.0
  0
LINE
  5
F4
330
1F
100
AcDbEntity
  8
SK3
  6
SLD-Dashed
370
    18
100
AcDbLine
 10
14.3124119539
 20
-6.8719911132
 30
0.0
 11
14.5692461948
 21
-7.2663833549
 31
0.0
  0
LINE
  5
F5
330
1F
100
AcDbEntity
  8
SK3
  6
SLD-Dashed
370
    18
100
AcDbLine
 10
14.5692461948
 20
-7.2663833549
 30
0.0
 11
14.8668877759
 21
-7.5690111658
 31
0.0
  0
LINE
  5
F6
330
1F
100
AcDbEntity
  8
SK3
  6
SLD-Dashed
370
    18
100
AcDbLine
 10
14.8668877759
 20
-7.5690111658
 30
0.0
 11
15.1850529154
 21
-7.7592509607
 31
0.0
  0
LINE
  5
F7
330
1F
100
AcDbEntity
  8
SK3
  6
SLD-Dashed
370
    18
100
AcDbLine
 10
15.1850529154
 20
-7.7592509607
 30
0.0
 11
15.5020591848
 21
-7.824138212
 31
0.0
  0
LINE
  5
F8
330
1F
100
AcDbEntity
  8
SK3
  6
SLD-Dashed
370
    18
100
AcDbLine
 10
15.5020591848
 20
-7.824138212
 30
0.0
 11
15.7963031307
 21
-7.7592509607
 31
0.0
  0
LINE
  5
F9
330
1F
100
AcDbEntity
  8
SK3
  6
SLD-Dashed
370
    18
100
AcDbLine
 10
15.7963031307
 20
-7.7592509607
 30
0.0
 11
16.0477325146
 21
-7.5690111658
 31
0.0
  0
LINE
  5
FA
330
1F
100
AcDbEntity
  8
SK3
  6
SLD-Dashed
370
    18
100
AcDbLine
 10
16.0477325146
 20
-7.5690111658
 30
0.0
 11
16.2392128393
 21
-7.2663833549
 31
0.0
  0
LINE
  5
FB
330
1F
100
AcDbEntity
  8
SK3
  6
SLD-Dashed
370
    18
100
AcDbLine
 10
16.2392128393
 20
-7.2663833549
 30
0.0
 11
16.3576950373
 21
-6.8719911132
 31
0.0
  0
LINE
  5
FC
330
1F
100
AcDbEntity
  8
SK3
  6
SLD-Dashed
370
    18
100
AcDbLine
 10
16.3576950373
 20
-6.8719911132
 30
0.0
 11
16.3951047424
 21
-6.4127116203
 31
0.0
  0
LINE
  5
FD
330
1F
100
AcDbEntity
  8
SK3
  6
SLD-Dashed
370
    18
100
AcDbLine
 10
16.3951047424
 20
-6.4127116203
 30
0.0
 11
16.3488925452
 21
-5.9198440145
 31
0.0
  0
LINE
  5
FE
330
1F
100
AcDbEntity
  8
1
  6
SLD-Dashed
370
    18
100
AcDbLine
 10
48.52060569
 20
23.3
 30
0.0
 11
47.52939431
 21
23.3
 31
0.0
  0
LINE
  5
FF
330
1F
100
AcDbEntity
  8
SK3
  6
SLD-Dashed
370
    18
100
AcDbLine
 10
100.6
 20
-12.5
 30
0.0
 11
100.6
 21
12.5
 31
0.0
  0
LINE
  5
100
330
1F
100
AcDbEntity
  8
SK3
  6
SLD-Dashed
370
    18
100
AcDbLine
 10
101.6
 20
-13.0605655839
 30
0.0
 11
101.6
 21
13.0605655839
 31
0.0
  0
LINE
  5
101
330
1F
100
AcDbEntity
  8
SK3
  6
SLD-Dashed
370
    18
100
AcDbLine
 10
26.75
 20
-12.75
 30
0.0
 11
26.75
 21
12.75
 31
0.0
  0
LINE
  5
102
330
1F
100
AcDbEntity
  8
SK3
  6
SLD-Dashed
370
    18
100
AcDbLine
 10
31.75
 20
-12.4958558439
 30
0.0
 11
31.75
 21
12.4958558439
 31
0.0
  0
LINE
  5
103
330
1F
100
AcDbEntity
  8
SK3
  6
SLD-Dashed
370
    18
100
AcDbLine
 10
48.52060569
 20
23.3
 30
0.0
 11
58.15
 21
23.3
 31
0.0
  0
LINE
  5
104
330
1F
100
AcDbEntity
  8
SK3
  6
SLD-Dashed
370
    18
100
AcDbLine
 10
47.52939431
 20
23.3
 30
0.0
 11
37.9
 21
23.3
 31
0.0
  0
LINE
  5
105
330
1F
100
AcDbEntity
  8
SK3
  6
SLD-Dashed
370
    18
100
AcDbLine
 10
73.52060569
 20
23.3
 30
0.0
 11
83.15
 21
23.3
 31
0.0
  0
LINE
  5
106
330
1F
100
AcDbEntity
  8
SK3
  6
SLD-Dashed
370
    18
100
AcDbLine
 10
72.52939431
 20
23.3
 30
0.0
 11
62.9
 21
23.3
 31
0.0
  0
LINE
  5
107
330
1F
100
AcDbEntity
  8
SK3
  6
SLD-Dashed
370
    18
100
AcDbLine
 10
-66.6824940192
 20
-8.235
 30
0.0
 11
-66.6824940192
 21
8.235
 31
0.0
  0
LINE
  5
108
330
1F
100
AcDbEntity
  8
SK3
  6
SLD-Dashed
370
    18
100
AcDbLine
 10
-68.25
 20
-9.14
 30
0.0
 11
-68.25
 21
9.14
 31
0.0
  0
LINE
  5
109
330
1F
100
AcDbEntity
  8
SK3
  6
SLD-Dashed
370
    18
100
AcDbLine
 10
39.3636
 20
23.3
 30
0.0
 11
56.6699721715
 21
23.3
 31
0.0
  0
LINE
  5
10A
330
1F
100
AcDbEntity
  8
SK3
  6
SLD-Dashed
370
    18
100
AcDbLine
 10
81.6864
 20
23.3
 30
0.0
 11
64.3800278285
 21
23.3
 31
0.0
  0
LINE
  5
10B
330
1F
100
AcDbEntity
  8
SK3
  6
SLD-Dashed
370
    18
100
AcDbLine
 10
-63.48
 20
-8.235
 30
0.0
 11
-63.48
 21
8.235
 31
0.0
  0
LINE
  5
10C
330
1F
100
AcDbEntity
  8
SK3
  6
SLD-Dashed
370
    18
100
AcDbLine
 10
-62.6204640132
 20
-6.74624
 30
0.0
 11
-62.6204640132
 21
6.74624
 31
0.0
  0
LINE
  5
10D
330
1F
100
AcDbEntity
  8
SK3
  6
SLD-Dashed
370
    18
100
AcDbLine
 10
3.5452916241
 20
-29.8048664484
 30
0.0
 11
3.5452916241
 21
-22.785
 31
0.0
  0
LINE
  5
10E
330
1F
100
AcDbEntity
  8
SK3
  6
SLD-Dashed
370
    18
100
AcDbLine
 10
18.704611155
 20
-22.785
 30
0.0
 11
18.704611155
 21
-29.8048552742
 31
0.0
  0
LINE
  5
10F
330
1F
100
AcDbEntity
  8
1
  6
SLD-Dashed
370
    18
100
AcDbLine
 10
7.8539870535
 20
-30.2255814201
 30
0.0
 11
3.95
 21
-30.2255814201
 31
0.0
  0
LINE
  5
110
330
1F
100
AcDbEntity
  8
1
  6
SLD-Dashed
370
    18
100
AcDbLine
 10
18.3
 20
-30.2254693878
 30
0.0
 11
14.3759504666
 21
-30.2254693878
 31
0.0
  0
LINE
  5
111
330
1F
100
AcDbEntity
  8
1
  6
SLD-Dashed
370
    18
100
AcDbLine
 10
9.2
 20
-27.8050456342
 30
0.0
 11
9.2
 21
-27.7691663541
 31
0.0
  0
LINE
  5
112
330
1F
100
AcDbEntity
  8
1
  6
SLD-Dashed
370
    18
100
AcDbLine
 10
13.03
 20
-27.7691663541
 30
0.0
 11
13.03
 21
-27.8050456342
 31
0.0
  0
LINE
  5
113
330
1F
100
AcDbEntity
  8
SK3
  6
SLD-Dashed
370
    18
100
AcDbLine
 10
18.7047083759
 20
29.8048664484
 30
0.0
 11
18.7047083759
 21
25.5791202528
 31
0.0
  0
LINE
  5
114
330
1F
100
AcDbEntity
  8
SK3
  6
SLD-Dashed
370
    18
100
AcDbLine
 10
3.545388845
 20
25.5789825872
 30
0.0
 11
3.545388845
 21
29.8048552742
 31
0.0
  0
LINE
  5
115
330
1F
100
AcDbEntity
  8
SK3
  6
SLD-Dashed
370
    18
100
AcDbLine
 10
14.3760129465
 20
30.2255814201
 30
0.0
 11
18.3
 21
30.2255814201
 31
0.0
  0
LINE
  5
116
330
1F
100
AcDbEntity
  8
SK3
  6
SLD-Dashed
370
    18
100
AcDbLine
 10
3.95
 20
30.2254693878
 30
0.0
 11
7.8540495334
 21
30.2254693878
 31
0.0
  0
LINE
  5
117
330
1F
100
AcDbEntity
  8
1
  6
SLD-Dashed
370
    18
100
AcDbLine
 10
9.2
 20
27.8050456342
 30
0.0
 11
9.2
 21
27.7691663541
 31
0.0
  0
LINE
  5
118
330
1F
100
AcDbEntity
  8
1
  6
SLD-Dashed
370
    18
100
AcDbLine
 10
13.03
 20
27.7691663541
 30
0.0
 11
13.03
 21
27.8050456342
 31
0.0
  0
LINE
  5
119
330
1F
100
AcDbEntity
  8
SK3
  6
SLD-Dashed
370
    18
100
AcDbLine
 10
18.704611155
 20
-22.41
 30
0.0
 11
3.5452916241
 21
-22.41
 31
0.0
  0
LINE
  5
11A
330
1F
100
AcDbEntity
  8
SK3
  6
SLD-Dashed
370
    18
100
AcDbLine
 10
3.5452916241
 20
-22.785
 30
0.0
 11
18.704611155
 21
-22.785
 31
0.0
  0
LINE
  5
11B
330
1F
100
AcDbEntity
  8
SK3
  6
SLD-Dashed
370
    18
100
AcDbLine
 10
3.7
 20
24.83
 30
0.0
 11
18.55
 21
24.83
 31
0.0
  0
LINE
  5
11C
330
1F
100
AcDbEntity
  8
SK3
  6
SLD-Dashed
370
    18
100
AcDbLine
 10
18.55
 20
25.205
 30
0.0
 11
3.7
 21
25.205
 31
0.0
  0
LINE
  5
11D
330
1F
100
AcDbEntity
  8
SK3
  6
SLD-Dashed
370
    18
100
AcDbLine
 10
26.75
 20
6.7421303729
 30
0.0
 11
26.75
 21
-6.7421303729
 31
0.0
  0
LINE
  5
11E
330
1F
100
AcDbEntity
  8
SK3
  6
SLD-Dashed
370
    18
100
AcDbLine
 10
6.4000000411
 20
20.13
 30
0.0
 11
15.8
 21
20.13
 31
0.0
  0
LINE
  5
11F
330
1F
100
AcDbEntity
  8
SK3
  6
SLD-Dashed
370
    18
100
AcDbLine
 10
16.1
 20
20.43
 30
0.0
 11
6.1
 21
20.43
 31
0.0
  0
LINE
  5
120
330
1F
100
AcDbEntity
  8
SK3
  6
SLD-Dashed
370
    18
100
AcDbLine
 10
6.1
 20
24.83
 30
0.0
 11
16.1
 21
24.83
 31
0.0
  0
LINE
  5
121
330
1F
100
AcDbEntity
  8
SK3
  6
SLD-Dashed
370
    18
100
AcDbLine
 10
18.7047083759
 20
-22.785
 30
0.0
 11
3.545388845
 21
-22.785
 31
0.0
  0
LINE
  5
122
330
1F
100
AcDbEntity
  8
SK3
  6
SLD-Dashed
370
    18
100
AcDbLine
 10
3.545388845
 20
-22.41
 30
0.0
 11
18.7047083759
 21
-22.41
 31
0.0
  0
LINE
  5
123
330
1F
100
AcDbEntity
  8
1
  6
SLD-Dashed
370
    18
100
AcDbLine
 10
14.3760129465
 20
-30.2255814201
 30
0.0
 11
18.3
 21
-30.2255814201
 31
0.0
  0
LINE
  5
124
330
1F
100
AcDbEntity
  8
1
  6
SLD-Dashed
370
    18
100
AcDbLine
 10
12.28
 20
-26.9870635676
 30
0.0
 11
9.95
 21
-26.9870635676
 31
0.0
  0
LINE
  5
125
330
1F
100
AcDbEntity
  8
1
  6
SLD-Dashed
370
    18
100
AcDbLine
 10
3.95
 20
-30.2254693878
 30
0.0
 11
7.8540495334
 21
-30.2254693878
 31
0.0
  0
LINE
  5
126
330
1F
100
AcDbEntity
  8
SK3
  6
SLD-Dashed
370
    18
100
AcDbLine
 10
3.545388845
 20
-22.785
 30
0.0
 11
3.545388845
 21
-29.8048552742
 31
0.0
  0
LINE
  5
127
330
1F
100
AcDbEntity
  8
SK3
  6
SLD-Dashed
370
    18
100
AcDbLine
 10
18.7047083759
 20
-29.8048664484
 30
0.0
 11
18.7047083759
 21
-22.785
 31
0.0
  0
LINE
  5
128
330
1F
100
AcDbEntity
  8
SK3
  6
SLD-Dashed
370
    18
100
AcDbLine
 10
18.704611155
 20
25.5789825872
 30
0.0
 11
18.704611155
 21
29.8048552742
 31
0.0
  0
LINE
  5
129
330
1F
100
AcDbEntity
  8
SK3
  6
SLD-Dashed
370
    18
100
AcDbLine
 10
3.5452916241
 20
29.8048664484
 30
0.0
 11
3.5452916241
 21
25.5791202528
 31
0.0
  0
LINE
  5
12A
330
1F
100
AcDbEntity
  8
SK3
  6
SLD-Dashed
370
    18
100
AcDbLine
 10
7.8539870535
 20
30.2255814201
 30
0.0
 11
3.95
 21
30.2255814201
 31
0.0
  0
LINE
  5
12B
330
1F
100
AcDbEntity
  8
1
  6
SLD-Dashed
370
    18
100
AcDbLine
 10
12.28
 20
26.9870635676
 30
0.0
 11
9.95
 21
26.9870635676
 31
0.0
  0
LINE
  5
12C
330
1F
100
AcDbEntity
  8
SK3
  6
SLD-Dashed
370
    18
100
AcDbLine
 10
18.3
 20
30.2254693878
 30
0.0
 11
14.3759504666
 21
30.2254693878
 31
0.0
  0
LINE
  5
12D
330
1F
100
AcDbEntity
  8
SK3
  6
SLD-Dashed
370
    18
100
AcDbLine
 10
3.3636512159
 20
8.8621689747
 30
0.0
 11
3.3174390187
 21
8.3693013689
 31
0.0
  0
LINE
  5
12E
330
1F
100
AcDbEntity
  8
SK3
  6
SLD-Dashed
370
    18
100
AcDbLine
 10
3.3174390187
 20
8.3693013689
 30
0.0
 11
3.3548487238
 21
7.9100218759
 31
0.0
  0
LINE
  5
12F
330
1F
100
AcDbEntity
  8
SK3
  6
SLD-Dashed
370
    18
100
AcDbLine
 10
3.3548487238
 20
7.9100218759
 30
0.0
 11
3.4733309218
 21
7.5156296343
 31
0.0
  0
LINE
  5
130
330
1F
100
AcDbEntity
  8
SK3
  6
SLD-Dashed
370
    18
100
AcDbLine
 10
3.4733309218
 20
7.5156296343
 30
0.0
 11
3.6648112465
 21
7.2130018234
 31
0.0
  0
LINE
  5
131
330
1F
100
AcDbEntity
  8
SK3
  6
SLD-Dashed
370
    18
100
AcDbLine
 10
3.6648112465
 20
7.2130018234
 30
0.0
 11
3.9162406304
 21
7.0227620285
 31
0.0
  0
LINE
  5
132
330
1F
100
AcDbEntity
  8
SK3
  6
SLD-Dashed
370
    18
100
AcDbLine
 10
3.9162406304
 20
7.0227620285
 30
0.0
 11
4.2104845763
 21
6.9578747772
 31
0.0
  0
LINE
  5
133
330
1F
100
AcDbEntity
  8
SK3
  6
SLD-Dashed
370
    18
100
AcDbLine
 10
4.2104845763
 20
6.9578747772
 30
0.0
 11
4.5274908457
 21
7.0227620285
 31
0.0
  0
LINE
  5
134
330
1F
100
AcDbEntity
  8
SK3
  6
SLD-Dashed
370
    18
100
AcDbLine
 10
4.5274908457
 20
7.0227620285
 30
0.0
 11
4.8456559852
 21
7.2130018234
 31
0.0
  0
LINE
  5
135
330
1F
100
AcDbEntity
  8
SK3
  6
SLD-Dashed
370
    18
100
AcDbLine
 10
4.8456559852
 20
7.2130018234
 30
0.0
 11
5.1432975663
 21
7.5156296343
 31
0.0
  0
LINE
  5
136
330
1F
100
AcDbEntity
  8
SK3
  6
SLD-Dashed
370
    18
100
AcDbLine
 10
5.1432975663
 20
7.5156296343
 30
0.0
 11
5.4001318071
 21
7.9100218759
 31
0.0
  0
LINE
  5
137
330
1F
100
AcDbEntity
  8
SK3
  6
SLD-Dashed
370
    18
100
AcDbLine
 10
5.4001318071
 20
7.9100218759
 30
0.0
 11
5.5986558786
 21
8.3693013689
 31
0.0
  0
LINE
  5
138
330
1F
100
AcDbEntity
  8
SK3
  6
SLD-Dashed
370
    18
100
AcDbLine
 10
5.5986558786
 20
8.3693013689
 30
0.0
 11
5.7253406934
 21
8.8621689747
 31
0.0
  0
LINE
  5
139
330
1F
100
AcDbEntity
  8
SK3
  6
SLD-Dashed
370
    18
100
AcDbLine
 10
5.7253406934
 20
8.8621689747
 30
0.0
 11
5.7715528906
 21
9.3550365805
 31
0.0
  0
LINE
  5
13A
330
1F
100
AcDbEntity
  8
SK3
  6
SLD-Dashed
370
    18
100
AcDbLine
 10
5.7715528906
 20
9.3550365805
 30
0.0
 11
5.7341431855
 21
9.8143160735
 31
0.0
  0
LINE
  5
13B
330
1F
100
AcDbEntity
  8
SK3
  6
SLD-Dashed
370
    18
100
AcDbLine
 10
5.7341431855
 20
9.8143160735
 30
0.0
 11
5.6156609875
 21
10.2087083151
 31
0.0
  0
LINE
  5
13C
330
1F
100
AcDbEntity
  8
SK3
  6
SLD-Dashed
370
    18
100
AcDbLine
 10
5.6156609875
 20
10.2087083151
 30
0.0
 11
5.4241806628
 21
10.511336126
 31
0.0
  0
LINE
  5
13D
330
1F
100
AcDbEntity
  8
SK3
  6
SLD-Dashed
370
    18
100
AcDbLine
 10
5.4241806628
 20
10.511336126
 30
0.0
 11
5.1727512789
 21
10.7015759209
 31
0.0
  0
LINE
  5
13E
330
1F
100
AcDbEntity
  8
SK3
  6
SLD-Dashed
370
    18
100
AcDbLine
 10
5.1727512789
 20
10.7015759209
 30
0.0
 11
4.878507333
 21
10.7664631722
 31
0.0
  0
LINE
  5
13F
330
1F
100
AcDbEntity
  8
SK3
  6
SLD-Dashed
370
    18
100
AcDbLine
 10
4.878507333
 20
10.7664631722
 30
0.0
 11
4.5615010636
 21
10.7015759209
 31
0.0
  0
LINE
  5
140
330
1F
100
AcDbEntity
  8
SK3
  6
SLD-Dashed
370
    18
100
AcDbLine
 10
4.5615010636
 20
10.7015759209
 30
0.0
 11
4.2433359241
 21
10.511336126
 31
0.0
  0
LINE
  5
141
330
1F
100
AcDbEntity
  8
SK3
  6
SLD-Dashed
370
    18
100
AcDbLine
 10
4.2433359241
 20
10.511336126
 30
0.0
 11
3.945694343
 21
10.2087083151
 31
0.0
  0
LINE
  5
142
330
1F
100
AcDbEntity
  8
SK3
  6
SLD-Dashed
370
    18
100
AcDbLine
 10
3.945694343
 20
10.2087083151
 30
0.0
 11
3.6888601022
 21
9.8143160735
 31
0.0
  0
LINE
  5
143
330
1F
100
AcDbEntity
  8
SK3
  6
SLD-Dashed
370
    18
100
AcDbLine
 10
3.6888601022
 20
9.8143160735
 30
0.0
 11
3.4903360307
 21
9.3550365805
 31
0.0
  0
LINE
  5
144
330
1F
100
AcDbEntity
  8
SK3
  6
SLD-Dashed
370
    18
100
AcDbLine
 10
3.4903360307
 20
9.3550365805
 30
0.0
 11
3.3636512159
 21
8.8621689747
 31
0.0
  0
LINE
  5
145
330
1F
100
AcDbEntity
  8
SK3
  6
SLD-Dashed
370
    18
100
AcDbLine
 10
13.9872030677
 20
5.9198440145
 30
0.0
 11
14.1138878825
 21
6.4127116203
 31
0.0
  0
LINE
  5
146
330
1F
100
AcDbEntity
  8
SK3
  6
SLD-Dashed
370
    18
100
AcDbLine
 10
14.1138878825
 20
6.4127116203
 30
0.0
 11
14.3124119539
 21
6.8719911132
 31
0.0
  0
LINE
  5
147
330
1F
100
AcDbEntity
  8
SK3
  6
SLD-Dashed
370
    18
100
AcDbLine
 10
14.3124119539
 20
6.8719911132
 30
0.0
 11
14.5692461948
 21
7.2663833549
 31
0.0
  0
LINE
  5
148
330
1F
100
AcDbEntity
  8
SK3
  6
SLD-Dashed
370
    18
100
AcDbLine
 10
14.5692461948
 20
7.2663833549
 30
0.0
 11
14.8668877759
 21
7.5690111658
 31
0.0
  0
LINE
  5
149
330
1F
100
AcDbEntity
  8
SK3
  6
SLD-Dashed
370
    18
100
AcDbLine
 10
14.8668877759
 20
7.5690111658
 30
0.0
 11
15.1850529154
 21
7.7592509607
 31
0.0
  0
LINE
  5
14A
330
1F
100
AcDbEntity
  8
SK3
  6
SLD-Dashed
370
    18
100
AcDbLine
 10
15.1850529154
 20
7.7592509607
 30
0.0
 11
15.5020591848
 21
7.824138212
 31
0.0
  0
LINE
  5
14B
330
1F
100
AcDbEntity
  8
SK3
  6
SLD-Dashed
370
    18
100
AcDbLine
 10
15.5020591848
 20
7.824138212
 30
0.0
 11
15.7963031307
 21
7.7592509607
 31
0.0
  0
LINE
  5
14C
330
1F
100
AcDbEntity
  8
SK3
  6
SLD-Dashed
370
    18
100
AcDbLine
 10
15.7963031307
 20
7.7592509607
 30
0.0
 11
16.0477325146
 21
7.5690111658
 31
0.0
  0
LINE
  5
14D
330
1F
100
AcDbEntity
  8
SK3
  6
SLD-Dashed
370
    18
100
AcDbLine
 10
16.0477325146
 20
7.5690111658
 30
0.0
 11
16.2392128393
 21
7.2663833549
 31
0.0
  0
LINE
  5
14E
330
1F
100
AcDbEntity
  8
SK3
  6
SLD-Dashed
370
    18
100
AcDbLine
 10
16.2392128393
 20
7.2663833549
 30
0.0
 11
16.3576950373
 21
6.8719911132
 31
0.0
  0
LINE
  5
14F
330
1F
100
AcDbEntity
  8
SK3
  6
SLD-Dashed
370
    18
100
AcDbLine
 10
16.3576950373
 20
6.8719911132
 30
0.0
 11
16.3951047424
 21
6.4127116203
 31
0.0
  0
LINE
  5
150
330
1F
100
AcDbEntity
  8
SK3
  6
SLD-Dashed
370
    18
100
AcDbLine
 10
16.3951047424
 20
6.4127116203
 30
0.0
 11
16.3488925452
 21
5.9198440145
 31
0.0
  0
LINE
  5
151
330
1F
100
AcDbEntity
  8
SK3
  6
SLD-Dashed
370
    18
100
AcDbLine
 10
16.3488925452
 20
5.9198440145
 30
0.0
 11
16.2222077304
 21
5.4269764087
 31
0.0
  0
LINE
  5
152
330
1F
100
AcDbEntity
  8
SK3
  6
SLD-Dashed
370
    18
100
AcDbLine
 10
16.2222077304
 20
5.4269764087
 30
0.0
 11
16.0236836589
 21
4.9676969157
 31
0.0
  0
LINE
  5
153
330
1F
100
AcDbEntity
  8
SK3
  6
SLD-Dashed
370
    18
100
AcDbLine
 10
16.0236836589
 20
4.9676969157
 30
0.0
 11
15.7668494181
 21
4.573304674
 31
0.0
  0
LINE
  5
154
330
1F
100
AcDbEntity
  8
SK3
  6
SLD-Dashed
370
    18
100
AcDbLine
 10
15.7668494181
 20
4.573304674
 30
0.0
 11
15.469207837
 21
4.2706768632
 31
0.0
  0
LINE
  5
155
330
1F
100
AcDbEntity
  8
SK3
  6
SLD-Dashed
370
    18
100
AcDbLine
 10
15.469207837
 20
4.2706768632
 30
0.0
 11
15.1510426975
 21
4.0804370683
 31
0.0
  0
LINE
  5
156
330
1F
100
AcDbEntity
  8
SK3
  6
SLD-Dashed
370
    18
100
AcDbLine
 10
15.1510426975
 20
4.0804370683
 30
0.0
 11
14.8340364281
 21
4.015549817
 31
0.0
  0
LINE
  5
157
330
1F
100
AcDbEntity
  8
SK3
  6
SLD-Dashed
370
    18
100
AcDbLine
 10
14.8340364281
 20
4.015549817
 30
0.0
 11
14.5397924821
 21
4.0804370683
 31
0.0
  0
LINE
  5
158
330
1F
100
AcDbEntity
  8
SK3
  6
SLD-Dashed
370
    18
100
AcDbLine
 10
14.5397924821
 20
4.0804370683
 30
0.0
 11
14.2883630983
 21
4.2706768632
 31
0.0
  0
LINE
  5
159
330
1F
100
AcDbEntity
  8
SK3
  6
SLD-Dashed
370
    18
100
AcDbLine
 10
14.2883630983
 20
4.2706768632
 30
0.0
 11
14.0968827735
 21
4.573304674
 31
0.0
  0
LINE
  5
15A
330
1F
100
AcDbEntity
  8
SK3
  6
SLD-Dashed
370
    18
100
AcDbLine
 10
14.0968827735
 20
4.573304674
 30
0.0
 11
13.9784005756
 21
4.9676969157
 31
0.0
  0
LINE
  5
15B
330
1F
100
AcDbEntity
  8
SK3
  6
SLD-Dashed
370
    18
100
AcDbLine
 10
13.9784005756
 20
4.9676969157
 30
0.0
 11
13.9409908705
 21
5.4269764087
 31
0.0
  0
LINE
  5
15C
330
1F
100
AcDbEntity
  8
SK3
  6
SLD-Dashed
370
    18
100
AcDbLine
 10
13.9409908705
 20
5.4269764087
 30
0.0
 11
13.9872030677
 21
5.9198440145
 31
0.0
  0
LINE
  5
15D
330
1F
100
AcDbEntity
  8
SK3
  6
SLD-Dashed
370
    18
100
AcDbLine
 10
3.3100253255
 20
8.8686354442
 30
0.0
 11
3.4399584689
 21
9.3741406809
 31
0.0
  0
LINE
  5
15E
330
1F
100
AcDbEntity
  8
SK3
  6
SLD-Dashed
370
    18
100
AcDbLine
 10
3.4399584689
 20
9.3741406809
 30
0.0
 11
3.6435729011
 21
9.8451965711
 31
0.0
  0
LINE
  5
15F
330
1F
100
AcDbEntity
  8
SK3
  6
SLD-Dashed
370
    18
100
AcDbLine
 10
3.6435729011
 20
9.8451965711
 30
0.0
 11
3.9069926353
 21
10.2497014344
 31
0.0
  0
LINE
  5
160
330
1F
100
AcDbEntity
  8
SK3
  6
SLD-Dashed
370
    18
100
AcDbLine
 10
3.9069926353
 20
10.2497014344
 30
0.0
 11
4.2122660518
 21
10.5600889327
 31
0.0
  0
LINE
  5
161
330
1F
100
AcDbEntity
  8
SK3
  6
SLD-Dashed
370
    18
100
AcDbLine
 10
4.2122660518
 20
10.5600889327
 30
0.0
 11
4.5385892718
 21
10.7552066711
 31
0.0
  0
LINE
  5
162
330
1F
100
AcDbEntity
  8
SK3
  6
SLD-Dashed
370
    18
100
AcDbLine
 10
4.5385892718
 20
10.7552066711
 30
0.0
 11
4.8637239071
 21
10.8217576981
 31
0.0
  0
LINE
  5
163
330
1F
100
AcDbEntity
  8
SK3
  6
SLD-Dashed
370
    18
100
AcDbLine
 10
4.8637239071
 20
10.8217576981
 30
0.0
 11
5.1655125697
 21
10.7552066711
 31
0.0
  0
LINE
  5
164
330
1F
100
AcDbEntity
  8
SK3
  6
SLD-Dashed
370
    18
100
AcDbLine
 10
5.1655125697
 20
10.7552066711
 30
0.0
 11
5.4233888608
 21
10.5600889327
 31
0.0
  0
LINE
  5
165
330
1F
100
AcDbEntity
  8
SK3
  6
SLD-Dashed
370
    18
100
AcDbLine
 10
5.4233888608
 20
10.5600889327
 30
0.0
 11
5.6197789374
 21
10.2497014344
 31
0.0
  0
LINE
  5
166
330
1F
100
AcDbEntity
  8
SK3
  6
SLD-Dashed
370
    18
100
AcDbLine
 10
5.6197789374
 20
10.2497014344
 30
0.0
 11
5.7412991405
 21
9.8451965711
 31
0.0
  0
LINE
  5
167
330
1F
100
AcDbEntity
  8
SK3
  6
SLD-Dashed
370
    18
100
AcDbLine
 10
5.7412991405
 20
9.8451965711
 30
0.0
 11
5.7796680688
 21
9.3741406809
 31
0.0
  0
LINE
  5
168
330
1F
100
AcDbEntity
  8
SK3
  6
SLD-Dashed
370
    18
100
AcDbLine
 10
5.7796680688
 20
9.3741406809
 30
0.0
 11
5.7322709434
 21
8.8686354442
 31
0.0
  0
LINE
  5
169
330
1F
100
AcDbEntity
  8
SK3
  6
SLD-Dashed
370
    18
100
AcDbLine
 10
5.7322709434
 20
8.8686354442
 30
0.0
 11
5.6023378001
 21
8.3631302075
 31
0.0
  0
LINE
  5
16A
330
1F
100
AcDbEntity
  8
SK3
  6
SLD-Dashed
370
    18
100
AcDbLine
 10
5.6023378001
 20
8.3631302075
 30
0.0
 11
5.3987233678
 21
7.8920743173
 31
0.0
  0
LINE
  5
16B
330
1F
100
AcDbEntity
  8
SK3
  6
SLD-Dashed
370
    18
100
AcDbLine
 10
5.3987233678
 20
7.8920743173
 30
0.0
 11
5.1353036336
 21
7.487569454
 31
0.0
  0
LINE
  5
16C
330
1F
100
AcDbEntity
  8
SK3
  6
SLD-Dashed
370
    18
100
AcDbLine
 10
5.1353036336
 20
7.487569454
 30
0.0
 11
4.8300302171
 21
7.1771819557
 31
0.0
  0
LINE
  5
16D
330
1F
100
AcDbEntity
  8
SK3
  6
SLD-Dashed
370
    18
100
AcDbLine
 10
4.8300302171
 20
7.1771819557
 30
0.0
 11
4.5037069971
 21
6.9820642173
 31
0.0
  0
LINE
  5
16E
330
1F
100
AcDbEntity
  8
SK3
  6
SLD-Dashed
370
    18
100
AcDbLine
 10
4.5037069971
 20
6.9820642173
 30
0.0
 11
4.1785723618
 21
6.9155131903
 31
0.0
  0
LINE
  5
16F
330
1F
100
AcDbEntity
  8
SK3
  6
SLD-Dashed
370
    18
100
AcDbLine
 10
4.1785723618
 20
6.9155131903
 30
0.0
 11
3.8767836993
 21
6.9820642173
 31
0.0
  0
LINE
  5
170
330
1F
100
AcDbEntity
  8
SK3
  6
SLD-Dashed
370
    18
100
AcDbLine
 10
3.8767836993
 20
6.9820642173
 30
0.0
 11
3.6189074082
 21
7.1771819557
 31
0.0
  0
LINE
  5
171
330
1F
100
AcDbEntity
  8
SK3
  6
SLD-Dashed
370
    18
100
AcDbLine
 10
3.6189074082
 20
7.1771819557
 30
0.0
 11
3.4225173315
 21
7.487569454
 31
0.0
  0
LINE
  5
172
330
1F
100
AcDbEntity
  8
SK3
  6
SLD-Dashed
370
    18
100
AcDbLine
 10
3.4225173315
 20
7.487569454
 30
0.0
 11
3.3009971285
 21
7.8920743173
 31
0.0
  0
LINE
  5
173
330
1F
100
AcDbEntity
  8
SK3
  6
SLD-Dashed
370
    18
100
AcDbLine
 10
3.3009971285
 20
7.8920743173
 30
0.0
 11
3.2626282002
 21
8.3631302075
 31
0.0
  0
LINE
  5
174
330
1F
100
AcDbEntity
  8
SK3
  6
SLD-Dashed
370
    18
100
AcDbLine
 10
3.2626282002
 20
8.3631302075
 30
0.0
 11
3.3100253255
 21
8.8686354442
 31
0.0
  0
LINE
  5
175
330
1F
100
AcDbEntity
  8
SK3
  6
SLD-Dashed
370
    18
100
AcDbLine
 10
5.06497889
 20
-10.7414234849
 30
0.0
 11
15.6885307418
 21
-7.7990985247
 31
0.0
  0
LINE
  5
176
330
1F
100
AcDbEntity
  8
SK3
  6
SLD-Dashed
370
    18
100
AcDbLine
 10
14.6475648711
 20
-4.0405895043
 30
0.0
 11
4.0240130193
 21
-6.9829144645
 31
0.0
  0
LINE
  5
177
330
1F
100
AcDbEntity
  8
SK3
  6
SLD-Dashed
370
    18
100
AcDbLine
 10
101.6
 20
13.0773502692
 30
0.0
 11
100.6
 21
12.5
 31
0.0
  0
LINE
  5
178
330
1F
100
AcDbEntity
  8
SK3
  6
SLD-Dashed
370
    18
100
AcDbLine
 10
100.6
 20
-12.5
 30
0.0
 11
101.6
 21
-13.0773502692
 31
0.0
  0
LINE
  5
179
330
1F
100
AcDbEntity
  8
SK3
  6
SLD-Dashed
370
    18
100
AcDbLine
 10
31.75
 20
12.75
 30
0.0
 11
26.75
 21
12.75
 31
0.0
  0
LINE
  5
17A
330
1F
100
AcDbEntity
  8
SK3
  6
SLD-Dashed
370
    18
100
AcDbLine
 10
26.75
 20
-12.75
 30
0.0
 11
31.75
 21
-12.75
 31
0.0
  0
LINE
  5
17B
330
1F
100
AcDbEntity
  8
SK3
  6
SLD-Dashed
370
    18
100
AcDbLine
 10
39.3636
 20
12.5
 30
0.0
 11
31.75
 21
12.5
 31
0.0
  0
LINE
  5
17C
330
1F
100
AcDbEntity
  8
SK3
  6
SLD-Dashed
370
    18
100
AcDbLine
 10
64.3636
 20
12.5
 30
0.0
 11
56.6734621518
 21
12.5
 31
0.0
  0
LINE
  5
17D
330
1F
100
AcDbEntity
  8
SK3
  6
SLD-Dashed
370
    18
100
AcDbLine
 10
100.6
 20
12.5
 30
0.0
 11
81.6810140948
 21
12.5
 31
0.0
  0
LINE
  5
17E
330
1F
100
AcDbEntity
  8
SK3
  6
SLD-Dashed
370
    18
100
AcDbLine
 10
31.75
 20
-12.5
 30
0.0
 11
100.6
 21
-12.5
 31
0.0
  0
LINE
  5
17F
330
1F
100
AcDbEntity
  8
SK3
  6
SLD-Dashed
370
    18
100
AcDbLine
 10
58.15
 20
23.3
 30
0.0
 11
58.15
 21
25.4
 31
0.0
  0
LINE
  5
180
330
1F
100
AcDbEntity
  8
SK3
  6
SLD-Dashed
370
    18
100
AcDbLine
 10
37.9
 20
23.8716822513
 30
0.0
 11
37.9
 21
23.3
 31
0.0
  0
LINE
  5
181
330
1F
100
AcDbEntity
  8
SK3
  6
SLD-Dashed
370
    18
100
AcDbLine
 10
83.15
 20
23.3
 30
0.0
 11
83.15
 21
25.4
 31
0.0
  0
LINE
  5
182
330
1F
100
AcDbEntity
  8
SK3
  6
SLD-Dashed
370
    18
100
AcDbLine
 10
62.9
 20
25.4
 30
0.0
 11
62.9
 21
23.3
 31
0.0
  0
LINE
  5
183
330
1F
100
AcDbEntity
  8
SK3
  6
SLD-Dashed
370
    18
100
AcDbLine
 10
-68.25
 20
-9.14
 30
0.0
 11
-66.6824940192
 21
-8.235
 31
0.0
  0
LINE
  5
184
330
1F
100
AcDbEntity
  8
SK3
  6
SLD-Dashed
370
    18
100
AcDbLine
 10
-66.6824940192
 20
8.235
 30
0.0
 11
-68.25
 21
9.14
 31
0.0
  0
LINE
  5
185
330
1F
100
AcDbEntity
  8
SK3
  6
SLD-Dashed
370
    18
100
AcDbLine
 10
39.3636
 20
23.3
 30
0.0
 11
39.3636
 21
12.5
 31
0.0
  0
LINE
  5
186
330
1F
100
AcDbEntity
  8
SK3
  6
SLD-Dashed
370
    18
100
AcDbLine
 10
56.6864
 20
12.4910394626
 30
0.0
 11
56.6864
 21
23.3
 31
0.0
  0
LINE
  5
187
330
1F
100
AcDbEntity
  8
SK3
  6
SLD-Dashed
370
    18
100
AcDbLine
 10
64.3636
 20
23.3
 30
0.0
 11
64.3636
 21
12.5
 31
0.0
  0
LINE
  5
188
330
1F
100
AcDbEntity
  8
SK3
  6
SLD-Dashed
370
    18
100
AcDbLine
 10
81.6864
 20
12.4962846317
 30
0.0
 11
81.6864
 21
23.3
 31
0.0
  0
LINE
  5
189
330
1F
100
AcDbEntity
  8
SK3
  6
SLD-Dashed
370
    18
100
AcDbLine
 10
-66.6824940192
 20
-8.235
 30
0.0
 11
-63.48
 21
-8.235
 31
0.0
  0
LINE
  5
18A
330
1F
100
AcDbEntity
  8
SK3
  6
SLD-Dashed
370
    18
100
AcDbLine
 10
-63.48
 20
8.235
 30
0.0
 11
-66.6824940192
 21
8.235
 31
0.0
  0
LINE
  5
18B
330
1F
100
AcDbEntity
  8
SK3
  6
SLD-Dashed
370
    18
100
AcDbLine
 10
-63.48
 20
-8.235
 30
0.0
 11
-62.6204640132
 21
-6.74624
 31
0.0
  0
LINE
  5
18C
330
1F
100
AcDbEntity
  8
SK3
  6
SLD-Dashed
370
    18
100
AcDbLine
 10
-62.6204640132
 20
6.74624
 30
0.0
 11
-63.48
 21
8.235
 31
0.0
  0
LINE
  5
18D
330
1F
100
AcDbEntity
  8
SK3
  6
SLD-Dashed
370
    18
100
AcDbLine
 10
-62.6204640132
 20
-6.74624
 30
0.0
 11
26.75
 21
-6.74624
 31
0.0
  0
LINE
  5
18E
330
1F
100
AcDbEntity
  8
SK3
  6
SLD-Dashed
370
    18
100
AcDbLine
 10
26.75
 20
6.74624
 30
0.0
 11
-62.6204640132
 21
6.74624
 31
0.0
  0
LINE
  5
18F
330
1F
100
AcDbEntity
  8
SK3
  6
SLD-Dashed
370
    18
100
AcDbLine
 10
6.1
 20
24.83
 30
0.0
 11
6.1
 21
20.43
 31
0.0
  0
LINE
  5
190
330
1F
100
AcDbEntity
  8
SK3
  6
SLD-Dashed
370
    18
100
AcDbLine
 10
16.1
 20
20.43
 30
0.0
 11
16.1
 21
24.83
 31
0.0
  0
LINE
  5
191
330
1F
100
AcDbEntity
  8
SK3
  6
SLD-Dashed
370
    18
100
AcDbLine
 10
4.0240130193
 20
6.9829144645
 30
0.0
 11
14.6475648711
 21
4.0405895043
 31
0.0
  0
LINE
  5
192
330
1F
100
AcDbEntity
  8
SK3
  6
SLD-Dashed
370
    18
100
AcDbLine
 10
15.6885307418
 20
7.7990985247
 30
0.0
 11
5.06497889
 21
10.7414234849
 31
0.0
  0
LINE
  5
193
330
1F
100
AcDbEntity
  8
SK3
  6
SLD-Solid
370
    18
100
AcDbLine
 10
-38.2499992847
 20
7.9375002533
 30
0.0
 11
-63.3082389832
 21
7.9375002533
 31
0.0
  0
LINE
  5
194
330
1F
100
AcDbEntity
  8
SK3
  6
SLD-Solid
370
    18
100
AcDbLine
 10
-63.3082389832
 20
-7.9375002533
 30
0.0
 11
-38.2499992847
 21
-7.9375002533
 31
0.0
  0
LINE
  5
195
330
1F
100
AcDbEntity
  8
SK3
  6
SLD-Solid
370
    18
100
AcDbLine
 10
-38.2499992847
 20
0.0
 30
0.0
 11
-38.2499992847
 21
-1.2416985119
 31
0.0
  0
LINE
  5
196
330
1F
100
AcDbEntity
  8
SK3
  6
SLD-Solid
370
    18
100
AcDbLine
 10
-38.2499992847
 20
-1.2416985119
 30
0.0
 11
-38.2499992847
 21
-2.4528224021
 31
0.0
  0
LINE
  5
197
330
1F
100
AcDbEntity
  8
SK3
  6
SLD-Solid
370
    18
100
AcDbLine
 10
-38.2499992847
 20
-2.4528224021
 30
0.0
 11
-38.2499992847
 21
-3.6035496742
 31
0.0
  0
LINE
  5
198
330
1F
100
AcDbEntity
  8
SK3
  6
SLD-Solid
370
    18
100
AcDbLine
 10
-38.2499992847
 20
-3.6035496742
 30
0.0
 11
-38.2499992847
 21
-4.6655456536
 31
0.0
  0
LINE
  5
199
330
1F
100
AcDbEntity
  8
SK3
  6
SLD-Solid
370
    18
100
AcDbLine
 10
-38.2499992847
 20
-4.6655456536
 30
0.0
 11
-38.2499992847
 21
-5.6126601994
 31
0.0
  0
LINE
  5
19A
330
1F
100
AcDbEntity
  8
SK3
  6
SLD-Solid
370
    18
100
AcDbLine
 10
-38.2499992847
 20
-5.6126601994
 30
0.0
 11
-38.2499992847
 21
-6.4215725288
 31
0.0
  0
LINE
  5
19B
330
1F
100
AcDbEntity
  8
SK3
  6
SLD-Solid
370
    18
100
AcDbLine
 10
-38.2499992847
 20
-6.4215725288
 30
0.0
 11
-38.2499992847
 21
-7.0723644458
 31
0.0
  0
LINE
  5
19C
330
1F
100
AcDbEntity
  8
SK3
  6
SLD-Solid
370
    18
100
AcDbLine
 10
-38.2499992847
 20
-7.0723644458
 30
0.0
 11
-38.2499992847
 21
-7.5490111485
 31
0.0
  0
LINE
  5
19D
330
1F
100
AcDbEntity
  8
SK3
  6
SLD-Solid
370
    18
100
AcDbLine
 10
-38.2499992847
 20
-7.5490111485
 30
0.0
 11
-38.2499992847
 21
-7.8397765756
 31
0.0
  0
LINE
  5
19E
330
1F
100
AcDbEntity
  8
SK3
  6
SLD-Solid
370
    18
100
AcDbLine
 10
-38.2499992847
 20
-7.8397765756
 30
0.0
 11
-38.2499992847
 21
-7.9375002533
 31
0.0
  0
LINE
  5
19F
330
1F
100
AcDbEntity
  8
SK3
  6
SLD-Solid
370
    18
100
AcDbLine
 10
-38.2499992847
 20
7.9375002533
 30
0.0
 11
-38.2499992847
 21
7.8397765756
 31
0.0
  0
LINE
  5
1A0
330
1F
100
AcDbEntity
  8
SK3
  6
SLD-Solid
370
    18
100
AcDbLine
 10
-38.2499992847
 20
7.8397765756
 30
0.0
 11
-38.2499992847
 21
7.5490111485
 31
0.0
  0
LINE
  5
1A1
330
1F
100
AcDbEntity
  8
SK3
  6
SLD-Solid
370
    18
100
AcDbLine
 10
-38.2499992847
 20
7.5490111485
 30
0.0
 11
-38.2499992847
 21
7.0723644458
 31
0.0
  0
LINE
  5
1A2
330
1F
100
AcDbEntity
  8
SK3
  6
SLD-Solid
370
    18
100
AcDbLine
 10
-38.2499992847
 20
7.0723644458
 30
0.0
 11
-38.2499992847
 21
6.4215725288
 31
0.0
  0
LINE
  5
1A3
330
1F
100
AcDbEntity
  8
SK3
  6
SLD-Solid
370
    18
100
AcDbLine
 10
-38.2499992847
 20
6.4215725288
 30
0.0
 11
-38.2499992847
 21
5.6126601994
 31
0.0
  0
LINE
  5
1A4
330
1F
100
AcDbEntity
  8
SK3
  6
SLD-Solid
370
    18
100
AcDbLine
 10
-38.2499992847
 20
5.6126601994
 30
0.0
 11
-38.2499992847
 21
4.6655456536
 31
0.0
  0
LINE
  5
1A5
330
1F
100
AcDbEntity
  8
SK3
  6
SLD-Solid
370
    18
100
AcDbLine
 10
-38.2499992847
 20
4.6655456536
 30
0.0
 11
-38.2499992847
 21
3.6035496742
 31
0.0
  0
LINE
  5
1A6
330
1F
100
AcDbEntity
  8
SK3
  6
SLD-Solid
370
    18
100
AcDbLine
 10
-38.2499992847
 20
3.6035496742
 30
0.0
 11
-38.2499992847
 21
2.4528224021
 31
0.0
  0
LINE
  5
1A7
330
1F
100
AcDbEntity
  8
SK3
  6
SLD-Solid
370
    18
100
AcDbLine
 10
-38.2499992847
 20
2.4528224021
 30
0.0
 11
-38.2499992847
 21
1.2416985119
 31
0.0
  0
LINE
  5
1A8
330
1F
100
AcDbEntity
  8
SK3
  6
SLD-Solid
370
    18
100
AcDbLine
 10
-38.2499992847
 20
1.2416985119
 30
0.0
 11
-38.2499992847
 21
0.0
 31
0.0
  0
LINE
  5
1A9
330
1F
100
AcDbEntity
  8
SK3
  6
SLD-Solid
370
    18
100
AcDbLine
 10
82.5499966741
 20
12.4935908243
 30
0.0
 11
82.5499966741
 21
23.2999995351
 31
0.0
  0
LINE
  5
1AA
330
1F
100
AcDbEntity
  8
SK3
  6
SLD-Solid
370
    18
100
AcDbLine
 10
63.5000020266
 20
23.2999995351
 30
0.0
 11
63.5000020266
 21
12.4935908243
 31
0.0
  0
LINE
  5
1AB
330
1F
100
AcDbEntity
  8
SK3
  6
SLD-Solid
370
    18
100
AcDbLine
 10
82.541577518
 20
12.4935908243
 30
0.0
 11
82.5490728021
 21
12.4992933124
 31
0.0
  0
LINE
  5
1AC
330
1F
100
AcDbEntity
  8
SK3
  6
SLD-Solid
370
    18
100
AcDbLine
 10
57.5499981642
 20
12.4935908243
 30
0.0
 11
57.5499981642
 21
23.2999995351
 31
0.0
  0
LINE
  5
1AD
330
1F
100
AcDbEntity
  8
SK3
  6
SLD-Solid
370
    18
100
AcDbLine
 10
38.4999997914
 20
23.2999995351
 30
0.0
 11
38.4999997914
 21
12.4935908243
 31
0.0
  0
LINE
  5
1AE
330
1F
100
AcDbEntity
  8
SK3
  6
SLD-Solid
370
    18
100
AcDbLine
 10
57.5415752828
 20
12.4935908243
 30
0.0
 11
57.5490742922
 21
12.4992933124
 31
0.0
  0
LINE
  5
1AF
330
1F
100
AcDbEntity
  8
4
  6
SLD-Center
370
    18
100
AcDbLine
 10
103.6
 20
0.0
 30
0.0
 11
-0.5426472182
 21
0.0
 31
0.0
  0
LINE
  5
1B0
330
1F
100
AcDbEntity
  8
4
  6
SLD-Center
370
    18
100
AcDbLine
 10
48.025
 20
10.5
 30
0.0
 11
48.025
 21
25.3
 31
0.0
  0
LINE
  5
1B1
330
1F
100
AcDbEntity
  8
4
  6
SLD-Center
370
    18
100
AcDbLine
 10
73.025
 20
10.5
 30
0.0
 11
73.025
 21
25.3
 31
0.0
  0
LINE
  5
1B2
330
1F
100
AcDbEntity
  8
SK4
  6
SLD-Center
370
    18
100
AcDbLine
 10
-69.1376006954
 20
0.0
 30
0.0
 11
100.562399066
 21
0.0
 31
0.0
  0
LINE
  5
1B3
330
1F
100
AcDbEntity
  8
81
370
    18
100
AcDbLine
 10
101.6
 20
0.0
 30
0.0
 11
105.1355339059
 21
3.5355339059
 31
0.0
  0
LINE
  5
1B4
330
1F
100
AcDbEntity
  8
81
370
    18
100
AcDbLine
 10
101.6
 20
0.0
 30
0.0
 11
98.0644660941
 21
-3.5355339059
 31
0.0
  0
LINE
  5
1B5
330
1F
100
AcDbEntity
  8
81
370
    18
100
AcDbLine
 10
101.6
 20
0.0
 30
0.0
 11
98.0644660941
 21
3.5355339059
 31
0.0
  0
LINE
  5
1B6
330
1F
100
AcDbEntity
  8
81
100
AcDbLine
 10
101.6
 20
0.0
 30
0.0
 11
111.6
 21
0.0
 31
0.0
  0
LINE
  5
1B7
330
1F
100
AcDbEntity
  8
81
370
    18
100
AcDbLine
 10
101.6
 20
0.0
 30
0.0
 11
105.1355339059
 21
-3.5355339059
 31
0.0
  0
LINE
  5
1B8
330
1F
100
AcDbEntity
  8
80
370
    18
100
AcDbLine
 10
0.0
 20
0.0
 30
0.0
 11
-3.5355339059
 21
-3.5355339059
 31
0.0
  0
LINE
  5
1B9
330
1F
100
AcDbEntity
  8
80
370
    18
100
AcDbLine
 10
0.0
 20
0.0
 30
0.0
 11
3.5355339059
 21
3.5355339059
 31
0.0
  0
LINE
  5
1BA
330
1F
100
AcDbEntity
  8
80
370
    18
100
AcDbLine
 10
0.0
 20
0.0
 30
0.0
 11
-3.5355339059
 21
3.5355339059
 31
0.0
  0
LINE
  5
1BB
330
1F
100
AcDbEntity
  8
80
370
    18
100
AcDbLine
 10
0.0
 20
0.0
 30
0.0
 11
-10.0
 21
0.0
 31
0.0
  0
LINE
  5
1BC
330
1F
100
AcDbEntity
  8
80
370
    18
100
AcDbLine
 10
0.0
 20
0.0
 30
0.0
 11
3.5355339059
 21
-3.5355339059
 31
0.0
  0
ARC
  5
1BD
330
1F
100
AcDbEntity
  8
1
  6
SLD-Solid
370
    25
100
AcDbCircle
 10
19.812
 20
-22.987
 30
0.0
 40
0.7620000000000068
100
AcDbArc
 50
90.0
 51
130.8156640808
  0
ARC
  5
1BE
330
1F
100
AcDbEntity
  8
1
  6
SLD-Solid
370
    25
100
AcDbCircle
 10
19.812
 20
22.987
 30
0.0
 40
0.7620000000000005
100
AcDbArc
 50
180.0
 51
270.0
  0
ARC
  5
1BF
330
1F
100
AcDbEntity
  8
1
  6
SLD-Solid
370
    25
100
AcDbCircle
 10
2.45
 20
22.79
 30
0.0
 40
0.7500000000000043
100
AcDbArc
 50
245.0
 51
0.0
  0
ARC
  5
1C0
330
1F
100
AcDbEntity
  8
1
  6
SLD-Solid
370
    25
100
AcDbCircle
 10
2.45
 20
-22.79
 30
0.0
 40
0.7500000000000137
100
AcDbArc
 50
30.4400371691
 51
115.0
  0
ARC
  5
1C1
330
1F
100
AcDbEntity
  8
SK1
  6
SLD-Solid
370
    25
100
AcDbCircle
 10
-66.95
 20
11.1476148288
 30
0.0
 40
1.299999999999997
100
AcDbArc
 50
98.2972222222
 51
180.0
  0
ARC
  5
1C2
330
1F
100
AcDbEntity
  8
SK1
  6
SLD-Solid
370
    25
100
AcDbCircle
 10
-66.95
 20
-11.1476148288
 30
0.0
 40
1.299999999999999
100
AcDbArc
 50
180.0
 51
261.7027777778
  0
ARC
  5
1C3
330
1F
100
AcDbEntity
  8
1
370
    18
100
AcDbCircle
 10
73.025
 20
48.5219127639
 30
0.0
 40
25.24160206603454
100
AcDbArc
 50
246.3515667262
 51
293.6484332738
  0
ARC
  5
1C4
330
1F
100
AcDbEntity
  8
1
370
    18
100
AcDbCircle
 10
54.1855576897
 20
-54.7142276329
 30
0.0
 40
31.30885468018551
100
AcDbArc
 50
69.4378758589
 51
110.5621241411
  0
ARC
  5
1C5
330
1F
100
AcDbEntity
  8
1
370
    18
100
AcDbCircle
 10
79.5915455567
 20
-55.2700556444
 30
0.0
 40
31.83496148501761
100
AcDbArc
 50
69.764411765
 51
110.219318961
  0
ARC
  5
1C6
330
1F
100
AcDbEntity
  8
1
370
    18
100
AcDbCircle
 10
34.8215722595
 20
43.8843207394
 30
0.0
 40
20.24649481887133
100
AcDbArc
 50
278.7643976016
 51
286.4332314966
  0
CIRCLE
  5
1C7
330
1F
100
AcDbEntity
  8
81
370
    18
100
AcDbCircle
 10
101.6
 20
0.0
 30
0.0
 40
2.499999999999984
  0
CIRCLE
  5
1C8
330
1F
100
AcDbEntity
  8
80
370
    18
100
AcDbCircle
 10
0.0
 20
0.0
 30
0.0
 40
2.500000000000009
  0
SPLINE
  5
1C9
330
1F
100
AcDbEntity
  8
1
  6
SLD-Solid
370
    25
100
AcDbSpline
210
0.0
220
0.0
230
1.0
 70
     8
 71
     3
 72
    18
 73
    14
 74
     0
 42
0.000000001
 43
0.00000001
 40
0.0
 40
0.0
 40
0.0
 40
0.0
 40
0.0627054734815585
 40
0.1258180026435944
 40
0.1893518955758989
 40
0.2533210967871997
 40
0.3760223802380994
 40
0.5042027350874037
 40
0.6287442443905509
 40
0.7524970007335178
 40
0.8762904256225891
 40
0.9301814553533038
 40
1.0
 40
1.0
 40
1.0
 40
1.0
 10
18.3
 20
-30.55788999666614
 30
0.0
 10
18.32475189251026
 20
-30.55717815032797
 30
0.0
 10
18.37441635566442
 20
-30.55574983666592
 30
0.0
 10
18.44840700700192
 20
-30.54418621918458
 30
0.0
 10
18.5213792831172
 20
-30.52568315689516
 30
0.0
 10
18.61414871610721
 20
-30.49172081055997
 30
0.0
 10
18.72382631062686
 20
-30.4320633120142
 30
0.0
 10
18.83789060104973
 20
-30.33670781031285
 30
0.0
 10
18.93096567570619
 20
-30.22063090164698
 30
0.0
 10
18.99906840635737
 20
-30.09053486574009
 30
0.0
 10
19.03266226172082
 20
-29.97656054635134
 30
0.0
 10
19.04765434845162
 20
-29.88065972774423
 30
0.0
 10
19.0491537665008
 20
-29.83220301390154
 30
0.0
 10
19.05000000000001
 20
-29.80485527419841
 30
0.0
  0
SPLINE
  5
1CA
330
1F
100
AcDbEntity
  8
1
  6
SLD-Solid
370
    25
100
AcDbSpline
210
0.0
220
0.0
230
1.0
 70
     8
 71
     3
 72
    16
 73
    12
 74
     0
 42
0.000000001
 43
0.00000001
 40
0.0
 40
0.0
 40
0.0
 40
0.0
 40
0.069814031064149
 40
0.1237498965154266
 40
0.2475836018648968
 40
0.371376536255524
 40
0.4959583438678432
 40
0.62413948620796
 40
0.7469207609697971
 40
0.8742805094910139
 40
1.0
 40
1.0
 40
1.0
 40
1.0
 10
19.05000000000001
 20
29.80486644841628
 30
0.0
 10
19.04915437967802
 20
29.83220375694687
 30
0.0
 10
19.04765546283078
 20
29.88066090875586
 30
0.0
 10
19.03266526234904
 20
29.97656337346558
 30
0.0
 10
18.99906876123936
 20
30.09054703967058
 30
0.0
 10
18.9309643939984
 20
30.22065301278143
 30
0.0
 10
18.83790550330878
 20
30.3366860902548
 30
0.0
 10
18.72382127964479
 20
30.43216876423576
 30
0.0
 10
18.59216376019319
 20
30.50338604964252
 30
0.0
 10
18.44966044222824
 20
30.54924901227125
 30
0.0
 10
18.34967079633339
 20
30.55503461089692
 30
0.0
 10
18.29999999999999
 20
30.55790866138914
 30
0.0
  0
SPLINE
  5
1CB
330
1F
100
AcDbEntity
  8
1
  6
SLD-Solid
370
    25
100
AcDbSpline
210
0.0
220
0.0
230
1.0
 70
     8
 71
     3
 72
    16
 73
    12
 74
     0
 42
0.000000001
 43
0.00000001
 40
0.0
 40
0.0
 40
0.0
 40
0.0
 40
0.0695972585631702
 40
0.1233277320974721
 40
0.247039555460377
 40
0.370625409937532
 40
0.4955039070586293
 40
0.6236892810562452
 40
0.7463896350927952
 40
0.874029172385884
 40
1.0
 40
1.0
 40
1.0
 40
1.0
 10
3.200000000000008
 20
-29.8048664484163
 30
0.0
 10
3.200840331068343
 20
-29.83211874374154
 30
0.0
 10
3.20232941450365
 20
-29.88041035531209
 30
0.0
 10
3.217237155250602
 20
-29.97610817340509
 30
0.0
 10
3.250688715768044
 20
-30.08991350869663
 30
0.0
 10
3.318652551688034
 20
-30.22007249881838
 30
0.0
 10
3.411627067179682
 20
-30.33622596976966
 30
0.0
 10
3.525709306310212
 20
-30.43184457715035
 30
0.0
 10
3.657379123027622
 20
-30.50320141671881
 30
0.0
 10
3.800029806285382
 20
-30.54921347619224
 30
0.0
 10
3.900229701070793
 20
-30.55502300820854
 30
0.0
 10
3.949999999999922
 20
-30.55790866138917
 30
0.0
  0
SPLINE
  5
1CC
330
1F
100
AcDbEntity
  8
1
  6
SLD-Solid
370
    25
100
AcDbSpline
210
0.0
220
0.0
230
1.0
 70
     8
 71
     3
 72
    18
 73
    14
 74
     0
 42
0.000000001
 43
0.00000001
 40
0.0
 40
0.0
 40
0.0
 40
0.0
 40
0.0628280480421825
 40
0.1260701253970792
 40
0.1897406253785904
 40
0.2538535710757105
 40
0.3764737521324676
 40
0.5046580328934662
 40
0.6294958758641306
 40
0.7530413720168776
 40
0.8767127000651272
 40
0.9303985995609487
 40
1.0
 40
1.0
 40
1.0
 40
1.0
 10
3.949999999999965
 20
30.55788999666609
 30
0.0
 10
3.925199676033262
 20
30.55717534525742
 30
0.0
 10
3.875435596934756
 20
30.55574133297283
 30
0.0
 10
3.801295881396251
 20
30.54413094373268
 30
0.0
 10
3.728175768565589
 20
30.52555103963992
 30
0.0
 10
3.63535674573521
 20
30.49149389245028
 30
0.0
 10
3.525704227685359
 20
30.43173903699991
 30
0.0
 10
3.411641971522904
 20
30.33624779546199
 30
0.0
 10
3.318651270434227
 20
30.22005039304356
 30
0.0
 10
3.250689072054548
 20
30.08990134371377
 30
0.0
 10
3.217240115096254
 20
29.97610524198124
 30
0.0
 10
3.202330512999709
 20
29.88040905934516
 30
0.0
 10
3.200840935566545
 20
29.83211788338437
 30
0.0
 10
3.200000000000008
 20
29.80485527419838
 30
0.0
  0
SPLINE
  5
1CD
330
1F
100
AcDbEntity
  8
1
  6
SLD-Solid
370
    25
100
AcDbSpline
210
0.0
220
0.0
230
1.0
 70
     8
 71
     3
 72
     8
 73
     4
 74
     0
 42
0.000000001
 43
0.00000001
 40
0.0
 40
0.0
 40
0.0
 40
0.0
 40
1.0
 40
1.0
 40
1.0
 40
1.0
 10
13.03000000000001
 20
27.80504563417289
 30
0.0
 10
13.47759651810106
 20
28.61249255653032
 30
0.0
 10
13.92634937951635
 20
29.41929290832668
 30
0.0
 10
14.37601294652262
 20
30.2255814201264
 30
0.0
  0
SPLINE
  5
1CE
330
1F
100
AcDbEntity
  8
1
  6
SLD-Solid
370
    25
100
AcDbSpline
210
0.0
220
0.0
230
1.0
 70
     8
 71
     3
 72
     8
 73
     4
 74
     0
 42
0.000000001
 43
0.00000001
 40
0.0
 40
0.0
 40
0.0
 40
0.0
 40
0.0006742907251946
 40
0.0006742907251946
 40
0.0006742907251946
 40
0.0006742907251946
 10
14.6411263545568
 20
30.55790866138913
 30
0.0
 10
14.55231121915221
 20
30.44723498609877
 30
0.0
 10
14.46393231327363
 20
30.33646040447047
 30
0.0
 10
14.37601294652262
 20
30.2255814201264
 30
0.0
  0
SPLINE
  5
1CF
330
1F
100
AcDbEntity
  8
1
  6
SLD-Solid
370
    25
100
AcDbSpline
210
0.0
220
0.0
230
1.0
 70
     8
 71
     3
 72
     8
 73
     4
 74
     0
 42
0.000000001
 43
0.00000001
 40
0.0
 40
0.0
 40
0.0
 40
0.0
 40
0.0006744126776058
 40
0.0006744126776058
 40
0.0006744126776058
 40
0.0006744126776058
 10
14.37595046659275
 20
-30.22546938779916
 30
0.0
 10
14.46389058426686
 20
-30.33637953005828
 30
0.0
 10
14.55229031970068
 20
-30.44718523342132
 30
0.0
 10
14.64112635455681
 20
-30.55788999666614
 30
0.0
  0
SPLINE
  5
1D0
330
1F
100
AcDbEntity
  8
1
  6
SLD-Solid
370
    25
100
AcDbSpline
210
0.0
220
0.0
230
1.0
 70
     8
 71
     3
 72
     8
 73
     4
 74
     0
 42
0.000000001
 43
0.00000001
 40
0.0
 40
0.0
 40
0.0
 40
0.0
 40
1.0
 40
1.0
 40
1.0
 40
1.0
 10
13.03000000000003
 20
-27.8050456341729
 30
0.0
 10
13.4775666286443
 20
-28.61243863709861
 30
0.0
 10
13.9262989085975
 20
-29.41920220926158
 30
0.0
 10
14.37595046659275
 20
-30.22546938779916
 30
0.0
  0
SPLINE
  5
1D1
330
1F
100
AcDbEntity
  8
1
  6
SLD-Solid
370
    25
100
AcDbSpline
210
0.0
220
0.0
230
1.0
 70
     8
 71
     3
 72
    14
 73
    10
 74
     0
 42
0.000000001
 43
0.00000001
 40
0.0
 40
0.0
 40
0.0
 40
0.0
 40
0.25
 40
0.25
 40
0.5
 40
0.5
 40
0.75
 40
0.75
 40
1.0
 40
1.0
 40
1.0
 40
1.0
 10
13.02999999999998
 20
25.81171788356632
 30
0.0
 10
13.05182784069892
 20
25.80868166763941
 30
0.0
 10
13.06930451588746
 20
25.79706282581694
 30
0.0
 10
13.09355241467165
 20
25.75265705035272
 30
0.0
 10
13.09996413738389
 20
25.71975400624288
 30
0.0
 10
13.10003555457989
 20
25.63443445773251
 30
0.0
 10
13.09360869858516
 20
25.58073121692833
 30
0.0
 10
13.06953031995431
 20
25.4597665160328
 30
0.0
 10
13.05190366619465
 20
25.39187340765439
 30
0.0
 10
13.03000000000003
 20
25.31924243797494
 30
0.0
  0
SPLINE
  5
1D2
330
1F
100
AcDbEntity
  8
1
  6
SLD-Solid
370
    25
100
AcDbSpline
210
0.0
220
0.0
230
1.0
 70
     8
 71
     3
 72
     8
 73
     4
 74
     0
 42
0.000000001
 43
0.00000001
 40
0.0
 40
0.0
 40
0.0
 40
0.0
 40
1.0
 40
1.0
 40
1.0
 40
1.0
 10
7.853987053480712
 20
-30.22558142012453
 30
0.0
 10
8.303659523847873
 20
-29.41927694377236
 30
0.0
 10
8.752412641283804
 20
-28.61247603335599
 30
0.0
 10
9.200000000000014
 20
-27.80504563417697
 30
0.0
  0
SPLINE
  5
1D3
330
1F
100
AcDbEntity
  8
1
  6
SLD-Solid
370
    25
100
AcDbSpline
210
0.0
220
0.0
230
1.0
 70
     8
 71
     3
 72
     8
 73
     4
 74
     0
 42
0.000000001
 43
0.00000001
 40
0.0
 40
0.0
 40
0.0
 40
0.0
 40
0.0006742907251988
 40
0.0006742907251988
 40
0.0006742907251988
 40
0.0006742907251988
 10
7.588873645443157
 20
-30.55790866138917
 30
0.0
 10
7.677688780848868
 20
-30.44723498609818
 30
0.0
 10
7.766067686728568
 20
-30.33646040446926
 30
0.0
 10
7.853987053480697
 20
-30.22558142012455
 30
0.0
  0
SPLINE
  5
1D4
330
1F
100
AcDbEntity
  8
1
  6
SLD-Solid
370
    25
100
AcDbSpline
210
0.0
220
0.0
230
1.0
 70
     8
 71
     3
 72
     8
 73
     4
 74
     0
 42
0.000000001
 43
0.00000001
 40
0.0
 40
0.0
 40
0.0
 40
0.0
 40
0.0006744126776058
 40
0.0006744126776058
 40
0.0006744126776058
 40
0.0006744126776058
 10
7.854049533407433
 20
30.22546938779933
 30
0.0
 10
7.766109415733271
 20
30.33637953005841
 30
0.0
 10
7.677709680299377
 20
30.44718523342139
 30
0.0
 10
7.588873645443156
 20
30.55788999666616
 30
0.0
  0
SPLINE
  5
1D5
330
1F
100
AcDbEntity
  8
1
  6
SLD-Solid
370
    25
100
AcDbSpline
210
0.0
220
0.0
230
1.0
 70
     8
 71
     3
 72
     8
 73
     4
 74
     0
 42
0.000000001
 43
0.00000001
 40
0.0
 40
0.0
 40
0.0
 40
0.0
 40
1.0
 40
1.0
 40
1.0
 40
1.0
 10
7.854049533407431
 20
30.22546938779933
 30
0.0
 10
8.303692188804854
 20
29.41921817244979
 30
0.0
 10
8.752424212806668
 20
28.61245515876946
 30
0.0
 10
9.199999999999962
 20
27.80504563417298
 30
0.0
  0
SPLINE
  5
1D6
330
1F
100
AcDbEntity
  8
1
  6
SLD-Solid
370
    25
100
AcDbSpline
210
0.0
220
0.0
230
1.0
 70
     8
 71
     3
 72
    14
 73
    10
 74
     0
 42
0.000000001
 43
0.00000001
 40
0.0
 40
0.0
 40
0.0
 40
0.0
 40
0.25
 40
0.25
 40
0.5
 40
0.5
 40
0.75
 40
0.75
 40
1.0
 40
1.0
 40
1.0
 40
1.0
 10
9.2
 20
25.27054331738514
 30
0.0
 10
9.169610391133066
 20
25.36219671402941
 30
0.0
 10
9.144652419510347
 20
25.44797517411533
 30
0.0
 10
9.109411114929966
 20
25.60359055831194
 30
0.0
 10
9.100075894725194
 20
25.6695944020468
 30
0.0
 10
9.099925023949893
 20
25.77434199055111
 30
0.0
 10
9.10937591476886
 20
25.81145009587524
 30
0.0
 10
9.144272722663795
 20
25.85500935243891
 30
0.0
 10
9.169555752624163
 20
25.86176202446126
 30
0.0
 10
9.199999999999964
 20
25.85691311136566
 30
0.0
  0
SPLINE
  5
1D7
330
1F
100
AcDbEntity
  8
1
  6
SLD-Solid
370
    25
100
AcDbSpline
210
0.0
220
0.0
230
1.0
 70
     8
 71
     3
 72
    12
 73
     8
 74
     0
 42
0.000000001
 43
0.00000001
 40
0.0
 40
0.0
 40
0.0
 40
0.0
 40
0.2499999999999984
 40
0.2499999999999984
 40
0.4999999999999969
 40
0.4999999999999969
 40
1.0
 40
1.0
 40
1.0
 40
1.0
 10
12.28000000000003
 20
-26.98706356756882
 30
0.0
 10
12.37975762515878
 20
-26.98706356756883
 30
0.0
 10
12.48041217798164
 20
-27.00843624414832
 30
0.0
 10
12.66352022573503
 20
-27.0892138443703
 30
0.0
 10
12.74662210573628
 20
-27.14844080533418
 30
0.0
 10
12.95377706693951
 20
-27.3689835197036
 30
0.0
 10
13.03
 20
-27.5690278551815
 30
0.0
 10
13.03000000000003
 20
-27.7691663540697
 30
0.0
  0
SPLINE
  5
1D8
330
1F
100
AcDbEntity
  8
1
  6
SLD-Solid
370
    25
100
AcDbSpline
210
0.0
220
0.0
230
1.0
 70
     8
 71
     3
 72
    18
 73
    14
 74
     0
 42
0.000000001
 43
0.00000001
 40
0.0
 40
0.0
 40
0.0
 40
0.0
 40
0.0624999999999983
 40
0.0624999999999983
 40
0.1249999999999966
 40
0.1249999999999966
 40
0.2499999999999938
 40
0.2499999999999938
 40
0.4999999999999959
 40
0.4999999999999959
 40
0.7499999999999979
 40
0.7499999999999979
 40
1.0
 40
1.0
 40
1.0
 40
1.0
 10
13.03000000000254
 20
25.28882228478154
 30
0.0
 10
13.0300000000025
 20
25.258454228703
 30
0.0
 10
13.02749489038358
 20
25.22358442434114
 30
0.0
 10
13.01920268672436
 20
25.15482296737405
 30
0.0
 10
13.01359186101131
 20
25.12104898565184
 30
0.0
 10
12.99361738711297
 20
25.02074756626913
 30
0.0
 10
12.97668865169409
 20
24.95779435947983
 30
0.0
 10
12.91737158574347
 20
24.77496256517839
 30
0.0
 10
12.86564177104071
 20
24.66011878167465
 30
0.0
 10
12.74049543384786
 20
24.45045700081739
 30
0.0
 10
12.66639130892248
 20
24.35409856583147
 30
0.0
 10
12.49025684706108
 20
24.18769951882085
 30
0.0
 10
12.39180028213167
 20
24.12054595344127
 30
0.0
 10
12.28000000000129
 20
24.07805063523513
 30
0.0
  0
SPLINE
  5
1D9
330
1F
100
AcDbEntity
  8
1
  6
SLD-Solid
370
    25
100
AcDbSpline
210
0.0
220
0.0
230
1.0
 70
     8
 71
     3
 72
    14
 73
    10
 74
     0
 42
0.000000001
 43
0.00000001
 40
0.0
 40
0.0
 40
0.0
 40
0.0
 40
0.25
 40
0.25
 40
0.5
 40
0.5
 40
0.75
 40
0.75
 40
1.0
 40
1.0
 40
1.0
 40
1.0
 10
9.200000000000014
 20
-27.76916635406976
 30
0.0
 10
9.200000000000014
 20
-27.66854183645166
 30
0.0
 10
9.218753722673597
 20
-27.56842327754112
 30
0.0
 10
9.291517535812325
 20
-27.38167264562871
 30
0.0
 10
9.345885298656015
 20
-27.29482655372887
 30
0.0
 10
9.4827134536752
 20
-27.14914073715223
 30
0.0
 10
9.566479996683725
 20
-27.08925426891757
 30
0.0
 10
9.74908978763267
 20
-27.00861553825999
 30
0.0
 10
9.849941180320524
 20
-26.98706356756863
 30
0.0
 10
9.950000000001264
 20
-26.98706356756881
 30
0.0
  0
SPLINE
  5
1DA
330
1F
100
AcDbEntity
  8
1
  6
SLD-Solid
370
    25
100
AcDbSpline
210
0.0
220
0.0
230
1.0
 70
     8
 71
     3
 72
    16
 73
    12
 74
     0
 42
0.000000001
 43
0.00000001
 40
0.0
 40
0.0
 40
0.0
 40
0.0
 40
0.2500000000000015
 40
0.2500000000000015
 40
0.500000000000003
 40
0.500000000000003
 40
0.7500000000000044
 40
0.7500000000000044
 40
0.8750000000000022
 40
0.8750000000000022
 40
1.0
 40
1.0
 40
1.0
 40
1.0
 10
9.950000000001264
 20
24.06685975304418
 30
0.0
 10
9.840493351282374
 20
24.10694414130941
 30
0.0
 10
9.742786160773534
 20
24.1711763133815
 30
0.0
 10
9.567840382590893
 20
24.33096083631498
 30
0.0
 10
9.493988254028801
 20
24.42340952890789
 30
0.0
 10
9.367115049351433
 20
24.62793394074544
 30
0.0
 10
9.314523965070599
 20
24.73961559875925
 30
0.0
 10
9.253446937620327
 20
24.91971397324698
 30
0.0
 10
9.235893303125303
 20
24.98231479864299
 30
0.0
 10
9.209102989074466
 20
25.11253703191922
 30
0.0
 10
9.20000000000213
 20
25.18114365477822
 30
0.0
 10
9.200000000002174
 20
25.24012107693904
 30
0.0
  0
SPLINE
  5
1DB
330
1F
100
AcDbEntity
  8
1
  6
SLD-Solid
370
    25
100
AcDbSpline
210
0.0
220
0.0
230
1.0
 70
     8
 71
     3
 72
    12
 73
     8
 74
     0
 42
0.000000001
 43
0.00000001
 40
0.0
 40
0.0
 40
0.0
 40
0.0
 40
0.25
 40
0.25
 40
0.5
 40
0.5
 40
1.0
 40
1.0
 40
1.0
 40
1.0
 10
12.28000000000129
 20
24.07805063523513
 30
0.0
 10
12.11125565653913
 20
24.01391086354317
 30
0.0
 10
11.9280176059474
 20
23.96418277266337
 30
0.0
 10
11.53284005751321
 20
23.8947362563304
 30
0.0
 10
11.32774190386637
 20
23.87652150272347
 30
0.0
 10
10.70517895587219
 20
23.87317080568477
 30
0.0
 10
10.29199014189999
 20
23.941675887123
 30
0.0
 10
9.950000000001264
 20
24.06685975304418
 30
0.0
  0
SPLINE
  5
1DC
330
1F
100
AcDbEntity
  8
1
  6
SLD-Solid
370
    25
100
AcDbSpline
210
0.0
220
0.0
230
1.0
 70
     8
 71
     3
 72
     8
 73
     4
 74
     0
 42
0.000000001
 43
0.00000001
 40
0.0
 40
0.0
 40
0.0
 40
0.0
 40
0.1249999999999981
 40
0.1249999999999981
 40
0.1249999999999981
 40
0.1249999999999981
 10
48.52060569004095
 20
23.29999999999999
 30
0.0
 10
49.17501871511284
 20
23.31391977763357
 30
0.0
 10
49.81366644488079
 20
23.35505215422441
 30
0.0
 10
50.4376648537141
 20
23.41933659812648
 30
0.0
  0
SPLINE
  5
1DD
330
1F
100
AcDbEntity
  8
1
  6
SLD-Solid
370
    25
100
AcDbSpline
210
0.0
220
0.0
230
1.0
 70
     8
 71
     3
 72
     8
 73
     4
 74
     0
 42
0.000000001
 43
0.00000001
 40
0.1249999999999981
 40
0.1249999999999981
 40
0.1249999999999981
 40
0.1249999999999981
 40
0.1874999999999979
 40
0.1874999999999979
 40
0.1874999999999979
 40
0.1874999999999979
 10
50.4376648537141
 20
23.41933659812648
 30
0.0
 10
50.74966405813076
 20
23.45147882007752
 30
0.0
 10
51.05797691220464
 20
23.48941022499633
 30
0.0
 10
51.36260439214436
 20
23.53261519845298
 30
0.0
  0
SPLINE
  5
1DE
330
1F
100
AcDbEntity
  8
1
  6
SLD-Solid
370
    25
100
AcDbSpline
210
0.0
220
0.0
230
1.0
 70
     8
 71
     3
 72
     8
 73
     4
 74
     0
 42
0.000000001
 43
0.00000001
 40
0.1874999999999979
 40
0.1874999999999979
 40
0.1874999999999979
 40
0.1874999999999979
 40
0.2499999999999976
 40
0.2499999999999976
 40
0.2499999999999976
 40
0.2499999999999976
 10
51.36260439214436
 20
23.53261519845298
 30
0.0
 10
51.66723187208409
 20
23.57582017190963
 30
0.0
 10
51.96856814334306
 20
23.62443613164251
 30
0.0
 10
52.25983471219027
 20
23.67653268617623
 30
0.0
  0
SPLINE
  5
1DF
330
1F
100
AcDbEntity
  8
1
  6
SLD-Solid
370
    25
100
AcDbSpline
210
0.0
220
0.0
230
1.0
 70
     8
 71
     3
 72
     8
 73
     4
 74
     0
 42
0.000000001
 43
0.00000001
 40
0.2499999999999976
 40
0.2499999999999976
 40
0.2499999999999976
 40
0.2499999999999976
 40
0.3749999999999972
 40
0.3749999999999972
 40
0.3749999999999972
 40
0.3749999999999972
 10
52.25983471219027
 20
23.67653268617623
 30
0.0
 10
52.84236784988506
 20
23.78072579524182
 30
0.0
 10
53.39165896794693
 20
23.89965118254895
 30
0.0
 10
53.9095029870571
 20
24.02648019174721
 30
0.0
  0
SPLINE
  5
1E0
330
1F
100
AcDbEntity
  8
1
  6
SLD-Solid
370
    25
100
AcDbSpline
210
0.0
220
0.0
230
1.0
 70
     8
 71
     3
 72
     8
 73
     4
 74
     0
 42
0.000000001
 43
0.00000001
 40
0.3749999999999972
 40
0.3749999999999972
 40
0.3749999999999972
 40
0.3749999999999972
 40
0.4374999999999971
 40
0.4374999999999971
 40
0.4374999999999971
 40
0.4374999999999971
 10
53.9095029870571
 20
24.02648019174721
 30
0.0
 10
54.16842499661153
 20
24.08989469634895
 30
0.0
 10
54.42053150113565
 20
24.1556077319365
 30
0.0
 10
54.66173948965385
 20
24.22169866160359
 30
0.0
  0
SPLINE
  5
1E1
330
1F
100
AcDbEntity
  8
1
  6
SLD-Solid
370
    25
100
AcDbSpline
210
0.0
220
0.0
230
1.0
 70
     8
 71
     3
 72
     8
 73
     4
 74
     0
 42
0.000000001
 43
0.00000001
 40
0.4374999999999971
 40
0.4374999999999971
 40
0.4374999999999971
 40
0.4374999999999971
 40
0.4999999999999969
 40
0.4999999999999969
 40
0.4999999999999969
 40
0.4999999999999969
 10
54.66173948965385
 20
24.22169866160359
 30
0.0
 10
54.90294747817268
 20
24.28778959126846
 30
0.0
 10
55.13259149239155
 20
24.35403013758588
 30
0.0
 10
55.35109826760861
 20
24.41958416571751
 30
0.0
  0
SPLINE
  5
1E2
330
1F
100
AcDbEntity
  8
1
  6
SLD-Solid
370
    25
100
AcDbSpline
210
0.0
220
0.0
230
1.0
 70
     8
 71
     3
 72
     8
 73
     4
 74
     0
 42
0.000000001
 43
0.00000001
 40
0.4999999999999969
 40
0.4999999999999969
 40
0.4999999999999969
 40
0.4999999999999969
 40
0.6249999999999978
 40
0.6249999999999978
 40
0.6249999999999978
 40
0.6249999999999978
 10
55.35109826760861
 20
24.41958416571751
 30
0.0
 10
55.78811181804232
 20
24.55069222198267
 30
0.0
 10
56.18091772019812
 20
24.67907301373123
 30
0.0
 10
56.52869075080137
 20
24.79832920551834
 30
0.0
  0
SPLINE
  5
1E3
330
1F
100
AcDbEntity
  8
1
  6
SLD-Solid
370
    25
100
AcDbSpline
210
0.0
220
0.0
230
1.0
 70
     8
 71
     3
 72
     8
 73
     4
 74
     0
 42
0.000000001
 43
0.00000001
 40
0.6249999999999978
 40
0.6249999999999978
 40
0.6249999999999978
 40
0.6249999999999978
 40
0.6874999999999983
 40
0.6874999999999983
 40
0.6874999999999983
 40
0.6874999999999983
 10
56.52869075080137
 20
24.79832920551834
 30
0.0
 10
56.7025772661031
 20
24.85795730141163
 30
0.0
 10
56.86485661725769
 20
24.91522716560723
 30
0.0
 10
57.01219215624826
 20
24.96825980827117
 30
0.0
  0
SPLINE
  5
1E4
330
1F
100
AcDbEntity
  8
1
  6
SLD-Solid
370
    25
100
AcDbSpline
210
0.0
220
0.0
230
1.0
 70
     8
 71
     3
 72
     8
 73
     4
 74
     0
 42
0.000000001
 43
0.00000001
 40
0.6874999999999983
 40
0.6874999999999983
 40
0.6874999999999983
 40
0.6874999999999983
 40
0.7499999999999988
 40
0.7499999999999988
 40
0.7499999999999988
 40
0.7499999999999988
 10
57.01219215624826
 20
24.96825980827117
 30
0.0
 10
57.15952769523894
 20
25.02129245093516
 30
0.0
 10
57.29292047663306
 20
25.07042926814312
 30
0.0
 10
57.41249886838998
 20
25.11512512419603
 30
0.0
  0
SPLINE
  5
1E5
330
1F
100
AcDbEntity
  8
1
  6
SLD-Solid
370
    25
100
AcDbSpline
210
0.0
220
0.0
230
1.0
 70
     8
 71
     3
 72
     8
 73
     4
 74
     0
 42
0.000000001
 43
0.00000001
 40
0.7499999999999988
 40
0.7499999999999988
 40
0.7499999999999988
 40
0.7499999999999988
 40
0.8749999999999994
 40
0.8749999999999994
 40
0.8749999999999994
 40
0.8749999999999994
 10
57.41249886838998
 20
25.11512512419603
 30
0.0
 10
57.65165565190383
 20
25.20451683630188
 30
0.0
 10
57.83611635797705
 20
25.2762550228719
 30
0.0
 10
57.96154842628804
 20
25.32546879384401
 30
0.0
  0
SPLINE
  5
1E6
330
1F
100
AcDbEntity
  8
1
  6
SLD-Solid
370
    25
100
AcDbSpline
210
0.0
220
0.0
230
1.0
 70
     8
 71
     2
 72
     6
 73
     3
 74
     0
 42
0.000000001
 43
0.00000001
 40
0.8749999999999994
 40
0.8749999999999994
 40
0.8749999999999994
 40
1.0
 40
1.0
 40
1.0
 10
57.96154842628804
 20
25.32546879384401
 30
0.0
 10
58.086980494599
 20
25.37468256481606
 30
0.0
 10
58.15000000000001
 20
25.39999999999992
 30
0.0
  0
SPLINE
  5
1E7
330
1F
100
AcDbEntity
  8
1
  6
SLD-Solid
370
    25
100
AcDbSpline
210
0.0
220
0.0
230
1.0
 70
     8
 71
     3
 72
    16
 73
    12
 74
     0
 42
0.000000001
 43
0.00000001
 40
0.0
 40
0.0
 40
0.0
 40
0.0
 40
0.2499999999999984
 40
0.2499999999999984
 40
0.3749999999999979
 40
0.3749999999999979
 40
0.4999999999999973
 40
0.4999999999999973
 40
0.7499999999999987
 40
0.7499999999999987
 40
1.0
 40
1.0
 40
1.0
 40
1.0
 10
40.54926131403116
 20
24.46489411178577
 30
0.0
 10
40.9939566235599
 20
24.32900854801741
 30
0.0
 10
41.47820567958692
 20
24.1919011110728
 30
0.0
 10
42.26335470302726
 20
23.99534806273205
 30
0.0
 10
42.53494598958964
 20
23.93134718876258
 30
0.0
 10
43.09876587857948
 20
23.80832769958696
 30
0.0
 10
43.3922578282415
 20
23.74912438081311
 30
0.0
 10
44.28591614159104
 20
23.58563245710385
 30
0.0
 10
44.90407024735159
 20
23.49420573958483
 30
0.0
 10
46.1870102173102
 20
23.35841833802638
 30
0.0
 10
46.85629298346064
 20
23.3143172895874
 30
0.0
 10
47.52939430995905
 20
23.29999999999999
 30
0.0
  0
SPLINE
  5
1E8
330
1F
100
AcDbEntity
  8
1
  6
SLD-Solid
370
    25
100
AcDbSpline
210
0.0
220
0.0
230
1.0
 70
    24
 71
     3
 72
    10
 73
     6
 74
     0
 42
0.000000001
 43
0.00000001
 40
0.0
 40
0.0
 40
0.0
 40
0.0
 40
0.0694006122689356
 40
0.5344418574374805
 40
1.0
 40
1.0
 40
1.0
 40
1.0
 10
19.18361753366884
 20
-22.41000000000001
 30
0.0
 10
19.1880080473512
 20
-22.41000000000001
 30
0.0
 10
19.22181861775947
 20
-22.41
 30
0.0
 10
19.29214604611697
 20
-22.41000000000002
 30
0.0
 10
19.30690556121256
 20
-22.41000000000001
 30
0.0
 10
19.31428941781468
 20
-22.41000000000001
 30
0.0
  0
SPLINE
  5
1E9
330
1F
100
AcDbEntity
  8
1
  6
SLD-Solid
370
    25
100
AcDbSpline
210
0.0
220
0.0
230
1.0
 70
     8
 71
     3
 72
    16
 73
    12
 74
     0
 42
0.000000001
 43
0.00000001
 40
0.0
 40
0.0
 40
0.0
 40
0.0
 40
0.125
 40
0.125
 40
0.25
 40
0.25
 40
0.5
 40
0.5
 40
0.75
 40
0.75
 40
1.0
 40
1.0
 40
1.0
 40
1.0
 10
9.199999999999962
 20
25.82649087091905
 30
0.0
 10
9.199999999999974
 20
25.76704453528218
 30
0.0
 10
9.209309779240174
 20
25.72460913603001
 30
0.0
 10
9.236285539089899
 20
25.66309575968363
 30
0.0
 10
9.25381839599403
 20
25.64221451078865
 30
0.0
 10
9.314732612350806
 20
25.59089236418538
 30
0.0
 10
9.367586350542418
 20
25.57162638804161
 30
0.0
 10
9.493923269647533
 20
25.54782523997986
 30
0.0
 10
9.568606186754721
 20
25.54380204926681
 30
0.0
 10
9.743190718990274
 20
25.55566084202215
 30
0.0
 10
9.84026049222724
 20
25.57101227172016
 30
0.0
 10
9.949999999999964
 20
25.603258790376
 30
0.0
  0
SPLINE
  5
1EA
330
1F
100
AcDbEntity
  8
1
  6
SLD-Solid
370
    25
100
AcDbSpline
210
0.0
220
0.0
230
1.0
 70
     8
 71
     3
 72
    12
 73
     8
 74
     0
 42
0.000000001
 43
0.00000001
 40
0.0
 40
0.0
 40
0.0
 40
0.0
 40
0.2499999999999994
 40
0.2499999999999994
 40
0.4999999999999989
 40
0.4999999999999989
 40
1.0
 40
1.0
 40
1.0
 40
1.0
 10
9.949999999999964
 20
25.603258790376
 30
0.0
 10
10.12099348269378
 20
25.65350454636332
 30
0.0
 10
10.30594493731542
 20
25.6908700749012
 30
0.0
 10
10.70348914958042
 20
25.74162454002533
 30
0.0
 10
10.90918343641378
 20
25.7539131306725
 30
0.0
 10
11.53176214943037
 20
25.75179790476194
 30
0.0
 10
11.94250893135796
 20
25.6975414000343
 30
0.0
 10
12.27999999999999
 20
25.59426208810602
 30
0.0
  0
SPLINE
  5
1EB
330
1F
100
AcDbEntity
  8
1
  6
SLD-Solid
370
    25
100
AcDbSpline
210
0.0
220
0.0
230
1.0
 70
     8
 71
     3
 72
    18
 73
    14
 74
     0
 42
0.000000001
 43
0.00000001
 40
0.0
 40
0.0
 40
0.0
 40
0.0
 40
0.2500000000000006
 40
0.2500000000000006
 40
0.5000000000000012
 40
0.5000000000000012
 40
0.7500000000000018
 40
0.7500000000000018
 40
0.8750000000000021
 40
0.8750000000000021
 40
0.9375000000000011
 40
0.9375000000000011
 40
1.0
 40
1.0
 40
1.0
 40
1.0
 10
12.27999999999999
 20
25.59426208810602
 30
0.0
 10
12.39154339480304
 20
25.56012748089477
 30
0.0
 10
12.49076613158664
 20
25.54318981789734
 30
0.0
 10
12.66653346245909
 20
25.52816909760165
 30
0.0
 10
12.74028542340611
 20
25.53041158029683
 30
0.0
 10
12.86605076853515
 20
25.54934151941308
 30
0.0
 10
12.91749996660359
 20
25.56531541934165
 30
0.0
 10
12.97688531868161
 20
25.60908469940349
 30
0.0
 10
12.99394905986486
 20
25.62703563897608
 30
0.0
 10
13.01360803438725
 20
25.66754728332326
 30
0.0
 10
13.01926149413281
 20
25.68358803034141
 30
0.0
 10
13.0275227585784
 20
25.72506394381623
 30
0.0
 10
13.02999999999998
 20
25.75103822857543
 30
0.0
 10
13.02999999999998
 20
25.78129773037289
 30
0.0
  0
SPLINE
  5
1EC
330
1F
100
AcDbEntity
  8
1
  6
SLD-Solid
370
    25
100
AcDbSpline
210
0.0
220
0.0
230
1.0
 70
     8
 71
     3
 72
    12
 73
     8
 74
     0
 42
0.000000001
 43
0.00000001
 40
0.0
 40
0.0
 40
0.0
 40
0.0
 40
0.2499999999999991
 40
0.2499999999999991
 40
0.4999999999999982
 40
0.4999999999999982
 40
1.0
 40
1.0
 40
1.0
 40
1.0
 10
9.200000000000014
 20
27.76916635406976
 30
0.0
 10
9.200000000000014
 20
27.66809333683724
 30
0.0
 10
9.218583298377242
 20
27.5689264133913
 30
0.0
 10
9.291549937975777
 20
27.38152387214675
 30
0.0
 10
9.34549688093282
 20
27.29531750692792
 30
0.0
 10
9.55107104167538
 20
27.07620366276163
 30
0.0
 10
9.748220416740102
 20
26.9870635675688
 30
0.0
 10
9.950000000000001
 20
26.98706356756882
 30
0.0
  0
SPLINE
  5
1ED
330
1F
100
AcDbEntity
  8
1
  6
SLD-Solid
370
    25
100
AcDbSpline
210
0.0
220
0.0
230
1.0
 70
     8
 71
     3
 72
    14
 73
    10
 74
     0
 42
0.000000001
 43
0.00000001
 40
0.0
 40
0.0
 40
0.0
 40
0.0
 40
0.25
 40
0.25
 40
0.5
 40
0.5
 40
0.75
 40
0.75
 40
1.0
 40
1.0
 40
1.0
 40
1.0
 10
12.28000000000003
 20
26.98706356756882
 30
0.0
 10
12.38041018140386
 20
26.9870635675688
 30
0.0
 10
12.48007417771603
 20
27.00821121867971
 30
0.0
 10
12.66478364882751
 20
27.08984749877595
 30
0.0
 10
12.74772062670421
 20
27.1494985263265
 30
0.0
 10
12.88443521562223
 20
27.29527278596963
 30
0.0
 10
12.93853405055465
 20
27.38169791130528
 30
0.0
 10
13.01142030969679
 20
27.56897740148013
 30
0.0
 10
13.03000000000001
 20
27.66812420510654
 30
0.0
 10
13.03000000000001
 20
27.76916635406976
 30
0.0
  0
SPLINE
  5
1EE
330
1F
100
AcDbEntity
  8
SK3
  6
SLD-Dashed
370
    18
100
AcDbSpline
210
0.0
220
0.0
230
1.0
 70
     8
 71
     3
 72
    30
 73
    26
 74
     0
 42
0.000000001
 43
0.00000001
 40
0.4999999999999971
 40
0.4999999999999971
 40
0.4999999999999971
 40
0.4999999999999971
 40
0.5624999999999977
 40
0.5624999999999977
 40
0.6249999999999981
 40
0.6249999999999981
 40
0.6562499999999984
 40
0.6562499999999984
 40
0.6874999999999987
 40
0.6874999999999987
 40
0.718749999999999
 40
0.718749999999999
 40
0.7499999999999992
 40
0.7499999999999992
 40
0.7812499999999994
 40
0.7812499999999994
 40
0.8124999999999998
 40
0.8124999999999998
 40
0.8749999999999998
 40
0.8749999999999998
 40
0.9374999999999999
 40
0.9374999999999999
 40
0.96875
 40
0.96875
 40
1.0
 40
1.0
 40
1.0
 40
1.0
 10
11.75479658556572
 20
-4.90143354710592
 30
0.0
 10
11.89746294966132
 20
-4.886411197664708
 30
0.0
 10
12.02884136644408
 20
-4.886974229786189
 30
0.0
 10
12.27243240561785
 20
-4.932317536304444
 30
0.0
 10
12.3857403709436
 20
-4.975421209748227
 30
0.0
 10
12.53947570845301
 20
-5.103559339222869
 30
0.0
 10
12.58638543677661
 20
-5.156028957061208
 30
0.0
 10
12.66795201157342
 20
-5.29113499349421
 30
0.0
 10
12.70317196931761
 20
-5.375974586482819
 30
0.0
 10
12.74713654526595
 20
-5.582861984914103
 30
0.0
 10
12.75526091463636
 20
-5.705696917838721
 30
0.0
 10
12.73739776164139
 20
-5.968523156861118
 30
0.0
 10
12.71224833739218
 20
-6.103419156624199
 30
0.0
 10
12.64408666407788
 20
-6.357264662683469
 30
0.0
 10
12.60068164729128
 20
-6.478993458595594
 30
0.0
 10
12.50600924552238
 20
-6.704610974826188
 30
0.0
 10
12.45441331137413
 20
-6.809727668320973
 30
0.0
 10
12.2899062133226
 20
-7.109437894498874
 30
0.0
 10
12.17017846713216
 20
-7.284103436407841
 30
0.0
 10
11.91483731616863
 20
-7.5972988196692
 30
0.0
 10
11.77767665531765
 20
-7.737818016165223
 30
0.0
 10
11.5495115897996
 20
-7.918374112026484
 30
0.0
 10
11.46985276967112
 20
-7.973291374430622
 30
0.0
 10
11.29758630900469
 20
-8.069225810891211
 30
0.0
 10
11.20406269051036
 20
-8.110848935776529
 30
0.0
 10
11.1
 20
-8.13967039360795
 30
0.0
  0
SPLINE
  5
1EF
330
1F
100
AcDbEntity
  8
SK3
  6
SLD-Dashed
370
    18
100
AcDbSpline
210
0.0
220
0.0
230
1.0
 70
     8
 71
     3
 72
    34
 73
    30
 74
     0
 42
0.000000001
 43
0.00000001
 40
0.0
 40
0.0
 40
0.0
 40
0.0
 40
0.0312499999999996
 40
0.0312499999999996
 40
0.0624999999999992
 40
0.0624999999999992
 40
0.0937499999999988
 40
0.0937499999999988
 40
0.1249999999999985
 40
0.1249999999999985
 40
0.1562499999999982
 40
0.1562499999999982
 40
0.1874999999999979
 40
0.1874999999999979
 40
0.2499999999999979
 40
0.2499999999999979
 40
0.3124999999999978
 40
0.3124999999999978
 40
0.3437499999999977
 40
0.3437499999999977
 40
0.3749999999999976
 40
0.3749999999999976
 40
0.4062499999999975
 40
0.4062499999999975
 40
0.4374999999999973
 40
0.4374999999999973
 40
0.4687499999999972
 40
0.4687499999999972
 40
0.4999999999999971
 40
0.4999999999999971
 40
0.4999999999999971
 40
0.4999999999999971
 10
11.1
 20
-8.13967039360795
 30
0.0
 10
10.99593730948965
 20
-8.168491851439363
 30
0.0
 10
10.88327240143053
 20
-8.183619230956744
 30
0.0
 10
10.64024603173769
 20
-8.169996197171642
 30
0.0
 10
10.51600003630448
 20
-8.140993061765096
 30
0.0
 10
10.2754047263383
 20
-8.041511803988634
 30
0.0
 10
10.16352991293558
 20
-7.973785811074555
 30
0.0
 10
9.956641719228346
 20
-7.808864907520287
 30
0.0
 10
9.865140211756094
 20
-7.714409980823924
 30
0.0
 10
9.705479632928782
 20
-7.505675203818747
 30
0.0
 10
9.638640231842272
 20
-7.392601974747757
 30
0.0
 10
9.534145986449444
 20
-7.15737318858389
 30
0.0
 10
9.4956685896182
 20
-7.032517635178808
 30
0.0
 10
9.429144226770047
 20
-6.659799668562686
 30
0.0
 10
9.448570934642742
 20
-6.40597905300511
 30
0.0
 10
9.610438460184723
 20
-5.94846664851922
 30
0.0
 10
9.752910053168169
 20
-5.744009981362482
 30
0.0
 10
10.03367356462019
 20
-5.497500536354734
 30
0.0
 10
10.1372293865233
 20
-5.425546956212897
 30
0.0
 10
10.36592358660668
 20
-5.29701855310408
 30
0.0
 10
10.48785945052917
 20
-5.242562856658077
 30
0.0
 10
10.73642302172964
 20
-5.147912691227143
 30
0.0
 10
10.85648365715394
 20
-5.109640819744177
 30
0.0
 10
11.08061189675419
 20
-5.043111325123105
 30
0.0
 10
11.1802238597534
 20
-5.016231192190856
 30
0.0
 10
11.36576798793607
 20
-4.969815472118944
 30
0.0
 10
11.45055694339849
 20
-4.950785033120367
 30
0.0
 10
11.60916091896928
 20
-4.920394395500217
 30
0.0
 10
11.68346340351792
 20
-4.908944721826527
 30
0.0
 10
11.75479658556572
 20
-4.90143354710592
 30
0.0
  0
SPLINE
  5
1F0
330
1F
100
AcDbEntity
  8
SK3
  6
SLD-Dashed
370
    18
100
AcDbSpline
210
0.0
220
0.0
230
1.0
 70
     8
 71
     3
 72
    30
 73
    26
 74
     0
 42
0.000000001
 43
0.00000001
 40
0.4999999999999977
 40
0.4999999999999977
 40
0.4999999999999977
 40
0.4999999999999977
 40
0.5312499999999977
 40
0.5312499999999977
 40
0.5624999999999976
 40
0.5624999999999976
 40
0.6249999999999976
 40
0.6249999999999976
 40
0.6874999999999974
 40
0.6874999999999974
 40
0.7187499999999977
 40
0.7187499999999977
 40
0.7499999999999978
 40
0.7499999999999978
 40
0.781249999999998
 40
0.781249999999998
 40
0.8124999999999982
 40
0.8124999999999982
 40
0.8437499999999984
 40
0.8437499999999984
 40
0.8749999999999986
 40
0.8749999999999986
 40
0.9374999999999993
 40
0.9374999999999993
 40
1.0
 40
1.0
 40
1.0
 40
1.0
 10
9.528420299935433
 20
-8.783318638987486
 30
0.0
 10
9.563561233735419
 20
-8.863935054853203
 30
0.0
 10
9.607627266507047
 20
-8.927948620428339
 30
0.0
 10
9.70302702424504
 20
-9.029913156802367
 30
0.0
 10
9.7551658595878
 20
-9.069013533844462
 30
0.0
 10
9.920727180931468
 20
-9.16136560819696
 30
0.0
 10
10.03962982796816
 20
-9.189146893658647
 30
0.0
 10
10.29581948707686
 20
-9.20776112946159
 30
0.0
 10
10.43340974433161
 20
-9.197532970852961
 30
0.0
 10
10.66277322328792
 20
-9.159887465694737
 30
0.0
 10
10.74371097916553
 20
-9.143480319022096
 30
0.0
 10
10.91864535127572
 20
-9.102894413631466
 30
0.0
 10
11.01198337642655
 20
-9.07900587068609
 30
0.0
 10
11.22104536410176
 20
-9.02059910671637
 30
0.0
 10
11.33557343779477
 20
-8.986604712168614
 30
0.0
 10
11.57980302461464
 20
-8.902979810871827
 30
0.0
 10
11.70445599477361
 20
-8.854609275012841
 30
0.0
 10
11.94450363931206
 20
-8.738302937094131
 30
0.0
 10
12.055317005879
 20
-8.672727087611989
 30
0.0
 10
12.25922745067754
 20
-8.52032559684357
 30
0.0
 10
12.35002701179844
 20
-8.435036721266151
 30
0.0
 10
12.58459907667486
 20
-8.152304640047157
 30
0.0
 10
12.6894417703268
 20
-7.926948099339547
 30
0.0
 10
12.77109851062197
 20
-7.442912699127661
 30
0.0
 10
12.74820534245739
 20
-7.186173862784494
 30
0.0
 10
12.66230763443389
 20
-6.940889607535645
 30
0.0
  0
SPLINE
  5
1F1
330
1F
100
AcDbEntity
  8
SK3
  6
SLD-Dashed
370
    18
100
AcDbSpline
210
0.0
220
0.0
230
1.0
 70
     8
 71
     3
 72
    34
 73
    30
 74
     0
 42
0.000000001
 43
0.00000001
 40
0.0
 40
0.0
 40
0.0
 40
0.0
 40
0.0312499999999997
 40
0.0312499999999997
 40
0.0624999999999995
 40
0.0624999999999995
 40
0.0937499999999992
 40
0.0937499999999992
 40
0.124999999999999
 40
0.124999999999999
 40
0.1562499999999987
 40
0.1562499999999987
 40
0.1874999999999984
 40
0.1874999999999984
 40
0.2499999999999982
 40
0.2499999999999982
 40
0.3124999999999979
 40
0.3124999999999979
 40
0.3437499999999978
 40
0.3437499999999978
 40
0.3749999999999978
 40
0.3749999999999978
 40
0.4062499999999978
 40
0.4062499999999978
 40
0.4374999999999977
 40
0.4374999999999977
 40
0.4687499999999977
 40
0.4687499999999977
 40
0.4999999999999977
 40
0.4999999999999977
 40
0.4999999999999977
 40
0.4999999999999977
 10
12.66230763443389
 20
-6.940889607535645
 30
0.0
 10
12.61935878042216
 20
-6.818247479911228
 30
0.0
 10
12.56229529856066
 20
-6.702062405426226
 30
0.0
 10
12.42103808962698
 20
-6.482980016463472
 30
0.0
 10
12.33595491427449
 20
-6.37975233744649
 30
0.0
 10
12.14618186397767
 20
-6.199831764960508
 30
0.0
 10
12.0392257963649
 20
-6.120673587225296
 30
0.0
 10
11.80824491388434
 20
-5.996443405511913
 30
0.0
 10
11.68389439480549
 20
-5.951950953011084
 30
0.0
 10
11.43804455248934
 20
-5.908952419297804
 30
0.0
 10
11.31731684279021
 20
-5.910654595408936
 30
0.0
 10
11.09745426351666
 20
-5.948127988753951
 30
0.0
 10
10.99815393168725
 20
-5.982607853079413
 30
0.0
 10
10.72267466537657
 20
-6.11171336085357
 30
0.0
 10
10.57189176004732
 20
-6.227019438453225
 30
0.0
 10
10.28857248622242
 20
-6.491284498769502
 30
0.0
 10
10.15786476490367
 20
-6.642104569644404
 30
0.0
 10
9.976005005593564
 20
-6.89374992992586
 30
0.0
 10
9.91763522266624
 20
-6.982205125338786
 30
0.0
 10
9.805404805610374
 20
-7.170924693447021
 30
0.0
 10
9.751060353100568
 20
-7.272111003090557
 30
0.0
 10
9.650448853514279
 20
-7.486812522722694
 30
0.0
 10
9.604326797725646
 20
-7.599530214338814
 30
0.0
 10
9.52438853672935
 20
-7.841923064473684
 30
0.0
 10
9.490665766297285
 20
-7.972450285447922
 30
0.0
 10
9.450224495380091
 20
-8.237810978297459
 30
0.0
 10
9.444739461343568
 20
-8.369898596775057
 30
0.0
 10
9.466585255233792
 20
-8.602871670374164
 30
0.0
 10
9.493279366135448
 20
-8.702702223121767
 30
0.0
 10
9.528420299935433
 20
-8.783318638987486
 30
0.0
  0
SPLINE
  5
1F2
330
1F
100
AcDbEntity
  8
1
  6
SLD-Dashed
370
    18
100
AcDbSpline
210
0.0
220
0.0
230
1.0
 70
     8
 71
     2
 72
     6
 73
     3
 74
     0
 42
0.000000001
 43
0.00000001
 40
0.0
 40
0.0
 40
0.0
 40
0.1250000000000004
 40
0.1250000000000004
 40
0.1250000000000004
 10
58.15000000000001
 20
25.39999999999992
 30
0.0
 10
58.08701429260429
 20
25.37470688794592
 30
0.0
 10
57.96421619162707
 20
25.32651562106207
 30
0.0
  0
SPLINE
  5
1F3
330
1F
100
AcDbEntity
  8
1
  6
SLD-Dashed
370
    18
100
AcDbSpline
210
0.0
220
0.0
230
1.0
 70
     8
 71
     3
 72
     8
 73
     4
 74
     0
 42
0.000000001
 43
0.00000001
 40
0.1250000000000004
 40
0.1250000000000004
 40
0.1250000000000004
 40
0.1250000000000004
 40
0.1875000000000007
 40
0.1875000000000007
 40
0.1875000000000007
 40
0.1875000000000007
 10
57.96421619162707
 20
25.32651562106207
 30
0.0
 10
57.90281714113854
 20
25.30241998762016
 30
0.0
 10
57.82635500315381
 20
25.27258908812485
 30
0.0
 10
57.73458167932743
 20
25.23728098245788
 30
0.0
  0
SPLINE
  5
1F4
330
1F
100
AcDbEntity
  8
1
  6
SLD-Dashed
370
    18
100
AcDbSpline
210
0.0
220
0.0
230
1.0
 70
     8
 71
     3
 72
     8
 73
     4
 74
     0
 42
0.000000001
 43
0.00000001
 40
0.1875000000000007
 40
0.1875000000000007
 40
0.1875000000000007
 40
0.1875000000000007
 40
0.2500000000000011
 40
0.2500000000000011
 40
0.2500000000000011
 40
0.2500000000000011
 10
57.73458167932743
 20
25.23728098245788
 30
0.0
 10
57.64280835550102
 20
25.20197287679089
 30
0.0
 10
57.53540785390751
 20
25.16107679028009
 30
0.0
 10
57.41511710770881
 20
25.11610388369354
 30
0.0
  0
SPLINE
  5
1F5
330
1F
100
AcDbEntity
  8
1
  6
SLD-Dashed
370
    18
100
AcDbSpline
210
0.0
220
0.0
230
1.0
 70
     8
 71
     3
 72
     8
 73
     4
 74
     0
 42
0.000000001
 43
0.00000001
 40
0.2500000000000011
 40
0.2500000000000011
 40
0.2500000000000011
 40
0.2500000000000011
 40
0.3750000000000017
 40
0.3750000000000017
 40
0.3750000000000017
 40
0.3750000000000017
 10
57.41511710770881
 20
25.11610388369354
 30
0.0
 10
57.17453561531147
 20
25.02615807052046
 30
0.0
 10
56.88095916560817
 20
24.91920883255432
 30
0.0
 10
56.53528761123427
 20
24.80059213458271
 30
0.0
  0
SPLINE
  5
1F6
330
1F
100
AcDbEntity
  8
1
  6
SLD-Dashed
370
    18
100
AcDbSpline
210
0.0
220
0.0
230
1.0
 70
     8
 71
     3
 72
     8
 73
     4
 74
     0
 42
0.000000001
 43
0.00000001
 40
0.3750000000000017
 40
0.3750000000000017
 40
0.3750000000000017
 40
0.3750000000000017
 40
0.4375000000000018
 40
0.4375000000000018
 40
0.4375000000000018
 40
0.4375000000000018
 10
56.53528761123427
 20
24.80059213458271
 30
0.0
 10
56.36245183404737
 20
24.74128378559694
 30
0.0
 10
56.17548594613858
 20
24.6787304636457
 30
0.0
 10
55.97763519485655
 20
24.61480817602426
 30
0.0
  0
SPLINE
  5
1F7
330
1F
100
AcDbEntity
  8
1
  6
SLD-Dashed
370
    18
100
AcDbSpline
210
0.0
220
0.0
230
1.0
 70
     8
 71
     3
 72
     8
 73
     4
 74
     0
 42
0.000000001
 43
0.00000001
 40
0.4375000000000018
 40
0.4375000000000018
 40
0.4375000000000018
 40
0.4375000000000018
 40
0.500000000000002
 40
0.500000000000002
 40
0.500000000000002
 40
0.500000000000002
 10
55.97763519485655
 20
24.61480817602426
 30
0.0
 10
55.77978444357446
 20
24.55088588840279
 30
0.0
 10
55.57153269003943
 20
24.48573263357673
 30
0.0
 10
55.35307051944283
 20
24.42017593175624
 30
0.0
  0
SPLINE
  5
1F8
330
1F
100
AcDbEntity
  8
1
  6
SLD-Dashed
370
    18
100
AcDbSpline
210
0.0
220
0.0
230
1.0
 70
     8
 71
     3
 72
     8
 73
     4
 74
     0
 42
0.000000001
 43
0.00000001
 40
0.500000000000002
 40
0.500000000000002
 40
0.500000000000002
 40
0.500000000000002
 40
0.6250000000000013
 40
0.6250000000000013
 40
0.6250000000000013
 40
0.6250000000000013
 10
55.35307051944283
 20
24.42017593175624
 30
0.0
 10
54.91614617824969
 20
24.28906252811526
 30
0.0
 10
54.43870720522145
 20
24.15627374533941
 30
0.0
 10
53.91838022836296
 20
24.02865592404325
 30
0.0
  0
SPLINE
  5
1F9
330
1F
100
AcDbEntity
  8
1
  6
SLD-Dashed
370
    18
100
AcDbSpline
210
0.0
220
0.0
230
1.0
 70
     8
 71
     3
 72
     8
 73
     4
 74
     0
 42
0.000000001
 43
0.00000001
 40
0.6875000000000011
 40
0.6875000000000011
 40
0.6875000000000011
 40
0.6875000000000011
 40
0.7500000000000009
 40
0.7500000000000009
 40
0.7500000000000009
 40
0.7500000000000009
 10
53.11280549824239
 20
23.84387006733483
 30
0.0
 10
52.83737098885292
 20
23.78509784590767
 30
0.0
 10
52.55526455217464
 20
23.72945235094785
 30
0.0
 10
52.26640393282753
 20
23.67770855301256
 30
0.0
  0
SPLINE
  5
1FA
330
1F
100
AcDbEntity
  8
1
  6
SLD-Dashed
370
    18
100
AcDbSpline
210
0.0
220
0.0
230
1.0
 70
     8
 71
     3
 72
     8
 73
     4
 74
     0
 42
0.000000001
 43
0.00000001
 40
0.7500000000000009
 40
0.7500000000000009
 40
0.7500000000000009
 40
0.7500000000000009
 40
0.8750000000000004
 40
0.8750000000000004
 40
0.8750000000000004
 40
0.8750000000000004
 10
52.26640393282753
 20
23.67770855301256
 30
0.0
 10
51.68868269413322
 20
23.57422095714197
 30
0.0
 10
51.08208590004323
 20
23.48605759112559
 30
0.0
 10
50.45000099739434
 20
23.42061068455229
 30
0.0
  0
SPLINE
  5
1FB
330
1F
100
AcDbEntity
  8
1
  6
SLD-Dashed
370
    18
100
AcDbSpline
210
0.0
220
0.0
230
1.0
 70
     8
 71
     3
 72
     8
 73
     4
 74
     0
 42
0.000000001
 43
0.00000001
 40
0.8750000000000004
 40
0.8750000000000004
 40
0.8750000000000004
 40
0.8750000000000004
 40
1.0
 40
1.0
 40
1.0
 40
1.0
 10
50.45000099739434
 20
23.42061068455229
 30
0.0
 10
49.81791609474543
 20
23.35516377797898
 30
0.0
 10
49.17490938410847
 20
23.31391745209419
 30
0.0
 10
48.52060569004095
 20
23.29999999999999
 30
0.0
  0
SPLINE
  5
1FC
330
1F
100
AcDbEntity
  8
1
  6
SLD-Dashed
370
    18
100
AcDbSpline
210
0.0
220
0.0
230
1.0
 70
     8
 71
     3
 72
    18
 73
    14
 74
     0
 42
0.000000001
 43
0.00000001
 40
0.0
 40
0.0
 40
0.0
 40
0.0
 40
0.2500000000000001
 40
0.2500000000000001
 40
0.3750000000000001
 40
0.3750000000000001
 40
0.5000000000000001
 40
0.5000000000000001
 40
0.7499999999999999
 40
0.7499999999999999
 40
0.8749999999999999
 40
0.8749999999999999
 40
1.0
 40
1.0
 40
1.0
 40
1.0
 10
47.52939430995905
 20
23.29999999999999
 30
0.0
 10
46.85687467003793
 20
23.31430491674713
 30
0.0
 10
46.20099731574886
 20
23.35734912436466
 30
0.0
 10
45.24036205329904
 20
23.45841390259648
 30
0.0
 10
44.9240404137593
 20
23.49818646836736
 30
0.0
 10
44.29918908857741
 20
23.58877877072784
 30
0.0
 10
43.99118843080314
 20
23.63959616260956
 30
0.0
 10
43.09892176724001
 20
23.80270164450222
 30
0.0
 10
42.53895293025653
 20
23.92657419170637
 30
0.0
 10
41.7488267161751
 20
24.12404800947685
 30
0.0
 10
41.49302918090042
 20
24.19206535801405
 30
0.0
 10
41.00458390795371
 20
24.32849410897265
 30
0.0
 10
40.77142325403979
 20
24.39700807876703
 30
0.0
 10
40.54926131403116
 20
24.46489411178577
 30
0.0
  0
SPLINE
  5
1FD
330
1F
100
AcDbEntity
  8
1
  6
SLD-Dashed
370
    18
100
AcDbSpline
210
0.0
220
0.0
230
1.0
 70
    24
 71
     3
 72
    10
 73
     6
 74
     0
 42
0.000000001
 43
0.00000001
 40
0.0
 40
0.0
 40
0.0
 40
0.0
 40
0.1311354490438629
 40
0.6002977099597886
 40
1.0
 40
1.0
 40
1.0
 40
1.0
 10
19.05
 20
-22.41000000000001
 30
0.0
 10
19.05076512567971
 20
-22.41000000000001
 30
0.0
 10
19.05426763546414
 20
-22.41
 30
0.0
 10
19.09959568418817
 20
-22.41000000000001
 30
0.0
 10
19.15714378032333
 20
-22.41000000000001
 30
0.0
 10
19.18361753366884
 20
-22.41000000000001
 30
0.0
  0
SPLINE
  5
1FE
330
1F
100
AcDbEntity
  8
1
  6
SLD-Dashed
370
    18
100
AcDbSpline
210
0.0
220
0.0
230
1.0
 70
    24
 71
     3
 72
     8
 73
     4
 74
     0
 42
0.000000001
 43
0.00000001
 40
0.0625
 40
0.0625
 40
0.0625
 40
0.0625
 40
0.1250000000000001
 40
0.1250000000000001
 40
0.1250000000000001
 40
0.1250000000000001
 10
19.31164852035976
 20
-22.41000000000001
 30
0.0
 10
19.30989595327738
 20
-22.41000000000001
 30
0.0
 10
19.30728065059431
 20
-22.41000000000001
 30
0.0
 10
19.3038741042303
 20
-22.41000000000001
 30
0.0
  0
SPLINE
  5
1FF
330
1F
100
AcDbEntity
  8
1
  6
SLD-Dashed
370
    18
100
AcDbSpline
210
0.0
220
0.0
230
1.0
 70
    24
 71
     3
 72
     8
 73
     4
 74
     0
 42
0.000000001
 43
0.00000001
 40
0.1250000000000001
 40
0.1250000000000001
 40
0.1250000000000001
 40
0.1250000000000001
 40
0.2500000000000001
 40
0.2500000000000001
 40
0.2500000000000001
 40
0.2500000000000001
 10
19.3038741042303
 20
-22.41000000000001
 30
0.0
 10
19.29706101150228
 20
-22.41
 30
0.0
 10
19.28706283898685
 20
-22.41000000000001
 30
0.0
 10
19.27482745186393
 20
-22.41000000000001
 30
0.0
  0
SPLINE
  5
200
330
1F
100
AcDbEntity
  8
1
  6
SLD-Dashed
370
    18
100
AcDbSpline
210
0.0
220
0.0
230
1.0
 70
    24
 71
     3
 72
     8
 73
     4
 74
     0
 42
0.000000001
 43
0.00000001
 40
0.2500000000000001
 40
0.2500000000000001
 40
0.2500000000000001
 40
0.2500000000000001
 40
0.5000000000000001
 40
0.5000000000000001
 40
0.5000000000000001
 40
0.5000000000000001
 10
19.27482745186393
 20
-22.41000000000001
 30
0.0
 10
19.25035667761813
 20
-22.41000000000001
 30
0.0
 10
19.21706393898187
 20
-22.41000000000001
 30
0.0
 10
19.18387923820687
 20
-22.41000000000001
 30
0.0
  0
SPLINE
  5
201
330
1F
100
AcDbEntity
  8
1
  6
SLD-Dashed
370
    18
100
AcDbSpline
210
0.0
220
0.0
230
1.0
 70
    24
 71
     2
 72
     6
 73
     3
 74
     0
 42
0.000000001
 43
0.00000001
 40
0.5000000000000001
 40
0.5000000000000001
 40
0.5000000000000001
 40
1.0
 40
1.0
 40
1.0
 10
19.18387923820687
 20
-22.41000000000001
 30
0.0
 10
19.11750983665687
 20
-22.41000000000001
 30
0.0
 10
19.05
 20
-22.41000000000001
 30
0.0
  0
SPLINE
  5
202
330
1F
100
AcDbEntity
  8
1
  6
SLD-Dashed
370
    18
100
AcDbSpline
210
0.0
220
0.0
230
1.0
 70
    24
 71
     2
 72
     6
 73
     3
 74
     0
 42
0.000000001
 43
0.00000001
 40
0.0
 40
0.0
 40
0.0
 40
0.25
 40
0.25
 40
0.25
 10
3.200000000000008
 20
-22.41000000000004
 30
0.0
 10
3.17040699581661
 20
-22.41000000000002
 30
0.0
 10
3.14448132470381
 20
-22.41000000000001
 30
0.0
  0
SPLINE
  5
203
330
1F
100
AcDbEntity
  8
1
  6
SLD-Dashed
370
    18
100
AcDbSpline
210
0.0
220
0.0
230
1.0
 70
    24
 71
     3
 72
     8
 73
     4
 74
     0
 42
0.000000001
 43
0.00000001
 40
0.25
 40
0.25
 40
0.25
 40
0.25
 40
0.5
 40
0.5
 40
0.5
 40
0.5
 10
3.14448132470381
 20
-22.41000000000001
 30
0.0
 10
3.118555653590996
 20
-22.41000000000001
 30
0.0
 10
3.097084490555638
 20
-22.41000000000001
 30
0.0
 10
3.096615422637505
 20
-22.41000000000001
 30
0.0
  0
SPLINE
  5
204
330
1F
100
AcDbEntity
  8
1
  6
SLD-Dashed
370
    18
100
AcDbSpline
210
0.0
220
0.0
230
1.0
 70
    24
 71
     3
 72
     8
 73
     4
 74
     0
 42
0.000000001
 43
0.00000001
 40
0.5
 40
0.5
 40
0.5
 40
0.5
 40
0.5625
 40
0.5625
 40
0.5625
 40
0.5625
 10
3.096615422637505
 20
-22.41000000000001
 30
0.0
 10
3.096498155657976
 20
-22.41000000000001
 30
0.0
 10
3.097576707176336
 20
-22.41000000000001
 30
0.0
 10
3.099789717980528
 20
-22.41000000000001
 30
0.0
  0
SPLINE
  5
205
330
1F
100
AcDbEntity
  8
1
  6
SLD-Dashed
370
    18
100
AcDbSpline
210
0.0
220
0.0
230
1.0
 70
    24
 71
     3
 72
     8
 73
     4
 74
     0
 42
0.000000001
 43
0.00000001
 40
0.5625
 40
0.5625
 40
0.5625
 40
0.5625
 40
0.625
 40
0.625
 40
0.625
 40
0.625
 10
3.099789717980528
 20
-22.41000000000001
 30
0.0
 10
3.102002728784734
 20
-22.41000000000001
 30
0.0
 10
3.10534590857034
 20
-22.41000000000001
 30
0.0
 10
3.109607407038015
 20
-22.41000000000001
 30
0.0
  0
SPLINE
  5
206
330
1F
100
AcDbEntity
  8
1
  6
SLD-Dashed
370
    18
100
AcDbSpline
210
0.0
220
0.0
230
1.0
 70
    24
 71
     3
 72
     8
 73
     4
 74
     0
 42
0.000000001
 43
0.00000001
 40
0.625
 40
0.625
 40
0.625
 40
0.625
 40
0.75
 40
0.75
 40
0.75
 40
0.75
 10
3.109607407038015
 20
-22.41000000000001
 30
0.0
 10
3.118130403973393
 20
-22.41000000000001
 30
0.0
 10
3.130398007648125
 20
-22.41000000000001
 30
0.0
 10
3.143490990967584
 20
-22.41000000000001
 30
0.0
  0
SPLINE
  5
207
330
1F
100
AcDbEntity
  8
1
  6
SLD-Dashed
370
    18
100
AcDbSpline
210
0.0
220
0.0
230
1.0
 70
    24
 71
     2
 72
     6
 73
     3
 74
     0
 42
0.000000001
 43
0.00000001
 40
0.75
 40
0.75
 40
0.75
 40
1.0
 40
1.0
 40
1.0
 10
3.143490990967584
 20
-22.41000000000001
 30
0.0
 10
3.169676957606518
 20
-22.41000000000002
 30
0.0
 10
3.200000000000008
 20
-22.41000000000004
 30
0.0
  0
SPLINE
  5
208
330
1F
100
AcDbEntity
  8
SK3
  6
SLD-Dashed
370
    18
100
AcDbSpline
210
0.0
220
0.0
230
1.0
 70
     8
 71
     3
 72
    30
 73
    26
 74
     0
 42
0.000000001
 43
0.00000001
 40
0.5000000000000006
 40
0.5000000000000006
 40
0.5000000000000006
 40
0.5000000000000006
 40
0.5625000000000004
 40
0.5625000000000004
 40
0.5937500000000004
 40
0.5937500000000004
 40
0.6250000000000003
 40
0.6250000000000003
 40
0.6562500000000003
 40
0.6562500000000003
 40
0.6875000000000002
 40
0.6875000000000002
 40
0.7500000000000001
 40
0.7500000000000001
 40
0.7812500000000002
 40
0.7812500000000002
 40
0.8125000000000003
 40
0.8125000000000003
 40
0.8750000000000002
 40
0.8750000000000002
 40
0.9375000000000001
 40
0.9375000000000001
 40
0.96875
 40
0.96875
 40
1.0
 40
1.0
 40
1.0
 40
1.0
 10
11.10070155322193
 20
-0.6867806446436211
 30
0.0
 10
10.88487328526099
 20
-0.68668649530116
 30
0.0
 10
10.66695993667192
 20
-0.7314091515492372
 30
0.0
 10
10.3688306948955
 20
-0.8573324036223566
 30
0.0
 10
10.2723266050555
 20
-0.9097769735048333
 30
0.0
 10
10.09316301813307
 20
-1.030880210906786
 30
0.0
 10
10.01035801314715
 20
-1.099273863572371
 30
0.0
 10
9.858092000268964
 20
-1.251261280631553
 30
0.0
 10
9.788700375084932
 20
-1.335215891007224
 30
0.0
 10
9.669334047265762
 20
-1.511088629166778
 30
0.0
 10
9.61845228437394
 20
-1.603797750250983
 30
0.0
 10
9.493171541254702
 20
-1.896347059398749
 30
0.0
 10
9.45011760256094
 20
-2.101924731596816
 30
0.0
 10
9.449941558347344
 20
-2.408808799904342
 30
0.0
 10
9.460551032657124
 20
-2.508823236901825
 30
0.0
 10
9.502621940844946
 20
-2.704498007569868
 30
0.0
 10
9.53460621752955
 20
-2.800878416574827
 30
0.0
 10
9.658478333209805
 20
-3.071908588173942
 30
0.0
 10
9.781198670787736
 20
-3.235006337226936
 30
0.0
 10
10.08392744642476
 20
-3.50163398124493
 30
0.0
 10
10.26708339298825
 20
-3.607940944973846
 30
0.0
 10
10.56490438050341
 20
-3.714664125739019
 30
0.0
 10
10.66997524794504
 20
-3.742182811963958
 30
0.0
 10
10.88266147594884
 20
-3.778571214008566
 30
0.0
 10
10.99054595855785
 20
-3.787766140220143
 30
0.0
 10
11.1
 20
-3.787766140220143
 30
0.0
  0
SPLINE
  5
209
330
1F
100
AcDbEntity
  8
SK3
  6
SLD-Dashed
370
    18
100
AcDbSpline
210
0.0
220
0.0
230
1.0
 70
     8
 71
     3
 72
    32
 73
    28
 74
     0
 42
0.000000001
 43
0.00000001
 40
0.0
 40
0.0
 40
0.0
 40
0.0
 40
0.0312499999999998
 40
0.0312499999999998
 40
0.0624999999999997
 40
0.0624999999999997
 40
0.0937499999999995
 40
0.0937499999999995
 40
0.1249999999999994
 40
0.1249999999999994
 40
0.1874999999999995
 40
0.1874999999999995
 40
0.2499999999999996
 40
0.2499999999999996
 40
0.2812499999999997
 40
0.2812499999999997
 40
0.3124999999999998
 40
0.3124999999999998
 40
0.3749999999999998
 40
0.3749999999999998
 40
0.4062500000000001
 40
0.4062500000000001
 40
0.4375000000000002
 40
0.4375000000000002
 40
0.4687500000000004
 40
0.4687500000000004
 40
0.5000000000000006
 40
0.5000000000000006
 40
0.5000000000000006
 40
0.5000000000000006
 10
11.1
 20
-3.787766140220135
 30
0.0
 10
11.20945404144215
 20
-3.787766140220146
 30
0.0
 10
11.31699251505768
 20
-3.778573328456377
 30
0.0
 10
11.52842270682132
 20
-3.742513465759781
 30
0.0
 10
11.63343468118847
 20
-3.715182626605942
 30
0.0
 10
11.83302988080073
 20
-3.643810849968478
 30
0.0
 10
11.9276291600313
 20
-3.60005371977919
 30
0.0
 10
12.10666204146886
 20
-3.496063555093996
 30
0.0
 10
12.19108958741752
 20
-3.435494674721283
 30
0.0
 10
12.41840943186721
 20
-3.235487194488875
 30
0.0
 10
12.5412128042801
 20
-3.072211780658824
 30
0.0
 10
12.70609668334556
 20
-2.712191703584072
 30
0.0
 10
12.74986581883258
 20
-2.511406281215631
 30
0.0
 10
12.75006661590682
 20
-2.206762191573449
 30
0.0
 10
12.73925303931703
 20
-2.102663743045095
 30
0.0
 10
12.69696665105526
 20
-1.900023631118426
 30
0.0
 10
12.66568409163501
 20
-1.80062837540999
 30
0.0
 10
12.54109332601519
 20
-1.508622388074421
 30
0.0
 10
12.41968488057069
 20
-1.329150513223802
 30
0.0
 10
12.19032108316566
 20
-1.099825633995827
 30
0.0
 10
12.10747830050281
 20
-1.031413659325516
 30
0.0
 10
11.92916892541128
 20
-0.9106890902003222
 30
0.0
 10
11.83255025366053
 20
-0.8580074652528129
 30
0.0
 10
11.63340217743153
 20
-0.7737092118759864
 30
0.0
 10
11.53055350372277
 20
-0.7415889227052296
 30
0.0
 10
11.31815535720089
 20
-0.6979755792709263
 30
0.0
 10
11.2086156872024
 20
-0.6868277193148586
 30
0.0
 10
11.10070155322193
 20
-0.6867806446436211
 30
0.0
  0
SPLINE
  5
20A
330
1F
100
AcDbEntity
  8
SK3
  6
SLD-Dashed
370
    18
100
AcDbSpline
210
0.0
220
0.0
230
1.0
 70
     8
 71
     2
 72
     6
 73
     3
 74
     0
 42
0.000000001
 43
0.00000001
 40
0.0
 40
0.0
 40
0.0
 40
0.0312499999999999
 40
0.0312499999999999
 40
0.0312499999999999
 10
39.3636
 20
12.49999999999999
 30
0.0
 10
39.42415607403792
 20
12.45782518631829
 30
0.0
 10
39.54115573157556
 20
12.37763158325847
 30
0.0
  0
SPLINE
  5
20B
330
1F
100
AcDbEntity
  8
SK3
  6
SLD-Dashed
370
    18
100
AcDbSpline
210
0.0
220
0.0
230
1.0
 70
     8
 71
     3
 72
     8
 73
     4
 74
     0
 42
0.000000001
 43
0.00000001
 40
0.0312499999999999
 40
0.0312499999999999
 40
0.0312499999999999
 40
0.0312499999999999
 40
0.0624999999999998
 40
0.0624999999999998
 40
0.0624999999999998
 40
0.0624999999999998
 10
39.54115573157556
 20
12.37763158325847
 30
0.0
 10
39.65815538911321
 20
12.29743798019864
 30
0.0
 10
39.83459031808837
 20
12.17723616786363
 30
0.0
 10
40.05745475607869
 20
12.02962706213011
 30
0.0
  0
SPLINE
  5
20C
330
1F
100
AcDbEntity
  8
SK3
  6
SLD-Dashed
370
    18
100
AcDbSpline
210
0.0
220
0.0
230
1.0
 70
     8
 71
     3
 72
     8
 73
     4
 74
     0
 42
0.000000001
 43
0.00000001
 40
0.0624999999999998
 40
0.0624999999999998
 40
0.0624999999999998
 40
0.0624999999999998
 40
0.0937499999999996
 40
0.0937499999999996
 40
0.0937499999999996
 40
0.0937499999999996
 10
40.05745475607869
 20
12.02962706213011
 30
0.0
 10
40.28031919406902
 20
11.88201795639655
 30
0.0
 10
40.55138488908167
 20
11.70574214951664
 30
0.0
 10
40.86595666871011
 20
11.51008477202856
 30
0.0
  0
SPLINE
  5
20D
330
1F
100
AcDbEntity
  8
SK3
  6
SLD-Dashed
370
    18
100
AcDbSpline
210
0.0
220
0.0
230
1.0
 70
     8
 71
     3
 72
     8
 73
     4
 74
     0
 42
0.000000001
 43
0.00000001
 40
0.0937499999999996
 40
0.0937499999999996
 40
0.0937499999999996
 40
0.0937499999999996
 40
0.1249999999999994
 40
0.1249999999999994
 40
0.1249999999999994
 40
0.1249999999999994
 10
40.86595666871011
 20
11.51008477202856
 30
0.0
 10
41.18052844833847
 20
11.31442739454037
 30
0.0
 10
41.53174706297015
 20
11.10358762745657
 30
0.0
 10
41.91907069951363
 20
10.88634569828322
 30
0.0
  0
SPLINE
  5
20E
330
1F
100
AcDbEntity
  8
SK3
  6
SLD-Dashed
370
    18
100
AcDbSpline
210
0.0
220
0.0
230
1.0
 70
     8
 71
     3
 72
     8
 73
     4
 74
     0
 42
0.000000001
 43
0.00000001
 40
0.1249999999999994
 40
0.1249999999999994
 40
0.1249999999999994
 40
0.1249999999999994
 40
0.1562499999999993
 40
0.1562499999999993
 40
0.1562499999999993
 40
0.1562499999999993
 10
41.91907069951363
 20
10.88634569828322
 30
0.0
 10
42.30639433605722
 20
10.66910376911005
 30
0.0
 10
42.73356519758426
 20
10.44367248487482
 30
0.0
 10
43.18633979709723
 20
10.22950549142795
 30
0.0
  0
SPLINE
  5
20F
330
1F
100
AcDbEntity
  8
SK3
  6
SLD-Dashed
370
    18
100
AcDbSpline
210
0.0
220
0.0
230
1.0
 70
     8
 71
     3
 72
     8
 73
     4
 74
     0
 42
0.000000001
 43
0.00000001
 40
0.1562499999999993
 40
0.1562499999999993
 40
0.1562499999999993
 40
0.1562499999999993
 40
0.1874999999999992
 40
0.1874999999999992
 40
0.1874999999999992
 40
0.1874999999999992
 10
43.18633979709723
 20
10.22950549142795
 30
0.0
 10
43.63911439661015
 20
10.01533849798098
 30
0.0
 10
44.11951566322173
 20
9.810775927929424
 30
0.0
 10
44.63374179991926
 20
9.62968235299662
 30
0.0
  0
SPLINE
  5
210
330
1F
100
AcDbEntity
  8
SK3
  6
SLD-Dashed
370
    18
100
AcDbSpline
210
0.0
220
0.0
230
1.0
 70
     8
 71
     3
 72
     8
 73
     4
 74
     0
 42
0.000000001
 43
0.00000001
 40
0.1874999999999992
 40
0.1874999999999992
 40
0.1874999999999992
 40
0.1874999999999992
 40
0.2031249999999991
 40
0.2031249999999991
 40
0.2031249999999991
 40
0.2031249999999991
 10
44.63374179991927
 20
9.629682352996612
 30
0.0
 10
44.89085486826805
 20
9.539135565530216
 30
0.0
 10
45.15818883204314
 20
9.454091934861998
 30
0.0
 10
45.43133374644559
 20
9.378552909421947
 30
0.0
  0
SPLINE
  5
211
330
1F
100
AcDbEntity
  8
SK3
  6
SLD-Dashed
370
    18
100
AcDbSpline
210
0.0
220
0.0
230
1.0
 70
     8
 71
     3
 72
     8
 73
     4
 74
     0
 42
0.000000001
 43
0.00000001
 40
0.2031249999999991
 40
0.2031249999999991
 40
0.2031249999999991
 40
0.2031249999999991
 40
0.218749999999999
 40
0.218749999999999
 40
0.218749999999999
 40
0.218749999999999
 10
45.43133374644559
 20
9.378552909421947
 30
0.0
 10
45.70447866084806
 20
9.303013883981894
 30
0.0
 10
45.98211627159185
 20
9.237242017394586
 30
0.0
 10
46.26463522014389
 20
9.183084133239635
 30
0.0
  0
SPLINE
  5
212
330
1F
100
AcDbEntity
  8
SK3
  6
SLD-Dashed
370
    18
100
AcDbSpline
210
0.0
220
0.0
230
1.0
 70
     8
 71
     3
 72
     8
 73
     4
 74
     0
 42
0.000000001
 43
0.00000001
 40
0.218749999999999
 40
0.218749999999999
 40
0.218749999999999
 40
0.218749999999999
 40
0.2343749999999989
 40
0.2343749999999989
 40
0.2343749999999989
 40
0.2343749999999989
 10
46.26463522014389
 20
9.183084133239635
 30
0.0
 10
46.54715416869595
 20
9.128926249084707
 30
0.0
 10
46.83455432594627
 20
9.086386766345585
 30
0.0
 10
47.12734866126085
 20
9.057368710941379
 30
0.0
  0
SPLINE
  5
213
330
1F
100
AcDbEntity
  8
SK3
  6
SLD-Dashed
370
    18
100
AcDbSpline
210
0.0
220
0.0
230
1.0
 70
     8
 71
     3
 72
     8
 73
     4
 74
     0
 42
0.000000001
 43
0.00000001
 40
0.2343749999999989
 40
0.2343749999999989
 40
0.2343749999999989
 40
0.2343749999999989
 40
0.2499999999999988
 40
0.2499999999999988
 40
0.2499999999999988
 40
0.2499999999999988
 10
47.12734866126085
 20
9.057368710941379
 30
0.0
 10
47.42014299657543
 20
9.028350655537185
 30
0.0
 10
47.71844368270704
 20
9.013192205535578
 30
0.0
 10
48.01254102548317
 20
9.01278565517042
 30
0.0
  0
SPLINE
  5
214
330
1F
100
AcDbEntity
  8
SK3
  6
SLD-Dashed
370
    18
100
AcDbSpline
210
0.0
220
0.0
230
1.0
 70
     8
 71
     3
 72
     8
 73
     4
 74
     0
 42
0.000000001
 43
0.00000001
 40
0.2499999999999988
 40
0.2499999999999988
 40
0.2499999999999988
 40
0.2499999999999988
 40
0.2812499999999987
 40
0.2812499999999987
 40
0.2812499999999987
 40
0.2812499999999987
 10
48.01254102548316
 20
9.012785655170418
 30
0.0
 10
48.60073572392366
 20
9.011981931809304
 30
0.0
 10
49.18360275494209
 20
9.069542359832369
 30
0.0
 10
49.75624539107929
 20
9.177574842984278
 30
0.0
  0
SPLINE
  5
215
330
1F
100
AcDbEntity
  8
SK3
  6
SLD-Dashed
370
    18
100
AcDbSpline
210
0.0
220
0.0
230
1.0
 70
     8
 71
     3
 72
     8
 73
     4
 74
     0
 42
0.000000001
 43
0.00000001
 40
0.2812499999999987
 40
0.2812499999999987
 40
0.2812499999999987
 40
0.2812499999999987
 40
0.3124999999999985
 40
0.3124999999999985
 40
0.3124999999999985
 40
0.3124999999999985
 10
49.7562453910793
 20
9.177574842984278
 30
0.0
 10
50.32889176298547
 20
9.285587522243882
 30
0.0
 10
50.87151355114914
 20
9.43909570958548
 30
0.0
 10
51.3904982368482
 20
9.62063611465203
 30
0.0
  0
SPLINE
  5
216
330
1F
100
AcDbEntity
  8
SK3
  6
SLD-Dashed
370
    18
100
AcDbSpline
210
0.0
220
0.0
230
1.0
 70
     8
 71
     3
 72
     8
 73
     4
 74
     0
 42
0.000000001
 43
0.00000001
 40
0.3124999999999985
 40
0.3124999999999985
 40
0.3124999999999985
 40
0.3124999999999985
 40
0.3281249999999983
 40
0.3281249999999983
 40
0.3281249999999983
 40
0.3281249999999983
 10
51.39049823684819
 20
9.620636114652026
 30
0.0
 10
51.64998888764208
 20
9.711411154261086
 30
0.0
 10
51.9034546046391
 20
9.80935954230662
 30
0.0
 10
52.14668819905396
 20
9.910517868197772
 30
0.0
  0
SPLINE
  5
217
330
1F
100
AcDbEntity
  8
SK3
  6
SLD-Dashed
370
    18
100
AcDbSpline
210
0.0
220
0.0
230
1.0
 70
     8
 71
     3
 72
     8
 73
     4
 74
     0
 42
0.000000001
 43
0.00000001
 40
0.3281249999999983
 40
0.3281249999999983
 40
0.3281249999999983
 40
0.3281249999999983
 40
0.3437499999999981
 40
0.3437499999999981
 40
0.3437499999999981
 40
0.3437499999999981
 10
52.14668819905396
 20
9.910517868197772
 30
0.0
 10
52.38992179346884
 20
10.01167619408892
 30
0.0
 10
52.62430386697081
 20
10.11651147563712
 30
0.0
 10
52.85070233105528
 20
10.22337733805378
 30
0.0
  0
SPLINE
  5
218
330
1F
100
AcDbEntity
  8
SK3
  6
SLD-Dashed
370
    18
100
AcDbSpline
210
0.0
220
0.0
230
1.0
 70
     8
 71
     3
 72
     8
 73
     4
 74
     0
 42
0.000000001
 43
0.00000001
 40
0.3437499999999981
 40
0.3437499999999981
 40
0.3437499999999981
 40
0.3437499999999981
 40
0.3749999999999979
 40
0.3749999999999979
 40
0.3749999999999979
 40
0.3749999999999979
 10
52.85070233105528
 20
10.22337733805378
 30
0.0
 10
53.3034992592242
 20
10.43710906288707
 30
0.0
 10
53.72469285657461
 20
10.65885403884614
 30
0.0
 10
54.11646559821604
 20
10.87823407521127
 30
0.0
  0
SPLINE
  5
219
330
1F
100
AcDbEntity
  8
SK3
  6
SLD-Dashed
370
    18
100
AcDbSpline
210
0.0
220
0.0
230
1.0
 70
     8
 71
     3
 72
     8
 73
     4
 74
     0
 42
0.000000001
 43
0.00000001
 40
0.3749999999999979
 40
0.3749999999999979
 40
0.3749999999999979
 40
0.3749999999999979
 40
0.4062499999999978
 40
0.4062499999999978
 40
0.4062499999999978
 40
0.4062499999999978
 10
54.11646559821604
 20
10.87823407521127
 30
0.0
 10
54.50823833985745
 20
11.09761411157639
 30
0.0
 10
54.85974034774066
 20
11.30858305292898
 30
0.0
 10
55.17140230053307
 20
11.50222039841899
 30
0.0
  0
SPLINE
  5
21A
330
1F
100
AcDbEntity
  8
SK3
  6
SLD-Dashed
370
    18
100
AcDbSpline
210
0.0
220
0.0
230
1.0
 70
     8
 71
     3
 72
     8
 73
     4
 74
     0
 42
0.000000001
 43
0.00000001
 40
0.4062499999999978
 40
0.4062499999999978
 40
0.4062499999999978
 40
0.4062499999999978
 40
0.4218749999999977
 40
0.4218749999999977
 40
0.4218749999999977
 40
0.4218749999999977
 10
55.17140230053307
 20
11.50222039841899
 30
0.0
 10
55.32723327692923
 20
11.59903907116398
 30
0.0
 10
55.47312035843174
 20
11.69160986580908
 30
0.0
 10
55.60868335808614
 20
11.77889023331708
 30
0.0
  0
SPLINE
  5
21B
330
1F
100
AcDbEntity
  8
SK3
  6
SLD-Dashed
370
    18
100
AcDbSpline
210
0.0
220
0.0
230
1.0
 70
     8
 71
     3
 72
     8
 73
     4
 74
     0
 42
0.000000001
 43
0.00000001
 40
0.4218749999999977
 40
0.4218749999999977
 40
0.4218749999999977
 40
0.4218749999999977
 40
0.4374999999999977
 40
0.4374999999999977
 40
0.4374999999999977
 40
0.4374999999999977
 10
55.60868335808614
 20
11.77889023331708
 30
0.0
 10
55.74424635774053
 20
11.8661706008251
 30
0.0
 10
55.87010872404274
 20
11.94857880427203
 30
0.0
 10
55.98325493338166
 20
12.02346946247094
 30
0.0
  0
SPLINE
  5
21C
330
1F
100
AcDbEntity
  8
SK3
  6
SLD-Dashed
370
    18
100
AcDbSpline
210
0.0
220
0.0
230
1.0
 70
     8
 71
     3
 72
     8
 73
     4
 74
     0
 42
0.000000001
 43
0.00000001
 40
0.4374999999999977
 40
0.4374999999999977
 40
0.4374999999999977
 40
0.4374999999999977
 40
0.4687499999999976
 40
0.4687499999999976
 40
0.4687499999999976
 40
0.4687499999999976
 10
55.98325493338166
 20
12.02346946247094
 30
0.0
 10
56.20954735205957
 20
12.17325077886876
 30
0.0
 10
56.38369030799578
 20
12.29187250524967
 30
0.0
 10
56.50309651939753
 20
12.37368616058678
 30
0.0
  0
SPLINE
  5
21D
330
1F
100
AcDbEntity
  8
SK3
  6
SLD-Dashed
370
    18
100
AcDbSpline
210
0.0
220
0.0
230
1.0
 70
     8
 71
     3
 72
     8
 73
     4
 74
     0
 42
0.000000001
 43
0.00000001
 40
0.4687499999999976
 40
0.4687499999999976
 40
0.4687499999999976
 40
0.4687499999999976
 40
0.4843749999999976
 40
0.4843749999999976
 40
0.4843749999999976
 40
0.4843749999999976
 10
56.50309651939753
 20
12.37368616058678
 30
0.0
 10
56.56279962509839
 20
12.41459298825535
 30
0.0
 10
56.60886808602481
 20
12.44637646556816
 30
0.0
 10
56.63952705022246
 20
12.46756054246496
 30
0.0
  0
SPLINE
  5
21E
330
1F
100
AcDbEntity
  8
SK3
  6
SLD-Dashed
370
    18
100
AcDbSpline
210
0.0
220
0.0
230
1.0
 70
     8
 71
     3
 72
     8
 73
     4
 74
     0
 42
0.000000001
 43
0.00000001
 40
0.4843749999999976
 40
0.4843749999999976
 40
0.4843749999999976
 40
0.4843749999999976
 40
0.4999999999999976
 40
0.4999999999999976
 40
0.4999999999999976
 40
0.4999999999999976
 10
56.63952705022246
 20
12.46756054246496
 30
0.0
 10
56.67018601442015
 20
12.48874461936177
 30
0.0
 10
56.68569931092007
 20
12.49950791803148
 30
0.0
 10
56.68638211489371
 20
12.49998104043062
 30
0.0
  0
SPLINE
  5
21F
330
1F
100
AcDbEntity
  8
SK3
  6
SLD-Dashed
370
    18
100
AcDbSpline
210
0.0
220
0.0
230
1.0
 70
     8
 71
     3
 72
     8
 73
     4
 74
     0
 42
0.000000001
 43
0.00000001
 40
0.5156249999999976
 40
0.5156249999999976
 40
0.5156249999999976
 40
0.5156249999999976
 40
0.5312499999999976
 40
0.5312499999999976
 40
0.5312499999999976
 40
0.5312499999999976
 10
56.64379129211469
 20
12.47050720078236
 30
0.0
 10
56.61466535391468
 20
12.45037729260639
 30
0.0
 10
56.57007382747753
 20
12.41959964561794
 30
0.0
 10
56.51149304922556
 20
12.37944072879652
 30
0.0
  0
SPLINE
  5
220
330
1F
100
AcDbEntity
  8
SK3
  6
SLD-Dashed
370
    18
100
AcDbSpline
210
0.0
220
0.0
230
1.0
 70
     8
 71
     3
 72
     8
 73
     4
 74
     0
 42
0.000000001
 43
0.00000001
 40
0.5312499999999976
 40
0.5312499999999976
 40
0.5312499999999976
 40
0.5312499999999976
 40
0.5624999999999976
 40
0.5624999999999976
 40
0.5624999999999976
 40
0.5624999999999976
 10
56.51149304922557
 20
12.37944072879653
 30
0.0
 10
56.39433149272167
 20
12.29912289515372
 30
0.0
 10
56.22214577485342
 20
12.18175136270366
 30
0.0
 10
55.99823310501532
 20
12.03338864391971
 30
0.0
  0
SPLINE
  5
221
330
1F
100
AcDbEntity
  8
SK3
  6
SLD-Dashed
370
    18
100
AcDbSpline
210
0.0
220
0.0
230
1.0
 70
     8
 71
     3
 72
     8
 73
     4
 74
     0
 42
0.000000001
 43
0.00000001
 40
0.5624999999999976
 40
0.5624999999999976
 40
0.5624999999999976
 40
0.5624999999999976
 40
0.5781249999999974
 40
0.5781249999999974
 40
0.5781249999999974
 40
0.5781249999999974
 10
55.99823310501534
 20
12.03338864391971
 30
0.0
 10
55.88627677009625
 20
11.95920728452773
 30
0.0
 10
55.76121136536601
 20
11.87721746439689
 30
0.0
 10
55.62607708425561
 20
11.79009645583846
 30
0.0
  0
SPLINE
  5
222
330
1F
100
AcDbEntity
  8
SK3
  6
SLD-Dashed
370
    18
100
AcDbSpline
210
0.0
220
0.0
230
1.0
 70
     8
 71
     3
 72
     8
 73
     4
 74
     0
 42
0.000000001
 43
0.00000001
 40
0.5781249999999974
 40
0.5781249999999974
 40
0.5781249999999974
 40
0.5781249999999974
 40
0.5937499999999974
 40
0.5937499999999974
 40
0.5937499999999974
 40
0.5937499999999974
 10
55.6260770842556
 20
11.79009645583845
 30
0.0
 10
55.4909428031452
 20
11.70297544728002
 30
0.0
 10
55.34515932494907
 20
11.61033173444073
 30
0.0
 10
55.18904462338829
 20
11.51318997330712
 30
0.0
  0
SPLINE
  5
223
330
1F
100
AcDbEntity
  8
SK3
  6
SLD-Dashed
370
    18
100
AcDbSpline
210
0.0
220
0.0
230
1.0
 70
     8
 71
     3
 72
     8
 73
     4
 74
     0
 42
0.000000001
 43
0.00000001
 40
0.5937499999999974
 40
0.5937499999999974
 40
0.5937499999999974
 40
0.5937499999999974
 40
0.6093749999999973
 40
0.6093749999999973
 40
0.6093749999999973
 40
0.6093749999999973
 10
55.18904462338829
 20
11.51318997330712
 30
0.0
 10
55.03292992182751
 20
11.41604821217351
 30
0.0
 10
54.86648327311833
 20
11.31440143456087
 30
0.0
 10
54.68960475526089
 20
11.20923600362191
 30
0.0
  0
SPLINE
  5
224
330
1F
100
AcDbEntity
  8
SK3
  6
SLD-Dashed
370
    18
100
AcDbSpline
210
0.0
220
0.0
230
1.0
 70
     8
 71
     3
 72
     8
 73
     4
 74
     0
 42
0.000000001
 43
0.00000001
 40
0.6093749999999973
 40
0.6093749999999973
 40
0.6093749999999973
 40
0.6093749999999973
 40
0.6249999999999973
 40
0.6249999999999973
 40
0.6249999999999973
 40
0.6249999999999973
 10
54.68960475526091
 20
11.20923600362192
 30
0.0
 10
54.51272623740348
 20
11.10407057268294
 30
0.0
 10
54.3258431578062
 20
10.99567199057144
 30
0.0
 10
54.13166220719292
 20
10.8867509642241
 30
0.0
  0
SPLINE
  5
225
330
1F
100
AcDbEntity
  8
SK3
  6
SLD-Dashed
370
    18
100
AcDbSpline
210
0.0
220
0.0
230
1.0
 70
     8
 71
     3
 72
     8
 73
     4
 74
     0
 42
0.000000001
 43
0.00000001
 40
0.6249999999999973
 40
0.6249999999999973
 40
0.6249999999999973
 40
0.6249999999999973
 40
0.6562499999999976
 40
0.6562499999999976
 40
0.6562499999999976
 40
0.6562499999999976
 10
54.13166220719292
 20
10.8867509642241
 30
0.0
 10
53.74330030596634
 20
10.66890891152939
 30
0.0
 10
53.32326370289493
 20
10.44705137410897
 30
0.0
 10
52.86810648101173
 20
10.23160404603373
 30
0.0
  0
SPLINE
  5
226
330
1F
100
AcDbEntity
  8
SK3
  6
SLD-Dashed
370
    18
100
AcDbSpline
210
0.0
220
0.0
230
1.0
 70
     8
 71
     3
 72
     8
 73
     4
 74
     0
 42
0.000000001
 43
0.00000001
 40
0.6562499999999976
 40
0.6562499999999976
 40
0.6562499999999976
 40
0.6562499999999976
 40
0.6718749999999978
 40
0.6718749999999978
 40
0.6718749999999978
 40
0.6718749999999978
 10
52.86810648101173
 20
10.23160404603373
 30
0.0
 10
52.64052787007013
 20
10.12388038199612
 30
0.0
 10
52.40286171964841
 20
10.01730922556553
 30
0.0
 10
52.15874294316276
 20
9.915537371381268
 30
0.0
  0
SPLINE
  5
227
330
1F
100
AcDbEntity
  8
SK3
  6
SLD-Dashed
370
    18
100
AcDbSpline
210
0.0
220
0.0
230
1.0
 70
     8
 71
     3
 72
     8
 73
     4
 74
     0
 42
0.000000001
 43
0.00000001
 40
0.6718749999999978
 40
0.6718749999999978
 40
0.6718749999999978
 40
0.6718749999999978
 40
0.6874999999999981
 40
0.6874999999999981
 40
0.6874999999999981
 40
0.6874999999999981
 10
52.15874294316276
 20
9.915537371381268
 30
0.0
 10
51.91462416667712
 20
9.81376551719699
 30
0.0
 10
51.66422590724183
 20
9.716789928952558
 30
0.0
 10
51.40696164570974
 20
9.626407700963318
 30
0.0
  0
SPLINE
  5
228
330
1F
100
AcDbEntity
  8
SK3
  6
SLD-Dashed
370
    18
100
AcDbSpline
210
0.0
220
0.0
230
1.0
 70
     8
 71
     3
 72
     8
 73
     4
 74
     0
 42
0.000000001
 43
0.00000001
 40
0.6874999999999981
 40
0.6874999999999981
 40
0.6874999999999981
 40
0.6874999999999981
 40
0.7031249999999983
 40
0.7031249999999983
 40
0.7031249999999983
 40
0.7031249999999983
 10
51.40696164570974
 20
9.626407700963318
 30
0.0
 10
51.14969738417766
 20
9.53602547297408
 30
0.0
 10
50.8855716856182
 20
9.452229386855581
 30
0.0
 10
50.61366781698322
 20
9.377167588503447
 30
0.0
  0
SPLINE
  5
229
330
1F
100
AcDbEntity
  8
SK3
  6
SLD-Dashed
370
    18
100
AcDbSpline
210
0.0
220
0.0
230
1.0
 70
     8
 71
     3
 72
     8
 73
     4
 74
     0
 42
0.000000001
 43
0.00000001
 40
0.7031249999999983
 40
0.7031249999999983
 40
0.7031249999999983
 40
0.7031249999999983
 40
0.7187499999999987
 40
0.7187499999999987
 40
0.7187499999999987
 40
0.7187499999999987
 10
50.61366781698322
 20
9.377167588503447
 30
0.0
 10
50.34176394834826
 20
9.302105790151325
 30
0.0
 10
50.06006685099108
 20
9.235427785893203
 30
0.0
 10
49.77475057637701
 20
9.181051600479954
 30
0.0
  0
SPLINE
  5
22A
330
1F
100
AcDbEntity
  8
SK3
  6
SLD-Dashed
370
    18
100
AcDbSpline
210
0.0
220
0.0
230
1.0
 70
     8
 71
     3
 72
     8
 73
     4
 74
     0
 42
0.000000001
 43
0.00000001
 40
0.7187499999999987
 40
0.7187499999999987
 40
0.7187499999999987
 40
0.7187499999999987
 40
0.749999999999999
 40
0.749999999999999
 40
0.749999999999999
 40
0.749999999999999
 10
49.77475057637701
 20
9.181051600479954
 30
0.0
 10
49.20411802714887
 20
9.072299229653476
 30
0.0
 10
48.62241867485585
 20
9.012993848860464
 30
0.0
 10
48.02832584673443
 20
9.012774991180459
 30
0.0
  0
SPLINE
  5
22B
330
1F
100
AcDbEntity
  8
SK3
  6
SLD-Dashed
370
    18
100
AcDbSpline
210
0.0
220
0.0
230
1.0
 70
     8
 71
     3
 72
     8
 73
     4
 74
     0
 42
0.000000001
 43
0.00000001
 40
0.749999999999999
 40
0.749999999999999
 40
0.749999999999999
 40
0.749999999999999
 40
0.7656249999999991
 40
0.7656249999999991
 40
0.7656249999999991
 40
0.7656249999999991
 10
48.02832584673443
 20
9.012774991180459
 30
0.0
 10
47.73127943267373
 20
9.012665562340448
 30
0.0
 10
47.43384186787019
 20
9.027478426697918
 30
0.0
 10
47.14226407831934
 20
9.05590053164737
 30
0.0
  0
SPLINE
  5
22C
330
1F
100
AcDbEntity
  8
SK3
  6
SLD-Dashed
370
    18
100
AcDbSpline
210
0.0
220
0.0
230
1.0
 70
     8
 71
     3
 72
     8
 73
     4
 74
     0
 42
0.000000001
 43
0.00000001
 40
0.7656249999999991
 40
0.7656249999999991
 40
0.7656249999999991
 40
0.7656249999999991
 40
0.7812499999999991
 40
0.7812499999999991
 40
0.7812499999999991
 40
0.7812499999999991
 10
47.14226407831934
 20
9.05590053164737
 30
0.0
 10
46.8506862887685
 20
9.084322636596843
 30
0.0
 10
46.56301950449847
 20
9.126321900891403
 30
0.0
 10
46.2789922295519
 20
9.180341166178003
 30
0.0
  0
SPLINE
  5
22D
330
1F
100
AcDbEntity
  8
SK3
  6
SLD-Dashed
370
    18
100
AcDbSpline
210
0.0
220
0.0
230
1.0
 70
     8
 71
     3
 72
     8
 73
     4
 74
     0
 42
0.000000001
 43
0.00000001
 40
0.7812499999999991
 40
0.7812499999999991
 40
0.7812499999999991
 40
0.7812499999999991
 40
0.7968749999999992
 40
0.7968749999999992
 40
0.7968749999999992
 40
0.7968749999999992
 10
46.2789922295519
 20
9.180341166178003
 30
0.0
 10
45.99496495460532
 20
9.234360431464598
 30
0.0
 10
45.71281361433444
 20
9.300934975083857
 30
0.0
 10
45.43965833305082
 20
9.3762530223244
 30
0.0
  0
SPLINE
  5
22E
330
1F
100
AcDbEntity
  8
SK3
  6
SLD-Dashed
370
    18
100
AcDbSpline
210
0.0
220
0.0
230
1.0
 70
     8
 71
     3
 72
     8
 73
     4
 74
     0
 42
0.000000001
 43
0.00000001
 40
0.7968749999999992
 40
0.7968749999999992
 40
0.7968749999999992
 40
0.7968749999999992
 40
0.8124999999999992
 40
0.8124999999999992
 40
0.8124999999999992
 40
0.8124999999999992
 10
45.4396583330508
 20
9.376253022324406
 30
0.0
 10
45.16650305176717
 20
9.451571069564961
 30
0.0
 10
44.90191877260023
 20
9.535502527909841
 30
0.0
 10
44.6447898120539
 20
9.625796473158061
 30
0.0
  0
SPLINE
  5
22F
330
1F
100
AcDbEntity
  8
SK3
  6
SLD-Dashed
370
    18
100
AcDbSpline
210
0.0
220
0.0
230
1.0
 70
     8
 71
     3
 72
     8
 73
     4
 74
     0
 42
0.000000001
 43
0.00000001
 40
0.8124999999999992
 40
0.8124999999999992
 40
0.8124999999999992
 40
0.8124999999999992
 40
0.8437499999999993
 40
0.8437499999999993
 40
0.8437499999999993
 40
0.8437499999999993
 10
44.6447898120539
 20
9.625796473158061
 30
0.0
 10
44.13053189096125
 20
9.806384363654486
 30
0.0
 10
43.64420259569685
 20
10.01293153233937
 30
0.0
 10
43.18633979709723
 20
10.22950549142795
 30
0.0
  0
SPLINE
  5
230
330
1F
100
AcDbEntity
  8
SK3
  6
SLD-Dashed
370
    18
100
AcDbSpline
210
0.0
220
0.0
230
1.0
 70
     8
 71
     3
 72
     8
 73
     4
 74
     0
 42
0.000000001
 43
0.00000001
 40
0.8437499999999993
 40
0.8437499999999993
 40
0.8437499999999993
 40
0.8437499999999993
 40
0.8749999999999994
 40
0.8749999999999994
 40
0.8749999999999994
 40
0.8749999999999994
 10
43.18633979709724
 20
10.22950549142794
 30
0.0
 10
42.72849367508298
 20
10.44611470326641
 30
0.0
 10
42.30779142235507
 20
10.66842847813727
 30
0.0
 10
41.9199945868877
 20
10.88595387894334
 30
0.0
  0
SPLINE
  5
231
330
1F
100
AcDbEntity
  8
SK3
  6
SLD-Dashed
370
    18
100
AcDbSpline
210
0.0
220
0.0
230
1.0
 70
     8
 71
     3
 72
     8
 73
     4
 74
     0
 42
0.000000001
 43
0.00000001
 40
0.8749999999999994
 40
0.8749999999999994
 40
0.8749999999999994
 40
0.8749999999999994
 40
0.9062499999999996
 40
0.9062499999999996
 40
0.9062499999999996
 40
0.9062499999999996
 10
41.91999458688768
 20
10.88595387894334
 30
0.0
 10
41.53216149027728
 20
11.10341462199349
 30
0.0
 10
41.17460825871783
 20
11.31809928393099
 30
0.0
 10
40.86298201502039
 20
11.51193518298165
 30
0.0
  0
SPLINE
  5
232
330
1F
100
AcDbEntity
  8
SK3
  6
SLD-Dashed
370
    18
100
AcDbSpline
210
0.0
220
0.0
230
1.0
 70
     8
 71
     3
 72
     8
 73
     4
 74
     0
 42
0.000000001
 43
0.00000001
 40
0.9062499999999996
 40
0.9062499999999996
 40
0.9062499999999996
 40
0.9062499999999996
 40
0.9374999999999997
 40
0.9374999999999997
 40
0.9374999999999997
 40
0.9374999999999997
 10
40.86298201502039
 20
11.51193518298165
 30
0.0
 10
40.55137316502151
 20
11.70579904274956
 30
0.0
 10
40.28295672478932
 20
11.88029807105364
 30
0.0
 10
40.06003707416257
 20
12.02791687907611
 30
0.0
  0
SPLINE
  5
233
330
1F
100
AcDbEntity
  8
SK3
  6
SLD-Dashed
370
    18
100
AcDbSpline
210
0.0
220
0.0
230
1.0
 70
     8
 71
     3
 72
     8
 73
     4
 74
     0
 42
0.000000001
 43
0.00000001
 40
0.9374999999999997
 40
0.9374999999999997
 40
0.9374999999999997
 40
0.9374999999999997
 40
0.9687499999999998
 40
0.9687499999999998
 40
0.9687499999999998
 40
0.9687499999999998
 10
40.06003707416257
 20
12.02791687907611
 30
0.0
 10
39.83711742353582
 20
12.17553568709858
 30
0.0
 10
39.65943178295792
 20
12.29656726389972
 30
0.0
 10
39.54197690929328
 20
12.37706874819168
 30
0.0
  0
SPLINE
  5
234
330
1F
100
AcDbEntity
  8
SK3
  6
SLD-Dashed
370
    18
100
AcDbSpline
210
0.0
220
0.0
230
1.0
 70
     8
 71
     2
 72
     6
 73
     3
 74
     0
 42
0.000000001
 43
0.00000001
 40
0.9687499999999998
 40
0.9687499999999998
 40
0.9687499999999998
 40
1.0
 40
1.0
 40
1.0
 10
39.54197690929328
 20
12.37706874819168
 30
0.0
 10
39.42452203562866
 20
12.45757023248363
 30
0.0
 10
39.3636
 20
12.49999999999999
 30
0.0
  0
SPLINE
  5
235
330
1F
100
AcDbEntity
  8
SK3
  6
SLD-Dashed
370
    18
100
AcDbSpline
210
0.0
220
0.0
230
1.0
 70
     8
 71
     2
 72
     6
 73
     3
 74
     0
 42
0.000000001
 43
0.00000001
 40
0.0
 40
0.0
 40
0.0
 40
0.0312499999999996
 40
0.0312499999999996
 40
0.0312499999999996
 10
64.36359999999999
 20
12.49999999999999
 30
0.0
 10
64.42415607403795
 20
12.45782518631829
 30
0.0
 10
64.54115573157557
 20
12.37763158325847
 30
0.0
  0
SPLINE
  5
236
330
1F
100
AcDbEntity
  8
SK3
  6
SLD-Dashed
370
    18
100
AcDbSpline
210
0.0
220
0.0
230
1.0
 70
     8
 71
     3
 72
     8
 73
     4
 74
     0
 42
0.000000001
 43
0.00000001
 40
0.0312499999999996
 40
0.0312499999999996
 40
0.0312499999999996
 40
0.0312499999999996
 40
0.0624999999999992
 40
0.0624999999999992
 40
0.0624999999999992
 40
0.0624999999999992
 10
64.54115573157557
 20
12.37763158325847
 30
0.0
 10
64.65815538911323
 20
12.29743798019865
 30
0.0
 10
64.83459031808836
 20
12.17723616786363
 30
0.0
 10
65.05745475607871
 20
12.02962706213009
 30
0.0
  0
SPLINE
  5
237
330
1F
100
AcDbEntity
  8
SK3
  6
SLD-Dashed
370
    18
100
AcDbSpline
210
0.0
220
0.0
230
1.0
 70
     8
 71
     3
 72
     8
 73
     4
 74
     0
 42
0.000000001
 43
0.00000001
 40
0.0624999999999992
 40
0.0624999999999992
 40
0.0624999999999992
 40
0.0624999999999992
 40
0.0937499999999988
 40
0.0937499999999988
 40
0.0937499999999988
 40
0.0937499999999988
 10
65.05745475607871
 20
12.02962706213009
 30
0.0
 10
65.28031919406904
 20
11.88201795639655
 30
0.0
 10
65.55138488908169
 20
11.70574214951664
 30
0.0
 10
65.86595666871011
 20
11.51008477202856
 30
0.0
  0
SPLINE
  5
238
330
1F
100
AcDbEntity
  8
SK3
  6
SLD-Dashed
370
    18
100
AcDbSpline
210
0.0
220
0.0
230
1.0
 70
     8
 71
     3
 72
     8
 73
     4
 74
     0
 42
0.000000001
 43
0.00000001
 40
0.0937499999999988
 40
0.0937499999999988
 40
0.0937499999999988
 40
0.0937499999999988
 40
0.1249999999999984
 40
0.1249999999999984
 40
0.1249999999999984
 40
0.1249999999999984
 10
65.86595666871011
 20
11.51008477202856
 30
0.0
 10
66.18052844833849
 20
11.31442739454036
 30
0.0
 10
66.53174706297017
 20
11.10358762745655
 30
0.0
 10
66.9190706995136
 20
10.88634569828319
 30
0.0
  0
SPLINE
  5
239
330
1F
100
AcDbEntity
  8
SK3
  6
SLD-Dashed
370
    18
100
AcDbSpline
210
0.0
220
0.0
230
1.0
 70
     8
 71
     3
 72
     8
 73
     4
 74
     0
 42
0.000000001
 43
0.00000001
 40
0.1249999999999984
 40
0.1249999999999984
 40
0.1249999999999984
 40
0.1249999999999984
 40
0.1562499999999981
 40
0.1562499999999981
 40
0.1562499999999981
 40
0.1562499999999981
 10
66.9190706995136
 20
10.88634569828319
 30
0.0
 10
67.30639433605718
 20
10.66910376911002
 30
0.0
 10
67.73356519758428
 20
10.44367248487482
 30
0.0
 10
68.18633979709732
 20
10.22950549142795
 30
0.0
  0
SPLINE
  5
23A
330
1F
100
AcDbEntity
  8
SK3
  6
SLD-Dashed
370
    18
100
AcDbSpline
210
0.0
220
0.0
230
1.0
 70
     8
 71
     3
 72
     8
 73
     4
 74
     0
 42
0.000000001
 43
0.00000001
 40
0.1562499999999981
 40
0.1562499999999981
 40
0.1562499999999981
 40
0.1562499999999981
 40
0.1874999999999977
 40
0.1874999999999977
 40
0.1874999999999977
 40
0.1874999999999977
 10
68.18633979709733
 20
10.22950549142795
 30
0.0
 10
68.63911439661024
 20
10.01533849798096
 30
0.0
 10
69.1195156632218
 20
9.810775927929392
 30
0.0
 10
69.63374179991932
 20
9.629682352996602
 30
0.0
  0
SPLINE
  5
23B
330
1F
100
AcDbEntity
  8
SK3
  6
SLD-Dashed
370
    18
100
AcDbSpline
210
0.0
220
0.0
230
1.0
 70
     8
 71
     3
 72
     8
 73
     4
 74
     0
 42
0.000000001
 43
0.00000001
 40
0.1874999999999977
 40
0.1874999999999977
 40
0.1874999999999977
 40
0.1874999999999977
 40
0.2031249999999975
 40
0.2031249999999975
 40
0.2031249999999975
 40
0.2031249999999975
 10
69.63374179991929
 20
9.629682352996612
 30
0.0
 10
69.89085486826804
 20
9.539135565530216
 30
0.0
 10
70.15818883204314
 20
9.454091934861998
 30
0.0
 10
70.43133374644562
 20
9.378552909421947
 30
0.0
  0
SPLINE
  5
23C
330
1F
100
AcDbEntity
  8
SK3
  6
SLD-Dashed
370
    18
100
AcDbSpline
210
0.0
220
0.0
230
1.0
 70
     8
 71
     3
 72
     8
 73
     4
 74
     0
 42
0.000000001
 43
0.00000001
 40
0.2031249999999975
 40
0.2031249999999975
 40
0.2031249999999975
 40
0.2031249999999975
 40
0.2187499999999973
 40
0.2187499999999973
 40
0.2187499999999973
 40
0.2187499999999973
 10
70.43133374644562
 20
9.378552909421947
 30
0.0
 10
70.70447866084805
 20
9.30301388398188
 30
0.0
 10
70.98211627159182
 20
9.237242017394586
 30
0.0
 10
71.26463522014387
 20
9.183084133239635
 30
0.0
  0
SPLINE
  5
23D
330
1F
100
AcDbEntity
  8
SK3
  6
SLD-Dashed
370
    18
100
AcDbSpline
210
0.0
220
0.0
230
1.0
 70
     8
 71
     3
 72
     8
 73
     4
 74
     0
 42
0.000000001
 43
0.00000001
 40
0.2187499999999973
 40
0.2187499999999973
 40
0.2187499999999973
 40
0.2187499999999973
 40
0.2343749999999971
 40
0.2343749999999971
 40
0.2343749999999971
 40
0.2343749999999971
 10
71.2646352201439
 20
9.183084133239628
 30
0.0
 10
71.54715416869598
 20
9.1289262490847
 30
0.0
 10
71.83455432594631
 20
9.086386766345582
 30
0.0
 10
72.12734866126088
 20
9.057368710941375
 30
0.0
  0
SPLINE
  5
23E
330
1F
100
AcDbEntity
  8
SK3
  6
SLD-Dashed
370
    18
100
AcDbSpline
210
0.0
220
0.0
230
1.0
 70
     8
 71
     3
 72
     8
 73
     4
 74
     0
 42
0.000000001
 43
0.00000001
 40
0.2343749999999971
 40
0.2343749999999971
 40
0.2343749999999971
 40
0.2343749999999971
 40
0.2499999999999969
 40
0.2499999999999969
 40
0.2499999999999969
 40
0.2499999999999969
 10
72.12734866126085
 20
9.057368710941379
 30
0.0
 10
72.42014299657542
 20
9.028350655537185
 30
0.0
 10
72.71844368270705
 20
9.013192205535578
 30
0.0
 10
73.01254102548319
 20
9.01278565517042
 30
0.0
  0
SPLINE
  5
23F
330
1F
100
AcDbEntity
  8
SK3
  6
SLD-Dashed
370
    18
100
AcDbSpline
210
0.0
220
0.0
230
1.0
 70
     8
 71
     3
 72
     8
 73
     4
 74
     0
 42
0.000000001
 43
0.00000001
 40
0.2499999999999969
 40
0.2499999999999969
 40
0.2499999999999969
 40
0.2499999999999969
 40
0.2812499999999972
 40
0.2812499999999972
 40
0.2812499999999972
 40
0.2812499999999972
 10
73.0125410254832
 20
9.01278565517042
 30
0.0
 10
73.60073572392369
 20
9.01198193180941
 30
0.0
 10
74.18360275494211
 20
9.069542359832589
 30
0.0
 10
74.7562453910793
 20
9.177574842984608
 30
0.0
  0
SPLINE
  5
240
330
1F
100
AcDbEntity
  8
SK3
  6
SLD-Dashed
370
    18
100
AcDbSpline
210
0.0
220
0.0
230
1.0
 70
     8
 71
     3
 72
     8
 73
     4
 74
     0
 42
0.000000001
 43
0.00000001
 40
0.2812499999999972
 40
0.2812499999999972
 40
0.2812499999999972
 40
0.2812499999999972
 40
0.3124999999999975
 40
0.3124999999999975
 40
0.3124999999999975
 40
0.3124999999999975
 10
74.75624539107932
 20
9.177574842984617
 30
0.0
 10
75.32889176298549
 20
9.285587522244109
 30
0.0
 10
75.87151355114916
 20
9.439095709585596
 30
0.0
 10
76.39049823684826
 20
9.62063611465203
 30
0.0
  0
SPLINE
  5
241
330
1F
100
AcDbEntity
  8
SK3
  6
SLD-Dashed
370
    18
100
AcDbSpline
210
0.0
220
0.0
230
1.0
 70
     8
 71
     3
 72
     8
 73
     4
 74
     0
 42
0.000000001
 43
0.00000001
 40
0.3124999999999975
 40
0.3124999999999975
 40
0.3124999999999975
 40
0.3124999999999975
 40
0.3281249999999977
 40
0.3281249999999977
 40
0.3281249999999977
 40
0.3281249999999977
 10
76.39049823684823
 20
9.620636114652019
 30
0.0
 10
76.64998888764212
 20
9.711411154261093
 30
0.0
 10
76.90345460463921
 20
9.809359542306627
 30
0.0
 10
77.14668819905407
 20
9.910517868197779
 30
0.0
  0
SPLINE
  5
242
330
1F
100
AcDbEntity
  8
SK3
  6
SLD-Dashed
370
    18
100
AcDbSpline
210
0.0
220
0.0
230
1.0
 70
     8
 71
     3
 72
     8
 73
     4
 74
     0
 42
0.000000001
 43
0.00000001
 40
0.3281249999999977
 40
0.3281249999999977
 40
0.3281249999999977
 40
0.3281249999999977
 40
0.3437499999999978
 40
0.3437499999999978
 40
0.3437499999999978
 40
0.3437499999999978
 10
77.1466881990541
 20
9.910517868197791
 30
0.0
 10
77.38992179346896
 20
10.01167619408894
 30
0.0
 10
77.62430386697083
 20
10.11651147563714
 30
0.0
 10
77.85070233105532
 20
10.22337733805379
 30
0.0
  0
SPLINE
  5
243
330
1F
100
AcDbEntity
  8
SK3
  6
SLD-Dashed
370
    18
100
AcDbSpline
210
0.0
220
0.0
230
1.0
 70
     8
 71
     3
 72
     8
 73
     4
 74
     0
 42
0.000000001
 43
0.00000001
 40
0.3437499999999978
 40
0.3437499999999978
 40
0.3437499999999978
 40
0.3437499999999978
 40
0.3749999999999981
 40
0.3749999999999981
 40
0.3749999999999981
 40
0.3749999999999981
 10
77.85070233105529
 20
10.22337733805377
 30
0.0
 10
78.30349925922425
 20
10.4371090628871
 30
0.0
 10
78.72469285657466
 20
10.65885403884615
 30
0.0
 10
79.11646559821608
 20
10.87823407521127
 30
0.0
  0
SPLINE
  5
244
330
1F
100
AcDbEntity
  8
SK3
  6
SLD-Dashed
370
    18
100
AcDbSpline
210
0.0
220
0.0
230
1.0
 70
     8
 71
     3
 72
     8
 73
     4
 74
     0
 42
0.000000001
 43
0.00000001
 40
0.3749999999999981
 40
0.3749999999999981
 40
0.3749999999999981
 40
0.3749999999999981
 40
0.4062499999999984
 40
0.4062499999999984
 40
0.4062499999999984
 40
0.4062499999999984
 10
79.11646559821608
 20
10.87823407521127
 30
0.0
 10
79.50823833985751
 20
11.0976141115764
 30
0.0
 10
79.85974034774082
 20
11.30858305292898
 30
0.0
 10
80.1714023005331
 20
11.50222039841898
 30
0.0
  0
SPLINE
  5
245
330
1F
100
AcDbEntity
  8
SK3
  6
SLD-Dashed
370
    18
100
AcDbSpline
210
0.0
220
0.0
230
1.0
 70
     8
 71
     3
 72
     8
 73
     4
 74
     0
 42
0.000000001
 43
0.00000001
 40
0.4062499999999984
 40
0.4062499999999984
 40
0.4062499999999984
 40
0.4062499999999984
 40
0.4218749999999986
 40
0.4218749999999986
 40
0.4218749999999986
 40
0.4218749999999986
 10
80.17140230053312
 20
11.50222039841899
 30
0.0
 10
80.32723327692926
 20
11.599039071164
 30
0.0
 10
80.47312035843179
 20
11.69160986580911
 30
0.0
 10
80.6086833580862
 20
11.77889023331712
 30
0.0
  0
SPLINE
  5
246
330
1F
100
AcDbEntity
  8
SK3
  6
SLD-Dashed
370
    18
100
AcDbSpline
210
0.0
220
0.0
230
1.0
 70
     8
 71
     3
 72
     8
 73
     4
 74
     0
 42
0.000000001
 43
0.00000001
 40
0.4218749999999986
 40
0.4218749999999986
 40
0.4218749999999986
 40
0.4218749999999986
 40
0.4374999999999987
 40
0.4374999999999987
 40
0.4374999999999987
 40
0.4374999999999987
 10
80.60868335808618
 20
11.77889023331711
 30
0.0
 10
80.74424635774058
 20
11.86617060082511
 30
0.0
 10
80.87010872404277
 20
11.94857880427204
 30
0.0
 10
80.98325493338174
 20
12.02346946247095
 30
0.0
  0
SPLINE
  5
247
330
1F
100
AcDbEntity
  8
SK3
  6
SLD-Dashed
370
    18
100
AcDbSpline
210
0.0
220
0.0
230
1.0
 70
     8
 71
     3
 72
     8
 73
     4
 74
     0
 42
0.000000001
 43
0.00000001
 40
0.4374999999999987
 40
0.4374999999999987
 40
0.4374999999999987
 40
0.4374999999999987
 40
0.4687499999999987
 40
0.4687499999999987
 40
0.4687499999999987
 40
0.4687499999999987
 10
80.98325493338174
 20
12.02346946247095
 30
0.0
 10
81.20954735205966
 20
12.17325077886879
 30
0.0
 10
81.38369030799586
 20
12.29187250524969
 30
0.0
 10
81.5030965193976
 20
12.37368616058679
 30
0.0
  0
SPLINE
  5
248
330
1F
100
AcDbEntity
  8
SK3
  6
SLD-Dashed
370
    18
100
AcDbSpline
210
0.0
220
0.0
230
1.0
 70
     8
 71
     3
 72
     8
 73
     4
 74
     0
 42
0.000000001
 43
0.00000001
 40
0.4687499999999987
 40
0.4687499999999987
 40
0.4687499999999987
 40
0.4687499999999987
 40
0.4843749999999986
 40
0.4843749999999986
 40
0.4843749999999986
 40
0.4843749999999986
 10
81.5030965193976
 20
12.37368616058679
 30
0.0
 10
81.56279962509849
 20
12.41459298825535
 30
0.0
 10
81.60886808602491
 20
12.44637646556817
 30
0.0
 10
81.63952705022257
 20
12.46756054246497
 30
0.0
  0
SPLINE
  5
249
330
1F
100
AcDbEntity
  8
SK3
  6
SLD-Dashed
370
    18
100
AcDbSpline
210
0.0
220
0.0
230
1.0
 70
     8
 71
     3
 72
     8
 73
     4
 74
     0
 42
0.000000001
 43
0.00000001
 40
0.4843749999999986
 40
0.4843749999999986
 40
0.4843749999999986
 40
0.4843749999999986
 40
0.4999999999999986
 40
0.4999999999999986
 40
0.4999999999999986
 40
0.4999999999999986
 10
81.63952705022257
 20
12.46756054246497
 30
0.0
 10
81.67018601442017
 20
12.48874461936179
 30
0.0
 10
81.68569931092016
 20
12.4995079180315
 30
0.0
 10
81.68638211489376
 20
12.49998104043063
 30
0.0
  0
SPLINE
  5
24A
330
1F
100
AcDbEntity
  8
SK3
  6
SLD-Dashed
370
    18
100
AcDbSpline
210
0.0
220
0.0
230
1.0
 70
     8
 71
     3
 72
     8
 73
     4
 74
     0
 42
0.000000001
 43
0.00000001
 40
0.5156249999999984
 40
0.5156249999999984
 40
0.5156249999999984
 40
0.5156249999999984
 40
0.5312499999999983
 40
0.5312499999999983
 40
0.5312499999999983
 40
0.5312499999999983
 10
81.64379129211474
 20
12.47050720078239
 30
0.0
 10
81.61466535391473
 20
12.45037729260641
 30
0.0
 10
81.57007382747761
 20
12.41959964561796
 30
0.0
 10
81.51149304922566
 20
12.37944072879656
 30
0.0
  0
SPLINE
  5
24B
330
1F
100
AcDbEntity
  8
SK3
  6
SLD-Dashed
370
    18
100
AcDbSpline
210
0.0
220
0.0
230
1.0
 70
     8
 71
     3
 72
     8
 73
     4
 74
     0
 42
0.000000001
 43
0.00000001
 40
0.5312499999999983
 40
0.5312499999999983
 40
0.5312499999999983
 40
0.5312499999999983
 40
0.5624999999999982
 40
0.5624999999999982
 40
0.5624999999999982
 40
0.5624999999999982
 10
81.51149304922563
 20
12.37944072879654
 30
0.0
 10
81.39433149272173
 20
12.29912289515372
 30
0.0
 10
81.22214577485346
 20
12.18175136270368
 30
0.0
 10
80.99823310501536
 20
12.03338864391971
 30
0.0
  0
SPLINE
  5
24C
330
1F
100
AcDbEntity
  8
SK3
  6
SLD-Dashed
370
    18
100
AcDbSpline
210
0.0
220
0.0
230
1.0
 70
     8
 71
     3
 72
     8
 73
     4
 74
     0
 42
0.000000001
 43
0.00000001
 40
0.5624999999999982
 40
0.5624999999999982
 40
0.5624999999999982
 40
0.5624999999999982
 40
0.5781249999999981
 40
0.5781249999999981
 40
0.5781249999999981
 40
0.5781249999999981
 10
80.99823310501536
 20
12.03338864391971
 30
0.0
 10
80.88627677009633
 20
11.95920728452773
 30
0.0
 10
80.76121136536601
 20
11.87721746439689
 30
0.0
 10
80.62607708425563
 20
11.79009645583846
 30
0.0
  0
SPLINE
  5
24D
330
1F
100
AcDbEntity
  8
SK3
  6
SLD-Dashed
370
    18
100
AcDbSpline
210
0.0
220
0.0
230
1.0
 70
     8
 71
     3
 72
     8
 73
     4
 74
     0
 42
0.000000001
 43
0.00000001
 40
0.5781249999999981
 40
0.5781249999999981
 40
0.5781249999999981
 40
0.5781249999999981
 40
0.593749999999998
 40
0.593749999999998
 40
0.593749999999998
 40
0.593749999999998
 10
80.62607708425563
 20
11.79009645583846
 30
0.0
 10
80.49094280314523
 20
11.70297544728003
 30
0.0
 10
80.3451593249491
 20
11.61033173444074
 30
0.0
 10
80.18904462338836
 20
11.51318997330713
 30
0.0
  0
SPLINE
  5
24E
330
1F
100
AcDbEntity
  8
SK3
  6
SLD-Dashed
370
    18
100
AcDbSpline
210
0.0
220
0.0
230
1.0
 70
     8
 71
     3
 72
     8
 73
     4
 74
     0
 42
0.000000001
 43
0.00000001
 40
0.593749999999998
 40
0.593749999999998
 40
0.593749999999998
 40
0.593749999999998
 40
0.6093749999999979
 40
0.6093749999999979
 40
0.6093749999999979
 40
0.6093749999999979
 10
80.18904462338837
 20
11.51318997330714
 30
0.0
 10
80.03292992182763
 20
11.41604821217352
 30
0.0
 10
79.86648327311839
 20
11.31440143456088
 30
0.0
 10
79.68960475526097
 20
11.20923600362189
 30
0.0
  0
SPLINE
  5
24F
330
1F
100
AcDbEntity
  8
SK3
  6
SLD-Dashed
370
    18
100
AcDbSpline
210
0.0
220
0.0
230
1.0
 70
     8
 71
     3
 72
     8
 73
     4
 74
     0
 42
0.000000001
 43
0.00000001
 40
0.6093749999999979
 40
0.6093749999999979
 40
0.6093749999999979
 40
0.6093749999999979
 40
0.6249999999999978
 40
0.6249999999999978
 40
0.6249999999999978
 40
0.6249999999999978
 10
79.68960475526099
 20
11.2092360036219
 30
0.0
 10
79.51272623740357
 20
11.10407057268294
 30
0.0
 10
79.32584315780633
 20
10.99567199057145
 30
0.0
 10
79.13166220719303
 20
10.8867509642241
 30
0.0
  0
SPLINE
  5
250
330
1F
100
AcDbEntity
  8
SK3
  6
SLD-Dashed
370
    18
100
AcDbSpline
210
0.0
220
0.0
230
1.0
 70
     8
 71
     3
 72
     8
 73
     4
 74
     0
 42
0.000000001
 43
0.00000001
 40
0.6249999999999978
 40
0.6249999999999978
 40
0.6249999999999978
 40
0.6249999999999978
 40
0.6562499999999977
 40
0.6562499999999977
 40
0.6562499999999977
 40
0.6562499999999977
 10
79.131662207193
 20
10.88675096422408
 30
0.0
 10
78.7433003059664
 20
10.66890891152938
 30
0.0
 10
78.32326370289493
 20
10.44705137410897
 30
0.0
 10
77.86810648101175
 20
10.23160404603373
 30
0.0
  0
SPLINE
  5
251
330
1F
100
AcDbEntity
  8
SK3
  6
SLD-Dashed
370
    18
100
AcDbSpline
210
0.0
220
0.0
230
1.0
 70
     8
 71
     3
 72
     8
 73
     4
 74
     0
 42
0.000000001
 43
0.00000001
 40
0.6562499999999977
 40
0.6562499999999977
 40
0.6562499999999977
 40
0.6562499999999977
 40
0.6718749999999973
 40
0.6718749999999973
 40
0.6718749999999973
 40
0.6718749999999973
 10
77.86810648101175
 20
10.23160404603373
 30
0.0
 10
77.64052787007017
 20
10.12388038199611
 30
0.0
 10
77.40286171964844
 20
10.01730922556553
 30
0.0
 10
77.1587429431628
 20
9.915537371381253
 30
0.0
  0
SPLINE
  5
252
330
1F
100
AcDbEntity
  8
SK3
  6
SLD-Dashed
370
    18
100
AcDbSpline
210
0.0
220
0.0
230
1.0
 70
     8
 71
     3
 72
     8
 73
     4
 74
     0
 42
0.000000001
 43
0.00000001
 40
0.6718749999999973
 40
0.6718749999999973
 40
0.6718749999999973
 40
0.6718749999999973
 40
0.687499999999997
 40
0.687499999999997
 40
0.687499999999997
 40
0.687499999999997
 10
77.1587429431628
 20
9.915537371381253
 30
0.0
 10
76.91462416667713
 20
9.813765517196975
 30
0.0
 10
76.66422590724184
 20
9.716789928952544
 30
0.0
 10
76.40696164570976
 20
9.626407700963306
 30
0.0
  0
SPLINE
  5
253
330
1F
100
AcDbEntity
  8
SK3
  6
SLD-Dashed
370
    18
100
AcDbSpline
210
0.0
220
0.0
230
1.0
 70
     8
 71
     3
 72
     8
 73
     4
 74
     0
 42
0.000000001
 43
0.00000001
 40
0.687499999999997
 40
0.687499999999997
 40
0.687499999999997
 40
0.687499999999997
 40
0.7031249999999967
 40
0.7031249999999967
 40
0.7031249999999967
 40
0.7031249999999967
 10
76.40696164570976
 20
9.626407700963306
 30
0.0
 10
76.14969738417768
 20
9.53602547297408
 30
0.0
 10
75.88557168561825
 20
9.452229386855581
 30
0.0
 10
75.61366781698328
 20
9.377167588503447
 30
0.0
  0
SPLINE
  5
254
330
1F
100
AcDbEntity
  8
SK3
  6
SLD-Dashed
370
    18
100
AcDbSpline
210
0.0
220
0.0
230
1.0
 70
     8
 71
     3
 72
     8
 73
     4
 74
     0
 42
0.000000001
 43
0.00000001
 40
0.7031249999999967
 40
0.7031249999999967
 40
0.7031249999999967
 40
0.7031249999999967
 40
0.7187499999999964
 40
0.7187499999999964
 40
0.7187499999999964
 40
0.7187499999999964
 10
75.61366781698331
 20
9.377167588503452
 30
0.0
 10
75.34176394834832
 20
9.30210579015133
 30
0.0
 10
75.06006685099115
 20
9.235427785893206
 30
0.0
 10
74.77475057637709
 20
9.181051600479957
 30
0.0
  0
SPLINE
  5
255
330
1F
100
AcDbEntity
  8
SK3
  6
SLD-Dashed
370
    18
100
AcDbSpline
210
0.0
220
0.0
230
1.0
 70
     8
 71
     3
 72
     8
 73
     4
 74
     0
 42
0.000000001
 43
0.00000001
 40
0.7187499999999964
 40
0.7187499999999964
 40
0.7187499999999964
 40
0.7187499999999964
 40
0.7499999999999957
 40
0.7499999999999957
 40
0.7499999999999957
 40
0.7499999999999957
 10
74.77475057637709
 20
9.181051600479957
 30
0.0
 10
74.20411802714897
 20
9.072299229653478
 30
0.0
 10
73.62241867485592
 20
9.012993848860464
 30
0.0
 10
73.02832584673452
 20
9.012774991180457
 30
0.0
  0
SPLINE
  5
256
330
1F
100
AcDbEntity
  8
SK3
  6
SLD-Dashed
370
    18
100
AcDbSpline
210
0.0
220
0.0
230
1.0
 70
     8
 71
     3
 72
     8
 73
     4
 74
     0
 42
0.000000001
 43
0.00000001
 40
0.7499999999999957
 40
0.7499999999999957
 40
0.7499999999999957
 40
0.7499999999999957
 40
0.7656249999999957
 40
0.7656249999999957
 40
0.7656249999999957
 40
0.7656249999999957
 10
73.02832584673449
 20
9.012774991180459
 30
0.0
 10
72.73127943267377
 20
9.012665562340448
 30
0.0
 10
72.43384186787021
 20
9.027478426697918
 30
0.0
 10
72.14226407831939
 20
9.05590053164737
 30
0.0
  0
SPLINE
  5
257
330
1F
100
AcDbEntity
  8
SK3
  6
SLD-Dashed
370
    18
100
AcDbSpline
210
0.0
220
0.0
230
1.0
 70
     8
 71
     3
 72
     8
 73
     4
 74
     0
 42
0.000000001
 43
0.00000001
 40
0.7656249999999957
 40
0.7656249999999957
 40
0.7656249999999957
 40
0.7656249999999957
 40
0.7812499999999957
 40
0.7812499999999957
 40
0.7812499999999957
 40
0.7812499999999957
 10
72.14226407831941
 20
9.055900531647367
 30
0.0
 10
71.85068628876856
 20
9.084322636596838
 30
0.0
 10
71.56301950449856
 20
9.126321900891398
 30
0.0
 10
71.27899222955195
 20
9.180341166177996
 30
0.0
  0
SPLINE
  5
258
330
1F
100
AcDbEntity
  8
SK3
  6
SLD-Dashed
370
    18
100
AcDbSpline
210
0.0
220
0.0
230
1.0
 70
     8
 71
     3
 72
     8
 73
     4
 74
     0
 42
0.000000001
 43
0.00000001
 40
0.7812499999999957
 40
0.7812499999999957
 40
0.7812499999999957
 40
0.7812499999999957
 40
0.7968749999999958
 40
0.7968749999999958
 40
0.7968749999999958
 40
0.7968749999999958
 10
71.27899222955192
 20
9.180341166178003
 30
0.0
 10
70.99496495460534
 20
9.234360431464617
 30
0.0
 10
70.71281361433446
 20
9.300934975083857
 30
0.0
 10
70.43965833305083
 20
9.376253022324414
 30
0.0
  0
SPLINE
  5
259
330
1F
100
AcDbEntity
  8
SK3
  6
SLD-Dashed
370
    18
100
AcDbSpline
210
0.0
220
0.0
230
1.0
 70
     8
 71
     3
 72
     8
 73
     4
 74
     0
 42
0.000000001
 43
0.00000001
 40
0.7968749999999958
 40
0.7968749999999958
 40
0.7968749999999958
 40
0.7968749999999958
 40
0.8124999999999958
 40
0.8124999999999958
 40
0.8124999999999958
 40
0.8124999999999958
 10
70.43965833305084
 20
9.37625302232441
 30
0.0
 10
70.16650305176721
 20
9.451571069564963
 30
0.0
 10
69.90191877260031
 20
9.535502527909829
 30
0.0
 10
69.644789812054
 20
9.625796473158045
 30
0.0
  0
SPLINE
  5
25A
330
1F
100
AcDbEntity
  8
SK3
  6
SLD-Dashed
370
    18
100
AcDbSpline
210
0.0
220
0.0
230
1.0
 70
     8
 71
     3
 72
     8
 73
     4
 74
     0
 42
0.000000001
 43
0.00000001
 40
0.8124999999999958
 40
0.8124999999999958
 40
0.8124999999999958
 40
0.8124999999999958
 40
0.8437499999999964
 40
0.8437499999999964
 40
0.8437499999999964
 40
0.8437499999999964
 10
69.644789812054
 20
9.625796473158045
 30
0.0
 10
69.13053189096136
 20
9.806384363654471
 30
0.0
 10
68.64420259569694
 20
10.01293153233937
 30
0.0
 10
68.18633979709732
 20
10.22950549142795
 30
0.0
  0
SPLINE
  5
25B
330
1F
100
AcDbEntity
  8
SK3
  6
SLD-Dashed
370
    18
100
AcDbSpline
210
0.0
220
0.0
230
1.0
 70
     8
 71
     3
 72
     8
 73
     4
 74
     0
 42
0.000000001
 43
0.00000001
 40
0.8437499999999964
 40
0.8437499999999964
 40
0.8437499999999964
 40
0.8437499999999964
 40
0.8749999999999971
 40
0.8749999999999971
 40
0.8749999999999971
 40
0.8749999999999971
 10
68.18633979709732
 20
10.22950549142795
 30
0.0
 10
67.7284936750831
 20
10.44611470326653
 30
0.0
 10
67.30779142235524
 20
10.66842847813749
 30
0.0
 10
66.91999458688794
 20
10.88595387894367
 30
0.0
  0
SPLINE
  5
25C
330
1F
100
AcDbEntity
  8
SK3
  6
SLD-Dashed
370
    18
100
AcDbSpline
210
0.0
220
0.0
230
1.0
 70
     8
 71
     3
 72
     8
 73
     4
 74
     0
 42
0.000000001
 43
0.00000001
 40
0.8749999999999971
 40
0.8749999999999971
 40
0.8749999999999971
 40
0.8749999999999971
 40
0.9062499999999979
 40
0.9062499999999979
 40
0.9062499999999979
 40
0.9062499999999979
 10
66.91999458688794
 20
10.88595387894367
 30
0.0
 10
66.53216149027746
 20
11.10341462199369
 30
0.0
 10
66.17460825871791
 20
11.31809928393109
 30
0.0
 10
65.86298201502042
 20
11.51193518298165
 30
0.0
  0
SPLINE
  5
25D
330
1F
100
AcDbEntity
  8
SK3
  6
SLD-Dashed
370
    18
100
AcDbSpline
210
0.0
220
0.0
230
1.0
 70
     8
 71
     3
 72
     8
 73
     4
 74
     0
 42
0.000000001
 43
0.00000001
 40
0.9062499999999979
 40
0.9062499999999979
 40
0.9062499999999979
 40
0.9062499999999979
 40
0.9374999999999986
 40
0.9374999999999986
 40
0.9374999999999986
 40
0.9374999999999986
 10
65.86298201502042
 20
11.51193518298165
 30
0.0
 10
65.55137316502152
 20
11.70579904274955
 30
0.0
 10
65.28295672478934
 20
11.88029807105362
 30
0.0
 10
65.06003707416261
 20
12.0279168790761
 30
0.0
  0
SPLINE
  5
25E
330
1F
100
AcDbEntity
  8
SK3
  6
SLD-Dashed
370
    18
100
AcDbSpline
210
0.0
220
0.0
230
1.0
 70
     8
 71
     3
 72
     8
 73
     4
 74
     0
 42
0.000000001
 43
0.00000001
 40
0.9374999999999986
 40
0.9374999999999986
 40
0.9374999999999986
 40
0.9374999999999986
 40
0.9687499999999993
 40
0.9687499999999993
 40
0.9687499999999993
 40
0.9687499999999993
 10
65.06003707416261
 20
12.0279168790761
 30
0.0
 10
64.8371174235359
 20
12.17553568709858
 30
0.0
 10
64.65943178295791
 20
12.29656726389971
 30
0.0
 10
64.54197690929328
 20
12.37706874819167
 30
0.0
  0
SPLINE
  5
25F
330
1F
100
AcDbEntity
  8
SK3
  6
SLD-Dashed
370
    18
100
AcDbSpline
210
0.0
220
0.0
230
1.0
 70
     8
 71
     2
 72
     6
 73
     3
 74
     0
 42
0.000000001
 43
0.00000001
 40
0.9687499999999993
 40
0.9687499999999993
 40
0.9687499999999993
 40
1.0
 40
1.0
 40
1.0
 10
64.54197690929328
 20
12.37706874819167
 30
0.0
 10
64.42452203562866
 20
12.45757023248362
 30
0.0
 10
64.36359999999999
 20
12.49999999999999
 30
0.0
  0
SPLINE
  5
260
330
1F
100
AcDbEntity
  8
SK3
  6
SLD-Dashed
370
    18
100
AcDbSpline
210
0.0
220
0.0
230
1.0
 70
     8
 71
     3
 72
    10
 73
     6
 74
     0
 42
0.000000001
 43
0.00000001
 40
0.0
 40
0.0
 40
0.0
 40
0.0
 40
0.5
 40
0.5
 40
1.0
 40
1.0
 40
1.0
 40
1.0
 10
18.70470837592285
 20
25.57912025275683
 30
0.0
 10
18.66514338213324
 20
25.52310107590329
 30
0.0
 10
18.62842911249968
 20
25.46562249807942
 30
0.0
 10
18.57073957446637
 20
25.34260791126141
 30
0.0
 10
18.54999999999997
 20
25.2748265897805
 30
0.0
 10
18.54999999999997
 20
25.205
 30
0.0
  0
SPLINE
  5
261
330
1F
100
AcDbEntity
  8
SK3
  6
SLD-Dashed
370
    18
100
AcDbSpline
210
0.0
220
0.0
230
1.0
 70
     8
 71
     3
 72
    10
 73
     6
 74
     0
 42
0.000000001
 43
0.00000001
 40
0.0
 40
0.0
 40
0.0
 40
0.0
 40
0.5
 40
0.5
 40
1.0
 40
1.0
 40
1.0
 40
1.0
 10
3.70000000000001
 20
25.205
 30
0.0
 10
3.699999999999999
 20
25.27446188700635
 30
0.0
 10
3.679668344673044
 20
25.34157876899186
 30
0.0
 10
3.62177462639326
 20
25.46534569655891
 30
0.0
 10
3.58497282528183
 20
25.52292618711531
 30
0.0
 10
3.545388844998091
 20
25.57898258716476
 30
0.0
  0
SPLINE
  5
262
330
1F
100
AcDbEntity
  8
SK3
  6
SLD-Dashed
370
    18
100
AcDbSpline
210
0.0
220
0.0
230
1.0
 70
    24
 71
     3
 72
     8
 73
     4
 74
     0
 42
0.000000001
 43
0.00000001
 40
0.0
 40
0.0
 40
0.0
 40
0.0
 40
0.4999999999999987
 40
0.4999999999999987
 40
0.4999999999999987
 40
0.4999999999999987
 10
19.05
 20
-22.41000000000001
 30
0.0
 10
18.97247827222663
 20
-22.41
 30
0.0
 10
18.89661835205908
 20
-22.41000000000001
 30
0.0
 10
18.83038739399198
 20
-22.41
 30
0.0
  0
SPLINE
  5
263
330
1F
100
AcDbEntity
  8
SK3
  6
SLD-Dashed
370
    18
100
AcDbSpline
210
0.0
220
0.0
230
1.0
 70
    24
 71
     3
 72
     8
 73
     4
 74
     0
 42
0.000000001
 43
0.00000001
 40
0.4999999999999987
 40
0.4999999999999987
 40
0.4999999999999987
 40
0.4999999999999987
 40
0.7499999999999993
 40
0.7499999999999993
 40
0.7499999999999993
 40
0.7499999999999993
 10
18.83038739399198
 20
-22.41
 30
0.0
 10
18.79727191495842
 20
-22.41
 30
0.0
 10
18.76669863834139
 20
-22.41000000000001
 30
0.0
 10
18.74342192288901
 20
-22.41000000000001
 30
0.0
  0
SPLINE
  5
264
330
1F
100
AcDbEntity
  8
SK3
  6
SLD-Dashed
370
    18
100
AcDbSpline
210
0.0
220
0.0
230
1.0
 70
    24
 71
     2
 72
     6
 73
     3
 74
     0
 42
0.000000001
 43
0.00000001
 40
0.7499999999999993
 40
0.7499999999999993
 40
0.7499999999999993
 40
1.0
 40
1.0
 40
1.0
 10
18.74342192288901
 20
-22.41000000000001
 30
0.0
 10
18.72014520743662
 20
-22.41000000000001
 30
0.0
 10
18.70461115500191
 20
-22.41000000000001
 30
0.0
  0
SPLINE
  5
265
330
1F
100
AcDbEntity
  8
1
  6
SLD-Dashed
370
    18
100
AcDbSpline
210
0.0
220
0.0
230
1.0
 70
    24
 71
     2
 72
     6
 73
     3
 74
     0
 42
0.000000001
 43
0.00000001
 40
0.0
 40
0.0
 40
0.0
 40
0.2500000000000002
 40
0.2500000000000002
 40
0.2500000000000002
 10
3.545291624077157
 20
-22.41000000000001
 30
0.0
 10
3.529781518569392
 20
-22.41000000000001
 30
0.0
 10
3.506264354048633
 20
-22.41000000000001
 30
0.0
  0
SPLINE
  5
266
330
1F
100
AcDbEntity
  8
1
  6
SLD-Dashed
370
    18
100
AcDbSpline
210
0.0
220
0.0
230
1.0
 70
    24
 71
     3
 72
     8
 73
     4
 74
     0
 42
0.000000001
 43
0.00000001
 40
0.2500000000000002
 40
0.2500000000000002
 40
0.2500000000000002
 40
0.2500000000000002
 40
0.5000000000000004
 40
0.5000000000000004
 40
0.5000000000000004
 40
0.5000000000000004
 10
3.506264354048633
 20
-22.41000000000001
 30
0.0
 10
3.482747189527874
 20
-22.41000000000001
 30
0.0
 10
3.452323510010763
 20
-22.41000000000001
 30
0.0
 10
3.419371480420985
 20
-22.41000000000002
 30
0.0
  0
SPLINE
  5
267
330
1F
100
AcDbEntity
  8
1
  6
SLD-Dashed
370
    18
100
AcDbSpline
210
0.0
220
0.0
230
1.0
 70
    24
 71
     3
 72
     8
 73
     4
 74
     0
 42
0.000000001
 43
0.00000001
 40
0.5000000000000004
 40
0.5000000000000004
 40
0.5000000000000004
 40
0.5000000000000004
 40
1.0
 40
1.0
 40
1.0
 40
1.0
 10
3.419371480420985
 20
-22.41000000000002
 30
0.0
 10
3.353467421241416
 20
-22.41000000000003
 30
0.0
 10
3.27748356546001
 20
-22.41000000000004
 30
0.0
 10
3.200000000000008
 20
-22.41000000000004
 30
0.0
  0
SPLINE
  5
268
330
1F
100
AcDbEntity
  8
1
  6
SLD-Dashed
370
    18
100
AcDbSpline
210
0.0
220
0.0
230
1.0
 70
     8
 71
     3
 72
    40
 73
    36
 74
     0
 42
0.000000001
 43
0.00000001
 40
0.0
 40
0.0
 40
0.0
 40
0.0
 40
0.0126129321449816
 40
0.0314976481339604
 40
0.0629183966702564
 40
0.0880663439714168
 40
0.1258663548219043
 40
0.1545361786951687
 40
0.1972635113751465
 40
0.2185774264758751
 40
0.2505499734499138
 40
0.2790323571745755
 40
0.3220275475257124
 40
0.3436168159336463
 40
0.3758133620275749
 40
0.404289809506831
 40
0.4468993710431156
 40
0.468210972392158
 40
0.5002437124696447
 40
0.5288533887317777
 40
0.5719828275869667
 40
0.5934420637179458
 40
0.6254916984483699
 40
0.6539107272569499
 40
0.6965262692674994
 40
0.7178823906336999
 40
0.7500313093276819
 40
0.7787800102949101
 40
0.8217645159398103
 40
0.8431483194632992
 40
0.8751517844153629
 40
0.9000181010942334
 40
0.9373587731677226
 40
0.9685909586685477
 40
1.0
 40
1.0
 40
1.0
 40
1.0
 10
3.950000000000023
 20
-30.22558142012455
 30
0.0
 10
3.947274304055545
 20
-30.22556434752437
 30
0.0
 10
3.940467559137531
 20
-30.22552171296907
 30
0.0
 10
3.926878079313953
 20
-30.22500449703485
 30
0.0
 10
3.910614550229813
 20
-30.2237321465742
 30
0.0
 10
3.890377361764689
 20
-30.22117483723409
 30
0.0
 10
3.870876571853158
 20
-30.21766990056563
 30
0.0
 10
3.847909402641903
 20
-30.21222207486698
 30
0.0
 10
3.828703761991183
 20
-30.20644931168695
 30
0.0
 10
3.809172441366028
 20
-30.19943885792581
 30
0.0
 10
3.792810014293297
 20
-30.19274290251957
 30
0.0
 10
3.772556787561361
 20
-30.18326307338775
 30
0.0
 10
3.754852229734972
 20
-30.17368149207906
 30
0.0
 10
3.737001129757058
 20
-30.16277896347404
 30
0.0
 10
3.72223793066011
 20
-30.15285978974899
 30
0.0
 10
3.704336292932933
 20
-30.13951958199307
 30
0.0
 10
3.689010882645438
 20
-30.12669241146978
 30
0.0
 10
3.673804931860206
 20
-30.11259090121898
 30
0.0
 10
3.661328526177333
 20
-30.10000934793274
 30
0.0
 10
3.646311367639477
 20
-30.08334675455544
 30
0.0
 10
3.633674708739547
 20
-30.06764146706271
 30
0.0
 10
3.621410566075654
 20
-30.05073531891873
 30
0.0
 10
3.611611223630078
 20
-30.03598007669027
 30
0.0
 10
3.600156512782814
 20
-30.01686769647119
 30
0.0
 10
3.590829750080687
 20
-29.99919574996771
 30
0.0
 10
3.582035812875783
 20
-29.98037484052155
 30
0.0
 10
3.57516577881673
 20
-29.96397246361158
 30
0.0
 10
3.567449829657654
 20
-29.94288522109361
 30
0.0
 10
3.561558066371824
 20
-29.92362739013819
 30
0.0
 10
3.556428567391974
 20
-29.90344062128918
 30
0.0
 10
3.552918981596772
 20
-29.88689085311546
 30
0.0
 10
3.549536425734989
 20
-29.86681061568603
 30
0.0
 10
3.547124737184501
 20
-29.84675343612469
 30
0.0
 10
3.545564419128186
 20
-29.82519260420206
 30
0.0
 10
3.545382726752403
 20
-29.81165457437828
 30
0.0
 10
3.545291624077221
 20
-29.8048664484142
 30
0.0
  0
SPLINE
  5
269
330
1F
100
AcDbEntity
  8
1
  6
SLD-Dashed
370
    18
100
AcDbSpline
210
0.0
220
0.0
230
1.0
 70
     8
 71
     3
 72
    40
 73
    36
 74
     0
 42
0.000000001
 43
0.00000001
 40
0.0
 40
0.0
 40
0.0
 40
0.0
 40
0.0314214559572227
 40
0.0627294389671943
 40
0.0877405066521885
 40
0.125275232669724
 40
0.1539551384600139
 40
0.1970430837597965
 40
0.2184753360378567
 40
0.2505176110611755
 40
0.2789492345937477
 40
0.3216198597593979
 40
0.3430128235413608
 40
0.3752634384750789
 40
0.4040010771804361
 40
0.4468656794915655
 40
0.4682159459362438
 40
0.5002096454815023
 40
0.5286754137344519
 40
0.5715400247765465
 40
0.5931009716299148
 40
0.6253883780511632
 40
0.6539191343952845
 40
0.696591424456682
 40
0.7179237821488482
 40
0.749974649427047
 40
0.7785976316863411
 40
0.795854339812784
 40
0.8217160693566484
 40
0.8431552865480455
 40
0.8751886732441913
 40
0.9000580147531466
 40
0.9373794059838183
 40
0.9685930788650419
 40
0.9999999999999999
 40
0.9999999999999999
 40
0.9999999999999999
 40
0.9999999999999999
 10
18.7046111550019
 20
-29.80485527419842
 30
0.0
 10
18.70451980286347
 20
-29.81164440520548
 30
0.0
 10
18.70433742848851
 20
-29.82519814949179
 30
0.0
 10
18.702967285952
 20
-29.84411564286004
 30
0.0
 10
18.70072137877138
 20
-29.86427043795471
 30
0.0
 10
18.69761618492968
 20
-29.88374590039356
 30
0.0
 10
18.69275878580929
 20
-29.90686111791569
 30
0.0
 10
18.68756401153337
 20
-29.92633239392293
 30
0.0
 10
18.6812196607601
 20
-29.94620899181277
 30
0.0
 10
18.67516357609366
 20
-29.96284451017635
 30
0.0
 10
18.66659391017355
 20
-29.98342104192522
 30
0.0
 10
18.65792216957785
 20
-30.00144320562836
 30
0.0
 10
18.64799759935262
 20
-30.01973532130569
 30
0.0
 10
18.63887055578692
 20
-30.0350249959246
 30
0.0
 10
18.62647938435724
 20
-30.05373739732938
 30
0.0
 10
18.61447418288871
 20
-30.06985792745573
 30
0.0
 10
18.60124205632121
 20
-30.08589113399747
 30
0.0
 10
18.58942860682681
 20
-30.0990495541836
 30
0.0
 10
18.57374043191442
 20
-30.11493869793075
 30
0.0
 10
18.55884768057943
 20
-30.12841850147779
 30
0.0
 10
18.54265426161455
 20
-30.14162746302956
 30
0.0
 10
18.52838800292801
 20
-30.15228399886078
 30
0.0
 10
18.50983571493525
 20
-30.16477481501636
 30
0.0
 10
18.49262445031482
 20
-30.1749829125769
 30
0.0
 10
18.47424607318985
 20
-30.18462804605512
 30
0.0
 10
18.45820753870476
 20
-30.19217667946482
 30
0.0
 10
18.44263074348687
 20
-30.19858412922859
 30
0.0
 10
18.4280832437388
 20
-30.20393768674264
 30
0.0
 10
18.41482664955694
 20
-30.20828861199141
 30
0.0
 10
18.39834274985589
 20
-30.21299666641595
 30
0.0
 10
18.38186940102374
 20
-30.21692139734204
 30
0.0
 10
18.36186218647022
 20
-30.22070805123952
 30
0.0
 10
18.34185224742001
 20
-30.22341140280932
 30
0.0
 10
18.32031695323611
 20
-30.22516290854395
 30
0.0
 10
18.306786236422
 20
-30.22536701808555
 30
0.0
 10
18.3
 20
-30.22546938779916
 30
0.0
  0
SPLINE
  5
26A
330
1F
100
AcDbEntity
  8
SK3
  6
SLD-Dashed
370
    18
100
AcDbSpline
210
0.0
220
0.0
230
1.0
 70
     8
 71
     3
 72
    40
 73
    36
 74
     0
 42
0.000000001
 43
0.00000001
 40
0.0
 40
0.0
 40
0.0
 40
0.0
 40
0.0125929119920853
 40
0.0314096195346373
 40
0.0626234169499198
 40
0.0875147363747587
 40
0.124814412830725
 40
0.1532834083387407
 40
0.1962265830891685
 40
0.2178107992109856
 40
0.2500224951329321
 40
0.2785169301552057
 40
0.3211718523043689
 40
0.3425182663517161
 40
0.3746092478105291
 40
0.4033018002026093
 40
0.4463503818994342
 40
0.4677602234265854
 40
0.4997883410590171
 40
0.5282270395863745
 40
0.5709521530205331
 40
0.5924138618617291
 40
0.6247350591047612
 40
0.6534144483970801
 40
0.6961683199419044
 40
0.7174969314503464
 40
0.7494813527194152
 40
0.7779588669976988
 40
0.8208766717687367
 40
0.8424514691504715
 40
0.874724282179473
 40
0.8997563983109313
 40
0.9372703102803501
 40
0.968578418532575
 40
0.9999999999999999
 40
0.9999999999999999
 40
0.9999999999999999
 40
0.9999999999999999
 10
18.3
 20
30.2255814201264
 30
0.0
 10
18.30272136951242
 20
30.22556441746848
 30
0.0
 10
18.30950909113324
 20
30.22552200892813
 30
0.0
 10
18.3230349115113
 20
30.22500878447084
 30
0.0
 10
18.33918410220825
 20
30.22374990827883
 30
0.0
 10
18.35921637335283
 20
30.22123374888837
 30
0.0
 10
18.3785174346528
 20
30.21779055348816
 30
0.0
 10
18.4013925941177
 20
30.21241015713829
 30
0.0
 10
18.42066868063112
 20
30.20665667098934
 30
0.0
 10
18.44035778154606
 20
30.19962160064929
 30
0.0
 10
18.45683219318452
 20
30.19290122073892
 30
0.0
 10
18.47707551770183
 20
30.18344563237708
 30
0.0
 10
18.49468238340836
 20
30.17394373601332
 30
0.0
 10
18.51242282863929
 20
30.16314575471339
 30
0.0
 10
18.52718102114117
 20
30.15327064640551
 30
0.0
 10
18.54520190007997
 20
30.1398914446621
 30
0.0
 10
18.56066753372129
 20
30.12697740010818
 30
0.0
 10
18.57597030022936
 20
30.11281096127924
 30
0.0
 10
18.58844277986746
 20
30.10024903998076
 30
0.0
 10
18.60339048841034
 20
30.08369276015744
 30
0.0
 10
18.61596948562732
 20
30.06810049270644
 30
0.0
 10
18.62824307125509
 20
30.05123600708182
 30
0.0
 10
18.63812738344199
 20
30.03639837328906
 30
0.0
 10
18.6496753555676
 20
30.01717281850424
 30
0.0
 10
18.65905060754961
 20
29.99943559548713
 30
0.0
 10
18.66785100498267
 20
29.98063051707891
 30
0.0
 10
18.67469312836915
 20
29.96432508828281
 30
0.0
 10
18.68239354934312
 20
29.94334796470475
 30
0.0
 10
18.68830098830935
 20
29.92412819400952
 30
0.0
 10
18.69347515991064
 20
29.9038649584692
 30
0.0
 10
18.69702701390046
 20
29.8871856268312
 30
0.0
 10
18.70044011360977
 20
29.8669771633764
 30
0.0
 10
18.70287111134992
 20
29.84683182165024
 30
0.0
 10
18.70443405316874
 20
29.82521437831678
 30
0.0
 10
18.70461682479818
 20
29.81165726630967
 30
0.0
 10
18.70470837592286
 20
29.80486644841629
 30
0.0
  0
SPLINE
  5
26B
330
1F
100
AcDbEntity
  8
SK3
  6
SLD-Dashed
370
    18
100
AcDbSpline
210
0.0
220
0.0
230
1.0
 70
     8
 71
     3
 72
    39
 73
    35
 74
     0
 42
0.000000001
 43
0.00000001
 40
0.0
 40
0.0
 40
0.0
 40
0.0
 40
0.0314091160307674
 40
0.0626413758641538
 40
0.0875470935131885
 40
0.1248485138287456
 40
0.1532930400450731
 40
0.1960941157944613
 40
0.2176225947738233
 40
0.2499693772004398
 40
0.2785546285585068
 40
0.3212364873026817
 40
0.3425405354923858
 40
0.3745092858974068
 40
0.4029918411019298
 40
0.4459785689856149
 40
0.4675618916159466
 40
0.4997576608210499
 40
0.5282368343000431
 40
0.5708480092884092
 40
0.5921584935845995
 40
0.6241883328452476
 40
0.6527986190299354
 40
0.6959401501309849
 40
0.7174023419155745
 40
0.7494519752642005
 40
0.7778741158300017
 40
0.8205144520917228
 40
0.8418962920619149
 40
0.8741359236783777
 40
0.8993502252909598
 40
0.9370840470446206
 40
0.9685048711195197
 40
1.0
 40
1.0
 40
1.0
 40
1.0
 10
3.545388844998092
 20
29.80485527419836
 30
0.0
 10
3.545479748550707
 20
29.81164171345395
 30
0.0
 10
3.545661043802709
 20
29.82517637936976
 30
0.0
 10
3.547029433803431
 20
29.84405190465724
 30
0.0
 10
3.549258968233919
 20
29.86411824570169
 30
0.0
 10
3.552336224857627
 20
29.88347227622592
 30
0.0
 10
3.557141779746849
 20
29.90643124843569
 30
0.0
 10
3.562288225622276
 20
29.92581971282436
 30
0.0
 10
3.568614089357785
 20
29.94572790966336
 30
0.0
 10
3.574692956926484
 20
29.96248267210271
 30
0.0
 10
3.583287776048195
 20
29.98315850998406
 30
0.0
 10
3.591955015312317
 20
30.00120090567675
 30
0.0
 10
3.601831018727697
 20
30.01943081107661
 30
0.0
 10
3.610874012133483
 20
30.03461278108236
 30
0.0
 10
3.623189627258802
 20
30.05326734966775
 30
0.0
 10
3.635184378154408
 20
30.06942261759892
 30
0.0
 10
3.648473969075938
 20
30.08556438898124
 30
0.0
 10
3.660340157340393
 20
30.09880574838242
 30
0.0
 10
3.676012531497256
 20
30.11469877887883
 30
0.0
 10
3.690813818886943
 20
30.12812096686826
 30
0.0
 10
3.706862089264429
 20
30.14124723286377
 30
0.0
 10
3.72103574066449
 20
30.15187245989098
 30
0.0
 10
3.73961592045559
 20
30.16443427377532
 30
0.0
 10
3.756939716856921
 20
30.17474090541262
 30
0.0
 10
3.775422312926252
 20
30.18446497823774
 30
0.0
 10
3.791441042936045
 20
30.1920197672962
 30
0.0
 10
3.812039955628086
 20
30.20051935318416
 30
0.0
 10
3.830933874073438
 20
30.20705284128392
 30
0.0
 10
3.850922478500735
 20
30.21280585013044
 30
0.0
 10
3.86749234798438
 20
30.21678677988707
 30
0.0
 10
3.887698638249907
 20
30.22064109222377
 30
0.0
 10
3.907913014965722
 20
30.2233898561808
 30
0.0
 10
3.929600305356981
 20
30.2251603474871
 30
0.0
 10
3.943194750029202
 20
30.22536629328678
 30
0.0
 10
3.949999999999967
 20
30.22546938779933
 30
0.0
  0
SPLINE
  5
26C
330
1F
100
AcDbEntity
  8
SK3
  6
SLD-Dashed
370
    18
100
AcDbSpline
210
0.0
220
0.0
230
1.0
 70
     8
 71
     3
 72
    30
 73
    26
 74
     0
 42
0.000000001
 43
0.00000001
 40
0.4999999999999984
 40
0.4999999999999984
 40
0.4999999999999984
 40
0.4999999999999984
 40
0.5624999999999987
 40
0.5624999999999987
 40
0.5937499999999988
 40
0.5937499999999988
 40
0.6249999999999989
 40
0.6249999999999989
 40
0.6562499999999989
 40
0.6562499999999989
 40
0.687499999999999
 40
0.687499999999999
 40
0.7499999999999991
 40
0.7499999999999991
 40
0.7812499999999992
 40
0.7812499999999992
 40
0.8124999999999993
 40
0.8124999999999993
 40
0.8749999999999996
 40
0.8749999999999996
 40
0.9374999999999999
 40
0.9374999999999999
 40
0.9687499999999999
 40
0.9687499999999999
 40
1.0
 40
1.0
 40
1.0
 40
1.0
 10
11.09929844677808
 20
3.787766012937073
 30
0.0
 10
11.31512671473903
 20
3.787844328548305
 30
0.0
 10
11.53304006332809
 20
3.750889262135744
 30
0.0
 10
11.83116930510451
 20
3.644571484254101
 30
0.0
 10
11.92767339494451
 20
3.600037255497415
 30
0.0
 10
12.10683698186696
 20
3.495952701426823
 30
0.0
 10
12.18964198685285
 20
3.436638281784629
 30
0.0
 10
12.34190799973106
 20
3.302925237097944
 30
0.0
 10
12.41129962491507
 20
3.22817618675892
 30
0.0
 10
12.53066595273425
 20
3.069052612816897
 30
0.0
 10
12.58154771562609
 20
2.983995921432545
 30
0.0
 10
12.7068284587453
 20
2.710883138195799
 30
0.0
 10
12.74988239743907
 20
2.512755536558407
 30
0.0
 10
12.75005844165267
 20
2.205900920979289
 30
0.0
 10
12.73944896734287
 20
2.104095647539286
 30
0.0
 10
12.69737805915507
 20
1.901509184390138
 30
0.0
 10
12.66539378247045
 20
1.799926651541078
 30
0.0
 10
12.54152166679019
 20
1.509668979059631
 30
0.0
 10
12.41880132921228
 20
1.328433854589049
 30
0.0
 10
12.11607255357526
 20
1.025423686659178
 30
0.0
 10
11.93291660701176
 20
0.9007071060448957
 30
0.0
 10
11.6350956194966
 20
0.7743195984551282
 30
0.0
 10
11.53002475205497
 20
0.7414335488037036
 30
0.0
 10
11.31733852405116
 20
0.6978549509474643
 30
0.0
 10
11.20945404144216
 20
0.6867804916266506
 30
0.0
 10
11.1
 20
0.6867804916266506
 30
0.0
  0
SPLINE
  5
26D
330
1F
100
AcDbEntity
  8
SK3
  6
SLD-Dashed
370
    18
100
AcDbSpline
210
0.0
220
0.0
230
1.0
 70
     8
 71
     3
 72
    32
 73
    28
 74
     0
 42
0.000000001
 43
0.00000001
 40
0.0
 40
0.0
 40
0.0
 40
0.0
 40
0.0312499999999999
 40
0.0312499999999999
 40
0.0624999999999997
 40
0.0624999999999997
 40
0.0937499999999996
 40
0.0937499999999996
 40
0.1249999999999994
 40
0.1249999999999994
 40
0.1874999999999992
 40
0.1874999999999992
 40
0.2499999999999989
 40
0.2499999999999989
 40
0.2812499999999989
 40
0.2812499999999989
 40
0.3124999999999989
 40
0.3124999999999989
 40
0.3749999999999988
 40
0.3749999999999988
 40
0.4062499999999988
 40
0.4062499999999988
 40
0.4374999999999987
 40
0.4374999999999987
 40
0.4687499999999986
 40
0.4687499999999986
 40
0.4999999999999984
 40
0.4999999999999984
 40
0.4999999999999984
 40
0.4999999999999984
 10
11.1
 20
0.6867804916266574
 30
0.0
 10
10.99054595855783
 20
0.686780491626654
 30
0.0
 10
10.88300748494234
 20
0.6978519169173816
 30
0.0
 10
10.67157729317865
 20
0.7410380563700261
 30
0.0
 10
10.56656531881152
 20
0.7737031975053668
 30
0.0
 10
10.36697011919924
 20
0.8582303125313426
 30
0.0
 10
10.27237083996867
 20
0.9097573042868429
 30
0.0
 10
10.09333795853111
 20
1.030751744013236
 30
0.0
 10
10.00891041258248
 20
1.100583040304359
 30
0.0
 10
9.781590568132783
 20
1.327897234965396
 30
0.0
 10
9.658787195719901
 20
1.50932142501943
 30
0.0
 10
9.493903316654437
 20
1.89492773132028
 30
0.0
 10
9.4501341811674
 20
2.103271213289681
 30
0.0
 10
9.449933384093196
 20
2.40794889688712
 30
0.0
 10
9.46074696068297
 20
2.510222343261259
 30
0.0
 10
9.503033348944728
 20
2.705916590523314
 30
0.0
 10
9.534315908364968
 20
2.800221958421417
 30
0.0
 10
9.658906673984793
 20
3.072888284710952
 30
0.0
 10
9.78031511942931
 20
3.234385799298932
 30
0.0
 10
10.00967891683432
 20
3.436160430176
 30
0.0
 10
10.0925216994972
 20
3.495489903524468
 30
0.0
 10
10.27083107458873
 20
3.599257582730268
 30
0.0
 10
10.36744974633948
 20
3.643999459073427
 30
0.0
 10
10.56659782256848
 20
3.715177102574754
 30
0.0
 10
10.66944649627723
 20
3.742052781161728
 30
0.0
 10
10.88184464279912
 20
3.77847077937897
 30
0.0
 10
10.9913843127976
 20
3.787726855131457
 30
0.0
 10
11.09929844677808
 20
3.787766012937073
 30
0.0
  0
SPLINE
  5
26E
330
1F
100
AcDbEntity
  8
SK3
  6
SLD-Dashed
370
    18
100
AcDbSpline
210
0.0
220
0.0
230
1.0
 70
     8
 71
     3
 72
    38
 73
    34
 74
     0
 42
0.000000001
 43
0.00000001
 40
0.499999999999998
 40
0.499999999999998
 40
0.499999999999998
 40
0.499999999999998
 40
0.5312499999999979
 40
0.5312499999999979
 40
0.5624999999999978
 40
0.5624999999999978
 40
0.5937499999999978
 40
0.5937499999999978
 40
0.6249999999999977
 40
0.6249999999999977
 40
0.6562499999999977
 40
0.6562499999999977
 40
0.6874999999999976
 40
0.6874999999999976
 40
0.7187499999999976
 40
0.7187499999999976
 40
0.7499999999999974
 40
0.7499999999999974
 40
0.8124999999999982
 40
0.8124999999999982
 40
0.8437499999999984
 40
0.8437499999999984
 40
0.8749999999999988
 40
0.8749999999999988
 40
0.906249999999999
 40
0.906249999999999
 40
0.9374999999999993
 40
0.9374999999999993
 40
0.9687499999999996
 40
0.9687499999999996
 40
0.9843749999999998
 40
0.9843749999999998
 40
1.0
 40
1.0
 40
1.0
 40
1.0
 10
9.547165917302175
 20
6.130078845462003
 30
0.0
 10
9.591669608828749
 20
6.01762212406462
 30
0.0
 10
9.651912210336928
 20
5.910039381771343
 30
0.0
 10
9.796812632231491
 20
5.715206444890278
 30
0.0
 10
9.882567425050462
 20
5.625950668749144
 30
0.0
 10
10.0770713882353
 20
5.46583513556137
 30
0.0
 10
10.18346038260026
 20
5.396630723958358
 30
0.0
 10
10.41491716747872
 20
5.273967848329591
 30
0.0
 10
10.54009168137383
 20
5.221079864175499
 30
0.0
 10
10.78642802631474
 20
5.131319199450722
 30
0.0
 10
10.90588750473029
 20
5.094347448465292
 30
0.0
 10
11.12471660654357
 20
5.030993621355166
 30
0.0
 10
11.22226506040228
 20
5.005212811238509
 30
0.0
 10
11.40290338683522
 20
4.961304046026231
 30
0.0
 10
11.48653843453272
 20
4.943230320262122
 30
0.0
 10
11.64292087602178
 20
4.914958406516963
 30
0.0
 10
11.71620965691779
 20
4.90463742056118
 30
0.0
 10
11.92719226675067
 20
4.88574018144175
 30
0.0
 10
12.05703185085182
 20
4.888799294419003
 30
0.0
 10
12.23947266366206
 20
4.928553216744818
 30
0.0
 10
12.29788111599017
 20
4.9476725332862
 30
0.0
 10
12.4097898608672
 20
5.001691346856623
 30
0.0
 10
12.46364510461584
 20
5.036838190440908
 30
0.0
 10
12.5627134329043
 20
5.128737393306084
 30
0.0
 10
12.60843468736296
 20
5.18558411364542
 30
0.0
 10
12.68612312343485
 20
5.33278642989507
 30
0.0
 10
12.71750492214961
 20
5.42323308451316
 30
0.0
 10
12.75225985948271
 20
5.640299190695281
 30
0.0
 10
12.7546372439699
 20
5.767683503121013
 30
0.0
 10
12.73422628849655
 20
5.96411574042225
 30
0.0
 10
12.72357436485568
 20
6.030799862754427
 30
0.0
 10
12.69687670664382
 20
6.160247296436612
 30
0.0
 10
12.68086259956383
 20
6.223527817320322
 30
0.0
 10
12.66230763443389
 20
6.286790301132335
 30
0.0
  0
SPLINE
  5
26F
330
1F
100
AcDbEntity
  8
SK3
  6
SLD-Dashed
370
    18
100
AcDbSpline
210
0.0
220
0.0
230
1.0
 70
     8
 71
     3
 72
    32
 73
    28
 74
     0
 42
0.000000001
 43
0.00000001
 40
0.0
 40
0.0
 40
0.0
 40
0.0
 40
0.0312499999999997
 40
0.0312499999999997
 40
0.0624999999999995
 40
0.0624999999999995
 40
0.1249999999999989
 40
0.1249999999999989
 40
0.1874999999999984
 40
0.1874999999999984
 40
0.2187499999999984
 40
0.2187499999999984
 40
0.2499999999999984
 40
0.2499999999999984
 40
0.2812499999999984
 40
0.2812499999999984
 40
0.3124999999999984
 40
0.3124999999999984
 40
0.3437499999999984
 40
0.3437499999999984
 40
0.3749999999999984
 40
0.3749999999999984
 40
0.4374999999999982
 40
0.4374999999999982
 40
0.4687499999999981
 40
0.4687499999999981
 40
0.499999999999998
 40
0.499999999999998
 40
0.499999999999998
 40
0.499999999999998
 10
12.66230763443389
 20
6.286790301132335
 30
0.0
 10
12.62519770417402
 20
6.413315268756367
 30
0.0
 10
12.581203021273
 20
6.529338209342129
 30
0.0
 10
12.48471880657841
 20
6.749261649681134
 30
0.0
 10
12.4316588224455
 20
6.853656412382142
 30
0.0
 10
12.26556941339615
 20
7.146821567827748
 30
0.0
 10
12.14616169070409
 20
7.317061421523455
 30
0.0
 10
11.8880894599053
 20
7.625840216913607
 30
0.0
 10
11.7498571862288
 20
7.763778523701692
 30
0.0
 10
11.51944141192589
 20
7.93957223353467
 30
0.0
 10
11.43848400885548
 20
7.99314592976453
 30
0.0
 10
11.26094996715929
 20
8.086113501836023
 30
0.0
 10
11.1654181803697
 20
8.1250258160986
 30
0.0
 10
10.95302844471291
 20
8.175251229353163
 30
0.0
 10
10.83703519791096
 20
8.185597853152482
 30
0.0
 10
10.5913368132058
 20
8.160487774000996
 30
0.0
 10
10.46687270231074
 20
8.125321374609383
 30
0.0
 10
10.22897755356156
 20
8.01535151717931
 30
0.0
 10
10.119593844491
 20
7.94337461166493
 30
0.0
 10
9.919042005980996
 20
7.77195898146249
 30
0.0
 10
9.830027015680656
 20
7.673959535020841
 30
0.0
 10
9.601531880722963
 20
7.354720962768346
 30
0.0
 10
9.501243573240782
 20
7.107453544913913
 30
0.0
 10
9.44727008051531
 20
6.732043004033517
 30
0.0
 10
9.445111331805908
 20
6.607943683149959
 30
0.0
 10
9.472789440891722
 20
6.361880396588831
 30
0.0
 10
9.502662225775588
 20
6.242535566859379
 30
0.0
 10
9.547165917302175
 20
6.130078845462003
 30
0.0
  0
SPLINE
  5
270
330
1F
100
AcDbEntity
  8
1
  6
SLD-Dashed
370
    18
100
AcDbSpline
210
0.0
220
0.0
230
1.0
 70
    24
 71
     3
 72
     8
 73
     4
 74
     0
 42
0.000000001
 43
0.00000001
 40
0.0
 40
0.0
 40
0.0
 40
0.0
 40
0.5000000000000013
 40
0.5000000000000013
 40
0.5000000000000013
 40
0.5000000000000013
 10
3.200000000000008
 20
-22.41000000000004
 30
0.0
 10
3.277521727773389
 20
-22.41000000000004
 30
0.0
 10
3.353381647940926
 20
-22.41000000000003
 30
0.0
 10
3.419612606008038
 20
-22.41000000000002
 30
0.0
  0
SPLINE
  5
271
330
1F
100
AcDbEntity
  8
1
  6
SLD-Dashed
370
    18
100
AcDbSpline
210
0.0
220
0.0
230
1.0
 70
    24
 71
     3
 72
     8
 73
     4
 74
     0
 42
0.000000001
 43
0.00000001
 40
0.5000000000000013
 40
0.5000000000000013
 40
0.5000000000000013
 40
0.5000000000000013
 40
0.7500000000000007
 40
0.7500000000000007
 40
0.7500000000000007
 40
0.7500000000000007
 10
3.419612606008038
 20
-22.41000000000002
 30
0.0
 10
3.452728085041587
 20
-22.41000000000001
 30
0.0
 10
3.483301361658614
 20
-22.41000000000002
 30
0.0
 10
3.506578077110994
 20
-22.41000000000001
 30
0.0
  0
SPLINE
  5
272
330
1F
100
AcDbEntity
  8
1
  6
SLD-Dashed
370
    18
100
AcDbSpline
210
0.0
220
0.0
230
1.0
 70
    24
 71
     2
 72
     6
 73
     3
 74
     0
 42
0.000000001
 43
0.00000001
 40
0.7500000000000007
 40
0.7500000000000007
 40
0.7500000000000007
 40
1.0
 40
1.0
 40
1.0
 10
3.506578077110994
 20
-22.41000000000001
 30
0.0
 10
3.529854792563389
 20
-22.41000000000001
 30
0.0
 10
3.545388844998096
 20
-22.41000000000001
 30
0.0
  0
SPLINE
  5
273
330
1F
100
AcDbEntity
  8
SK3
  6
SLD-Dashed
370
    18
100
AcDbSpline
210
0.0
220
0.0
230
1.0
 70
    24
 71
     2
 72
     6
 73
     3
 74
     0
 42
0.000000001
 43
0.00000001
 40
0.0
 40
0.0
 40
0.0
 40
0.2500000000000016
 40
0.2500000000000016
 40
0.2500000000000016
 10
18.70470837592286
 20
-22.41000000000001
 30
0.0
 10
18.72021848143063
 20
-22.41
 30
0.0
 10
18.74373564595139
 20
-22.41000000000001
 30
0.0
  0
SPLINE
  5
274
330
1F
100
AcDbEntity
  8
SK3
  6
SLD-Dashed
370
    18
100
AcDbSpline
210
0.0
220
0.0
230
1.0
 70
    24
 71
     3
 72
     8
 73
     4
 74
     0
 42
0.000000001
 43
0.00000001
 40
0.2500000000000016
 40
0.2500000000000016
 40
0.2500000000000016
 40
0.2500000000000016
 40
0.5000000000000032
 40
0.5000000000000032
 40
0.5000000000000032
 40
0.5000000000000032
 10
18.74373564595139
 20
-22.41000000000001
 30
0.0
 10
18.76725281047213
 20
-22.41000000000001
 30
0.0
 10
18.79767648998924
 20
-22.41000000000001
 30
0.0
 10
18.83062851957903
 20
-22.41000000000001
 30
0.0
  0
SPLINE
  5
275
330
1F
100
AcDbEntity
  8
SK3
  6
SLD-Dashed
370
    18
100
AcDbSpline
210
0.0
220
0.0
230
1.0
 70
    24
 71
     3
 72
     8
 73
     4
 74
     0
 42
0.000000001
 43
0.00000001
 40
0.5000000000000032
 40
0.5000000000000032
 40
0.5000000000000032
 40
0.5000000000000032
 40
1.0
 40
1.0
 40
1.0
 40
1.0
 10
18.83062851957903
 20
-22.41000000000001
 30
0.0
 10
18.8965325787586
 20
-22.41000000000001
 30
0.0
 10
18.97251643454
 20
-22.41000000000001
 30
0.0
 10
19.05
 20
-22.41000000000001
 30
0.0
  0
SPLINE
  5
276
330
1F
100
AcDbEntity
  8
SK3
  6
SLD-Dashed
370
    18
100
AcDbSpline
210
0.0
220
0.0
230
1.0
 70
     8
 71
     3
 72
    10
 73
     6
 74
     0
 42
0.000000001
 43
0.00000001
 40
0.0
 40
0.0
 40
0.0
 40
0.0
 40
0.5
 40
0.5
 40
1.0
 40
1.0
 40
1.0
 40
1.0
 10
18.54999999999997
 20
25.205
 30
0.0
 10
18.54999999999997
 20
25.27446188700636
 30
0.0
 10
18.57033165532692
 20
25.34157876899188
 30
0.0
 10
18.62822537360672
 20
25.46534569655893
 30
0.0
 10
18.66502717471818
 20
25.52292618711534
 30
0.0
 10
18.70461115500191
 20
25.57898258716479
 30
0.0
  0
SPLINE
  5
277
330
1F
100
AcDbEntity
  8
SK3
  6
SLD-Dashed
370
    18
100
AcDbSpline
210
0.0
220
0.0
230
1.0
 70
     8
 71
     3
 72
    10
 73
     6
 74
     0
 42
0.000000001
 43
0.00000001
 40
0.0
 40
0.0
 40
0.0
 40
0.0
 40
0.5
 40
0.5
 40
1.0
 40
1.0
 40
1.0
 40
1.0
 10
3.545291624077141
 20
25.57912025275684
 30
0.0
 10
3.584856617866726
 20
25.52310107590331
 30
0.0
 10
3.621570887500285
 20
25.46562249807945
 30
0.0
 10
3.679260425533584
 20
25.34260791126143
 30
0.0
 10
3.699999999999995
 20
25.27482658978054
 30
0.0
 10
3.699999999999995
 20
25.20500000000003
 30
0.0
  0
SPLINE
  5
278
330
1F
100
AcDbEntity
  8
1
  6
SLD-Dashed
370
    18
100
AcDbSpline
210
0.0
220
0.0
230
1.0
 70
     8
 71
     3
 72
     8
 73
     4
 74
     0
 42
0.000000001
 43
0.00000001
 40
0.0
 40
0.0
 40
0.0
 40
0.0
 40
1.0
 40
1.0
 40
1.0
 40
1.0
 10
14.37601294652265
 20
-30.22558142012644
 30
0.0
 10
13.92634047615438
 20
-29.41927694377228
 30
0.0
 10
13.47758735871732
 20
-28.61247603335391
 30
0.0
 10
13.03000000000003
 20
-27.8050456341729
 30
0.0
  0
SPLINE
  5
279
330
1F
100
AcDbEntity
  8
1
  6
SLD-Dashed
370
    18
100
AcDbSpline
210
0.0
220
0.0
230
1.0
 70
     8
 71
     3
 72
    10
 73
     6
 74
     0
 42
0.000000001
 43
0.00000001
 40
0.0
 40
0.0
 40
0.0
 40
0.0
 40
0.5
 40
0.5
 40
1.0
 40
1.0
 40
1.0
 40
1.0
 10
13.03000000000005
 20
-27.76916635406972
 30
0.0
 10
13.03000000000003
 20
-27.56948960726648
 30
0.0
 10
12.9530257332551
 20
-27.36838646497955
 30
0.0
 10
12.67905057581468
 20
-27.0763000500516
 30
0.0
 10
12.48172757240075
 20
-26.98706356756882
 30
0.0
 10
12.28000000000003
 20
-26.98706356756882
 30
0.0
  0
SPLINE
  5
27A
330
1F
100
AcDbEntity
  8
1
  6
SLD-Dashed
370
    18
100
AcDbSpline
210
0.0
220
0.0
230
1.0
 70
     8
 71
     3
 72
    10
 73
     6
 74
     0
 42
0.000000001
 43
0.00000001
 40
0.0
 40
0.0
 40
0.0
 40
0.0
 40
0.5
 40
0.5
 40
1.0
 40
1.0
 40
1.0
 40
1.0
 10
9.950000000000664
 20
-26.98706356756943
 30
0.0
 10
9.748441495091544
 20
-26.98706356756927
 30
0.0
 10
9.550692481024258
 20
-27.07656444408194
 30
0.0
 10
9.277196882747154
 20
-27.36815866851929
 30
0.0
 10
9.20000000000018
 20
-27.56927498425101
 30
0.0
 10
9.200000000000014
 20
-27.76916635406976
 30
0.0
  0
SPLINE
  5
27B
330
1F
100
AcDbEntity
  8
1
  6
SLD-Dashed
370
    18
100
AcDbSpline
210
0.0
220
0.0
230
1.0
 70
     8
 71
     3
 72
     8
 73
     4
 74
     0
 42
0.000000001
 43
0.00000001
 40
0.0
 40
0.0
 40
0.0
 40
0.0
 40
1.0
 40
1.0
 40
1.0
 40
1.0
 10
9.200000000000014
 20
-27.80504563417697
 30
0.0
 10
8.752433371355743
 20
-28.61243863710267
 30
0.0
 10
8.303701091402521
 20
-29.41920220926562
 30
0.0
 10
7.854049533407265
 20
-30.22546938780318
 30
0.0
  0
SPLINE
  5
27C
330
1F
100
AcDbEntity
  8
1
  6
SLD-Dashed
370
    18
100
AcDbSpline
210
0.0
220
0.0
230
1.0
 70
     8
 71
     3
 72
    40
 73
    36
 74
     0
 42
0.000000001
 43
0.00000001
 40
0.0
 40
0.0
 40
0.0
 40
0.0
 40
0.0314214559572178
 40
0.0627294389672004
 40
0.0877405066521895
 40
0.1252752326697184
 40
0.1539551384600108
 40
0.1970430837597873
 40
0.2184753360378477
 40
0.2505176110611737
 40
0.2789492345937391
 40
0.3216198597594042
 40
0.3430128235413673
 40
0.3752634384750793
 40
0.4040010771804458
 40
0.4468656794915723
 40
0.468215945936246
 40
0.5002096454814972
 40
0.528675413734447
 40
0.5715400247765458
 40
0.5931009716299191
 40
0.6253883780511656
 40
0.6539191343952843
 40
0.6965914244566831
 40
0.7179237821488444
 40
0.7499746494270431
 40
0.7785976316863417
 40
0.7958543398127828
 40
0.8217160693566459
 40
0.8431552865480468
 40
0.8751886732441888
 40
0.9000580147531506
 40
0.9373794059838182
 40
0.9685930788650364
 40
1.0
 40
1.0
 40
1.0
 40
1.0
 10
3.54538884499812
 20
-29.80485527420247
 30
0.0
 10
3.545480197136543
 20
-29.81164440520953
 30
0.0
 10
3.545662571511534
 20
-29.82519814949585
 30
0.0
 10
3.547032714048044
 20
-29.84411564286406
 30
0.0
 10
3.549278621228664
 20
-29.86427043795878
 30
0.0
 10
3.552383815070359
 20
-29.8837459003976
 30
0.0
 10
3.557241214190773
 20
-29.90686111791972
 30
0.0
 10
3.56243598846668
 20
-29.92633239392698
 30
0.0
 10
3.568780339239942
 20
-29.94620899181683
 30
0.0
 10
3.574836423906373
 20
-29.96284451018037
 30
0.0
 10
3.583406089826469
 20
-29.98342104192927
 30
0.0
 10
3.59207783042218
 20
-30.00144320563239
 30
0.0
 10
3.602002400647416
 20
-30.01973532130974
 30
0.0
 10
3.611129444213134
 20
-30.03502499592864
 30
0.0
 10
3.62352061564281
 20
-30.05373739733344
 30
0.0
 10
3.635525817111314
 20
-30.06985792745978
 30
0.0
 10
3.648757943678822
 20
-30.08589113400152
 30
0.0
 10
3.660571393173207
 20
-30.09904955418764
 30
0.0
 10
3.676259568085624
 20
-30.11493869793478
 30
0.0
 10
3.691152319420606
 20
-30.12841850148184
 30
0.0
 10
3.707345738385494
 20
-30.14162746303358
 30
0.0
 10
3.721611997072023
 20
-30.15228399886482
 30
0.0
 10
3.740164285064797
 20
-30.16477481502038
 30
0.0
 10
3.757375549685194
 20
-30.17498291258095
 30
0.0
 10
3.775753926810192
 20
-30.18462804605914
 30
0.0
 10
3.791792461295268
 20
-30.19217667946886
 30
0.0
 10
3.807369256513163
 20
-30.19858412923263
 30
0.0
 10
3.821916756261243
 20
-30.20393768674669
 30
0.0
 10
3.835173350443089
 20
-30.20828861199546
 30
0.0
 10
3.851657250144136
 20
-30.21299666641999
 30
0.0
 10
3.868130598976296
 20
-30.21692139734607
 30
0.0
 10
3.888137813529813
 20
-30.22070805124357
 30
0.0
 10
3.908147752580027
 20
-30.22341140281336
 30
0.0
 10
3.929683046763915
 20
-30.225162908548
 30
0.0
 10
3.943213763578021
 20
-30.22536701808958
 30
0.0
 10
3.950000000000023
 20
-30.2254693878032
 30
0.0
  0
SPLINE
  5
27D
330
1F
100
AcDbEntity
  8
1
  6
SLD-Dashed
370
    18
100
AcDbSpline
210
0.0
220
0.0
230
1.0
 70
     8
 71
     3
 72
    40
 73
    36
 74
     0
 42
0.000000001
 43
0.00000001
 40
0.0
 40
0.0
 40
0.0
 40
0.0
 40
0.0126129321449749
 40
0.0314976481339587
 40
0.0629183966702574
 40
0.0880663439714092
 40
0.1258663548219046
 40
0.1545361786951767
 40
0.1972635113751502
 40
0.2185774264758776
 40
0.250549973449914
 40
0.2790323571745715
 40
0.3220275475257097
 40
0.3436168159336435
 40
0.3758133620275704
 40
0.4042898095068478
 40
0.4468993710431288
 40
0.4682109723921613
 40
0.5002437124696372
 40
0.528853388731771
 40
0.5719828275869605
 40
0.593442063717947
 40
0.6254916984483689
 40
0.6539107272569482
 40
0.6965262692674938
 40
0.7178823906336926
 40
0.7500313093276828
 40
0.7787800102949213
 40
0.8217645159397994
 40
0.8431483194632984
 40
0.8751517844153632
 40
0.9000181010942335
 40
0.937358773167723
 40
0.9685909586685477
 40
1.0
 40
1.0
 40
1.0
 40
1.0
 10
18.3
 20
-30.22558142012644
 30
0.0
 10
18.30272569594445
 20
-30.22556434752626
 30
0.0
 10
18.30953244086248
 20
-30.22552171297096
 30
0.0
 10
18.32312192068605
 20
-30.22500449703674
 30
0.0
 10
18.33938544977019
 20
-30.22373214657611
 30
0.0
 10
18.35962263823533
 20
-30.221174837236
 30
0.0
 10
18.37912342814685
 20
-30.21766990056755
 30
0.0
 10
18.40209059735809
 20
-30.21222207486889
 30
0.0
 10
18.42129623800884
 20
-30.20644931168887
 30
0.0
 10
18.44082755863401
 20
-30.19943885792773
 30
0.0
 10
18.45718998570672
 20
-30.19274290252152
 30
0.0
 10
18.47744321243868
 20
-30.1832630733897
 30
0.0
 10
18.49514777026504
 20
-30.17368149208103
 30
0.0
 10
18.51299887024296
 20
-30.162778963476
 30
0.0
 10
18.52776206933994
 20
-30.15285978975096
 30
0.0
 10
18.54566370706712
 20
-30.13951958199505
 30
0.0
 10
18.5609891173546
 20
-30.12669241147176
 30
0.0
 10
18.57619506813986
 20
-30.11259090122096
 30
0.0
 10
18.58867147382272
 20
-30.10000934793473
 30
0.0
 10
18.60368863236057
 20
-30.08334675455742
 30
0.0
 10
18.61632529126055
 20
-30.06764146706472
 30
0.0
 10
18.62858943392444
 20
-30.05073531892073
 30
0.0
 10
18.63838877637001
 20
-30.03598007669227
 30
0.0
 10
18.64984348721726
 20
-30.01686769647321
 30
0.0
 10
18.65917024991941
 20
-29.99919574996972
 30
0.0
 10
18.66796418712431
 20
-29.98037484052358
 30
0.0
 10
18.67483422118336
 20
-29.96397246361361
 30
0.0
 10
18.68255017034246
 20
-29.9428852210956
 30
0.0
 10
18.68844193362829
 20
-29.92362739014024
 30
0.0
 10
18.69357143260815
 20
-29.9034406212912
 30
0.0
 10
18.69708101840335
 20
-29.88689085311749
 30
0.0
 10
18.70046357426516
 20
-29.86681061568806
 30
0.0
 10
18.70287526281565
 20
-29.84675343612671
 30
0.0
 10
18.70443558087197
 20
-29.82519260420409
 30
0.0
 10
18.70461727324775
 20
-29.81165457438031
 30
0.0
 10
18.70470837592293
 20
-29.80486644841623
 30
0.0
  0
SPLINE
  5
27E
330
1F
100
AcDbEntity
  8
SK3
  6
SLD-Dashed
370
    18
100
AcDbSpline
210
0.0
220
0.0
230
1.0
 70
     8
 71
     3
 72
    39
 73
    35
 74
     0
 42
0.000000001
 43
0.00000001
 40
0.0
 40
0.0
 40
0.0
 40
0.0
 40
0.0314091160307677
 40
0.062641375864154
 40
0.0875470935131889
 40
0.1248485138287462
 40
0.1532930400450872
 40
0.1960941157944515
 40
0.2176225947738144
 40
0.2499693772004302
 40
0.2785546285585205
 40
0.3212364873026964
 40
0.3425405354923894
 40
0.3745092858974103
 40
0.4029918411019262
 40
0.4459785689856202
 40
0.4675618916159423
 40
0.4997576608210476
 40
0.5282368343000382
 40
0.5708480092883969
 40
0.5921584935845849
 40
0.624188332845246
 40
0.6527986190299447
 40
0.6959401501309724
 40
0.7174023419155647
 40
0.7494519752642036
 40
0.7778741158300034
 40
0.8205144520917296
 40
0.8418962920619176
 40
0.8741359236783779
 40
0.8993502252909584
 40
0.9370840470446232
 40
0.9685048711195082
 40
1.0
 40
1.0
 40
1.0
 40
1.0
 10
18.70461115500203
 20
29.80485527419825
 30
0.0
 10
18.70452025144942
 20
29.81164171345384
 30
0.0
 10
18.7043389561974
 20
29.82517637936966
 30
0.0
 10
18.70297056619667
 20
29.84405190465711
 30
0.0
 10
18.70074103176619
 20
29.86411824570158
 30
0.0
 10
18.69766377514247
 20
29.8834722762258
 30
0.0
 10
18.69285822025328
 20
29.90643124843558
 30
0.0
 10
18.68771177437782
 20
29.92581971282424
 30
0.0
 10
18.68138591064229
 20
29.94572790966325
 30
0.0
 10
18.6753070430736
 20
29.96248267210257
 30
0.0
 10
18.6667122239519
 20
29.98315850998393
 30
0.0
 10
18.65804498468777
 20
30.00120090567664
 30
0.0
 10
18.64816898127236
 20
30.01943081107649
 30
0.0
 10
18.63912598786658
 20
30.03461278108223
 30
0.0
 10
18.62681037274125
 20
30.0532673496676
 30
0.0
 10
18.61481562184566
 20
30.06942261759878
 30
0.0
 10
18.60152603092412
 20
30.08556438898109
 30
0.0
 10
18.58965984265966
 20
30.09880574838227
 30
0.0
 10
18.57398746850281
 20
30.11469877887869
 30
0.0
 10
18.55918618111312
 20
30.12812096686809
 30
0.0
 10
18.54313791073561
 20
30.14124723286361
 30
0.0
 10
18.52896425933555
 20
30.15187245989083
 30
0.0
 10
18.51038407954446
 20
30.16443427377514
 30
0.0
 10
18.4930602831431
 20
30.17474090541244
 30
0.0
 10
18.47457768707379
 20
30.18446497823757
 30
0.0
 10
18.458558957064
 20
30.19201976729602
 30
0.0
 10
18.43796004437194
 20
30.20051935318396
 30
0.0
 10
18.41906612592659
 20
30.20705284128372
 30
0.0
 10
18.3990775214993
 20
30.21280585013027
 30
0.0
 10
18.38250765201565
 20
30.21678677988688
 30
0.0
 10
18.36230136175013
 20
30.22064109222357
 30
0.0
 10
18.34208698503431
 20
30.2233898561806
 30
0.0
 10
18.32039969464305
 20
30.22516034748688
 30
0.0
 10
18.30680524997083
 20
30.22536629328657
 30
0.0
 10
18.30000000000006
 20
30.22546938779912
 30
0.0
  0
SPLINE
  5
27F
330
1F
100
AcDbEntity
  8
SK3
  6
SLD-Dashed
370
    18
100
AcDbSpline
210
0.0
220
0.0
230
1.0
 70
     8
 71
     3
 72
    40
 73
    36
 74
     0
 42
0.000000001
 43
0.00000001
 40
0.0
 40
0.0
 40
0.0
 40
0.0
 40
0.0125929119920799
 40
0.0314096195346371
 40
0.0626234169499144
 40
0.0875147363747578
 40
0.1248144128307291
 40
0.1532834083387329
 40
0.1962265830891804
 40
0.2178107992109905
 40
0.2500224951329297
 40
0.2785169301551935
 40
0.3211718523043735
 40
0.3425182663517212
 40
0.3746092478105252
 40
0.4033018002026009
 40
0.4463503818994297
 40
0.4677602234265738
 40
0.4997883410590129
 40
0.5282270395863776
 40
0.5709521530205359
 40
0.592413861861735
 40
0.6247350591047609
 40
0.6534144483970886
 40
0.696168319941901
 40
0.717496931450338
 40
0.7494813527194164
 40
0.7779588669976948
 40
0.8208766717687338
 40
0.8424514691504659
 40
0.8747242821794735
 40
0.8997563983109476
 40
0.9372703102803513
 40
0.9685784185325865
 40
1.0
 40
1.0
 40
1.0
 40
1.0
 10
3.950000000000012
 20
30.22558142012639
 30
0.0
 10
3.947278630487608
 20
30.22556441746848
 30
0.0
 10
3.940490908866767
 20
30.22552200892811
 30
0.0
 10
3.926965088488737
 20
30.22500878447084
 30
0.0
 10
3.910815897791772
 20
30.2237499082788
 30
0.0
 10
3.890783626647191
 20
30.22123374888838
 30
0.0
 10
3.871482565347226
 20
30.21779055348816
 30
0.0
 10
3.848607405882335
 20
30.21241015713828
 30
0.0
 10
3.829331319368901
 20
30.20665667098931
 30
0.0
 10
3.809642218453955
 20
30.19962160064928
 30
0.0
 10
3.793167806815507
 20
30.19290122073892
 30
0.0
 10
3.772924482298188
 20
30.18344563237707
 30
0.0
 10
3.755317616591678
 20
30.17394373601331
 30
0.0
 10
3.737577171360727
 20
30.16314575471339
 30
0.0
 10
3.722818978858862
 20
30.15327064640551
 30
0.0
 10
3.704798099920072
 20
30.1398914446621
 30
0.0
 10
3.689332466278732
 20
30.12697740010818
 30
0.0
 10
3.674029699770672
 20
30.11281096127924
 30
0.0
 10
3.661557220132579
 20
30.10024903998077
 30
0.0
 10
3.646609511589688
 20
30.08369276015743
 30
0.0
 10
3.634030514372699
 20
30.06810049270645
 30
0.0
 10
3.621756928744937
 20
30.0512360070818
 30
0.0
 10
3.611872616558035
 20
30.03639837328908
 30
0.0
 10
3.600324644432432
 20
30.01717281850422
 30
0.0
 10
3.590949392450422
 20
29.99943559548712
 30
0.0
 10
3.582148995017346
 20
29.98063051707893
 30
0.0
 10
3.575306871630871
 20
29.96432508828283
 30
0.0
 10
3.567606450656909
 20
29.94334796470472
 30
0.0
 10
3.561699011690671
 20
29.92412819400953
 30
0.0
 10
3.556524840089386
 20
29.9038649584692
 30
0.0
 10
3.552972986099558
 20
29.8871856268312
 30
0.0
 10
3.549559886390255
 20
29.86697716337638
 30
0.0
 10
3.547128888650076
 20
29.84683182165024
 30
0.0
 10
3.545565946831262
 20
29.82521437831678
 30
0.0
 10
3.545383175201834
 20
29.81165726630967
 30
0.0
 10
3.545291624077152
 20
29.80486644841629
 30
0.0
  0
SPLINE
  5
280
330
1F
100
AcDbEntity
  8
1
  6
SLD-Dashed
370
    18
100
AcDbSpline
210
0.0
220
0.0
230
1.0
 70
     8
 71
     3
 72
     8
 73
     4
 74
     0
 42
0.000000001
 43
0.00000001
 40
0.0
 40
0.0
 40
0.0
 40
0.0
 40
1.0
 40
1.0
 40
1.0
 40
1.0
 10
9.199999999999998
 20
27.80504563417292
 30
0.0
 10
8.752403481898924
 20
28.61249255653034
 30
0.0
 10
8.303650620483651
 20
29.41929290832671
 30
0.0
 10
7.85398705347737
 20
30.22558142012643
 30
0.0
  0
SPLINE
  5
281
330
1F
100
AcDbEntity
  8
1
  6
SLD-Dashed
370
    18
100
AcDbSpline
210
0.0
220
0.0
230
1.0
 70
     8
 71
     3
 72
    12
 73
     8
 74
     0
 42
0.000000001
 43
0.00000001
 40
0.0
 40
0.0
 40
0.0
 40
0.0
 40
0.2499999999999984
 40
0.2499999999999984
 40
0.4999999999999969
 40
0.4999999999999969
 40
1.0
 40
1.0
 40
1.0
 40
1.0
 10
9.950000000000012
 20
26.98706356756881
 30
0.0
 10
9.85014945204293
 20
26.98706356756879
 30
0.0
 10
9.748134209428116
 20
27.00887348025307
 30
0.0
 10
9.565410104204568
 20
27.0898925831707
 30
0.0
 10
9.48198482436893
 20
27.14976438531446
 30
0.0
 10
9.277274567403403
 20
27.36818499553367
 30
0.0
 10
9.200000000000014
 20
27.56879736260814
 30
0.0
 10
9.200000000000014
 20
27.76916635406976
 30
0.0
  0
SPLINE
  5
282
330
1F
100
AcDbEntity
  8
1
  6
SLD-Dashed
370
    18
100
AcDbSpline
210
0.0
220
0.0
230
1.0
 70
     8
 71
     3
 72
    12
 73
     8
 74
     0
 42
0.000000001
 43
0.00000001
 40
0.0
 40
0.0
 40
0.0
 40
0.0
 40
0.2500000000000007
 40
0.2500000000000007
 40
0.5000000000000014
 40
0.5000000000000014
 40
1.0
 40
1.0
 40
1.0
 40
1.0
 10
13.03
 20
27.76916635406975
 30
0.0
 10
13.03000000000002
 20
27.66900663339825
 30
0.0
 10
13.01145353522916
 20
27.56910146598282
 30
0.0
 10
12.93858199206009
 20
27.38178244661977
 30
0.0
 10
12.88523035542461
 20
27.29613295246495
 30
0.0
 10
12.67790477657024
 20
27.07503152815009
 30
0.0
 10
12.47994383972985
 20
26.98706356756883
 30
0.0
 10
12.28000000000003
 20
26.98706356756882
 30
0.0
  0
SPLINE
  5
283
330
1F
100
AcDbEntity
  8
1
  6
SLD-Dashed
370
    18
100
AcDbSpline
210
0.0
220
0.0
230
1.0
 70
     8
 71
     3
 72
     8
 73
     4
 74
     0
 42
0.000000001
 43
0.00000001
 40
0.0
 40
0.0
 40
0.0
 40
0.0
 40
1.0
 40
1.0
 40
1.0
 40
1.0
 10
14.37595046659276
 20
30.22546938779912
 30
0.0
 10
13.92630781119526
 20
29.41921817244961
 30
0.0
 10
13.47757578719339
 20
28.61245515876933
 30
0.0
 10
13.03000000000001
 20
27.80504563417289
 30
0.0
  0
SPLINE
  5
284
330
1F
100
AcDbEntity
  8
SK3
  6
SLD-Dashed
370
    18
100
AcDbSpline
210
0.0
220
0.0
230
1.0
 70
     8
 71
     3
 72
    34
 73
    30
 74
     0
 42
0.000000001
 43
0.00000001
 40
0.4999999999999964
 40
0.4999999999999964
 40
0.4999999999999964
 40
0.4999999999999964
 40
0.5624999999999961
 40
0.5624999999999961
 40
0.5937499999999962
 40
0.5937499999999962
 40
0.6249999999999963
 40
0.6249999999999963
 40
0.6562499999999964
 40
0.6562499999999964
 40
0.6874999999999966
 40
0.6874999999999966
 40
0.7499999999999971
 40
0.7499999999999971
 40
0.7812499999999974
 40
0.7812499999999974
 40
0.8124999999999978
 40
0.8124999999999978
 40
0.8437499999999982
 40
0.8437499999999982
 40
0.8749999999999986
 40
0.8749999999999986
 40
0.9062499999999989
 40
0.9062499999999989
 40
0.9374999999999992
 40
0.9374999999999992
 40
0.9687499999999997
 40
0.9687499999999997
 40
1.0
 40
1.0
 40
1.0
 40
1.0
 10
10.43489457346453
 20
9.192707275454431
 30
0.0
 10
10.57763203931583
 20
9.178391047657614
 30
0.0
 10
10.73072898252597
 20
9.148788373493296
 30
0.0
 10
11.00846457422353
 20
9.07984816114555
 30
0.0
 10
11.10872720463399
 20
9.052921739824741
 30
0.0
 10
11.33151412887495
 20
8.987194762961344
 30
0.0
 10
11.45288474947191
 20
8.948740399015172
 30
0.0
 10
11.69975803299396
 20
8.855687905200401
 30
0.0
 10
11.82369929941915
 20
8.80103390362743
 30
0.0
 10
12.05254486308013
 20
8.67406723807662
 30
0.0
 10
12.15835137945201
 20
8.601647149158655
 30
0.0
 10
12.44326053814744
 20
8.354209612853907
 30
0.0
 10
12.58579742123003
 20
8.151094935723822
 30
0.0
 10
12.70895241472733
 20
7.809142101035407
 30
0.0
 10
12.7353556030883
 20
7.687003589969613
 30
0.0
 10
12.7552697450104
 20
7.441164323332049
 30
0.0
 10
12.74937513382363
 20
7.315281863556497
 30
0.0
 10
12.70533810945412
 20
7.06394119363997
 30
0.0
 10
12.66802095968715
 20
6.941631000096427
 30
0.0
 10
12.56344952904385
 20
6.704179749394003
 30
0.0
 10
12.49625932456629
 20
6.590217548379691
 30
0.0
 10
12.33809446794183
 20
6.382378293731284
 30
0.0
 10
12.24493473983124
 20
6.285873995051205
 30
0.0
 10
12.0405491512664
 20
6.122156553344173
 30
0.0
 10
11.92932147845091
 20
6.054026580940134
 30
0.0
 10
11.68736550523707
 20
5.952992896783506
 30
0.0
 10
11.56181201416268
 20
5.923411177353247
 30
0.0
 10
11.31821027169287
 20
5.909336941584402
 30
0.0
 10
11.20410590689123
 20
5.924577191512063
 30
0.0
 10
11.1
 20
5.953410618658242
 30
0.0
  0
SPLINE
  5
285
330
1F
100
AcDbEntity
  8
SK3
  6
SLD-Dashed
370
    18
100
AcDbSpline
210
0.0
220
0.0
230
1.0
 70
     8
 71
     3
 72
    32
 73
    28
 74
     0
 42
0.000000001
 43
0.00000001
 40
0.0
 40
0.0
 40
0.0
 40
0.0
 40
0.0312499999999998
 40
0.0312499999999998
 40
0.0624999999999996
 40
0.0624999999999996
 40
0.1249999999999991
 40
0.1249999999999991
 40
0.1874999999999986
 40
0.1874999999999986
 40
0.2187499999999983
 40
0.2187499999999983
 40
0.2499999999999979
 40
0.2499999999999979
 40
0.2812499999999978
 40
0.2812499999999978
 40
0.3124999999999976
 40
0.3124999999999976
 40
0.3437499999999974
 40
0.3437499999999974
 40
0.3749999999999972
 40
0.3749999999999972
 40
0.406249999999997
 40
0.406249999999997
 40
0.4374999999999968
 40
0.4374999999999968
 40
0.4999999999999964
 40
0.4999999999999964
 40
0.4999999999999964
 40
0.4999999999999964
 10
11.1
 20
5.953410618658242
 30
0.0
 10
10.99589409310878
 20
5.982244045804441
 30
0.0
 10
10.90407857642199
 20
6.023103286373573
 30
0.0
 10
10.73262137377525
 20
6.11824072587281
 30
0.0
 10
10.65318813797005
 20
6.172784121821907
 30
0.0
 10
10.42547236553634
 20
6.352355611395084
 30
0.0
 10
10.29042057236915
 20
6.490344336420456
 30
0.0
 10
10.03758703563627
 20
6.798492095359341
 30
0.0
 10
9.919813607757956
 20
6.968691620995678
 30
0.0
 10
9.755188160048112
 20
7.264657280293567
 30
0.0
 10
9.702965925809076
 20
7.36952916930763
 30
0.0
 10
9.608196888300558
 20
7.590905988961227
 30
0.0
 10
9.564891013149571
 20
7.708630023759016
 30
0.0
 10
9.493588627253482
 20
7.962877344356856
 30
0.0
 10
9.466892276768474
 20
8.097433676092724
 30
0.0
 10
9.444811777617288
 20
8.357466636459767
 30
0.0
 10
9.450063840888228
 20
8.483405619809336
 30
0.0
 10
9.490124926315847
 20
8.69644691367029
 30
0.0
 10
9.523244242074139
 20
8.782864284801864
 30
0.0
 10
9.604247903804639
 20
8.92514426674946
 30
0.0
 10
9.650743567469144
 20
8.979230676614124
 30
0.0
 10
9.751569607309607
 20
9.067142795898937
 30
0.0
 10
9.806244160784559
 20
9.100654189155025
 30
0.0
 10
9.91929173158787
 20
9.151642126956078
 30
0.0
 10
9.978038231873294
 20
9.169399205425442
 30
0.0
 10
10.16095206270197
 20
9.205547608603656
 30
0.0
 10
10.29215710761321
 20
9.207023503251241
 30
0.0
 10
10.43489457346453
 20
9.192707275454431
 30
0.0
  0
DIMENSION
  5
286
330
1F
100
AcDbEntity
  8
2
100
AcDbDimension
  2
_D
 10
101.6
 20
70.8215490434
 30
0.0
 11
26.7904797245
 21
70.8215490434
 31
0.0
 70
   160
  1
<>
 71
     2
 42
-1.0
  3
SLDDIMSTYLE0
100
AcDbAlignedDimension
 13
0.0
 23
22.225
 33
0.0
 14
101.6
 24
17.8
 34
0.0
 50
0.0
100
AcDbRotatedDimension
  0
DIMENSION
  5
29B
330
1F
100
AcDbEntity
  8
SK2
100
AcDbDimension
  2
_D_1
 10
19.05
 20
58.0050040086
 30
0.0
 11
8.1338400539
 21
58.0050040086
 31
0.0
 70
   160
  1
<>
 71
     2
 42
-1.0
  3
SLDDIMSTYLE1
100
AcDbAlignedDimension
 13
0.0
 23
22.225
 33
0.0
 14
19.05
 24
29.8048664484
 34
0.0
100
AcDbRotatedDimension
  0
DIMENSION
  5
2A6
330
1F
100
AcDbEntity
  8
SK2
100
AcDbDimension
  2
_D_2
 10
101.6
 20
58.0050040086
 30
0.0
 11
48.2018146358
 21
58.0050040086
 31
0.0
 70
   160
  1
<>
 71
     2
 42
-1.0
  3
SLDDIMSTYLE0
100
AcDbAlignedDimension
 13
19.05
 23
29.8048664484
 33
0.0
 14
101.6
 24
17.8
 34
0.0
100
AcDbRotatedDimension
  0
DIMENSION
  5
2B9
330
1F
100
AcDbEntity
  8
SK2
100
AcDbDimension
  2
_D_3
 10
101.6
 20
45.3372054805
 30
0.0
 11
66.9880621897
 21
45.3372054805
 31
0.0
 70
   160
  1
<>
 71
     2
 42
-1.0
  3
SLDDIMSTYLE0
100
AcDbAlignedDimension
 13
35.05
 23
22.225
 33
0.0
 14
101.6
 24
17.8
 34
0.0
 50
0.0
100
AcDbRotatedDimension
  0
DIMENSION
  5
2CC
330
1F
100
AcDbEntity
  8
SK2
100
AcDbDimension
  2
_D_4
 10
73.025
 20
32.1748986982
 30
0.0
 11
86.5353514735
 21
32.1748986982
 31
0.0
 70
   160
  1
<>
 71
     2
 42
-1.0
  3
SLDDIMSTYLE0
100
AcDbAlignedDimension
 13
101.6
 23
17.8
 33
0.0
 14
73.025
 24
25.3
 34
0.0
100
AcDbRotatedDimension
  0
DIMENSION
  5
2DF
330
1F
100
AcDbEntity
  8
SK2
100
AcDbDimension
  2
_D_5
 10
73.025
 20
32.1748986982
 30
0.0
 11
60.5785935083
 21
32.1748986982
 31
0.0
 70
   160
  1
<>
 71
     2
 42
-1.0
  3
SLDDIMSTYLE0
100
AcDbAlignedDimension
 13
48.025
 23
25.3
 33
0.0
 14
73.025
 24
25.3
 34
0.0
100
AcDbRotatedDimension
  0
DIMENSION
  5
2F2
330
1F
100
AcDbEntity
  8
SK2
100
AcDbDimension
  2
_D_6
 10
115.4578924374
 20
12.5
 30
0.0
 11
115.4578924374
 21
-0.7583096662
 31
0.0
 70
   160
  1
%%c<>
 71
     2
 42
-1.0
  3
SLDDIMSTYLE2
100
AcDbAlignedDimension
 13
100.6
 23
-12.5
 33
0.0
 14
100.6
 24
12.5
 34
0.0
 50
90.0
100
AcDbRotatedDimension
  0
DIMENSION
  5
305
330
1F
100
AcDbEntity
  8
SK2
100
AcDbDimension
  2
_D_7
 10
131.380945643
 20
-17.8
 30
0.0
 11
131.380945643
 21
-0.7583096662
 31
0.0
 70
   160
  1
%%c<>
 71
     2
 42
-1.0
  3
SLDDIMSTYLE0
100
AcDbAlignedDimension
 13
101.6
 23
17.8
 33
0.0
 14
101.6
 24
-17.8
 34
0.0
 50
90.0
100
AcDbRotatedDimension
  0
DIMENSION
  5
317
330
1F
100
AcDbEntity
  8
SK2
100
AcDbDimension
  2
_D_8
 10
145.5590067164
 20
-25.4
 30
0.0
 11
145.5590067164
 21
0.3323104164
 31
0.0
 70
   160
  1
%%c<>
 71
     2
 42
-1.0
  3
SLDDIMSTYLE0
100
AcDbAlignedDimension
 13
94.0
 23
25.4
 33
0.0
 14
94.0
 24
-25.4
 34
0.0
 50
90.0
100
AcDbRotatedDimension
  0
DIMENSION
  5
329
330
1F
100
AcDbEntity
  8
SK2
100
AcDbDimension
  2
_D_9
 10
101.6
 20
-56.0177670929
 30
0.0
 11
-4.1454690464
 21
-56.0177670929
 31
0.0
 70
   160
  1
<>
 71
     2
 42
-1.0
  3
SLDDIMSTYLE2
100
AcDbAlignedDimension
 13
-68.25
 23
-11.1476148288
 33
0.0
 14
101.6
 24
-17.8
 34
0.0
 50
0.0
100
AcDbRotatedDimension
  0
DIMENSION
  5
33C
330
1F
100
AcDbEntity
  8
SK2
100
AcDbDimension
  2
_D_10
 10
101.6
 20
-46.0233528012
 30
0.0
 11
64.0645846958
 21
-46.0233528012
 31
0.0
 70
   160
  1
<>
 71
     2
 42
-1.0
  3
SLDDIMSTYLE0
100
AcDbAlignedDimension
 13
31.75
 23
-12.4958558439
 33
0.0
 14
101.6
 24
-17.8
 34
0.0
100
AcDbRotatedDimension
  0
DIMENSION
  5
34F
330
1F
100
AcDbEntity
  8
SK2
100
AcDbDimension
  2
_D_11
 10
101.6
 20
-36.5396020135
 30
0.0
 11
86.5353514735
 21
-36.5396020135
 31
0.0
 70
   160
  1
<>
 71
     2
 42
-1.0
  3
SLDDIMSTYLE3
100
AcDbAlignedDimension
 13
94.0
 23
-25.4
 33
0.0
 14
101.6
 24
-17.8
 34
0.0
100
AcDbRotatedDimension
  0
DIMENSION
  5
35C
330
1F
100
AcDbEntity
  8
SK2
100
AcDbDimension
  2
_D_12
 10
-88.0401875529
 20
-30.5579086614
 30
0.0
 11
-88.0401875529
 21
-0.7583096662
 31
0.0
 70
   160
  1
%%c<>
 71
     2
 42
-1.0
  3
SLDDIMSTYLE1
100
AcDbAlignedDimension
 13
5.7694368227
 23
30.5578899967
 33
0.0
 14
3.95
 24
-30.5579086614
 34
0.0
 50
90.0
100
AcDbRotatedDimension
  0
DIMENSION
  5
367
330
1F
100
AcDbEntity
  8
SK2
100
AcDbDimension
  2
_D_13
 10
-75.0912201312
 20
-7.9375002533
 30
0.0
 11
-75.0912201312
 21
1.3954011372
 31
0.0
 70
   160
  1
<>
 71
     2
 42
-1.0
  3
SLDDIMSTYLE4
100
AcDbAlignedDimension
 13
-63.3082389832
 23
7.9375002533
 33
0.0
 14
-63.3082389832
 24
-7.9375002533
 34
0.0
 50
90.0
100
AcDbRotatedDimension
  0
MTEXT
  5
375
330
1F
100
AcDbEntity
  8
SK6
 62
     5
100
AcDbMText
 10
-50.6523000466
 20
-23.2921476285
 30
0.0
 40
3.5
 41
0.0
 71
     1
 72
     1
  1
392.45520-40 25 100
  7
SLDTEXTSTYLE0
 73
     1
 44
1.0
  0
MTEXT
  5
376
330
1F
100
AcDbEntity
  8
SK6
 62
     5
100
AcDbMText
 10
-49.8307710903
 20
27.5321032347
 30
0.0
 40
3.5
 41
0.0
 71
     1
 72
     1
  1
ASME B5.50 CAT 40
  7
SLDTEXTSTYLE0
 73
     1
 44
1.0
  0
ENDSEC
  0
SECTION
  2
OBJECTS
  0
DICTIONARY
  5
C
330
0
100
AcDbDictionary
281
     1
  3
ACAD_GROUP
350
D
  3
ACAD_LAYOUT
350
1A
  3
ACAD_MLINESTYLE
350
17
  3
ACAD_PLOTSETTINGS
350
19
  3
ACAD_PLOTSTYLENAME
350
E
  3
ACAD_SCALELIST
350
47
  0
DICTIONARY
  5
D
102
{ACAD_REACTORS
330
C
102
}
330
C
100
AcDbDictionary
281
     1
  0
DICTIONARY
  5
1A
102
{ACAD_REACTORS
330
C
102
}
330
C
100
AcDbDictionary
281
     1
  3
Layout1
350
1E
  3
Layout2
350
26
  3
Model
350
22
  0
DICTIONARY
  5
17
102
{ACAD_REACTORS
330
C
102
}
330
C
100
AcDbDictionary
281
     1
  3
Standard
350
18
  0
DICTIONARY
  5
19
102
{ACAD_REACTORS
330
C
102
}
330
C
100
AcDbDictionary
281
     1
  0
ACDBDICTIONARYWDFLT
  5
E
102
{ACAD_REACTORS
330
C
102
}
330
C
100
AcDbDictionary
281
     1
  3
Normal
350
F
100
AcDbDictionaryWithDefault
340
F
  0
DICTIONARY
  5
47
102
{ACAD_REACTORS
330
C
102
}
330
C
100
AcDbDictionary
281
     1
  3
A0
350
48
  3
A1
350
49
  3
A2
350
4A
  3
A3
350
4B
  3
A4
350
4C
  3
A5
350
4D
  3
A6
350
4E
  3
A7
350
4F
  3
A8
350
50
  3
A9
350
51
  3
B0
350
52
  3
B1
350
53
  3
B2
350
54
  3
B3
350
55
  3
B4
350
56
  3
B5
350
57
  3
B6
350
58
  3
B7
350
59
  3
B8
350
5A
  3
B9
350
5B
  3
C0
350
5C
  3
C1
350
5D
  3
C2
350
5E
  3
C3
350
5F
  3
C4
350
60
  3
C5
350
61
  3
C6
350
62
  3
C7
350
63
  3
C8
350
64
  3
C9
350
65
  3
D0
350
66
  3
D1
350
67
  3
D2
350
68
  0
LAYOUT
  5
1E
102
{ACAD_REACTORS
330
1A
102
}
330
1A
100
AcDbPlotSettings
  1

  2
none_device
  4

  6

 40
0.0
 41
0.0
 42
0.0
 43
0.0
 44
0.0
 45
0.0
 46
0.0
 47
0.0
 48
0.0
 49
0.0
140
0.0
141
0.0
142
1.0
143
1.0
 70
   688
 72
     1
 73
     0
 74
     5
  7

 75
    16
147
1.0
148
0.0
149
0.0
100
AcDbLayout
  1
Layout1
 70
     1
 71
     1
 10
0.0
 20
0.0
 11
420.0
 21
297.0
 12
0.0
 22
0.0
 32
0.0
 14
1.0000000000E+20
 24
1.0000000000E+20
 34
1.0000000000E+20
 15
-1.0000000000E+20
 25
-1.0000000000E+20
 35
-1.0000000000E+20
146
0.0
 13
0.0
 23
0.0
 33
0.0
 16
1.0
 26
0.0
 36
0.0
 17
0.0
 27
1.0
 37
0.0
 76
     0
330
1B
  0
LAYOUT
  5
26
102
{ACAD_REACTORS
330
1A
102
}
330
1A
100
AcDbPlotSettings
  1

  2
none_device
  4

  6

 40
0.0
 41
0.0
 42
0.0
 43
0.0
 44
0.0
 45
0.0
 46
0.0
 47
0.0
 48
0.0
 49
0.0
140
0.0
141
0.0
142
1.0
143
1.0
 70
   688
 72
     1
 73
     0
 74
     5
  7

 75
    16
147
1.0
148
0.0
149
0.0
100
AcDbLayout
  1
Layout2
 70
     1
 71
     2
 10
0.0
 20
0.0
 11
0.0
 21
0.0
 12
0.0
 22
0.0
 32
0.0
 14
0.0
 24
0.0
 34
0.0
 15
0.0
 25
0.0
 35
0.0
146
0.0
 13
0.0
 23
0.0
 33
0.0
 16
1.0
 26
0.0
 36
0.0
 17
0.0
 27
1.0
 37
0.0
 76
     0
330
23
  0
LAYOUT
  5
22
102
{ACAD_REACTORS
330
1A
102
}
330
1A
100
AcDbPlotSettings
  1

  2
none_device
  4
Letter_(8.50_x_11.00_Inches)
  6

 40
6.35
 41
6.35
 42
6.35000508
 43
6.35000508
 44
215.9
 45
279.4
 46
0.0
 47
0.0
 48
0.0
 49
0.0
140
0.0
141
0.0
142
1.0
143
1.0
 70
  1712
 72
     1
 73
     0
 74
     0
  7

 75
     0
147
1.0
148
0.0
149
0.0
100
AcDbLayout
  1
Model
 70
     1
 71
     0
 10
0.0
 20
0.0
 11
297.0
 21
210.0
 12
0.0
 22
0.0
 32
0.0
 14
0.0
 24
0.0
 34
0.0
 15
297.0
 25
210.0
 35
0.0
146
0.0
 13
0.0
 23
0.0
 33
0.0
 16
1.0
 26
0.0
 36
0.0
 17
0.0
 27
1.0
 37
0.0
 76
     0
330
1F
331
29
  0
MLINESTYLE
  5
18
102
{ACAD_REACTORS
330
17
102
}
330
17
100
AcDbMlineStyle
  2
Standard
 70
     0
  3

 62
   256
 51
90.0
 52
90.0
 71
     2
 49
0.5
 62
   256
  6
BYLAYER
 49
-0.5
 62
   256
  6
BYLAYER
  0
ACDBPLACEHOLDER
  5
F
102
{ACAD_REACTORS
330
E
102
}
330
E
  0
SCALE
  5
48
102
{ACAD_REACTORS
330
47
102
}
330
47
100
AcDbScale
 70
     0
300
1:1
140
1.0
141
1.0
290
     1
  0
SCALE
  5
49
102
{ACAD_REACTORS
330
47
102
}
330
47
100
AcDbScale
 70
     0
300
1:2
140
1.0
141
2.0
290
     0
  0
SCALE
  5
4A
102
{ACAD_REACTORS
330
47
102
}
330
47
100
AcDbScale
 70
     0
300
1:4
140
1.0
141
4.0
290
     0
  0
SCALE
  5
4B
102
{ACAD_REACTORS
330
47
102
}
330
47
100
AcDbScale
 70
     0
300
1:5
140
1.0
141
5.0
290
     0
  0
SCALE
  5
4C
102
{ACAD_REACTORS
330
47
102
}
330
47
100
AcDbScale
 70
     0
300
1:8
140
1.0
141
8.0
290
     0
  0
SCALE
  5
4D
102
{ACAD_REACTORS
330
47
102
}
330
47
100
AcDbScale
 70
     0
300
1:10
140
1.0
141
10.0
290
     0
  0
SCALE
  5
4E
102
{ACAD_REACTORS
330
47
102
}
330
47
100
AcDbScale
 70
     0
300
1:16
140
1.0
141
16.0
290
     0
  0
SCALE
  5
4F
102
{ACAD_REACTORS
330
47
102
}
330
47
100
AcDbScale
 70
     0
300
1:20
140
1.0
141
20.0
290
     0
  0
SCALE
  5
50
102
{ACAD_REACTORS
330
47
102
}
330
47
100
AcDbScale
 70
     0
300
1:30
140
1.0
141
30.0
290
     0
  0
SCALE
  5
51
102
{ACAD_REACTORS
330
47
102
}
330
47
100
AcDbScale
 70
     0
300
1:40
140
1.0
141
40.0
290
     0
  0
SCALE
  5
52
102
{ACAD_REACTORS
330
47
102
}
330
47
100
AcDbScale
 70
     0
300
1:50
140
1.0
141
50.0
290
     0
  0
SCALE
  5
53
102
{ACAD_REACTORS
330
47
102
}
330
47
100
AcDbScale
 70
     0
300
1:100
140
1.0
141
100.0
290
     0
  0
SCALE
  5
54
102
{ACAD_REACTORS
330
47
102
}
330
47
100
AcDbScale
 70
     0
300
2:1
140
2.0
141
1.0
290
     0
  0
SCALE
  5
55
102
{ACAD_REACTORS
330
47
102
}
330
47
100
AcDbScale
 70
     0
300
4:1
140
4.0
141
1.0
290
     0
  0
SCALE
  5
56
102
{ACAD_REACTORS
330
47
102
}
330
47
100
AcDbScale
 70
     0
300
8:1
140
8.0
141
1.0
290
     0
  0
SCALE
  5
57
102
{ACAD_REACTORS
330
47
102
}
330
47
100
AcDbScale
 70
     0
300
10:1
140
10.0
141
1.0
290
     0
  0
SCALE
  5
58
102
{ACAD_REACTORS
330
47
102
}
330
47
100
AcDbScale
 70
     0
300
100:1
140
100.0
141
1.0
290
     0
  0
SCALE
  5
59
102
{ACAD_REACTORS
330
47
102
}
330
47
100
AcDbScale
 70
     0
300
1/128" = 1'-0"
140
0.0078125
141
12.0
290
     0
  0
SCALE
  5
5A
102
{ACAD_REACTORS
330
47
102
}
330
47
100
AcDbScale
 70
     0
300
1/64" = 1'-0"
140
0.015625
141
12.0
290
     0
  0
SCALE
  5
5B
102
{ACAD_REACTORS
330
47
102
}
330
47
100
AcDbScale
 70
     0
300
1/32" = 1'-0"
140
0.03125
141
12.0
290
     0
  0
SCALE
  5
5C
102
{ACAD_REACTORS
330
47
102
}
330
47
100
AcDbScale
 70
     0
300
1/16" = 1'-0"
140
0.0625
141
12.0
290
     0
  0
SCALE
  5
5D
102
{ACAD_REACTORS
330
47
102
}
330
47
100
AcDbScale
 70
     0
300
3/32" = 1'-0"
140
0.09375
141
12.0
290
     0
  0
SCALE
  5
5E
102
{ACAD_REACTORS
330
47
102
}
330
47
100
AcDbScale
 70
     0
300
1/8" = 1'-0"
140
0.125
141
12.0
290
     0
  0
SCALE
  5
5F
102
{ACAD_REACTORS
330
47
102
}
330
47
100
AcDbScale
 70
     0
300
3/16" = 1'-0"
140
0.1875
141
12.0
290
     0
  0
SCALE
  5
60
102
{ACAD_REACTORS
330
47
102
}
330
47
100
AcDbScale
 70
     0
300
1/4" = 1'-0"
140
0.25
141
12.0
290
     0
  0
SCALE
  5
61
102
{ACAD_REACTORS
330
47
102
}
330
47
100
AcDbScale
 70
     0
300
3/8" = 1'-0"
140
0.375
141
12.0
290
     0
  0
SCALE
  5
62
102
{ACAD_REACTORS
330
47
102
}
330
47
100
AcDbScale
 70
     0
300
1/2" = 1'-0"
140
0.5
141
12.0
290
     0
  0
SCALE
  5
63
102
{ACAD_REACTORS
330
47
102
}
330
47
100
AcDbScale
 70
     0
300
3/4" = 1'-0"
140
0.75
141
12.0
290
     0
  0
SCALE
  5
64
102
{ACAD_REACTORS
330
47
102
}
330
47
100
AcDbScale
 70
     0
300
1" = 1'-0"
140
1.0
141
12.0
290
     0
  0
SCALE
  5
65
102
{ACAD_REACTORS
330
47
102
}
330
47
100
AcDbScale
 70
     0
300
1-1/2" = 1'-0"
140
1.5
141
12.0
290
     0
  0
SCALE
  5
66
102
{ACAD_REACTORS
330
47
102
}
330
47
100
AcDbScale
 70
     0
300
3" = 1'-0"
140
3.0
141
12.0
290
     0
  0
SCALE
  5
67
102
{ACAD_REACTORS
330
47
102
}
330
47
100
AcDbScale
 70
     0
300
6" = 1'-0"
140
6.0
141
12.0
290
     0
  0
SCALE
  5
68
102
{ACAD_REACTORS
330
47
102
}
330
47
100
AcDbScale
 70
     0
300
1'-0" = 1'-0"
140
12.0
141
12.0
290
     0
  0
ENDSEC
  0
EOF
