  0
SECTION
  2
HEADER
  9
$ACADVER
  1
AC1015
  9
$ACADMAINTVER
 70
     6
  9
$DWGCODEPAGE
  3
ANSI_1250
  9
$INSBASE
 10
0.0
 20
0.0
 30
0.0
  9
$EXTMIN
 10
0.0
 20
0.0
 30
0.0
  9
$EXTMAX
 10
297.0
 20
210.0
 30
0.0
  9
$LIMMIN
 10
0.0
 20
0.0
  9
$LIMMAX
 10
297.0
 20
210.0
  9
$ORTHOMODE
 70
     0
  9
$REGENMODE
 70
     1
  9
$FILLMODE
 70
     1
  9
$QTEXTMODE
 70
     0
  9
$MIRRTEXT
 70
     1
  9
$LTSCALE
 40
1.0
  9
$ATTMODE
 70
     1
  9
$TEXTSIZE
 40
3.5
  9
$TRACEWID
 40
1.0
  9
$TEXTSTYLE
  7
Standard
  9
$CLAYER
  8
0
  9
$CELTYPE
  6
ByLayer
  9
$CECOLOR
 62
   256
  9
$CELTSCALE
 40
1.0
  9
$DISPSILH
 70
     0
  9
$DIMSCALE
 40
1.0
  9
$DIMASZ
 40
3.302
  9
$DIMEXO
 40
1.0
  9
$DIMDLI
 40
3.75
  9
$DIMRND
 40
0.0
  9
$DIMDLE
 40
0.0
  9
$DIMEXE
 40
1.0
  9
$DIMTP
 40
0.0
  9
$DIMTM
 40
0.0
  9
$DIMTXT
 40
3.5
  9
$DIMCEN
 40
2.5
  9
$DIMTSZ
 40
0.0
  9
$DIMTOL
 70
     0
  9
$DIMLIM
 70
     0
  9
$DIMTIH
 70
     1
  9
$DIMTOH
 70
     1
  9
$DIMSE1
 70
     0
  9
$DIMSE2
 70
     0
  9
$DIMTAD
 70
     1
  9
$DIMZIN
 70
     0
  9
$DIMBLK
  1

  9
$DIMASO
 70
     1
  9
$DIMSHO
 70
     1
  9
$DIMPOST
  1

  9
$DIMAPOST
  1

  9
$DIMALT
 70
     0
  9
$DIMALTD
 70
     3
  9
$DIMALTF
 40
0.0393700787
  9
$DIMLFAC
 40
1.0
  9
$DIMTOFL
 70
     1
  9
$DIMTVP
 40
0.0
  9
$DIMTIX
 70
     0
  9
$DIMSOXD
 70
     0
  9
$DIMSAH
 70
     0
  9
$DIMBLK1
  1

  9
$DIMBLK2
  1

  9
$DIMSTYLE
  2
ISO-25
  9
$DIMCLRD
 70
     0
  9
$DIMCLRE
 70
     0
  9
$DIMCLRT
 70
     0
  9
$DIMTFAC
 40
1.0
  9
$DIMGAP
 40
1.524
  9
$DIMJUST
 70
     0
  9
$DIMSD1
 70
     0
  9
$DIMSD2
 70
     0
  9
$DIMTOLJ
 70
     0
  9
$DIMTZIN
 70
     0
  9
$DIMALTZ
 70
     0
  9
$DIMALTTZ
 70
     0
  9
$DIMUPT
 70
     0
  9
$DIMDEC
 70
     2
  9
$DIMTDEC
 70
     2
  9
$DIMALTU
 70
     2
  9
$DIMALTTD
 70
     3
  9
$DIMTXSTY
  7
Standard
  9
$DIMAUNIT
 70
     0
  9
$DIMADEC
 70
     2
  9
$DIMALTRND
 40
0.0
  9
$DIMAZIN
 70
     0
  9
$DIMDSEP
 70
    44
  9
$DIMATFIT
 70
     3
  9
$DIMFRAC
 70
     0
  9
$DIMLDRBLK
  1

  9
$DIMLUNIT
 70
     2
  9
$DIMLWD
 70
    -2
  9
$DIMLWE
 70
    -2
  9
$DIMTMOVE
 70
     0
  9
$LUNITS
 70
     2
  9
$LUPREC
 70
     2
  9
$SKETCHINC
 40
1.0
  9
$FILLETRAD
 40
10.0
  9
$AUNITS
 70
     0
  9
$AUPREC
 70
     2
  9
$MENU
  1
.
  9
$ELEVATION
 40
0.0
  9
$PELEVATION
 40
0.0
  9
$THICKNESS
 40
0.0
  9
$LIMCHECK
 70
     0
  9
$CHAMFERA
 40
0.0
  9
$CHAMFERB
 40
0.0
  9
$CHAMFERC
 40
0.0
  9
$CHAMFERD
 40
0.0
  9
$SKPOLY
 70
     0
  9
$TDCREATE
 40
2459290.476085579
  9
$TDUCREATE
 40
2459290.434418912
  9
$TDUPDATE
 40
2459290.47608669
  9
$TDUUPDATE
 40
2459290.434420023
  9
$TDINDWG
 40
0.0000000116
  9
$TDUSRTIMER
 40
0.0000000116
  9
$USRTIMER
 70
     1
  9
$ANGBASE
 50
0.0
  9
$ANGDIR
 70
     0
  9
$PDMODE
 70
     0
  9
$PDSIZE
 40
-1.0
  9
$PLINEWID
 40
0.0
  9
$SPLFRAME
 70
     0
  9
$SPLINETYPE
 70
     6
  9
$SPLINESEGS
 70
     8
  9
$HANDSEED
  5
29B
  9
$SURFTAB1
 70
     6
  9
$SURFTAB2
 70
     6
  9
$SURFTYPE
 70
     6
  9
$SURFU
 70
     6
  9
$SURFV
 70
     6
  9
$UCSBASE
  2

  9
$UCSNAME
  2

  9
$UCSORG
 10
0.0
 20
0.0
 30
0.0
  9
$UCSXDIR
 10
1.0
 20
0.0
 30
0.0
  9
$UCSYDIR
 10
0.0
 20
1.0
 30
0.0
  9
$UCSORTHOREF
  2

  9
$UCSORTHOVIEW
 70
     0
  9
$UCSORGTOP
 10
0.0
 20
0.0
 30
0.0
  9
$UCSORGBOTTOM
 10
0.0
 20
0.0
 30
0.0
  9
$UCSORGLEFT
 10
0.0
 20
0.0
 30
0.0
  9
$UCSORGRIGHT
 10
0.0
 20
0.0
 30
0.0
  9
$UCSORGFRONT
 10
0.0
 20
0.0
 30
0.0
  9
$UCSORGBACK
 10
0.0
 20
0.0
 30
0.0
  9
$PUCSBASE
  2

  9
$PUCSNAME
  2

  9
$PUCSORG
 10
0.0
 20
0.0
 30
0.0
  9
$PUCSXDIR
 10
1.0
 20
0.0
 30
0.0
  9
$PUCSYDIR
 10
0.0
 20
1.0
 30
0.0
  9
$PUCSORTHOREF
  2

  9
$PUCSORTHOVIEW
 70
     0
  9
$PUCSORGTOP
 10
0.0
 20
0.0
 30
0.0
  9
$PUCSORGBOTTOM
 10
0.0
 20
0.0
 30
0.0
  9
$PUCSORGLEFT
 10
0.0
 20
0.0
 30
0.0
  9
$PUCSORGRIGHT
 10
0.0
 20
0.0
 30
0.0
  9
$PUCSORGFRONT
 10
0.0
 20
0.0
 30
0.0
  9
$PUCSORGBACK
 10
0.0
 20
0.0
 30
0.0
  9
$USERI1
 70
     0
  9
$USERI2
 70
     0
  9
$USERI3
 70
     0
  9
$USERI4
 70
     0
  9
$USERI5
 70
     0
  9
$USERR1
 40
0.0
  9
$USERR2
 40
0.0
  9
$USERR3
 40
0.0
  9
$USERR4
 40
0.0
  9
$USERR5
 40
0.0
  9
$WORLDVIEW
 70
     1
  9
$SHADEDGE
 70
     3
  9
$SHADEDIF
 70
    70
  9
$TILEMODE
 70
     1
  9
$MAXACTVP
 70
    64
  9
$PINSBASE
 10
0.0
 20
0.0
 30
0.0
  9
$PLIMCHECK
 70
     0
  9
$PEXTMIN
 10
1.0000000000E+20
 20
1.0000000000E+20
 30
1.0000000000E+20
  9
$PEXTMAX
 10
-1.0000000000E+20
 20
-1.0000000000E+20
 30
-1.0000000000E+20
  9
$PLIMMIN
 10
0.0
 20
0.0
  9
$PLIMMAX
 10
420.0
 20
297.0
  9
$UNITMODE
 70
     0
  9
$VISRETAIN
 70
     1
  9
$PLINEGEN
 70
     0
  9
$PSLTSCALE
 70
     1
  9
$TREEDEPTH
 70
  3020
  9
$CMLSTYLE
  2
Standard
  9
$CMLJUST
 70
     0
  9
$CMLSCALE
 40
20.0
  9
$PROXYGRAPHICS
 70
     1
  9
$MEASUREMENT
 70
     1
  9
$CELWEIGHT
370
    -1
  9
$ENDCAPS
280
     0
  9
$JOINSTYLE
280
     0
  9
$LWDISPLAY
290
     1
  9
$INSUNITS
 70
     4
  9
$HYPERLINKBASE
  1

  9
$STYLESHEET
  1

  9
$XEDIT
290
     1
  9
$CEPSNTYPE
380
     0
  9
$PSTYLEMODE
290
     1
  9
$FINGERPRINTGUID
  2
{0351414C-8F0E-4D46-B17A-F14C2CE69427}
  9
$VERSIONGUID
  2
{FAEB1C32-E019-11D5-929B-00C0DF256EC4}
  9
$EXTNAMES
290
     1
  9
$PSVPSCALE
 40
0.0
  9
$OLESTARTUP
290
     0
  0
ENDSEC
  0
SECTION
  2
CLASSES
  0
CLASS
  1
ACDBDICTIONARYWDFLT
  2
AcDbDictionaryWithDefault
  3
ObjectDBX Classes
 90
        0
280
     0
281
     0
  0
CLASS
  1
VISUALSTYLE
  2
AcDbVisualStyle
  3
ObjectDBX Classes
 90
     4095
280
     0
281
     0
  0
CLASS
  1
MATERIAL
  2
AcDbMaterial
  3
ObjectDBX Classes
 90
     1153
280
     0
281
     0
  0
CLASS
  1
SCALE
  2
AcDbScale
  3
ObjectDBX Classes
 90
     1153
280
     0
281
     0
  0
CLASS
  1
TABLESTYLE
  2
AcDbTableStyle
  3
ObjectDBX Classes
 90
     4095
280
     0
281
     0
  0
CLASS
  1
MLEADERSTYLE
  2
AcDbMLeaderStyle
  3
ACDB_MLEADERSTYLE_CLASS
 90
     4095
280
     0
281
     0
  0
CLASS
  1
SUN
  2
AcDbSun
  3
SCENEOE
 90
     1153
280
     0
281
     0
  0
CLASS
  1
ACDBPLACEHOLDER
  2
AcDbPlaceHolder
  3
ObjectDBX Classes
 90
        0
280
     0
281
     0
  0
CLASS
  1
LAYOUT
  2
AcDbLayout
  3
ObjectDBX Classes
 90
        0
280
     0
281
     0
  0
ENDSEC
  0
SECTION
  2
TABLES
  0
TABLE
  2
VPORT
  5
8
330
0
100
AcDbSymbolTable
 70
     1
  0
VPORT
  5
29
330
8
100
AcDbSymbolTableRecord
100
AcDbViewportTableRecord
  2
*Active
 70
     0
 10
0.0
 20
0.0
 11
1.0
 21
1.0
 12
148.5
 22
105.0
 13
0.0
 23
0.0
 14
10.0
 24
10.0
 15
10.0
 25
10.0
 16
0.0
 26
0.0
 36
1.0
 17
0.0
 27
0.0
 37
0.0
 40
210.0
 41
1.4142857143
 42
50.0
 43
0.0
 44
0.0
 50
0.0
 51
0.0
 71
     0
 72
  2000
 73
     1
 74
     3
 75
     0
 76
     0
 77
     0
 78
     0
281
     0
 65
     1
110
0.0
120
0.0
130
0.0
111
1.0
121
0.0
131
0.0
112
0.0
122
1.0
132
0.0
 79
     0
146
0.0
  0
ENDTAB
  0
TABLE
  2
LTYPE
  5
5
330
0
100
AcDbSymbolTable
 70
     8
  0
LTYPE
  5
14
330
5
100
AcDbSymbolTableRecord
100
AcDbLinetypeTableRecord
  2
ByBlock
 70
     0
  3

 72
    65
 73
     0
 40
0.0
  0
LTYPE
  5
15
330
5
100
AcDbSymbolTableRecord
100
AcDbLinetypeTableRecord
  2
ByLayer
 70
     0
  3

 72
    65
 73
     0
 40
0.0
  0
LTYPE
  5
16
330
5
100
AcDbSymbolTableRecord
100
AcDbLinetypeTableRecord
  2
Continuous
 70
     0
  3
Solid line
 72
    65
 73
     0
 40
0.0
  0
LTYPE
  5
6E
330
5
100
AcDbSymbolTableRecord
100
AcDbLinetypeTableRecord
  2
SLD-Solid
 70
     0
  3
SolidWorks Line Style
 72
    65
 73
     0
 40
0.0
  0
LTYPE
  5
6F
330
5
100
AcDbSymbolTableRecord
100
AcDbLinetypeTableRecord
  2
SLD-Dashed
 70
     0
  3
SolidWorks Line Style
 72
    65
 73
     2
 40
1.905
 49
1.27
 74
     0
 49
-0.635
 74
     0
  0
LTYPE
  5
70
330
5
100
AcDbSymbolTableRecord
100
AcDbLinetypeTableRecord
  2
SLD-Phantom
 70
     0
  3
SolidWorks Line Style
 72
    65
 73
     6
 40
12.7
 49
6.35
 74
     0
 49
-1.27
 74
     0
 49
1.27
 74
     0
 49
-1.27
 74
     0
 49
1.27
 74
     0
 49
-1.27
 74
     0
  0
LTYPE
  5
71
330
5
100
AcDbSymbolTableRecord
100
AcDbLinetypeTableRecord
  2
SLD-Chain
 70
     0
  3
SolidWorks Line Style
 72
    65
 73
     4
 40
10.16
 49
6.35
 74
     0
 49
-1.27
 74
     0
 49
1.27
 74
     0
 49
-1.27
 74
     0
  0
LTYPE
  5
72
330
5
100
AcDbSymbolTableRecord
100
AcDbLinetypeTableRecord
  2
SLD-Center
 70
     0
  3
SolidWorks Line Style
 72
    65
 73
     4
 40
19.05
 49
15.24
 74
     0
 49
-1.27
 74
     0
 49
1.27
 74
     0
 49
-1.27
 74
     0
  0
LTYPE
  5
73
330
5
100
AcDbSymbolTableRecord
100
AcDbLinetypeTableRecord
  2
SLD-Stitch
 70
     0
  3
SolidWorks Line Style
 72
    65
 73
     2
 40
0.635
 49
0.0
 74
     0
 49
-0.635
 74
     0
  0
LTYPE
  5
74
330
5
100
AcDbSymbolTableRecord
100
AcDbLinetypeTableRecord
  2
SLD-Thin-Thick-Chain
 70
     0
  3
SolidWorks Line Style
 72
    65
 73
     4
 40
10.16
 49
6.35
 74
     0
 49
-1.27
 74
     0
 49
1.27
 74
     0
 49
-1.27
 74
     0
  0
ENDTAB
  0
TABLE
  2
LAYER
  5
2
330
0
100
AcDbSymbolTable
 70
    12
  0
LAYER
  5
10
330
2
100
AcDbSymbolTableRecord
100
AcDbLayerTableRecord
  2
0
 70
     0
 62
     7
  6
Continuous
370
    -3
390
F
  0
LAYER
  5
75
330
2
100
AcDbSymbolTableRecord
100
AcDbLayerTableRecord
  2
SLD-0
 70
     0
 62
   179
  6
SLD-Solid
370
    -3
390
F
  0
LAYER
  5
76
330
2
100
AcDbSymbolTableRecord
100
AcDbLayerTableRecord
  2
80
 70
     0
 62
    -6
  6
SLD-Solid
290
     0
370
    -3
390
F
  0
LAYER
  5
77
330
2
100
AcDbSymbolTableRecord
100
AcDbLayerTableRecord
  2
81
 70
     0
 62
    -3
  6
SLD-Solid
290
     0
370
    -3
390
F
  0
LAYER
  5
78
330
2
100
AcDbSymbolTableRecord
100
AcDbLayerTableRecord
  2
1
 70
     0
 62
     4
  6
SLD-Solid
290
     0
370
    -3
390
F
  0
LAYER
  5
79
330
2
100
AcDbSymbolTableRecord
100
AcDbLayerTableRecord
  2
4
 70
     0
 62
    -2
  6
SLD-Chain
290
     0
370
    -3
390
F
  0
LAYER
  5
7A
330
2
100
AcDbSymbolTableRecord
100
AcDbLayerTableRecord
  2
2
 70
     0
 62
     7
  6
SLD-Solid
290
     0
370
    -3
390
F
  0
LAYER
  5
7B
330
2
100
AcDbSymbolTableRecord
100
AcDbLayerTableRecord
  2
SK3
 70
     0
 62
     1
  6
SLD-Dashed
290
     0
370
    -3
390
F
  0
LAYER
  5
7C
330
2
100
AcDbSymbolTableRecord
100
AcDbLayerTableRecord
  2
SK4
 70
     0
 62
     2
  6
SLD-Chain
290
     0
370
    -3
390
F
  0
LAYER
  5
7D
330
2
100
AcDbSymbolTableRecord
100
AcDbLayerTableRecord
  2
SK2
 70
     0
 62
     7
  6
SLD-Solid
290
     0
370
    -3
390
F
  0
LAYER
  5
7E
330
2
100
AcDbSymbolTableRecord
100
AcDbLayerTableRecord
  2
SK6
 70
     0
 62
     5
  6
SLD-Solid
290
     0
370
    -3
390
F
  0
LAYER
  5
7F
330
2
100
AcDbSymbolTableRecord
100
AcDbLayerTableRecord
  2
SK1
 70
     0
 62
     4
  6
SLD-Solid
370
    -3
390
F
  0
ENDTAB
  0
TABLE
  2
STYLE
  5
3
330
0
100
AcDbSymbolTable
 70
     2
  0
STYLE
  5
11
330
3
100
AcDbSymbolTableRecord
100
AcDbTextStyleTableRecord
  2
Standard
 70
     0
 40
0.0
 41
1.0
 50
0.0
 71
     0
 42
3.5
  3
txt
  4

  0
STYLE
  5
236
330
3
100
AcDbSymbolTableRecord
100
AcDbTextStyleTableRecord
  2
SLDTEXTSTYLE0
 70
     0
 40
0.0
 41
0.75
 50
0.0
 71
     0
 42
3.5
  3
TXT
  4

  0
ENDTAB
  0
TABLE
  2
VIEW
  5
6
330
0
100
AcDbSymbolTable
 70
     0
  0
ENDTAB
  0
TABLE
  2
UCS
  5
7
330
0
100
AcDbSymbolTable
 70
     0
  0
ENDTAB
  0
TABLE
  2
APPID
  5
9
330
0
100
AcDbSymbolTable
 70
     1
  0
APPID
  5
12
330
9
100
AcDbSymbolTableRecord
100
AcDbRegAppTableRecord
  2
ACAD
 70
     0
  0
ENDTAB
  0
TABLE
  2
DIMSTYLE
  5
A
330
0
100
AcDbSymbolTable
 70
     3
100
AcDbDimStyleTable
  0
DIMSTYLE
105
27
330
A
100
AcDbSymbolTableRecord
100
AcDbDimStyleTableRecord
  2
ISO-25
 70
     0
 41
2.5
 42
0.625
 43
3.75
 44
1.25
 73
     0
 74
     0
 77
     1
 78
     8
140
2.5
141
2.5
143
0.0393700787
147
0.625
171
     3
172
     1
178
     0
271
     2
272
     2
274
     3
278
    44
283
     0
284
     8
340
11
  0
DIMSTYLE
105
237
102
{ACAD_REACTORS
330
235
330
241
330
24B
330
255
330
25F
330
26A
330
275
330
28E
102
}
330
A
100
AcDbSymbolTableRecord
100
AcDbDimStyleTableRecord
  2
SLDDIMSTYLE0
 70
     0
 41
3.302
 44
0.0
 45
0.000000001
 73
     0
 74
     0
 77
     1
 78
    12
 79
     3
140
3.5
147
0.875
173
     1
178
     0
271
     2
272
     2
276
     2
284
    12
340
236
  0
DIMSTYLE
105
281
102
{ACAD_REACTORS
330
280
102
}
330
A
100
AcDbSymbolTableRecord
100
AcDbDimStyleTableRecord
  2
SLDDIMSTYLE1
 70
     0
 41
3.302
 44
0.0
 45
0.000000001
 73
     0
 74
     0
 77
     1
 78
    12
 79
     3
140
3.5
147
0.875
172
     1
173
     1
178
     0
271
     2
272
     2
276
     2
284
    12
289
     0
340
236
  0
ENDTAB
  0
TABLE
  2
BLOCK_RECORD
  5
1
330
0
100
AcDbSymbolTable
 70
    12
  0
BLOCK_RECORD
  5
1F
330
1
100
AcDbSymbolTableRecord
100
AcDbBlockTableRecord
  2
*Model_Space
340
22
  0
BLOCK_RECORD
  5
1B
330
1
100
AcDbSymbolTableRecord
100
AcDbBlockTableRecord
  2
*Paper_Space
340
1E
  0
BLOCK_RECORD
  5
23
330
1
100
AcDbSymbolTableRecord
100
AcDbBlockTableRecord
  2
*Paper_Space0
340
26
  0
BLOCK_RECORD
  5
80
330
1
100
AcDbSymbolTableRecord
100
AcDbBlockTableRecord
  2
Block11
340
0
102
{BLKREFS
331
233
102
}
  0
BLOCK_RECORD
  5
89
330
1
100
AcDbSymbolTableRecord
100
AcDbBlockTableRecord
  2
Block12
340
0
102
{BLKREFS
331
234
102
}
  0
BLOCK_RECORD
  5
238
330
1
100
AcDbSymbolTableRecord
100
AcDbBlockTableRecord
  2
_D
340
0
  0
BLOCK_RECORD
  5
242
330
1
100
AcDbSymbolTableRecord
100
AcDbBlockTableRecord
  2
_D_1
340
0
  0
BLOCK_RECORD
  5
24C
330
1
100
AcDbSymbolTableRecord
100
AcDbBlockTableRecord
  2
_D_2
340
0
  0
BLOCK_RECORD
  5
256
330
1
100
AcDbSymbolTableRecord
100
AcDbBlockTableRecord
  2
_D_3
340
0
  0
BLOCK_RECORD
  5
260
330
1
100
AcDbSymbolTableRecord
100
AcDbBlockTableRecord
  2
_D_4
340
0
  0
BLOCK_RECORD
  5
26B
330
1
100
AcDbSymbolTableRecord
100
AcDbBlockTableRecord
  2
_D_5
340
0
  0
BLOCK_RECORD
  5
276
330
1
100
AcDbSymbolTableRecord
100
AcDbBlockTableRecord
  2
_D_6
340
0
  0
BLOCK_RECORD
  5
282
330
1
100
AcDbSymbolTableRecord
100
AcDbBlockTableRecord
  2
_D_7
340
0
  0
BLOCK_RECORD
  5
28F
330
1
100
AcDbSymbolTableRecord
100
AcDbBlockTableRecord
  2
_D_8
340
0
  0
ENDTAB
  0
ENDSEC
  0
SECTION
  2
BLOCKS
  0
BLOCK
  5
20
330
1F
100
AcDbEntity
  8
0
100
AcDbBlockBegin
  2
*Model_Space
 70
     0
 10
0.0
 20
0.0
 30
0.0
  3
*Model_Space
  1

  0
ENDBLK
  5
21
330
1F
100
AcDbEntity
  8
0
100
AcDbBlockEnd
  0
BLOCK
  5
1C
330
1B
100
AcDbEntity
 67
     1
  8
0
100
AcDbBlockBegin
  2
*Paper_Space
 70
     0
 10
0.0
 20
0.0
 30
0.0
  3
*Paper_Space
  1

  0
ENDBLK
  5
1D
330
1B
100
AcDbEntity
 67
     1
  8
0
100
AcDbBlockEnd
  0
BLOCK
  5
24
330
23
100
AcDbEntity
  8
0
100
AcDbBlockBegin
  2
*Paper_Space0
 70
     0
 10
0.0
 20
0.0
 30
0.0
  3
*Paper_Space0
  1

  0
ENDBLK
  5
25
330
23
100
AcDbEntity
  8
0
100
AcDbBlockEnd
  0
BLOCK
  5
81
330
80
100
AcDbEntity
  8
0
100
AcDbBlockBegin
  2
Block11
 70
     0
 10
0.0
 20
0.0
 30
0.0
  3
Block11
  1

  0
CIRCLE
  5
83
330
80
100
AcDbEntity
  8
81
370
    18
100
AcDbCircle
 10
91.6264826505
 20
130.2676275275
 30
0.0
 40
2.499999999999981
  0
LINE
  5
84
330
80
100
AcDbEntity
  8
81
370
    18
100
AcDbLine
 10
91.6264826505
 20
130.2676275275
 30
0.0
 11
95.1620165565
 21
133.8031614334
 31
0.0
  0
LINE
  5
85
330
80
100
AcDbEntity
  8
81
370
    18
100
AcDbLine
 10
91.6264826505
 20
130.2676275275
 30
0.0
 11
88.0909487446
 21
126.7320936216
 31
0.0
  0
LINE
  5
86
330
80
100
AcDbEntity
  8
81
370
    18
100
AcDbLine
 10
91.6264826505
 20
130.2676275275
 30
0.0
 11
88.0909487446
 21
133.8031614334
 31
0.0
  0
LINE
  5
87
330
80
100
AcDbEntity
  8
81
100
AcDbLine
 10
91.6264826505
 20
130.2676275275
 30
0.0
 11
101.6264826505
 21
130.2676275275
 31
0.0
  0
LINE
  5
88
330
80
100
AcDbEntity
  8
81
370
    18
100
AcDbLine
 10
91.6264826505
 20
130.2676275275
 30
0.0
 11
95.1620165565
 21
126.7320936216
 31
0.0
  0
ENDBLK
  5
82
330
80
100
AcDbEntity
  8
0
100
AcDbBlockEnd
  0
BLOCK
  5
8A
330
89
100
AcDbEntity
  8
0
100
AcDbBlockBegin
  2
Block12
 70
     0
 10
0.0
 20
0.0
 30
0.0
  3
Block12
  1

  0
CIRCLE
  5
8C
330
89
100
AcDbEntity
  8
80
370
    18
100
AcDbCircle
 10
61.7273641656
 20
130.3356800267
 30
0.0
 40
2.500000000000004
  0
LINE
  5
8D
330
89
100
AcDbEntity
  8
80
370
    18
100
AcDbLine
 10
61.7273641656
 20
130.3356800267
 30
0.0
 11
65.2628980715
 21
133.8712139326
 31
0.0
  0
LINE
  5
8E
330
89
100
AcDbEntity
  8
80
370
    18
100
AcDbLine
 10
61.7273641656
 20
130.3356800267
 30
0.0
 11
58.1918302597
 21
126.8001461208
 31
0.0
  0
LINE
  5
8F
330
89
100
AcDbEntity
  8
80
370
    18
100
AcDbLine
 10
61.7273641656
 20
130.3356800267
 30
0.0
 11
58.1918302597
 21
133.8712139326
 31
0.0
  0
LINE
  5
90
330
89
100
AcDbEntity
  8
80
370
    18
100
AcDbLine
 10
61.7273641656
 20
130.3356800267
 30
0.0
 11
51.7273641656
 21
130.3356800267
 31
0.0
  0
LINE
  5
91
330
89
100
AcDbEntity
  8
80
370
    18
100
AcDbLine
 10
61.7273641656
 20
130.3356800267
 30
0.0
 11
65.2628980715
 21
126.8001461208
 31
0.0
  0
ENDBLK
  5
8B
330
89
100
AcDbEntity
  8
0
100
AcDbBlockEnd
  0
BLOCK
  5
239
330
238
100
AcDbEntity
  8
0
100
AcDbBlockBegin
  2
_D
 70
     0
 10
0.0
 20
0.0
 30
0.0
  3
_D
  1

  0
SOLID
  5
23B
330
238
100
AcDbEntity
  8
SK2
100
AcDbTrace
 10
0.0
 20
30.872713647
 30
0.0
 11
3.302
 21
30.364713647
 31
0.0
 12
3.302
 22
31.380713647
 32
0.0
 13
3.302
 23
31.380713647
 33
0.0
  0
SOLID
  5
23C
330
238
100
AcDbEntity
  8
SK2
100
AcDbTrace
 10
22.1
 20
30.872713647
 30
0.0
 11
18.798
 21
31.380713647
 31
0.0
 12
18.798
 22
30.364713647
 32
0.0
 13
18.798
 23
30.364713647
 33
0.0
  0
LINE
  5
23D
330
238
100
AcDbEntity
  8
SK2
100
AcDbLine
 10
0.0
 20
16.875
 30
0.0
 11
0.0
 21
31.872713647
 31
0.0
  0
LINE
  5
23E
330
238
100
AcDbEntity
  8
SK2
100
AcDbLine
 10
22.1
 20
23.24
 30
0.0
 11
22.1
 21
31.872713647
 31
0.0
  0
LINE
  5
23F
330
238
100
AcDbEntity
  8
SK2
100
AcDbLine
 10
0.0
 20
30.872713647
 30
0.0
 11
22.1
 21
30.872713647
 31
0.0
  0
MTEXT
  5
240
330
238
100
AcDbEntity
  8
SK2
100
AcDbMText
 10
6.4173274423
 20
35.3844505616
 30
0.0
 40
3.5
 41
0.0
 71
     1
 72
     1
  1
22,1
  7
SLDTEXTSTYLE0
 73
     1
 44
1.0
  0
ENDBLK
  5
23A
330
238
100
AcDbEntity
  8
0
100
AcDbBlockEnd
  0
BLOCK
  5
243
330
242
100
AcDbEntity
  8
0
100
AcDbBlockBegin
  2
_D_1
 70
     0
 10
0.0
 20
0.0
 30
0.0
  3
_D_1
  1

  0
SOLID
  5
245
330
242
100
AcDbEntity
  8
SK2
100
AcDbTrace
 10
22.1
 20
30.872713647
 30
0.0
 11
25.402
 21
30.364713647
 31
0.0
 12
25.402
 22
31.380713647
 32
0.0
 13
25.402
 23
31.380713647
 33
0.0
  0
SOLID
  5
246
330
242
100
AcDbEntity
  8
SK2
100
AcDbTrace
 10
35.0
 20
30.872713647
 30
0.0
 11
31.698
 21
31.380713647
 31
0.0
 12
31.698
 22
30.364713647
 32
0.0
 13
31.698
 23
30.364713647
 33
0.0
  0
LINE
  5
247
330
242
100
AcDbEntity
  8
SK2
100
AcDbLine
 10
22.1
 20
23.24
 30
0.0
 11
22.1
 21
31.872713647
 31
0.0
  0
LINE
  5
248
330
242
100
AcDbEntity
  8
SK2
100
AcDbLine
 10
35.0
 20
20.8808953521
 30
0.0
 11
35.0
 21
31.872713647
 31
0.0
  0
LINE
  5
249
330
242
100
AcDbEntity
  8
SK2
100
AcDbLine
 10
22.1
 20
30.872713647
 30
0.0
 11
35.0
 21
30.872713647
 31
0.0
  0
MTEXT
  5
24A
330
242
100
AcDbEntity
  8
SK2
100
AcDbMText
 10
24.3532980698
 20
35.3844505616
 30
0.0
 40
3.5
 41
0.0
 71
     1
 72
     1
  1
12,9
  7
SLDTEXTSTYLE0
 73
     1
 44
1.0
  0
ENDBLK
  5
244
330
242
100
AcDbEntity
  8
0
100
AcDbBlockEnd
  0
BLOCK
  5
24D
330
24C
100
AcDbEntity
  8
0
100
AcDbBlockBegin
  2
_D_2
 70
     0
 10
0.0
 20
0.0
 30
0.0
  3
_D_2
  1

  0
SOLID
  5
24F
330
24C
100
AcDbEntity
  8
2
100
AcDbTrace
 10
0.0
 20
39.3515361255
 30
0.0
 11
3.302
 21
38.8435361255
 31
0.0
 12
3.302
 22
39.8595361255
 32
0.0
 13
3.302
 23
39.8595361255
 33
0.0
  0
SOLID
  5
250
330
24C
100
AcDbEntity
  8
2
100
AcDbTrace
 10
35.0
 20
39.3515361255
 30
0.0
 11
31.698
 21
39.8595361255
 31
0.0
 12
31.698
 22
38.8435361255
 32
0.0
 13
31.698
 23
38.8435361255
 33
0.0
  0
LINE
  5
251
330
24C
100
AcDbEntity
  8
2
100
AcDbLine
 10
0.0
 20
16.875
 30
0.0
 11
0.0
 21
40.3515361255
 31
0.0
  0
LINE
  5
252
330
24C
100
AcDbEntity
  8
2
100
AcDbLine
 10
35.0
 20
20.8808953521
 30
0.0
 11
35.0
 21
40.3515361255
 31
0.0
  0
LINE
  5
253
330
24C
100
AcDbEntity
  8
2
100
AcDbLine
 10
0.0
 20
39.3515361255
 30
0.0
 11
35.0
 21
39.3515361255
 31
0.0
  0
MTEXT
  5
254
330
24C
100
AcDbEntity
  8
2
100
AcDbMText
 10
14.1616430914
 20
43.8632730401
 30
0.0
 40
3.5
 41
0.0
 71
     1
 72
     1
  1
35
  7
SLDTEXTSTYLE0
 73
     1
 44
1.0
  0
ENDBLK
  5
24E
330
24C
100
AcDbEntity
  8
0
100
AcDbBlockEnd
  0
BLOCK
  5
257
330
256
100
AcDbEntity
  8
0
100
AcDbBlockBegin
  2
_D_3
 70
     0
 10
0.0
 20
0.0
 30
0.0
  3
_D_3
  1

  0
SOLID
  5
259
330
256
100
AcDbEntity
  8
SK2
100
AcDbTrace
 10
35.0
 20
30.872713647
 30
0.0
 11
38.302
 21
30.364713647
 31
0.0
 12
38.302
 22
31.380713647
 32
0.0
 13
38.302
 23
31.380713647
 33
0.0
  0
SOLID
  5
25A
330
256
100
AcDbEntity
  8
SK2
100
AcDbTrace
 10
54.0
 20
30.872713647
 30
0.0
 11
50.698
 21
31.380713647
 31
0.0
 12
50.698
 22
30.364713647
 32
0.0
 13
50.698
 23
30.364713647
 33
0.0
  0
LINE
  5
25B
330
256
100
AcDbEntity
  8
SK2
100
AcDbLine
 10
35.0
 20
20.8808953521
 30
0.0
 11
35.0
 21
31.872713647
 31
0.0
  0
LINE
  5
25C
330
256
100
AcDbEntity
  8
SK2
100
AcDbLine
 10
54.0
 20
11.4710190579
 30
0.0
 11
54.0
 21
31.872713647
 31
0.0
  0
LINE
  5
25D
330
256
100
AcDbEntity
  8
SK2
100
AcDbLine
 10
35.0
 20
30.872713647
 30
0.0
 11
54.0
 21
30.872713647
 31
0.0
  0
MTEXT
  5
25E
330
256
100
AcDbEntity
  8
SK2
100
AcDbMText
 10
42.2069789817
 20
35.3844505616
 30
0.0
 40
3.5
 41
0.0
 71
     1
 72
     1
  1
19
  7
SLDTEXTSTYLE0
 73
     1
 44
1.0
  0
ENDBLK
  5
258
330
256
100
AcDbEntity
  8
0
100
AcDbBlockEnd
  0
BLOCK
  5
261
330
260
100
AcDbEntity
  8
0
100
AcDbBlockBegin
  2
_D_4
 70
     0
 10
0.0
 20
0.0
 30
0.0
  3
_D_4
  1

  0
SOLID
  5
263
330
260
100
AcDbEntity
  8
SK2
100
AcDbTrace
 10
88.1485902655
 20
21.0
 30
0.0
 11
87.6405902655
 21
17.698
 31
0.0
 12
88.6565902655
 22
17.698
 32
0.0
 13
88.6565902655
 23
17.698
 33
0.0
  0
SOLID
  5
264
330
260
100
AcDbEntity
  8
SK2
100
AcDbTrace
 10
88.1485902655
 20
-21.0
 30
0.0
 11
88.6565902655
 21
-17.698
 31
0.0
 12
87.6405902655
 22
-17.698
 32
0.0
 13
87.6405902655
 23
-17.698
 33
0.0
  0
LINE
  5
265
330
260
100
AcDbEntity
  8
SK2
100
AcDbLine
 10
25.6173632704
 20
21.0
 30
0.0
 11
89.1485902655
 21
21.0
 31
0.0
  0
LINE
  5
266
330
260
100
AcDbEntity
  8
SK2
100
AcDbLine
 10
25.6064287705
 20
-21.0
 30
0.0
 11
89.1485902655
 21
-21.0
 31
0.0
  0
LINE
  5
267
330
260
100
AcDbEntity
  8
SK2
100
AcDbLine
 10
88.1485902655
 20
21.0
 30
0.0
 11
88.1485902655
 21
-21.0
 31
0.0
  0
MTEXT
  5
268
330
260
100
AcDbEntity
  8
SK2
100
AcDbMText
 10
83.6368531763
 20
-6.3144864712
 30
0.0
 40
3.5
 41
0.0
 71
     1
 72
     1
  1
%%c
  7
SLDTEXTSTYLE0
 11
-7.044195017643634E-15
 21
1.0
 31
0.0
 73
     1
 44
1.0
  0
MTEXT
  5
269
330
260
100
AcDbEntity
  8
SK2
100
AcDbMText
 10
83.5833809996
 20
-1.0360490729
 30
0.0
 40
3.5
 41
0.0
 71
     1
 72
     1
  1
42
  7
SLDTEXTSTYLE0
 11
-7.044195017643634E-15
 21
1.0
 31
0.0
 73
     1
 44
1.0
  0
ENDBLK
  5
262
330
260
100
AcDbEntity
  8
0
100
AcDbBlockEnd
  0
BLOCK
  5
26C
330
26B
100
AcDbEntity
  8
0
100
AcDbBlockBegin
  2
_D_5
 70
     0
 10
0.0
 20
0.0
 30
0.0
  3
_D_5
  1

  0
SOLID
  5
26E
330
26B
100
AcDbEntity
  8
SK2
100
AcDbTrace
 10
78.1766740677
 20
-11.0
 30
0.0
 11
78.6846740677
 21
-7.698
 31
0.0
 12
77.6686740677
 22
-7.698
 32
0.0
 13
77.6686740677
 23
-7.698
 33
0.0
  0
SOLID
  5
26F
330
26B
100
AcDbEntity
  8
SK2
100
AcDbTrace
 10
78.1766740677
 20
11.0
 30
0.0
 11
77.6686740677
 21
7.698
 31
0.0
 12
78.6846740677
 22
7.698
 32
0.0
 13
78.6846740677
 23
7.698
 33
0.0
  0
LINE
  5
270
330
26B
100
AcDbEntity
  8
SK2
100
AcDbLine
 10
52.0
 20
-11.0
 30
0.0
 11
79.1766740677
 21
-11.0
 31
0.0
  0
LINE
  5
271
330
26B
100
AcDbEntity
  8
SK2
100
AcDbLine
 10
52.0
 20
11.0
 30
0.0
 11
79.1766740677
 21
11.0
 31
0.0
  0
LINE
  5
272
330
26B
100
AcDbEntity
  8
SK2
100
AcDbLine
 10
78.1766740677
 20
-11.0
 30
0.0
 11
78.1766740677
 21
11.0
 31
0.0
  0
MTEXT
  5
273
330
26B
100
AcDbEntity
  8
SK2
100
AcDbMText
 10
73.6649369785
 20
-6.3144864712
 30
0.0
 40
3.5
 41
0.0
 71
     1
 72
     1
  1
%%c
  7
SLDTEXTSTYLE0
 11
6.123233995736766E-17
 21
1.0
 31
0.0
 73
     1
 44
1.0
  0
MTEXT
  5
274
330
26B
100
AcDbEntity
  8
SK2
100
AcDbMText
 10
73.6114648019
 20
-1.0360490729
 30
0.0
 40
3.5
 41
0.0
 71
     1
 72
     1
  1
22
  7
SLDTEXTSTYLE0
 11
6.123233995736766E-17
 21
1.0
 31
0.0
 73
     1
 44
1.0
  0
ENDBLK
  5
26D
330
26B
100
AcDbEntity
  8
0
100
AcDbBlockEnd
  0
BLOCK
  5
277
330
276
100
AcDbEntity
  8
0
100
AcDbBlockBegin
  2
_D_6
 70
     0
 10
0.0
 20
0.0
 30
0.0
  3
_D_6
  1

  0
SOLID
  5
279
330
276
100
AcDbEntity
  8
SK2
100
AcDbTrace
 10
-74.6006774131
 20
22.99
 30
0.0
 11
-75.1086774131
 21
19.688
 31
0.0
 12
-74.0926774131
 22
19.688
 32
0.0
 13
-74.0926774131
 23
19.688
 33
0.0
  0
SOLID
  5
27A
330
276
100
AcDbEntity
  8
SK2
100
AcDbTrace
 10
-74.6006774131
 20
-22.99
 30
0.0
 11
-74.0926774131
 21
-19.688
 31
0.0
 12
-75.1086774131
 22
-19.688
 32
0.0
 13
-75.1086774131
 23
-19.688
 33
0.0
  0
LINE
  5
27B
330
276
100
AcDbEntity
  8
SK2
100
AcDbLine
 10
18.874649423
 20
22.99
 30
0.0
 11
-75.6006774131
 21
22.99
 31
0.0
  0
LINE
  5
27C
330
276
100
AcDbEntity
  8
SK2
100
AcDbLine
 10
18.8746494411
 20
-22.99
 30
0.0
 11
-75.6006774131
 21
-22.99
 31
0.0
  0
LINE
  5
27D
330
276
100
AcDbEntity
  8
SK2
100
AcDbLine
 10
-74.6006774131
 20
22.99
 30
0.0
 11
-74.6006774131
 21
-22.99
 31
0.0
  0
MTEXT
  5
27E
330
276
100
AcDbEntity
  8
SK2
100
AcDbMText
 10
-79.1124145023
 20
-5.7473336813
 30
0.0
 40
3.5
 41
0.0
 71
     1
 72
     1
  1
%%c
  7
SLDTEXTSTYLE0
 11
-7.044195017643634E-15
 21
1.0
 31
0.0
 73
     1
 44
1.0
  0
MTEXT
  5
27F
330
276
100
AcDbEntity
  8
SK2
100
AcDbMText
 10
-79.1658866789
 20
-0.4688962829
 30
0.0
 40
3.5
 41
0.0
 71
     1
 72
     1
  1
46
  7
SLDTEXTSTYLE0
 11
-7.044195017643634E-15
 21
1.0
 31
0.0
 73
     1
 44
1.0
  0
ENDBLK
  5
278
330
276
100
AcDbEntity
  8
0
100
AcDbBlockEnd
  0
BLOCK
  5
283
330
282
100
AcDbEntity
  8
0
100
AcDbBlockBegin
  2
_D_7
 70
     0
 10
0.0
 20
0.0
 30
0.0
  3
_D_7
  1

  0
SOLID
  5
285
330
282
100
AcDbEntity
  8
SK2
100
AcDbTrace
 10
-54.4346146163
 20
-6.0
 30
0.0
 11
-54.9426146163
 21
-9.302
 31
0.0
 12
-53.9266146163
 22
-9.302
 32
0.0
 13
-53.9266146163
 23
-9.302
 33
0.0
  0
SOLID
  5
286
330
282
100
AcDbEntity
  8
SK2
100
AcDbTrace
 10
-54.4346146163
 20
6.0
 30
0.0
 11
-53.9266146163
 21
9.302
 31
0.0
 12
-54.9426146163
 22
9.302
 32
0.0
 13
-54.9426146163
 23
9.302
 33
0.0
  0
LINE
  5
287
330
282
100
AcDbEntity
  8
SK2
100
AcDbLine
 10
-41.7891560818
 20
-6.0
 30
0.0
 11
-55.4346146163
 21
-6.0
 31
0.0
  0
LINE
  5
288
330
282
100
AcDbEntity
  8
SK2
100
AcDbLine
 10
-41.7891560818
 20
6.0
 30
0.0
 11
-55.4346146163
 21
6.0
 31
0.0
  0
LINE
  5
289
330
282
100
AcDbEntity
  8
SK2
100
AcDbLine
 10
-54.4346146163
 20
-6.0
 30
0.0
 11
-54.4346146163
 21
-12.35
 31
0.0
  0
LINE
  5
28A
330
282
100
AcDbEntity
  8
SK2
100
AcDbLine
 10
-54.4346146163
 20
-6.0
 30
0.0
 11
-54.4346146163
 21
6.0
 31
0.0
  0
LINE
  5
28B
330
282
100
AcDbEntity
  8
SK2
100
AcDbLine
 10
-54.4346146163
 20
6.0
 30
0.0
 11
-54.4346146163
 21
12.35
 31
0.0
  0
MTEXT
  5
28C
330
282
100
AcDbEntity
  8
SK2
100
AcDbMText
 10
-58.9463515308
 20
-4.4481450553
 30
0.0
 40
3.5
 41
0.0
 71
     1
 72
     1
  1
M
  7
SLDTEXTSTYLE0
 11
-6.822150412718603E-15
 21
1.0
 31
0.0
 73
     1
 44
1.0
  0
MTEXT
  5
28D
330
282
100
AcDbEntity
  8
SK2
100
AcDbMText
 10
-58.9463515308
 20
-0.1606451208
 30
0.0
 40
3.5
 41
0.0
 71
     1
 72
     1
  1
12
  7
SLDTEXTSTYLE0
 11
-6.822150412718603E-15
 21
1.0
 31
0.0
 73
     1
 44
1.0
  0
ENDBLK
  5
284
330
282
100
AcDbEntity
  8
0
100
AcDbBlockEnd
  0
BLOCK
  5
290
330
28F
100
AcDbEntity
  8
0
100
AcDbBlockBegin
  2
_D_8
 70
     0
 10
0.0
 20
0.0
 30
0.0
  3
_D_8
  1

  0
SOLID
  5
292
330
28F
100
AcDbEntity
  8
SK2
100
AcDbTrace
 10
-64.3715151248
 20
-15.875
 30
0.0
 11
-63.8635151248
 21
-12.573
 31
0.0
 12
-64.8795151248
 22
-12.573
 32
0.0
 13
-64.8795151248
 23
-12.573
 33
0.0
  0
SOLID
  5
293
330
28F
100
AcDbEntity
  8
SK2
100
AcDbTrace
 10
-64.3715151248
 20
15.875
 30
0.0
 11
-64.8795151248
 21
12.573
 31
0.0
 12
-63.8635151248
 22
12.573
 32
0.0
 13
-63.8635151248
 23
12.573
 33
0.0
  0
LINE
  5
294
330
28F
100
AcDbEntity
  8
SK2
100
AcDbLine
 10
-1.0
 20
-15.875
 30
0.0
 11
-65.3715151248
 21
-15.875
 31
0.0
  0
LINE
  5
295
330
28F
100
AcDbEntity
  8
SK2
100
AcDbLine
 10
-0.8
 20
15.875
 30
0.0
 11
-65.3715151248
 21
15.875
 31
0.0
  0
LINE
  5
296
330
28F
100
AcDbEntity
  8
SK2
100
AcDbLine
 10
-64.3715151248
 20
-15.875
 30
0.0
 11
-64.3715151248
 21
15.875
 31
0.0
  0
MTEXT
  5
297
330
28F
100
AcDbEntity
  8
SK2
100
AcDbMText
 10
-68.883252214
 20
-8.9799724986
 30
0.0
 40
3.5
 41
0.0
 71
     1
 72
     1
  1
%%c
  7
SLDTEXTSTYLE0
 11
6.123233995736766E-17
 21
1.0
 31
0.0
 73
     1
 44
1.0
  0
MTEXT
  5
298
330
28F
100
AcDbEntity
  8
SK2
100
AcDbMText
 10
-68.9367243907
 20
-3.7015351002
 30
0.0
 40
3.5
 41
0.0
 71
     1
 72
     1
  1
31,75
  7
SLDTEXTSTYLE0
 11
6.123233995736766E-17
 21
1.0
 31
0.0
 73
     1
 44
1.0
  0
ENDBLK
  5
291
330
28F
100
AcDbEntity
  8
0
100
AcDbBlockEnd
  0
ENDSEC
  0
SECTION
  2
ENTITIES
  0
LINE
  5
92
330
1F
100
AcDbEntity
  8
SK1
  6
SLD-Solid
370
    25
100
AcDbLine
 10
61.7093515883
 20
9.0
 30
0.0
 11
61.4093515883
 21
8.7
 31
0.0
  0
LINE
  5
93
330
1F
100
AcDbEntity
  8
SK1
  6
SLD-Solid
370
    25
100
AcDbLine
 10
61.4093515883
 20
-8.7
 30
0.0
 11
61.7093515883
 21
-9.0
 31
0.0
  0
LINE
  5
94
330
1F
100
AcDbEntity
  8
SK1
  6
SLD-Solid
370
    25
100
AcDbLine
 10
61.7093515883
 20
-9.0
 30
0.0
 11
68.4093515883
 21
-9.0
 31
0.0
  0
LINE
  5
95
330
1F
100
AcDbEntity
  8
SK1
  6
SLD-Solid
370
    25
100
AcDbLine
 10
68.4093515883
 20
9.0
 30
0.0
 11
61.7093515883
 21
9.0
 31
0.0
  0
LINE
  5
96
330
1F
100
AcDbEntity
  8
SK1
  6
SLD-Solid
370
    25
100
AcDbLine
 10
68.4093515883
 20
-9.0
 30
0.0
 11
68.9093515883
 21
-8.5
 31
0.0
  0
LINE
  5
97
330
1F
100
AcDbEntity
  8
SK1
  6
SLD-Solid
370
    25
100
AcDbLine
 10
68.9093515883
 20
8.5
 30
0.0
 11
68.4093515883
 21
9.0
 31
0.0
  0
LINE
  5
98
330
1F
100
AcDbEntity
  8
SK1
  6
SLD-Solid
370
    25
100
AcDbLine
 10
54.0
 20
-6.0
 30
0.0
 11
56.4093515883
 21
-6.0
 31
0.0
  0
LINE
  5
99
330
1F
100
AcDbEntity
  8
SK1
  6
SLD-Solid
370
    25
100
AcDbLine
 10
56.4093515883
 20
6.0
 30
0.0
 11
54.0
 21
6.0
 31
0.0
  0
LINE
  5
9A
330
1F
100
AcDbEntity
  8
SK1
  6
SLD-Solid
370
    25
100
AcDbLine
 10
60.4093515883
 20
-14.0
 30
0.0
 11
61.4093515883
 21
-13.0
 31
0.0
  0
LINE
  5
9B
330
1F
100
AcDbEntity
  8
SK1
  6
SLD-Solid
370
    25
100
AcDbLine
 10
61.4093515883
 20
13.0
 30
0.0
 11
60.4093515883
 21
14.0
 31
0.0
  0
LINE
  5
9C
330
1F
100
AcDbEntity
  8
SK1
  6
SLD-Solid
370
    25
100
AcDbLine
 10
56.7093515883
 20
-14.0
 30
0.0
 11
60.4093515883
 21
-14.0
 31
0.0
  0
LINE
  5
9D
330
1F
100
AcDbEntity
  8
SK1
  6
SLD-Solid
370
    25
100
AcDbLine
 10
60.4093515883
 20
14.0
 30
0.0
 11
56.7093515883
 21
14.0
 31
0.0
  0
LINE
  5
9E
330
1F
100
AcDbEntity
  8
SK1
  6
SLD-Solid
370
    25
100
AcDbLine
 10
56.7093515883
 20
14.0
 30
0.0
 11
56.4093515883
 21
13.7
 31
0.0
  0
LINE
  5
9F
330
1F
100
AcDbEntity
  8
SK1
  6
SLD-Solid
370
    25
100
AcDbLine
 10
56.4093515883
 20
-13.7
 30
0.0
 11
56.7093515883
 21
-14.0
 31
0.0
  0
LINE
  5
A0
330
1F
100
AcDbEntity
  8
1
  6
SLD-Solid
370
    25
100
AcDbLine
 10
19.8746494411
 20
-22.99
 30
0.0
 11
21.35
 21
-22.99
 31
0.0
  0
LINE
  5
A1
330
1F
100
AcDbEntity
  8
1
  6
SLD-Solid
370
    25
100
AcDbLine
 10
21.35
 20
22.99
 30
0.0
 11
19.874649423
 21
22.99
 31
0.0
  0
LINE
  5
A2
330
1F
100
AcDbEntity
  8
1
  6
SLD-Solid
370
    25
100
AcDbLine
 10
23.1
 20
-21.0
 30
0.0
 11
24.6064287705
 21
-21.0
 31
0.0
  0
LINE
  5
A3
330
1F
100
AcDbEntity
  8
1
  6
SLD-Solid
370
    25
100
AcDbLine
 10
24.6173632704
 20
21.0
 30
0.0
 11
23.1
 21
21.0
 31
0.0
  0
LINE
  5
A4
330
1F
100
AcDbEntity
  8
1
  6
SLD-Solid
370
    25
100
AcDbLine
 10
0.0
 20
-15.875
 30
0.0
 11
0.2
 21
-15.875
 31
0.0
  0
LINE
  5
A5
330
1F
100
AcDbEntity
  8
1
  6
SLD-Solid
370
    25
100
AcDbLine
 10
0.2
 20
15.875
 30
0.0
 11
0.0
 21
15.875
 31
0.0
  0
LINE
  5
A6
330
1F
100
AcDbEntity
  8
SK1
  6
SLD-Solid
370
    25
100
AcDbLine
 10
0.0
 20
15.875
 30
0.0
 11
-48.0791191833
 21
8.8629194779
 31
0.0
  0
LINE
  5
A7
330
1F
100
AcDbEntity
  8
SK1
  6
SLD-Solid
370
    25
100
AcDbLine
 10
-48.0791191833
 20
-8.8629194779
 30
0.0
 11
0.0
 21
-15.875
 31
0.0
  0
LINE
  5
A8
330
1F
100
AcDbEntity
  8
1
  6
SLD-Solid
370
    25
100
AcDbLine
 10
0.2
 20
-15.875
 30
0.0
 11
0.8619053906
 21
-15.5663484474
 31
0.0
  0
LINE
  5
A9
330
1F
100
AcDbEntity
  8
1
  6
SLD-Solid
370
    25
100
AcDbLine
 10
0.8619053906
 20
15.5663484474
 30
0.0
 11
0.2
 21
15.875
 31
0.0
  0
LINE
  5
AA
330
1F
100
AcDbEntity
  8
SK1
  6
SLD-Solid
370
    25
100
AcDbLine
 10
36.3439594644
 20
11.0
 30
0.0
 11
35.6605646396
 21
10.7845264394
 31
0.0
  0
LINE
  5
AB
330
1F
100
AcDbEntity
  8
SK1
  6
SLD-Solid
370
    25
100
AcDbLine
 10
35.6605646396
 20
-10.7845264394
 30
0.0
 11
36.3439594644
 21
-11.0
 31
0.0
  0
LINE
  5
AC
330
1F
100
AcDbEntity
  8
SK1
  6
SLD-Solid
370
    25
100
AcDbLine
 10
51.0
 20
-11.0
 30
0.0
 11
54.0
 21
-10.4710190579
 31
0.0
  0
LINE
  5
AD
330
1F
100
AcDbEntity
  8
SK1
  6
SLD-Solid
370
    25
100
AcDbLine
 10
54.0
 20
10.4710190579
 30
0.0
 11
51.0
 21
11.0
 31
0.0
  0
LINE
  5
AE
330
1F
100
AcDbEntity
  8
SK1
  6
SLD-Solid
370
    25
100
AcDbLine
 10
36.3439594644
 20
-11.0
 30
0.0
 11
51.0
 21
-11.0
 31
0.0
  0
LINE
  5
AF
330
1F
100
AcDbEntity
  8
SK1
  6
SLD-Solid
370
    25
100
AcDbLine
 10
51.0
 20
11.0
 30
0.0
 11
36.3439594644
 21
11.0
 31
0.0
  0
LINE
  5
B0
330
1F
100
AcDbEntity
  8
SK1
  6
SLD-Solid
370
    25
100
AcDbLine
 10
40.1
 20
-19.5
 30
0.0
 11
35.0
 21
-19.5
 31
0.0
  0
LINE
  5
B1
330
1F
100
AcDbEntity
  8
SK1
  6
SLD-Solid
370
    25
100
AcDbLine
 10
35.0
 20
-13.5
 30
0.0
 11
40.1
 21
-13.5
 31
0.0
  0
LINE
  5
B2
330
1F
100
AcDbEntity
  8
SK1
  6
SLD-Solid
370
    25
100
AcDbLine
 10
40.1
 20
-13.5
 30
0.0
 11
40.6
 21
-14.0
 31
0.0
  0
LINE
  5
B3
330
1F
100
AcDbEntity
  8
SK1
  6
SLD-Solid
370
    25
100
AcDbLine
 10
40.6
 20
-14.0
 30
0.0
 11
40.6
 21
-19.5
 31
0.0
  0
LINE
  5
B4
330
1F
100
AcDbEntity
  8
SK1
  6
SLD-Solid
370
    25
100
AcDbLine
 10
40.6
 20
-19.5
 30
0.0
 11
40.1
 21
-19.5
 31
0.0
  0
LINE
  5
B5
330
1F
100
AcDbEntity
  8
SK1
  6
SLD-Solid
370
    25
100
AcDbLine
 10
40.1
 20
13.5
 30
0.0
 11
35.0
 21
13.5
 31
0.0
  0
LINE
  5
B6
330
1F
100
AcDbEntity
  8
SK1
  6
SLD-Solid
370
    25
100
AcDbLine
 10
35.0
 20
19.5
 30
0.0
 11
40.1
 21
19.5
 31
0.0
  0
LINE
  5
B7
330
1F
100
AcDbEntity
  8
SK1
  6
SLD-Solid
370
    25
100
AcDbLine
 10
40.6
 20
19.5
 30
0.0
 11
40.6
 21
14.0
 31
0.0
  0
LINE
  5
B8
330
1F
100
AcDbEntity
  8
SK1
  6
SLD-Solid
370
    25
100
AcDbLine
 10
40.1
 20
19.5
 30
0.0
 11
40.6
 21
19.5
 31
0.0
  0
LINE
  5
B9
330
1F
100
AcDbEntity
  8
SK1
  6
SLD-Solid
370
    25
100
AcDbLine
 10
40.1
 20
13.5
 30
0.0
 11
40.6
 21
14.0
 31
0.0
  0
LINE
  5
BA
330
1F
100
AcDbEntity
  8
SK1
  6
SLD-Solid
370
    25
100
AcDbLine
 10
61.7093515883
 20
1.9416910609
 30
0.0
 11
61.7093515883
 21
-9.0
 31
0.0
  0
LINE
  5
BB
330
1F
100
AcDbEntity
  8
SK1
  6
SLD-Solid
370
    25
100
AcDbLine
 10
61.7093515883
 20
9.0
 30
0.0
 11
61.7093515883
 21
1.9416910609
 31
0.0
  0
LINE
  5
BC
330
1F
100
AcDbEntity
  8
SK1
  6
SLD-Solid
370
    25
100
AcDbLine
 10
68.4093515883
 20
-9.0
 30
0.0
 11
68.4093515883
 21
9.0
 31
0.0
  0
LINE
  5
BD
330
1F
100
AcDbEntity
  8
SK1
  6
SLD-Solid
370
    25
100
AcDbLine
 10
68.9093515883
 20
8.5
 30
0.0
 11
68.9093515883
 21
-8.5
 31
0.0
  0
LINE
  5
BE
330
1F
100
AcDbEntity
  8
SK1
  6
SLD-Solid
370
    25
100
AcDbLine
 10
61.4093515883
 20
-13.0
 30
0.0
 11
61.4093515883
 21
13.0
 31
0.0
  0
LINE
  5
BF
330
1F
100
AcDbEntity
  8
SK1
  6
SLD-Solid
370
    25
100
AcDbLine
 10
60.4093515883
 20
-14.0
 30
0.0
 11
60.4093515883
 21
14.0
 31
0.0
  0
LINE
  5
C0
330
1F
100
AcDbEntity
  8
SK1
  6
SLD-Solid
370
    25
100
AcDbLine
 10
56.7093515883
 20
-3.7314097911
 30
0.0
 11
56.7093515883
 21
-14.0
 31
0.0
  0
LINE
  5
C1
330
1F
100
AcDbEntity
  8
SK1
  6
SLD-Solid
370
    25
100
AcDbLine
 10
56.7093515883
 20
14.0
 30
0.0
 11
56.7093515883
 21
-3.7314097911
 31
0.0
  0
LINE
  5
C2
330
1F
100
AcDbEntity
  8
SK1
  6
SLD-Solid
370
    25
100
AcDbLine
 10
56.4093515883
 20
-3.6514510099
 30
0.0
 11
56.4093515883
 21
13.7
 31
0.0
  0
LINE
  5
C3
330
1F
100
AcDbEntity
  8
SK1
  6
SLD-Solid
370
    25
100
AcDbLine
 10
56.4093515883
 20
-13.7
 30
0.0
 11
56.4093515883
 21
-3.6514510099
 31
0.0
  0
LINE
  5
C4
330
1F
100
AcDbEntity
  8
1
  6
SLD-Solid
370
    25
100
AcDbLine
 10
17.6270180319
 20
-22.2347719471
 30
0.0
 11
17.6270181276
 21
22.2347719748
 31
0.0
  0
LINE
  5
C5
330
1F
100
AcDbEntity
  8
1
  6
SLD-Solid
370
    25
100
AcDbLine
 10
17.3742823051
 20
-21.8788932612
 30
0.0
 11
17.6270180319
 21
-22.2347719471
 31
0.0
  0
LINE
  5
C6
330
1F
100
AcDbEntity
  8
1
  6
SLD-Solid
370
    25
100
AcDbLine
 10
15.6
 20
-18.2061912473
 30
0.0
 11
15.6
 21
18.2061912473
 31
0.0
  0
LINE
  5
C7
330
1F
100
AcDbEntity
  8
1
  6
SLD-Solid
370
    25
100
AcDbLine
 10
17.6270181276
 20
22.2347719748
 30
0.0
 11
17.3742822791
 21
21.8788932261
 31
0.0
  0
LINE
  5
C8
330
1F
100
AcDbEntity
  8
1
  6
SLD-Solid
370
    25
100
AcDbLine
 10
2.75
 20
-21.3146126652
 30
0.0
 11
9.5729818724
 21
-21.3146126652
 31
0.0
  0
LINE
  5
C9
330
1F
100
AcDbEntity
  8
1
  6
SLD-Solid
370
    25
100
AcDbLine
 10
9.5729818724
 20
21.3146126652
 30
0.0
 11
2.75
 21
21.3146126652
 31
0.0
  0
LINE
  5
CA
330
1F
100
AcDbEntity
  8
1
  6
SLD-Solid
370
    25
100
AcDbLine
 10
9.5729818724
 20
-21.3146126652
 30
0.0
 11
9.5729818724
 21
21.3146126652
 31
0.0
  0
LINE
  5
CB
330
1F
100
AcDbEntity
  8
1
  6
SLD-Solid
370
    25
100
AcDbLine
 10
2.0
 20
-20.5619059185
 30
0.0
 11
2.0
 21
20.5619059185
 31
0.0
  0
LINE
  5
CC
330
1F
100
AcDbEntity
  8
1
  6
SLD-Solid
370
    25
100
AcDbLine
 10
22.1
 20
22.24
 30
0.0
 11
22.1
 21
-22.24
 31
0.0
  0
LINE
  5
CD
330
1F
100
AcDbEntity
  8
1
  6
SLD-Solid
370
    25
100
AcDbLine
 10
11.6
 20
-17.7162467733
 30
0.0
 11
11.6
 21
17.7162467733
 31
0.0
  0
LINE
  5
CE
330
1F
100
AcDbEntity
  8
1
  6
SLD-Solid
370
    25
100
AcDbLine
 10
35.0
 20
19.8808953521
 30
0.0
 11
35.0
 21
-19.8808953521
 31
0.0
  0
LINE
  5
CF
330
1F
100
AcDbEntity
  8
1
  6
SLD-Solid
370
    25
100
AcDbLine
 10
34.5
 20
20.3960780544
 30
0.0
 11
29.6
 21
20.3960780544
 31
0.0
  0
LINE
  5
D0
330
1F
100
AcDbEntity
  8
1
  6
SLD-Solid
370
    25
100
AcDbLine
 10
34.5
 20
-20.3960780544
 30
0.0
 11
29.6
 21
-20.3960780544
 31
0.0
  0
LINE
  5
D1
330
1F
100
AcDbEntity
  8
1
  6
SLD-Solid
370
    25
100
AcDbLine
 10
0.0
 20
-15.875
 30
0.0
 11
0.0
 21
15.875
 31
0.0
  0
LINE
  5
D2
330
1F
100
AcDbEntity
  8
SK1
  6
SLD-Solid
370
    25
100
AcDbLine
 10
54.0
 20
-10.4710190579
 30
0.0
 11
54.0
 21
10.4710190579
 31
0.0
  0
LINE
  5
D3
330
1F
100
AcDbEntity
  8
SK1
  6
SLD-Solid
370
    25
100
AcDbLine
 10
51.0
 20
-11.0
 30
0.0
 11
51.0
 21
11.0
 31
0.0
  0
LINE
  5
D4
330
1F
100
AcDbEntity
  8
SK1
  6
SLD-Solid
370
    25
100
AcDbLine
 10
-48.4
 20
0.0
 30
0.0
 11
-48.4
 21
8.4918452077
 31
0.0
  0
LINE
  5
D5
330
1F
100
AcDbEntity
  8
SK1
  6
SLD-Solid
370
    25
100
AcDbLine
 10
-48.4
 20
-8.4918452077
 30
0.0
 11
-48.4
 21
0.0
 31
0.0
  0
LINE
  5
D6
330
1F
100
AcDbEntity
  8
1
  6
SLD-Solid
370
    25
100
AcDbLine
 10
17.6270180319
 20
-22.2347719471
 30
0.0
 11
17.3742823051
 21
-21.8788932612
 31
0.0
  0
LINE
  5
D7
330
1F
100
AcDbEntity
  8
1
  6
SLD-Solid
370
    25
100
AcDbLine
 10
17.3742822791
 20
21.8788932261
 30
0.0
 11
17.6270181276
 21
22.2347719748
 31
0.0
  0
LINE
  5
D8
330
1F
100
AcDbEntity
  8
SK1
  6
SLD-Solid
370
    25
100
AcDbLine
 10
35.6605646396
 20
-10.7845264394
 30
0.0
 11
35.6605646396
 21
10.7845264394
 31
0.0
  0
LINE
  5
D9
330
1F
100
AcDbEntity
  8
1
  6
SLD-Dashed
370
    18
100
AcDbLine
 10
2.75
 20
21.3146126652
 30
0.0
 11
2.75
 21
20.9669406447
 31
0.0
  0
LINE
  5
DA
330
1F
100
AcDbEntity
  8
SK3
  6
SLD-Dashed
370
    18
100
AcDbLine
 10
2.0
 20
20.5619059185
 30
0.0
 11
2.0
 21
16.525
 31
0.0
  0
LINE
  5
DB
330
1F
100
AcDbEntity
  8
SK3
  6
SLD-Dashed
370
    18
100
AcDbLine
 10
2.0
 20
16.525
 30
0.0
 11
2.0
 21
15.7766058076
 31
0.0
  0
LINE
  5
DC
330
1F
100
AcDbEntity
  8
1
  6
SLD-Dashed
370
    18
100
AcDbLine
 10
15.6
 20
-18.2061912473
 30
0.0
 11
15.6
 21
-17.9608602244
 31
0.0
  0
LINE
  5
DD
330
1F
100
AcDbEntity
  8
1
  6
SLD-Dashed
370
    18
100
AcDbLine
 10
11.6
 20
-17.4640344709
 30
0.0
 11
11.6
 21
-17.7162467733
 31
0.0
  0
LINE
  5
DE
330
1F
100
AcDbEntity
  8
SK3
  6
SLD-Dashed
370
    18
100
AcDbLine
 10
11.4
 20
-16.1500000001
 30
0.0
 11
2.375
 21
-16.1500000001
 31
0.0
  0
LINE
  5
DF
330
1F
100
AcDbEntity
  8
1
  6
SLD-Dashed
370
    18
100
AcDbLine
 10
11.6
 20
17.4640344709
 30
0.0
 11
11.6
 21
17.7162467733
 31
0.0
  0
LINE
  5
E0
330
1F
100
AcDbEntity
  8
1
  6
SLD-Dashed
370
    18
100
AcDbLine
 10
15.6
 20
18.2061912473
 30
0.0
 11
15.6
 21
17.9608602244
 31
0.0
  0
LINE
  5
E1
330
1F
100
AcDbEntity
  8
SK3
  6
SLD-Dashed
370
    18
100
AcDbLine
 10
11.4
 20
-16.1500000001
 30
0.0
 11
19.125
 21
-16.1500000001
 31
0.0
  0
LINE
  5
E2
330
1F
100
AcDbEntity
  8
SK3
  6
SLD-Dashed
370
    18
100
AcDbLine
 10
2.375
 20
16.15
 30
0.0
 11
11.4
 21
16.15
 31
0.0
  0
LINE
  5
E3
330
1F
100
AcDbEntity
  8
SK3
  6
SLD-Dashed
370
    18
100
AcDbLine
 10
11.4
 20
16.15
 30
0.0
 11
19.125
 21
16.15
 31
0.0
  0
LINE
  5
E4
330
1F
100
AcDbEntity
  8
SK3
  6
SLD-Dashed
370
    18
100
AcDbLine
 10
-47.2
 20
6.2565
 30
0.0
 11
-47.2
 21
-6.2565
 31
0.0
  0
LINE
  5
E5
330
1F
100
AcDbEntity
  8
SK3
  6
SLD-Dashed
370
    18
100
AcDbLine
 10
-48.4
 20
6.9375631729
 30
0.0
 11
-48.4
 21
-6.9375631729
 31
0.0
  0
LINE
  5
E6
330
1F
100
AcDbEntity
  8
SK1
  6
SLD-Dashed
370
    18
100
AcDbLine
 10
54.0
 20
-4.2329915927
 30
0.0
 11
54.0
 21
-6.7271635157
 31
0.0
  0
LINE
  5
E7
330
1F
100
AcDbEntity
  8
SK3
  6
SLD-Dashed
370
    18
100
AcDbLine
 10
24.0
 20
-4.2300775542
 30
0.0
 11
24.0
 21
-6.7300775542
 31
0.0
  0
LINE
  5
E8
330
1F
100
AcDbEntity
  8
SK1
  6
SLD-Dashed
370
    18
100
AcDbLine
 10
54.0
 20
6.7271635157
 30
0.0
 11
54.0
 21
4.2329915927
 31
0.0
  0
LINE
  5
E9
330
1F
100
AcDbEntity
  8
SK3
  6
SLD-Dashed
370
    18
100
AcDbLine
 10
24.0
 20
6.7300775542
 30
0.0
 11
24.0
 21
4.2300775542
 31
0.0
  0
LINE
  5
EA
330
1F
100
AcDbEntity
  8
SK3
  6
SLD-Dashed
370
    18
100
AcDbLine
 10
-41.15
 20
6.625
 30
0.0
 11
-41.15
 21
-6.625
 31
0.0
  0
LINE
  5
EB
330
1F
100
AcDbEntity
  8
SK3
  6
SLD-Dashed
370
    18
100
AcDbLine
 10
-43.15
 20
6.625
 30
0.0
 11
-43.15
 21
-6.625
 31
0.0
  0
LINE
  5
EC
330
1F
100
AcDbEntity
  8
SK3
  6
SLD-Dashed
370
    18
100
AcDbLine
 10
-40.2695408395
 20
-5.1
 30
0.0
 11
-40.2695408395
 21
5.1
 31
0.0
  0
LINE
  5
ED
330
1F
100
AcDbEntity
  8
SK3
  6
SLD-Dashed
370
    18
100
AcDbLine
 10
-43.7882607226
 20
6.2565
 30
0.0
 11
-43.7882607226
 21
-6.2565
 31
0.0
  0
LINE
  5
EE
330
1F
100
AcDbEntity
  8
SK3
  6
SLD-Dashed
370
    18
100
AcDbLine
 10
52.5
 20
4.25
 30
0.0
 11
52.5
 21
-4.25
 31
0.0
  0
LINE
  5
EF
330
1F
100
AcDbEntity
  8
SK3
  6
SLD-Dashed
370
    18
100
AcDbLine
 10
11.6
 20
5.0881107229
 30
0.0
 11
11.6
 21
-5.0881107229
 31
0.0
  0
LINE
  5
F0
330
1F
100
AcDbEntity
  8
SK3
  6
SLD-Dashed
370
    18
100
AcDbLine
 10
12.1107315262
 20
-4.25
 30
0.0
 11
12.1107315262
 21
4.25
 31
0.0
  0
LINE
  5
F1
330
1F
100
AcDbEntity
  8
SK3
  6
SLD-Dashed
370
    18
100
AcDbLine
 10
6.3
 20
-11.45
 30
0.0
 11
15.7
 21
-11.45
 31
0.0
  0
LINE
  5
F2
330
1F
100
AcDbEntity
  8
SK3
  6
SLD-Dashed
370
    18
100
AcDbLine
 10
6.0
 20
-16.15
 30
0.0
 11
16.0
 21
-16.15
 31
0.0
  0
LINE
  5
F3
330
1F
100
AcDbEntity
  8
SK1
  6
SLD-Dashed
370
    18
100
AcDbLine
 10
54.0
 20
-4.2329915927
 30
0.0
 11
54.0
 21
-6.7271635157
 31
0.0
  0
LINE
  5
F4
330
1F
100
AcDbEntity
  8
SK3
  6
SLD-Dashed
370
    18
100
AcDbLine
 10
24.0
 20
-4.2329915927
 30
0.0
 11
24.0
 21
-6.7271635157
 31
0.0
  0
LINE
  5
F5
330
1F
100
AcDbEntity
  8
SK1
  6
SLD-Dashed
370
    18
100
AcDbLine
 10
54.0
 20
6.7271635157
 30
0.0
 11
54.0
 21
4.2329915927
 31
0.0
  0
LINE
  5
F6
330
1F
100
AcDbEntity
  8
SK3
  6
SLD-Dashed
370
    18
100
AcDbLine
 10
24.0
 20
6.7271635157
 30
0.0
 11
24.0
 21
4.2329915927
 31
0.0
  0
LINE
  5
F7
330
1F
100
AcDbEntity
  8
SK3
  6
SLD-Dashed
370
    18
100
AcDbLine
 10
2.0
 20
16.525
 30
0.0
 11
2.0
 21
15.7766058076
 31
0.0
  0
LINE
  5
F8
330
1F
100
AcDbEntity
  8
1
  6
SLD-Dashed
370
    18
100
AcDbLine
 10
2.75
 20
20.9669406447
 30
0.0
 11
2.75
 21
21.3146126652
 31
0.0
  0
LINE
  5
F9
330
1F
100
AcDbEntity
  8
1
  6
SLD-Dashed
370
    18
100
AcDbLine
 10
2.75
 20
21.3146126652
 30
0.0
 11
9.5729818724
 21
21.3146126652
 31
0.0
  0
LINE
  5
FA
330
1F
100
AcDbEntity
  8
SK3
  6
SLD-Dashed
370
    18
100
AcDbLine
 10
19.5
 20
-22.6151875394
 30
0.0
 11
19.5
 21
-16.5250000001
 31
0.0
  0
LINE
  5
FB
330
1F
100
AcDbEntity
  8
SK3
  6
SLD-Dashed
370
    18
100
AcDbLine
 10
19.5
 20
16.525
 30
0.0
 11
19.5
 21
22.6152218738
 31
0.0
  0
LINE
  5
FC
330
1F
100
AcDbEntity
  8
SK3
  6
SLD-Dashed
370
    18
100
AcDbLine
 10
-48.4
 20
-6.949320323
 30
0.0
 11
-47.2
 21
-6.2565
 31
0.0
  0
LINE
  5
FD
330
1F
100
AcDbEntity
  8
SK3
  6
SLD-Dashed
370
    18
100
AcDbLine
 10
-47.2
 20
6.2565
 30
0.0
 11
-48.4
 21
6.949320323
 31
0.0
  0
LINE
  5
FE
330
1F
100
AcDbEntity
  8
SK3
  6
SLD-Dashed
370
    18
100
AcDbLine
 10
54.0
 20
-4.2300775542
 30
0.0
 11
27.2108291899
 21
-4.2300775542
 31
0.0
  0
LINE
  5
FF
330
1F
100
AcDbEntity
  8
SK3
  6
SLD-Dashed
370
    18
100
AcDbLine
 10
27.2109257926
 20
-6.7300775542
 30
0.0
 11
54.0
 21
-6.7300775542
 31
0.0
  0
LINE
  5
100
330
1F
100
AcDbEntity
  8
SK3
  6
SLD-Dashed
370
    18
100
AcDbLine
 10
24.7926720316
 20
-4.2300775542
 30
0.0
 11
24.0
 21
-4.2300775542
 31
0.0
  0
LINE
  5
101
330
1F
100
AcDbEntity
  8
SK3
  6
SLD-Dashed
370
    18
100
AcDbLine
 10
24.0
 20
-6.7300775542
 30
0.0
 11
24.7932446321
 21
-6.7300775542
 31
0.0
  0
LINE
  5
102
330
1F
100
AcDbEntity
  8
SK3
  6
SLD-Dashed
370
    18
100
AcDbLine
 10
24.0
 20
-4.2300775542
 30
0.0
 11
23.2489242262
 21
-5.4800775542
 31
0.0
  0
LINE
  5
103
330
1F
100
AcDbEntity
  8
SK3
  6
SLD-Dashed
370
    18
100
AcDbLine
 10
23.2489242262
 20
-5.4800775542
 30
0.0
 11
24.0
 21
-6.7300775542
 31
0.0
  0
LINE
  5
104
330
1F
100
AcDbEntity
  8
SK3
  6
SLD-Dashed
370
    18
100
AcDbLine
 10
54.0
 20
6.7300775542
 30
0.0
 11
27.2115784076
 21
6.7300775542
 31
0.0
  0
LINE
  5
105
330
1F
100
AcDbEntity
  8
SK3
  6
SLD-Dashed
370
    18
100
AcDbLine
 10
27.2109630659
 20
4.2300775542
 30
0.0
 11
54.0
 21
4.2300775542
 31
0.0
  0
LINE
  5
106
330
1F
100
AcDbEntity
  8
SK3
  6
SLD-Dashed
370
    18
100
AcDbLine
 10
24.7909847814
 20
6.7300775542
 30
0.0
 11
24.0
 21
6.7300775542
 31
0.0
  0
LINE
  5
107
330
1F
100
AcDbEntity
  8
SK3
  6
SLD-Dashed
370
    18
100
AcDbLine
 10
24.0
 20
4.2300775542
 30
0.0
 11
24.7890719734
 21
4.2300775542
 31
0.0
  0
LINE
  5
108
330
1F
100
AcDbEntity
  8
SK3
  6
SLD-Dashed
370
    18
100
AcDbLine
 10
24.0
 20
6.7300775542
 30
0.0
 11
23.2489242262
 21
5.4800775542
 31
0.0
  0
LINE
  5
109
330
1F
100
AcDbEntity
  8
SK3
  6
SLD-Dashed
370
    18
100
AcDbLine
 10
23.2489242262
 20
5.4800775542
 30
0.0
 11
24.0
 21
4.2300775542
 31
0.0
  0
LINE
  5
10A
330
1F
100
AcDbEntity
  8
SK3
  6
SLD-Dashed
370
    18
100
AcDbLine
 10
-41.15
 20
6.625
 30
0.0
 11
-43.15
 21
6.625
 31
0.0
  0
LINE
  5
10B
330
1F
100
AcDbEntity
  8
SK3
  6
SLD-Dashed
370
    18
100
AcDbLine
 10
-43.15
 20
-6.625
 30
0.0
 11
-41.15
 21
-6.625
 31
0.0
  0
LINE
  5
10C
330
1F
100
AcDbEntity
  8
SK3
  6
SLD-Dashed
370
    18
100
AcDbLine
 10
-41.15
 20
-6.625
 30
0.0
 11
-40.2695408395
 21
-5.1
 31
0.0
  0
LINE
  5
10D
330
1F
100
AcDbEntity
  8
SK3
  6
SLD-Dashed
370
    18
100
AcDbLine
 10
-40.2695408395
 20
5.1
 30
0.0
 11
-41.15
 21
6.625
 31
0.0
  0
LINE
  5
10E
330
1F
100
AcDbEntity
  8
SK3
  6
SLD-Dashed
370
    18
100
AcDbLine
 10
-43.15
 20
6.625
 30
0.0
 11
-43.7882607226
 21
6.2565
 31
0.0
  0
LINE
  5
10F
330
1F
100
AcDbEntity
  8
SK3
  6
SLD-Dashed
370
    18
100
AcDbLine
 10
-43.7882607226
 20
-6.2565
 30
0.0
 11
-43.15
 21
-6.625
 31
0.0
  0
LINE
  5
110
330
1F
100
AcDbEntity
  8
SK3
  6
SLD-Dashed
370
    18
100
AcDbLine
 10
-43.7882607226
 20
6.2565
 30
0.0
 11
-47.2
 21
6.2565
 31
0.0
  0
LINE
  5
111
330
1F
100
AcDbEntity
  8
SK3
  6
SLD-Dashed
370
    18
100
AcDbLine
 10
-47.2
 20
-6.2565
 30
0.0
 11
-43.7882607226
 21
-6.2565
 31
0.0
  0
LINE
  5
112
330
1F
100
AcDbEntity
  8
SK3
  6
SLD-Dashed
370
    18
100
AcDbLine
 10
19.5000000002
 20
22.6150000193
 30
0.0
 11
19.8749999617
 21
22.99
 31
0.0
  0
LINE
  5
113
330
1F
100
AcDbEntity
  8
SK3
  6
SLD-Dashed
370
    18
100
AcDbLine
 10
-40.2695408395
 20
-5.1
 30
0.0
 11
11.6
 21
-5.1
 31
0.0
  0
LINE
  5
114
330
1F
100
AcDbEntity
  8
SK3
  6
SLD-Dashed
370
    18
100
AcDbLine
 10
11.6
 20
5.1
 30
0.0
 11
-40.2695408395
 21
5.1
 31
0.0
  0
LINE
  5
115
330
1F
100
AcDbEntity
  8
SK3
  6
SLD-Dashed
370
    18
100
AcDbLine
 10
11.6
 20
-5.1
 30
0.0
 11
12.1107315262
 21
-4.25
 31
0.0
  0
LINE
  5
116
330
1F
100
AcDbEntity
  8
SK3
  6
SLD-Dashed
370
    18
100
AcDbLine
 10
12.1107315262
 20
4.25
 30
0.0
 11
11.6
 21
5.1
 31
0.0
  0
LINE
  5
117
330
1F
100
AcDbEntity
  8
SK3
  6
SLD-Dashed
370
    18
100
AcDbLine
 10
16.0
 20
-16.15
 30
0.0
 11
16.0
 21
-11.75
 31
0.0
  0
LINE
  5
118
330
1F
100
AcDbEntity
  8
SK3
  6
SLD-Dashed
370
    18
100
AcDbLine
 10
6.0
 20
-11.75
 30
0.0
 11
6.0
 21
-16.15
 31
0.0
  0
LINE
  5
119
330
1F
100
AcDbEntity
  8
SK3
  6
SLD-Dashed
370
    18
100
AcDbLine
 10
27.9520877676
 20
4.25
 30
0.0
 11
12.1107315262
 21
4.25
 31
0.0
  0
LINE
  5
11A
330
1F
100
AcDbEntity
  8
SK3
  6
SLD-Dashed
370
    18
100
AcDbLine
 10
52.5
 20
4.25
 30
0.0
 11
31.25
 21
4.25
 31
0.0
  0
LINE
  5
11B
330
1F
100
AcDbEntity
  8
SK3
  6
SLD-Dashed
370
    18
100
AcDbLine
 10
31.2479122324
 20
-4.25
 30
0.0
 11
52.5
 21
-4.25
 31
0.0
  0
LINE
  5
11C
330
1F
100
AcDbEntity
  8
SK3
  6
SLD-Dashed
370
    18
100
AcDbLine
 10
12.1107315262
 20
-4.25
 30
0.0
 11
27.95
 21
-4.25
 31
0.0
  0
LINE
  5
11D
330
1F
100
AcDbEntity
  8
SK3
  6
SLD-Dashed
370
    18
100
AcDbLine
 10
54.0
 20
-4.2300775542
 30
0.0
 11
27.2115784076
 21
-4.2300775542
 31
0.0
  0
LINE
  5
11E
330
1F
100
AcDbEntity
  8
SK3
  6
SLD-Dashed
370
    18
100
AcDbLine
 10
27.2109630659
 20
-6.7300775542
 30
0.0
 11
54.0
 21
-6.7300775542
 31
0.0
  0
LINE
  5
11F
330
1F
100
AcDbEntity
  8
SK3
  6
SLD-Dashed
370
    18
100
AcDbLine
 10
24.7909847814
 20
-4.2300775542
 30
0.0
 11
24.0
 21
-4.2300775542
 31
0.0
  0
LINE
  5
120
330
1F
100
AcDbEntity
  8
SK3
  6
SLD-Dashed
370
    18
100
AcDbLine
 10
24.0
 20
-6.7300775542
 30
0.0
 11
24.7890719734
 21
-6.7300775542
 31
0.0
  0
LINE
  5
121
330
1F
100
AcDbEntity
  8
SK3
  6
SLD-Dashed
370
    18
100
AcDbLine
 10
24.0
 20
-4.2300775542
 30
0.0
 11
23.2489242262
 21
-5.4800775542
 31
0.0
  0
LINE
  5
122
330
1F
100
AcDbEntity
  8
SK3
  6
SLD-Dashed
370
    18
100
AcDbLine
 10
23.2489242262
 20
-5.4800775542
 30
0.0
 11
24.0
 21
-6.7300775542
 31
0.0
  0
LINE
  5
123
330
1F
100
AcDbEntity
  8
SK3
  6
SLD-Dashed
370
    18
100
AcDbLine
 10
27.2115784076
 20
6.7300775542
 30
0.0
 11
27.2108291899
 21
6.7300775542
 31
0.0
  0
LINE
  5
124
330
1F
100
AcDbEntity
  8
SK3
  6
SLD-Dashed
370
    18
100
AcDbLine
 10
24.7926720316
 20
6.7300775542
 30
0.0
 11
24.7909847814
 21
6.7300775542
 31
0.0
  0
LINE
  5
125
330
1F
100
AcDbEntity
  8
SK3
  6
SLD-Dashed
370
    18
100
AcDbLine
 10
24.7890719734
 20
4.2300775542
 30
0.0
 11
24.7932446321
 21
4.2300775542
 31
0.0
  0
LINE
  5
126
330
1F
100
AcDbEntity
  8
SK3
  6
SLD-Dashed
370
    18
100
AcDbLine
 10
24.0
 20
6.7300775542
 30
0.0
 11
23.2489242262
 21
5.4800775542
 31
0.0
  0
LINE
  5
127
330
1F
100
AcDbEntity
  8
SK3
  6
SLD-Dashed
370
    18
100
AcDbLine
 10
23.2489242262
 20
5.4800775542
 30
0.0
 11
24.0
 21
4.2300775542
 31
0.0
  0
LINE
  5
128
330
1F
100
AcDbEntity
  8
SK3
  6
SLD-Dashed
370
    18
100
AcDbLine
 10
2.0
 20
15.775
 30
0.0
 11
2.375
 21
16.15
 31
0.0
  0
LINE
  5
129
330
1F
100
AcDbEntity
  8
SK3
  6
SLD-Dashed
370
    18
100
AcDbLine
 10
54.0
 20
6.7300775542
 30
0.0
 11
27.2115784076
 21
6.7300775542
 31
0.0
  0
LINE
  5
12A
330
1F
100
AcDbEntity
  8
SK3
  6
SLD-Dashed
370
    18
100
AcDbLine
 10
27.2109630659
 20
4.2300775542
 30
0.0
 11
54.0
 21
4.2300775542
 31
0.0
  0
LINE
  5
12B
330
1F
100
AcDbEntity
  8
SK3
  6
SLD-Dashed
370
    18
100
AcDbLine
 10
24.7909847814
 20
6.7300775542
 30
0.0
 11
24.0
 21
6.7300775542
 31
0.0
  0
LINE
  5
12C
330
1F
100
AcDbEntity
  8
SK3
  6
SLD-Dashed
370
    18
100
AcDbLine
 10
24.0
 20
4.2300775542
 30
0.0
 11
24.7890719734
 21
4.2300775542
 31
0.0
  0
LINE
  5
12D
330
1F
100
AcDbEntity
  8
SK3
  6
SLD-Solid
370
    18
100
AcDbLine
 10
-23.4
 20
6.0
 30
0.0
 11
-40.7891560818
 21
6.0
 31
0.0
  0
LINE
  5
12E
330
1F
100
AcDbEntity
  8
SK3
  6
SLD-Solid
370
    18
100
AcDbLine
 10
-40.7891560818
 20
-6.0
 30
0.0
 11
-23.4
 21
-6.0
 31
0.0
  0
LINE
  5
12F
330
1F
100
AcDbEntity
  8
SK3
  6
SLD-Solid
370
    18
100
AcDbLine
 10
-23.4
 20
6.0
 30
0.0
 11
-23.4
 21
5.9604125386
 31
0.0
  0
LINE
  5
130
330
1F
100
AcDbEntity
  8
SK3
  6
SLD-Solid
370
    18
100
AcDbLine
 10
-23.4
 20
6.0
 30
0.0
 11
-23.4
 21
5.9604125386
 31
0.0
  0
LINE
  5
131
330
1F
100
AcDbEntity
  8
SK3
  6
SLD-Solid
370
    18
100
AcDbLine
 10
-23.400012725
 20
5.9604125386
 30
0.0
 11
-23.4
 21
5.7855209727
 31
0.0
  0
LINE
  5
132
330
1F
100
AcDbEntity
  8
SK3
  6
SLD-Solid
370
    18
100
AcDbLine
 10
-23.4
 20
5.7855209727
 30
0.0
 11
-23.4
 21
5.4750216989
 31
0.0
  0
LINE
  5
133
330
1F
100
AcDbEntity
  8
SK3
  6
SLD-Solid
370
    18
100
AcDbLine
 10
-23.4
 20
5.4750216989
 30
0.0
 11
-23.4
 21
5.0361925568
 31
0.0
  0
LINE
  5
134
330
1F
100
AcDbEntity
  8
SK3
  6
SLD-Solid
370
    18
100
AcDbLine
 10
-23.4
 20
5.0361925568
 30
0.0
 11
-23.4
 21
4.4793193297
 31
0.0
  0
LINE
  5
135
330
1F
100
AcDbEntity
  8
SK3
  6
SLD-Solid
370
    18
100
AcDbLine
 10
-23.4
 20
4.4793193297
 30
0.0
 11
-23.4
 21
3.817454654
 31
0.0
  0
LINE
  5
136
330
1F
100
AcDbEntity
  8
SK3
  6
SLD-Solid
370
    18
100
AcDbLine
 10
-23.4
 20
3.817454654
 30
0.0
 11
-23.4
 21
3.0661120767
 31
0.0
  0
LINE
  5
137
330
1F
100
AcDbEntity
  8
SK3
  6
SLD-Solid
370
    18
100
AcDbLine
 10
-23.4
 20
3.0661120767
 30
0.0
 11
-23.4
 21
2.242902431
 31
0.0
  0
LINE
  5
138
330
1F
100
AcDbEntity
  8
SK3
  6
SLD-Solid
370
    18
100
AcDbLine
 10
-23.4
 20
2.242902431
 30
0.0
 11
-23.4
 21
1.3671210534
 31
0.0
  0
LINE
  5
139
330
1F
100
AcDbEntity
  8
SK3
  6
SLD-Solid
370
    18
100
AcDbLine
 10
-23.4
 20
1.3671210534
 30
0.0
 11
-23.4
 21
0.459295517
 31
0.0
  0
LINE
  5
13A
330
1F
100
AcDbEntity
  8
SK3
  6
SLD-Solid
370
    18
100
AcDbLine
 10
-23.4
 20
0.459295517
 30
0.0
 11
-23.4
 21
-0.459295517
 31
0.0
  0
LINE
  5
13B
330
1F
100
AcDbEntity
  8
SK3
  6
SLD-Solid
370
    18
100
AcDbLine
 10
-23.4
 20
-0.459295517
 30
0.0
 11
-23.4
 21
-1.3671210534
 31
0.0
  0
LINE
  5
13C
330
1F
100
AcDbEntity
  8
SK3
  6
SLD-Solid
370
    18
100
AcDbLine
 10
-23.4
 20
-1.3671210534
 30
0.0
 11
-23.4
 21
-2.242902431
 31
0.0
  0
LINE
  5
13D
330
1F
100
AcDbEntity
  8
SK3
  6
SLD-Solid
370
    18
100
AcDbLine
 10
-23.4
 20
-2.242902431
 30
0.0
 11
-23.4
 21
-3.0661120767
 31
0.0
  0
LINE
  5
13E
330
1F
100
AcDbEntity
  8
SK3
  6
SLD-Solid
370
    18
100
AcDbLine
 10
-23.4
 20
-3.0661120767
 30
0.0
 11
-23.4
 21
-3.817454654
 31
0.0
  0
LINE
  5
13F
330
1F
100
AcDbEntity
  8
SK3
  6
SLD-Solid
370
    18
100
AcDbLine
 10
-23.4
 20
-3.817454654
 30
0.0
 11
-23.4
 21
-4.4793193297
 31
0.0
  0
LINE
  5
140
330
1F
100
AcDbEntity
  8
SK3
  6
SLD-Solid
370
    18
100
AcDbLine
 10
-23.4
 20
-4.4793193297
 30
0.0
 11
-23.4
 21
-5.0361925568
 31
0.0
  0
LINE
  5
141
330
1F
100
AcDbEntity
  8
SK3
  6
SLD-Solid
370
    18
100
AcDbLine
 10
-23.4
 20
-5.0361925568
 30
0.0
 11
-23.4
 21
-5.4750216989
 31
0.0
  0
LINE
  5
142
330
1F
100
AcDbEntity
  8
SK3
  6
SLD-Solid
370
    18
100
AcDbLine
 10
-23.4
 20
-5.4750216989
 30
0.0
 11
-23.4
 21
-5.7855209727
 31
0.0
  0
LINE
  5
143
330
1F
100
AcDbEntity
  8
SK3
  6
SLD-Solid
370
    18
100
AcDbLine
 10
-23.4
 20
-5.7855209727
 30
0.0
 11
-23.4
 21
-5.9604125386
 31
0.0
  0
LINE
  5
144
330
1F
100
AcDbEntity
  8
SK3
  6
SLD-Solid
370
    18
100
AcDbLine
 10
-23.4
 20
-5.9604125386
 30
0.0
 11
-23.4
 21
-6.0
 31
0.0
  0
LINE
  5
145
330
1F
100
AcDbEntity
  8
SK3
  6
SLD-Solid
370
    18
100
AcDbLine
 10
-23.400012725
 20
5.9604125386
 30
0.0
 11
-23.4
 21
5.7855209727
 31
0.0
  0
LINE
  5
146
330
1F
100
AcDbEntity
  8
SK3
  6
SLD-Solid
370
    18
100
AcDbLine
 10
-23.4
 20
5.7855209727
 30
0.0
 11
-23.4
 21
5.4750216989
 31
0.0
  0
LINE
  5
147
330
1F
100
AcDbEntity
  8
SK3
  6
SLD-Solid
370
    18
100
AcDbLine
 10
-23.4
 20
5.4750216989
 30
0.0
 11
-23.4
 21
5.0361925568
 31
0.0
  0
LINE
  5
148
330
1F
100
AcDbEntity
  8
SK3
  6
SLD-Solid
370
    18
100
AcDbLine
 10
-23.4
 20
5.0361925568
 30
0.0
 11
-23.4
 21
4.4793193297
 31
0.0
  0
LINE
  5
149
330
1F
100
AcDbEntity
  8
SK3
  6
SLD-Solid
370
    18
100
AcDbLine
 10
-23.4
 20
4.4793193297
 30
0.0
 11
-23.4
 21
3.817454654
 31
0.0
  0
LINE
  5
14A
330
1F
100
AcDbEntity
  8
SK3
  6
SLD-Solid
370
    18
100
AcDbLine
 10
-23.4
 20
3.817454654
 30
0.0
 11
-23.4
 21
3.0661120767
 31
0.0
  0
LINE
  5
14B
330
1F
100
AcDbEntity
  8
SK3
  6
SLD-Solid
370
    18
100
AcDbLine
 10
-23.4
 20
3.0661120767
 30
0.0
 11
-23.4
 21
2.242902431
 31
0.0
  0
LINE
  5
14C
330
1F
100
AcDbEntity
  8
SK3
  6
SLD-Solid
370
    18
100
AcDbLine
 10
-23.4
 20
2.242902431
 30
0.0
 11
-23.4
 21
1.3671210534
 31
0.0
  0
LINE
  5
14D
330
1F
100
AcDbEntity
  8
SK3
  6
SLD-Solid
370
    18
100
AcDbLine
 10
-23.4
 20
1.3671210534
 30
0.0
 11
-23.4
 21
0.459295517
 31
0.0
  0
LINE
  5
14E
330
1F
100
AcDbEntity
  8
SK3
  6
SLD-Solid
370
    18
100
AcDbLine
 10
-23.4
 20
0.459295517
 30
0.0
 11
-23.4
 21
-0.459295517
 31
0.0
  0
LINE
  5
14F
330
1F
100
AcDbEntity
  8
SK3
  6
SLD-Solid
370
    18
100
AcDbLine
 10
-23.4
 20
-0.459295517
 30
0.0
 11
-23.4
 21
-1.3671210534
 31
0.0
  0
LINE
  5
150
330
1F
100
AcDbEntity
  8
SK3
  6
SLD-Solid
370
    18
100
AcDbLine
 10
-23.4
 20
-1.3671210534
 30
0.0
 11
-23.4
 21
-2.242902431
 31
0.0
  0
LINE
  5
151
330
1F
100
AcDbEntity
  8
SK3
  6
SLD-Solid
370
    18
100
AcDbLine
 10
-23.4
 20
-2.242902431
 30
0.0
 11
-23.4
 21
-3.0661120767
 31
0.0
  0
LINE
  5
152
330
1F
100
AcDbEntity
  8
SK3
  6
SLD-Solid
370
    18
100
AcDbLine
 10
-23.4
 20
-3.0661120767
 30
0.0
 11
-23.4
 21
-3.817454654
 31
0.0
  0
LINE
  5
153
330
1F
100
AcDbEntity
  8
SK3
  6
SLD-Solid
370
    18
100
AcDbLine
 10
-23.4
 20
-3.817454654
 30
0.0
 11
-23.4
 21
-4.4793193297
 31
0.0
  0
LINE
  5
154
330
1F
100
AcDbEntity
  8
SK3
  6
SLD-Solid
370
    18
100
AcDbLine
 10
-23.4
 20
-4.4793193297
 30
0.0
 11
-23.4
 21
-5.0361925568
 31
0.0
  0
LINE
  5
155
330
1F
100
AcDbEntity
  8
SK3
  6
SLD-Solid
370
    18
100
AcDbLine
 10
-23.4
 20
-5.0361925568
 30
0.0
 11
-23.4
 21
-5.4750216989
 31
0.0
  0
LINE
  5
156
330
1F
100
AcDbEntity
  8
SK3
  6
SLD-Solid
370
    18
100
AcDbLine
 10
-23.4
 20
-5.4750216989
 30
0.0
 11
-23.4
 21
-5.7855209727
 31
0.0
  0
LINE
  5
157
330
1F
100
AcDbEntity
  8
SK3
  6
SLD-Solid
370
    18
100
AcDbLine
 10
-23.4
 20
-5.7855209727
 30
0.0
 11
-23.4
 21
-5.9604125386
 31
0.0
  0
LINE
  5
158
330
1F
100
AcDbEntity
  8
SK3
  6
SLD-Solid
370
    18
100
AcDbLine
 10
-23.4
 20
-5.9604125386
 30
0.0
 11
-23.4
 21
-6.0
 31
0.0
  0
LINE
  5
159
330
1F
100
AcDbEntity
  8
SK3
  6
SLD-Solid
370
    18
100
AcDbLine
 10
31.2276030088
 20
-5.0
 30
0.0
 11
53.7990381057
 21
-5.0
 31
0.0
  0
LINE
  5
15A
330
1F
100
AcDbEntity
  8
SK3
  6
SLD-Solid
370
    18
100
AcDbLine
 10
27.0
 20
-5.0
 30
0.0
 11
27.95
 21
-5.0
 31
0.0
  0
LINE
  5
15B
330
1F
100
AcDbEntity
  8
SK3
  6
SLD-Solid
370
    18
100
AcDbLine
 10
27.9723969912
 20
5.0
 30
0.0
 11
27.0
 21
5.0
 31
0.0
  0
LINE
  5
15C
330
1F
100
AcDbEntity
  8
SK3
  6
SLD-Solid
370
    18
100
AcDbLine
 10
53.7990381057
 20
5.0
 30
0.0
 11
31.25
 21
5.0
 31
0.0
  0
LINE
  5
15D
330
1F
100
AcDbEntity
  8
SK3
  6
SLD-Solid
370
    18
100
AcDbLine
 10
27.0
 20
-3.6899227912
 30
0.0
 11
27.0
 21
-4.2365816031
 31
0.0
  0
LINE
  5
15E
330
1F
100
AcDbEntity
  8
SK3
  6
SLD-Solid
370
    18
100
AcDbLine
 10
27.0
 20
-5.0
 30
0.0
 11
27.0
 21
-4.9511000806
 31
0.0
  0
LINE
  5
15F
330
1F
100
AcDbEntity
  8
SK3
  6
SLD-Solid
370
    18
100
AcDbLine
 10
27.0
 20
4.2365816031
 30
0.0
 11
27.0
 21
3.6899227912
 31
0.0
  0
LINE
  5
160
330
1F
100
AcDbEntity
  8
SK3
  6
SLD-Solid
370
    18
100
AcDbLine
 10
26.9999463624
 20
-2.655442773
 30
0.0
 11
27.0
 21
-2.0384076577
 31
0.0
  0
LINE
  5
161
330
1F
100
AcDbEntity
  8
SK3
  6
SLD-Solid
370
    18
100
AcDbLine
 10
27.0
 20
-2.0384076577
 30
0.0
 11
27.0
 21
-1.3815013544
 31
0.0
  0
LINE
  5
162
330
1F
100
AcDbEntity
  8
SK3
  6
SLD-Solid
370
    18
100
AcDbLine
 10
27.0
 20
-1.3815013544
 30
0.0
 11
27.0
 21
-0.6975729292
 31
0.0
  0
LINE
  5
163
330
1F
100
AcDbEntity
  8
SK3
  6
SLD-Solid
370
    18
100
AcDbLine
 10
27.0
 20
-0.6975729292
 30
0.0
 11
27.0
 21
0.0
 31
0.0
  0
LINE
  5
164
330
1F
100
AcDbEntity
  8
SK3
  6
SLD-Solid
370
    18
100
AcDbLine
 10
27.0
 20
0.0
 30
0.0
 11
27.0
 21
0.6975729292
 31
0.0
  0
LINE
  5
165
330
1F
100
AcDbEntity
  8
SK3
  6
SLD-Solid
370
    18
100
AcDbLine
 10
27.0
 20
0.6975729292
 30
0.0
 11
27.0
 21
1.3815013544
 31
0.0
  0
LINE
  5
166
330
1F
100
AcDbEntity
  8
SK3
  6
SLD-Solid
370
    18
100
AcDbLine
 10
27.0
 20
1.3815013544
 30
0.0
 11
27.0
 21
2.0384076577
 31
0.0
  0
LINE
  5
167
330
1F
100
AcDbEntity
  8
SK3
  6
SLD-Solid
370
    18
100
AcDbLine
 10
27.0
 20
2.0384076577
 30
0.0
 11
27.0
 21
2.655442773
 31
0.0
  0
LINE
  5
168
330
1F
100
AcDbEntity
  8
SK3
  6
SLD-Solid
370
    18
100
AcDbLine
 10
26.9999463624
 20
-2.655442773
 30
0.0
 11
27.0
 21
-2.0384076577
 31
0.0
  0
LINE
  5
169
330
1F
100
AcDbEntity
  8
SK3
  6
SLD-Solid
370
    18
100
AcDbLine
 10
27.0
 20
-2.0384076577
 30
0.0
 11
27.0
 21
-1.3815013544
 31
0.0
  0
LINE
  5
16A
330
1F
100
AcDbEntity
  8
SK3
  6
SLD-Solid
370
    18
100
AcDbLine
 10
27.0
 20
-1.3815013544
 30
0.0
 11
27.0
 21
-0.6975729292
 31
0.0
  0
LINE
  5
16B
330
1F
100
AcDbEntity
  8
SK3
  6
SLD-Solid
370
    18
100
AcDbLine
 10
27.0
 20
-0.6975729292
 30
0.0
 11
27.0
 21
0.0
 31
0.0
  0
LINE
  5
16C
330
1F
100
AcDbEntity
  8
SK3
  6
SLD-Solid
370
    18
100
AcDbLine
 10
27.0
 20
0.0
 30
0.0
 11
27.0
 21
0.6975729292
 31
0.0
  0
LINE
  5
16D
330
1F
100
AcDbEntity
  8
SK3
  6
SLD-Solid
370
    18
100
AcDbLine
 10
27.0
 20
0.6975729292
 30
0.0
 11
27.0
 21
1.3815013544
 31
0.0
  0
LINE
  5
16E
330
1F
100
AcDbEntity
  8
SK3
  6
SLD-Solid
370
    18
100
AcDbLine
 10
27.0
 20
1.3815013544
 30
0.0
 11
27.0
 21
2.0384076577
 31
0.0
  0
LINE
  5
16F
330
1F
100
AcDbEntity
  8
SK3
  6
SLD-Solid
370
    18
100
AcDbLine
 10
27.0
 20
2.0384076577
 30
0.0
 11
27.0
 21
2.655442773
 31
0.0
  0
LINE
  5
170
330
1F
100
AcDbEntity
  8
SK3
  6
SLD-Solid
370
    18
100
AcDbLine
 10
26.9999463624
 20
-4.9511000806
 30
0.0
 11
27.0
 21
-4.8053568034
 31
0.0
  0
LINE
  5
171
330
1F
100
AcDbEntity
  8
SK3
  6
SLD-Solid
370
    18
100
AcDbLine
 10
27.0
 20
-4.8053568034
 30
0.0
 11
27.0
 21
-4.565620902
 31
0.0
  0
LINE
  5
172
330
1F
100
AcDbEntity
  8
SK3
  6
SLD-Solid
370
    18
100
AcDbLine
 10
27.0
 20
-4.565620902
 30
0.0
 11
27.0
 21
-4.2365816031
 31
0.0
  0
LINE
  5
173
330
1F
100
AcDbEntity
  8
4
  6
SLD-Center
370
    18
100
AcDbLine
 10
0.4852046254
 20
0.0
 30
0.0
 11
56.0
 21
0.0
 31
0.0
  0
LINE
  5
174
330
1F
100
AcDbEntity
  8
SK4
  6
SLD-Center
370
    18
100
AcDbLine
 10
55.2355170552
 20
0.0
 30
0.0
 11
-49.2
 21
0.0
 31
0.0
  0
ARC
  5
175
330
1F
100
AcDbEntity
  8
1
  6
SLD-Solid
370
    25
100
AcDbCircle
 10
21.35
 20
-22.24
 30
0.0
 40
0.75
100
AcDbArc
 50
270.0
 51
0.0
  0
ARC
  5
176
330
1F
100
AcDbEntity
  8
1
  6
SLD-Solid
370
    25
100
AcDbCircle
 10
21.35
 20
22.24
 30
0.0
 40
0.75
100
AcDbArc
 50
0.0
 51
90.0
  0
ARC
  5
177
330
1F
100
AcDbEntity
  8
1
  6
SLD-Solid
370
    25
100
AcDbCircle
 10
23.1
 20
-22.0
 30
0.0
 40
1.000000000000004
100
AcDbArc
 50
90.0
 51
180.0
  0
ARC
  5
178
330
1F
100
AcDbEntity
  8
1
  6
SLD-Solid
370
    25
100
AcDbCircle
 10
23.1
 20
22.0
 30
0.0
 40
1.000000000000004
100
AcDbArc
 50
180.0
 51
270.0
  0
ARC
  5
179
330
1F
100
AcDbEntity
  8
1
  6
SLD-Solid
370
    25
100
AcDbCircle
 10
1.2
 20
-16.291394677
 30
0.0
 40
0.7999999999999986
100
AcDbArc
 50
10.1826318988
 51
115.0
  0
ARC
  5
17A
330
1F
100
AcDbEntity
  8
1
  6
SLD-Solid
370
    25
100
AcDbCircle
 10
1.2
 20
16.291394677
 30
0.0
 40
0.7999999999999972
100
AcDbArc
 50
245.0
 51
349.8284775697
  0
ARC
  5
17B
330
1F
100
AcDbEntity
  8
SK1
  6
SLD-Solid
370
    25
100
AcDbCircle
 10
35.42
 20
-11.5475
 30
0.0
 40
0.8000000000000047
100
AcDbArc
 50
72.5
 51
121.6682432535
  0
ARC
  5
17C
330
1F
100
AcDbEntity
  8
SK1
  6
SLD-Solid
370
    25
100
AcDbCircle
 10
35.42
 20
11.5475
 30
0.0
 40
0.8000000000000035
100
AcDbArc
 50
238.3317567465
 51
287.5
  0
ARC
  5
17D
330
1F
100
AcDbEntity
  8
SK1
  6
SLD-Solid
370
    25
100
AcDbCircle
 10
-48.025
 20
8.4918452077
 30
0.0
 40
0.375
100
AcDbArc
 50
98.2977777778
 51
180.0
  0
ARC
  5
17E
330
1F
100
AcDbEntity
  8
SK1
  6
SLD-Solid
370
    25
100
AcDbCircle
 10
-48.025
 20
-8.4918452077
 30
0.0
 40
0.375
100
AcDbArc
 50
180.0
 51
261.7022222222
  0
ARC
  5
17F
330
1F
100
AcDbEntity
  8
SK3
  6
SLD-Dashed
370
    18
100
AcDbCircle
 10
19.125
 20
-16.5250000001
 30
0.0
 40
0.3749999999999858
100
AcDbArc
 50
0.0
 51
90.0
  0
ARC
  5
180
330
1F
100
AcDbEntity
  8
SK3
  6
SLD-Dashed
370
    18
100
AcDbCircle
 10
19.125
 20
16.525
 30
0.0
 40
0.3750000000000071
100
AcDbArc
 50
270.0
 51
0.0
  0
ARC
  5
181
330
1F
100
AcDbEntity
  8
SK3
  6
SLD-Dashed
370
    18
100
AcDbCircle
 10
6.3
 20
-11.75
 30
0.0
 40
0.2999999999999945
100
AcDbArc
 50
90.0
 51
180.0
  0
ARC
  5
182
330
1F
100
AcDbEntity
  8
SK3
  6
SLD-Dashed
370
    18
100
AcDbCircle
 10
15.7
 20
-11.75
 30
0.0
 40
0.3000000000000078
100
AcDbArc
 50
0.0
 51
90.0
  0
SPLINE
  5
183
330
1F
100
AcDbEntity
  8
1
  6
SLD-Solid
370
    25
100
AcDbSpline
210
0.0
220
0.0
230
1.0
 70
     8
 71
     3
 72
    10
 73
     6
 74
     0
 42
0.000000001
 43
0.00000001
 40
0.0
 40
0.0
 40
0.0
 40
0.0
 40
0.5
 40
0.5
 40
1.0
 40
1.0
 40
1.0
 40
1.0
 10
15.6
 20
-18.20619124728898
 30
0.0
 10
15.90371676884136
 20
-18.83908846428043
 30
0.0
 10
16.20431228748106
 20
-19.46290423235502
 30
0.0
 10
16.79677392958329
 20
-20.68882545936864
 30
0.0
 10
17.08869106513468
 20
-21.29102691730533
 30
0.0
 10
17.37428230507107
 20
-21.8788932611517
 30
0.0
  0
SPLINE
  5
184
330
1F
100
AcDbEntity
  8
1
  6
SLD-Solid
370
    25
100
AcDbSpline
210
0.0
220
0.0
230
1.0
 70
     8
 71
     3
 72
    10
 73
     6
 74
     0
 42
0.000000001
 43
0.00000001
 40
0.0
 40
0.0
 40
0.0
 40
0.0
 40
0.5
 40
0.5
 40
1.0
 40
1.0
 40
1.0
 40
1.0
 10
15.6
 20
18.20619124728897
 30
0.0
 10
15.90371708393186
 20
18.8390891241074
 30
0.0
 10
16.20431277300971
 20
19.46290524542579
 30
0.0
 10
16.79677442407697
 20
20.68882649307461
 30
0.0
 10
17.08869139852444
 20
21.29102761902301
 30
0.0
 10
17.37428227908525
 20
21.87889322612935
 30
0.0
  0
SPLINE
  5
185
330
1F
100
AcDbEntity
  8
1
  6
SLD-Solid
370
    25
100
AcDbSpline
210
0.0
220
0.0
230
1.0
 70
     8
 71
     3
 72
    16
 73
    12
 74
     0
 42
0.000000001
 43
0.00000001
 40
0.0
 40
0.0
 40
0.0
 40
0.0
 40
0.0680357699036085
 40
0.1216271915820827
 40
0.2437825385130227
 40
0.3664174069514821
 40
0.490731140877868
 40
0.6196738304046167
 40
0.7429210525082813
 40
0.872347967660542
 40
1.0
 40
1.0
 40
1.0
 40
1.0
 10
1.999999999999995
 20
-20.56190591846972
 30
0.0
 10
2.000796789497113
 20
-20.58840543175367
 30
0.0
 10
2.002221205932096
 20
-20.6357784736636
 30
0.0
 10
2.016562271733684
 20
-20.72978897901817
 30
0.0
 10
2.049010913405237
 20
-20.842228743591
 30
0.0
 10
2.115216794569684
 20
-20.97140279656769
 30
0.0
 10
2.206796006851599
 20
-21.08800070372171
 30
0.0
 10
2.320292410439864
 20
-21.18491683748361
 30
0.0
 10
2.452780038505742
 20
-21.25807956078388
 30
0.0
 10
2.597289938916579
 20
-21.30559252572297
 30
0.0
 10
2.699331479194801
 20
-21.31161982290909
 30
0.0
 10
2.749999999999988
 20
-21.31461266515786
 30
0.0
  0
SPLINE
  5
186
330
1F
100
AcDbEntity
  8
1
  6
SLD-Solid
370
    25
100
AcDbSpline
210
0.0
220
0.0
230
1.0
 70
     8
 71
     3
 72
    18
 73
    14
 74
     0
 42
0.000000001
 43
0.00000001
 40
0.0
 40
0.0
 40
0.0
 40
0.0
 40
0.0635512406290597
 40
0.1275226616225057
 40
0.1919409792949979
 40
0.2568321422748411
 40
0.3800418498940156
 40
0.5089684150962843
 40
0.633296540561113
 40
0.7558708517006323
 40
0.8782286158027482
 40
0.9318514945449757
 40
1.0
 40
1.0
 40
1.0
 40
1.0
 10
2.750000000000009
 20
21.31461266515787
 30
0.0
 10
2.72479883471044
 20
21.31387419569808
 30
0.0
 10
2.67422988213134
 20
21.31239237425595
 30
0.0
 10
2.598924813543999
 20
21.30040578467764
 30
0.0
 10
2.524717706949855
 20
21.28123664388938
 30
0.0
 10
2.43098109079299
 20
21.24625065059664
 30
0.0
 10
2.320753334509304
 20
21.18515247684875
 30
0.0
 10
2.207178689066148
 20
21.08842439208185
 30
0.0
 10
2.115494057380596
 20
20.97183348780234
 30
0.0
 10
2.049153466090595
 20
20.84261177433905
 30
0.0
 10
2.016619789504515
 20
20.73007755143328
 30
0.0
 10
2.002229319044188
 20
20.63590436879926
 30
0.0
 10
2.000799941287462
 20
20.58845860763345
 30
0.0
 10
2.000000000000009
 20
20.56190591846973
 30
0.0
  0
SPLINE
  5
187
330
1F
100
AcDbEntity
  8
1
  6
SLD-Solid
370
    25
100
AcDbSpline
210
0.0
220
0.0
230
1.0
 70
     8
 71
     3
 72
     8
 73
     4
 74
     0
 42
0.000000001
 43
0.00000001
 40
0.0000433325284341
 40
0.0000433325284341
 40
0.0000433325284341
 40
0.0000433325284341
 40
0.0004719455603877
 40
0.0004719455603877
 40
0.0004719455603877
 40
0.0004719455603877
 10
11.4
 20
18.0953286017731
 30
0.0
 10
11.46660587253708
 20
17.96893325601978
 30
0.0
 10
11.53327333917299
 20
17.84256764359955
 30
0.0
 10
11.60000000000001
 20
17.71624677331126
 30
0.0
  0
SPLINE
  5
188
330
1F
100
AcDbEntity
  8
1
  6
SLD-Solid
370
    25
100
AcDbSpline
210
0.0
220
0.0
230
1.0
 70
     8
 71
     3
 72
     8
 73
     4
 74
     0
 42
0.000000001
 43
0.00000001
 40
0.0000433325284341
 40
0.0000433325284341
 40
0.0000433325284341
 40
0.0000433325284341
 40
0.0004719455603877
 40
0.0004719455603877
 40
0.0004719455603877
 40
0.0004719455603877
 10
11.4
 20
-18.09532860177311
 30
0.0
 10
11.46660587253707
 20
-17.96893325601978
 30
0.0
 10
11.533273339173
 20
-17.84256764359956
 30
0.0
 10
11.60000000000001
 20
-17.71624677331126
 30
0.0
  0
SPLINE
  5
189
330
1F
100
AcDbEntity
  8
1
  6
SLD-Solid
370
    25
100
AcDbSpline
210
0.0
220
0.0
230
1.0
 70
     8
 71
     3
 72
     8
 73
     4
 74
     0
 42
0.000000001
 43
0.00000001
 40
0.0
 40
0.0
 40
0.0
 40
0.0
 40
1.0
 40
1.0
 40
1.0
 40
1.0
 10
9.869071747010162
 20
-20.96694064473884
 30
0.0
 10
10.38341093814351
 20
-20.01191163479491
 30
0.0
 10
10.89434185816635
 20
-19.05489617795751
 30
0.0
 10
11.4
 20
-18.09532860177312
 30
0.0
  0
SPLINE
  5
18A
330
1F
100
AcDbEntity
  8
1
  6
SLD-Solid
370
    25
100
AcDbSpline
210
0.0
220
0.0
230
1.0
 70
     8
 71
     3
 72
     8
 73
     4
 74
     0
 42
0.000000001
 43
0.00000001
 40
0.0
 40
0.0
 40
0.0
 40
0.0
 40
0.0006887074915323
 40
0.0006887074915323
 40
0.0006887074915323
 40
0.0006887074915323
 10
9.572981872402332
 20
-21.31461266515788
 30
0.0
 10
9.672099735100428
 20
-21.19883443678684
 30
0.0
 10
9.770807239792587
 20
-21.08294605744472
 30
0.0
 10
9.869071747010162
 20
-20.96694064473884
 30
0.0
  0
SPLINE
  5
18B
330
1F
100
AcDbEntity
  8
1
  6
SLD-Solid
370
    25
100
AcDbSpline
210
0.0
220
0.0
230
1.0
 70
     8
 71
     3
 72
     8
 73
     4
 74
     0
 42
0.000000001
 43
0.00000001
 40
0.0
 40
0.0
 40
0.0
 40
0.0
 40
0.0006887074915324
 40
0.0006887074915324
 40
0.0006887074915324
 40
0.0006887074915324
 10
9.869071747010162
 20
20.96694064473882
 30
0.0
 10
9.770807239792601
 20
21.08294605744472
 30
0.0
 10
9.672099735100428
 20
21.19883443678684
 30
0.0
 10
9.572981872402332
 20
21.31461266515787
 30
0.0
  0
SPLINE
  5
18C
330
1F
100
AcDbEntity
  8
1
  6
SLD-Solid
370
    25
100
AcDbSpline
210
0.0
220
0.0
230
1.0
 70
     8
 71
     3
 72
     8
 73
     4
 74
     0
 42
0.000000001
 43
0.00000001
 40
0.0
 40
0.0
 40
0.0
 40
0.0
 40
1.0
 40
1.0
 40
1.0
 40
1.0
 10
9.869071747010162
 20
20.96694064473883
 30
0.0
 10
10.38346933994867
 20
20.01180319386893
 30
0.0
 10
10.89434699821048
 20
19.05488642389783
 30
0.0
 10
11.4
 20
18.0953286017731
 30
0.0
  0
SPLINE
  5
18D
330
1F
100
AcDbEntity
  8
1
  6
SLD-Solid
370
    25
100
AcDbSpline
210
0.0
220
0.0
230
1.0
 70
     8
 71
     3
 72
    10
 73
     6
 74
     0
 42
0.000000001
 43
0.00000001
 40
0.0
 40
0.0
 40
0.0
 40
0.0
 40
0.5
 40
0.5
 40
1.0
 40
1.0
 40
1.0
 40
1.0
 10
34.50000000000003
 20
-20.39607805437114
 30
0.0
 10
34.63288723726358
 20
-20.39607805437115
 30
0.0
 10
34.76456816658472
 20
-20.33831065151105
 30
0.0
 10
34.94775507466014
 20
-20.14680294351198
 30
0.0
 10
35.00000000000003
 20
-20.01473195636259
 30
0.0
 10
35.00000000000004
 20
-19.88089535207105
 30
0.0
  0
SPLINE
  5
18E
330
1F
100
AcDbEntity
  8
1
  6
SLD-Solid
370
    25
100
AcDbSpline
210
0.0
220
0.0
230
1.0
 70
     8
 71
     3
 72
     8
 73
     4
 74
     0
 42
0.000000001
 43
0.00000001
 40
0.0
 40
0.0
 40
0.0
 40
0.0
 40
1.0
 40
1.0
 40
1.0
 40
1.0
 10
34.50000000000147
 20
17.46037555224547
 30
0.0
 10
34.52738419867671
 20
17.29097313521979
 30
0.0
 10
34.52738419867625
 20
17.11613270066056
 30
0.0
 10
34.50000000000003
 20
16.93585424856757
 30
0.0
  0
SPLINE
  5
18F
330
1F
100
AcDbEntity
  8
1
  6
SLD-Solid
370
    25
100
AcDbSpline
210
0.0
220
0.0
230
1.0
 70
     8
 71
     3
 72
    10
 73
     6
 74
     0
 42
0.000000001
 43
0.00000001
 40
0.0
 40
0.0
 40
0.0
 40
0.0
 40
0.5
 40
0.5
 40
1.0
 40
1.0
 40
1.0
 40
1.0
 10
34.49999999999968
 20
20.39607805437116
 30
0.0
 10
34.63250933599528
 20
20.39607805437126
 30
0.0
 10
34.76464898526768
 20
20.33844104278861
 30
0.0
 10
34.94845894091701
 20
20.14585130620927
 30
0.0
 10
35.00000000000003
 20
20.01308542125478
 30
0.0
 10
35.00000000000003
 20
19.88089535207104
 30
0.0
  0
SPLINE
  5
190
330
1F
100
AcDbEntity
  8
1
  6
SLD-Solid
370
    25
100
AcDbSpline
210
0.0
220
0.0
230
1.0
 70
     8
 71
     3
 72
    75
 73
    71
 74
     0
 42
0.000000001
 43
0.00000001
 40
0.0
 40
0.0
 40
0.0
 40
0.0
 40
0.0312499999999999
 40
0.0312499999999999
 40
0.0624999999999998
 40
0.0624999999999998
 40
0.0937499999999996
 40
0.0937499999999996
 40
0.1093749999999995
 40
0.1093749999999995
 40
0.1249999999999994
 40
0.1249999999999994
 40
0.1562499999999991
 40
0.1562499999999991
 40
0.1874999999999989
 40
0.1874999999999989
 40
0.2187499999999987
 40
0.2187499999999987
 40
0.2499999999999984
 40
0.2499999999999984
 40
0.2812499999999982
 40
0.2812499999999982
 40
0.312499999999998
 40
0.312499999999998
 40
0.3437499999999978
 40
0.3437499999999978
 40
0.3749999999999977
 40
0.3749999999999977
 40
0.4062499999999974
 40
0.4062499999999974
 40
0.4374999999999973
 40
0.4374999999999973
 40
0.4531249999999973
 40
0.4531249999999973
 40
0.4687499999999973
 40
0.4843749999999973
 40
0.4843749999999973
 40
0.4999999999999973
 40
0.4999999999999973
 40
0.5312499999999973
 40
0.5312499999999973
 40
0.5624999999999973
 40
0.5624999999999973
 40
0.5937499999999976
 40
0.5937499999999976
 40
0.6249999999999978
 40
0.6249999999999978
 40
0.656249999999998
 40
0.656249999999998
 40
0.6874999999999982
 40
0.6874999999999982
 40
0.7187499999999984
 40
0.7187499999999984
 40
0.7499999999999986
 40
0.7499999999999986
 40
0.7812499999999988
 40
0.7812499999999988
 40
0.812499999999999
 40
0.812499999999999
 40
0.8437499999999992
 40
0.8437499999999992
 40
0.8749999999999994
 40
0.8749999999999994
 40
0.9062499999999997
 40
0.9062499999999997
 40
0.9374999999999999
 40
0.9374999999999999
 40
0.96875
 40
0.96875
 40
1.0
 40
1.0
 40
1.0
 40
1.0
 10
34.50000000000147
 20
17.46037555224547
 30
0.0
 10
34.46835796681076
 20
17.65611751883279
 30
0.0
 10
34.40114676794963
 20
17.83909901673471
 30
0.0
 10
34.19925524993758
 20
18.18237953861621
 30
0.0
 10
34.06233923429118
 20
18.34426619498325
 30
0.0
 10
33.72958328615627
 20
18.63658027609315
 30
0.0
 10
33.53447548860702
 20
18.76766682830181
 30
0.0
 10
33.19955018905824
 20
18.94507101699925
 30
0.0
 10
33.08015483238378
 20
19.00122468610246
 30
0.0
 10
32.83134607565716
 20
19.10560131949438
 30
0.0
 10
32.70175114700336
 20
19.15399545108741
 30
0.0
 10
32.29788258080838
 20
19.28895765804102
 30
0.0
 10
32.00842473207307
 20
19.36544597105285
 30
0.0
 10
31.38975917209986
 20
19.49475893311253
 30
0.0
 10
31.06936618042445
 20
19.54579922580933
 30
0.0
 10
30.40758015100013
 20
19.62518195342944
 30
0.0
 10
30.063015856981
 20
19.65362959042245
 30
0.0
 10
29.36765959863255
 20
19.68793800063726
 30
0.0
 10
29.01952723399211
 20
19.69391235183554
 30
0.0
 10
28.32237309106161
 20
19.68440626204286
 30
0.0
 10
27.9698706493105
 20
19.66856617208533
 30
0.0
 10
27.28670846454785
 20
19.61461333279711
 30
0.0
 10
26.95508811268324
 20
19.57674744429888
 30
0.0
 10
26.31185119131072
 20
19.47661372544697
 30
0.0
 10
25.99796174183411
 20
19.41353070277631
 30
0.0
 10
25.41563956244782
 20
19.26326379204269
 30
0.0
 10
25.14437227293778
 20
19.17588802716726
 30
0.0
 10
24.6427401376271
 20
18.97168904756064
 30
0.0
 10
24.41252453805805
 20
18.85414531588162
 30
0.0
 10
24.01561069124426
 20
18.59480624312169
 30
0.0
 10
23.84574610409545
 20
18.45197445938084
 30
0.0
 10
23.63602776803346
 20
18.21418998761169
 30
0.0
 10
23.57385113717808
 20
18.13095570249298
 30
0.0
 10
23.46787906765332
 20
17.96023674079157
 30
0.0
 10
23.37935166803953
 20
17.78429936891689
 30
0.0
 10
23.32536040539892
 20
17.59753171571618
 30
0.0
 10
23.28898814803502
 20
17.40508072859336
 30
0.0
 10
23.27963743860438
 20
17.30537976890115
 30
0.0
 10
23.27923497737117
 20
17.0025179895516
 30
0.0
 10
23.31499458930283
 20
16.79631530123001
 30
0.0
 10
23.45666953354385
 20
16.37632603149258
 30
0.0
 10
23.56430147787149
 20
16.16096744298552
 30
0.0
 10
23.84113455719206
 20
15.74351105220391
 30
0.0
 10
24.01060447291076
 20
15.53924403677635
 30
0.0
 10
24.41210257492713
 20
15.14280552734005
 30
0.0
 10
24.63942356468241
 20
14.95558189435368
 30
0.0
 10
25.13936333382143
 20
14.60935403859075
 30
0.0
 10
25.41575602176282
 20
14.44826704783349
 30
0.0
 10
26.0011466519217
 20
14.16483748378839
 30
0.0
 10
26.30873045659125
 20
14.04254906213442
 30
0.0
 10
26.9529124006589
 20
13.83844343745631
 30
0.0
 10
27.29192955003905
 20
13.75661024875002
 30
0.0
 10
27.97400810812356
 20
13.64166663910722
 30
0.0
 10
28.31971958161839
 20
13.60740218543124
 30
0.0
 10
29.02055066300301
 20
13.58638653518398
 30
0.0
 10
29.37494026108685
 20
13.6002610905436
 30
0.0
 10
30.06529701759403
 20
13.67468413718313
 30
0.0
 10
30.40482815487966
 20
13.73500906344717
 30
0.0
 10
31.0722076382053
 20
13.90208589812911
 30
0.0
 10
31.39569941570934
 20
14.00817140940143
 30
0.0
 10
32.00557675225661
 20
14.25689191680435
 30
0.0
 10
32.29469410302002
 20
14.40017363197154
 30
0.0
 10
32.83934383885943
 20
14.72381884389474
 30
0.0
 10
33.08720860035768
 20
14.89976512833403
 30
0.0
 10
33.5306981234923
 20
15.27297884453047
 30
0.0
 10
33.72837293749793
 20
15.47229123300458
 30
0.0
 10
34.0629804371978
 20
15.88469159639883
 30
0.0
 10
34.19710610576888
 20
16.09360186763633
 30
0.0
 10
34.39976015008411
 20
16.51415242654813
 30
0.0
 10
34.46834168583609
 20
16.72743800309629
 30
0.0
 10
34.50000000000003
 20
16.93585424856757
 30
0.0
  0
SPLINE
  5
191
330
1F
100
AcDbEntity
  8
1
  6
SLD-Solid
370
    25
100
AcDbSpline
210
0.0
220
0.0
230
1.0
 70
     8
 71
     3
 72
    22
 73
    18
 74
     0
 42
0.000000001
 43
0.00000001
 40
0.0
 40
0.0
 40
0.0
 40
0.0
 40
0.051722200651593
 40
0.1569606720658514
 40
0.210599240979556
 40
0.2623197259632477
 40
0.3674686382934175
 40
0.4210077664150364
 40
0.4736565056021913
 40
0.5806967258199432
 40
0.6352137093767933
 40
0.688470041245813
 40
0.7421045313305822
 40
0.7969473674336843
 40
0.8522151218778785
 40
0.9044757023389443
 40
1.0
 40
1.0
 40
1.0
 40
1.0
 10
29.59999999999999
 20
-20.39607805437114
 30
0.0
 10
29.46418335964099
 20
-20.39689672055655
 30
0.0
 10
29.05202241366592
 20
-20.399381115904
 30
0.0
 10
28.50384092177387
 20
-20.42255381502392
 30
0.0
 10
27.97457817632358
 20
-20.45948222853758
 30
0.0
 10
27.4610009487229
 20
-20.50524498596107
 30
0.0
 10
26.97493651988099
 20
-20.56210201780978
 30
0.0
 10
26.5258319296007
 20
-20.62560482830146
 30
0.0
 10
26.10130152363491
 20
-20.69221858881401
 30
0.0
 10
25.72154775510467
 20
-20.76039536675148
 30
0.0
 10
25.3973050516491
 20
-20.82416643976622
 30
0.0
 10
25.18321935199273
 20
-20.8685309769741
 30
0.0
 10
24.99985712706992
 20
-20.90818798986264
 30
0.0
 10
24.84721347255252
 20
-20.94238008686515
 30
0.0
 10
24.73184653357273
 20
-20.96892326485196
 30
0.0
 10
24.62595070959418
 20
-20.99378212385183
 30
0.0
 10
24.61409317325992
 20
-20.99663359258274
 30
0.0
 10
24.60642877048265
 20
-20.99847670773283
 30
0.0
  0
SPLINE
  5
192
330
1F
100
AcDbEntity
  8
1
  6
SLD-Solid
370
    25
100
AcDbSpline
210
0.0
220
0.0
230
1.0
 70
     8
 71
     3
 72
    30
 73
    26
 74
     0
 42
0.000000001
 43
0.00000001
 40
0.5000000000000016
 40
0.5000000000000016
 40
0.5000000000000016
 40
0.5000000000000016
 40
0.5625000000000014
 40
0.5625000000000014
 40
0.6250000000000016
 40
0.6250000000000016
 40
0.6562500000000018
 40
0.6562500000000018
 40
0.6875000000000017
 40
0.6875000000000017
 40
0.7187500000000016
 40
0.7187500000000016
 40
0.7500000000000014
 40
0.7500000000000014
 40
0.7812500000000014
 40
0.7812500000000014
 40
0.8125000000000013
 40
0.8125000000000013
 40
0.8437500000000012
 40
0.8437500000000012
 40
0.8750000000000011
 40
0.8750000000000011
 40
0.9375000000000007
 40
0.9375000000000007
 40
1.0
 40
1.0
 40
1.0
 40
1.0
 10
26.00073254440002
 20
-16.19595897568112
 30
0.0
 10
25.73962361126895
 20
-16.19602013128112
 30
0.0
 10
25.47635837532786
 20
-16.1626612714869
 30
0.0
 10
24.99484837797104
 20
-16.03428130321248
 30
0.0
 10
24.7717075585763
 20
-15.93788117975952
 30
0.0
 10
24.4948714655487
 20
-15.75570546737373
 30
0.0
 10
24.41036225454034
 20
-15.68750486094404
 30
0.0
 10
24.26502589576908
 20
-15.54203702550106
 30
0.0
 10
24.2035051094157
 20
-15.4645868098307
 30
0.0
 10
24.10291865130544
 20
-15.29974740821001
 30
0.0
 10
24.06428769499207
 20
-15.2124029412512
 30
0.0
 10
24.01321290671563
 20
-15.03498793469501
 30
0.0
 10
24.00012756003871
 20
-14.94400349079864
 30
0.0
 10
23.99987427787528
 20
-14.75719258865936
 30
0.0
 10
24.01274917154504
 20
-14.6642229308651
 30
0.0
 10
24.0633629159962
 20
-14.48004720947771
 30
0.0
 10
24.10170009530693
 20
-14.38774059680753
 30
0.0
 10
24.20194019303302
 20
-14.21011119282195
 30
0.0
 10
24.26328638496057
 20
-14.12515968538353
 30
0.0
 10
24.40818239495396
 20
-13.96329357216322
 30
0.0
 10
24.49252867504168
 20
-13.88603332219081
 30
0.0
 10
24.76896229450146
 20
-13.67705334428662
 30
0.0
 10
24.99180981642425
 20
-13.56275675773356
 30
0.0
 10
25.47288081053234
 20
-13.4088772754776
 30
0.0
 10
25.73558025308682
 20
-13.36753193672132
 30
0.0
 10
26.00000000000005
 20
-13.36753193672132
 30
0.0
  0
SPLINE
  5
193
330
1F
100
AcDbEntity
  8
1
  6
SLD-Solid
370
    25
100
AcDbSpline
210
0.0
220
0.0
230
1.0
 70
     8
 71
     3
 72
    34
 73
    30
 74
     0
 42
0.000000001
 43
0.00000001
 40
0.0
 40
0.0
 40
0.0
 40
0.0
 40
0.0312500000000002
 40
0.0312500000000002
 40
0.0625000000000005
 40
0.0625000000000005
 40
0.0937500000000007
 40
0.0937500000000007
 40
0.125000000000001
 40
0.125000000000001
 40
0.1875000000000008
 40
0.1875000000000008
 40
0.2500000000000007
 40
0.2500000000000007
 40
0.2812500000000009
 40
0.2812500000000009
 40
0.3125000000000012
 40
0.3125000000000012
 40
0.3437500000000014
 40
0.3437500000000014
 40
0.3750000000000014
 40
0.3750000000000014
 40
0.4062500000000015
 40
0.4062500000000015
 40
0.4375000000000015
 40
0.4375000000000015
 40
0.4687500000000016
 40
0.4687500000000016
 40
0.5000000000000016
 40
0.5000000000000016
 40
0.5000000000000016
 40
0.5000000000000016
 10
26.00000000000005
 20
-13.36753193672132
 30
0.0
 10
26.13220987345667
 20
-13.36753193672132
 30
0.0
 10
26.26219537095642
 20
-13.37759679812025
 30
0.0
 10
26.51790418772014
 20
-13.41692342788404
 30
0.0
 10
26.6449580380283
 20
-13.44666512259345
 30
0.0
 10
26.8871242292195
 20
-13.52393791750658
 30
0.0
 10
27.00196872188346
 20
-13.57109318630385
 30
0.0
 10
27.21931653302211
 20
-13.68187160021689
 30
0.0
 10
27.32216677753983
 20
-13.7460389178771
 30
0.0
 10
27.5987296987909
 20
-13.95483833292193
 30
0.0
 10
27.74771602692491
 20
-14.12134116769938
 30
0.0
 10
27.94725513429309
 20
-14.47405311827873
 30
0.0
 10
27.99985742953034
 20
-14.66388886174292
 30
0.0
 10
28.00007083960776
 20
-14.94076291070099
 30
0.0
 10
27.98707397927476
 20
-15.03362611764967
 30
0.0
 10
27.93602739629009
 20
-15.21166943675244
 30
0.0
 10
27.89825856881731
 20
-15.29738011599732
 30
0.0
 10
27.79807460161109
 20
-15.46242422321415
 30
0.0
 10
27.7354854933361
 20
-15.54140359580538
 30
0.0
 10
27.59077535993847
 20
-15.68648641851976
 30
0.0
 10
27.50815452242199
 20
-15.75353333671789
 30
0.0
 10
27.32151662565381
 20
-15.87671078593078
 30
0.0
 10
27.22054385838592
 20
-15.93082993159742
 30
0.0
 10
27.00405518575413
 20
-16.02513587962671
 30
0.0
 10
26.88714555987649
 20
-16.06566096739905
 30
0.0
 10
26.64493421394334
 20
-16.13040423582745
 30
0.0
 10
26.52027324528296
 20
-16.15469500852836
 30
0.0
 10
26.26389224637848
 20
-16.18753875398956
 30
0.0
 10
26.13128701096555
 20
-16.19592839788112
 30
0.0
 10
26.00073254440002
 20
-16.19595897568112
 30
0.0
  0
SPLINE
  5
194
330
1F
100
AcDbEntity
  8
1
  6
SLD-Solid
370
    25
100
AcDbSpline
210
0.0
220
0.0
230
1.0
 70
     8
 71
     3
 72
    10
 73
     6
 74
     0
 42
0.000000001
 43
0.00000001
 40
0.0
 40
0.0
 40
0.0
 40
0.0
 40
0.5
 40
0.5
 40
1.0
 40
1.0
 40
1.0
 40
1.0
 10
11.59999999999998
 20
-17.46403447087755
 30
0.0
 10
11.59999999999998
 20
-17.3613194075662
 30
0.0
 10
11.63550396785902
 20
-17.25803952516973
 30
0.0
 10
11.77037083671394
 20
-17.1032569843841
 30
0.0
 10
11.87123694733057
 20
-17.05482145092322
 30
0.0
 10
11.97500000000001
 20
-17.05831908483359
 30
0.0
  0
SPLINE
  5
195
330
1F
100
AcDbEntity
  8
1
  6
SLD-Solid
370
    25
100
AcDbSpline
210
0.0
220
0.0
230
1.0
 70
     8
 71
     3
 72
    10
 73
     6
 74
     0
 42
0.000000001
 43
0.00000001
 40
0.0
 40
0.0
 40
0.0
 40
0.0
 40
0.5
 40
0.5
 40
1.0
 40
1.0
 40
1.0
 40
1.0
 10
11.59999999999998
 20
17.46403447087756
 30
0.0
 10
11.59999999999999
 20
17.36131940756621
 30
0.0
 10
11.63550396785903
 20
17.25803952516974
 30
0.0
 10
11.77037083671394
 20
17.10325698438411
 30
0.0
 10
11.87123694733056
 20
17.05482145092323
 30
0.0
 10
11.97499999999999
 20
17.05831908483359
 30
0.0
  0
SPLINE
  5
196
330
1F
100
AcDbEntity
  8
1
  6
SLD-Solid
370
    25
100
AcDbSpline
210
0.0
220
0.0
230
1.0
 70
     8
 71
     3
 72
    12
 73
     8
 74
     0
 42
0.000000001
 43
0.00000001
 40
0.0
 40
0.0
 40
0.0
 40
0.0
 40
0.5000000000000082
 40
0.5000000000000082
 40
0.7500000000000041
 40
0.7500000000000041
 40
1.0
 40
1.0
 40
1.0
 40
1.0
 10
15.225
 20
-17.47244258825881
 30
0.0
 10
15.32729887405207
 20
-17.49483746472057
 30
0.0
 10
15.41719738376063
 20
-17.55779867282207
 30
0.0
 10
15.51968846278895
 20
-17.68801867128204
 30
0.0
 10
15.54763266947684
 20
-17.73672976760799
 30
0.0
 10
15.58792031705414
 20
-17.84364628541225
 30
0.0
 10
15.6
 20
-17.90173537609953
 30
0.0
 10
15.6
 20
-17.96086022438791
 30
0.0
  0
SPLINE
  5
197
330
1F
100
AcDbEntity
  8
1
  6
SLD-Solid
370
    25
100
AcDbSpline
210
0.0
220
0.0
230
1.0
 70
     8
 71
     3
 72
    12
 73
     8
 74
     0
 42
0.000000001
 43
0.00000001
 40
0.0
 40
0.0
 40
0.0
 40
0.0
 40
0.5
 40
0.5
 40
0.75
 40
0.75
 40
1.0
 40
1.0
 40
1.0
 40
1.0
 10
15.22499999999999
 20
17.47244258825881
 30
0.0
 10
15.32729887405207
 20
17.49483746472057
 30
0.0
 10
15.41719738376061
 20
17.55779867282207
 30
0.0
 10
15.51968846278896
 20
17.68801867128204
 30
0.0
 10
15.54763266947684
 20
17.73672976760799
 30
0.0
 10
15.58792031705414
 20
17.84364628541224
 30
0.0
 10
15.6
 20
17.90173537609953
 30
0.0
 10
15.6
 20
17.96086022438792
 30
0.0
  0
SPLINE
  5
198
330
1F
100
AcDbEntity
  8
1
  6
SLD-Solid
370
    25
100
AcDbSpline
210
0.0
220
0.0
230
1.0
 70
     8
 71
     3
 72
    10
 73
     6
 74
     0
 42
0.000000001
 43
0.00000001
 40
0.0
 40
0.0
 40
0.0
 40
0.0
 40
0.5
 40
0.5
 40
1.0
 40
1.0
 40
1.0
 40
1.0
 10
11.97500000000001
 20
-17.05831908483359
 30
0.0
 10
12.55072229411917
 20
-17.07772547050807
 30
0.0
 10
13.10936407164132
 20
-17.1256473527862
 30
0.0
 10
14.19529318991716
 20
-17.26787583173369
 30
0.0
 10
14.72557374316147
 20
-17.36311011097305
 30
0.0
 10
15.225
 20
-17.47244258825881
 30
0.0
  0
SPLINE
  5
199
330
1F
100
AcDbEntity
  8
1
  6
SLD-Solid
370
    25
100
AcDbSpline
210
0.0
220
0.0
230
1.0
 70
     8
 71
     3
 72
    10
 73
     6
 74
     0
 42
0.000000001
 43
0.00000001
 40
0.0
 40
0.0
 40
0.0
 40
0.0
 40
0.4999999999999999
 40
0.4999999999999999
 40
1.0
 40
1.0
 40
1.0
 40
1.0
 10
11.97499999999999
 20
17.05831908483359
 30
0.0
 10
12.55072229411915
 20
17.07772547050808
 30
0.0
 10
13.10936407164129
 20
17.12564735278621
 30
0.0
 10
14.19529318991716
 20
17.2678758317337
 30
0.0
 10
14.72557374316145
 20
17.36311011097304
 30
0.0
 10
15.22499999999999
 20
17.47244258825881
 30
0.0
  0
SPLINE
  5
19A
330
1F
100
AcDbEntity
  8
1
  6
SLD-Dashed
370
    18
100
AcDbSpline
210
0.0
220
0.0
230
1.0
 70
     8
 71
     3
 72
    11
 73
     7
 74
     0
 42
0.000000001
 43
0.00000001
 40
0.0
 40
0.0
 40
0.0
 40
0.0
 40
0.2499573108264355
 40
0.4993433902248162
 40
0.7504973994015155
 40
1.0
 40
1.0
 40
1.0
 40
1.0
 10
17.62701812759761
 20
22.23477197484033
 30
0.0
 10
17.96178000035054
 20
22.33632733788712
 30
0.0
 10
18.63053870921078
 20
22.53920597789021
 30
0.0
 10
19.32771796101586
 20
22.78586034018293
 30
0.0
 10
19.78947050119827
 20
22.95696684589505
 30
0.0
 10
19.84631895369451
 20
22.97892472950697
 30
0.0
 10
19.87464942304391
 20
22.98986745743234
 30
0.0
  0
SPLINE
  5
19B
330
1F
100
AcDbEntity
  8
SK3
  6
SLD-Dashed
370
    18
100
AcDbSpline
210
0.0
220
0.0
230
1.0
 70
    24
 71
     2
 72
     6
 73
     3
 74
     0
 42
0.000000001
 43
0.00000001
 40
0.0
 40
0.0
 40
0.0
 40
0.5
 40
0.5
 40
0.5
 10
2.000000000000009
 20
-16.15000000000003
 30
0.0
 10
1.987440911077679
 20
-16.15000000000001
 30
0.0
 10
1.987405688565667
 20
-16.15000000000001
 30
0.0
  0
SPLINE
  5
19C
330
1F
100
AcDbEntity
  8
SK3
  6
SLD-Dashed
370
    18
100
AcDbSpline
210
0.0
220
0.0
230
1.0
 70
    24
 71
     3
 72
     8
 73
     4
 74
     0
 42
0.000000001
 43
0.00000001
 40
0.5
 40
0.5
 40
0.5
 40
0.5
 40
0.75
 40
0.75
 40
0.75
 40
0.75
 10
1.987405688565667
 20
-16.15000000000001
 30
0.0
 10
1.987388077309686
 20
-16.15000000000002
 30
0.0
 10
1.989776961366485
 20
-16.15000000000001
 30
0.0
 10
1.9929366358361
 20
-16.15000000000002
 30
0.0
  0
SPLINE
  5
19D
330
1F
100
AcDbEntity
  8
SK3
  6
SLD-Dashed
370
    18
100
AcDbSpline
210
0.0
220
0.0
230
1.0
 70
    24
 71
     2
 72
     6
 73
     3
 74
     0
 42
0.000000001
 43
0.00000001
 40
0.75
 40
0.75
 40
0.75
 40
1.0
 40
1.0
 40
1.0
 10
1.992936635836093
 20
-16.15000000000002
 30
0.0
 10
1.996096310305707
 20
-16.15000000000003
 30
0.0
 10
2.000000000000002
 20
-16.15000000000003
 30
0.0
  0
SPLINE
  5
19E
330
1F
100
AcDbEntity
  8
SK3
  6
SLD-Dashed
370
    18
100
AcDbSpline
210
0.0
220
0.0
230
1.0
 70
    24
 71
     2
 72
     6
 73
     3
 74
     0
 42
0.000000001
 43
0.00000001
 40
0.0
 40
0.0
 40
0.0
 40
0.5
 40
0.5
 40
0.5
 10
1.999999999999995
 20
16.14999999999998
 30
0.0
 10
1.987440911077679
 20
16.14999999999999
 30
0.0
 10
1.987405688565667
 20
16.15
 30
0.0
  0
SPLINE
  5
19F
330
1F
100
AcDbEntity
  8
SK3
  6
SLD-Dashed
370
    18
100
AcDbSpline
210
0.0
220
0.0
230
1.0
 70
    24
 71
     3
 72
     8
 73
     4
 74
     0
 42
0.000000001
 43
0.00000001
 40
0.5
 40
0.5
 40
0.5
 40
0.5
 40
0.75
 40
0.75
 40
0.75
 40
0.75
 10
1.987405688565667
 20
16.15
 30
0.0
 10
1.987388077309686
 20
16.15
 30
0.0
 10
1.989776961366485
 20
16.15
 30
0.0
 10
1.9929366358361
 20
16.14999999999999
 30
0.0
  0
SPLINE
  5
1A0
330
1F
100
AcDbEntity
  8
SK3
  6
SLD-Dashed
370
    18
100
AcDbSpline
210
0.0
220
0.0
230
1.0
 70
    24
 71
     2
 72
     6
 73
     3
 74
     0
 42
0.000000001
 43
0.00000001
 40
0.75
 40
0.75
 40
0.75
 40
1.0
 40
1.0
 40
1.0
 10
1.9929366358361
 20
16.14999999999999
 30
0.0
 10
1.996096310305715
 20
16.14999999999999
 30
0.0
 10
1.999999999999995
 20
16.14999999999998
 30
0.0
  0
SPLINE
  5
1A1
330
1F
100
AcDbEntity
  8
SK3
  6
SLD-Dashed
370
    18
100
AcDbSpline
210
0.0
220
0.0
230
1.0
 70
     8
 71
     3
 72
    30
 73
    26
 74
     0
 42
0.000000001
 43
0.00000001
 40
0.5000000000000051
 40
0.5000000000000051
 40
0.5000000000000051
 40
0.5000000000000051
 40
0.5625000000000049
 40
0.5625000000000049
 40
0.5937500000000048
 40
0.5937500000000048
 40
0.6250000000000046
 40
0.6250000000000046
 40
0.6875000000000037
 40
0.6875000000000037
 40
0.7187500000000031
 40
0.7187500000000031
 40
0.7500000000000027
 40
0.7500000000000027
 40
0.8125000000000017
 40
0.8125000000000017
 40
0.8750000000000007
 40
0.8750000000000007
 40
0.9062500000000006
 40
0.9062500000000006
 40
0.9375000000000004
 40
0.9375000000000004
 40
0.9687500000000002
 40
0.9687500000000002
 40
1.0
 40
1.0
 40
1.0
 40
1.0
 10
25.9994177126347
 20
-3.872465591809406
 30
0.0
 10
26.1963139659437
 20
-3.872499251144159
 30
0.0
 10
26.39503617338994
 20
-3.855375005661112
 30
0.0
 10
26.66664648829271
 20
-3.803020968255292
 30
0.0
 10
26.7542600312449
 20
-3.78078730187421
 30
0.0
 10
26.9160061929527
 20
-3.727637606452314
 30
0.0
 10
26.9911054854727
 20
-3.696601177743949
 30
0.0
 10
27.19911906919295
 20
-3.587474021696176
 30
0.0
 10
27.30893482122004
 20
-3.49625430841085
 30
0.0
 10
27.42266210219512
 20
-3.329569354486583
 30
0.0
 10
27.4512550071446
 20
-3.270249922603538
 30
0.0
 10
27.48999044465378
 20
-3.14339749265579
 30
0.0
 10
27.50000928628271
 20
-3.075003391082829
 30
0.0
 10
27.49998140754896
 20
-2.865305531977409
 30
0.0
 10
27.45988674002663
 20
-2.714667903428836
 30
0.0
 10
27.30929910222113
 20
-2.424125806722695
 30
0.0
 10
27.19791945396809
 20
-2.282123235095471
 30
0.0
 10
26.99159816831927
 20
-2.098721479275451
 30
0.0
 10
26.91503547995663
 20
-2.04148354367302
 30
0.0
 10
26.75324359051773
 20
-1.941449925400452
 30
0.0
 10
26.6675399975851
 20
-1.898059717090877
 30
0.0
 10
26.48596027224871
 20
-1.826150359930136
 30
0.0
 10
26.39053820265584
 20
-1.79809040067519
 30
0.0
 10
26.19808796343341
 20
-1.760816006130799
 30
0.0
 10
26.09997437261381
 20
-1.751145298020656
 30
0.0
 10
26.0
 20
-1.751145298020656
 30
0.0
  0
SPLINE
  5
1A2
330
1F
100
AcDbEntity
  8
SK3
  6
SLD-Dashed
370
    18
100
AcDbSpline
210
0.0
220
0.0
230
1.0
 70
     8
 71
     3
 72
    30
 73
    26
 74
     0
 42
0.000000001
 43
0.00000001
 40
0.0
 40
0.0
 40
0.0
 40
0.0
 40
0.0312500000000004
 40
0.0312500000000004
 40
0.0625000000000008
 40
0.0625000000000008
 40
0.1250000000000016
 40
0.1250000000000016
 40
0.1875000000000023
 40
0.1875000000000023
 40
0.2187500000000027
 40
0.2187500000000027
 40
0.2500000000000031
 40
0.2500000000000031
 40
0.2812500000000035
 40
0.2812500000000035
 40
0.3125000000000039
 40
0.3125000000000039
 40
0.3750000000000047
 40
0.3750000000000047
 40
0.4062500000000051
 40
0.4062500000000051
 40
0.4375000000000054
 40
0.4375000000000054
 40
0.5000000000000051
 40
0.5000000000000051
 40
0.5000000000000051
 40
0.5000000000000051
 10
26.0
 20
-1.751145298020656
 30
0.0
 10
25.90002562738618
 20
-1.751145298020656
 30
0.0
 10
25.80189828205513
 20
-1.760807318422861
 30
0.0
 10
25.60912699143052
 20
-1.798166619255401
 30
0.0
 10
25.51346342262992
 20
-1.826351624734736
 30
0.0
 10
25.2416633049196
 20
-1.934071203380138
 30
0.0
 10
25.07642930130882
 20
-2.038179478004973
 30
0.0
 10
24.80212801036651
 20
-2.28215269755494
 30
0.0
 10
24.69064343386189
 20
-2.424297149832985
 30
0.0
 10
24.57793204717719
 20
-2.641670581386396
 30
0.0
 10
24.548666185001
 20
-2.716237703781044
 30
0.0
 10
24.50979090726704
 20
-2.862977181216149
 30
0.0
 10
24.50006625544444
 20
-2.934643580179742
 30
0.0
 10
24.4999344128336
 20
-3.07434797155624
 30
0.0
 10
24.50987300713727
 20
-3.142753329065957
 30
0.0
 10
24.54855342935157
 20
-3.269817910608479
 30
0.0
 10
24.57716523737978
 20
-3.329301982064155
 30
0.0
 10
24.69127211658377
 20
-3.496586205440078
 30
0.0
 10
24.80190763453589
 20
-3.588056243051279
 30
0.0
 10
25.00878626805167
 20
-3.696522527544193
 30
0.0
 10
25.0836820548369
 20
-3.727523552820931
 30
0.0
 10
25.2456149952083
 20
-3.780757816401095
 30
0.0
 10
25.3332347848078
 20
-3.802980029566749
 30
0.0
 10
25.60379744408758
 20
-3.855186147516652
 30
0.0
 10
25.8025214593257
 20
-3.872431932474652
 30
0.0
 10
25.9994177126347
 20
-3.872465591809406
 30
0.0
  0
SPLINE
  5
1A3
330
1F
100
AcDbEntity
  8
SK3
  6
SLD-Dashed
370
    18
100
AcDbSpline
210
0.0
220
0.0
230
1.0
 70
     8
 71
     3
 72
    30
 73
    26
 74
     0
 42
0.000000001
 43
0.00000001
 40
0.0
 40
0.0
 40
0.0
 40
0.0
 40
0.0625000000000008
 40
0.0625000000000008
 40
0.0937500000000009
 40
0.0937500000000009
 40
0.1250000000000011
 40
0.1250000000000011
 40
0.1562500000000012
 40
0.1562500000000012
 40
0.1875000000000013
 40
0.1875000000000013
 40
0.2500000000000016
 40
0.2500000000000016
 40
0.3125000000000018
 40
0.3125000000000018
 40
0.3437500000000019
 40
0.3437500000000019
 40
0.3750000000000019
 40
0.3750000000000019
 40
0.4062500000000021
 40
0.4062500000000021
 40
0.4375000000000021
 40
0.4375000000000021
 40
0.5000000000000017
 40
0.5000000000000017
 40
0.5000000000000017
 40
0.5000000000000017
 10
27.21191996435409
 20
-5.480077554195706
 30
0.0
 10
27.1312467254216
 20
-5.323646339988775
 30
0.0
 10
27.04514551315606
 20
-5.174481417470216
 30
0.0
 10
26.93199672381018
 20
-4.952390946873169
 30
0.0
 10
26.89808441709153
 20
-4.880382350450104
 30
0.0
 10
26.84697814927253
 20
-4.738480292593697
 30
0.0
 10
26.83092537148276
 20
-4.670156637371885
 30
0.0
 10
26.82767007883573
 20
-4.544030714552876
 30
0.0
 10
26.84055400343478
 20
-4.488559793164153
 30
0.0
 10
26.88750255530255
 20
-4.393908963414646
 30
0.0
 10
26.92007883992117
 20
-4.356163788629301
 30
0.0
 10
27.02970588014353
 20
-4.264917574504063
 30
0.0
 10
27.11674581475367
 20
-4.233876633275189
 30
0.0
 10
27.27786977297747
 20
-4.226913412541661
 30
0.0
 10
27.35306992420088
 20
-4.251536352920722
 30
0.0
 10
27.43651870634693
 20
-4.339850231792194
 30
0.0
 10
27.45887743310729
 20
-4.377376505511256
 30
0.0
 10
27.49014061036326
 20
-4.469019187095958
 30
0.0
 10
27.49894406079498
 20
-4.523899708708737
 30
0.0
 10
27.50087136446924
 20
-4.645114069359818
 30
0.0
 10
27.49409445819919
 20
-4.713133431753739
 30
0.0
 10
27.46624127369187
 20
-4.856822023708282
 30
0.0
 10
27.4454874325858
 20
-4.931925479771913
 30
0.0
 10
27.36585064690384
 20
-5.165585067514824
 30
0.0
 10
27.29172696061065
 20
-5.32530846969501
 30
0.0
 10
27.21205765464677
 20
-5.479810547639387
 30
0.0
  0
SPLINE
  5
1A4
330
1F
100
AcDbEntity
  8
SK3
  6
SLD-Dashed
370
    18
100
AcDbSpline
210
0.0
220
0.0
230
1.0
 70
     8
 71
     3
 72
    28
 73
    24
 74
     0
 42
0.000000001
 43
0.00000001
 40
0.0
 40
0.0
 40
0.0
 40
0.0
 40
0.03125
 40
0.03125
 40
0.0625
 40
0.0625
 40
0.1250000000000001
 40
0.1250000000000001
 40
0.1875000000000001
 40
0.1875000000000001
 40
0.2500000000000001
 40
0.2500000000000001
 40
0.3125000000000002
 40
0.3125000000000002
 40
0.3437500000000003
 40
0.3437500000000003
 40
0.3750000000000004
 40
0.3750000000000004
 40
0.4062500000000006
 40
0.4062500000000006
 40
0.4375000000000007
 40
0.4375000000000007
 40
0.5000000000000004
 40
0.5000000000000004
 40
0.5000000000000004
 40
0.5000000000000004
 10
24.78808003564593
 20
-5.480077554195698
 30
0.0
 10
24.74784554780355
 20
-5.558095120711404
 30
0.0
 10
24.70972078182832
 20
-5.635930103685354
 30
0.0
 10
24.6399779025592
 20
-5.792132271322481
 30
0.0
 10
24.60802615075005
 20
-5.871447311757329
 30
0.0
 10
24.52905144711197
 20
-6.102482441957825
 30
0.0
 10
24.49865011576067
 20
-6.250882139052261
 30
0.0
 10
24.50144720926847
 20
-6.49404447791871
 30
0.0
 10
24.5349278885156
 20
-6.589068164735175
 30
0.0
 10
24.64463861014058
 20
-6.70718469853609
 30
0.0
 10
24.72007187905009
 20
-6.732711669319343
 30
0.0
 10
24.88009654912571
 20
-6.727014083816208
 30
0.0
 10
24.9677814691374
 20
-6.696173189549374
 30
0.0
 10
25.07687448005614
 20
-6.607071345990529
 30
0.0
 10
25.10991842902294
 20
-6.569741475488236
 30
0.0
 10
25.15793848029242
 20
-6.476197668026457
 30
0.0
 10
25.17167161914251
 20
-6.420808459398684
 30
0.0
 10
25.16993532564472
 20
-6.295510180728765
 30
0.0
 10
25.15452036777934
 20
-6.227083104853419
 30
0.0
 10
25.10436620672533
 20
-6.085423063447375
 30
0.0
 10
25.07077108034709
 20
-6.013526864146491
 30
0.0
 10
24.95828590538817
 20
-5.791786569281638
 30
0.0
 10
24.87186792938261
 20
-5.642140408655422
 30
0.0
 10
24.7912235874489
 20
-5.486165293959864
 30
0.0
  0
SPLINE
  5
1A5
330
1F
100
AcDbEntity
  8
SK3
  6
SLD-Dashed
370
    18
100
AcDbSpline
210
0.0
220
0.0
230
1.0
 70
    24
 71
     2
 72
     6
 73
     3
 74
     0
 42
0.000000001
 43
0.00000001
 40
0.0
 40
0.0
 40
0.0
 40
0.2500000000000009
 40
0.2500000000000009
 40
0.2500000000000009
 10
2.375000000001494
 20
-16.15000000011757
 30
0.0
 10
2.35742447933384
 20
-16.1500000001112
 30
0.0
 10
2.33165210510726
 20
-16.15000000010185
 30
0.0
  0
SPLINE
  5
1A6
330
1F
100
AcDbEntity
  8
SK3
  6
SLD-Dashed
370
    18
100
AcDbSpline
210
0.0
220
0.0
230
1.0
 70
    24
 71
     3
 72
     8
 73
     4
 74
     0
 42
0.000000001
 43
0.00000001
 40
0.2500000000000009
 40
0.2500000000000009
 40
0.2500000000000009
 40
0.2500000000000009
 40
0.5000000000000019
 40
0.5000000000000019
 40
0.5000000000000019
 40
0.5000000000000019
 10
2.33165210510726
 20
-16.15000000010185
 30
0.0
 10
2.305879730881567
 20
-16.15000000009395
 30
0.0
 10
2.272790772310324
 20
-16.1500000000838
 30
0.0
 10
2.236965951746453
 20
-16.15000000007278
 30
0.0
  0
SPLINE
  5
1A7
330
1F
100
AcDbEntity
  8
SK3
  6
SLD-Dashed
370
    18
100
AcDbSpline
210
0.0
220
0.0
230
1.0
 70
    24
 71
     3
 72
     8
 73
     4
 74
     0
 42
0.000000001
 43
0.00000001
 40
0.5000000000000019
 40
0.5000000000000019
 40
0.5000000000000019
 40
0.5000000000000019
 40
1.0
 40
1.0
 40
1.0
 40
1.0
 10
2.236965951746453
 20
-16.15000000007278
 30
0.0
 10
2.165316310618747
 20
-16.15000000005079
 30
0.0
 10
2.083397657057326
 20
-16.15000000002563
 30
0.0
 10
2.000000000000009
 20
-16.15000000000003
 30
0.0
  0
SPLINE
  5
1A8
330
1F
100
AcDbEntity
  8
SK3
  6
SLD-Dashed
370
    18
100
AcDbSpline
210
0.0
220
0.0
230
1.0
 70
     8
 71
     3
 72
    30
 73
    26
 74
     0
 42
0.000000001
 43
0.00000001
 40
0.5000000000000029
 40
0.5000000000000029
 40
0.5000000000000029
 40
0.5000000000000029
 40
0.5625000000000024
 40
0.5625000000000024
 40
0.5937500000000022
 40
0.5937500000000022
 40
0.625000000000002
 40
0.625000000000002
 40
0.6875000000000017
 40
0.6875000000000017
 40
0.7187500000000016
 40
0.7187500000000016
 40
0.7500000000000014
 40
0.7500000000000014
 40
0.8125000000000012
 40
0.8125000000000012
 40
0.8750000000000009
 40
0.8750000000000009
 40
0.9062500000000007
 40
0.9062500000000007
 40
0.9375000000000004
 40
0.9375000000000004
 40
0.9687500000000002
 40
0.9687500000000002
 40
1.0
 40
1.0
 40
1.0
 40
1.0
 10
26.00058228736532
 20
3.872465591809419
 30
0.0
 10
25.80368603405629
 20
3.872499251144173
 30
0.0
 10
25.60496382661008
 20
3.855375005661125
 30
0.0
 10
25.3333535117073
 20
3.803020968255313
 30
0.0
 10
25.24573996875514
 20
3.780787301874217
 30
0.0
 10
25.0839938070473
 20
3.727637606452328
 30
0.0
 10
25.00889451452731
 20
3.69660117774397
 30
0.0
 10
24.80088093080705
 20
3.587474021696197
 30
0.0
 10
24.69106517878
 20
3.496254308410881
 30
0.0
 10
24.57733789780491
 20
3.329569354486611
 30
0.0
 10
24.54874499285541
 20
3.270249922603566
 30
0.0
 10
24.51000955534625
 20
3.143397492655818
 30
0.0
 10
24.49999071371731
 20
3.075003391082857
 30
0.0
 10
24.50001859245107
 20
2.865305531977429
 30
0.0
 10
24.54011325997341
 20
2.714667903428864
 30
0.0
 10
24.69070089777887
 20
2.424125806722722
 30
0.0
 10
24.80208054603196
 20
2.282123235095492
 30
0.0
 10
25.00840183168075
 20
2.098721479275485
 30
0.0
 10
25.08496452004337
 20
2.041483543673048
 30
0.0
 10
25.24675640948231
 20
1.94144992540048
 30
0.0
 10
25.3324600024149
 20
1.898059717090898
 30
0.0
 10
25.51403972775131
 20
1.826150359930157
 30
0.0
 10
25.60946179734418
 20
1.798090400675217
 30
0.0
 10
25.80191203656659
 20
1.760816006130827
 30
0.0
 10
25.90002562738619
 20
1.751145298020677
 30
0.0
 10
26.00000000000001
 20
1.751145298020677
 30
0.0
  0
SPLINE
  5
1A9
330
1F
100
AcDbEntity
  8
SK3
  6
SLD-Dashed
370
    18
100
AcDbSpline
210
0.0
220
0.0
230
1.0
 70
     8
 71
     3
 72
    30
 73
    26
 74
     0
 42
0.000000001
 43
0.00000001
 40
0.0
 40
0.0
 40
0.0
 40
0.0
 40
0.0312500000000002
 40
0.0312500000000002
 40
0.0625000000000005
 40
0.0625000000000005
 40
0.1250000000000009
 40
0.1250000000000009
 40
0.1875000000000014
 40
0.1875000000000014
 40
0.2187500000000016
 40
0.2187500000000016
 40
0.2500000000000018
 40
0.2500000000000018
 40
0.2812500000000021
 40
0.2812500000000021
 40
0.3125000000000023
 40
0.3125000000000023
 40
0.3750000000000028
 40
0.3750000000000028
 40
0.4062500000000031
 40
0.4062500000000031
 40
0.4375000000000034
 40
0.4375000000000034
 40
0.5000000000000029
 40
0.5000000000000029
 40
0.5000000000000029
 40
0.5000000000000029
 10
26.00000000000001
 20
1.751145298020677
 30
0.0
 10
26.09997437261381
 20
1.751145298020684
 30
0.0
 10
26.19810171794486
 20
1.760807318422888
 30
0.0
 10
26.3908730085695
 20
1.798166619255425
 30
0.0
 10
26.48653657737009
 20
1.826351624734754
 30
0.0
 10
26.75833669508042
 20
1.934071203380149
 30
0.0
 10
26.9235706986912
 20
2.038179478004994
 30
0.0
 10
27.1978719896335
 20
2.282152697554961
 30
0.0
 10
27.30935656613813
 20
2.424297149833013
 30
0.0
 10
27.4220679528228
 20
2.64167058138641
 30
0.0
 10
27.45133381499902
 20
2.716237703781061
 30
0.0
 10
27.49020909273295
 20
2.862977181216166
 30
0.0
 10
27.49993374455554
 20
2.934643580179752
 30
0.0
 10
27.5000655871664
 20
3.074347971556243
 30
0.0
 10
27.49012699286274
 20
3.142753329065967
 30
0.0
 10
27.45144657064844
 20
3.269817910608489
 30
0.0
 10
27.42283476262021
 20
3.329301982064163
 30
0.0
 10
27.30872788341625
 20
3.496586205440091
 30
0.0
 10
27.19809236546412
 20
3.588056243051294
 30
0.0
 10
26.99121373194833
 20
3.6965225275442
 30
0.0
 10
26.91631794516314
 20
3.727523552820945
 30
0.0
 10
26.7543850047917
 20
3.780757816401112
 30
0.0
 10
26.66676521519221
 20
3.80298002956676
 30
0.0
 10
26.39620255591243
 20
3.855186147516662
 30
0.0
 10
26.19747854067434
 20
3.872431932474666
 30
0.0
 10
26.00058228736532
 20
3.872465591809419
 30
0.0
  0
SPLINE
  5
1AA
330
1F
100
AcDbEntity
  8
SK3
  6
SLD-Dashed
370
    18
100
AcDbSpline
210
0.0
220
0.0
230
1.0
 70
     8
 71
     3
 72
    30
 73
    26
 74
     0
 42
0.000000001
 43
0.00000001
 40
0.0
 40
0.0
 40
0.0
 40
0.0
 40
0.0625000000000004
 40
0.0625000000000004
 40
0.0937500000000005
 40
0.0937500000000005
 40
0.1250000000000005
 40
0.1250000000000005
 40
0.1562500000000005
 40
0.1562500000000005
 40
0.1875000000000005
 40
0.1875000000000005
 40
0.2499999999999999
 40
0.2499999999999999
 40
0.3124999999999993
 40
0.3124999999999993
 40
0.3437499999999993
 40
0.3437499999999993
 40
0.3749999999999993
 40
0.3749999999999993
 40
0.4062499999999993
 40
0.4062499999999993
 40
0.4374999999999993
 40
0.4374999999999993
 40
0.4999999999999992
 40
0.4999999999999992
 40
0.4999999999999992
 40
0.4999999999999992
 10
24.78808003564595
 20
5.480077554195748
 30
0.0
 10
24.86875327459665
 20
5.323646339998247
 30
0.0
 10
24.95485448687956
 20
5.174481417489704
 30
0.0
 10
25.06800327625132
 20
4.952390946905874
 30
0.0
 10
25.10191558297839
 20
4.88038235048675
 30
0.0
 10
25.15302185081393
 20
4.7384802926363
 30
0.0
 10
25.1690746286117
 20
4.670156637416378
 30
0.0
 10
25.17232992127343
 20
4.544030714597736
 30
0.0
 10
25.15944599668079
 20
4.488559793207517
 30
0.0
 10
25.11249744482408
 20
4.393908963452542
 30
0.0
 10
25.07992116020991
 20
4.356163788663384
 30
0.0
 10
24.97029411999818
 20
4.264917574525365
 30
0.0
 10
24.88325418539171
 20
4.233876633286338
 30
0.0
 10
24.72213022716867
 20
4.226913412534033
 30
0.0
 10
24.64693007594244
 20
4.251536352904293
 30
0.0
 10
24.56348129378608
 20
4.339850231766047
 30
0.0
 10
24.5411225670213
 20
4.377376505482498
 30
0.0
 10
24.50985938975468
 20
4.469019187063532
 30
0.0
 10
24.50105593931651
 20
4.523899708675303
 30
0.0
 10
24.49912863562816
 20
4.645114069326159
 30
0.0
 10
24.50590554189025
 20
4.713133431720872
 30
0.0
 10
24.53375872638076
 20
4.856822023678657
 30
0.0
 10
24.55451256747815
 20
4.931925479744709
 30
0.0
 10
24.63414935313278
 20
5.165585067496918
 30
0.0
 10
24.70827303940733
 20
5.325308469685739
 30
0.0
 10
24.78794234535325
 20
5.479810547639429
 30
0.0
  0
SPLINE
  5
1AB
330
1F
100
AcDbEntity
  8
SK3
  6
SLD-Dashed
370
    18
100
AcDbSpline
210
0.0
220
0.0
230
1.0
 70
     8
 71
     3
 72
    28
 73
    24
 74
     0
 42
0.000000001
 43
0.00000001
 40
0.0
 40
0.0
 40
0.0
 40
0.0
 40
0.0312500000000003
 40
0.0312500000000003
 40
0.0625000000000005
 40
0.0625000000000005
 40
0.1250000000000005
 40
0.1250000000000005
 40
0.1875000000000005
 40
0.1875000000000005
 40
0.2500000000000005
 40
0.2500000000000005
 40
0.3125000000000004
 40
0.3125000000000004
 40
0.3437500000000008
 40
0.3437500000000008
 40
0.3750000000000011
 40
0.3750000000000011
 40
0.4062500000000014
 40
0.4062500000000014
 40
0.4375000000000017
 40
0.4375000000000017
 40
0.5000000000000018
 40
0.5000000000000018
 40
0.5000000000000018
 40
0.5000000000000018
 10
27.2119199643541
 20
5.480077554195756
 30
0.0
 10
27.25215445219673
 20
5.558095120711359
 30
0.0
 10
27.29027921817217
 20
5.635930103685191
 30
0.0
 10
27.36002209744165
 20
5.792132271322116
 30
0.0
 10
27.39197384925107
 20
5.871447311756913
 30
0.0
 10
27.47094855288962
 20
6.102482441957214
 30
0.0
 10
27.50134988424138
 20
6.250882139051546
 30
0.0
 10
27.49855279073421
 20
6.494044477918034
 30
0.0
 10
27.46507211148741
 20
6.589068164734576
 30
0.0
 10
27.35536138986264
 20
6.70718469853575
 30
0.0
 10
27.27992812095323
 20
6.732711669319218
 30
0.0
 10
27.11990345087761
 20
6.727014083816488
 30
0.0
 10
27.03221853086583
 20
6.696173189549879
 30
0.0
 10
26.92312551994683
 20
6.607071345991309
 30
0.0
 10
26.89008157097993
 20
6.569741475489083
 30
0.0
 10
26.84206151971011
 20
6.476197668027463
 30
0.0
 10
26.82832838085997
 20
6.420808459399713
 30
0.0
 10
26.83006467435751
 20
6.29551018072976
 30
0.0
 10
26.84547963222264
 20
6.22708310485437
 30
0.0
 10
26.89563379327632
 20
6.085423063448223
 30
0.0
 10
26.92922891965433
 20
6.013526864147225
 30
0.0
 10
27.04171409461267
 20
5.791786569282099
 30
0.0
 10
27.12813207061785
 20
5.642140408655642
 30
0.0
 10
27.20877641255112
 20
5.486165293959882
 30
0.0
  0
SPLINE
  5
1AC
330
1F
100
AcDbEntity
  8
1
  6
SLD-Dashed
370
    18
100
AcDbSpline
210
0.0
220
0.0
230
1.0
 70
     8
 71
     3
 72
    10
 73
     6
 74
     0
 42
0.000000001
 43
0.00000001
 40
0.0
 40
0.0
 40
0.0
 40
0.0
 40
0.5
 40
0.5
 40
1.0
 40
1.0
 40
1.0
 40
1.0
 10
15.60000000000137
 20
-17.9608602243897
 30
0.0
 10
15.60000000000079
 20
-17.84309061700634
 30
0.0
 10
15.55324029371398
 20
-17.73064651892003
 30
0.0
 10
15.41780382798792
 20
-17.55857060774289
 30
0.0
 10
15.32693692219694
 20
-17.49475822761089
 30
0.0
 10
15.225
 20
-17.47244258825881
 30
0.0
  0
SPLINE
  5
1AD
330
1F
100
AcDbEntity
  8
1
  6
SLD-Dashed
370
    18
100
AcDbSpline
210
0.0
220
0.0
230
1.0
 70
     8
 71
     3
 72
    10
 73
     6
 74
     0
 42
0.000000001
 43
0.00000001
 40
0.0
 40
0.0
 40
0.0
 40
0.0
 40
0.5
 40
0.5
 40
1.0
 40
1.0
 40
1.0
 40
1.0
 10
15.225
 20
-17.47244258825881
 30
0.0
 10
14.72586738206644
 20
-17.36317439327392
 30
0.0
 10
14.20531594595909
 20
-17.26950902984325
 30
0.0
 10
13.11981343473119
 20
-17.12670145782505
 30
0.0
 10
12.55043216059938
 20
-17.07771569071834
 30
0.0
 10
11.97500000000001
 20
-17.05831908483359
 30
0.0
  0
SPLINE
  5
1AE
330
1F
100
AcDbEntity
  8
1
  6
SLD-Dashed
370
    18
100
AcDbSpline
210
0.0
220
0.0
230
1.0
 70
     8
 71
     3
 72
    10
 73
     6
 74
     0
 42
0.000000001
 43
0.00000001
 40
0.0
 40
0.0
 40
0.0
 40
0.0
 40
0.5
 40
0.5
 40
1.0
 40
1.0
 40
1.0
 40
1.0
 10
11.97499999999996
 20
-17.05831908483363
 30
0.0
 10
11.87152057286504
 20
-17.05483101134253
 30
0.0
 10
11.77071697238919
 20
-17.10302441606798
 30
0.0
 10
11.63569438794237
 20
-17.25765695847895
 30
0.0
 10
11.59999999999998
 20
-17.36066582511049
 30
0.0
 10
11.59999999999998
 20
-17.46403447087755
 30
0.0
  0
SPLINE
  5
1AF
330
1F
100
AcDbEntity
  8
1
  6
SLD-Dashed
370
    18
100
AcDbSpline
210
0.0
220
0.0
230
1.0
 70
     8
 71
     3
 72
     8
 73
     4
 74
     0
 42
0.000000001
 43
0.00000001
 40
0.0000432461654743
 40
0.0000432461654743
 40
0.0000432461654743
 40
0.0000432461654743
 40
0.000471859197428
 40
0.000471859197428
 40
0.000471859197428
 40
0.000471859197428
 10
11.6
 20
-17.71624677331127
 30
0.0
 10
11.533273339173
 20
-17.84256764359957
 30
0.0
 10
11.46660587253707
 20
-17.96893325601979
 30
0.0
 10
11.4
 20
-18.09532860177311
 30
0.0
  0
SPLINE
  5
1B0
330
1F
100
AcDbEntity
  8
1
  6
SLD-Dashed
370
    18
100
AcDbSpline
210
0.0
220
0.0
230
1.0
 70
     8
 71
     3
 72
    10
 73
     6
 74
     0
 42
0.000000001
 43
0.00000001
 40
0.0
 40
0.0
 40
0.0
 40
0.0
 40
0.5
 40
0.5
 40
1.0
 40
1.0
 40
1.0
 40
1.0
 10
17.37428230507107
 20
-21.8788932611517
 30
0.0
 10
17.08869106544409
 20
-21.29102691798385
 30
0.0
 10
16.79677392997642
 20
-20.68882546025274
 30
0.0
 10
16.20431228782266
 20
-19.46290423314764
 30
0.0
 10
15.90371676904256
 20
-18.8390884647661
 30
0.0
 10
15.6
 20
-18.20619124728898
 30
0.0
  0
SPLINE
  5
1B1
330
1F
100
AcDbEntity
  8
1
  6
SLD-Dashed
370
    18
100
AcDbSpline
210
0.0
220
0.0
230
1.0
 70
     8
 71
     3
 72
     8
 73
     4
 74
     0
 42
0.000000001
 43
0.00000001
 40
0.0000432461654743
 40
0.0000432461654743
 40
0.0000432461654743
 40
0.0000432461654743
 40
0.000471859197428
 40
0.000471859197428
 40
0.000471859197428
 40
0.000471859197428
 10
11.60000000000001
 20
17.71624677331125
 30
0.0
 10
11.533273339173
 20
17.84256764359955
 30
0.0
 10
11.46660587253707
 20
17.96893325601977
 30
0.0
 10
11.4
 20
18.0953286017731
 30
0.0
  0
SPLINE
  5
1B2
330
1F
100
AcDbEntity
  8
1
  6
SLD-Dashed
370
    18
100
AcDbSpline
210
0.0
220
0.0
230
1.0
 70
     8
 71
     3
 72
    10
 73
     6
 74
     0
 42
0.000000001
 43
0.00000001
 40
0.0
 40
0.0
 40
0.0
 40
0.0
 40
0.5
 40
0.5
 40
1.0
 40
1.0
 40
1.0
 40
1.0
 10
11.97499999999996
 20
17.05831908483362
 30
0.0
 10
11.87152057286503
 20
17.05483101134253
 30
0.0
 10
11.77071697238918
 20
17.10302441606798
 30
0.0
 10
11.63569438794237
 20
17.25765695847895
 30
0.0
 10
11.59999999999997
 20
17.36066582511051
 30
0.0
 10
11.59999999999998
 20
17.46403447087756
 30
0.0
  0
SPLINE
  5
1B3
330
1F
100
AcDbEntity
  8
1
  6
SLD-Dashed
370
    18
100
AcDbSpline
210
0.0
220
0.0
230
1.0
 70
     8
 71
     3
 72
    10
 73
     6
 74
     0
 42
0.000000001
 43
0.00000001
 40
0.0
 40
0.0
 40
0.0
 40
0.0
 40
0.4999999999999999
 40
0.4999999999999999
 40
1.0
 40
1.0
 40
1.0
 40
1.0
 10
15.22499999999997
 20
17.47244258825881
 30
0.0
 10
14.72586738206641
 20
17.36317439327392
 30
0.0
 10
14.20531594595906
 20
17.26950902984325
 30
0.0
 10
13.11981343473118
 20
17.12670145782505
 30
0.0
 10
12.55043216059937
 20
17.07771569071835
 30
0.0
 10
11.97499999999999
 20
17.05831908483359
 30
0.0
  0
SPLINE
  5
1B4
330
1F
100
AcDbEntity
  8
1
  6
SLD-Dashed
370
    18
100
AcDbSpline
210
0.0
220
0.0
230
1.0
 70
     8
 71
     3
 72
    10
 73
     6
 74
     0
 42
0.000000001
 43
0.00000001
 40
0.0
 40
0.0
 40
0.0
 40
0.0
 40
0.5
 40
0.5
 40
1.0
 40
1.0
 40
1.0
 40
1.0
 10
15.60000000000137
 20
17.9608602243897
 30
0.0
 10
15.60000000000078
 20
17.84309061700633
 30
0.0
 10
15.55324029371395
 20
17.73064651892003
 30
0.0
 10
15.4178038279879
 20
17.55857060774289
 30
0.0
 10
15.32693692219693
 20
17.49475822761089
 30
0.0
 10
15.22499999999999
 20
17.47244258825881
 30
0.0
  0
SPLINE
  5
1B5
330
1F
100
AcDbEntity
  8
1
  6
SLD-Dashed
370
    18
100
AcDbSpline
210
0.0
220
0.0
230
1.0
 70
     8
 71
     3
 72
    10
 73
     6
 74
     0
 42
0.000000001
 43
0.00000001
 40
0.0
 40
0.0
 40
0.0
 40
0.0
 40
0.5
 40
0.5
 40
1.0
 40
1.0
 40
1.0
 40
1.0
 10
17.37428227908525
 20
21.87889322612935
 30
0.0
 10
17.08869139181012
 20
21.29102760429951
 30
0.0
 10
16.79677441554595
 20
20.68882647389056
 30
0.0
 10
16.20431276559682
 20
19.46290522822645
 30
0.0
 10
15.90371707956516
 20
18.83908911356867
 30
0.0
 10
15.6
 20
18.20619124728897
 30
0.0
  0
SPLINE
  5
1B6
330
1F
100
AcDbEntity
  8
SK3
  6
SLD-Dashed
370
    18
100
AcDbSpline
210
0.0
220
0.0
230
1.0
 70
     8
 71
     3
 72
    30
 73
    26
 74
     0
 42
0.000000001
 43
0.00000001
 40
0.5000000000000066
 40
0.5000000000000066
 40
0.5000000000000066
 40
0.5000000000000066
 40
0.562500000000006
 40
0.562500000000006
 40
0.5937500000000056
 40
0.5937500000000056
 40
0.6250000000000052
 40
0.6250000000000052
 40
0.6875000000000047
 40
0.6875000000000047
 40
0.7187500000000041
 40
0.7187500000000041
 40
0.7500000000000036
 40
0.7500000000000036
 40
0.8125000000000023
 40
0.8125000000000023
 40
0.8750000000000011
 40
0.8750000000000011
 40
0.9062500000000009
 40
0.9062500000000009
 40
0.9375000000000006
 40
0.9375000000000006
 40
0.9687500000000003
 40
0.9687500000000003
 40
1.0
 40
1.0
 40
1.0
 40
1.0
 10
25.9994177126347
 20
-1.751145408083521
 30
0.0
 10
26.1963139659437
 20
-1.751070974164409
 30
0.0
 10
26.39503617338991
 20
-1.790232137952936
 30
0.0
 10
26.6666464882927
 20
-1.897661297629104
 30
0.0
 10
26.7542600312449
 20
-1.941999437984666
 30
0.0
 10
26.9160061929527
 20
-2.042163635487735
 30
0.0
 10
26.9911054854727
 20
-2.098276138588491
 30
0.0
 10
27.19911906919295
 20
-2.283204377169671
 30
0.0
 10
27.30893482122004
 20
-2.423320620560606
 30
0.0
 10
27.42266210219512
 20
-2.642898440811246
 30
0.0
 10
27.45125500714461
 20
-2.716119781862775
 30
0.0
 10
27.48999044465375
 20
-2.861973694651996
 30
0.0
 10
27.50000928628271
 20
-2.935408884104048
 30
0.0
 10
27.49998140754896
 20
-3.145092827980089
 30
0.0
 10
27.45988674002663
 20
-3.275108910359353
 30
0.0
 10
27.30929910222114
 20
-3.495622158329329
 30
0.0
 10
27.19791945396809
 20
-3.588114867949213
 30
0.0
 10
26.99159816831925
 20
-3.696336949449798
 30
0.0
 10
26.91503547995663
 20
-3.728008911938235
 30
0.0
 10
26.75324359051773
 20
-3.781068327039495
 30
0.0
 10
26.66753999758512
 20
-3.802823841941118
 30
0.0
 10
26.48596027224871
 20
-3.837873724525847
 30
0.0
 10
26.39053820265585
 20
-3.850946908398104
 30
0.0
 10
26.19808796343344
 20
-3.868132388227526
 30
0.0
 10
26.09997437261381
 20
-3.872465641580301
 30
0.0
 10
26.0
 20
-3.872465641580301
 30
0.0
  0
SPLINE
  5
1B7
330
1F
100
AcDbEntity
  8
SK3
  6
SLD-Dashed
370
    18
100
AcDbSpline
210
0.0
220
0.0
230
1.0
 70
     8
 71
     3
 72
    30
 73
    26
 74
     0
 42
0.000000001
 43
0.00000001
 40
0.0
 40
0.0
 40
0.0
 40
0.0
 40
0.0312500000000006
 40
0.0312500000000006
 40
0.0625000000000012
 40
0.0625000000000012
 40
0.1250000000000024
 40
0.1250000000000024
 40
0.1875000000000037
 40
0.1875000000000037
 40
0.2187500000000042
 40
0.2187500000000042
 40
0.2500000000000048
 40
0.2500000000000048
 40
0.2812500000000054
 40
0.2812500000000054
 40
0.3125000000000059
 40
0.3125000000000059
 40
0.3750000000000069
 40
0.3750000000000069
 40
0.4062500000000071
 40
0.4062500000000071
 40
0.4375000000000073
 40
0.4375000000000073
 40
0.5000000000000066
 40
0.5000000000000066
 40
0.5000000000000066
 40
0.5000000000000066
 10
26.0
 20
-3.872465641580294
 30
0.0
 10
25.90002562738619
 20
-3.872465641580301
 30
0.0
 10
25.80189828205515
 20
-3.868136591703771
 30
0.0
 10
25.6091269914305
 20
-3.850911569237187
 30
0.0
 10
25.5134634226299
 20
-3.837777401737061
 30
0.0
 10
25.2416633049196
 20
-3.785267645765072
 30
0.0
 10
25.07642930130882
 20
-3.732075639936182
 30
0.0
 10
24.80212801036651
 20
-3.588083504018319
 30
0.0
 10
24.6906434338619
 20
-3.495479687448535
 30
0.0
 10
24.57793204717719
 20
-3.330518018034266
 30
0.0
 10
24.548666185001
 20
-3.270169814479123
 30
0.0
 10
24.50979090726703
 20
-3.142502114368062
 30
0.0
 10
24.50006625544444
 20
-3.075730989554149
 30
0.0
 10
24.49993441283359
 20
-2.936092405320712
 30
0.0
 10
24.50987300713725
 20
-2.862685776255074
 30
0.0
 10
24.54855342935157
 20
-2.716644837366902
 30
0.0
 10
24.57716523737979
 20
-2.643246640881162
 30
0.0
 10
24.69127211658376
 20
-2.422891429088435
 30
0.0
 10
24.80190763453591
 20
-2.282236081976013
 30
0.0
 10
25.00878626805167
 20
-2.09840022103774
 30
0.0
 10
25.0836820548369
 20
-2.04237420709772
 30
0.0
 10
25.2456149952083
 20
-1.942059363761798
 30
0.0
 10
25.33323478480782
 20
-1.897740896961996
 30
0.0
 10
25.6037974440876
 20
-1.79062844753982
 30
0.0
 10
25.8025214593257
 20
-1.751219842002636
 30
0.0
 10
25.9994177126347
 20
-1.751145408083521
 30
0.0
  0
SPLINE
  5
1B8
330
1F
100
AcDbEntity
  8
SK3
  6
SLD-Dashed
370
    18
100
AcDbSpline
210
0.0
220
0.0
230
1.0
 70
     8
 71
     3
 72
    30
 73
    26
 74
     0
 42
0.000000001
 43
0.00000001
 40
0.5000000000000043
 40
0.5000000000000043
 40
0.5000000000000043
 40
0.5000000000000043
 40
0.5625000000000037
 40
0.5625000000000037
 40
0.5937500000000033
 40
0.5937500000000033
 40
0.6250000000000029
 40
0.6250000000000029
 40
0.6875000000000022
 40
0.6875000000000022
 40
0.718750000000002
 40
0.718750000000002
 40
0.7500000000000019
 40
0.7500000000000019
 40
0.8125000000000014
 40
0.8125000000000014
 40
0.875000000000001
 40
0.875000000000001
 40
0.9062500000000009
 40
0.9062500000000009
 40
0.9375000000000007
 40
0.9375000000000007
 40
0.9687500000000003
 40
0.9687500000000003
 40
1.0
 40
1.0
 40
1.0
 40
1.0
 10
26.00058228736532
 20
1.7511454080835
 30
0.0
 10
25.80368603405631
 20
1.751070974164382
 30
0.0
 10
25.6049638266101
 20
1.790232137952916
 30
0.0
 10
25.33335351170732
 20
1.897661297629083
 30
0.0
 10
25.24573996875514
 20
1.941999437984645
 30
0.0
 10
25.08399380704732
 20
2.042163635487714
 30
0.0
 10
25.0088945145273
 20
2.09827613858847
 30
0.0
 10
24.80088093080705
 20
2.28320437716965
 30
0.0
 10
24.69106517878
 20
2.423320620560578
 30
0.0
 10
24.57733789780491
 20
2.642898440811233
 30
0.0
 10
24.54874499285542
 20
2.716119781862754
 30
0.0
 10
24.51000955534625
 20
2.861973694651982
 30
0.0
 10
24.49999071371729
 20
2.93540888410403
 30
0.0
 10
24.50001859245107
 20
3.145092827980076
 30
0.0
 10
24.54011325997339
 20
3.275108910359339
 30
0.0
 10
24.69070089777886
 20
3.495622158329308
 30
0.0
 10
24.80208054603193
 20
3.588114867949192
 30
0.0
 10
25.00840183168075
 20
3.696336949449791
 30
0.0
 10
25.0849645200434
 20
3.728008911938228
 30
0.0
 10
25.24675640948231
 20
3.781068327039488
 30
0.0
 10
25.33246000241492
 20
3.802823841941108
 30
0.0
 10
25.51403972775132
 20
3.837873724525844
 30
0.0
 10
25.60946179734418
 20
3.850946908398097
 30
0.0
 10
25.80191203656659
 20
3.868132388227512
 30
0.0
 10
25.90002562738621
 20
3.872465641580294
 30
0.0
 10
26.00000000000001
 20
3.872465641580294
 30
0.0
  0
SPLINE
  5
1B9
330
1F
100
AcDbEntity
  8
SK3
  6
SLD-Dashed
370
    18
100
AcDbSpline
210
0.0
220
0.0
230
1.0
 70
     8
 71
     3
 72
    30
 73
    26
 74
     0
 42
0.000000001
 43
0.00000001
 40
0.0
 40
0.0
 40
0.0
 40
0.0
 40
0.0312500000000004
 40
0.0312500000000004
 40
0.0625000000000008
 40
0.0625000000000008
 40
0.1250000000000016
 40
0.1250000000000016
 40
0.1875000000000023
 40
0.1875000000000023
 40
0.2187500000000027
 40
0.2187500000000027
 40
0.2500000000000032
 40
0.2500000000000032
 40
0.2812500000000036
 40
0.2812500000000036
 40
0.3125000000000039
 40
0.3125000000000039
 40
0.3750000000000049
 40
0.3750000000000049
 40
0.406250000000005
 40
0.406250000000005
 40
0.4375000000000051
 40
0.4375000000000051
 40
0.5000000000000043
 40
0.5000000000000043
 40
0.5000000000000043
 40
0.5000000000000043
 10
26.00000000000001
 20
3.872465641580294
 30
0.0
 10
26.09997437261383
 20
3.872465641580294
 30
0.0
 10
26.1981017179449
 20
3.868136591703771
 30
0.0
 10
26.39087300856953
 20
3.85091156923717
 30
0.0
 10
26.48653657737011
 20
3.83777740173705
 30
0.0
 10
26.75833669508043
 20
3.785267645765054
 30
0.0
 10
26.92357069869121
 20
3.732075639936168
 30
0.0
 10
27.19787198963353
 20
3.588083504018305
 30
0.0
 10
27.30935656613814
 20
3.495479687448518
 30
0.0
 10
27.42206795282281
 20
3.330518018034252
 30
0.0
 10
27.45133381499904
 20
3.270169814479106
 30
0.0
 10
27.49020909273296
 20
3.142502114368041
 30
0.0
 10
27.49993374455557
 20
3.075730989554118
 30
0.0
 10
27.50006558716643
 20
2.936092405320684
 30
0.0
 10
27.49012699286276
 20
2.86268577625505
 30
0.0
 10
27.45144657064846
 20
2.716644837366878
 30
0.0
 10
27.42283476262024
 20
2.643246640881135
 30
0.0
 10
27.30872788341626
 20
2.422891429088414
 30
0.0
 10
27.19809236546412
 20
2.282236081975978
 30
0.0
 10
26.99121373194832
 20
2.098400221037709
 30
0.0
 10
26.91631794516312
 20
2.042374207097689
 30
0.0
 10
26.7543850047917
 20
1.94205936376177
 30
0.0
 10
26.66676521519219
 20
1.897740896961972
 30
0.0
 10
26.39620255591242
 20
1.790628447539796
 30
0.0
 10
26.19747854067434
 20
1.751219842002615
 30
0.0
 10
26.00058228736532
 20
1.7511454080835
 30
0.0
  0
SPLINE
  5
1BA
330
1F
100
AcDbEntity
  8
SK3
  6
SLD-Dashed
370
    18
100
AcDbSpline
210
0.0
220
0.0
230
1.0
 70
     8
 71
     2
 72
     6
 73
     3
 74
     0
 42
0.000000001
 43
0.00000001
 40
0.0
 40
0.0
 40
0.0
 40
0.0312499999999998
 40
0.0312499999999998
 40
0.0312499999999998
 10
27.95000000000003
 20
-4.249999999999976
 30
0.0
 10
27.96092314373593
 20
-4.245725527859894
 30
0.0
 10
27.98222634184276
 20
-4.237592666718609
 30
0.0
  0
SPLINE
  5
1BB
330
1F
100
AcDbEntity
  8
SK3
  6
SLD-Dashed
370
    18
100
AcDbSpline
210
0.0
220
0.0
230
1.0
 70
     8
 71
     3
 72
     8
 73
     4
 74
     0
 42
0.000000001
 43
0.00000001
 40
0.0312499999999998
 40
0.0312499999999998
 40
0.0312499999999998
 40
0.0312499999999998
 40
0.0624999999999995
 40
0.0624999999999995
 40
0.0624999999999995
 40
0.0624999999999995
 10
27.98222634184276
 20
-4.237592666718609
 30
0.0
 10
28.0035295399496
 20
-4.229459805577325
 30
0.0
 10
28.03578658900604
 20
-4.217257124950531
 30
0.0
 10
28.07742215732518
 20
-4.202171258647636
 30
0.0
  0
SPLINE
  5
1BC
330
1F
100
AcDbEntity
  8
SK3
  6
SLD-Dashed
370
    18
100
AcDbSpline
210
0.0
220
0.0
230
1.0
 70
     8
 71
     3
 72
     8
 73
     4
 74
     0
 42
0.000000001
 43
0.00000001
 40
0.0624999999999995
 40
0.0624999999999995
 40
0.0624999999999995
 40
0.0624999999999995
 40
0.124999999999999
 40
0.124999999999999
 40
0.124999999999999
 40
0.124999999999999
 10
28.07742215732518
 20
-4.202171258647636
 30
0.0
 10
28.16069329396341
 20
-4.17199952604182
 30
0.0
 10
28.28318588346199
 20
-4.12954446262805
 30
0.0
 10
28.43388843386023
 20
-4.086540858071142
 30
0.0
  0
SPLINE
  5
1BD
330
1F
100
AcDbEntity
  8
SK3
  6
SLD-Dashed
370
    18
100
AcDbSpline
210
0.0
220
0.0
230
1.0
 70
     8
 71
     3
 72
     8
 73
     4
 74
     0
 42
0.000000001
 43
0.00000001
 40
0.124999999999999
 40
0.124999999999999
 40
0.124999999999999
 40
0.124999999999999
 40
0.1874999999999986
 40
0.1874999999999986
 40
0.1874999999999986
 40
0.1874999999999986
 10
28.43388843386023
 20
-4.086540858071142
 30
0.0
 10
28.58459098425844
 20
-4.04353725351424
 30
0.0
 10
28.76662303395824
 20
-3.999538388245041
 30
0.0
 10
28.96465164118532
 20
-3.967829071047344
 30
0.0
  0
SPLINE
  5
1BE
330
1F
100
AcDbEntity
  8
SK3
  6
SLD-Dashed
370
    18
100
AcDbSpline
210
0.0
220
0.0
230
1.0
 70
     8
 71
     3
 72
     8
 73
     4
 74
     0
 42
0.000000001
 43
0.00000001
 40
0.1874999999999986
 40
0.1874999999999986
 40
0.1874999999999986
 40
0.1874999999999986
 40
0.2187499999999983
 40
0.2187499999999983
 40
0.2187499999999983
 40
0.2187499999999983
 10
28.96465164118532
 20
-3.967829071047344
 30
0.0
 10
29.06366594479882
 20
-3.951974412448496
 30
0.0
 10
29.16870172787246
 20
-3.938870882991895
 30
0.0
 10
29.27543534119351
 20
-3.930056261397037
 30
0.0
  0
SPLINE
  5
1BF
330
1F
100
AcDbEntity
  8
SK3
  6
SLD-Dashed
370
    18
100
AcDbSpline
210
0.0
220
0.0
230
1.0
 70
     8
 71
     3
 72
     8
 73
     4
 74
     0
 42
0.000000001
 43
0.00000001
 40
0.2187499999999983
 40
0.2187499999999983
 40
0.2187499999999983
 40
0.2187499999999983
 40
0.2499999999999981
 40
0.2499999999999981
 40
0.2499999999999981
 40
0.2499999999999981
 10
29.27543534119351
 20
-3.930056261397037
 30
0.0
 10
29.38216895451455
 20
-3.921241639802172
 30
0.0
 10
29.48995310260431
 20
-3.916664794656053
 30
0.0
 10
29.59879797866202
 20
-3.916631389964492
 30
0.0
  0
SPLINE
  5
1C0
330
1F
100
AcDbEntity
  8
SK3
  6
SLD-Dashed
370
    18
100
AcDbSpline
210
0.0
220
0.0
230
1.0
 70
     8
 71
     3
 72
     8
 73
     4
 74
     0
 42
0.000000001
 43
0.00000001
 40
0.2499999999999981
 40
0.2499999999999981
 40
0.2499999999999981
 40
0.2499999999999981
 40
0.2812499999999978
 40
0.2812499999999978
 40
0.2812499999999978
 40
0.2812499999999978
 10
29.59879797866202
 20
-3.916631389964492
 30
0.0
 10
29.7076428547197
 20
-3.91659798527292
 30
0.0
 10
29.81816120157653
 20
-3.921271522967305
 30
0.0
 10
29.92446728544304
 20
-3.930048220992032
 30
0.0
  0
SPLINE
  5
1C1
330
1F
100
AcDbEntity
  8
SK3
  6
SLD-Dashed
370
    18
100
AcDbSpline
210
0.0
220
0.0
230
1.0
 70
     8
 71
     3
 72
     8
 73
     4
 74
     0
 42
0.000000001
 43
0.00000001
 40
0.2812499999999978
 40
0.2812499999999978
 40
0.2812499999999978
 40
0.2812499999999978
 40
0.3124999999999976
 40
0.3124999999999976
 40
0.3124999999999976
 40
0.3124999999999976
 10
29.92446728544304
 20
-3.930048220992032
 30
0.0
 10
30.03077336930955
 20
-3.938824919016755
 30
0.0
 10
30.13419954184103
 20
-3.9516469217977
 30
0.0
 10
30.2347710893255
 20
-3.967736676726841
 30
0.0
  0
SPLINE
  5
1C2
330
1F
100
AcDbEntity
  8
SK3
  6
SLD-Dashed
370
    18
100
AcDbSpline
210
0.0
220
0.0
230
1.0
 70
     8
 71
     3
 72
     8
 73
     4
 74
     0
 42
0.000000001
 43
0.00000001
 40
0.3124999999999976
 40
0.3124999999999976
 40
0.3124999999999976
 40
0.3124999999999976
 40
0.3437499999999973
 40
0.3437499999999973
 40
0.3437499999999973
 40
0.3437499999999973
 10
30.2347710893255
 20
-3.967736676726841
 30
0.0
 10
30.33534263680997
 20
-3.983826431655974
 30
0.0
 10
30.4297875159094
 20
-4.002632675730002
 30
0.0
 10
30.5186154628634
 20
-4.022916152321796
 30
0.0
  0
SPLINE
  5
1C3
330
1F
100
AcDbEntity
  8
SK3
  6
SLD-Dashed
370
    18
100
AcDbSpline
210
0.0
220
0.0
230
1.0
 70
     8
 71
     3
 72
     8
 73
     4
 74
     0
 42
0.000000001
 43
0.00000001
 40
0.3437499999999973
 40
0.3437499999999973
 40
0.3437499999999973
 40
0.3437499999999973
 40
0.3749999999999971
 40
0.3749999999999971
 40
0.3749999999999971
 40
0.3749999999999971
 10
30.5186154628634
 20
-4.022916152321796
 30
0.0
 10
30.60744340981741
 20
-4.043199628913588
 30
0.0
 10
30.69135923274083
 20
-4.06519627596482
 30
0.0
 10
30.76692200830244
 20
-4.086772194955384
 30
0.0
  0
SPLINE
  5
1C4
330
1F
100
AcDbEntity
  8
SK3
  6
SLD-Dashed
370
    18
100
AcDbSpline
210
0.0
220
0.0
230
1.0
 70
     8
 71
     3
 72
     8
 73
     4
 74
     0
 42
0.000000001
 43
0.00000001
 40
0.3749999999999971
 40
0.3749999999999971
 40
0.3749999999999971
 40
0.3749999999999971
 40
0.4062499999999968
 40
0.4062499999999968
 40
0.4062499999999968
 40
0.4062499999999968
 10
30.76692200830244
 20
-4.086772194955384
 30
0.0
 10
30.84248478386405
 20
-4.108348113945941
 30
0.0
 10
30.9101605567275
 20
-4.129568016556472
 30
0.0
 10
30.96998377566265
 20
-4.14931988952149
 30
0.0
  0
SPLINE
  5
1C5
330
1F
100
AcDbEntity
  8
SK3
  6
SLD-Dashed
370
    18
100
AcDbSpline
210
0.0
220
0.0
230
1.0
 70
     8
 71
     3
 72
     8
 73
     4
 74
     0
 42
0.000000001
 43
0.00000001
 40
0.4062499999999968
 40
0.4062499999999968
 40
0.4062499999999968
 40
0.4062499999999968
 40
0.4374999999999966
 40
0.4374999999999966
 40
0.4374999999999966
 40
0.4374999999999966
 10
30.96998377566265
 20
-4.14931988952149
 30
0.0
 10
31.0298069945978
 20
-4.169071762486515
 30
0.0
 10
31.0815452485655
 20
-4.187301074802894
 30
0.0
 10
31.12290591315604
 20
-4.202290139950531
 30
0.0
  0
SPLINE
  5
1C6
330
1F
100
AcDbEntity
  8
SK3
  6
SLD-Dashed
370
    18
100
AcDbSpline
210
0.0
220
0.0
230
1.0
 70
     8
 71
     3
 72
     8
 73
     4
 74
     0
 42
0.000000001
 43
0.00000001
 40
0.4374999999999966
 40
0.4374999999999966
 40
0.4374999999999966
 40
0.4374999999999966
 40
0.4999999999999964
 40
0.4999999999999964
 40
0.4999999999999964
 40
0.4999999999999964
 10
31.12290591315604
 20
-4.202290139950531
 30
0.0
 10
31.20562724233711
 20
-4.232268270245809
 30
0.0
 10
31.24993759839653
 20
-4.249975773495944
 30
0.0
 10
31.2499999319468
 20
-4.249999973579318
 30
0.0
  0
SPLINE
  5
1C7
330
1F
100
AcDbEntity
  8
SK3
  6
SLD-Dashed
370
    18
100
AcDbSpline
210
0.0
220
0.0
230
1.0
 70
     8
 71
     3
 72
     8
 73
     4
 74
     0
 42
0.000000001
 43
0.00000001
 40
0.4999999999999964
 40
0.4999999999999964
 40
0.4999999999999964
 40
0.4999999999999964
 40
0.5312499999999964
 40
0.5312499999999964
 40
0.5312499999999964
 40
0.5312499999999964
 10
31.2499999319468
 20
-4.249999973579318
 30
0.0
 10
31.25003109872194
 20
-4.250012073621013
 30
0.0
 10
31.23917886563933
 20
-4.245764120079913
 30
0.0
 10
31.21769232969576
 20
-4.237561618850673
 30
0.0
  0
SPLINE
  5
1C8
330
1F
100
AcDbEntity
  8
SK3
  6
SLD-Dashed
370
    18
100
AcDbSpline
210
0.0
220
0.0
230
1.0
 70
     8
 71
     3
 72
     8
 73
     4
 74
     0
 42
0.000000001
 43
0.00000001
 40
0.5312499999999964
 40
0.5312499999999964
 40
0.5312499999999964
 40
0.5312499999999964
 40
0.5624999999999964
 40
0.5624999999999964
 40
0.5624999999999964
 40
0.5624999999999964
 10
31.21769232969576
 20
-4.237561618850673
 30
0.0
 10
31.19620579375219
 20
-4.229359117621432
 30
0.0
 10
31.16452919304817
 20
-4.217374482287068
 30
0.0
 10
31.12291819473011
 20
-4.202294590796772
 30
0.0
  0
SPLINE
  5
1C9
330
1F
100
AcDbEntity
  8
SK3
  6
SLD-Dashed
370
    18
100
AcDbSpline
210
0.0
220
0.0
230
1.0
 70
     8
 71
     3
 72
     8
 73
     4
 74
     0
 42
0.000000001
 43
0.00000001
 40
0.5624999999999964
 40
0.5624999999999964
 40
0.5624999999999964
 40
0.5624999999999964
 40
0.5937499999999962
 40
0.5937499999999962
 40
0.5937499999999962
 40
0.5937499999999962
 10
31.12291819473011
 20
-4.202294590796772
 30
0.0
 10
31.08130719641204
 20
-4.187214699306476
 30
0.0
 10
31.02945790088475
 20
-4.168954232790453
 30
0.0
 10
30.96980636034195
 20
-4.14926131556366
 30
0.0
  0
SPLINE
  5
1CA
330
1F
100
AcDbEntity
  8
SK3
  6
SLD-Dashed
370
    18
100
AcDbSpline
210
0.0
220
0.0
230
1.0
 70
     8
 71
     3
 72
     8
 73
     4
 74
     0
 42
0.000000001
 43
0.00000001
 40
0.5937499999999962
 40
0.5937499999999962
 40
0.5937499999999962
 40
0.5937499999999962
 40
0.6249999999999962
 40
0.6249999999999962
 40
0.6249999999999962
 40
0.6249999999999962
 10
30.96980636034195
 20
-4.14926131556366
 30
0.0
 10
30.91015481979917
 20
-4.129568398336874
 30
0.0
 10
30.84222859129938
 20
-4.108257500734635
 30
0.0
 10
30.76589739743237
 20
-4.086479749287816
 30
0.0
  0
SPLINE
  5
1CB
330
1F
100
AcDbEntity
  8
SK3
  6
SLD-Dashed
370
    18
100
AcDbSpline
210
0.0
220
0.0
230
1.0
 70
     8
 71
     3
 72
     8
 73
     4
 74
     0
 42
0.000000001
 43
0.00000001
 40
0.6249999999999962
 40
0.6249999999999962
 40
0.6249999999999962
 40
0.6249999999999962
 40
0.6562499999999962
 40
0.6562499999999962
 40
0.6562499999999962
 40
0.6562499999999962
 10
30.76589739743237
 20
-4.086479749287816
 30
0.0
 10
30.68956620356535
 20
-4.064701997840987
 30
0.0
 10
30.60706029071873
 20
-4.043107699085082
 30
0.0
 10
30.51840236083079
 20
-4.022867496746498
 30
0.0
  0
SPLINE
  5
1CC
330
1F
100
AcDbEntity
  8
SK3
  6
SLD-Dashed
370
    18
100
AcDbSpline
210
0.0
220
0.0
230
1.0
 70
     8
 71
     3
 72
     8
 73
     4
 74
     0
 42
0.000000001
 43
0.00000001
 40
0.6562499999999962
 40
0.6562499999999962
 40
0.6562499999999962
 40
0.6562499999999962
 40
0.6874999999999962
 40
0.6874999999999962
 40
0.6874999999999962
 40
0.6874999999999962
 10
30.51840236083079
 20
-4.022867496746498
 30
0.0
 10
30.42974443094286
 20
-4.002627294407913
 30
0.0
 10
30.33375594678132
 20
-3.983553690933429
 30
0.0
 10
30.23399678422497
 20
-3.96761287456418
 30
0.0
  0
SPLINE
  5
1CD
330
1F
100
AcDbEntity
  8
SK3
  6
SLD-Dashed
370
    18
100
AcDbSpline
210
0.0
220
0.0
230
1.0
 70
     8
 71
     3
 72
     8
 73
     4
 74
     0
 42
0.000000001
 43
0.00000001
 40
0.6874999999999962
 40
0.6874999999999962
 40
0.6874999999999962
 40
0.6874999999999962
 40
0.7187499999999962
 40
0.7187499999999962
 40
0.7187499999999962
 40
0.7187499999999962
 10
30.23399678422497
 20
-3.96761287456418
 30
0.0
 10
30.13423762166866
 20
-3.951672058194935
 30
0.0
 10
30.03127893179808
 20
-3.938881143316142
 30
0.0
 10
29.92500526126568
 20
-3.930092673188536
 30
0.0
  0
SPLINE
  5
1CE
330
1F
100
AcDbEntity
  8
SK3
  6
SLD-Dashed
370
    18
100
AcDbSpline
210
0.0
220
0.0
230
1.0
 70
     8
 71
     3
 72
     8
 73
     4
 74
     0
 42
0.000000001
 43
0.00000001
 40
0.7187499999999962
 40
0.7187499999999962
 40
0.7187499999999962
 40
0.7187499999999962
 40
0.7499999999999961
 40
0.7499999999999961
 40
0.7499999999999961
 40
0.7499999999999961
 10
29.92500526126568
 20
-3.930092673188536
 30
0.0
 10
29.81873159073328
 20
-3.92130420306093
 30
0.0
 10
29.70810356419226
 20
-3.916612638561364
 30
0.0
 10
29.59932939262957
 20
-3.916631262924061
 30
0.0
  0
SPLINE
  5
1CF
330
1F
100
AcDbEntity
  8
SK3
  6
SLD-Dashed
370
    18
100
AcDbSpline
210
0.0
220
0.0
230
1.0
 70
     8
 71
     3
 72
     8
 73
     4
 74
     0
 42
0.000000001
 43
0.00000001
 40
0.7499999999999961
 40
0.7499999999999961
 40
0.7499999999999961
 40
0.7499999999999961
 40
0.812499999999997
 40
0.812499999999997
 40
0.812499999999997
 40
0.812499999999997
 10
29.59932939262957
 20
-3.916631262924061
 30
0.0
 10
29.38178104950414
 20
-3.916668511649436
 30
0.0
 10
29.16299757067677
 20
-3.936052885198424
 30
0.0
 10
28.96432223265205
 20
-3.967881830889159
 30
0.0
  0
SPLINE
  5
1D0
330
1F
100
AcDbEntity
  8
SK3
  6
SLD-Dashed
370
    18
100
AcDbSpline
210
0.0
220
0.0
230
1.0
 70
     8
 71
     3
 72
     8
 73
     4
 74
     0
 42
0.000000001
 43
0.00000001
 40
0.812499999999997
 40
0.812499999999997
 40
0.812499999999997
 40
0.812499999999997
 40
0.8437499999999974
 40
0.8437499999999974
 40
0.8437499999999974
 40
0.8437499999999974
 10
28.96432223265205
 20
-3.967881830889159
 30
0.0
 10
28.8649845636397
 20
-3.983796303734532
 30
0.0
 10
28.76893846367395
 20
-4.002891210590439
 30
0.0
 10
28.67982841607184
 20
-4.023271771067511
 30
0.0
  0
SPLINE
  5
1D1
330
1F
100
AcDbEntity
  8
SK3
  6
SLD-Dashed
370
    18
100
AcDbSpline
210
0.0
220
0.0
230
1.0
 70
     8
 71
     3
 72
     8
 73
     4
 74
     0
 42
0.000000001
 43
0.00000001
 40
0.8437499999999974
 40
0.8437499999999974
 40
0.8437499999999974
 40
0.8437499999999974
 40
0.8749999999999979
 40
0.8749999999999979
 40
0.8749999999999979
 40
0.8749999999999979
 10
28.67982841607184
 20
-4.023271771067511
 30
0.0
 10
28.59071836846972
 20
-4.043652331544589
 30
0.0
 10
28.50844438898257
 20
-4.065247134725572
 30
0.0
 10
28.4327707570881
 20
-4.086859932210619
 30
0.0
  0
SPLINE
  5
1D2
330
1F
100
AcDbEntity
  8
SK3
  6
SLD-Dashed
370
    18
100
AcDbSpline
210
0.0
220
0.0
230
1.0
 70
     8
 71
     3
 72
     8
 73
     4
 74
     0
 42
0.000000001
 43
0.00000001
 40
0.8749999999999979
 40
0.8749999999999979
 40
0.8749999999999979
 40
0.8749999999999979
 40
0.9062499999999983
 40
0.9062499999999983
 40
0.9062499999999983
 40
0.9062499999999983
 10
28.4327707570881
 20
-4.086859932210619
 30
0.0
 10
28.35709712519359
 20
-4.108472729695666
 30
0.0
 10
28.28818819134338
 20
-4.1300973868095
 30
0.0
 10
28.22876268289232
 20
-4.149733940848319
 30
0.0
  0
SPLINE
  5
1D3
330
1F
100
AcDbEntity
  8
SK3
  6
SLD-Dashed
370
    18
100
AcDbSpline
210
0.0
220
0.0
230
1.0
 70
     8
 71
     3
 72
     8
 73
     4
 74
     0
 42
0.000000001
 43
0.00000001
 40
0.9062499999999983
 40
0.9062499999999983
 40
0.9062499999999983
 40
0.9062499999999983
 40
0.9374999999999987
 40
0.9374999999999987
 40
0.9374999999999987
 40
0.9374999999999987
 10
28.22876268289232
 20
-4.149733940848319
 30
0.0
 10
28.16933717444127
 20
-4.169370494887144
 30
0.0
 10
28.11852424159148
 20
-4.187272693180651
 30
0.0
 10
28.07672226659233
 20
-4.202424901541431
 30
0.0
  0
SPLINE
  5
1D4
330
1F
100
AcDbEntity
  8
SK3
  6
SLD-Dashed
370
    18
100
AcDbSpline
210
0.0
220
0.0
230
1.0
 70
     8
 71
     2
 72
     6
 73
     3
 74
     0
 42
0.000000001
 43
0.00000001
 40
0.9374999999999987
 40
0.9374999999999987
 40
0.9374999999999987
 40
1.0
 40
1.0
 40
1.0
 10
28.07672226659234
 20
-4.202424901541426
 30
0.0
 10
27.99311831659401
 20
-4.232729318262989
 30
0.0
 10
27.95000000000003
 20
-4.249999999999976
 30
0.0
  0
SPLINE
  5
1D5
330
1F
100
AcDbEntity
  8
SK3
  6
SLD-Dashed
370
    18
100
AcDbSpline
210
0.0
220
0.0
230
1.0
 70
     8
 71
     2
 72
     6
 73
     3
 74
     0
 42
0.000000001
 43
0.00000001
 40
0.0
 40
0.0
 40
0.0
 40
0.0312499999999998
 40
0.0312499999999998
 40
0.0312499999999998
 10
27.95000000000003
 20
-4.249999999999976
 30
0.0
 10
27.96092314373593
 20
-4.245725527859894
 30
0.0
 10
27.98222634184276
 20
-4.237592666718609
 30
0.0
  0
SPLINE
  5
1D6
330
1F
100
AcDbEntity
  8
SK3
  6
SLD-Dashed
370
    18
100
AcDbSpline
210
0.0
220
0.0
230
1.0
 70
     8
 71
     3
 72
     8
 73
     4
 74
     0
 42
0.000000001
 43
0.00000001
 40
0.0312499999999998
 40
0.0312499999999998
 40
0.0312499999999998
 40
0.0312499999999998
 40
0.0624999999999995
 40
0.0624999999999995
 40
0.0624999999999995
 40
0.0624999999999995
 10
27.98222634184276
 20
-4.237592666718609
 30
0.0
 10
28.0035295399496
 20
-4.229459805577325
 30
0.0
 10
28.03578658900604
 20
-4.217257124950531
 30
0.0
 10
28.07742215732518
 20
-4.202171258647636
 30
0.0
  0
SPLINE
  5
1D7
330
1F
100
AcDbEntity
  8
SK3
  6
SLD-Dashed
370
    18
100
AcDbSpline
210
0.0
220
0.0
230
1.0
 70
     8
 71
     3
 72
     8
 73
     4
 74
     0
 42
0.000000001
 43
0.00000001
 40
0.0624999999999995
 40
0.0624999999999995
 40
0.0624999999999995
 40
0.0624999999999995
 40
0.124999999999999
 40
0.124999999999999
 40
0.124999999999999
 40
0.124999999999999
 10
28.07742215732518
 20
-4.202171258647636
 30
0.0
 10
28.16069329396341
 20
-4.17199952604182
 30
0.0
 10
28.28318588346199
 20
-4.12954446262805
 30
0.0
 10
28.43388843386023
 20
-4.086540858071142
 30
0.0
  0
SPLINE
  5
1D8
330
1F
100
AcDbEntity
  8
SK3
  6
SLD-Dashed
370
    18
100
AcDbSpline
210
0.0
220
0.0
230
1.0
 70
     8
 71
     3
 72
     8
 73
     4
 74
     0
 42
0.000000001
 43
0.00000001
 40
0.124999999999999
 40
0.124999999999999
 40
0.124999999999999
 40
0.124999999999999
 40
0.1874999999999986
 40
0.1874999999999986
 40
0.1874999999999986
 40
0.1874999999999986
 10
28.43388843386023
 20
-4.086540858071142
 30
0.0
 10
28.58459098425844
 20
-4.04353725351424
 30
0.0
 10
28.76662303395824
 20
-3.999538388245041
 30
0.0
 10
28.96465164118532
 20
-3.967829071047344
 30
0.0
  0
SPLINE
  5
1D9
330
1F
100
AcDbEntity
  8
SK3
  6
SLD-Dashed
370
    18
100
AcDbSpline
210
0.0
220
0.0
230
1.0
 70
     8
 71
     3
 72
     8
 73
     4
 74
     0
 42
0.000000001
 43
0.00000001
 40
0.1874999999999986
 40
0.1874999999999986
 40
0.1874999999999986
 40
0.1874999999999986
 40
0.2187499999999983
 40
0.2187499999999983
 40
0.2187499999999983
 40
0.2187499999999983
 10
28.96465164118532
 20
-3.967829071047344
 30
0.0
 10
29.06366594479882
 20
-3.951974412448496
 30
0.0
 10
29.16870172787246
 20
-3.938870882991895
 30
0.0
 10
29.27543534119351
 20
-3.930056261397037
 30
0.0
  0
SPLINE
  5
1DA
330
1F
100
AcDbEntity
  8
SK3
  6
SLD-Dashed
370
    18
100
AcDbSpline
210
0.0
220
0.0
230
1.0
 70
     8
 71
     3
 72
     8
 73
     4
 74
     0
 42
0.000000001
 43
0.00000001
 40
0.2187499999999983
 40
0.2187499999999983
 40
0.2187499999999983
 40
0.2187499999999983
 40
0.2499999999999981
 40
0.2499999999999981
 40
0.2499999999999981
 40
0.2499999999999981
 10
29.27543534119351
 20
-3.930056261397037
 30
0.0
 10
29.38216895451455
 20
-3.921241639802172
 30
0.0
 10
29.48995310260431
 20
-3.916664794656053
 30
0.0
 10
29.59879797866202
 20
-3.916631389964492
 30
0.0
  0
SPLINE
  5
1DB
330
1F
100
AcDbEntity
  8
SK3
  6
SLD-Dashed
370
    18
100
AcDbSpline
210
0.0
220
0.0
230
1.0
 70
     8
 71
     3
 72
     8
 73
     4
 74
     0
 42
0.000000001
 43
0.00000001
 40
0.2499999999999981
 40
0.2499999999999981
 40
0.2499999999999981
 40
0.2499999999999981
 40
0.2812499999999978
 40
0.2812499999999978
 40
0.2812499999999978
 40
0.2812499999999978
 10
29.59879797866202
 20
-3.916631389964492
 30
0.0
 10
29.7076428547197
 20
-3.91659798527292
 30
0.0
 10
29.81816120157653
 20
-3.921271522967305
 30
0.0
 10
29.92446728544304
 20
-3.930048220992032
 30
0.0
  0
SPLINE
  5
1DC
330
1F
100
AcDbEntity
  8
SK3
  6
SLD-Dashed
370
    18
100
AcDbSpline
210
0.0
220
0.0
230
1.0
 70
     8
 71
     3
 72
     8
 73
     4
 74
     0
 42
0.000000001
 43
0.00000001
 40
0.2812499999999978
 40
0.2812499999999978
 40
0.2812499999999978
 40
0.2812499999999978
 40
0.3124999999999976
 40
0.3124999999999976
 40
0.3124999999999976
 40
0.3124999999999976
 10
29.92446728544304
 20
-3.930048220992032
 30
0.0
 10
30.03077336930955
 20
-3.938824919016755
 30
0.0
 10
30.13419954184103
 20
-3.9516469217977
 30
0.0
 10
30.2347710893255
 20
-3.967736676726841
 30
0.0
  0
SPLINE
  5
1DD
330
1F
100
AcDbEntity
  8
SK3
  6
SLD-Dashed
370
    18
100
AcDbSpline
210
0.0
220
0.0
230
1.0
 70
     8
 71
     3
 72
     8
 73
     4
 74
     0
 42
0.000000001
 43
0.00000001
 40
0.3124999999999976
 40
0.3124999999999976
 40
0.3124999999999976
 40
0.3124999999999976
 40
0.3437499999999973
 40
0.3437499999999973
 40
0.3437499999999973
 40
0.3437499999999973
 10
30.2347710893255
 20
-3.967736676726841
 30
0.0
 10
30.33534263680997
 20
-3.983826431655974
 30
0.0
 10
30.4297875159094
 20
-4.002632675730002
 30
0.0
 10
30.5186154628634
 20
-4.022916152321796
 30
0.0
  0
SPLINE
  5
1DE
330
1F
100
AcDbEntity
  8
SK3
  6
SLD-Dashed
370
    18
100
AcDbSpline
210
0.0
220
0.0
230
1.0
 70
     8
 71
     3
 72
     8
 73
     4
 74
     0
 42
0.000000001
 43
0.00000001
 40
0.3437499999999973
 40
0.3437499999999973
 40
0.3437499999999973
 40
0.3437499999999973
 40
0.3749999999999971
 40
0.3749999999999971
 40
0.3749999999999971
 40
0.3749999999999971
 10
30.5186154628634
 20
-4.022916152321796
 30
0.0
 10
30.60744340981741
 20
-4.043199628913588
 30
0.0
 10
30.69135923274083
 20
-4.06519627596482
 30
0.0
 10
30.76692200830244
 20
-4.086772194955384
 30
0.0
  0
SPLINE
  5
1DF
330
1F
100
AcDbEntity
  8
SK3
  6
SLD-Dashed
370
    18
100
AcDbSpline
210
0.0
220
0.0
230
1.0
 70
     8
 71
     3
 72
     8
 73
     4
 74
     0
 42
0.000000001
 43
0.00000001
 40
0.3749999999999971
 40
0.3749999999999971
 40
0.3749999999999971
 40
0.3749999999999971
 40
0.4062499999999968
 40
0.4062499999999968
 40
0.4062499999999968
 40
0.4062499999999968
 10
30.76692200830244
 20
-4.086772194955384
 30
0.0
 10
30.84248478386405
 20
-4.108348113945941
 30
0.0
 10
30.9101605567275
 20
-4.129568016556472
 30
0.0
 10
30.96998377566265
 20
-4.14931988952149
 30
0.0
  0
SPLINE
  5
1E0
330
1F
100
AcDbEntity
  8
SK3
  6
SLD-Dashed
370
    18
100
AcDbSpline
210
0.0
220
0.0
230
1.0
 70
     8
 71
     3
 72
     8
 73
     4
 74
     0
 42
0.000000001
 43
0.00000001
 40
0.4062499999999968
 40
0.4062499999999968
 40
0.4062499999999968
 40
0.4062499999999968
 40
0.4374999999999966
 40
0.4374999999999966
 40
0.4374999999999966
 40
0.4374999999999966
 10
30.96998377566265
 20
-4.14931988952149
 30
0.0
 10
31.0298069945978
 20
-4.169071762486515
 30
0.0
 10
31.0815452485655
 20
-4.187301074802894
 30
0.0
 10
31.12290591315604
 20
-4.202290139950531
 30
0.0
  0
SPLINE
  5
1E1
330
1F
100
AcDbEntity
  8
SK3
  6
SLD-Dashed
370
    18
100
AcDbSpline
210
0.0
220
0.0
230
1.0
 70
     8
 71
     3
 72
     8
 73
     4
 74
     0
 42
0.000000001
 43
0.00000001
 40
0.4374999999999966
 40
0.4374999999999966
 40
0.4374999999999966
 40
0.4374999999999966
 40
0.4999999999999964
 40
0.4999999999999964
 40
0.4999999999999964
 40
0.4999999999999964
 10
31.12290591315604
 20
-4.202290139950531
 30
0.0
 10
31.20562724233711
 20
-4.232268270245809
 30
0.0
 10
31.24993759839653
 20
-4.249975773495944
 30
0.0
 10
31.2499999319468
 20
-4.249999973579318
 30
0.0
  0
SPLINE
  5
1E2
330
1F
100
AcDbEntity
  8
SK3
  6
SLD-Dashed
370
    18
100
AcDbSpline
210
0.0
220
0.0
230
1.0
 70
     8
 71
     3
 72
     8
 73
     4
 74
     0
 42
0.000000001
 43
0.00000001
 40
0.4999999999999964
 40
0.4999999999999964
 40
0.4999999999999964
 40
0.4999999999999964
 40
0.5312499999999964
 40
0.5312499999999964
 40
0.5312499999999964
 40
0.5312499999999964
 10
31.2499999319468
 20
-4.249999973579318
 30
0.0
 10
31.25003109872194
 20
-4.250012073621013
 30
0.0
 10
31.23917886563933
 20
-4.245764120079913
 30
0.0
 10
31.21769232969576
 20
-4.237561618850673
 30
0.0
  0
SPLINE
  5
1E3
330
1F
100
AcDbEntity
  8
SK3
  6
SLD-Dashed
370
    18
100
AcDbSpline
210
0.0
220
0.0
230
1.0
 70
     8
 71
     3
 72
     8
 73
     4
 74
     0
 42
0.000000001
 43
0.00000001
 40
0.5312499999999964
 40
0.5312499999999964
 40
0.5312499999999964
 40
0.5312499999999964
 40
0.5624999999999964
 40
0.5624999999999964
 40
0.5624999999999964
 40
0.5624999999999964
 10
31.21769232969576
 20
-4.237561618850673
 30
0.0
 10
31.19620579375219
 20
-4.229359117621432
 30
0.0
 10
31.16452919304817
 20
-4.217374482287068
 30
0.0
 10
31.12291819473011
 20
-4.202294590796772
 30
0.0
  0
SPLINE
  5
1E4
330
1F
100
AcDbEntity
  8
SK3
  6
SLD-Dashed
370
    18
100
AcDbSpline
210
0.0
220
0.0
230
1.0
 70
     8
 71
     3
 72
     8
 73
     4
 74
     0
 42
0.000000001
 43
0.00000001
 40
0.5624999999999964
 40
0.5624999999999964
 40
0.5624999999999964
 40
0.5624999999999964
 40
0.5937499999999962
 40
0.5937499999999962
 40
0.5937499999999962
 40
0.5937499999999962
 10
31.12291819473011
 20
-4.202294590796772
 30
0.0
 10
31.08130719641204
 20
-4.187214699306476
 30
0.0
 10
31.02945790088475
 20
-4.168954232790453
 30
0.0
 10
30.96980636034195
 20
-4.14926131556366
 30
0.0
  0
SPLINE
  5
1E5
330
1F
100
AcDbEntity
  8
SK3
  6
SLD-Dashed
370
    18
100
AcDbSpline
210
0.0
220
0.0
230
1.0
 70
     8
 71
     3
 72
     8
 73
     4
 74
     0
 42
0.000000001
 43
0.00000001
 40
0.5937499999999962
 40
0.5937499999999962
 40
0.5937499999999962
 40
0.5937499999999962
 40
0.6249999999999962
 40
0.6249999999999962
 40
0.6249999999999962
 40
0.6249999999999962
 10
30.96980636034195
 20
-4.14926131556366
 30
0.0
 10
30.91015481979917
 20
-4.129568398336874
 30
0.0
 10
30.84222859129938
 20
-4.108257500734635
 30
0.0
 10
30.76589739743237
 20
-4.086479749287816
 30
0.0
  0
SPLINE
  5
1E6
330
1F
100
AcDbEntity
  8
SK3
  6
SLD-Dashed
370
    18
100
AcDbSpline
210
0.0
220
0.0
230
1.0
 70
     8
 71
     3
 72
     8
 73
     4
 74
     0
 42
0.000000001
 43
0.00000001
 40
0.6249999999999962
 40
0.6249999999999962
 40
0.6249999999999962
 40
0.6249999999999962
 40
0.6562499999999962
 40
0.6562499999999962
 40
0.6562499999999962
 40
0.6562499999999962
 10
30.76589739743237
 20
-4.086479749287816
 30
0.0
 10
30.68956620356535
 20
-4.064701997840987
 30
0.0
 10
30.60706029071873
 20
-4.043107699085082
 30
0.0
 10
30.51840236083079
 20
-4.022867496746498
 30
0.0
  0
SPLINE
  5
1E7
330
1F
100
AcDbEntity
  8
SK3
  6
SLD-Dashed
370
    18
100
AcDbSpline
210
0.0
220
0.0
230
1.0
 70
     8
 71
     3
 72
     8
 73
     4
 74
     0
 42
0.000000001
 43
0.00000001
 40
0.6562499999999962
 40
0.6562499999999962
 40
0.6562499999999962
 40
0.6562499999999962
 40
0.6874999999999962
 40
0.6874999999999962
 40
0.6874999999999962
 40
0.6874999999999962
 10
30.51840236083079
 20
-4.022867496746498
 30
0.0
 10
30.42974443094286
 20
-4.002627294407913
 30
0.0
 10
30.33375594678132
 20
-3.983553690933429
 30
0.0
 10
30.23399678422497
 20
-3.96761287456418
 30
0.0
  0
SPLINE
  5
1E8
330
1F
100
AcDbEntity
  8
SK3
  6
SLD-Dashed
370
    18
100
AcDbSpline
210
0.0
220
0.0
230
1.0
 70
     8
 71
     3
 72
     8
 73
     4
 74
     0
 42
0.000000001
 43
0.00000001
 40
0.6874999999999962
 40
0.6874999999999962
 40
0.6874999999999962
 40
0.6874999999999962
 40
0.7187499999999962
 40
0.7187499999999962
 40
0.7187499999999962
 40
0.7187499999999962
 10
30.23399678422497
 20
-3.96761287456418
 30
0.0
 10
30.13423762166866
 20
-3.951672058194935
 30
0.0
 10
30.03127893179808
 20
-3.938881143316142
 30
0.0
 10
29.92500526126568
 20
-3.930092673188536
 30
0.0
  0
SPLINE
  5
1E9
330
1F
100
AcDbEntity
  8
SK3
  6
SLD-Dashed
370
    18
100
AcDbSpline
210
0.0
220
0.0
230
1.0
 70
     8
 71
     3
 72
     8
 73
     4
 74
     0
 42
0.000000001
 43
0.00000001
 40
0.7187499999999962
 40
0.7187499999999962
 40
0.7187499999999962
 40
0.7187499999999962
 40
0.7499999999999961
 40
0.7499999999999961
 40
0.7499999999999961
 40
0.7499999999999961
 10
29.92500526126568
 20
-3.930092673188536
 30
0.0
 10
29.81873159073328
 20
-3.92130420306093
 30
0.0
 10
29.70810356419226
 20
-3.916612638561364
 30
0.0
 10
29.59932939262957
 20
-3.916631262924061
 30
0.0
  0
SPLINE
  5
1EA
330
1F
100
AcDbEntity
  8
SK3
  6
SLD-Dashed
370
    18
100
AcDbSpline
210
0.0
220
0.0
230
1.0
 70
     8
 71
     3
 72
     8
 73
     4
 74
     0
 42
0.000000001
 43
0.00000001
 40
0.7499999999999961
 40
0.7499999999999961
 40
0.7499999999999961
 40
0.7499999999999961
 40
0.812499999999997
 40
0.812499999999997
 40
0.812499999999997
 40
0.812499999999997
 10
29.59932939262957
 20
-3.916631262924061
 30
0.0
 10
29.38178104950414
 20
-3.916668511649436
 30
0.0
 10
29.16299757067677
 20
-3.936052885198424
 30
0.0
 10
28.96432223265205
 20
-3.967881830889159
 30
0.0
  0
SPLINE
  5
1EB
330
1F
100
AcDbEntity
  8
SK3
  6
SLD-Dashed
370
    18
100
AcDbSpline
210
0.0
220
0.0
230
1.0
 70
     8
 71
     3
 72
     8
 73
     4
 74
     0
 42
0.000000001
 43
0.00000001
 40
0.812499999999997
 40
0.812499999999997
 40
0.812499999999997
 40
0.812499999999997
 40
0.8437499999999974
 40
0.8437499999999974
 40
0.8437499999999974
 40
0.8437499999999974
 10
28.96432223265205
 20
-3.967881830889159
 30
0.0
 10
28.8649845636397
 20
-3.983796303734532
 30
0.0
 10
28.76893846367395
 20
-4.002891210590439
 30
0.0
 10
28.67982841607184
 20
-4.023271771067511
 30
0.0
  0
SPLINE
  5
1EC
330
1F
100
AcDbEntity
  8
SK3
  6
SLD-Dashed
370
    18
100
AcDbSpline
210
0.0
220
0.0
230
1.0
 70
     8
 71
     3
 72
     8
 73
     4
 74
     0
 42
0.000000001
 43
0.00000001
 40
0.8437499999999974
 40
0.8437499999999974
 40
0.8437499999999974
 40
0.8437499999999974
 40
0.8749999999999979
 40
0.8749999999999979
 40
0.8749999999999979
 40
0.8749999999999979
 10
28.67982841607184
 20
-4.023271771067511
 30
0.0
 10
28.59071836846972
 20
-4.043652331544589
 30
0.0
 10
28.50844438898257
 20
-4.065247134725572
 30
0.0
 10
28.4327707570881
 20
-4.086859932210619
 30
0.0
  0
SPLINE
  5
1ED
330
1F
100
AcDbEntity
  8
SK3
  6
SLD-Dashed
370
    18
100
AcDbSpline
210
0.0
220
0.0
230
1.0
 70
     8
 71
     3
 72
     8
 73
     4
 74
     0
 42
0.000000001
 43
0.00000001
 40
0.8749999999999979
 40
0.8749999999999979
 40
0.8749999999999979
 40
0.8749999999999979
 40
0.9062499999999983
 40
0.9062499999999983
 40
0.9062499999999983
 40
0.9062499999999983
 10
28.4327707570881
 20
-4.086859932210619
 30
0.0
 10
28.35709712519359
 20
-4.108472729695666
 30
0.0
 10
28.28818819134338
 20
-4.1300973868095
 30
0.0
 10
28.22876268289232
 20
-4.149733940848319
 30
0.0
  0
SPLINE
  5
1EE
330
1F
100
AcDbEntity
  8
SK3
  6
SLD-Dashed
370
    18
100
AcDbSpline
210
0.0
220
0.0
230
1.0
 70
     8
 71
     3
 72
     8
 73
     4
 74
     0
 42
0.000000001
 43
0.00000001
 40
0.9062499999999983
 40
0.9062499999999983
 40
0.9062499999999983
 40
0.9062499999999983
 40
0.9374999999999987
 40
0.9374999999999987
 40
0.9374999999999987
 40
0.9374999999999987
 10
28.22876268289232
 20
-4.149733940848319
 30
0.0
 10
28.16933717444127
 20
-4.169370494887144
 30
0.0
 10
28.11852424159148
 20
-4.187272693180651
 30
0.0
 10
28.07672226659233
 20
-4.202424901541431
 30
0.0
  0
SPLINE
  5
1EF
330
1F
100
AcDbEntity
  8
SK3
  6
SLD-Dashed
370
    18
100
AcDbSpline
210
0.0
220
0.0
230
1.0
 70
     8
 71
     2
 72
     6
 73
     3
 74
     0
 42
0.000000001
 43
0.00000001
 40
0.9374999999999987
 40
0.9374999999999987
 40
0.9374999999999987
 40
1.0
 40
1.0
 40
1.0
 10
28.07672226659234
 20
-4.202424901541426
 30
0.0
 10
27.99311831659401
 20
-4.232729318262989
 30
0.0
 10
27.95000000000003
 20
-4.249999999999976
 30
0.0
  0
SPLINE
  5
1F0
330
1F
100
AcDbEntity
  8
SK3
  6
SLD-Dashed
370
    18
100
AcDbSpline
210
0.0
220
0.0
230
1.0
 70
     8
 71
     2
 72
     6
 73
     3
 74
     0
 42
0.000000001
 43
0.00000001
 40
0.0
 40
0.0
 40
0.0
 40
0.03125
 40
0.03125
 40
0.03125
 10
31.24999999999999
 20
4.249999999999983
 30
0.0
 10
31.23907685626411
 20
4.2457255278599
 30
0.0
 10
31.21777365815727
 20
4.237592666718617
 30
0.0
  0
SPLINE
  5
1F1
330
1F
100
AcDbEntity
  8
SK3
  6
SLD-Dashed
370
    18
100
AcDbSpline
210
0.0
220
0.0
230
1.0
 70
     8
 71
     3
 72
     8
 73
     4
 74
     0
 42
0.000000001
 43
0.00000001
 40
0.03125
 40
0.03125
 40
0.03125
 40
0.03125
 40
0.0625
 40
0.0625
 40
0.0625
 40
0.0625
 10
31.21777365815727
 20
4.237592666718617
 30
0.0
 10
31.19647046005043
 20
4.229459805577332
 30
0.0
 10
31.16421341099396
 20
4.217257124950545
 30
0.0
 10
31.12257784267484
 20
4.202171258647643
 30
0.0
  0
SPLINE
  5
1F2
330
1F
100
AcDbEntity
  8
SK3
  6
SLD-Dashed
370
    18
100
AcDbSpline
210
0.0
220
0.0
230
1.0
 70
     8
 71
     3
 72
     8
 73
     4
 74
     0
 42
0.000000001
 43
0.00000001
 40
0.0625
 40
0.0625
 40
0.0625
 40
0.0625
 40
0.1250000000000001
 40
0.1250000000000001
 40
0.1250000000000001
 40
0.1250000000000001
 10
31.12257784267484
 20
4.202171258647643
 30
0.0
 10
31.03930670603659
 20
4.17199952604182
 30
0.0
 10
30.91681411653803
 20
4.129544462628056
 30
0.0
 10
30.76611156613979
 20
4.086540858071149
 30
0.0
  0
SPLINE
  5
1F3
330
1F
100
AcDbEntity
  8
SK3
  6
SLD-Dashed
370
    18
100
AcDbSpline
210
0.0
220
0.0
230
1.0
 70
     8
 71
     3
 72
     8
 73
     4
 74
     0
 42
0.000000001
 43
0.00000001
 40
0.1250000000000001
 40
0.1250000000000001
 40
0.1250000000000001
 40
0.1250000000000001
 40
0.1875000000000001
 40
0.1875000000000001
 40
0.1875000000000001
 40
0.1875000000000001
 10
30.76611156613979
 20
4.086540858071149
 30
0.0
 10
30.61540901574157
 20
4.04353725351424
 30
0.0
 10
30.4333769660418
 20
3.999538388245037
 30
0.0
 10
30.23534835881472
 20
3.967829071047351
 30
0.0
  0
SPLINE
  5
1F4
330
1F
100
AcDbEntity
  8
SK3
  6
SLD-Dashed
370
    18
100
AcDbSpline
210
0.0
220
0.0
230
1.0
 70
     8
 71
     3
 72
     8
 73
     4
 74
     0
 42
0.000000001
 43
0.00000001
 40
0.1875000000000001
 40
0.1875000000000001
 40
0.1875000000000001
 40
0.1875000000000001
 40
0.2187500000000001
 40
0.2187500000000001
 40
0.2187500000000001
 40
0.2187500000000001
 10
30.23534835881472
 20
3.967829071047351
 30
0.0
 10
30.13633405520121
 20
3.951974412448503
 30
0.0
 10
30.03129827212757
 20
3.938870882991902
 30
0.0
 10
29.92456465880652
 20
3.930056261397037
 30
0.0
  0
SPLINE
  5
1F5
330
1F
100
AcDbEntity
  8
SK3
  6
SLD-Dashed
370
    18
100
AcDbSpline
210
0.0
220
0.0
230
1.0
 70
     8
 71
     3
 72
     8
 73
     4
 74
     0
 42
0.000000001
 43
0.00000001
 40
0.2187500000000001
 40
0.2187500000000001
 40
0.2187500000000001
 40
0.2187500000000001
 40
0.2500000000000001
 40
0.2500000000000001
 40
0.2500000000000001
 40
0.2500000000000001
 10
29.92456465880652
 20
3.930056261397037
 30
0.0
 10
29.81783104548548
 20
3.921241639802172
 30
0.0
 10
29.7100468973957
 20
3.916664794656053
 30
0.0
 10
29.60120202133799
 20
3.916631389964488
 30
0.0
  0
SPLINE
  5
1F6
330
1F
100
AcDbEntity
  8
SK3
  6
SLD-Dashed
370
    18
100
AcDbSpline
210
0.0
220
0.0
230
1.0
 70
     8
 71
     3
 72
     8
 73
     4
 74
     0
 42
0.000000001
 43
0.00000001
 40
0.2500000000000001
 40
0.2500000000000001
 40
0.2500000000000001
 40
0.2500000000000001
 40
0.2812500000000001
 40
0.2812500000000001
 40
0.2812500000000001
 40
0.2812500000000001
 10
29.60120202133799
 20
3.916631389964488
 30
0.0
 10
29.49235714528028
 20
3.916597985272927
 30
0.0
 10
29.38183879842353
 20
3.921271522967312
 30
0.0
 10
29.275532714557
 20
3.930048220992039
 30
0.0
  0
SPLINE
  5
1F7
330
1F
100
AcDbEntity
  8
SK3
  6
SLD-Dashed
370
    18
100
AcDbSpline
210
0.0
220
0.0
230
1.0
 70
     8
 71
     3
 72
     8
 73
     4
 74
     0
 42
0.000000001
 43
0.00000001
 40
0.2812500000000001
 40
0.2812500000000001
 40
0.2812500000000001
 40
0.2812500000000001
 40
0.3125000000000001
 40
0.3125000000000001
 40
0.3125000000000001
 40
0.3125000000000001
 10
29.275532714557
 20
3.930048220992039
 30
0.0
 10
29.16922663069046
 20
3.938824919016755
 30
0.0
 10
29.065800458159
 20
3.9516469217977
 30
0.0
 10
28.96522891067453
 20
3.967736676726834
 30
0.0
  0
SPLINE
  5
1F8
330
1F
100
AcDbEntity
  8
SK3
  6
SLD-Dashed
370
    18
100
AcDbSpline
210
0.0
220
0.0
230
1.0
 70
     8
 71
     3
 72
     8
 73
     4
 74
     0
 42
0.000000001
 43
0.00000001
 40
0.3125000000000001
 40
0.3125000000000001
 40
0.3125000000000001
 40
0.3125000000000001
 40
0.3437500000000001
 40
0.3437500000000001
 40
0.3437500000000001
 40
0.3437500000000001
 10
28.96522891067453
 20
3.967736676726834
 30
0.0
 10
28.86465736319006
 20
3.983826431655967
 30
0.0
 10
28.77021248409063
 20
4.002632675730009
 30
0.0
 10
28.6813845371366
 20
4.022916152321803
 30
0.0
  0
SPLINE
  5
1F9
330
1F
100
AcDbEntity
  8
SK3
  6
SLD-Dashed
370
    18
100
AcDbSpline
210
0.0
220
0.0
230
1.0
 70
     8
 71
     3
 72
     8
 73
     4
 74
     0
 42
0.000000001
 43
0.00000001
 40
0.3437500000000001
 40
0.3437500000000001
 40
0.3437500000000001
 40
0.3437500000000001
 40
0.3750000000000002
 40
0.3750000000000002
 40
0.3750000000000002
 40
0.3750000000000002
 10
28.6813845371366
 20
4.022916152321803
 30
0.0
 10
28.59255659018256
 20
4.043199628913588
 30
0.0
 10
28.50864076725916
 20
4.065196275964827
 30
0.0
 10
28.43307799169757
 20
4.086772194955391
 30
0.0
  0
SPLINE
  5
1FA
330
1F
100
AcDbEntity
  8
SK3
  6
SLD-Dashed
370
    18
100
AcDbSpline
210
0.0
220
0.0
230
1.0
 70
     8
 71
     3
 72
     8
 73
     4
 74
     0
 42
0.000000001
 43
0.00000001
 40
0.3750000000000002
 40
0.3750000000000002
 40
0.3750000000000002
 40
0.3750000000000002
 40
0.4062500000000002
 40
0.4062500000000002
 40
0.4062500000000002
 40
0.4062500000000002
 10
28.43307799169757
 20
4.086772194955391
 30
0.0
 10
28.35751521613597
 20
4.108348113945954
 30
0.0
 10
28.28983944327253
 20
4.129568016556479
 30
0.0
 10
28.23001622433738
 20
4.149319889521504
 30
0.0
  0
SPLINE
  5
1FB
330
1F
100
AcDbEntity
  8
SK3
  6
SLD-Dashed
370
    18
100
AcDbSpline
210
0.0
220
0.0
230
1.0
 70
     8
 71
     3
 72
     8
 73
     4
 74
     0
 42
0.000000001
 43
0.00000001
 40
0.4062500000000002
 40
0.4062500000000002
 40
0.4062500000000002
 40
0.4062500000000002
 40
0.4375000000000002
 40
0.4375000000000002
 40
0.4375000000000002
 40
0.4375000000000002
 10
28.23001622433738
 20
4.149319889521504
 30
0.0
 10
28.17019300540221
 20
4.169071762486529
 30
0.0
 10
28.11845475143453
 20
4.187301074802908
 30
0.0
 10
28.07709408684397
 20
4.202290139950545
 30
0.0
  0
SPLINE
  5
1FC
330
1F
100
AcDbEntity
  8
SK3
  6
SLD-Dashed
370
    18
100
AcDbSpline
210
0.0
220
0.0
230
1.0
 70
     8
 71
     3
 72
     8
 73
     4
 74
     0
 42
0.000000001
 43
0.00000001
 40
0.4375000000000002
 40
0.4375000000000002
 40
0.4375000000000002
 40
0.4375000000000002
 40
0.4999999999999998
 40
0.4999999999999998
 40
0.4999999999999998
 40
0.4999999999999998
 10
28.07709408684397
 20
4.202290139950545
 30
0.0
 10
27.99437275766287
 20
4.232268270245823
 30
0.0
 10
27.95006240160352
 20
4.249975773495951
 30
0.0
 10
27.95000006805322
 20
4.249999973579333
 30
0.0
  0
SPLINE
  5
1FD
330
1F
100
AcDbEntity
  8
SK3
  6
SLD-Dashed
370
    18
100
AcDbSpline
210
0.0
220
0.0
230
1.0
 70
     8
 71
     3
 72
     8
 73
     4
 74
     0
 42
0.000000001
 43
0.00000001
 40
0.4999999999999998
 40
0.4999999999999998
 40
0.4999999999999998
 40
0.4999999999999998
 40
0.5312499999999996
 40
0.5312499999999996
 40
0.5312499999999996
 40
0.5312499999999996
 10
27.95000006805322
 20
4.249999973579333
 30
0.0
 10
27.94996890127809
 20
4.25001207362102
 30
0.0
 10
27.9608211343607
 20
4.245764120079921
 30
0.0
 10
27.98230767030427
 20
4.23756161885068
 30
0.0
  0
SPLINE
  5
1FE
330
1F
100
AcDbEntity
  8
SK3
  6
SLD-Dashed
370
    18
100
AcDbSpline
210
0.0
220
0.0
230
1.0
 70
     8
 71
     3
 72
     8
 73
     4
 74
     0
 42
0.000000001
 43
0.00000001
 40
0.5312499999999996
 40
0.5312499999999996
 40
0.5312499999999996
 40
0.5312499999999996
 40
0.5624999999999993
 40
0.5624999999999993
 40
0.5624999999999993
 40
0.5624999999999993
 10
27.98230767030427
 20
4.23756161885068
 30
0.0
 10
28.00379420624781
 20
4.229359117621432
 30
0.0
 10
28.03547080695186
 20
4.217374482287075
 30
0.0
 10
28.07708180526992
 20
4.202294590796785
 30
0.0
  0
SPLINE
  5
1FF
330
1F
100
AcDbEntity
  8
SK3
  6
SLD-Dashed
370
    18
100
AcDbSpline
210
0.0
220
0.0
230
1.0
 70
     8
 71
     3
 72
     8
 73
     4
 74
     0
 42
0.000000001
 43
0.00000001
 40
0.5624999999999993
 40
0.5624999999999993
 40
0.5624999999999993
 40
0.5624999999999993
 40
0.5937499999999991
 40
0.5937499999999991
 40
0.5937499999999991
 40
0.5937499999999991
 10
28.07708180526992
 20
4.202294590796785
 30
0.0
 10
28.11869280358799
 20
4.187214699306489
 30
0.0
 10
28.17054209911528
 20
4.168954232790459
 30
0.0
 10
28.23019363965806
 20
4.149261315563674
 30
0.0
  0
SPLINE
  5
200
330
1F
100
AcDbEntity
  8
SK3
  6
SLD-Dashed
370
    18
100
AcDbSpline
210
0.0
220
0.0
230
1.0
 70
     8
 71
     3
 72
     8
 73
     4
 74
     0
 42
0.000000001
 43
0.00000001
 40
0.5937499999999991
 40
0.5937499999999991
 40
0.5937499999999991
 40
0.5937499999999991
 40
0.6249999999999989
 40
0.6249999999999989
 40
0.6249999999999989
 40
0.6249999999999989
 10
28.23019363965806
 20
4.149261315563674
 30
0.0
 10
28.28984518020084
 20
4.129568398336888
 30
0.0
 10
28.35777140870063
 20
4.108257500734635
 30
0.0
 10
28.43410260256767
 20
4.086479749287813
 30
0.0
  0
SPLINE
  5
201
330
1F
100
AcDbEntity
  8
SK3
  6
SLD-Dashed
370
    18
100
AcDbSpline
210
0.0
220
0.0
230
1.0
 70
     8
 71
     3
 72
     8
 73
     4
 74
     0
 42
0.000000001
 43
0.00000001
 40
0.6249999999999989
 40
0.6249999999999989
 40
0.6249999999999989
 40
0.6249999999999989
 40
0.6562499999999987
 40
0.6562499999999987
 40
0.6562499999999987
 40
0.6562499999999987
 10
28.43410260256767
 20
4.086479749287813
 30
0.0
 10
28.51043379643468
 20
4.064701997840994
 30
0.0
 10
28.59293970928127
 20
4.043107699085089
 30
0.0
 10
28.68159763916921
 20
4.022867496746504
 30
0.0
  0
SPLINE
  5
202
330
1F
100
AcDbEntity
  8
SK3
  6
SLD-Dashed
370
    18
100
AcDbSpline
210
0.0
220
0.0
230
1.0
 70
     8
 71
     3
 72
     8
 73
     4
 74
     0
 42
0.000000001
 43
0.00000001
 40
0.6562499999999987
 40
0.6562499999999987
 40
0.6562499999999987
 40
0.6562499999999987
 40
0.6874999999999984
 40
0.6874999999999984
 40
0.6874999999999984
 40
0.6874999999999984
 10
28.68159763916921
 20
4.022867496746504
 30
0.0
 10
28.77025556905717
 20
4.00262729440792
 30
0.0
 10
28.86624405321871
 20
3.983553690933436
 30
0.0
 10
28.96600321577503
 20
3.967612874564184
 30
0.0
  0
SPLINE
  5
203
330
1F
100
AcDbEntity
  8
SK3
  6
SLD-Dashed
370
    18
100
AcDbSpline
210
0.0
220
0.0
230
1.0
 70
     8
 71
     3
 72
     8
 73
     4
 74
     0
 42
0.000000001
 43
0.00000001
 40
0.6874999999999984
 40
0.6874999999999984
 40
0.6874999999999984
 40
0.6874999999999984
 40
0.7187499999999982
 40
0.7187499999999982
 40
0.7187499999999982
 40
0.7187499999999982
 10
28.96600321577503
 20
3.967612874564184
 30
0.0
 10
29.06576237833136
 20
3.951672058194935
 30
0.0
 10
29.16872106820193
 20
3.938881143316149
 30
0.0
 10
29.27499473873432
 20
3.930092673188543
 30
0.0
  0
SPLINE
  5
204
330
1F
100
AcDbEntity
  8
SK3
  6
SLD-Dashed
370
    18
100
AcDbSpline
210
0.0
220
0.0
230
1.0
 70
     8
 71
     3
 72
     8
 73
     4
 74
     0
 42
0.000000001
 43
0.00000001
 40
0.7187499999999982
 40
0.7187499999999982
 40
0.7187499999999982
 40
0.7187499999999982
 40
0.749999999999998
 40
0.749999999999998
 40
0.749999999999998
 40
0.749999999999998
 10
29.27499473873432
 20
3.930092673188543
 30
0.0
 10
29.38126840926671
 20
3.921304203060937
 30
0.0
 10
29.49189643580775
 20
3.91661263856137
 30
0.0
 10
29.60067060737045
 20
3.916631262924061
 30
0.0
  0
SPLINE
  5
205
330
1F
100
AcDbEntity
  8
SK3
  6
SLD-Dashed
370
    18
100
AcDbSpline
210
0.0
220
0.0
230
1.0
 70
     8
 71
     3
 72
     8
 73
     4
 74
     0
 42
0.000000001
 43
0.00000001
 40
0.749999999999998
 40
0.749999999999998
 40
0.749999999999998
 40
0.749999999999998
 40
0.8124999999999987
 40
0.8124999999999987
 40
0.8124999999999987
 40
0.8124999999999987
 10
29.60067060737045
 20
3.916631262924061
 30
0.0
 10
29.81821895049588
 20
3.916668511649443
 30
0.0
 10
30.03700242932327
 20
3.936052885198431
 30
0.0
 10
30.23567776734794
 20
3.967881830889173
 30
0.0
  0
SPLINE
  5
206
330
1F
100
AcDbEntity
  8
SK3
  6
SLD-Dashed
370
    18
100
AcDbSpline
210
0.0
220
0.0
230
1.0
 70
     8
 71
     3
 72
     8
 73
     4
 74
     0
 42
0.000000001
 43
0.00000001
 40
0.8124999999999987
 40
0.8124999999999987
 40
0.8124999999999987
 40
0.8124999999999987
 40
0.843749999999999
 40
0.843749999999999
 40
0.843749999999999
 40
0.843749999999999
 10
30.23567776734794
 20
3.967881830889173
 30
0.0
 10
30.33501543636029
 20
3.983796303734532
 30
0.0
 10
30.43106153632605
 20
4.002891210590446
 30
0.0
 10
30.52017158392817
 20
4.023271771067518
 30
0.0
  0
SPLINE
  5
207
330
1F
100
AcDbEntity
  8
SK3
  6
SLD-Dashed
370
    18
100
AcDbSpline
210
0.0
220
0.0
230
1.0
 70
     8
 71
     3
 72
     8
 73
     4
 74
     0
 42
0.000000001
 43
0.00000001
 40
0.843749999999999
 40
0.843749999999999
 40
0.843749999999999
 40
0.843749999999999
 40
0.8749999999999993
 40
0.8749999999999993
 40
0.8749999999999993
 40
0.8749999999999993
 10
30.52017158392817
 20
4.023271771067518
 30
0.0
 10
30.6092816315303
 20
4.043652331544589
 30
0.0
 10
30.69155561101741
 20
4.065247134725586
 30
0.0
 10
30.76722924291192
 20
4.086859932210634
 30
0.0
  0
SPLINE
  5
208
330
1F
100
AcDbEntity
  8
SK3
  6
SLD-Dashed
370
    18
100
AcDbSpline
210
0.0
220
0.0
230
1.0
 70
     8
 71
     3
 72
     8
 73
     4
 74
     0
 42
0.000000001
 43
0.00000001
 40
0.8749999999999993
 40
0.8749999999999993
 40
0.8749999999999993
 40
0.8749999999999993
 40
0.9062499999999997
 40
0.9062499999999997
 40
0.9062499999999997
 40
0.9062499999999997
 10
30.76722924291192
 20
4.086859932210634
 30
0.0
 10
30.84290287480644
 20
4.108472729695674
 30
0.0
 10
30.91181180865667
 20
4.130097386809514
 30
0.0
 10
30.97123731710771
 20
4.149733940848332
 30
0.0
  0
SPLINE
  5
209
330
1F
100
AcDbEntity
  8
SK3
  6
SLD-Dashed
370
    18
100
AcDbSpline
210
0.0
220
0.0
230
1.0
 70
     8
 71
     3
 72
     8
 73
     4
 74
     0
 42
0.000000001
 43
0.00000001
 40
0.9062499999999997
 40
0.9062499999999997
 40
0.9062499999999997
 40
0.9062499999999997
 40
0.9374999999999999
 40
0.9374999999999999
 40
0.9374999999999999
 40
0.9374999999999999
 10
30.97123731710771
 20
4.149733940848332
 30
0.0
 10
31.03066282555876
 20
4.169370494887151
 30
0.0
 10
31.08147575840857
 20
4.187272693180664
 30
0.0
 10
31.12327773340771
 20
4.202424901541439
 30
0.0
  0
SPLINE
  5
20A
330
1F
100
AcDbEntity
  8
SK3
  6
SLD-Dashed
370
    18
100
AcDbSpline
210
0.0
220
0.0
230
1.0
 70
     8
 71
     2
 72
     6
 73
     3
 74
     0
 42
0.000000001
 43
0.00000001
 40
0.9374999999999999
 40
0.9374999999999999
 40
0.9374999999999999
 40
1.0
 40
1.0
 40
1.0
 10
31.1232777334077
 20
4.202424901541432
 30
0.0
 10
31.206881683406
 20
4.232729318262992
 30
0.0
 10
31.24999999999999
 20
4.249999999999983
 30
0.0
  0
SPLINE
  5
20B
330
1F
100
AcDbEntity
  8
SK3
  6
SLD-Dashed
370
    18
100
AcDbSpline
210
0.0
220
0.0
230
1.0
 70
     8
 71
     2
 72
     6
 73
     3
 74
     0
 42
0.000000001
 43
0.00000001
 40
0.0
 40
0.0
 40
0.0
 40
0.03125
 40
0.03125
 40
0.03125
 10
31.24999999999999
 20
4.249999999999983
 30
0.0
 10
31.23907685626411
 20
4.2457255278599
 30
0.0
 10
31.21777365815727
 20
4.237592666718617
 30
0.0
  0
SPLINE
  5
20C
330
1F
100
AcDbEntity
  8
SK3
  6
SLD-Dashed
370
    18
100
AcDbSpline
210
0.0
220
0.0
230
1.0
 70
     8
 71
     3
 72
     8
 73
     4
 74
     0
 42
0.000000001
 43
0.00000001
 40
0.03125
 40
0.03125
 40
0.03125
 40
0.03125
 40
0.0625
 40
0.0625
 40
0.0625
 40
0.0625
 10
31.21777365815727
 20
4.237592666718617
 30
0.0
 10
31.19647046005043
 20
4.229459805577332
 30
0.0
 10
31.16421341099396
 20
4.217257124950545
 30
0.0
 10
31.12257784267484
 20
4.202171258647643
 30
0.0
  0
SPLINE
  5
20D
330
1F
100
AcDbEntity
  8
SK3
  6
SLD-Dashed
370
    18
100
AcDbSpline
210
0.0
220
0.0
230
1.0
 70
     8
 71
     3
 72
     8
 73
     4
 74
     0
 42
0.000000001
 43
0.00000001
 40
0.0625
 40
0.0625
 40
0.0625
 40
0.0625
 40
0.1250000000000001
 40
0.1250000000000001
 40
0.1250000000000001
 40
0.1250000000000001
 10
31.12257784267484
 20
4.202171258647643
 30
0.0
 10
31.03930670603659
 20
4.17199952604182
 30
0.0
 10
30.91681411653803
 20
4.129544462628056
 30
0.0
 10
30.76611156613979
 20
4.086540858071149
 30
0.0
  0
SPLINE
  5
20E
330
1F
100
AcDbEntity
  8
SK3
  6
SLD-Dashed
370
    18
100
AcDbSpline
210
0.0
220
0.0
230
1.0
 70
     8
 71
     3
 72
     8
 73
     4
 74
     0
 42
0.000000001
 43
0.00000001
 40
0.1250000000000001
 40
0.1250000000000001
 40
0.1250000000000001
 40
0.1250000000000001
 40
0.1875000000000001
 40
0.1875000000000001
 40
0.1875000000000001
 40
0.1875000000000001
 10
30.76611156613979
 20
4.086540858071149
 30
0.0
 10
30.61540901574157
 20
4.04353725351424
 30
0.0
 10
30.4333769660418
 20
3.999538388245037
 30
0.0
 10
30.23534835881472
 20
3.967829071047351
 30
0.0
  0
SPLINE
  5
20F
330
1F
100
AcDbEntity
  8
SK3
  6
SLD-Dashed
370
    18
100
AcDbSpline
210
0.0
220
0.0
230
1.0
 70
     8
 71
     3
 72
     8
 73
     4
 74
     0
 42
0.000000001
 43
0.00000001
 40
0.1875000000000001
 40
0.1875000000000001
 40
0.1875000000000001
 40
0.1875000000000001
 40
0.2187500000000001
 40
0.2187500000000001
 40
0.2187500000000001
 40
0.2187500000000001
 10
30.23534835881472
 20
3.967829071047351
 30
0.0
 10
30.13633405520121
 20
3.951974412448503
 30
0.0
 10
30.03129827212757
 20
3.938870882991902
 30
0.0
 10
29.92456465880652
 20
3.930056261397037
 30
0.0
  0
SPLINE
  5
210
330
1F
100
AcDbEntity
  8
SK3
  6
SLD-Dashed
370
    18
100
AcDbSpline
210
0.0
220
0.0
230
1.0
 70
     8
 71
     3
 72
     8
 73
     4
 74
     0
 42
0.000000001
 43
0.00000001
 40
0.2187500000000001
 40
0.2187500000000001
 40
0.2187500000000001
 40
0.2187500000000001
 40
0.2500000000000001
 40
0.2500000000000001
 40
0.2500000000000001
 40
0.2500000000000001
 10
29.92456465880652
 20
3.930056261397037
 30
0.0
 10
29.81783104548548
 20
3.921241639802172
 30
0.0
 10
29.7100468973957
 20
3.916664794656053
 30
0.0
 10
29.60120202133799
 20
3.916631389964488
 30
0.0
  0
SPLINE
  5
211
330
1F
100
AcDbEntity
  8
SK3
  6
SLD-Dashed
370
    18
100
AcDbSpline
210
0.0
220
0.0
230
1.0
 70
     8
 71
     3
 72
     8
 73
     4
 74
     0
 42
0.000000001
 43
0.00000001
 40
0.2500000000000001
 40
0.2500000000000001
 40
0.2500000000000001
 40
0.2500000000000001
 40
0.2812500000000001
 40
0.2812500000000001
 40
0.2812500000000001
 40
0.2812500000000001
 10
29.60120202133799
 20
3.916631389964488
 30
0.0
 10
29.49235714528028
 20
3.916597985272927
 30
0.0
 10
29.38183879842353
 20
3.921271522967312
 30
0.0
 10
29.275532714557
 20
3.930048220992039
 30
0.0
  0
SPLINE
  5
212
330
1F
100
AcDbEntity
  8
SK3
  6
SLD-Dashed
370
    18
100
AcDbSpline
210
0.0
220
0.0
230
1.0
 70
     8
 71
     3
 72
     8
 73
     4
 74
     0
 42
0.000000001
 43
0.00000001
 40
0.2812500000000001
 40
0.2812500000000001
 40
0.2812500000000001
 40
0.2812500000000001
 40
0.3125000000000001
 40
0.3125000000000001
 40
0.3125000000000001
 40
0.3125000000000001
 10
29.275532714557
 20
3.930048220992039
 30
0.0
 10
29.16922663069046
 20
3.938824919016755
 30
0.0
 10
29.065800458159
 20
3.9516469217977
 30
0.0
 10
28.96522891067453
 20
3.967736676726834
 30
0.0
  0
SPLINE
  5
213
330
1F
100
AcDbEntity
  8
SK3
  6
SLD-Dashed
370
    18
100
AcDbSpline
210
0.0
220
0.0
230
1.0
 70
     8
 71
     3
 72
     8
 73
     4
 74
     0
 42
0.000000001
 43
0.00000001
 40
0.3125000000000001
 40
0.3125000000000001
 40
0.3125000000000001
 40
0.3125000000000001
 40
0.3437500000000001
 40
0.3437500000000001
 40
0.3437500000000001
 40
0.3437500000000001
 10
28.96522891067453
 20
3.967736676726834
 30
0.0
 10
28.86465736319006
 20
3.983826431655967
 30
0.0
 10
28.77021248409063
 20
4.002632675730009
 30
0.0
 10
28.6813845371366
 20
4.022916152321803
 30
0.0
  0
SPLINE
  5
214
330
1F
100
AcDbEntity
  8
SK3
  6
SLD-Dashed
370
    18
100
AcDbSpline
210
0.0
220
0.0
230
1.0
 70
     8
 71
     3
 72
     8
 73
     4
 74
     0
 42
0.000000001
 43
0.00000001
 40
0.3437500000000001
 40
0.3437500000000001
 40
0.3437500000000001
 40
0.3437500000000001
 40
0.3750000000000002
 40
0.3750000000000002
 40
0.3750000000000002
 40
0.3750000000000002
 10
28.6813845371366
 20
4.022916152321803
 30
0.0
 10
28.59255659018256
 20
4.043199628913588
 30
0.0
 10
28.50864076725916
 20
4.065196275964827
 30
0.0
 10
28.43307799169757
 20
4.086772194955391
 30
0.0
  0
SPLINE
  5
215
330
1F
100
AcDbEntity
  8
SK3
  6
SLD-Dashed
370
    18
100
AcDbSpline
210
0.0
220
0.0
230
1.0
 70
     8
 71
     3
 72
     8
 73
     4
 74
     0
 42
0.000000001
 43
0.00000001
 40
0.3750000000000002
 40
0.3750000000000002
 40
0.3750000000000002
 40
0.3750000000000002
 40
0.4062500000000002
 40
0.4062500000000002
 40
0.4062500000000002
 40
0.4062500000000002
 10
28.43307799169757
 20
4.086772194955391
 30
0.0
 10
28.35751521613597
 20
4.108348113945954
 30
0.0
 10
28.28983944327253
 20
4.129568016556479
 30
0.0
 10
28.23001622433738
 20
4.149319889521504
 30
0.0
  0
SPLINE
  5
216
330
1F
100
AcDbEntity
  8
SK3
  6
SLD-Dashed
370
    18
100
AcDbSpline
210
0.0
220
0.0
230
1.0
 70
     8
 71
     3
 72
     8
 73
     4
 74
     0
 42
0.000000001
 43
0.00000001
 40
0.4062500000000002
 40
0.4062500000000002
 40
0.4062500000000002
 40
0.4062500000000002
 40
0.4375000000000002
 40
0.4375000000000002
 40
0.4375000000000002
 40
0.4375000000000002
 10
28.23001622433738
 20
4.149319889521504
 30
0.0
 10
28.17019300540221
 20
4.169071762486529
 30
0.0
 10
28.11845475143453
 20
4.187301074802908
 30
0.0
 10
28.07709408684397
 20
4.202290139950545
 30
0.0
  0
SPLINE
  5
217
330
1F
100
AcDbEntity
  8
SK3
  6
SLD-Dashed
370
    18
100
AcDbSpline
210
0.0
220
0.0
230
1.0
 70
     8
 71
     3
 72
     8
 73
     4
 74
     0
 42
0.000000001
 43
0.00000001
 40
0.4375000000000002
 40
0.4375000000000002
 40
0.4375000000000002
 40
0.4375000000000002
 40
0.4999999999999998
 40
0.4999999999999998
 40
0.4999999999999998
 40
0.4999999999999998
 10
28.07709408684397
 20
4.202290139950545
 30
0.0
 10
27.99437275766287
 20
4.232268270245823
 30
0.0
 10
27.95006240160352
 20
4.249975773495951
 30
0.0
 10
27.95000006805322
 20
4.249999973579333
 30
0.0
  0
SPLINE
  5
218
330
1F
100
AcDbEntity
  8
SK3
  6
SLD-Dashed
370
    18
100
AcDbSpline
210
0.0
220
0.0
230
1.0
 70
     8
 71
     3
 72
     8
 73
     4
 74
     0
 42
0.000000001
 43
0.00000001
 40
0.4999999999999998
 40
0.4999999999999998
 40
0.4999999999999998
 40
0.4999999999999998
 40
0.5312499999999996
 40
0.5312499999999996
 40
0.5312499999999996
 40
0.5312499999999996
 10
27.95000006805322
 20
4.249999973579333
 30
0.0
 10
27.94996890127809
 20
4.25001207362102
 30
0.0
 10
27.9608211343607
 20
4.245764120079921
 30
0.0
 10
27.98230767030427
 20
4.23756161885068
 30
0.0
  0
SPLINE
  5
219
330
1F
100
AcDbEntity
  8
SK3
  6
SLD-Dashed
370
    18
100
AcDbSpline
210
0.0
220
0.0
230
1.0
 70
     8
 71
     3
 72
     8
 73
     4
 74
     0
 42
0.000000001
 43
0.00000001
 40
0.5312499999999996
 40
0.5312499999999996
 40
0.5312499999999996
 40
0.5312499999999996
 40
0.5624999999999993
 40
0.5624999999999993
 40
0.5624999999999993
 40
0.5624999999999993
 10
27.98230767030427
 20
4.23756161885068
 30
0.0
 10
28.00379420624781
 20
4.229359117621432
 30
0.0
 10
28.03547080695186
 20
4.217374482287075
 30
0.0
 10
28.07708180526992
 20
4.202294590796785
 30
0.0
  0
SPLINE
  5
21A
330
1F
100
AcDbEntity
  8
SK3
  6
SLD-Dashed
370
    18
100
AcDbSpline
210
0.0
220
0.0
230
1.0
 70
     8
 71
     3
 72
     8
 73
     4
 74
     0
 42
0.000000001
 43
0.00000001
 40
0.5624999999999993
 40
0.5624999999999993
 40
0.5624999999999993
 40
0.5624999999999993
 40
0.5937499999999991
 40
0.5937499999999991
 40
0.5937499999999991
 40
0.5937499999999991
 10
28.07708180526992
 20
4.202294590796785
 30
0.0
 10
28.11869280358799
 20
4.187214699306489
 30
0.0
 10
28.17054209911528
 20
4.168954232790459
 30
0.0
 10
28.23019363965806
 20
4.149261315563674
 30
0.0
  0
SPLINE
  5
21B
330
1F
100
AcDbEntity
  8
SK3
  6
SLD-Dashed
370
    18
100
AcDbSpline
210
0.0
220
0.0
230
1.0
 70
     8
 71
     3
 72
     8
 73
     4
 74
     0
 42
0.000000001
 43
0.00000001
 40
0.5937499999999991
 40
0.5937499999999991
 40
0.5937499999999991
 40
0.5937499999999991
 40
0.6249999999999989
 40
0.6249999999999989
 40
0.6249999999999989
 40
0.6249999999999989
 10
28.23019363965806
 20
4.149261315563674
 30
0.0
 10
28.28984518020084
 20
4.129568398336888
 30
0.0
 10
28.35777140870063
 20
4.108257500734635
 30
0.0
 10
28.43410260256767
 20
4.086479749287813
 30
0.0
  0
SPLINE
  5
21C
330
1F
100
AcDbEntity
  8
SK3
  6
SLD-Dashed
370
    18
100
AcDbSpline
210
0.0
220
0.0
230
1.0
 70
     8
 71
     3
 72
     8
 73
     4
 74
     0
 42
0.000000001
 43
0.00000001
 40
0.6249999999999989
 40
0.6249999999999989
 40
0.6249999999999989
 40
0.6249999999999989
 40
0.6562499999999987
 40
0.6562499999999987
 40
0.6562499999999987
 40
0.6562499999999987
 10
28.43410260256767
 20
4.086479749287813
 30
0.0
 10
28.51043379643468
 20
4.064701997840994
 30
0.0
 10
28.59293970928127
 20
4.043107699085089
 30
0.0
 10
28.68159763916921
 20
4.022867496746504
 30
0.0
  0
SPLINE
  5
21D
330
1F
100
AcDbEntity
  8
SK3
  6
SLD-Dashed
370
    18
100
AcDbSpline
210
0.0
220
0.0
230
1.0
 70
     8
 71
     3
 72
     8
 73
     4
 74
     0
 42
0.000000001
 43
0.00000001
 40
0.6562499999999987
 40
0.6562499999999987
 40
0.6562499999999987
 40
0.6562499999999987
 40
0.6874999999999984
 40
0.6874999999999984
 40
0.6874999999999984
 40
0.6874999999999984
 10
28.68159763916921
 20
4.022867496746504
 30
0.0
 10
28.77025556905717
 20
4.00262729440792
 30
0.0
 10
28.86624405321871
 20
3.983553690933436
 30
0.0
 10
28.96600321577503
 20
3.967612874564184
 30
0.0
  0
SPLINE
  5
21E
330
1F
100
AcDbEntity
  8
SK3
  6
SLD-Dashed
370
    18
100
AcDbSpline
210
0.0
220
0.0
230
1.0
 70
     8
 71
     3
 72
     8
 73
     4
 74
     0
 42
0.000000001
 43
0.00000001
 40
0.6874999999999984
 40
0.6874999999999984
 40
0.6874999999999984
 40
0.6874999999999984
 40
0.7187499999999982
 40
0.7187499999999982
 40
0.7187499999999982
 40
0.7187499999999982
 10
28.96600321577503
 20
3.967612874564184
 30
0.0
 10
29.06576237833136
 20
3.951672058194935
 30
0.0
 10
29.16872106820193
 20
3.938881143316149
 30
0.0
 10
29.27499473873432
 20
3.930092673188543
 30
0.0
  0
SPLINE
  5
21F
330
1F
100
AcDbEntity
  8
SK3
  6
SLD-Dashed
370
    18
100
AcDbSpline
210
0.0
220
0.0
230
1.0
 70
     8
 71
     3
 72
     8
 73
     4
 74
     0
 42
0.000000001
 43
0.00000001
 40
0.7187499999999982
 40
0.7187499999999982
 40
0.7187499999999982
 40
0.7187499999999982
 40
0.749999999999998
 40
0.749999999999998
 40
0.749999999999998
 40
0.749999999999998
 10
29.27499473873432
 20
3.930092673188543
 30
0.0
 10
29.38126840926671
 20
3.921304203060937
 30
0.0
 10
29.49189643580775
 20
3.91661263856137
 30
0.0
 10
29.60067060737045
 20
3.916631262924061
 30
0.0
  0
SPLINE
  5
220
330
1F
100
AcDbEntity
  8
SK3
  6
SLD-Dashed
370
    18
100
AcDbSpline
210
0.0
220
0.0
230
1.0
 70
     8
 71
     3
 72
     8
 73
     4
 74
     0
 42
0.000000001
 43
0.00000001
 40
0.749999999999998
 40
0.749999999999998
 40
0.749999999999998
 40
0.749999999999998
 40
0.8124999999999987
 40
0.8124999999999987
 40
0.8124999999999987
 40
0.8124999999999987
 10
29.60067060737045
 20
3.916631262924061
 30
0.0
 10
29.81821895049588
 20
3.916668511649443
 30
0.0
 10
30.03700242932327
 20
3.936052885198431
 30
0.0
 10
30.23567776734794
 20
3.967881830889173
 30
0.0
  0
SPLINE
  5
221
330
1F
100
AcDbEntity
  8
SK3
  6
SLD-Dashed
370
    18
100
AcDbSpline
210
0.0
220
0.0
230
1.0
 70
     8
 71
     3
 72
     8
 73
     4
 74
     0
 42
0.000000001
 43
0.00000001
 40
0.8124999999999987
 40
0.8124999999999987
 40
0.8124999999999987
 40
0.8124999999999987
 40
0.843749999999999
 40
0.843749999999999
 40
0.843749999999999
 40
0.843749999999999
 10
30.23567776734794
 20
3.967881830889173
 30
0.0
 10
30.33501543636029
 20
3.983796303734532
 30
0.0
 10
30.43106153632605
 20
4.002891210590446
 30
0.0
 10
30.52017158392817
 20
4.023271771067518
 30
0.0
  0
SPLINE
  5
222
330
1F
100
AcDbEntity
  8
SK3
  6
SLD-Dashed
370
    18
100
AcDbSpline
210
0.0
220
0.0
230
1.0
 70
     8
 71
     3
 72
     8
 73
     4
 74
     0
 42
0.000000001
 43
0.00000001
 40
0.843749999999999
 40
0.843749999999999
 40
0.843749999999999
 40
0.843749999999999
 40
0.8749999999999993
 40
0.8749999999999993
 40
0.8749999999999993
 40
0.8749999999999993
 10
30.52017158392817
 20
4.023271771067518
 30
0.0
 10
30.6092816315303
 20
4.043652331544589
 30
0.0
 10
30.69155561101741
 20
4.065247134725586
 30
0.0
 10
30.76722924291192
 20
4.086859932210634
 30
0.0
  0
SPLINE
  5
223
330
1F
100
AcDbEntity
  8
SK3
  6
SLD-Dashed
370
    18
100
AcDbSpline
210
0.0
220
0.0
230
1.0
 70
     8
 71
     3
 72
     8
 73
     4
 74
     0
 42
0.000000001
 43
0.00000001
 40
0.8749999999999993
 40
0.8749999999999993
 40
0.8749999999999993
 40
0.8749999999999993
 40
0.9062499999999997
 40
0.9062499999999997
 40
0.9062499999999997
 40
0.9062499999999997
 10
30.76722924291192
 20
4.086859932210634
 30
0.0
 10
30.84290287480644
 20
4.108472729695674
 30
0.0
 10
30.91181180865667
 20
4.130097386809514
 30
0.0
 10
30.97123731710771
 20
4.149733940848332
 30
0.0
  0
SPLINE
  5
224
330
1F
100
AcDbEntity
  8
SK3
  6
SLD-Dashed
370
    18
100
AcDbSpline
210
0.0
220
0.0
230
1.0
 70
     8
 71
     3
 72
     8
 73
     4
 74
     0
 42
0.000000001
 43
0.00000001
 40
0.9062499999999997
 40
0.9062499999999997
 40
0.9062499999999997
 40
0.9062499999999997
 40
0.9374999999999999
 40
0.9374999999999999
 40
0.9374999999999999
 40
0.9374999999999999
 10
30.97123731710771
 20
4.149733940848332
 30
0.0
 10
31.03066282555876
 20
4.169370494887151
 30
0.0
 10
31.08147575840857
 20
4.187272693180664
 30
0.0
 10
31.12327773340771
 20
4.202424901541439
 30
0.0
  0
SPLINE
  5
225
330
1F
100
AcDbEntity
  8
SK3
  6
SLD-Dashed
370
    18
100
AcDbSpline
210
0.0
220
0.0
230
1.0
 70
     8
 71
     2
 72
     6
 73
     3
 74
     0
 42
0.000000001
 43
0.00000001
 40
0.9374999999999999
 40
0.9374999999999999
 40
0.9374999999999999
 40
1.0
 40
1.0
 40
1.0
 10
31.1232777334077
 20
4.202424901541432
 30
0.0
 10
31.206881683406
 20
4.232729318262992
 30
0.0
 10
31.24999999999999
 20
4.249999999999983
 30
0.0
  0
SPLINE
  5
226
330
1F
100
AcDbEntity
  8
SK3
  6
SLD-Dashed
370
    18
100
AcDbSpline
210
0.0
220
0.0
230
1.0
 70
     8
 71
     3
 72
    28
 73
    24
 74
     0
 42
0.000000001
 43
0.00000001
 40
0.0
 40
0.0
 40
0.0
 40
0.0
 40
0.0312500000000002
 40
0.0312500000000002
 40
0.0625000000000005
 40
0.0625000000000005
 40
0.1250000000000006
 40
0.1250000000000006
 40
0.1875000000000007
 40
0.1875000000000007
 40
0.2500000000000009
 40
0.2500000000000009
 40
0.312500000000001
 40
0.312500000000001
 40
0.3437500000000007
 40
0.3437500000000007
 40
0.3750000000000004
 40
0.3750000000000004
 40
0.4062500000000001
 40
0.4062500000000001
 40
0.4374999999999998
 40
0.4374999999999998
 40
0.5000000000000001
 40
0.5000000000000001
 40
0.5000000000000001
 40
0.5000000000000001
 10
27.2119199643541
 20
-5.48007755419574
 30
0.0
 10
27.25215445219668
 20
-5.402059987680127
 30
0.0
 10
27.2902792181721
 20
-5.32422500470627
 30
0.0
 10
27.36002209744156
 20
-5.168022837069316
 30
0.0
 10
27.39197384925091
 20
-5.088707796634516
 30
0.0
 10
27.4709485528894
 20
-4.857672666434188
 30
0.0
 10
27.50134988424107
 20
-4.709272969339838
 30
0.0
 10
27.49855279073379
 20
-4.46611063047337
 30
0.0
 10
27.46507211148691
 20
-4.371086943656825
 30
0.0
 10
27.35536138986213
 20
-4.252970409855695
 30
0.0
 10
27.27992812095271
 20
-4.227443439072244
 30
0.0
 10
27.11990345087707
 20
-4.233141024575034
 30
0.0
 10
27.03221853086533
 20
-4.263981918841683
 30
0.0
 10
26.92312551994633
 20
-4.353083762400296
 30
0.0
 10
26.89008157097949
 20
-4.390413632902529
 30
0.0
 10
26.84206151970972
 20
-4.483957440364173
 30
0.0
 10
26.82832838085955
 20
-4.539346648991924
 30
0.0
 10
26.83006467435716
 20
-4.664644927661871
 30
0.0
 10
26.84547963222233
 20
-4.733072003537245
 30
0.0
 10
26.89563379327605
 20
-4.87473204494338
 30
0.0
 10
26.92922891965411
 20
-4.946628244244368
 30
0.0
 10
27.0417140946126
 20
-5.168368539109433
 30
0.0
 10
27.12813207061776
 20
-5.318014699735873
 30
0.0
 10
27.20877641255112
 20
-5.473989814431608
 30
0.0
  0
SPLINE
  5
227
330
1F
100
AcDbEntity
  8
SK3
  6
SLD-Dashed
370
    18
100
AcDbSpline
210
0.0
220
0.0
230
1.0
 70
     8
 71
     3
 72
    28
 73
    24
 74
     0
 42
0.000000001
 43
0.00000001
 40
0.0
 40
0.0
 40
0.0
 40
0.0
 40
0.0312500000000002
 40
0.0312500000000002
 40
0.0625000000000005
 40
0.0625000000000005
 40
0.1250000000000006
 40
0.1250000000000006
 40
0.1875000000000007
 40
0.1875000000000007
 40
0.2500000000000009
 40
0.2500000000000009
 40
0.312500000000001
 40
0.312500000000001
 40
0.3437500000000007
 40
0.3437500000000007
 40
0.3750000000000004
 40
0.3750000000000004
 40
0.4062500000000001
 40
0.4062500000000001
 40
0.4374999999999998
 40
0.4374999999999998
 40
0.5000000000000001
 40
0.5000000000000001
 40
0.5000000000000001
 40
0.5000000000000001
 10
27.2119199643541
 20
-5.48007755419574
 30
0.0
 10
27.25215445219668
 20
-5.402059987680127
 30
0.0
 10
27.2902792181721
 20
-5.32422500470627
 30
0.0
 10
27.36002209744156
 20
-5.168022837069316
 30
0.0
 10
27.39197384925091
 20
-5.088707796634516
 30
0.0
 10
27.4709485528894
 20
-4.857672666434188
 30
0.0
 10
27.50134988424107
 20
-4.709272969339838
 30
0.0
 10
27.49855279073379
 20
-4.46611063047337
 30
0.0
 10
27.46507211148691
 20
-4.371086943656825
 30
0.0
 10
27.35536138986213
 20
-4.252970409855695
 30
0.0
 10
27.27992812095271
 20
-4.227443439072244
 30
0.0
 10
27.11990345087707
 20
-4.233141024575034
 30
0.0
 10
27.03221853086533
 20
-4.263981918841683
 30
0.0
 10
26.92312551994633
 20
-4.353083762400296
 30
0.0
 10
26.89008157097949
 20
-4.390413632902529
 30
0.0
 10
26.84206151970972
 20
-4.483957440364173
 30
0.0
 10
26.82832838085955
 20
-4.539346648991924
 30
0.0
 10
26.83006467435716
 20
-4.664644927661871
 30
0.0
 10
26.84547963222233
 20
-4.733072003537245
 30
0.0
 10
26.89563379327605
 20
-4.87473204494338
 30
0.0
 10
26.92922891965411
 20
-4.946628244244368
 30
0.0
 10
27.0417140946126
 20
-5.168368539109433
 30
0.0
 10
27.12813207061776
 20
-5.318014699735873
 30
0.0
 10
27.20877641255112
 20
-5.473989814431608
 30
0.0
  0
SPLINE
  5
228
330
1F
100
AcDbEntity
  8
SK3
  6
SLD-Dashed
370
    18
100
AcDbSpline
210
0.0
220
0.0
230
1.0
 70
     8
 71
     3
 72
    30
 73
    26
 74
     0
 42
0.000000001
 43
0.00000001
 40
0.0
 40
0.0
 40
0.0
 40
0.0
 40
0.0624999999999998
 40
0.0624999999999998
 40
0.09375
 40
0.09375
 40
0.1250000000000002
 40
0.1250000000000002
 40
0.1562500000000005
 40
0.1562500000000005
 40
0.1875000000000007
 40
0.1875000000000007
 40
0.2500000000000009
 40
0.2500000000000009
 40
0.3125000000000012
 40
0.3125000000000012
 40
0.3437500000000014
 40
0.3437500000000014
 40
0.3750000000000016
 40
0.3750000000000016
 40
0.4062500000000019
 40
0.4062500000000019
 40
0.4375000000000021
 40
0.4375000000000021
 40
0.5000000000000022
 40
0.5000000000000022
 40
0.5000000000000022
 40
0.5000000000000022
 10
24.78808003564592
 20
-5.480077554195736
 30
0.0
 10
24.86875327461183
 20
-5.636508768385352
 30
0.0
 10
24.95485448690931
 20
-5.785673690885492
 30
0.0
 10
25.06800327630282
 20
-6.007764161458262
 30
0.0
 10
25.10191558303687
 20
-6.079772757874083
 30
0.0
 10
25.15302185088626
 20
-6.22167481571954
 30
0.0
 10
25.16907462869077
 20
-6.289998470937904
 30
0.0
 10
25.17232992136481
 20
-6.416124393756218
 30
0.0
 10
25.15944599677757
 20
-6.471595315147702
 30
0.0
 10
25.1124974449301
 20
-6.566246144907241
 30
0.0
 10
25.07992116031964
 20
-6.603991319699583
 30
0.0
 10
24.97029412011677
 20
-6.6952375338483
 30
0.0
 10
24.88325418551337
 20
-6.726278475095843
 30
0.0
 10
24.72213022729098
 20
-6.733241695863891
 30
0.0
 10
24.64693007606235
 20
-6.708618755500967
 30
0.0
 10
24.56348129389735
 20
-6.620304876647355
 30
0.0
 10
24.54112256712892
 20
-6.582778602933097
 30
0.0
 10
24.50985938985341
 20
-6.491135921355103
 30
0.0
 10
24.50105593940981
 20
-6.436255399744212
 30
0.0
 10
24.49912863570965
 20
-6.315041039093529
 30
0.0
 10
24.5059055419651
 20
-6.247021676698147
 30
0.0
 10
24.53375872644157
 20
-6.103333084737677
 30
0.0
 10
24.5545125675316
 20
-6.028229628669587
 30
0.0
 10
24.63414935316348
 20
-5.794570040909596
 30
0.0
 10
24.70827303942242
 20
-5.634846638713533
 30
0.0
 10
24.78794234535325
 20
-5.480344560752075
 30
0.0
  0
SPLINE
  5
229
330
1F
100
AcDbEntity
  8
SK3
  6
SLD-Dashed
370
    18
100
AcDbSpline
210
0.0
220
0.0
230
1.0
 70
     8
 71
     3
 72
    28
 73
    24
 74
     0
 42
0.000000001
 43
0.00000001
 40
0.0
 40
0.0
 40
0.0
 40
0.0
 40
0.0312499999999994
 40
0.0312499999999994
 40
0.0624999999999988
 40
0.0624999999999988
 40
0.1249999999999981
 40
0.1249999999999981
 40
0.1874999999999973
 40
0.1874999999999973
 40
0.2499999999999966
 40
0.2499999999999966
 40
0.3124999999999958
 40
0.3124999999999958
 40
0.3437499999999957
 40
0.3437499999999957
 40
0.3749999999999956
 40
0.3749999999999956
 40
0.4062499999999956
 40
0.4062499999999956
 40
0.4374999999999955
 40
0.4374999999999955
 40
0.4999999999999959
 40
0.4999999999999959
 40
0.4999999999999959
 40
0.4999999999999959
 10
24.78808003564597
 20
5.480077554195708
 30
0.0
 10
24.74784554780235
 20
5.402059987680618
 30
0.0
 10
24.7097207818259
 20
5.324225004707247
 30
0.0
 10
24.63997790255449
 20
5.168022837071188
 30
0.0
 10
24.60802615074414
 20
5.088707796636783
 30
0.0
 10
24.52905144710274
 20
4.857672666437422
 30
0.0
 10
24.49865011574922
 20
4.709272969343453
 30
0.0
 10
24.50144720925345
 20
4.466110630476953
 30
0.0
 10
24.53492788849911
 20
4.371086943659999
 30
0.0
 10
24.6446386101224
 20
4.252970409857475
 30
0.0
 10
24.72007187903157
 20
4.227443439073091
 30
0.0
 10
24.88009654910726
 20
4.233141024573847
 30
0.0
 10
24.96778146911938
 20
4.263981918839394
 30
0.0
 10
25.07687448003954
 20
4.353083762396619
 30
0.0
 10
25.10991842900681
 20
4.390413632898434
 30
0.0
 10
25.1579384802778
 20
4.483957440359455
 30
0.0
 10
25.17167161912874
 20
4.539346648987042
 30
0.0
 10
25.16993532563267
 20
4.664644927657015
 30
0.0
 10
25.15452036776833
 20
4.733072003532588
 30
0.0
 10
25.10436620671646
 20
4.874732044939337
 30
0.0
 10
25.07077108033922
 20
4.946628244240777
 30
0.0
 10
24.95828590538357
 20
5.168368539107229
 30
0.0
 10
24.87186792938028
 20
5.318014699734752
 30
0.0
 10
24.79122358744895
 20
5.473989814431514
 30
0.0
  0
SPLINE
  5
22A
330
1F
100
AcDbEntity
  8
SK3
  6
SLD-Dashed
370
    18
100
AcDbSpline
210
0.0
220
0.0
230
1.0
 70
     8
 71
     3
 72
    30
 73
    26
 74
     0
 42
0.000000001
 43
0.00000001
 40
0.0
 40
0.0
 40
0.0
 40
0.0
 40
0.0625000000000004
 40
0.0625000000000004
 40
0.0937500000000003
 40
0.0937500000000003
 40
0.1250000000000001
 40
0.1250000000000001
 40
0.15625
 40
0.15625
 40
0.1874999999999999
 40
0.1874999999999999
 40
0.2499999999999997
 40
0.2499999999999997
 40
0.3124999999999994
 40
0.3124999999999994
 40
0.3437499999999993
 40
0.3437499999999993
 40
0.3749999999999993
 40
0.3749999999999993
 40
0.4062499999999992
 40
0.4062499999999992
 40
0.4374999999999991
 40
0.4374999999999991
 40
0.4999999999999989
 40
0.4999999999999989
 40
0.4999999999999989
 40
0.4999999999999989
 10
27.21191996435407
 20
5.480077554195717
 30
0.0
 10
27.13124672545083
 20
5.63650876841771
 30
0.0
 10
27.04514551321317
 20
5.785673690952372
 30
0.0
 10
26.9319967239088
 20
6.007764161570547
 30
0.0
 10
26.89808441720354
 20
6.07977275799995
 30
0.0
 10
26.84697814941114
 20
6.221674815865919
 30
0.0
 10
26.83092537163406
 20
6.289998471090714
 30
0.0
 10
26.82767007901058
 20
6.416124393910343
 30
0.0
 10
26.84055400362006
 20
6.471595315296656
 30
0.0
 10
26.88750255550548
 20
6.56624614503737
 30
0.0
 10
26.92007884013112
 20
6.603991319816659
 30
0.0
 10
27.02970588037052
 20
6.695237533921408
 30
0.0
 10
27.11674581498643
 20
6.726278475134018
 30
0.0
 10
27.27786977321157
 20
6.733241695837431
 30
0.0
 10
27.35306992443036
 20
6.708618755444346
 30
0.0
 10
27.43651870655991
 20
6.620304876557262
 30
0.0
 10
27.45887743331326
 20
6.58277860283401
 30
0.0
 10
27.49014061055206
 20
6.49113592124348
 30
0.0
 10
27.49894406097359
 20
6.436255399629047
 30
0.0
 10
27.50087136462517
 20
6.315041038977592
 30
0.0
 10
27.49409445834241
 20
6.247021676584934
 30
0.0
 10
27.46624127380826
 20
6.103333084635603
 30
0.0
 10
27.44548743268808
 20
6.028229628575841
 30
0.0
 10
27.36585064696254
 20
5.794570040847798
 30
0.0
 10
27.29172696063956
 20
5.634846638681458
 30
0.0
 10
27.21205765464671
 20
5.480344560751957
 30
0.0
  0
SPLINE
  5
22B
330
1F
100
AcDbEntity
  8
SK3
  6
SLD-Dashed
370
    18
100
AcDbSpline
210
0.0
220
0.0
230
1.0
 70
     8
 71
     3
 72
    30
 73
    26
 74
     0
 42
0.000000001
 43
0.00000001
 40
0.0
 40
0.0
 40
0.0
 40
0.0
 40
0.0625000000000004
 40
0.0625000000000004
 40
0.0937500000000003
 40
0.0937500000000003
 40
0.1250000000000001
 40
0.1250000000000001
 40
0.15625
 40
0.15625
 40
0.1874999999999999
 40
0.1874999999999999
 40
0.2499999999999997
 40
0.2499999999999997
 40
0.3124999999999994
 40
0.3124999999999994
 40
0.3437499999999993
 40
0.3437499999999993
 40
0.3749999999999993
 40
0.3749999999999993
 40
0.4062499999999992
 40
0.4062499999999992
 40
0.4374999999999991
 40
0.4374999999999991
 40
0.4999999999999989
 40
0.4999999999999989
 40
0.4999999999999989
 40
0.4999999999999989
 10
27.21191996435407
 20
5.480077554195717
 30
0.0
 10
27.13124672545083
 20
5.63650876841771
 30
0.0
 10
27.04514551321317
 20
5.785673690952372
 30
0.0
 10
26.9319967239088
 20
6.007764161570547
 30
0.0
 10
26.89808441720354
 20
6.07977275799995
 30
0.0
 10
26.84697814941114
 20
6.221674815865919
 30
0.0
 10
26.83092537163406
 20
6.289998471090714
 30
0.0
 10
26.82767007901058
 20
6.416124393910343
 30
0.0
 10
26.84055400362006
 20
6.471595315296656
 30
0.0
 10
26.88750255550548
 20
6.56624614503737
 30
0.0
 10
26.92007884013112
 20
6.603991319816659
 30
0.0
 10
27.02970588037052
 20
6.695237533921408
 30
0.0
 10
27.11674581498643
 20
6.726278475134018
 30
0.0
 10
27.27786977321157
 20
6.733241695837431
 30
0.0
 10
27.35306992443036
 20
6.708618755444346
 30
0.0
 10
27.43651870655991
 20
6.620304876557262
 30
0.0
 10
27.45887743331326
 20
6.58277860283401
 30
0.0
 10
27.49014061055206
 20
6.49113592124348
 30
0.0
 10
27.49894406097359
 20
6.436255399629047
 30
0.0
 10
27.50087136462517
 20
6.315041038977592
 30
0.0
 10
27.49409445834241
 20
6.247021676584934
 30
0.0
 10
27.46624127380826
 20
6.103333084635603
 30
0.0
 10
27.44548743268808
 20
6.028229628575841
 30
0.0
 10
27.36585064696254
 20
5.794570040847798
 30
0.0
 10
27.29172696063956
 20
5.634846638681458
 30
0.0
 10
27.21205765464671
 20
5.480344560751957
 30
0.0
  0
SPLINE
  5
22C
330
1F
100
AcDbEntity
  8
SK3
  6
SLD-Dashed
370
    18
100
AcDbSpline
210
0.0
220
0.0
230
1.0
 70
    24
 71
     3
 72
     8
 73
     4
 74
     0
 42
0.000000001
 43
0.00000001
 40
0.0
 40
0.0
 40
0.0
 40
0.0
 40
0.5
 40
0.5
 40
0.5
 40
0.5
 10
2.000000000000009
 20
-16.15000000000003
 30
0.0
 10
2.083477230592476
 20
-16.15000000002567
 30
0.0
 10
2.165250237669253
 20
-16.15000000005078
 30
0.0
 10
2.237167806898775
 20
-16.15000000007287
 30
0.0
  0
SPLINE
  5
22D
330
1F
100
AcDbEntity
  8
SK3
  6
SLD-Dashed
370
    18
100
AcDbSpline
210
0.0
220
0.0
230
1.0
 70
    24
 71
     3
 72
     8
 73
     4
 74
     0
 42
0.000000001
 43
0.00000001
 40
0.5
 40
0.5
 40
0.5
 40
0.5
 40
0.75
 40
0.75
 40
0.75
 40
0.75
 10
2.237167806898775
 20
-16.15000000007287
 30
0.0
 10
2.27312659151354
 20
-16.15000000008454
 30
0.0
 10
2.306332390229794
 20
-16.1500000000953
 30
0.0
 10
2.332123478181937
 20
-16.15000000010366
 30
0.0
  0
SPLINE
  5
22E
330
1F
100
AcDbEntity
  8
SK3
  6
SLD-Dashed
370
    18
100
AcDbSpline
210
0.0
220
0.0
230
1.0
 70
    24
 71
     2
 72
     6
 73
     3
 74
     0
 42
0.000000001
 43
0.00000001
 40
0.75
 40
0.75
 40
0.75
 40
1.0
 40
1.0
 40
1.0
 10
2.332123478181937
 20
-16.15000000010366
 30
0.0
 10
2.357914566134996
 20
-16.15000000011203
 30
0.0
 10
2.375000000001494
 20
-16.15000000011757
 30
0.0
  0
SPLINE
  5
22F
330
1F
100
AcDbEntity
  8
1
  6
SLD-Dashed
370
    18
100
AcDbSpline
210
0.0
220
0.0
230
1.0
 70
     8
 71
     3
 72
     8
 73
     4
 74
     0
 42
0.000000001
 43
0.00000001
 40
0.0
 40
0.0
 40
0.0
 40
0.0
 40
1.0
 40
1.0
 40
1.0
 40
1.0
 10
11.4
 20
18.09532860177311
 30
0.0
 10
10.89434699821048
 20
19.05488642389783
 30
0.0
 10
10.38346933994867
 20
20.01180319386892
 30
0.0
 10
9.869071747010176
 20
20.96694064473881
 30
0.0
  0
SPLINE
  5
230
330
1F
100
AcDbEntity
  8
1
  6
SLD-Dashed
370
    18
100
AcDbSpline
210
0.0
220
0.0
230
1.0
 70
     8
 71
     3
 72
    16
 73
    12
 74
     0
 42
0.000000001
 43
0.00000001
 40
0.0
 40
0.0
 40
0.0
 40
0.0
 40
0.0680357694435426
 40
0.1216271915822545
 40
0.2437825385131333
 40
0.3664174069515416
 40
0.4907311408778685
 40
0.6196738302093479
 40
0.7429210525082535
 40
0.8723479675766904
 40
1.0
 40
1.0
 40
1.0
 40
1.0
 10
2.000000000000016
 20
20.56190591846974
 30
0.0
 10
2.000796789487183
 20
20.58840543157413
 30
0.0
 10
2.002221205914
 20
20.63577847348349
 30
0.0
 10
2.016562271683612
 20
20.72978897884535
 30
0.0
 10
2.0490109134053
 20
20.84222874359081
 30
0.0
 10
2.115216794569608
 20
20.97140279656776
 30
0.0
 10
2.206796006804422
 20
21.0880007036612
 30
0.0
 10
2.320292410374174
 20
21.18491683743828
 30
0.0
 10
2.452780038403018
 20
21.25807956074312
 30
0.0
 10
2.597289938882405
 20
21.30559252571808
 30
0.0
 10
2.699331479161224
 20
21.31161982290617
 30
0.0
 10
2.750000000000009
 20
21.31461266515788
 30
0.0
  0
SPLINE
  5
231
330
1F
100
AcDbEntity
  8
1
  6
SLD-Dashed
370
    18
100
AcDbSpline
210
0.0
220
0.0
230
1.0
 70
     8
 71
     3
 72
     8
 73
     4
 74
     0
 42
0.000000001
 43
0.00000001
 40
0.0
 40
0.0
 40
0.0
 40
0.0
 40
1.0
 40
1.0
 40
1.0
 40
1.0
 10
11.4
 20
-18.0953286017731
 30
0.0
 10
10.89428872080163
 20
-19.05499701464545
 30
0.0
 10
10.3834016389696
 20
-20.01192890157336
 30
0.0
 10
9.869071747010176
 20
-20.9669406447388
 30
0.0
  0
SPLINE
  5
232
330
1F
100
AcDbEntity
  8
1
  6
SLD-Dashed
370
    18
100
AcDbSpline
210
0.0
220
0.0
230
1.0
 70
     8
 71
     3
 72
     8
 73
     4
 74
     0
 42
0.000000001
 43
0.00000001
 40
0.0
 40
0.0
 40
0.0
 40
0.0
 40
0.0006887074915324
 40
0.0006887074915324
 40
0.0006887074915324
 40
0.0006887074915324
 10
9.572981872400895
 20
21.31461266515955
 30
0.0
 10
9.672099735099456
 20
21.19883443678795
 30
0.0
 10
9.770807239792116
 20
21.08294605744527
 30
0.0
 10
9.869071747010162
 20
20.96694064473882
 30
0.0
  0
INSERT
  5
233
330
1F
100
AcDbEntity
  8
81
100
AcDbBlockReference
  2
Block11
 10
-56.6264826505
 20
-130.2676275275
 30
0.0
  0
INSERT
  5
234
330
1F
100
AcDbEntity
  8
80
100
AcDbBlockReference
  2
Block12
 10
-61.7273641656
 20
-130.3356800267
 30
0.0
  0
DIMENSION
  5
235
330
1F
100
AcDbEntity
  8
SK2
100
AcDbDimension
  2
_D
 10
22.1
 20
30.872713647
 30
0.0
 11
10.9430219727
 21
30.872713647
 31
0.0
 70
   160
  1
<>
 71
     2
 42
-1.0
  3
SLDDIMSTYLE0
100
AcDbAlignedDimension
 13
0.0
 23
15.875
 33
0.0
 14
22.1
 24
22.24
 34
0.0
100
AcDbRotatedDimension
  0
DIMENSION
  5
241
330
1F
100
AcDbEntity
  8
SK2
100
AcDbDimension
  2
_D_1
 10
35.0
 20
30.872713647
 30
0.0
 11
28.8789926002
 21
30.872713647
 31
0.0
 70
   160
  1
<>
 71
     2
 42
-1.0
  3
SLDDIMSTYLE0
100
AcDbAlignedDimension
 13
22.1
 23
22.24
 33
0.0
 14
35.0
 24
19.8808953521
 34
0.0
100
AcDbRotatedDimension
  0
DIMENSION
  5
24B
330
1F
100
AcDbEntity
  8
2
100
AcDbDimension
  2
_D_2
 10
35.0
 20
39.3515361255
 30
0.0
 11
16.7477542849
 21
39.3515361255
 31
0.0
 70
   160
  1
<>
 71
     2
 42
-1.0
  3
SLDDIMSTYLE0
100
AcDbAlignedDimension
 13
0.0
 23
15.875
 33
0.0
 14
35.0
 24
19.8808953521
 34
0.0
100
AcDbRotatedDimension
  0
DIMENSION
  5
255
330
1F
100
AcDbEntity
  8
SK2
100
AcDbDimension
  2
_D_3
 10
54.0
 20
30.872713647
 30
0.0
 11
44.7930901752
 21
30.872713647
 31
0.0
 70
   160
  1
<>
 71
     2
 42
-1.0
  3
SLDDIMSTYLE0
100
AcDbAlignedDimension
 13
35.0
 23
19.8808953521
 33
0.0
 14
54.0
 24
10.4710190579
 34
0.0
100
AcDbRotatedDimension
  0
DIMENSION
  5
25F
330
1F
100
AcDbEntity
  8
SK2
100
AcDbDimension
  2
_D_4
 10
88.1485902655
 20
-21.0
 30
0.0
 11
88.1485902655
 21
-1.0891563457
 31
0.0
 70
   160
  1
%%c<>
 71
     2
 42
-1.0
  3
SLDDIMSTYLE0
100
AcDbAlignedDimension
 13
24.6173632704
 23
21.0
 33
0.0
 14
24.6064287705
 24
-21.0
 34
0.0
 50
90.0
100
AcDbRotatedDimension
  0
DIMENSION
  5
26A
330
1F
100
AcDbEntity
  8
SK2
100
AcDbDimension
  2
_D_5
 10
78.1766740677
 20
11.0
 30
0.0
 11
78.1766740677
 21
-1.0891563457
 31
0.0
 70
   160
  1
%%c<>
 71
     2
 42
-1.0
  3
SLDDIMSTYLE0
100
AcDbAlignedDimension
 13
51.0
 23
-11.0
 33
0.0
 14
51.0
 24
11.0
 34
0.0
 50
90.0
100
AcDbRotatedDimension
  0
DIMENSION
  5
275
330
1F
100
AcDbEntity
  8
SK2
100
AcDbDimension
  2
_D_6
 10
-74.6006774131
 20
-22.99
 30
0.0
 11
-74.6006774131
 21
-0.5220035558
 31
0.0
 70
   160
  1
%%c<>
 71
     2
 42
-1.0
  3
SLDDIMSTYLE0
100
AcDbAlignedDimension
 13
19.874649423
 23
22.99
 33
0.0
 14
19.8746494411
 24
-22.99
 34
0.0
 50
90.0
100
AcDbRotatedDimension
  0
DIMENSION
  5
280
330
1F
100
AcDbEntity
  8
SK2
100
AcDbDimension
  2
_D_7
 10
-54.4346146163
 20
6.0
 30
0.0
 11
-54.4346146163
 21
0.2817163383
 31
0.0
 70
   160
  1
M<>
 71
     2
 42
-1.0
  3
SLDDIMSTYLE1
100
AcDbAlignedDimension
 13
-40.7891560818
 23
-6.0
 33
0.0
 14
-40.7891560818
 24
6.0
 34
0.0
 50
90.0
100
AcDbRotatedDimension
  0
DIMENSION
  5
28E
330
1F
100
AcDbEntity
  8
SK2
100
AcDbDimension
  2
_D_8
 10
-64.3715151248
 20
15.875
 30
0.0
 11
-64.3715151248
 21
-0.5220035558
 31
0.0
 70
   160
  1
%%c<>
 71
     2
 42
-1.0
  3
SLDDIMSTYLE0
100
AcDbAlignedDimension
 13
0.0
 23
-15.875
 33
0.0
 14
0.2
 24
15.875
 34
0.0
 50
90.0
100
AcDbRotatedDimension
  0
MTEXT
  5
299
330
1F
100
AcDbEntity
  8
SK6
 62
     5
100
AcDbMText
 10
-47.5515030937
 20
-27.4241042271
 30
0.0
 40
3.5
 41
0.0
 71
     1
 72
     1
  1
A205-30 16 035
  7
SLDTEXTSTYLE0
 73
     1
 44
1.0
  0
MTEXT
  5
29A
330
1F
100
AcDbEntity
  8
SK6
 62
     5
100
AcDbMText
 10
-32.9557653608
 20
21.2173303317
 30
0.0
 40
3.5
 41
0.0
 71
     1
 72
     1
  1
MAS-403 BT30
  7
SLDTEXTSTYLE0
 73
     1
 44
1.0
  0
ENDSEC
  0
SECTION
  2
OBJECTS
  0
DICTIONARY
  5
C
330
0
100
AcDbDictionary
281
     1
  3
ACAD_GROUP
350
D
  3
ACAD_LAYOUT
350
1A
  3
ACAD_MLINESTYLE
350
17
  3
ACAD_PLOTSETTINGS
350
19
  3
ACAD_PLOTSTYLENAME
350
E
  3
ACAD_SCALELIST
350
47
  0
DICTIONARY
  5
D
102
{ACAD_REACTORS
330
C
102
}
330
C
100
AcDbDictionary
281
     1
  0
DICTIONARY
  5
1A
102
{ACAD_REACTORS
330
C
102
}
330
C
100
AcDbDictionary
281
     1
  3
Layout1
350
1E
  3
Layout2
350
26
  3
Model
350
22
  0
DICTIONARY
  5
17
102
{ACAD_REACTORS
330
C
102
}
330
C
100
AcDbDictionary
281
     1
  3
Standard
350
18
  0
DICTIONARY
  5
19
102
{ACAD_REACTORS
330
C
102
}
330
C
100
AcDbDictionary
281
     1
  0
ACDBDICTIONARYWDFLT
  5
E
102
{ACAD_REACTORS
330
C
102
}
330
C
100
AcDbDictionary
281
     1
  3
Normal
350
F
100
AcDbDictionaryWithDefault
340
F
  0
DICTIONARY
  5
47
102
{ACAD_REACTORS
330
C
102
}
330
C
100
AcDbDictionary
281
     1
  3
A0
350
48
  3
A1
350
49
  3
A2
350
4A
  3
A3
350
4B
  3
A4
350
4C
  3
A5
350
4D
  3
A6
350
4E
  3
A7
350
4F
  3
A8
350
50
  3
A9
350
51
  3
B0
350
52
  3
B1
350
53
  3
B2
350
54
  3
B3
350
55
  3
B4
350
56
  3
B5
350
57
  3
B6
350
58
  3
B7
350
59
  3
B8
350
5A
  3
B9
350
5B
  3
C0
350
5C
  3
C1
350
5D
  3
C2
350
5E
  3
C3
350
5F
  3
C4
350
60
  3
C5
350
61
  3
C6
350
62
  3
C7
350
63
  3
C8
350
64
  3
C9
350
65
  3
D0
350
66
  3
D1
350
67
  3
D2
350
68
  0
LAYOUT
  5
1E
102
{ACAD_REACTORS
330
1A
102
}
330
1A
100
AcDbPlotSettings
  1

  2
none_device
  4

  6

 40
0.0
 41
0.0
 42
0.0
 43
0.0
 44
0.0
 45
0.0
 46
0.0
 47
0.0
 48
0.0
 49
0.0
140
0.0
141
0.0
142
1.0
143
1.0
 70
   688
 72
     1
 73
     0
 74
     5
  7

 75
    16
147
1.0
148
0.0
149
0.0
100
AcDbLayout
  1
Layout1
 70
     1
 71
     1
 10
0.0
 20
0.0
 11
420.0
 21
297.0
 12
0.0
 22
0.0
 32
0.0
 14
1.0000000000E+20
 24
1.0000000000E+20
 34
1.0000000000E+20
 15
-1.0000000000E+20
 25
-1.0000000000E+20
 35
-1.0000000000E+20
146
0.0
 13
0.0
 23
0.0
 33
0.0
 16
1.0
 26
0.0
 36
0.0
 17
0.0
 27
1.0
 37
0.0
 76
     0
330
1B
  0
LAYOUT
  5
26
102
{ACAD_REACTORS
330
1A
102
}
330
1A
100
AcDbPlotSettings
  1

  2
none_device
  4

  6

 40
0.0
 41
0.0
 42
0.0
 43
0.0
 44
0.0
 45
0.0
 46
0.0
 47
0.0
 48
0.0
 49
0.0
140
0.0
141
0.0
142
1.0
143
1.0
 70
   688
 72
     1
 73
     0
 74
     5
  7

 75
    16
147
1.0
148
0.0
149
0.0
100
AcDbLayout
  1
Layout2
 70
     1
 71
     2
 10
0.0
 20
0.0
 11
0.0
 21
0.0
 12
0.0
 22
0.0
 32
0.0
 14
0.0
 24
0.0
 34
0.0
 15
0.0
 25
0.0
 35
0.0
146
0.0
 13
0.0
 23
0.0
 33
0.0
 16
1.0
 26
0.0
 36
0.0
 17
0.0
 27
1.0
 37
0.0
 76
     0
330
23
  0
LAYOUT
  5
22
102
{ACAD_REACTORS
330
1A
102
}
330
1A
100
AcDbPlotSettings
  1

  2
none_device
  4
Letter_(8.50_x_11.00_Inches)
  6

 40
6.35
 41
6.35
 42
6.35000508
 43
6.35000508
 44
215.9
 45
279.4
 46
0.0
 47
0.0
 48
0.0
 49
0.0
140
0.0
141
0.0
142
1.0
143
1.0
 70
  1712
 72
     1
 73
     0
 74
     0
  7

 75
     0
147
1.0
148
0.0
149
0.0
100
AcDbLayout
  1
Model
 70
     1
 71
     0
 10
0.0
 20
0.0
 11
297.0
 21
210.0
 12
0.0
 22
0.0
 32
0.0
 14
0.0
 24
0.0
 34
0.0
 15
297.0
 25
210.0
 35
0.0
146
0.0
 13
0.0
 23
0.0
 33
0.0
 16
1.0
 26
0.0
 36
0.0
 17
0.0
 27
1.0
 37
0.0
 76
     0
330
1F
331
29
  0
MLINESTYLE
  5
18
102
{ACAD_REACTORS
330
17
102
}
330
17
100
AcDbMlineStyle
  2
Standard
 70
     0
  3

 62
   256
 51
90.0
 52
90.0
 71
     2
 49
0.5
 62
   256
  6
BYLAYER
 49
-0.5
 62
   256
  6
BYLAYER
  0
ACDBPLACEHOLDER
  5
F
102
{ACAD_REACTORS
330
E
102
}
330
E
  0
SCALE
  5
48
102
{ACAD_REACTORS
330
47
102
}
330
47
100
AcDbScale
 70
     0
300
1:1
140
1.0
141
1.0
290
     1
  0
SCALE
  5
49
102
{ACAD_REACTORS
330
47
102
}
330
47
100
AcDbScale
 70
     0
300
1:2
140
1.0
141
2.0
290
     0
  0
SCALE
  5
4A
102
{ACAD_REACTORS
330
47
102
}
330
47
100
AcDbScale
 70
     0
300
1:4
140
1.0
141
4.0
290
     0
  0
SCALE
  5
4B
102
{ACAD_REACTORS
330
47
102
}
330
47
100
AcDbScale
 70
     0
300
1:5
140
1.0
141
5.0
290
     0
  0
SCALE
  5
4C
102
{ACAD_REACTORS
330
47
102
}
330
47
100
AcDbScale
 70
     0
300
1:8
140
1.0
141
8.0
290
     0
  0
SCALE
  5
4D
102
{ACAD_REACTORS
330
47
102
}
330
47
100
AcDbScale
 70
     0
300
1:10
140
1.0
141
10.0
290
     0
  0
SCALE
  5
4E
102
{ACAD_REACTORS
330
47
102
}
330
47
100
AcDbScale
 70
     0
300
1:16
140
1.0
141
16.0
290
     0
  0
SCALE
  5
4F
102
{ACAD_REACTORS
330
47
102
}
330
47
100
AcDbScale
 70
     0
300
1:20
140
1.0
141
20.0
290
     0
  0
SCALE
  5
50
102
{ACAD_REACTORS
330
47
102
}
330
47
100
AcDbScale
 70
     0
300
1:30
140
1.0
141
30.0
290
     0
  0
SCALE
  5
51
102
{ACAD_REACTORS
330
47
102
}
330
47
100
AcDbScale
 70
     0
300
1:40
140
1.0
141
40.0
290
     0
  0
SCALE
  5
52
102
{ACAD_REACTORS
330
47
102
}
330
47
100
AcDbScale
 70
     0
300
1:50
140
1.0
141
50.0
290
     0
  0
SCALE
  5
53
102
{ACAD_REACTORS
330
47
102
}
330
47
100
AcDbScale
 70
     0
300
1:100
140
1.0
141
100.0
290
     0
  0
SCALE
  5
54
102
{ACAD_REACTORS
330
47
102
}
330
47
100
AcDbScale
 70
     0
300
2:1
140
2.0
141
1.0
290
     0
  0
SCALE
  5
55
102
{ACAD_REACTORS
330
47
102
}
330
47
100
AcDbScale
 70
     0
300
4:1
140
4.0
141
1.0
290
     0
  0
SCALE
  5
56
102
{ACAD_REACTORS
330
47
102
}
330
47
100
AcDbScale
 70
     0
300
8:1
140
8.0
141
1.0
290
     0
  0
SCALE
  5
57
102
{ACAD_REACTORS
330
47
102
}
330
47
100
AcDbScale
 70
     0
300
10:1
140
10.0
141
1.0
290
     0
  0
SCALE
  5
58
102
{ACAD_REACTORS
330
47
102
}
330
47
100
AcDbScale
 70
     0
300
100:1
140
100.0
141
1.0
290
     0
  0
SCALE
  5
59
102
{ACAD_REACTORS
330
47
102
}
330
47
100
AcDbScale
 70
     0
300
1/128" = 1'-0"
140
0.0078125
141
12.0
290
     0
  0
SCALE
  5
5A
102
{ACAD_REACTORS
330
47
102
}
330
47
100
AcDbScale
 70
     0
300
1/64" = 1'-0"
140
0.015625
141
12.0
290
     0
  0
SCALE
  5
5B
102
{ACAD_REACTORS
330
47
102
}
330
47
100
AcDbScale
 70
     0
300
1/32" = 1'-0"
140
0.03125
141
12.0
290
     0
  0
SCALE
  5
5C
102
{ACAD_REACTORS
330
47
102
}
330
47
100
AcDbScale
 70
     0
300
1/16" = 1'-0"
140
0.0625
141
12.0
290
     0
  0
SCALE
  5
5D
102
{ACAD_REACTORS
330
47
102
}
330
47
100
AcDbScale
 70
     0
300
3/32" = 1'-0"
140
0.09375
141
12.0
290
     0
  0
SCALE
  5
5E
102
{ACAD_REACTORS
330
47
102
}
330
47
100
AcDbScale
 70
     0
300
1/8" = 1'-0"
140
0.125
141
12.0
290
     0
  0
SCALE
  5
5F
102
{ACAD_REACTORS
330
47
102
}
330
47
100
AcDbScale
 70
     0
300
3/16" = 1'-0"
140
0.1875
141
12.0
290
     0
  0
SCALE
  5
60
102
{ACAD_REACTORS
330
47
102
}
330
47
100
AcDbScale
 70
     0
300
1/4" = 1'-0"
140
0.25
141
12.0
290
     0
  0
SCALE
  5
61
102
{ACAD_REACTORS
330
47
102
}
330
47
100
AcDbScale
 70
     0
300
3/8" = 1'-0"
140
0.375
141
12.0
290
     0
  0
SCALE
  5
62
102
{ACAD_REACTORS
330
47
102
}
330
47
100
AcDbScale
 70
     0
300
1/2" = 1'-0"
140
0.5
141
12.0
290
     0
  0
SCALE
  5
63
102
{ACAD_REACTORS
330
47
102
}
330
47
100
AcDbScale
 70
     0
300
3/4" = 1'-0"
140
0.75
141
12.0
290
     0
  0
SCALE
  5
64
102
{ACAD_REACTORS
330
47
102
}
330
47
100
AcDbScale
 70
     0
300
1" = 1'-0"
140
1.0
141
12.0
290
     0
  0
SCALE
  5
65
102
{ACAD_REACTORS
330
47
102
}
330
47
100
AcDbScale
 70
     0
300
1-1/2" = 1'-0"
140
1.5
141
12.0
290
     0
  0
SCALE
  5
66
102
{ACAD_REACTORS
330
47
102
}
330
47
100
AcDbScale
 70
     0
300
3" = 1'-0"
140
3.0
141
12.0
290
     0
  0
SCALE
  5
67
102
{ACAD_REACTORS
330
47
102
}
330
47
100
AcDbScale
 70
     0
300
6" = 1'-0"
140
6.0
141
12.0
290
     0
  0
SCALE
  5
68
102
{ACAD_REACTORS
330
47
102
}
330
47
100
AcDbScale
 70
     0
300
1'-0" = 1'-0"
140
12.0
141
12.0
290
     0
  0
ENDSEC
  0
EOF
