0
SECTION
2
HEADER
9
$ACADVER
1
AC1015
9
$DWGCODEPAGE
3
ANSI_1252
9
$HANDSEED
5
2c8
9
$ANGBASE
50
0
9
$ANGDIR
70
0
9
$ATTMODE
70
1
9
$AUNITS
70
0
9
$AUPREC
70
0
9
$CECOLOR
62
256
9
$CELTSCALE
40
1
9
$CELTYPE
6
ByLayer
9
$CELWEIGHT
370
18
9
$CLAYER
8
0
9
$CMLJUST
70
0
9
$CMLSCALE
40
1
9
$CMLSTYLE
2
Standard
9
$DIMSTYLE
2
Standard
9
$TEXTSIZE
40
0.2
9
$TEXTSTYLE
7
Standard
9
$LUNITS
70
2
9
$LUPREC
70
4
9
$EXTNAMES
290
1
9
$INSUNITS
70
4
9
$LTSCALE
40
1
9
$LWDISPLAY
290
1
9
$PDMODE
70
0
9
$PDSIZE
40
0
9
$PLINEGEN
70
0
0
ENDSEC
0
SECTION
2
CLASSES
0
CLASS
1
RASTERVARIABLES
2
AcDbRasterVariables
3
ISM
90
0
280
0
281
0
0
ENDSEC
0
SECTION
2
TABLES
0
TABLE
2
VPORT
5
2be
100
AcDbSymbolTable
0
VPORT
5
1
100
AcDbSymbolTableRecord
100
AcDbViewportTableRecord
2
*Active
70
0
10
0
20
0
11
1
21
1
12
-1
22
1
13
0
23
0
14
0.5
24
0.5
15
10
25
10
16
0
26
0
36
1
17
0
27
0
37
0
0
ENDTAB
0
TABLE
2
LTYPE
5
2bf
100
AcDbSymbolTable
0
LTYPE
5
14
100
AcDbSymbolTableRecord
100
AcDbLinetypeTableRecord
70
0
2
ByBlock
3

72
65
73
0
40
0
0
LTYPE
5
15
100
AcDbSymbolTableRecord
100
AcDbLinetypeTableRecord
70
0
2
ByLayer
3

72
65
73
0
40
0
0
LTYPE
5
16
100
AcDbSymbolTableRecord
100
AcDbLinetypeTableRecord
70
0
2
Continuous
3
Solid line
72
65
73
0
40
0
0
LTYPE
5
6E
100
AcDbSymbolTableRecord
100
AcDbLinetypeTableRecord
70
0
2
CENTER
3
____ _ ____ _ ____ _ ____
72
65
73
4
40
47.5
49
22
74
0
49
-8.5
74
0
49
8.5
74
0
49
-8.5
74
0
0
LTYPE
5
6F
100
AcDbSymbolTableRecord
100
AcDbLinetypeTableRecord
70
0
2
DASHED
3
__ __ __ __ __ __ __ __ __
72
65
73
2
40
25.72
49
12.86
74
0
49
-12.86
74
0
0
ENDTAB
0
TABLE
2
LAYER
5
2c0
100
AcDbSymbolTable
0
LAYER
5
10
100
AcDbSymbolTableRecord
100
AcDbLayerTableRecord
2
0
70
0
62
7
6
Continuous
290
1
370
-3
390
0
0
LAYER
5
71
100
AcDbSymbolTableRecord
100
AcDbLayerTableRecord
2
80
70
0
62
-6
6
Continuous
290
1
370
-3
390
0
0
LAYER
5
73
100
AcDbSymbolTableRecord
100
AcDbLayerTableRecord
2
81
70
0
62
-3
6
Continuous
290
1
370
-3
390
0
0
LAYER
5
75
100
AcDbSymbolTableRecord
100
AcDbLayerTableRecord
2
1
70
0
62
4
6
Continuous
290
1
370
-3
390
0
0
LAYER
5
87
100
AcDbSymbolTableRecord
100
AcDbLayerTableRecord
2
4
70
0
62
-2
6
CENTER
290
1
370
-3
390
0
0
LAYER
5
1B7
100
AcDbSymbolTableRecord
100
AcDbLayerTableRecord
2
Defpoints
70
0
62
7
6
Continuous
290
0
370
-3
390
0
0
LAYER
5
1F4
100
AcDbSymbolTableRecord
100
AcDbLayerTableRecord
2
2
70
0
62
7
6
Continuous
290
1
370
-3
390
0
0
LAYER
5
2aa
100
AcDbSymbolTableRecord
100
AcDbLayerTableRecord
2
SK4
70
0
62
2
6
CENTER
290
1
370
-3
390
0
0
LAYER
5
2ab
100
AcDbSymbolTableRecord
100
AcDbLayerTableRecord
2
SK1
70
0
62
4
6
Continuous
290
1
370
-3
390
0
0
LAYER
5
2ac
100
AcDbSymbolTableRecord
100
AcDbLayerTableRecord
2
SK2
70
0
62
7
6
Continuous
290
1
370
-3
390
0
0
LAYER
5
2ad
100
AcDbSymbolTableRecord
100
AcDbLayerTableRecord
2
SK6
70
0
62
5
6
Continuous
290
1
370
-3
390
0
0
ENDTAB
0
TABLE
2
STYLE
5
2c1
100
AcDbSymbolTable
0
STYLE
5
11
100
AcDbSymbolTableRecord
100
AcDbTextStyleTableRecord
2
Standard
3
txt
70
0
71
0
40
0
41
1
42
0
50
0
0
STYLE
5
1A5
100
AcDbSymbolTableRecord
100
AcDbTextStyleTableRecord
2
iso_b_vert
3
simplex.shx
70
0
71
0
40
0
41
1
42
0
50
0
0
STYLE
5
1A6
100
AcDbSymbolTableRecord
100
AcDbTextStyleTableRecord
2
DWGDirectTextStyle
3
simplex
70
0
71
0
40
0
41
1
42
0
50
0
0
ENDTAB
0
TABLE
2
DIMSTYLE
5
2c2
100
AcDbSymbolTable
100
AcDbDimStyleTable
0
DIMSTYLE
105
27
100
AcDbSymbolTableRecord
100
AcDbDimStyleTableRecord
2
Standard
70
0
3
<>
41
0.18
42
0.0625
44
0.18
140
0.18
147
0.09
73
0
74
0
77
1
271
2
275
0
278
52
280
0
340
11
0
ENDTAB
0
TABLE
2
VIEW
5
2c3
100
AcDbSymbolTable
0
ENDTAB
0
TABLE
2
UCS
5
2c4
100
AcDbSymbolTable
0
ENDTAB
0
TABLE
2
APPID
5
2c5
100
AcDbSymbolTable
0
APPID
5
12
100
AcDbSymbolTableRecord
100
AcDbRegAppTableRecord
2
ACAD
70
0
0
APPID
5
1B3
100
AcDbSymbolTableRecord
100
AcDbRegAppTableRecord
2
ACAD_DSTYLE_DIMBREAK
70
0
0
APPID
5
269
100
AcDbSymbolTableRecord
100
AcDbRegAppTableRecord
2
ACAD_DSTYLE_DIM_LINETYPE
70
0
0
APPID
5
26A
100
AcDbSymbolTableRecord
100
AcDbRegAppTableRecord
2
ACAD_DSTYLE_DIM_EXT1_LINETYPE
70
0
0
APPID
5
26B
100
AcDbSymbolTableRecord
100
AcDbRegAppTableRecord
2
ACAD_DSTYLE_DIM_EXT2_LINETYPE
70
0
0
APPID
5
2A6
100
AcDbSymbolTableRecord
100
AcDbRegAppTableRecord
2
ACAD_MLEADERVER
70
0
0
ENDTAB
0
TABLE
2
BLOCK_RECORD
5
2c6
100
AcDbSymbolTable
0
BLOCK_RECORD
5
1F
100
AcDbSymbolTableRecord
100
AcDbBlockTableRecord
2
*Model_Space
340
0
70
0
0
BLOCK_RECORD
5
1B
100
AcDbSymbolTableRecord
100
AcDbBlockTableRecord
2
*Paper_Space
340
0
70
0
0
BLOCK_RECORD
5
23
100
AcDbSymbolTableRecord
100
AcDbBlockTableRecord
2
*Paper_Space0
340
0
70
0
0
BLOCK_RECORD
5
1B8
100
AcDbSymbolTableRecord
100
AcDbBlockTableRecord
2
*D1
340
0
70
0
0
BLOCK_RECORD
5
1C4
100
AcDbSymbolTableRecord
100
AcDbBlockTableRecord
2
_U0
340
0
70
0
0
BLOCK_RECORD
5
1D0
100
AcDbSymbolTableRecord
100
AcDbBlockTableRecord
2
*D3
340
0
70
0
0
BLOCK_RECORD
5
1DC
100
AcDbSymbolTableRecord
100
AcDbBlockTableRecord
2
_U1
340
0
70
0
0
BLOCK_RECORD
5
1E8
100
AcDbSymbolTableRecord
100
AcDbBlockTableRecord
2
*D5
340
0
70
0
0
BLOCK_RECORD
5
1F5
100
AcDbSymbolTableRecord
100
AcDbBlockTableRecord
2
_U2
340
0
70
0
0
BLOCK_RECORD
5
201
100
AcDbSymbolTableRecord
100
AcDbBlockTableRecord
2
*D7
340
0
70
0
0
BLOCK_RECORD
5
20E
100
AcDbSymbolTableRecord
100
AcDbBlockTableRecord
2
_U3
340
0
70
0
0
BLOCK_RECORD
5
21A
100
AcDbSymbolTableRecord
100
AcDbBlockTableRecord
2
*D9
340
0
70
0
0
BLOCK_RECORD
5
227
100
AcDbSymbolTableRecord
100
AcDbBlockTableRecord
2
_U4
340
0
70
0
0
BLOCK_RECORD
5
234
100
AcDbSymbolTableRecord
100
AcDbBlockTableRecord
2
*D11
340
0
70
0
0
BLOCK_RECORD
5
241
100
AcDbSymbolTableRecord
100
AcDbBlockTableRecord
2
_U5
340
0
70
0
0
ENDTAB
0
ENDSEC
0
SECTION
2
BLOCKS
0
BLOCK
5
20
100
AcDbEntity
8
0
100
AcDbBlockBegin
2
*Model_Space
70
0
10
0
20
0
30
0
3
*Model_Space
0
ENDBLK
5
21
100
AcDbEntity
8
0
100
AcDbBlockEnd
0
BLOCK
5
1C
100
AcDbEntity
8
0
100
AcDbBlockBegin
2
*Paper_Space
70
0
10
0
20
0
30
0
3
*Paper_Space
0
ENDBLK
5
1D
100
AcDbEntity
8
0
100
AcDbBlockEnd
0
BLOCK
5
24
100
AcDbEntity
8
0
100
AcDbBlockBegin
2
*Paper_Space0
70
0
10
0
20
0
30
0
3
*Paper_Space0
0
ENDBLK
5
25
100
AcDbEntity
8
0
100
AcDbBlockEnd
0
BLOCK
5
1B9
100
AcDbEntity
8
0
100
AcDbBlockBegin
2
*D1
70
1
10
0
20
0
30
0
3
*D1
0
LINE
5
1BB
100
AcDbEntity
8
0
62
256
6
ByLayer
370
-2
48
1
60
0
100
AcDbLine
10
-24.65
20
-1.5875
30
0
11
-24.65
21
-53.863052
31
0
39
0
210
0
220
0
230
1
0
LINE
5
1BC
100
AcDbEntity
8
0
62
256
6
ByLayer
370
-2
48
1
60
0
100
AcDbLine
10
65.35
20
-1.5875
30
0
11
65.35
21
-53.863052
31
0
39
0
210
0
220
0
230
1
0
LINE
5
1BD
100
AcDbEntity
8
0
62
256
6
ByLayer
370
-2
48
1
60
0
100
AcDbLine
10
-21.15
20
-51.863052
30
0
11
61.85
21
-51.863052
31
0
39
0
210
0
220
0
230
1
0
SOLID
5
1BE
100
AcDbEntity
8
0
62
256
6
ByLayer
370
-1
48
1
60
0
100
AcDbTrace
10
-21.15
20
-51.279719
30
0
11
-21.15
21
-52.446385
31
0
12
-24.65
22
-51.863052
32
0
13
-24.65
23
-51.863052
33
0
39
0
210
0
220
0
230
1
0
SOLID
5
1BF
100
AcDbEntity
8
0
62
256
6
ByLayer
370
-1
48
1
60
0
100
AcDbTrace
10
61.85
20
-52.446385
30
0
11
61.85
21
-51.279719
31
0
12
65.35
22
-51.863052
32
0
13
65.35
23
-51.863052
33
0
39
0
210
0
220
0
230
1
0
MTEXT
5
1C0
100
AcDbEntity
8
0
62
256
6
ByLayer
370
18
48
1
60
0
100
AcDbMText
10
20.35
20
-44.863052
30
0
210
0
220
0
230
1
1
\A1;90
40
3.5
41
0
44
1
50
0
71
5
72
5
7
iso_b_vert
0
POINT
5
1C1
100
AcDbEntity
8
Defpoints
62
0
6
ByLayer
370
-1
48
1
60
0
100
AcDbPoint
10
-24.65
20
0
30
0
39
0
210
0
220
0
230
1
50
360
0
POINT
5
1C2
100
AcDbEntity
8
Defpoints
62
0
6
ByLayer
370
-1
48
1
60
0
100
AcDbPoint
10
65.35
20
0
30
0
39
0
210
0
220
0
230
1
50
360
0
POINT
5
1C3
100
AcDbEntity
8
Defpoints
62
0
6
ByLayer
370
-1
48
1
60
0
100
AcDbPoint
10
65.35
20
-51.863052
30
0
39
0
210
0
220
0
230
1
50
360
0
ENDBLK
5
1BA
100
AcDbEntity
8
0
100
AcDbBlockEnd
0
BLOCK
5
1CB
100
AcDbEntity
8
0
100
AcDbBlockBegin
2
_U0
70
0
10
0
20
0
30
0
3
_U0
0
MTEXT
5
1C5
100
AcDbEntity
8
SK2
62
256
6
ByLayer
370
18
48
1
60
0
100
AcDbMText
10
16.428301
20
-50.830419
30
0
210
0
220
0
230
1
1
\W0.7346;90.0
40
3.5
41
0
44
1.084337
50
0
71
7
72
5
7
iso_b_vert
0
LINE
5
1C6
100
AcDbEntity
8
SK2
62
256
6
ByLayer
370
13
48
1
60
0
100
AcDbLine
10
-24.65
20
-1.5875
30
0
11
-24.65
21
-53.863052
31
0
39
0
210
0
220
0
230
1
0
LINE
5
1C7
100
AcDbEntity
8
SK2
62
256
6
ByLayer
370
13
48
1
60
0
100
AcDbLine
10
65.35
20
-1.5875
30
0
11
65.35
21
-53.863052
31
0
39
0
210
0
220
0
230
1
0
LINE
5
1C8
100
AcDbEntity
8
SK2
62
256
6
ByLayer
370
13
48
1
60
0
100
AcDbLine
10
-24.65
20
-51.863052
30
0
11
65.35
21
-51.863052
31
0
39
0
210
0
220
0
230
1
0
SOLID
5
1C9
100
AcDbEntity
8
SK2
62
256
6
ByLayer
370
18
48
1
60
0
100
AcDbTrace
10
-24.65
20
-51.863052
30
0
11
-21.150002
21
-51.402268
31
0
12
-21.149998
22
-52.323836
32
0
13
-21.149998
23
-52.323836
33
0
39
0
210
0
220
0
230
1
0
SOLID
5
1CA
100
AcDbEntity
8
SK2
62
256
6
ByLayer
370
18
48
1
60
0
100
AcDbTrace
10
65.35
20
-51.863052
30
0
11
61.850002
21
-52.323836
31
0
12
61.849998
22
-51.402268
32
0
13
61.849998
23
-51.402268
33
0
39
0
210
0
220
0
230
1
0
ENDBLK
5
1CC
100
AcDbEntity
8
0
100
AcDbBlockEnd
0
BLOCK
5
1D1
100
AcDbEntity
8
0
100
AcDbBlockBegin
2
*D3
70
1
10
0
20
0
30
0
3
*D3
0
LINE
5
1D3
100
AcDbEntity
8
0
62
256
6
ByLayer
370
-2
48
1
60
0
100
AcDbLine
10
65.35
20
-1.5875
30
0
11
65.35
21
-45.863052
31
0
39
0
210
0
220
0
230
1
0
LINE
5
1D4
100
AcDbEntity
8
0
62
256
6
ByLayer
370
-2
48
1
60
0
100
AcDbLine
10
31.85
20
-1.5875
30
0
11
31.85
21
-45.863052
31
0
39
0
210
0
220
0
230
1
0
LINE
5
1D5
100
AcDbEntity
8
0
62
256
6
ByLayer
370
-2
48
1
60
0
100
AcDbLine
10
61.85
20
-43.863052
30
0
11
35.35
21
-43.863052
31
0
39
0
210
0
220
0
230
1
0
SOLID
5
1D6
100
AcDbEntity
8
0
62
256
6
ByLayer
370
-1
48
1
60
0
100
AcDbTrace
10
61.85
20
-44.446385
30
0
11
61.85
21
-43.279719
31
0
12
65.35
22
-43.863052
32
0
13
65.35
23
-43.863052
33
0
39
0
210
0
220
0
230
1
0
SOLID
5
1D7
100
AcDbEntity
8
0
62
256
6
ByLayer
370
-1
48
1
60
0
100
AcDbTrace
10
35.35
20
-43.279719
30
0
11
35.35
21
-44.446385
31
0
12
31.85
22
-43.863052
32
0
13
31.85
23
-43.863052
33
0
39
0
210
0
220
0
230
1
0
MTEXT
5
1D8
100
AcDbEntity
8
0
62
256
6
ByLayer
370
18
48
1
60
0
100
AcDbMText
10
48.6
20
-36.863052
30
0
210
0
220
0
230
1
1
\A1;33.5
40
3.5
41
0
44
1
50
0
71
5
72
5
7
iso_b_vert
0
POINT
5
1D9
100
AcDbEntity
8
Defpoints
62
0
6
ByLayer
370
-1
48
1
60
0
100
AcDbPoint
10
65.35
20
0
30
0
39
0
210
0
220
0
230
1
50
360
0
POINT
5
1DA
100
AcDbEntity
8
Defpoints
62
0
6
ByLayer
370
-1
48
1
60
0
100
AcDbPoint
10
31.85
20
0
30
0
39
0
210
0
220
0
230
1
50
360
0
POINT
5
1DB
100
AcDbEntity
8
Defpoints
62
0
6
ByLayer
370
-1
48
1
60
0
100
AcDbPoint
10
31.85
20
-43.863052
30
0
39
0
210
0
220
0
230
1
50
360
0
ENDBLK
5
1D2
100
AcDbEntity
8
0
100
AcDbBlockEnd
0
BLOCK
5
1E3
100
AcDbEntity
8
0
100
AcDbBlockBegin
2
_U1
70
0
10
0
20
0
30
0
3
_U1
0
MTEXT
5
1DD
100
AcDbEntity
8
SK2
62
256
6
ByLayer
370
18
48
1
60
0
100
AcDbMText
10
44.678301
20
-42.830419
30
0
210
0
220
0
230
1
1
\W0.7346;33.5
40
3.5
41
0
44
1.084337
50
0
71
7
72
5
7
iso_b_vert
0
LINE
5
1DE
100
AcDbEntity
8
SK2
62
256
6
ByLayer
370
13
48
1
60
0
100
AcDbLine
10
65.35
20
-1.5875
30
0
11
65.35
21
-45.863052
31
0
39
0
210
0
220
0
230
1
0
LINE
5
1DF
100
AcDbEntity
8
SK2
62
256
6
ByLayer
370
13
48
1
60
0
100
AcDbLine
10
31.85
20
-1.5875
30
0
11
31.85
21
-45.863052
31
0
39
0
210
0
220
0
230
1
0
LINE
5
1E0
100
AcDbEntity
8
SK2
62
256
6
ByLayer
370
13
48
1
60
0
100
AcDbLine
10
65.35
20
-43.863052
30
0
11
31.85
21
-43.863052
31
0
39
0
210
0
220
0
230
1
0
SOLID
5
1E1
100
AcDbEntity
8
SK2
62
256
6
ByLayer
370
18
48
1
60
0
100
AcDbTrace
10
65.35
20
-43.863052
30
0
11
61.850002
21
-44.323836
31
0
12
61.849998
22
-43.402268
32
0
13
61.849998
23
-43.402268
33
0
39
0
210
0
220
0
230
1
0
SOLID
5
1E2
100
AcDbEntity
8
SK2
62
256
6
ByLayer
370
18
48
1
60
0
100
AcDbTrace
10
31.85
20
-43.863052
30
0
11
35.349998
21
-43.402268
31
0
12
35.350002
22
-44.323836
32
0
13
35.350002
23
-44.323836
33
0
39
0
210
0
220
0
230
1
0
ENDBLK
5
1E4
100
AcDbEntity
8
0
100
AcDbBlockEnd
0
BLOCK
5
1E9
100
AcDbEntity
8
0
100
AcDbBlockBegin
2
*D5
70
1
10
0
20
0
30
0
3
*D5
0
LINE
5
1EB
100
AcDbEntity
8
0
62
256
6
ByLayer
370
-2
48
1
60
0
100
AcDbLine
10
65.35
20
-1.5875
30
0
11
65.35
21
-37.863052
31
0
39
0
210
0
220
0
230
1
0
LINE
5
1EC
100
AcDbEntity
8
0
62
256
6
ByLayer
370
-2
48
1
60
0
100
AcDbLine
10
36.875
20
-1.5875
30
0
11
36.875
21
-37.863052
31
0
39
0
210
0
220
0
230
1
0
LINE
5
1ED
100
AcDbEntity
8
0
62
256
6
ByLayer
370
-2
48
1
60
0
100
AcDbLine
10
61.85
20
-35.863052
30
0
11
40.375
21
-35.863052
31
0
39
0
210
0
220
0
230
1
0
SOLID
5
1EE
100
AcDbEntity
8
0
62
256
6
ByLayer
370
-1
48
1
60
0
100
AcDbTrace
10
61.85
20
-36.446385
30
0
11
61.85
21
-35.279719
31
0
12
65.35
22
-35.863052
32
0
13
65.35
23
-35.863052
33
0
39
0
210
0
220
0
230
1
0
SOLID
5
1EF
100
AcDbEntity
8
0
62
256
6
ByLayer
370
-1
48
1
60
0
100
AcDbTrace
10
40.375
20
-35.279719
30
0
11
40.375
21
-36.446385
31
0
12
36.875
22
-35.863052
32
0
13
36.875
23
-35.863052
33
0
39
0
210
0
220
0
230
1
0
MTEXT
5
1F0
100
AcDbEntity
8
0
62
256
6
ByLayer
370
18
48
1
60
0
100
AcDbMText
10
51.1125
20
-28.863052
30
0
210
0
220
0
230
1
1
\A1;28.48
40
3.5
41
0
44
1
50
0
71
5
72
5
7
iso_b_vert
0
POINT
5
1F1
100
AcDbEntity
8
Defpoints
62
0
6
ByLayer
370
-1
48
1
60
0
100
AcDbPoint
10
65.35
20
0
30
0
39
0
210
0
220
0
230
1
50
360
0
POINT
5
1F2
100
AcDbEntity
8
Defpoints
62
0
6
ByLayer
370
-1
48
1
60
0
100
AcDbPoint
10
36.875
20
0
30
0
39
0
210
0
220
0
230
1
50
360
0
POINT
5
1F3
100
AcDbEntity
8
Defpoints
62
0
6
ByLayer
370
-1
48
1
60
0
100
AcDbPoint
10
36.875
20
-35.863052
30
0
39
0
210
0
220
0
230
1
50
360
0
ENDBLK
5
1EA
100
AcDbEntity
8
0
100
AcDbBlockEnd
0
BLOCK
5
1FC
100
AcDbEntity
8
0
100
AcDbBlockBegin
2
_U2
70
0
10
0
20
0
30
0
3
_U2
0
MTEXT
5
1F6
100
AcDbEntity
8
2
62
256
6
ByLayer
370
18
48
1
60
0
100
AcDbMText
10
47.190801
20
-34.830419
30
0
210
0
220
0
230
1
1
\W0.7346;28.5
40
3.5
41
0
44
1.084337
50
0
71
7
72
5
7
iso_b_vert
0
LINE
5
1F7
100
AcDbEntity
8
2
62
256
6
ByLayer
370
13
48
1
60
0
100
AcDbLine
10
65.35
20
-1.5875
30
0
11
65.35
21
-37.863052
31
0
39
0
210
0
220
0
230
1
0
LINE
5
1F8
100
AcDbEntity
8
2
62
256
6
ByLayer
370
13
48
1
60
0
100
AcDbLine
10
36.875
20
-1.5875
30
0
11
36.875
21
-37.863052
31
0
39
0
210
0
220
0
230
1
0
LINE
5
1F9
100
AcDbEntity
8
2
62
256
6
ByLayer
370
13
48
1
60
0
100
AcDbLine
10
65.35
20
-35.863052
30
0
11
36.875
21
-35.863052
31
0
39
0
210
0
220
0
230
1
0
SOLID
5
1FA
100
AcDbEntity
8
2
62
256
6
ByLayer
370
18
48
1
60
0
100
AcDbTrace
10
65.35
20
-35.863052
30
0
11
61.850002
21
-36.323836
31
0
12
61.849998
22
-35.402268
32
0
13
61.849998
23
-35.402268
33
0
39
0
210
0
220
0
230
1
0
SOLID
5
1FB
100
AcDbEntity
8
2
62
256
6
ByLayer
370
18
48
1
60
0
100
AcDbTrace
10
36.875
20
-35.863052
30
0
11
40.374998
21
-35.402268
31
0
12
40.375002
22
-36.323836
32
0
13
40.375002
23
-36.323836
33
0
39
0
210
0
220
0
230
1
0
ENDBLK
5
1FD
100
AcDbEntity
8
0
100
AcDbBlockEnd
0
BLOCK
5
202
100
AcDbEntity
8
0
100
AcDbBlockBegin
2
*D7
70
1
10
0
20
0
30
0
3
*D7
0
LINE
5
204
100
AcDbEntity
8
0
62
256
6
ByLayer
370
-2
48
1
60
0
100
AcDbLine
10
65.35
20
-1.5875
30
0
11
65.35
21
-29.863052
31
0
39
0
210
0
220
0
230
1
0
LINE
5
205
100
AcDbEntity
8
0
62
256
6
ByLayer
370
-2
48
1
60
0
100
AcDbLine
10
53.35
20
-1.5875
30
0
11
53.35
21
-29.863052
31
0
39
0
210
0
220
0
230
1
0
LINE
5
206
100
AcDbEntity
8
0
62
256
6
ByLayer
370
-2
48
1
60
0
100
AcDbLine
10
68.85
20
-27.863052
30
0
11
72.35
21
-27.863052
31
0
39
0
210
0
220
0
230
1
0
LINE
5
207
100
AcDbEntity
8
0
62
256
6
ByLayer
370
-2
48
1
60
0
100
AcDbLine
10
49.85
20
-27.863052
30
0
11
46.35
21
-27.863052
31
0
39
0
210
0
220
0
230
1
0
SOLID
5
208
100
AcDbEntity
8
0
62
256
6
ByLayer
370
-1
48
1
60
0
100
AcDbTrace
10
68.85
20
-27.279719
30
0
11
68.85
21
-28.446385
31
0
12
65.35
22
-27.863052
32
0
13
65.35
23
-27.863052
33
0
39
0
210
0
220
0
230
1
0
SOLID
5
209
100
AcDbEntity
8
0
62
256
6
ByLayer
370
-1
48
1
60
0
100
AcDbTrace
10
49.85
20
-28.446385
30
0
11
49.85
21
-27.279719
31
0
12
53.35
22
-27.863052
32
0
13
53.35
23
-27.863052
33
0
39
0
210
0
220
0
230
1
0
MTEXT
5
20A
100
AcDbEntity
8
0
62
256
6
ByLayer
370
18
48
1
60
0
100
AcDbMText
10
59.35
20
-20.863052
30
0
210
0
220
0
230
1
1
\A1;12
40
3.5
41
0
44
1
50
0
71
5
72
5
7
iso_b_vert
0
POINT
5
20B
100
AcDbEntity
8
Defpoints
62
0
6
ByLayer
370
-1
48
1
60
0
100
AcDbPoint
10
65.35
20
0
30
0
39
0
210
0
220
0
230
1
50
360
0
POINT
5
20C
100
AcDbEntity
8
Defpoints
62
0
6
ByLayer
370
-1
48
1
60
0
100
AcDbPoint
10
53.35
20
0
30
0
39
0
210
0
220
0
230
1
50
360
0
POINT
5
20D
100
AcDbEntity
8
Defpoints
62
0
6
ByLayer
370
-1
48
1
60
0
100
AcDbPoint
10
53.35
20
-27.863052
30
0
39
0
210
0
220
0
230
1
50
360
0
ENDBLK
5
203
100
AcDbEntity
8
0
100
AcDbBlockEnd
0
BLOCK
5
215
100
AcDbEntity
8
0
100
AcDbBlockBegin
2
_U3
70
0
10
0
20
0
30
0
3
_U3
0
MTEXT
5
20F
100
AcDbEntity
8
SK2
62
256
6
ByLayer
370
18
48
1
60
0
100
AcDbMText
10
55.865734
20
-26.830419
30
0
210
0
220
0
230
1
1
\W0.6563;12.0
40
3.5
41
0
44
1.084337
50
0
71
7
72
5
7
iso_b_vert
0
LINE
5
210
100
AcDbEntity
8
SK2
62
256
6
ByLayer
370
13
48
1
60
0
100
AcDbLine
10
65.35
20
-1.5875
30
0
11
65.35
21
-29.863052
31
0
39
0
210
0
220
0
230
1
0
LINE
5
211
100
AcDbEntity
8
SK2
62
256
6
ByLayer
370
13
48
1
60
0
100
AcDbLine
10
53.35
20
-1.5875
30
0
11
53.35
21
-29.863052
31
0
39
0
210
0
220
0
230
1
0
LINE
5
212
100
AcDbEntity
8
SK2
62
256
6
ByLayer
370
13
48
1
60
0
100
AcDbLine
10
65.35
20
-27.863052
30
0
11
53.35
21
-27.863052
31
0
39
0
210
0
220
0
230
1
0
SOLID
5
213
100
AcDbEntity
8
SK2
62
256
6
ByLayer
370
18
48
1
60
0
100
AcDbTrace
10
65.35
20
-27.863052
30
0
11
61.850002
21
-28.323836
31
0
12
61.849998
22
-27.402268
32
0
13
61.849998
23
-27.402268
33
0
39
0
210
0
220
0
230
1
0
SOLID
5
214
100
AcDbEntity
8
SK2
62
256
6
ByLayer
370
18
48
1
60
0
100
AcDbTrace
10
53.35
20
-27.863052
30
0
11
56.849998
21
-27.402268
31
0
12
56.850002
22
-28.323836
32
0
13
56.850002
23
-28.323836
33
0
39
0
210
0
220
0
230
1
0
ENDBLK
5
216
100
AcDbEntity
8
0
100
AcDbBlockEnd
0
BLOCK
5
21B
100
AcDbEntity
8
0
100
AcDbBlockBegin
2
*D9
70
1
10
0
20
0
30
0
3
*D9
0
LINE
5
21D
100
AcDbEntity
8
0
62
256
6
ByLayer
370
-2
48
1
60
0
100
AcDbLine
10
65.35
20
1.5875
30
0
11
65.35
21
10.298973
31
0
39
0
210
0
220
0
230
1
0
LINE
5
21E
100
AcDbEntity
8
0
62
256
6
ByLayer
370
-2
48
1
60
0
100
AcDbLine
10
61.47
20
1.5875
30
0
11
61.47
21
10.298973
31
0
39
0
210
0
220
0
230
1
0
LINE
5
21F
100
AcDbEntity
8
0
62
256
6
ByLayer
370
-2
48
1
60
0
100
AcDbLine
10
68.85
20
8.298973
30
0
11
72.35
21
8.298973
31
0
39
0
210
0
220
0
230
1
0
LINE
5
220
100
AcDbEntity
8
0
62
256
6
ByLayer
370
-2
48
1
60
0
100
AcDbLine
10
57.97
20
8.298973
30
0
11
54.47
21
8.298973
31
0
39
0
210
0
220
0
230
1
0
SOLID
5
221
100
AcDbEntity
8
0
62
256
6
ByLayer
370
-1
48
1
60
0
100
AcDbTrace
10
68.85
20
8.882306
30
0
11
68.85
21
7.71564
31
0
12
65.35
22
8.298973
32
0
13
65.35
23
8.298973
33
0
39
0
210
0
220
0
230
1
0
SOLID
5
222
100
AcDbEntity
8
0
62
256
6
ByLayer
370
-1
48
1
60
0
100
AcDbTrace
10
57.97
20
7.71564
30
0
11
57.97
21
8.882306
31
0
12
61.47
22
8.298973
32
0
13
61.47
23
8.298973
33
0
39
0
210
0
220
0
230
1
0
MTEXT
5
223
100
AcDbEntity
8
0
62
256
6
ByLayer
370
18
48
1
60
0
100
AcDbMText
10
63.41
20
15.298973
30
0
210
0
220
0
230
1
1
\A1;3.88
40
3.5
41
0
44
1
50
0
71
5
72
5
7
iso_b_vert
0
POINT
5
224
100
AcDbEntity
8
Defpoints
62
0
6
ByLayer
370
-1
48
1
60
0
100
AcDbPoint
10
65.35
20
0
30
0
39
0
210
0
220
0
230
1
50
360
0
POINT
5
225
100
AcDbEntity
8
Defpoints
62
0
6
ByLayer
370
-1
48
1
60
0
100
AcDbPoint
10
61.47
20
0
30
0
39
0
210
0
220
0
230
1
50
360
0
POINT
5
226
100
AcDbEntity
8
Defpoints
62
0
6
ByLayer
370
-1
48
1
60
0
100
AcDbPoint
10
61.47
20
8.298973
30
0
39
0
210
0
220
0
230
1
50
360
0
ENDBLK
5
21C
100
AcDbEntity
8
0
100
AcDbBlockEnd
0
BLOCK
5
22F
100
AcDbEntity
8
0
100
AcDbBlockBegin
2
_U4
70
0
10
0
20
0
30
0
3
_U4
0
MTEXT
5
228
100
AcDbEntity
8
SK2
62
256
6
ByLayer
370
18
48
1
60
0
100
AcDbMText
10
59.488301
20
16.331606
30
0
210
0
220
0
230
1
1
\W0.7346;3.88
40
3.5
41
0
44
1.084337
50
0
71
7
72
5
7
iso_b_vert
0
MTEXT
5
229
100
AcDbEntity
8
SK2
62
256
6
ByLayer
370
18
48
1
60
0
100
AcDbMText
10
59.488301
20
9.331606
30
0
210
0
220
0
230
1
1
\W0.6474;'C'
40
3.5
41
0
44
1.084337
50
0
71
7
72
5
7
iso_b_vert
0
LINE
5
22A
100
AcDbEntity
8
SK2
62
256
6
ByLayer
370
13
48
1
60
0
100
AcDbLine
10
65.35
20
1.5875
30
0
11
65.35
21
10.298973
31
0
39
0
210
0
220
0
230
1
0
LINE
5
22B
100
AcDbEntity
8
SK2
62
256
6
ByLayer
370
13
48
1
60
0
100
AcDbLine
10
61.47
20
1.5875
30
0
11
61.47
21
10.298973
31
0
39
0
210
0
220
0
230
1
0
LINE
5
22C
100
AcDbEntity
8
SK2
62
256
6
ByLayer
370
13
48
1
60
0
100
AcDbLine
10
74.1
20
8.298973
30
0
11
52.72
21
8.298973
31
0
39
0
210
0
220
0
230
1
0
SOLID
5
22D
100
AcDbEntity
8
SK2
62
256
6
ByLayer
370
18
48
1
60
0
100
AcDbTrace
10
65.35
20
8.298973
30
0
11
68.849998
21
8.759757
31
0
12
68.850002
22
7.838189
32
0
13
68.850002
23
7.838189
33
0
39
0
210
0
220
0
230
1
0
SOLID
5
22E
100
AcDbEntity
8
SK2
62
256
6
ByLayer
370
18
48
1
60
0
100
AcDbTrace
10
61.47
20
8.298973
30
0
11
57.970002
21
7.838189
31
0
12
57.969998
22
8.759757
32
0
13
57.969998
23
8.759757
33
0
39
0
210
0
220
0
230
1
0
ENDBLK
5
230
100
AcDbEntity
8
0
100
AcDbBlockEnd
0
BLOCK
5
235
100
AcDbEntity
8
0
100
AcDbBlockBegin
2
*D11
70
1
10
0
20
0
30
0
3
*D11
0
LINE
5
237
100
AcDbEntity
8
0
62
256
6
ByLayer
370
-2
48
1
60
0
100
AcDbLine
10
66.9375
20
-4.024486
30
0
11
84.1
21
-4.024486
31
0
39
0
210
0
220
0
230
1
0
LINE
5
238
100
AcDbEntity
8
0
62
256
6
ByLayer
370
-2
48
1
60
0
100
AcDbLine
10
66.9375
20
4.024486
30
0
11
84.1
21
4.024486
31
0
39
0
210
0
220
0
230
1
0
LINE
5
239
100
AcDbEntity
8
0
62
256
6
ByLayer
370
-2
48
1
60
0
100
AcDbLine
10
82.1
20
-7.524486
30
0
11
82.1
21
-11.024486
31
0
39
0
210
0
220
0
230
1
0
LINE
5
23A
100
AcDbEntity
8
0
62
256
6
ByLayer
370
-2
48
1
60
0
100
AcDbLine
10
82.1
20
7.524486
30
0
11
82.1
21
11.024486
31
0
39
0
210
0
220
0
230
1
0
SOLID
5
23B
100
AcDbEntity
8
0
62
256
6
ByLayer
370
-1
48
1
60
0
100
AcDbTrace
10
82.683333
20
-7.524486
30
0
11
81.516667
21
-7.524486
31
0
12
82.1
22
-4.024486
32
0
13
82.1
23
-4.024486
33
0
39
0
210
0
220
0
230
1
0
SOLID
5
23C
100
AcDbEntity
8
0
62
256
6
ByLayer
370
-1
48
1
60
0
100
AcDbTrace
10
81.516667
20
7.524486
30
0
11
82.683333
21
7.524486
31
0
12
82.1
22
4.024486
32
0
13
82.1
23
4.024486
33
0
39
0
210
0
220
0
230
1
0
MTEXT
5
23D
100
AcDbEntity
8
0
62
256
6
ByLayer
370
18
48
1
60
0
100
AcDbMText
10
75.1
20
0
30
0
210
0
220
0
230
1
1
\A1;8.05
40
3.5
41
0
44
1
50
90
71
5
72
5
7
iso_b_vert
0
POINT
5
23E
100
AcDbEntity
8
Defpoints
62
0
6
ByLayer
370
-1
48
1
60
0
100
AcDbPoint
10
65.35
20
-4.024486
30
0
39
0
210
0
220
0
230
1
50
360
0
POINT
5
23F
100
AcDbEntity
8
Defpoints
62
0
6
ByLayer
370
-1
48
1
60
0
100
AcDbPoint
10
65.35
20
4.024486
30
0
39
0
210
0
220
0
230
1
50
360
0
POINT
5
240
100
AcDbEntity
8
Defpoints
62
0
6
ByLayer
370
-1
48
1
60
0
100
AcDbPoint
10
82.1
20
4.024486
30
0
39
0
210
0
220
0
230
1
50
360
0
ENDBLK
5
236
100
AcDbEntity
8
0
100
AcDbBlockEnd
0
BLOCK
5
249
100
AcDbEntity
8
0
100
AcDbBlockBegin
2
_U5
70
0
10
0
20
0
30
0
3
_U5
0
MTEXT
5
242
100
AcDbEntity
8
2
62
256
6
ByLayer
370
18
48
1
60
0
100
AcDbMText
10
81.410366
20
-20.113097
30
0
210
0
220
0
230
1
1
\W0.7003;UNC 5/16-18
40
3.5
41
0
44
1.084337
50
90
71
7
72
5
7
iso_b_vert
0
MTEXT
5
243
100
AcDbEntity
8
2
62
256
6
ByLayer
370
18
48
1
60
0
100
AcDbMText
10
81.410366
20
10.371032
30
0
210
0
220
0
230
1
1
\W0.7601; 3BX
40
3.5
41
0
44
1.084337
50
90
71
7
72
5
7
iso_b_vert
0
LINE
5
244
100
AcDbEntity
8
2
62
256
6
ByLayer
370
13
48
1
60
0
100
AcDbLine
10
66.9375
20
-4.024486
30
0
11
84.1
21
-4.024486
31
0
39
0
210
0
220
0
230
1
0
LINE
5
245
100
AcDbEntity
8
2
62
256
6
ByLayer
370
13
48
1
60
0
100
AcDbLine
10
66.9375
20
4.024486
30
0
11
84.1
21
4.024486
31
0
39
0
210
0
220
0
230
1
0
LINE
5
246
100
AcDbEntity
8
2
62
256
6
ByLayer
370
13
48
1
60
0
100
AcDbLine
10
82.1
20
20.270597
30
0
11
82.1
21
-20.270597
31
0
39
0
210
0
220
0
230
1
0
SOLID
5
247
100
AcDbEntity
8
2
62
256
6
ByLayer
370
18
48
1
60
0
100
AcDbTrace
10
82.1
20
-4.024486
30
0
11
81.639216
21
-0.524488
31
0
12
82.560784
22
-0.524485
32
0
13
82.560784
23
-0.524485
33
0
39
0
210
0
220
0
230
1
0
SOLID
5
248
100
AcDbEntity
8
2
62
256
6
ByLayer
370
18
48
1
60
0
100
AcDbTrace
10
82.1
20
4.024486
30
0
11
82.560784
21
0.524488
31
0
12
81.639216
22
0.524485
32
0
13
81.639216
23
0.524485
33
0
39
0
210
0
220
0
230
1
0
ENDBLK
5
24A
100
AcDbEntity
8
0
100
AcDbBlockEnd
0
ENDSEC
0
SECTION
2
ENTITIES
0
ARC
5
C7
100
AcDbEntity
8
SK1
62
256
6
ByLayer
370
18
48
1
60
0
100
AcDbCircle
39
0
10
-18.025
20
0
30
0
40
3.87696
210
0
220
0
230
1
100
AcDbArc
50
321.283517
51
38.716483
0
ARC
5
C8
100
AcDbEntity
8
1
62
256
6
ByLayer
370
18
48
1
60
0
100
AcDbCircle
39
0
10
52.076928
20
4.0577
30
0
40
1.1
210
0
220
0
230
1
100
AcDbArc
50
270
51
282.138467
0
ARC
5
C9
100
AcDbEntity
8
1
62
256
6
ByLayer
370
18
48
1
60
0
100
AcDbCircle
39
0
10
31.946238
20
-4.0577
30
0
40
1.1
210
0
220
0
230
1
100
AcDbArc
50
90
51
100
0
ARC
5
CA
100
AcDbEntity
8
1
62
256
6
ByLayer
370
18
48
1
60
0
100
AcDbCircle
39
0
10
31.946238
20
4.0577
30
0
40
1.1
210
0
220
0
230
1
100
AcDbArc
50
260
51
270
0
POINT
5
70
100
AcDbEntity
8
80
62
256
6
ByLayer
370
18
48
1
60
0
100
AcDbPoint
10
0
20
0
30
0
39
0
210
0
220
0
230
1
50
360
0
POINT
5
72
100
AcDbEntity
8
81
62
256
6
ByLayer
370
18
48
1
60
0
100
AcDbPoint
10
65.35
20
0
30
0
39
0
210
0
220
0
230
1
50
360
0
POINT
5
74
100
AcDbEntity
8
1
62
256
6
ByLayer
370
18
48
1
60
0
100
AcDbPoint
10
-24.65
20
0
30
0
39
0
210
0
220
0
230
1
50
360
0
POINT
5
76
100
AcDbEntity
8
1
62
256
6
ByLayer
370
18
48
1
60
1
100
AcDbPoint
10
-24.65
20
0
30
0
39
0
210
0
220
0
230
1
50
360
0
POINT
5
77
100
AcDbEntity
8
1
62
256
6
ByLayer
370
18
48
1
60
1
100
AcDbPoint
10
65.35
20
0
30
0
39
0
210
0
220
0
230
1
50
360
0
POINT
5
78
100
AcDbEntity
8
1
62
256
6
ByLayer
370
18
48
1
60
1
100
AcDbPoint
10
65.35
20
0
30
0
39
0
210
0
220
0
230
1
50
360
0
POINT
5
79
100
AcDbEntity
8
1
62
256
6
ByLayer
370
18
48
1
60
1
100
AcDbPoint
10
31.85
20
0
30
0
39
0
210
0
220
0
230
1
50
360
0
POINT
5
7A
100
AcDbEntity
8
1
62
256
6
ByLayer
370
18
48
1
60
1
100
AcDbPoint
10
65.35
20
0
30
0
39
0
210
0
220
0
230
1
50
360
0
POINT
5
7B
100
AcDbEntity
8
1
62
256
6
ByLayer
370
18
48
1
60
1
100
AcDbPoint
10
36.875
20
0
30
0
39
0
210
0
220
0
230
1
50
360
0
POINT
5
7C
100
AcDbEntity
8
1
62
256
6
ByLayer
370
18
48
1
60
1
100
AcDbPoint
10
65.35
20
0
30
0
39
0
210
0
220
0
230
1
50
360
0
POINT
5
7D
100
AcDbEntity
8
1
62
256
6
ByLayer
370
18
48
1
60
1
100
AcDbPoint
10
53.35
20
0
30
0
39
0
210
0
220
0
230
1
50
360
0
POINT
5
7E
100
AcDbEntity
8
1
62
256
6
ByLayer
370
18
48
1
60
1
100
AcDbPoint
10
65.35
20
0
30
0
39
0
210
0
220
0
230
1
50
360
0
POINT
5
7F
100
AcDbEntity
8
1
62
256
6
ByLayer
370
18
48
1
60
1
100
AcDbPoint
10
61.47
20
0
30
0
39
0
210
0
220
0
230
1
50
360
0
POINT
5
80
100
AcDbEntity
8
1
62
256
6
ByLayer
370
18
48
1
60
1
100
AcDbPoint
10
65.35
20
-4.024486
30
0
39
0
210
0
220
0
230
1
50
360
0
POINT
5
81
100
AcDbEntity
8
1
62
256
6
ByLayer
370
18
48
1
60
1
100
AcDbPoint
10
65.35
20
4.024486
30
0
39
0
210
0
220
0
230
1
50
360
0
SPLINE
5
CB
100
AcDbEntity
8
1
62
256
6
ByLayer
370
18
48
1
60
0
100
AcDbSpline
70
4
71
3
72
11
73
7
40
0
40
0
40
0
40
0
40
0.182178454763757
40
0.182178454763757
40
0.415010811293416
40
1
40
1
40
1
40
1
41
1
10
56.2162817210639
20
-3.92339332463612
30
0
41
1
10
56.217519517151
20
-3.92281976365598
30
0
41
1
10
56.2187557350984
20
-3.92203381172377
30
0
41
1
10
56.2215617442731
20
-3.91976592552371
30
0
41
1
10
56.2270742945291
20
-3.91409087802623
30
0
41
1
10
56.2325143488958
20
-3.90423293510602
30
0
41
1
10
56.2363919898627
20
-3.89507446523965
30
0
0
SPLINE
5
CC
100
AcDbEntity
8
1
62
256
6
ByLayer
370
18
48
1
60
0
100
AcDbSpline
70
4
71
3
72
10
73
6
40
0
40
0
40
0
40
0
40
0.0792843894869994
40
0.0792843894869994
40
1
40
1
40
1
40
1
41
1
10
55.9318854259805
20
-3.88539838926857
30
0
41
1
10
55.931248844933
20
-3.88530708134721
30
0
41
1
10
55.9306125958809
20
-3.88517575206217
30
0
41
1
10
55.9225913924828
20
-3.88301534381768
30
0
41
1
10
55.9152425564169
20
-3.87563693171378
30
0
41
1
10
55.9078630480545
20
-3.86283341870393
30
0
0
SPLINE
5
CD
100
AcDbEntity
8
1
62
256
6
ByLayer
370
13
48
1
60
0
100
AcDbSpline
70
4
71
3
72
8
73
4
40
0
40
0
40
0
40
0
40
1
40
1
40
1
40
1
41
1.04
10
57.646898598019
20
3.21268887736236
30
0
41
1.04
10
57.6532194244313
20
3.22229446580541
30
0
41
1.04
10
57.6595814296677
20
3.22815920538043
30
0
41
1.04
10
57.6659846040114
20
3.23015692931583
30
0
0
SPLINE
5
CE
100
AcDbEntity
8
1
62
256
6
ByLayer
370
18
48
1
60
0
100
AcDbSpline
70
4
71
3
72
9
73
5
40
0
40
0
40
0
40
0
40
0.555899756299582
40
1
40
1
40
1
40
1
41
1
10
58.1669836669649
20
3.96859971594239
30
0
41
1
10
58.1601363309451
20
3.98936099266783
30
0
41
1
10
58.1477647017599
20
4.01619969715998
30
0
41
1
10
58.1352097489704
20
4.02448653722215
30
0
41
1
10
58.1295904199845
20
4.02448744028672
30
0
0
SPLINE
5
CF
100
AcDbEntity
8
1
62
256
6
ByLayer
370
13
48
1
60
0
100
AcDbSpline
70
4
71
3
72
8
73
4
40
0
40
0
40
0
40
0
40
1
40
1
40
1
40
1
41
1.04
10
55.5151729693143
20
-3.18194705023339
30
0
41
1.04
10
55.5194259530501
20
-3.19267185040446
30
0
41
1.04
10
55.523692279311
20
-3.20173396840919
30
0
41
1.04
10
55.5279720215639
20
-3.20908062426055
30
0
0
SPLINE
5
D0
100
AcDbEntity
8
1
62
256
6
ByLayer
370
18
48
1
60
0
100
AcDbSpline
70
4
71
3
72
10
73
6
40
0
40
0
40
0
40
0
40
0.206276451404656
40
0.206276451404656
40
1
40
1
40
1
40
1
41
1
10
58.2893227027596
20
4.00796983109726
30
0
41
1
10
58.2910919137062
20
4.00502926232701
30
0
41
1
10
58.2928545111475
20
4.00169987685584
30
0
41
1
10
58.3013776670537
20
3.98368650215067
30
0
41
1
10
58.3080784615227
20
3.96367758568732
30
0
41
1
10
58.3148099975139
20
3.93798641771843
30
0
0
SPLINE
5
D1
100
AcDbEntity
8
1
62
256
6
ByLayer
370
18
48
1
60
0
100
AcDbSpline
70
4
71
3
72
10
73
6
40
0
40
0
40
0
40
0
40
0.146162811591986
40
0.146162811591986
40
1
40
1
40
1
40
1
41
1
10
62.6348968879715
20
-3.29756515487145
30
0
41
1
10
62.6321052844638
20
-3.29242693920492
30
0
41
1
10
62.6293076408711
20
-3.28682673120321
30
0
41
1
10
62.6101141938468
20
-3.24535963662183
30
0
41
1
10
62.5934013778051
20
-3.19423436998704
30
0
41
1
10
62.5763027377699
20
-3.12688402285647
30
0
0
SPLINE
5
D2
100
AcDbEntity
8
1
62
256
6
ByLayer
370
13
48
1
60
0
100
AcDbSpline
70
4
71
3
72
8
73
4
40
0
40
0
40
0
40
0
40
1
40
1
40
1
40
1
41
1
10
58.7529912690914
20
3.21046085887767
30
0
41
1
10
58.765714902142
20
3.18870446515595
30
0
41
1
10
58.7785233387332
20
3.15108685733588
30
0
41
1
10
58.7914391822106
20
3.09787803509181
30
0
0
SPLINE
5
D3
100
AcDbEntity
8
1
62
256
6
ByLayer
370
13
48
1
60
0
100
AcDbSpline
70
4
71
3
72
8
73
4
40
0
40
0
40
0
40
0
40
1
40
1
40
1
40
1
41
1.04
10
62.5353908502095
20
-3.05478331573245
30
0
41
1.04
10
62.5513461740154
20
-3.12969637219619
30
0
41
1.04
10
62.567326630873
20
-3.18164734798416
30
0
41
1.04
10
62.5833737852744
20
-3.20920379584195
30
0
0
SPLINE
5
D4
100
AcDbEntity
8
1
62
256
6
ByLayer
370
13
48
1
60
0
100
AcDbSpline
70
4
71
3
72
9
73
5
40
0
40
0
40
0
40
0
40
0.909757665681979
40
1
40
1
40
1
40
1
41
1
10
55.136258990648
20
-3.10524545407429
30
0
41
1
10
55.1626544843957
20
-3.21016239231415
30
0
41
1
10
55.19224106983
20
-3.25765819835343
30
0
41
1
10
55.2224793438947
20
-3.21496457741284
30
0
41
1
10
55.2252137274114
20
-3.21037593605297
30
0
0
SPLINE
5
D5
100
AcDbEntity
8
1
62
256
6
ByLayer
370
13
48
1
60
0
100
AcDbSpline
70
4
71
3
72
8
73
4
40
0
40
0
40
0
40
0
40
1
40
1
40
1
40
1
41
1
10
62.1566068197506
20
-2.92835392243103
30
0
41
1
10
62.1949541366374
20
-3.16181325772533
30
0
41
1
10
62.2333213385778
20
-3.26628892208822
30
0
41
1
10
62.2722870919172
20
-3.22228619677082
30
0
0
SPLINE
5
D6
100
AcDbEntity
8
1
62
256
6
ByLayer
370
18
48
1
60
0
100
AcDbSpline
70
4
71
3
72
8
73
4
40
0
40
0
40
0
40
0
40
1
40
1
40
1
40
1
41
1
10
62.2722870765991
20
-3.2222862140691
30
0
41
1
10
62.2752000274552
20
-3.21899671874138
30
0
41
1
10
62.2781163233533
20
-3.21487744256649
30
0
41
1
10
62.2810362060499
20
-3.20992024099206
30
0
0
SPLINE
5
D7
100
AcDbEntity
8
1
62
256
6
ByLayer
370
18
48
1
60
0
100
AcDbSpline
70
4
71
3
72
18
73
14
40
0
40
0
40
0
40
0
40
0.225523047124345
40
0.451046094248689
40
0.676569141373034
40
0.676569141373034
40
0.732949903154119
40
0.732949903154119
40
0.789330664935205
40
0.789330664935205
40
0.902092188497377
40
0.902092188497377
40
1
40
1
40
1
40
1
41
1
10
54.8227165347595
20
-3.44535652339036
30
0
41
1
10
54.8288545802912
20
-3.48858040550709
30
0
41
1
10
54.841016694251
20
-3.56541713587879
30
0
41
1
10
54.8592816851205
20
-3.65258068914309
30
0
41
1
10
54.871610839057
20
-3.69200282666279
30
0
41
1
10
54.8793820000949
20
-3.71067332861247
30
0
41
1
10
54.8809394206827
20
-3.71410843840519
30
0
41
1
10
54.8840607741356
20
-3.72037509546411
30
0
41
1
10
54.885626334619
20
-3.72320918111649
30
0
41
1
10
54.890321066725
20
-3.73077776948915
30
0
41
1
10
54.8934402857493
20
-3.7345690684327
30
0
41
1
10
54.8992469864159
20
-3.73935265109139
30
0
41
1
10
54.9019372804674
20
-3.74064922026753
30
0
41
1
10
54.9046183047307
20
-3.74102702492144
30
0
0
SPLINE
5
D8
100
AcDbEntity
8
1
62
256
6
ByLayer
370
18
48
1
60
0
100
AcDbSpline
70
4
71
3
72
17
73
13
40
0
40
0
40
0
40
0
40
0.011000608194055
40
0.011000608194055
40
0.208800486555244
40
0.406600364916433
40
0.406600364916433
40
0.604400243277622
40
0.604400243277622
40
0.802200121638811
40
0.802200121638811
40
1
40
1
40
1
40
1
41
1
10
54.3728428873737
20
-3.64921464215337
30
0
41
1
10
54.3724418120779
20
-3.64858040695714
30
0
41
1
10
54.3720408355687
20
-3.64793169638827
30
0
41
1
10
54.3644317088759
20
-3.63534434671183
30
0
41
1
10
54.3500729402429
20
-3.60216472103156
30
0
41
1
10
54.3356892071567
20
-3.55055221138693
30
0
41
1
10
54.3212553930942
20
-3.48962776194051
30
0
41
1
10
54.3140117879282
20
-3.45450424090399
30
0
41
1
10
54.2994858590014
20
-3.37465478878451
30
0
41
1
10
54.2923284510885
20
-3.33052530580918
30
0
41
1
10
54.2781513500692
20
-3.23412388175703
30
0
41
1
10
54.2711153109395
20
-3.18184970705204
30
0
41
1
10
54.2640466068799
20
-3.12553341720914
30
0
0
SPLINE
5
D9
100
AcDbEntity
8
1
62
256
6
ByLayer
370
13
48
1
60
0
100
AcDbSpline
70
4
71
3
72
9
73
5
40
0
40
0
40
0
40
0
40
0.396692050944402
40
1
40
1
40
1
40
1
41
1.04
10
54.0108602866976
20
-2.68423987331197
30
0
41
1.04
10
54.0243849825213
20
-2.79270542275672
30
0
41
1.04
10
54.0589610006541
20
-3.0336287079496
30
0
41
1.04
10
54.0944780514984
20
-3.17041025661513
30
0
41
1.04
10
54.1163277808434
20
-3.20811749168484
30
0
0
SPLINE
5
DA
100
AcDbEntity
8
1
62
256
6
ByLayer
370
18
48
1
60
0
100
AcDbSpline
70
4
71
3
72
8
73
4
40
0
40
0
40
0
40
0
40
1
40
1
40
1
40
1
41
1.04
10
59.056084323501
20
3.20998425759724
30
0
41
1.04
10
59.0580929514382
20
3.21345731082109
30
0
41
1.04
10
59.0601039725295
20
3.21654688682528
30
0
41
1.04
10
59.0621172292857
20
3.2192453781707
30
0
0
SPLINE
5
DB
100
AcDbEntity
8
1
62
256
6
ByLayer
370
13
48
1
60
0
100
AcDbSpline
70
4
71
3
72
9
73
5
40
0
40
0
40
0
40
0
40
0.167067670259621
40
1
40
1
40
1
40
1
41
1.04
10
59.0621172292856
20
3.21924537817067
30
0
41
1.04
10
59.0680304399753
20
3.22717121665154
30
0
41
1.04
10
59.1035399868149
20
3.25441789970612
30
0
41
1.04
10
59.1395975531157
20
3.15388419066211
30
0
41
1.04
10
59.1703048521424
20
2.98476386151266
30
0
0
SPLINE
5
DC
100
AcDbEntity
8
1
62
256
6
ByLayer
370
18
48
1
60
0
100
AcDbSpline
70
4
71
3
72
21
73
17
40
0
40
0
40
0
40
0
40
0.159109341920023
40
0.318218683840047
40
0.318218683840047
40
0.397773354800059
40
0.397773354800059
40
0.477328025760071
40
0.477328025760071
40
0.636437367680095
40
0.795546709600118
40
0.954656051520142
40
0.954656051520142
40
0.994433387000148
40
0.994433387000148
40
1
40
1
40
1
40
1
41
1
10
59.6712132008982
20
3.36043864758949
30
0
41
1
10
59.664357274513
20
3.42924630085528
30
0
41
1
10
59.6507183607887
20
3.55642186478076
30
0
41
1
10
59.6369915430602
20
3.66309801090432
30
0
41
1
10
59.6265889472288
20
3.73536211805345
30
0
41
1
10
59.6231036608822
20
3.75815761995438
30
0
41
1
10
59.6160875153292
20
3.80112898269047
30
0
41
1
10
59.6125518642214
20
3.82132363302537
30
0
41
1
10
59.6019645395972
20
3.87740828199367
30
0
41
1
10
59.5878370204074
20
3.94061189158236
30
0
41
1
10
59.5665572403584
20
4.00160887390138
30
0
41
1
10
59.5523882192477
20
4.01976191602688
30
0
41
1
10
59.5436031434773
20
4.02389837182147
30
0
41
1
10
59.5418498540364
20
4.02436442946455
30
0
41
1
10
59.5398568275308
20
4.02447964784395
30
0
41
1
10
59.539612227089
20
4.02448662113687
30
0
41
1
10
59.5393677261588
20
4.02448642566037
30
0
0
SPLINE
5
DD
100
AcDbEntity
8
1
62
256
6
ByLayer
370
18
48
1
60
0
100
AcDbSpline
70
4
71
3
72
22
73
18
40
0
40
0
40
0
40
0
40
0.0426682293414549
40
0.0426682293414549
40
0.129698390310413
40
0.129698390310413
40
0.303758712248329
40
0.477819034186246
40
0.651879356124162
40
0.651879356124162
40
0.695394436608642
40
0.695394436608642
40
0.738909517093122
40
0.738909517093122
40
0.825939678062081
40
0.825939678062081
40
1
40
1
40
1
40
1
41
1
10
59.6997025848893
20
4.00795610802447
30
0
41
1
10
59.7013636295507
20
4.00518568988636
30
0
41
1
10
59.7030261576631
20
4.00206468100436
30
0
41
1
10
59.7080892962229
20
3.99150525214651
30
0
41
1
10
59.7115052622063
20
3.98293018123289
30
0
41
1
10
59.7217326149547
20
3.95302682287053
30
0
41
1
10
59.7353750772641
20
3.90195547811098
30
0
41
1
10
59.7561873143316
20
3.79265455655093
30
0
41
1
10
59.7703501807518
20
3.69802997950373
30
0
41
1
10
59.779263046146
20
3.63192432977033
30
0
41
1
10
59.781048494651
20
3.61835420587156
30
0
41
1
10
59.7846237048454
20
3.59050879640736
30
0
41
1
10
59.78641514576
20
3.57621925059368
30
0
41
1
10
59.7917710474684
20
3.53246558915299
30
0
41
1
10
59.795322947119
20
3.50207775302067
30
0
41
1
10
59.8059454727092
20
3.4073028629233
30
0
41
1
10
59.8129857936812
20
3.33931217759061
30
0
41
1
10
59.8200100125099
20
3.26653798927038
30
0
0
SPLINE
5
DE
100
AcDbEntity
8
1
62
256
6
ByLayer
370
18
48
1
60
0
100
AcDbSpline
70
4
71
3
72
8
73
4
40
0
40
0
40
0
40
0
40
1
40
1
40
1
40
1
41
1
10
60.1618198184319
20
3.21313992628308
30
0
41
1
10
60.1657310400973
20
3.20706035075892
30
0
41
1
10
60.1696478509121
20
3.19951699235548
30
0
41
1
10
60.1735698898749
20
3.19052142910743
30
0
0
SPLINE
5
DF
100
AcDbEntity
8
1
62
256
6
ByLayer
370
13
48
1
60
0
100
AcDbSpline
70
4
71
3
72
9
73
5
40
0
40
0
40
0
40
0
40
0.583449792051417
40
1
40
1
40
1
40
1
41
1
10
60.1735698898748
20
3.19052142910743
30
0
41
1
10
60.1971669344018
20
3.13639940009995
30
0
41
1
10
60.2379353027022
20
2.95353916182884
30
0
41
1
10
60.2790286553773
20
2.62366319113474
30
0
41
1
10
60.2961096947217
20
2.46457650750799
30
0
0
SPLINE
5
E0
100
AcDbEntity
8
1
62
256
6
ByLayer
370
18
48
1
60
0
100
AcDbSpline
70
4
71
3
72
24
73
20
40
0
40
0
40
0
40
0
40
0.155790182503655
40
0.155790182503655
40
0.31158036500731
40
0.31158036500731
40
0.467370547510965
40
0.467370547510965
40
0.545265638762793
40
0.545265638762793
40
0.584213184388707
40
0.584213184388707
40
0.62316073001462
40
0.62316073001462
40
0.778950912518274
40
0.778950912518274
40
0.934741095021928
40
0.934741095021928
40
1
40
1
40
1
40
1
41
1
10
61.9247598847733
20
-3.12436394146792
30
0
41
1
10
61.9277901578395
20
-3.18197437156482
30
0
41
1
10
61.9307582264348
20
-3.23538092926626
30
0
41
1
10
61.9365720486286
20
-3.33399154890543
30
0
41
1
10
61.9394329705102
20
-3.37918655995358
30
0
41
1
10
61.9453227673703
20
-3.46115339455344
30
0
41
1
10
61.9483598358266
20
-3.49791267655482
30
0
41
1
10
61.9530251859635
20
-3.54674399401097
30
0
41
1
10
61.9545992357048
20
-3.56196702801282
30
0
41
1
10
61.9569930545506
20
-3.58319497928815
30
0
41
1
10
61.95779750199
20
-3.59001053609268
30
0
41
1
10
61.9594118356233
20
-3.6030428452267
30
0
41
1
10
61.960222137937
20
-3.60926413740313
30
0
41
1
10
61.9642938392101
20
-3.63890633100806
30
0
41
1
10
61.9676105110687
20
-3.65795357305757
30
0
41
1
10
61.9745602336796
20
-3.68666309662231
30
0
41
1
10
61.9781942213971
20
-3.69632339381789
30
0
41
1
10
61.9838160718606
20
-3.70298780809961
30
0
41
1
10
61.985536806586
20
-3.70407855291964
30
0
41
1
10
61.9872947709405
20
-3.70432559227331
30
0
0
SPLINE
5
E1
100
AcDbEntity
8
1
62
256
6
ByLayer
370
18
48
1
60
0
100
AcDbSpline
70
4
71
3
72
24
73
20
40
0
40
0
40
0
40
0
40
0.166057832952494
40
0.332846266361999
40
0.332846266361999
40
0.374543374714375
40
0.374543374714375
40
0.41624048306675
40
0.499634699771501
40
0.499634699771501
40
0.666423133181001
40
0.666423133181001
40
0.833211566590502
40
0.833211566590502
40
0.916605783295251
40
0.916605783295251
40
0.958302891647626
40
0.958302891647626
40
1
40
1
40
1
40
1
41
1
10
61.5725922428686
20
-3.89817321629315
30
0
41
1
10
61.5642523521779
20
-3.88209308678421
30
0
41
1
10
61.5474134648773
20
-3.83856152263928
30
0
41
1
10
61.5304937431178
20
-3.7728606312528
30
0
41
1
10
61.5198405900809
20
-3.72460127281917
30
0
41
1
10
61.5177085311808
20
-3.71459933348783
30
0
41
1
10
61.5134581387145
20
-3.69398578704684
30
0
41
1
10
61.507095291062
20
-3.66211587464792
30
0
41
1
10
61.5007607166953
20
-3.62742513083225
30
0
41
1
10
61.4880953186915
20
-3.55432046405869
30
0
41
1
10
61.479641578641
20
-3.5006055700992
30
0
41
1
10
61.4626324940461
20
-3.38336316387085
30
0
41
1
10
61.4540871291316
20
-3.31985081606183
30
0
41
1
10
61.441179739194
20
-3.21718983854731
30
0
41
1
10
61.4368621650987
20
-3.18173489585948
30
0
41
1
10
61.4303575421538
20
-3.12666954742329
30
0
41
1
10
61.428184236497
20
-3.10799661988841
30
0
41
1
10
61.4238422045238
20
-3.07014976358553
30
0
41
1
10
61.4216716112452
20
-3.05096022199646
30
0
41
1
10
61.4195008997993
20
-3.03150507108578
30
0
0
SPLINE
5
E2
100
AcDbEntity
8
1
62
256
6
ByLayer
370
13
48
1
60
0
100
AcDbSpline
70
4
71
3
72
9
73
5
40
0
40
0
40
0
40
0
40
0.467761590450753
40
1
40
1
40
1
40
1
41
1
10
53.6319430392126
20
-2.48112765578494
30
0
41
1
10
53.6534983059475
20
-2.67961127939014
30
0
41
1
10
53.7008118995051
20
-3.04299962343146
30
0
41
1
10
53.7499116643412
20
-3.20793111890319
30
0
41
1
10
53.7766930991239
20
-3.22723724278077
30
0
0
SPLINE
5
E3
100
AcDbEntity
8
1
62
256
6
ByLayer
370
13
48
1
60
0
100
AcDbSpline
70
4
71
3
72
8
73
4
40
0
40
0
40
0
40
0
40
1
40
1
40
1
40
1
41
1.04
10
61.0310201358362
20
-2.36922197139824
30
0
41
1.04
10
61.0729620511492
20
-2.7793445239623
30
0
41
1.04
10
61.1151533063374
20
-3.06909621673082
30
0
41
1.04
10
61.1586178126429
20
-3.18066022669456
30
0
0
SPLINE
5
E4
100
AcDbEntity
8
1
62
256
6
ByLayer
370
18
48
1
60
0
100
AcDbSpline
70
4
71
3
72
8
73
4
40
0
40
0
40
0
40
0
40
1
40
1
40
1
40
1
41
1.04
10
61.1586178927935
20
-3.1806604324236
30
0
41
1.04
10
61.162727696462
20
-3.19120939063378
30
0
41
1.04
10
61.1668488839213
20
-3.20016522189371
30
0
41
1.04
10
61.1709823207791
20
-3.2074790482345
30
0
0
SPLINE
5
E5
100
AcDbEntity
8
1
62
256
6
ByLayer
370
18
48
1
60
0
100
AcDbSpline
70
4
71
3
72
24
73
20
40
0
40
0
40
0
40
0
40
0.125
40
0.249999999999999
40
0.249999999999999
40
0.312499999999999
40
0.312499999999999
40
0.343749999999999
40
0.343749999999999
40
0.374999999999999
40
0.5
40
0.5
40
0.750000000000001
40
0.750000000000001
40
0.8125
40
0.8125
40
0.875
40
0.875
40
1
40
1
40
1
40
1
41
1
10
53.4402559087982
20
-2.54972409526789
30
0
41
1
10
53.4460432848349
20
-2.62014732857924
30
0
41
1
10
53.4576367383712
20
-2.75451316041989
30
0
41
1
10
53.4694704418165
20
-2.87597024929397
30
0
41
1
10
53.4784618679977
20
-2.96213176335931
30
0
41
1
10
53.4814778978484
20
-2.99002922900271
30
0
41
1
10
53.4860296971798
20
-3.03061851336611
30
0
41
1
10
53.4875519319199
20
-3.04394113686578
30
0
41
1
10
53.4905903738778
20
-3.07003793171865
30
0
41
1
10
53.498180256386
20
-3.13398986899628
30
0
41
1
10
53.5057345551522
20
-3.19157118911445
30
0
41
1
10
53.5237027321528
20
-3.31780691251487
30
0
41
1
10
53.5353881812038
20
-3.38609487301855
30
0
41
1
10
53.5501394287416
20
-3.45128745925248
30
0
41
1
10
53.5530964286915
20
-3.46331072205814
30
0
41
1
10
53.5590328702151
20
-3.48528950605274
30
0
41
1
10
53.5619961076929
20
-3.49518303818303
30
0
41
1
10
53.5708569791219
20
-3.52155130645383
30
0
41
1
10
53.5767369074705
20
-3.53475856012568
30
0
41
1
10
53.5826056983073
20
-3.54369116283735
30
0
0
SPLINE
5
E6
100
AcDbEntity
8
1
62
256
6
ByLayer
370
18
48
1
60
0
100
AcDbSpline
70
4
71
3
72
22
73
18
40
0
40
0
40
0
40
0
40
0.125
40
0.125
40
0.1875
40
0.1875
40
0.25
40
0.25
40
0.499999999999998
40
0.499999999999998
40
0.624999999999998
40
0.624999999999998
40
0.687499999999998
40
0.687499999999998
40
0.749999999999998
40
0.749999999999998
40
1
40
1
40
1
40
1
41
1
10
53.0539340614257
20
3.29372495072985
30
0
41
1
10
53.058553395769
20
3.27928894049984
30
0
41
1
10
53.0632345928619
20
3.26109119183991
30
0
41
1
10
53.0703550011215
20
3.22800233316369
30
0
41
1
10
53.0727463292819
20
3.21599135770256
30
0
41
1
10
53.0775127984553
20
3.1902490298987
30
0
41
1
10
53.0798932711355
20
3.17649477796684
30
0
41
1
10
53.0917621548298
20
3.10336398682742
30
0
41
1
10
53.1010607174553
20
3.03094777343958
30
0
41
1
10
53.1147981582178
20
2.90169654701029
30
0
41
1
10
53.1193556066717
20
2.85516517663842
30
0
41
1
10
53.1262053051377
20
2.78008824458612
30
0
41
1
10
53.128495643062
20
2.75412257319434
30
0
41
1
10
53.1330513687962
20
2.70083825403344
30
0
41
1
10
53.1353194178006
20
2.67349430746762
30
0
41
1
10
53.1466285545751
20
2.53332860058166
30
0
41
1
10
53.1555829848939
20
2.41023904405714
30
0
41
1
10
53.164617128683
20
2.27641399117528
30
0
0
SPLINE
5
E7
100
AcDbEntity
8
1
62
256
6
ByLayer
370
13
48
1
60
0
100
AcDbSpline
70
4
71
3
72
9
73
5
40
0
40
0
40
0
40
0
40
0.300357260613259
40
1
40
1
40
1
40
1
41
1
10
53.1306129753055
20
3.15619393638585
30
0
41
1
10
53.1451989647111
20
3.11164173284857
30
0
41
1
10
53.1938023092701
20
2.89857145875041
30
0
41
1
10
53.2416556593771
20
2.47863296708641
30
0
41
1
10
53.2752179976968
20
2.11329903918022
30
0
0
SPLINE
5
E8
100
AcDbEntity
8
1
62
256
6
ByLayer
370
18
48
1
60
0
100
AcDbSpline
70
4
71
3
72
20
73
16
40
0
40
0
40
0
40
0
40
0.170852575345254
40
0.170852575345254
40
0.341705150690508
40
0.341705150690508
40
0.683410301381016
40
0.683410301381016
40
0.85426287672627
40
0.85426287672627
40
0.89697602056257
40
0.89697602056257
40
0.939689164398871
40
0.939689164398871
40
1
40
1
40
1
40
1
41
1
10
40.9374031612677
20
2.62293662269795
30
0
41
1
10
40.8741191635878
20
2.59852343779357
30
0
41
1
10
40.8098184883587
20
2.57369985956436
30
0
41
1
10
40.6791609905989
20
2.52371152762046
30
0
41
1
10
40.6127899972208
20
2.49855527673174
30
0
41
1
10
40.4101024724829
20
2.42365440645571
30
0
41
1
10
40.2702575043197
20
2.37441523488218
30
0
41
1
10
40.0510209952793
20
2.30664817062961
30
0
41
1
10
39.9763554510803
20
2.28508653635561
30
0
41
1
10
39.8806570394645
20
2.26011358189052
30
0
41
1
10
39.8613776704442
20
2.25521432918401
30
0
41
1
10
39.822757092674
20
2.2456848803869
30
0
41
1
10
39.8033985054979
20
2.24104987240881
30
0
41
1
10
39.7565839809754
20
2.23020832084191
30
0
41
1
10
39.729068551049
20
2.22417113646284
30
0
41
1
10
39.7014723993731
20
2.21836009701522
30
0
0
SPLINE
5
E9
100
AcDbEntity
8
1
62
256
6
ByLayer
370
18
48
1
60
0
100
AcDbSpline
70
4
71
3
72
18
73
14
40
0
40
0
40
0
40
0
40
0.008466415046625
40
0.008466415046625
40
0.0847382292738076
40
0.0847382292738076
40
0.237281857728173
40
0.237281857728173
40
0.389825486182538
40
0.389825486182538
40
0.694912743091269
40
0.694912743091269
40
1
40
1
40
1
40
1
41
1
10
37.4669252458714
20
2.95769956639211
30
0
41
1
10
37.4698217411089
20
2.95769780119545
30
0
41
1
10
37.4727212528573
20
2.95768970289188
30
0
41
1
10
37.5017682462821
20
2.9575456614086
30
0
41
1
10
37.5281743941494
20
2.9569075485409
30
0
41
1
10
37.6080194097372
20
2.95355300578567
30
0
41
1
10
37.6620774080097
20
2.94940140576898
30
0
41
1
10
37.7712769262998
20
2.93755660371431
30
0
41
1
10
37.8264224965156
20
2.92986116462129
30
0
41
1
10
37.9929425998914
20
2.90167829166714
30
0
41
1
10
38.1053653633945
20
2.87612308146879
30
0
41
1
10
38.331381754815
20
2.81166384143501
30
0
41
1
10
38.4449845754725
20
2.77274066694994
30
0
41
1
10
38.5589871347294
20
2.7268586249462
30
0
0
SPLINE
5
EA
100
AcDbEntity
8
1
62
256
6
ByLayer
370
13
48
1
60
0
100
AcDbSpline
70
4
71
3
72
9
73
5
40
0
40
0
40
0
40
0
40
0.129292210061379
40
1
40
1
40
1
40
1
41
1.04
10
53.5092756493447
20
3.06882727448011
30
0
41
1.04
10
53.5155724538863
20
3.04073779906625
30
0
41
1.04
10
53.564226811196
20
2.79598050374053
30
0
41
1.04
10
53.6121255956411
20
2.34213877801463
30
0
41
1.04
10
53.6541341208475
20
1.84597485241618
30
0
0
SPLINE
5
EB
100
AcDbEntity
8
1
62
256
6
ByLayer
370
18
48
1
60
0
100
AcDbSpline
70
4
71
3
72
20
73
16
40
0
40
0
40
0
40
0
40
0.125
40
0.25
40
0.25
40
0.375
40
0.5
40
0.5
40
0.5625
40
0.5625
40
0.625
40
0.625
40
0.75
40
0.75
40
1
40
1
40
1
40
1
41
1
10
65.4285724929037
20
0.149869649181881
30
0
41
1
10
65.4222464158946
20
0.0754030027885904
30
0
41
1
10
65.4103081588318
20
-0.0733740330276191
30
0
41
1
10
65.3997892043011
20
-0.221847726663839
30
0
41
1
10
65.3901029198907
20
-0.370174847366428
30
0
41
1
10
65.3812572644225
20
-0.518355610350312
30
0
41
1
10
65.3738133940894
20
-0.666230130590009
30
0
41
1
10
65.3687373994505
20
-0.777016210186588
30
0
41
1
10
65.36713673234
20
-0.81380300252161
30
0
41
1
10
65.3641385267342
20
-0.886660437499245
30
0
41
1
10
65.3627379106774
20
-0.922797936547198
30
0
41
1
10
65.3588425477972
20
-1.03034462514768
30
0
41
1
10
65.3566510282899
20
-1.10089043323225
30
0
41
1
10
65.351503536996
20
-1.30904390713906
30
0
41
1
10
65.3500340671557
20
-1.44316579627409
30
0
41
1
10
65.3500853249672
20
-1.57268849334997
30
0
0
SPLINE
5
EC
100
AcDbEntity
8
1
62
256
6
ByLayer
370
13
48
1
60
0
100
AcDbSpline
70
4
71
3
72
10
73
6
40
0
40
0
40
0
40
0
40
0.476066489538191
40
0.835957158592585
40
1
40
1
40
1
40
1
41
1.04
10
60.5297548081919
20
3.1887526331345
30
0
41
1.04
10
60.5525736293843
20
3.13529775707313
30
0
41
1.04
10
60.5929488651712
20
2.95528086736926
30
0
41
1.04
10
60.6416280721989
20
2.56689282949278
30
0
41
1.04
10
60.6670471471216
20
2.3151931833979
30
0
41
1.04
10
60.6750056872145
20
2.23212178166018
30
0
0
SPLINE
5
ED
100
AcDbEntity
8
1
62
256
6
ByLayer
370
13
48
1
60
0
100
AcDbSpline
70
4
71
3
72
10
73
6
40
0
40
0
40
0
40
0
40
0.0632145991649794
40
0.974035183193295
40
1
40
1
40
1
40
1
41
1.04
10
62.0339472339699
20
2.70934062232945
30
0
41
1.04
10
62.037036783868
20
2.68509559502986
30
0
41
1.04
10
62.0845998599823
20
2.30000039713315
30
0
41
1.04
10
62.1329039192845
20
1.72742724874968
30
0
41
1.04
10
62.1782894957048
20
1.11468139222204
30
0
41
1.04
10
62.1795475494114
20
1.09764205972093
30
0
0
SPLINE
5
EE
100
AcDbEntity
8
1
62
256
6
ByLayer
370
13
48
1
60
0
100
AcDbSpline
70
4
71
3
72
8
73
4
40
0
40
0
40
0
40
0
40
1
40
1
40
1
40
1
41
1
10
60.6523380880684
20
-2.1289758685806
30
0
41
1
10
60.7001927715014
20
-2.6462175679238
30
0
41
1
10
60.7481085993512
20
-3.02010950987094
30
0
41
1
10
60.797612735603
20
-3.1650338156881
30
0
0
SPLINE
5
EF
100
AcDbEntity
8
1
62
256
6
ByLayer
370
13
48
1
60
0
100
AcDbSpline
70
4
71
3
72
9
73
5
40
0
40
0
40
0
40
0
40
0.233784449672513
40
1
40
1
40
1
40
1
41
1
10
61.6551553781124
20
2.87792634880137
30
0
41
1
10
61.6666167037951
20
2.80286185561584
30
0
41
1
10
61.7153963917278
20
2.43528912669277
30
0
41
1
10
61.7636382956357
20
1.88787053218556
30
0
41
1
10
61.800626422661
20
1.4095244570691
30
0
0
SPLINE
5
F0
100
AcDbEntity
8
1
62
256
6
ByLayer
370
18
48
1
60
0
100
AcDbSpline
70
4
71
3
72
27
73
23
40
0
40
0
40
0
40
0
40
0.124999999999999
40
0.249999999999999
40
0.249999999999999
40
0.312499999999999
40
0.312499999999999
40
0.374999999999999
40
0.374999999999999
40
0.499999999999998
40
0.499999999999998
40
0.624999999999997
40
0.624999999999997
40
0.749999999999996
40
0.749999999999996
40
0.781249999999996
40
0.781249999999996
40
0.812499999999996
40
0.812499999999996
40
0.874999999999998
40
0.874999999999998
40
1
40
1
40
1
40
1
41
1
10
61.1760557067363
20
2.17892835631702
30
0
41
1
10
61.1690208052563
20
2.28410445729474
30
0
41
1
10
61.1549460086707
20
2.48703452487362
30
0
41
1
10
61.1407997449479
20
2.6753942861846
30
0
41
1
10
61.1301650569264
20
2.81116191059712
30
0
41
1
10
61.1266162507501
20
2.85549930457796
30
0
41
1
10
61.1195141442655
20
2.94231271765813
30
0
41
1
10
61.1159560518965
20
2.98484065435363
30
0
41
1
10
61.1053821190759
20
3.10844282362783
30
0
41
1
10
61.0984500015583
20
3.18592802043096
30
0
41
1
10
61.0846899015694
20
3.33132164833523
30
0
41
1
10
61.0778564511893
20
3.39922935936599
30
0
41
1
10
61.0642040462139
20
3.52547504973359
30
0
41
1
10
61.0573903440817
20
3.58381369835226
30
0
41
1
10
61.0488727458282
20
3.65060756798252
30
0
41
1
10
61.047168281085
20
3.66365921070812
30
0
41
1
10
61.0437540783797
20
3.68914181694382
30
0
41
1
10
61.0420429532991
20
3.7015819455724
30
0
41
1
10
61.0369195352111
20
3.73780321871635
30
0
41
1
10
61.0335106877493
20
3.76053549190181
30
0
41
1
10
61.0232714401875
20
3.82454074647171
30
0
41
1
10
61.0164260376706
20
3.86163096440393
30
0
41
1
10
61.0095012832649
20
3.89317664480367
30
0
0
SPLINE
5
F1
100
AcDbEntity
8
1
62
256
6
ByLayer
370
18
48
1
60
0
100
AcDbSpline
70
4
71
3
72
26
73
22
40
0
40
0
40
0
40
0
40
0.124999999999998
40
0.249999999999996
40
0.249999999999996
40
0.312499999999995
40
0.343749999999995
40
0.343749999999995
40
0.374999999999995
40
0.374999999999995
40
0.499999999999996
40
0.499999999999996
40
0.624999999999998
40
0.749999999999999
40
0.749999999999999
40
0.812499999999999
40
0.812499999999999
40
0.843749999999999
40
0.843749999999999
40
0.875
40
1
40
1
40
1
40
1
41
1
10
61.1568908878943
20
3.8486749700466
30
0
41
1
10
61.1638320016299
20
3.81201180582062
30
0
41
1
10
61.1776903154356
20
3.72795542951471
30
0
41
1
10
61.1916477867523
20
3.62295255317585
30
0
41
1
10
61.2021787617942
20
3.5363323792044
30
0
41
1
10
61.2074594888955
20
3.49105214736821
30
0
41
1
10
61.2127631657328
20
3.44278514537279
30
0
41
1
10
61.2163036990972
20
3.40993780556212
30
0
41
1
10
61.2180784668595
20
3.39315902666263
30
0
41
1
10
61.2269335262181
20
3.30786257202965
30
0
41
1
10
61.2339427140013
20
3.23524029274068
30
0
41
1
10
61.2478124836853
20
3.08150312652009
30
0
41
1
10
61.2615585516706
20
2.91927241652831
30
0
41
1
10
61.2752782187922
20
2.74017029973339
30
0
41
1
10
61.2856334837837
20
2.59939714728532
30
0
41
1
10
61.2890960723873
20
2.55139662820332
30
0
41
1
10
61.2943147979846
20
2.47775028212783
30
0
41
1
10
61.2960579696669
20
2.45293414518852
30
0
41
1
10
61.29953856535
20
2.40296985581892
30
0
41
1
10
61.3082348397305
20
2.27709506052443
30
0
41
1
10
61.3169223412503
20
2.14644613308596
30
0
41
1
10
61.3238943234053
20
2.03889559707628
30
0
0
SPLINE
5
F2
100
AcDbEntity
8
1
62
256
6
ByLayer
370
13
48
1
60
0
100
AcDbSpline
70
4
71
3
72
9
73
5
40
0
40
0
40
0
40
0
40
0.0395557925257812
40
1
40
1
40
1
40
1
41
1
10
54.6348750761892
20
2.61261892566745
30
0
41
1
10
54.6368516096151
20
2.59589868682147
30
0
41
1
10
54.6867273831959
20
2.1664196795127
30
0
41
1
10
54.7343157429219
20
1.57139856749487
30
0
41
1
10
54.7796875666791
20
0.946144788849949
30
0
0
SPLINE
5
F3
100
AcDbEntity
8
1
62
256
6
ByLayer
370
18
48
1
60
0
100
AcDbSpline
70
4
71
3
72
24
73
20
40
0
40
0
40
0
40
0
40
0.125000000000002
40
0.125000000000002
40
0.187500000000002
40
0.218750000000002
40
0.218750000000002
40
0.250000000000003
40
0.250000000000003
40
0.375000000000003
40
0.500000000000003
40
0.625000000000003
40
0.625000000000003
40
0.687500000000003
40
0.687500000000003
40
0.750000000000003
40
0.750000000000003
40
0.875000000000001
40
1
40
1
40
1
40
1
41
1
10
54.3619668316873
20
3.16116627892362
30
0
41
1
10
54.368016943023
20
3.10792038070832
30
0
41
1
10
54.3740839438682
20
3.05063936418966
30
0
41
1
10
54.3832314023324
20
2.95859402992548
30
0
41
1
10
54.3878164434459
20
2.91103817786029
30
0
41
1
10
54.3924178896614
20
2.86114794776819
30
0
41
1
10
54.3954894014306
20
2.82736372897023
30
0
41
1
10
54.397028742459
20
2.8101908423526
30
0
41
1
10
54.404701448802
20
2.72340021757256
30
0
41
1
10
54.4168613120089
20
2.57821046634757
30
0
41
1
10
54.4348809080561
20
2.34202766840832
30
0
41
1
10
54.4468615563825
20
2.17240752279099
30
0
41
1
10
54.4558843635525
20
2.04056486133871
30
0
41
1
10
54.4588982428028
20
1.99584496751456
30
0
41
1
10
54.4649473388136
20
1.90483585900822
30
0
41
1
10
54.467987521789
20
1.85846768373759
30
0
41
1
10
54.4770664849847
20
1.71831691626207
30
0
41
1
10
54.4891120877558
20
1.52792366946244
30
0
41
1
10
54.5011603584706
20
1.3306759929599
30
0
41
1
10
54.5072087387817
20
1.23034740397034
30
0
0
SPLINE
5
F4
100
AcDbEntity
8
1
62
256
6
ByLayer
370
18
48
1
60
0
100
AcDbSpline
70
4
71
3
72
23
73
19
40
0
40
0
40
0
40
0
40
0.125
40
0.25
40
0.375
40
0.375
40
0.4375
40
0.4375
40
0.46875
40
0.46875
40
0.500000000000001
40
0.625000000000001
40
0.750000000000001
40
0.875000000000001
40
0.875000000000001
40
0.937500000000001
40
0.937500000000001
40
1
40
1
40
1
40
1
41
1
10
53.8862951151967
20
1.77996059267582
30
0
41
1
10
53.8792547850719
20
1.87052506309749
30
0
41
1
10
53.8652436104183
20
2.04592327916038
30
0
41
1
10
53.8441853324441
20
2.29223319867796
30
0
41
1
10
53.8299827628327
20
2.44526789016928
30
0
41
1
10
53.8192298927158
20
2.55576834360952
30
0
41
1
10
53.815628898161
20
2.59188824872143
30
0
41
1
10
53.8101984739497
20
2.64497751451481
30
0
41
1
10
53.8083827530217
20
2.66249874910145
30
0
41
1
10
53.8047591624471
20
2.69700409404245
30
0
41
1
10
53.7957090762401
20
2.78203121411463
30
0
41
1
10
53.7794861728225
20
2.92409359679408
30
0
41
1
10
53.7579666864801
20
3.09061692557861
30
0
41
1
10
53.7437103132145
20
3.18638553353034
30
0
41
1
10
53.7330668414568
20
3.25236966153446
30
0
41
1
10
53.7295254868393
20
3.27339916129972
30
0
41
1
10
53.7224695597435
20
3.31342862719143
30
0
41
1
10
53.7189776458064
20
3.3322998714884
30
0
41
1
10
53.7155025972853
20
3.35004634171992
30
0
0
SPLINE
5
F5
100
AcDbEntity
8
1
62
256
6
ByLayer
370
18
48
1
60
0
100
AcDbSpline
70
4
71
3
72
28
73
24
40
0
40
0
40
0
40
0
40
0.0625000000000002
40
0.125
40
0.125
40
0.250000000000001
40
0.250000000000001
40
0.375000000000001
40
0.375000000000001
40
0.437500000000002
40
0.468750000000002
40
0.468750000000002
40
0.500000000000003
40
0.500000000000003
40
0.625000000000001
40
0.625000000000001
40
0.75
40
0.75
40
0.874999999999999
40
0.874999999999999
40
0.9375
40
0.9375
40
1
40
1
40
1
40
1
41
1
10
62.3746017772654
20
0.942809530070889
30
0
41
1
10
62.3707218981828
20
0.992102895311945
30
0
41
1
10
62.362963097751
20
1.08967645584306
30
0
41
1
10
62.3554131705146
20
1.18544006897019
30
0
41
1
10
62.3441312755183
20
1.32764630140574
30
0
41
1
10
62.336659837841
20
1.42052367587567
30
0
41
1
10
62.3213410729805
20
1.60212858092626
30
0
41
1
10
62.3134824649795
20
1.69084838524336
30
0
41
1
10
62.301438932143
20
1.82084597796526
30
0
41
1
10
62.2953555538969
20
1.88507484888402
30
0
41
1
10
62.2891879271905
20
1.94814490880108
30
0
41
1
10
62.2850578436129
20
1.98993240468104
30
0
41
1
10
62.2829835834424
20
2.01069660108402
30
0
41
1
10
62.272621209132
20
2.11333630963779
30
0
41
1
10
62.264319184223
20
2.19211639112871
30
0
41
1
10
62.2476791128762
20
2.34324151266907
30
0
41
1
10
62.2393410361416
20
2.41558553987011
30
0
41
1
10
62.2225609792957
20
2.55381344795802
30
0
41
1
10
62.21410934138
20
2.61968493425996
30
0
41
1
10
62.2013655456367
20
2.71358715624331
30
0
41
1
10
62.1971067460845
20
2.74406931615334
30
0
41
1
10
62.1885705779722
20
2.80337184304054
30
0
41
1
10
62.1842909717274
20
2.83220686063984
30
0
41
1
10
62.1800270875937
20
2.86003178695844
30
0
0
SPLINE
5
F6
100
AcDbEntity
8
1
62
256
6
ByLayer
370
18
48
1
60
0
100
AcDbSpline
70
4
71
3
72
42
73
38
40
0
40
0
40
0
40
0
40
0.250000000000016
40
0.250000000000016
40
0.375000000000024
40
0.375000000000024
40
0.437500000000028
40
0.437500000000028
40
0.500000000000032
40
0.500000000000032
40
0.531250000000022
40
0.531250000000022
40
0.546875000000032
40
0.546875000000032
40
0.562500000000041
40
0.562500000000041
40
0.570312500000024
40
0.570312500000024
40
0.578125000000007
40
0.578125000000007
40
0.585937499999989
40
0.585937499999989
40
0.593749999999972
40
0.593749999999972
40
0.609374999999982
40
0.609374999999982
40
0.624999999999992
40
0.624999999999992
40
0.656249999999993
40
0.656249999999993
40
0.687499999999994
40
0.687499999999994
40
0.749999999999995
40
0.749999999999995
40
0.874999999999998
40
0.874999999999998
40
1
40
1
40
1
40
1
41
1
10
63.4912262446771
20
-0.022361351945051
30
0
41
1
10
63.4834432791721
20
0.022674454103111
30
0
41
1
10
63.4751177598258
20
0.0676275280932259
30
0
41
1
10
63.4615006900317
20
0.134875708039829
30
0
41
1
10
63.4567744994043
20
0.15727355174414
30
0
41
1
10
63.4489946068352
20
0.19070820609457
30
0
41
1
10
63.4462854018718
20
0.20182360813908
30
0
41
1
10
63.4404381210368
20
0.223949093562567
30
0
41
1
10
63.4373210126442
20
0.234971856170262
30
0
41
1
10
63.43190045688
20
0.251261638660566
30
0
41
1
10
63.4299681954338
20
0.25666011889075
30
0
41
1
10
63.4266670222315
20
0.264594314604068
30
0
41
1
10
63.4254975996031
20
0.267214162232619
30
0
41
1
10
63.4229195362164
20
0.272329432713434
30
0
41
1
10
63.4215188477265
20
0.274840217266274
30
0
41
1
10
63.4190239160566
20
0.278319917155869
30
0
41
1
10
63.4181186653753
20
0.279440606133619
30
0
41
1
10
63.4160732134866
20
0.281418104107218
30
0
41
1
10
63.4149166984666
20
0.282299240497878
30
0
41
1
10
63.4122663384889
20
0.283216692904546
30
0
41
1
10
63.4108020025208
20
0.283113337303803
30
0
41
1
10
63.4083731424893
20
0.281898109704997
30
0
41
1
10
63.4073800718647
20
0.280905547972992
30
0
41
1
10
63.4048469533393
20
0.277669680093453
30
0
41
1
10
63.4036734270168
20
0.275146277212826
30
0
41
1
10
63.4016279348715
20
0.270037884328843
30
0
41
1
10
63.4007783520838
20
0.267385496249147
30
0
41
1
10
63.3985097055595
20
0.25939046392412
30
0
41
1
10
63.3973557585265
20
0.253977835483283
30
0
41
1
10
63.3953223175368
20
0.243086267858189
30
0
41
1
10
63.3944591837663
20
0.23760367285351
30
0
41
1
10
63.3921257002124
20
0.221091284008281
30
0
41
1
10
63.3909066693732
20
0.209988127936697
30
0
41
1
10
63.3877048484123
20
0.176657084524351
30
0
41
1
10
63.3861561153279
20
0.154371714659504
30
0
41
1
10
63.3836205090453
20
0.109714565128286
30
0
41
1
10
63.3826679352663
20
0.0873399559166899
30
0
41
1
10
63.381960565127
20
0.0649221873981105
30
0
0
SPLINE
5
F7
100
AcDbEntity
8
1
62
256
6
ByLayer
370
18
48
1
60
0
100
AcDbSpline
70
4
71
3
72
10
73
6
40
0
40
0
40
0
40
0
40
0.259048449412518
40
0.769536120262979
40
1
40
1
40
1
40
1
41
1
10
65.3499999999999
20
0.221734612434204
30
0
41
1
10
65.3499999999999
20
0.0614837617888497
30
0
41
1
10
65.3499999999997
20
-0.420181847704129
30
0
41
1
10
65.3500000000001
20
-1.03785452690619
30
0
41
1
10
65.3499999999999
20
-1.44987434556066
30
0
41
1
10
65.3499999999999
20
-1.57264962240507
30
0
0
SPLINE
5
F8
100
AcDbEntity
8
1
62
256
6
ByLayer
370
13
48
1
60
0
100
AcDbSpline
70
4
71
3
72
10
73
6
40
0
40
0
40
0
40
0
40
0.166910901192492
40
0.523673838215494
40
1
40
1
40
1
40
1
41
1.04
10
59.5266818071619
20
-1.28222994638877
30
0
41
1.04
10
59.5348298407354
20
-1.3899760412637
30
0
41
1.04
10
59.5604283663302
20
-1.72041851951712
30
0
41
1.04
10
59.6097185469415
20
-2.29538293357388
30
0
41
1.04
10
59.6496471399778
20
-2.65104279348764
30
0
41
1.04
10
59.6719653436457
20
-2.81003599531865
30
0
0
SPLINE
5
F9
100
AcDbEntity
8
1
62
256
6
ByLayer
370
18
48
1
60
0
100
AcDbSpline
70
4
71
3
72
27
73
23
40
0
40
0
40
0
40
0
40
0.125
40
0.125
40
0.25
40
0.25
40
0.3125
40
0.3125
40
0.375
40
0.375
40
0.5
40
0.625
40
0.625
40
0.75
40
0.75
40
0.78125
40
0.78125
40
0.8125
40
0.8125
40
0.875000000000001
40
0.875000000000001
40
1
40
1
40
1
40
1
41
1
10
60.1723281291363
20
-3.81251034834389
30
0
41
1
10
60.1654921410412
20
-3.77245086063732
30
0
41
1
10
60.1587676330149
20
-3.72709047326262
30
0
41
1
10
60.1452874225989
20
-3.62596978901249
30
0
41
1
10
60.1385210554842
20
-3.57020952384738
30
0
41
1
10
60.1281988934815
20
-3.47871904587484
30
0
41
1
10
60.124730512767
20
-3.44691179015521
30
0
41
1
10
60.1177282041452
20
-3.38064207520714
30
0
41
1
10
60.1141892545908
20
-3.34612468337869
30
0
41
1
10
60.1035695616774
20
-3.23954323451196
30
0
41
1
10
60.089337206867
20
-3.08883586759853
30
0
41
1
10
60.0750893284069
20
-2.92138414625475
30
0
41
1
10
60.0609745330254
20
-2.74556420882271
30
0
41
1
10
60.0540232819329
20
-2.65346875685611
30
0
41
1
10
60.0453659911007
20
-2.53299121414304
30
0
41
1
10
60.0436348391786
20
-2.5086273001418
30
0
41
1
10
60.0401692397025
20
-2.45935729906248
30
0
41
1
10
60.0384333578453
20
-2.43443001603669
30
0
41
1
10
60.0332388801381
20
-2.35916026571587
30
0
41
1
10
60.0297866952326
20
-2.30824139658981
30
0
41
1
10
60.0194385315089
20
-2.15329736109868
30
0
41
1
10
60.0125459193206
20
-2.04708966359598
30
0
41
1
10
60.0056663313297
20
-1.9379886496483
30
0
0
SPLINE
5
FA
100
AcDbEntity
8
1
62
256
6
ByLayer
370
18
48
1
60
0
100
AcDbSpline
70
4
71
3
72
25
73
21
40
0
40
0
40
0
40
0
40
0.124999999999999
40
0.249999999999998
40
0.249999999999998
40
0.312499999999998
40
0.312499999999998
40
0.374999999999998
40
0.374999999999998
40
0.499999999999998
40
0.624999999999998
40
0.749999999999998
40
0.749999999999998
40
0.781249999999998
40
0.781249999999998
40
0.812499999999998
40
0.812499999999998
40
0.874999999999998
40
0.874999999999998
40
1
40
1
40
1
40
1
41
1
10
60.1550317364559
20
-2.08286906367149
30
0
41
1
10
60.1620922049689
20
-2.1898304772474
30
0
41
1
10
60.175869631358
20
-2.39660922430031
30
0
41
1
10
60.1893608304651
20
-2.5893460735137
30
0
41
1
10
60.1995004594889
20
-2.72859094569898
30
0
41
1
10
60.2028836532402
20
-2.77411989624972
30
0
41
1
10
60.2096755773613
20
-2.86338161011849
30
0
41
1
10
60.2130895911319
20
-2.90717555180976
30
0
41
1
10
60.2233007497351
20
-3.03464930877644
30
0
41
1
10
60.2368916528398
20
-3.19496415655257
30
0
41
1
10
60.257504128261
20
-3.40725003538779
30
0
41
1
10
60.271517705575
20
-3.53001036189116
30
0
41
1
10
60.280380205879
20
-3.60072898846349
30
0
41
1
10
60.2821578424301
20
-3.6145717653483
30
0
41
1
10
60.2857236254808
20
-3.64164928437592
30
0
41
1
10
60.2875134583491
20
-3.65489566067012
30
0
41
1
10
60.2928765698005
20
-3.69355367817755
30
0
41
1
10
60.2964488399919
20
-3.71792795851249
30
0
41
1
10
60.307155121415
20
-3.7869085699499
30
0
41
1
10
60.3142788909525
20
-3.82738148299328
30
0
41
1
10
60.3213801725134
20
-3.86236721102071
30
0
0
SPLINE
5
FB
100
AcDbEntity
8
1
62
256
6
ByLayer
370
18
48
1
60
0
100
AcDbSpline
70
4
71
3
72
28
73
24
40
0
40
0
40
0
40
0
40
0.125
40
0.125
40
0.25
40
0.25
40
0.3125
40
0.3125
40
0.375
40
0.375
40
0.5
40
0.5
40
0.625000000000001
40
0.625000000000001
40
0.750000000000001
40
0.750000000000001
40
0.781250000000001
40
0.781250000000001
40
0.812500000000001
40
0.812500000000001
40
0.875000000000001
40
0.875000000000001
40
1
40
1
40
1
40
1
41
1
10
58.6677452133592
20
-2.96670177230345
30
0
41
1
10
58.6608904500635
20
-2.88221180278103
30
0
41
1
10
58.6541119008521
20
-2.79388333387166
30
0
41
1
10
58.6405738534381
20
-2.60969751676475
30
0
41
1
10
58.633808710576
20
-2.51384018530192
30
0
41
1
10
58.6235402906171
20
-2.36437409792731
30
0
41
1
10
58.6200982321884
20
-2.31360386212262
30
0
41
1
10
58.6131632641855
20
-2.21014246293242
30
0
41
1
10
58.6096652479682
20
-2.1573707245914
30
0
41
1
10
58.5991815238035
20
-1.99763206905777
30
0
41
1
10
58.5921759715824
20
-1.888821003782
30
0
41
1
10
58.5781212961197
20
-1.66668652051607
30
0
41
1
10
58.5710732499014
20
-1.55336277901495
30
0
41
1
10
58.5569525893916
20
-1.32220760680127
30
0
41
1
10
58.5498809512473
20
-1.20437634683842
30
0
41
1
10
58.5410361247449
20
-1.05420016170905
30
0
41
1
10
58.5392668481306
20
-1.02402027172914
30
0
41
1
10
58.5357276402915
20
-0.963368211130017
30
0
41
1
10
58.5339561468745
20
-0.932868762187496
30
0
41
1
10
58.5286634127591
20
-0.841326261095645
30
0
41
1
10
58.5251579211503
20
-0.78013572575955
30
0
41
1
10
58.5147039448718
20
-0.59608408011016
30
0
41
1
10
58.5078200318841
20
-0.472743822295229
30
0
41
1
10
58.5009831250963
20
-0.34877054564663
30
0
0
SPLINE
5
FC
100
AcDbEntity
8
1
62
256
6
ByLayer
370
13
48
1
60
0
100
AcDbSpline
70
4
71
3
72
9
73
5
40
0
40
0
40
0
40
0
40
0.0641449563110943
40
1
40
1
40
1
40
1
41
1.04
10
58.0221891601909
20
0.0236883731254249
30
0
41
1.04
10
58.0255644043102
20
-0.0248784823497225
30
0
41
1.04
10
58.077882242519
20
-0.777253607167748
30
0
41
1.04
10
58.1253893966789
20
-1.43881251154656
30
0
41
1.04
10
58.1674235062146
20
-1.92719793300257
30
0
0
SPLINE
5
FD
100
AcDbEntity
8
1
62
256
6
ByLayer
370
18
48
1
60
0
100
AcDbSpline
70
4
71
3
72
26
73
22
40
0
40
0
40
0
40
0
40
0.124999999999998
40
0.124999999999998
40
0.249999999999996
40
0.249999999999996
40
0.312499999999996
40
0.343749999999996
40
0.343749999999996
40
0.374999999999996
40
0.374999999999996
40
0.499999999999997
40
0.499999999999997
40
0.624999999999997
40
0.749999999999998
40
0.749999999999998
40
0.812499999999998
40
0.812499999999998
40
0.874999999999998
40
0.874999999999998
40
1
40
1
40
1
40
1
41
1
10
57.1452501450895
20
1.14107700273641
30
0
41
1
10
57.1520520360054
20
1.02110472233659
30
0
41
1
10
57.1588382542355
20
0.900194909158813
30
0
41
1
10
57.17249204633
20
0.656548165709182
30
0
41
1
10
57.1793562250861
20
0.53381097470168
30
0
41
1
10
57.1897870276388
20
0.348334449968661
30
0
41
1
10
57.1950356299772
20
0.255252936536124
30
0
41
1
10
57.2003416945253
20
0.161651100490985
30
0
41
1
10
57.2038920002872
20
0.099133238872696
30
0
41
1
10
57.2056751257627
20
0.0677901729948474
30
0
41
1
10
57.214581834546
20
-0.088501494225909
30
0
41
1
10
57.2217092448772
20
-0.212668422151694
30
0
41
1
10
57.2358811068971
20
-0.459326990519429
30
0
41
1
10
57.2499653751575
20
-0.704310208631881
30
0
41
1
10
57.2638388548135
20
-0.945961273102625
30
0
41
1
10
57.2742042482931
20
-1.12592160153037
30
0
41
1
10
57.277653280866
20
-1.18569501440643
30
0
41
1
10
57.284551493369
20
-1.30480571258826
30
0
41
1
10
57.2879816766552
20
-1.36381362339131
30
0
41
1
10
57.2982217325689
20
-1.5389172575201
30
0
41
1
10
57.3049883787595
20
-1.65322722656046
30
0
41
1
10
57.3117650238887
20
-1.76512393570911
30
0
0
SPLINE
5
FE
100
AcDbEntity
8
1
62
256
6
ByLayer
370
13
48
1
60
0
100
AcDbSpline
70
4
71
3
72
9
73
5
40
0
40
0
40
0
40
0
40
0.225822582113364
40
1
40
1
40
1
40
1
41
1
10
57.6435057282719
20
0.358865469350746
30
0
41
1
10
57.6553708623247
20
0.188771187895185
30
0
41
1
10
57.7069700015313
20
-0.556702668048075
30
0
41
1
10
57.754020620491
20
-1.21461127241457
30
0
41
1
10
57.788650390801
20
-1.64523742262455
30
0
0
SPLINE
5
FF
100
AcDbEntity
8
1
62
256
6
ByLayer
370
18
48
1
60
0
100
AcDbSpline
70
4
71
3
72
27
73
23
40
0
40
0
40
0
40
0
40
0.125000000000002
40
0.125000000000002
40
0.250000000000004
40
0.250000000000004
40
0.312500000000005
40
0.343750000000005
40
0.343750000000005
40
0.375000000000005
40
0.375000000000005
40
0.500000000000004
40
0.500000000000004
40
0.625000000000004
40
0.625000000000004
40
0.750000000000003
40
0.750000000000003
40
0.812500000000002
40
0.812500000000002
40
0.875000000000001
40
0.875000000000001
40
1
40
1
40
1
40
1
41
1
10
57.163586436988
20
-1.61549050156899
30
0
41
1
10
57.1565793281227
20
-1.50090246057508
30
0
41
1
10
57.1496047845739
20
-1.38464924974437
30
0
41
1
10
57.1357003567657
20
-1.14888609642173
30
0
41
1
10
57.1287766686305
20
-1.0293756872359
30
0
41
1
10
57.1183935433804
20
-0.847659702270391
30
0
41
1
10
57.1131963233285
20
-0.756188487316592
30
0
41
1
10
57.1079675321511
20
-0.663787979824491
30
0
41
1
10
57.104473306506
20
-0.601979364309386
30
0
41
1
10
57.1027210999874
20
-0.570955719413575
30
0
41
1
10
57.0939781713852
20
-0.416051595794755
30
0
41
1
10
57.0870036692951
20
-0.292248381786209
30
0
41
1
10
57.0731374117807
20
-0.0448724693028169
30
0
41
1
10
57.0662721727531
20
0.0787016942350647
30
0
41
1
10
57.0525649904507
20
0.325617180293421
30
0
41
1
10
57.0457157016801
20
0.448958100204209
30
0
41
1
10
57.0353578083241
20
0.633785465052853
30
0
41
1
10
57.0318914946052
20
0.695363887517289
30
0
41
1
10
57.0249199565032
20
0.818457459025012
30
0
41
1
10
57.0214377736811
20
0.879565276066614
30
0
41
1
10
57.0109929241762
20
1.06153526600818
30
0
41
1
10
57.0040293860278
20
1.18107087014386
30
0
41
1
10
56.9970496656149
20
1.29884223419214
30
0
0
SPLINE
5
100
100
AcDbEntity
8
1
62
256
6
ByLayer
370
13
48
1
60
0
100
AcDbSpline
70
4
71
3
72
9
73
5
40
0
40
0
40
0
40
0
40
0.688048821867242
40
1
40
1
40
1
40
1
41
1.04
10
56.518036329829
20
1.32466342566506
30
0
41
1.04
10
56.5518400519694
20
0.881108410951042
30
0
41
1.04
10
56.6002713400219
20
0.179331776942221
30
0
41
1.04
10
56.6482184654161
20
-0.508789394692855
30
0
41
1.04
10
56.6630149834414
20
-0.716327718558373
30
0
0
SPLINE
5
101
100
AcDbEntity
8
1
62
256
6
ByLayer
370
18
48
1
60
0
100
AcDbSpline
70
4
71
3
72
27
73
23
40
0
40
0
40
0
40
0
40
0.125
40
0.25
40
0.25
40
0.3125
40
0.3125
40
0.375000000000001
40
0.375000000000001
40
0.500000000000002
40
0.500000000000002
40
0.625000000000003
40
0.625000000000003
40
0.750000000000003
40
0.750000000000003
40
0.781250000000003
40
0.781250000000003
40
0.812500000000003
40
0.812500000000003
40
0.875000000000002
40
0.875000000000002
40
1
40
1
40
1
40
1
41
1
10
58.6496955898338
20
-0.514483004583354
30
0
41
1
10
58.6566013066701
20
-0.638439880544951
30
0
41
1
10
58.6703570480805
20
-0.883542161291615
30
0
41
1
10
58.6841752310783
20
-1.12311799047424
30
0
41
1
10
58.6946119517359
20
-1.30071090440316
30
0
41
1
10
58.6981028827752
20
-1.35955984181089
30
0
41
1
10
58.7051153055004
20
-1.47655082796598
30
0
41
1
10
58.7086424270376
20
-1.53478224134909
30
0
41
1
10
58.7191801346017
20
-1.70681605521577
30
0
41
1
10
58.7261757335545
20
-1.81843844232065
30
0
41
1
10
58.7401308301924
20
-2.03571352970687
30
0
41
1
10
58.7470796727377
20
-2.14136634821094
30
0
41
1
10
58.7610331298369
20
-2.3467063922883
30
0
41
1
10
58.7680467268761
20
-2.4463935396507
30
0
41
1
10
58.7768527622797
20
-2.56718355007155
30
0
41
1
10
58.7786154476738
20
-2.59115023138085
30
0
41
1
10
58.7821416279737
20
-2.63869714314771
30
0
41
1
10
58.7839068580624
20
-2.6623001192547
30
0
41
1
10
58.7891777206166
20
-2.7322387241845
30
0
41
1
10
58.7926618751031
20
-2.77777045149958
30
0
41
1
10
58.8029938423469
20
-2.91112429699339
30
0
41
1
10
58.8097418708645
20
-2.99571097275143
30
0
41
1
10
58.8164814511521
20
-3.07599743837693
30
0
0
SPLINE
5
102
100
AcDbEntity
8
1
62
256
6
ByLayer
370
13
48
1
60
0
100
AcDbSpline
70
4
71
3
72
10
73
6
40
0
40
0
40
0
40
0
40
0.339367681282758
40
0.698453613220052
40
1
40
1
40
1
40
1
41
1
10
59.1479569991499
20
-0.966923906723423
30
0
41
1
10
59.1643937488583
20
-1.19289910362249
30
0
41
1
10
59.1982231373784
20
-1.64205024735477
30
0
41
1
10
59.2471944451787
20
-2.21037277514702
30
0
41
1
10
59.2788422482322
20
-2.50877857761068
30
0
41
1
10
59.2931062553957
20
-2.62796449887492
30
0
0
SPLINE
5
103
100
AcDbEntity
8
1
62
256
6
ByLayer
370
13
48
1
60
0
100
AcDbSpline
70
4
71
3
72
8
73
4
40
0
40
0
40
0
40
0
40
1
40
1
40
1
40
1
41
1.04
10
55.0136617191698
20
2.40110257287592
30
0
41
1.04
10
55.0633460502057
20
1.92369756341604
30
0
41
1.04
10
55.110962613459
20
1.29100073607611
30
0
41
1.04
10
55.1585717394856
20
0.617573661809482
30
0
0
SPLINE
5
104
100
AcDbEntity
8
1
62
256
6
ByLayer
370
18
48
1
60
0
100
AcDbSpline
70
4
71
3
72
14
73
10
40
0
40
0
40
0
40
0
40
0.25
40
0.25
40
0.5
40
0.5
40
0.75
40
0.75
40
1
40
1
40
1
40
1
41
1
10
60.3213801725158
20
-3.8623672110146
30
0
41
1
10
60.3602390409554
20
-3.80900527891367
30
0
41
1
10
60.3992967240132
20
-3.75440018321012
30
0
41
1
10
60.477890768201
20
-3.64269216689445
30
0
41
1
10
60.5174352077792
20
-3.58557643856693
30
0
41
1
10
60.5968515175014
20
-3.46916207061466
30
0
41
1
10
60.6367792915014
20
-3.40978086144233
30
0
41
1
10
60.7169508217576
20
-3.28893688679338
30
0
41
1
10
60.7571940385521
20
-3.22746484956264
30
0
41
1
10
60.797612735603
20
-3.16503381568808
30
0
0
SPLINE
5
105
100
AcDbEntity
8
1
62
256
6
ByLayer
370
18
48
1
60
0
100
AcDbSpline
70
4
71
3
72
8
73
4
40
0
40
0
40
0
40
0
40
1
40
1
40
1
40
1
41
1
10
60.3213801725198
20
-3.8623672110206
30
0
41
1
10
60.2717946032036
20
-3.84686630754072
30
0
41
1
10
60.2221180868024
20
-3.83024986281234
30
0
41
1
10
60.1723281291363
20
-3.81251034834389
30
0
0
SPLINE
5
106
100
AcDbEntity
8
1
62
256
6
ByLayer
370
18
48
1
60
0
100
AcDbSpline
70
4
71
3
72
14
73
10
40
0
40
0
40
0
40
0
40
0.25
40
0.25
40
0.5
40
0.5
40
0.75
40
0.75
40
1
40
1
40
1
40
1
41
1
10
59.6719653436457
20
-2.81003599531863
30
0
41
1
10
59.7145760763084
20
-2.89582672525557
30
0
41
1
10
59.7568768476091
20
-2.98112661406537
30
0
41
1
10
59.8410790329759
20
-3.15074468586451
30
0
41
1
10
59.8829860115269
20
-3.2350899110842
30
0
41
1
10
59.9664216139641
20
-3.40261433449103
30
0
41
1
10
60.0078894205686
20
-3.48567208923458
30
0
41
1
10
60.0904407261182
20
-3.65033498164016
30
0
41
1
10
60.1314974734231
20
-3.73188194146314
30
0
41
1
10
60.1723281291363
20
-3.81251034834392
30
0
0
SPLINE
5
107
100
AcDbEntity
8
1
62
256
6
ByLayer
370
18
48
1
60
0
100
AcDbSpline
70
4
71
3
72
29
73
25
40
0
40
0
40
0
40
0
40
0.0624999999999702
40
0.0624999999999702
40
0.124999999999941
40
0.124999999999941
40
0.24999999999988
40
0.24999999999988
40
0.312499999999877
40
0.312499999999877
40
0.374999999999874
40
0.437499999999872
40
0.437499999999872
40
0.499999999999869
40
0.499999999999869
40
0.624999999999864
40
0.624999999999864
40
0.687499999999886
40
0.687499999999886
40
0.749999999999909
40
0.749999999999909
40
0.874999999999954
40
0.874999999999954
40
1
40
1
40
1
40
1
41
1
10
59.293106255397
20
-2.62796449887534
30
0
41
1
10
59.2990558082783
20
-2.62143861431309
30
0
41
1
10
59.3056453245494
20
-2.61608397779708
30
0
41
1
10
59.3198710804735
20
-2.60725787347417
30
0
41
1
10
59.3275358006337
20
-2.60378379976098
30
0
41
1
10
59.3517702477113
20
-2.59593529054567
30
0
41
1
10
59.3688655169995
20
-2.59424115150637
30
0
41
1
10
59.395453903056
20
-2.59556143519072
30
0
41
1
10
59.4044902551002
20
-2.59667551569484
30
0
41
1
10
59.4224272216452
20
-2.60003235663805
30
0
41
1
10
59.4403392427359
20
-2.60451868282385
30
0
41
1
10
59.4581877291172
20
-2.61101997297942
30
0
41
1
10
59.4759966121942
20
-2.61846510841042
30
0
41
1
10
59.4849063735853
20
-2.62267337136814
30
0
41
1
10
59.5113885956269
20
-2.63659326092983
30
0
41
1
10
59.5285227782189
20
-2.64746888515776
30
0
41
1
10
59.5534331769013
20
-2.66603608090912
30
0
41
1
10
59.5616036597083
20
-2.67260465722032
30
0
41
1
10
59.5776645547123
20
-2.68652345281777
30
0
41
1
10
59.585569290705
20
-2.69389196039549
30
0
41
1
10
59.6084809481914
20
-2.71688086953614
30
0
41
1
10
59.6228186488067
20
-2.73345887745688
30
0
41
1
10
59.6493300888239
20
-2.76950748922127
30
0
41
1
10
59.6615763966828
20
-2.78911930866414
30
0
41
1
10
59.6719653436457
20
-2.81003599531866
30
0
0
SPLINE
5
108
100
AcDbEntity
8
1
62
256
6
ByLayer
370
18
48
1
60
0
100
AcDbSpline
70
4
71
3
72
12
73
8
40
0
40
0
40
0
40
0
40
0.5
40
0.5
40
0.75
40
0.75
40
1
40
1
40
1
40
1
41
1
10
58.816481451152
20
-3.07599743837713
30
0
41
1
10
58.8942657490819
20
-3.01574829786526
30
0
41
1
10
58.9729996586009
20
-2.9481486475317
30
0
41
1
10
59.0922569966212
20
-2.83603269150569
30
0
41
1
10
59.1321571467526
20
-2.79691662921866
30
0
41
1
10
59.2123345771509
20
-2.71510543179201
30
0
41
1
10
59.2526161576211
20
-2.67237686216532
30
0
41
1
10
59.2931062553954
20
-2.62796449887264
30
0
0
SPLINE
5
109
100
AcDbEntity
8
1
62
256
6
ByLayer
370
18
48
1
60
0
100
AcDbSpline
70
4
71
3
72
8
73
4
40
0
40
0
40
0
40
0
40
1
40
1
40
1
40
1
41
1
10
58.8164814511518
20
-3.07599743837687
30
0
41
1
10
58.7669783423263
20
-3.04047493608681
30
0
41
1
10
58.7174084189818
20
-3.00404067362851
30
0
41
1
10
58.6677452133593
20
-2.96670177230345
30
0
0
SPLINE
5
10A
100
AcDbEntity
8
1
62
256
6
ByLayer
370
18
48
1
60
0
100
AcDbSpline
70
4
71
3
72
14
73
10
40
0
40
0
40
0
40
0
40
0.25
40
0.25
40
0.5
40
0.5
40
0.75
40
0.75
40
1
40
1
40
1
40
1
41
1
10
58.1674235062146
20
-1.92719793300256
30
0
41
1
10
58.2100214539782
20
-2.01180312752982
30
0
41
1
10
58.2523190577728
20
-2.09704580619047
30
0
41
1
10
58.3365239767808
20
-2.26863170276391
30
0
41
1
10
58.3784345654331
20
-2.35501865146435
30
0
41
1
10
58.4618739806563
20
-2.52874628275441
30
0
41
1
10
58.5033409032857
20
-2.6159584174647
30
0
41
1
10
58.5858813788113
20
-2.79102124390266
30
0
41
1
10
58.6269271760759
20
-2.87881272187727
30
0
41
1
10
58.6677452133592
20
-2.96670177230345
30
0
0
SPLINE
5
10B
100
AcDbEntity
8
1
62
256
6
ByLayer
370
18
48
1
60
0
100
AcDbSpline
70
4
71
3
72
29
73
25
40
0
40
0
40
0
40
0
40
0.0625000000000516
40
0.0625000000000516
40
0.125000000000103
40
0.125000000000103
40
0.250000000000158
40
0.250000000000158
40
0.312500000000158
40
0.312500000000158
40
0.375000000000157
40
0.437500000000157
40
0.437500000000157
40
0.500000000000157
40
0.500000000000157
40
0.625000000000157
40
0.625000000000157
40
0.687500000000131
40
0.687500000000131
40
0.750000000000105
40
0.750000000000105
40
0.875000000000053
40
0.875000000000053
40
1
40
1
40
1
40
1
41
1
10
57.788650390801
20
-1.64523742262452
30
0
41
1
10
57.7946000902961
20
-1.64250480191427
30
0
41
1
10
57.8011889684525
20
-1.64088520870212
30
0
41
1
10
57.8154114415466
20
-1.63942742488956
30
0
41
1
10
57.823073663887
20
-1.63959788191642
30
0
41
1
10
57.8472963617964
20
-1.64247180044387
30
0
41
1
10
57.8643787531534
20
-1.6473584810922
30
0
41
1
10
57.8909511540665
20
-1.65794535897123
30
0
41
1
10
57.8999831810781
20
-1.662047764926
30
0
41
1
10
57.9179123307497
20
-1.67107159751123
30
0
41
1
10
57.9358168626147
20
-1.68095494462881
30
0
41
1
10
57.9536568955251
20
-1.69238102169956
30
0
41
1
10
57.9714567844221
20
-1.70453588891047
30
0
41
1
10
57.9803607570986
20
-1.710996387341
30
0
41
1
10
58.0068331780609
20
-1.73132891894298
30
0
41
1
10
58.0239602873979
20
-1.74597374927566
30
0
41
1
10
58.0488629302797
20
-1.7695112292154
30
0
41
1
10
58.0570313265911
20
-1.77762134865253
30
0
41
1
10
58.0730898825293
20
-1.79438929513191
30
0
41
1
10
58.0809961593332
20
-1.80306881761552
30
0
41
1
10
58.1039174758043
20
-1.82956838687355
30
0
41
1
10
58.1182622187085
20
-1.8479513249944
30
0
41
1
10
58.1447831066183
20
-1.8863770248725
30
0
41
1
10
58.1570334375487
20
-1.90656187359627
30
0
41
1
10
58.1674235062146
20
-1.92719793300253
30
0
0
SPLINE
5
10C
100
AcDbEntity
8
1
62
256
6
ByLayer
370
18
48
1
60
0
100
AcDbSpline
70
4
71
3
72
12
73
8
40
0
40
0
40
0
40
0
40
0.499999999999999
40
0.499999999999999
40
0.75
40
0.75
40
1
40
1
40
1
40
1
41
1
10
57.3117650238887
20
-1.7651239357092
30
0
41
1
10
57.3895921061197
20
-1.76216945584073
30
0
41
1
10
57.4683733392985
20
-1.75088622997507
30
0
41
1
10
57.5877004568549
20
-1.72103994986924
30
0
41
1
10
57.6276231223955
20
-1.70895012625775
30
0
41
1
10
57.7078422061711
20
-1.68037262290042
30
0
41
1
10
57.7481430877994
20
-1.66384190764214
30
0
41
1
10
57.788650390801
20
-1.64523742262452
30
0
0
SPLINE
5
10D
100
AcDbEntity
8
1
62
256
6
ByLayer
370
18
48
1
60
0
100
AcDbSpline
70
4
71
3
72
8
73
4
40
0
40
0
40
0
40
0
40
1
40
1
40
1
40
1
41
1
10
57.3117650238886
20
-1.76512393570908
30
0
41
1
10
57.2624242279877
20
-1.71577804402366
30
0
41
1
10
57.2130398975532
20
-1.66589446940603
30
0
41
1
10
57.163586436988
20
-1.61549050156896
30
0
0
SPLINE
5
10E
100
AcDbEntity
8
1
62
256
6
ByLayer
370
18
48
1
60
0
100
AcDbSpline
70
4
71
3
72
14
73
10
40
0
40
0
40
0
40
0
40
0.25
40
0.25
40
0.5
40
0.5
40
0.75
40
0.75
40
1
40
1
40
1
40
1
41
1
10
56.6630149834414
20
-0.716327718558375
30
0
41
1
10
56.7056114724591
20
-0.785310610056769
30
0
41
1
10
56.7479180462508
20
-0.855943826964648
30
0
41
1
10
56.832155009728
20
-1.00022201346567
30
0
41
1
10
56.8740885537178
20
-1.07391693904879
30
0
41
1
10
56.9575803056188
20
-1.22421881201376
30
0
41
1
10
56.9990758230664
20
-1.30071356481804
30
0
41
1
10
57.0816715887672
20
-1.45630890170716
30
0
41
1
10
57.1227445484627
20
-1.53535744265284
30
0
41
1
10
57.163586436988
20
-1.61549050156899
30
0
0
SPLINE
5
10F
100
AcDbEntity
8
1
62
256
6
ByLayer
370
18
48
1
60
0
100
AcDbSpline
70
4
71
3
72
29
73
25
40
0
40
0
40
0
40
0
40
0.0624999999999876
40
0.0624999999999876
40
0.124999999999975
40
0.124999999999975
40
0.250000000000002
40
0.250000000000002
40
0.312500000000015
40
0.312500000000015
40
0.375000000000028
40
0.437500000000041
40
0.437500000000041
40
0.500000000000054
40
0.500000000000054
40
0.62500000000008
40
0.62500000000008
40
0.687500000000067
40
0.687500000000067
40
0.750000000000054
40
0.750000000000054
40
0.875000000000027
40
0.875000000000027
40
1
40
1
40
1
40
1
41
1
10
56.2840854508287
20
-0.382421567238396
30
0
41
1
10
56.2900391612206
20
-0.383949504351534
30
0
41
1
10
56.2966322218451
20
-0.38634217048272
30
0
41
1
10
56.3108619119221
20
-0.39250586471087
30
0
41
1
10
56.3185278010997
20
-0.396294974567297
30
0
41
1
10
56.3427560902752
20
-0.409409002614467
30
0
41
1
10
56.3598383587978
20
-0.420048750537035
30
0
41
1
10
56.3864119716908
20
-0.438107386721185
30
0
41
1
10
56.3954453529419
20
-0.444500835145874
30
0
41
1
10
56.4133783412927
20
-0.457656918481717
30
0
41
1
10
56.431287324031
20
-0.471254379864888
30
0
41
1
10
56.4491307036657
20
-0.485661964838812
30
0
41
1
10
56.4669327832744
20
-0.500459008732207
30
0
41
1
10
56.4758363924634
20
-0.508072820608334
30
0
41
1
10
56.5023137751503
20
-0.531362619772636
30
0
41
1
10
56.5194428890452
20
-0.547289303997189
30
0
41
1
10
56.5443513557714
20
-0.571797651244367
30
0
41
1
10
56.5525221983667
20
-0.580070946099994
30
0
41
1
10
56.5685877986529
20
-0.596836129800153
30
0
41
1
10
56.5765007272196
20
-0.605349245823049
30
0
41
1
10
56.5994444624005
20
-0.630848667549742
30
0
41
1
10
56.6138038375504
20
-0.647905718438125
30
0
41
1
10
56.6403504358526
20
-0.682163013431392
30
0
41
1
10
56.6526136298212
20
-0.699483244641215
30
0
41
1
10
56.6630149834414
20
-0.716327718558375
30
0
0
SPLINE
5
110
100
AcDbEntity
8
1
62
256
6
ByLayer
370
18
48
1
60
0
100
AcDbSpline
70
4
71
3
72
14
73
10
40
0
40
0
40
0
40
0
40
0.25
40
0.25
40
0.5
40
0.5
40
0.75
40
0.75
40
1
40
1
40
1
40
1
41
1
10
55.1585717394856
20
0.617573661809502
30
0
41
1
10
55.1905245091249
20
0.586311332675734
30
0
41
1
10
55.2223160471384
20
0.553692259476463
30
0
41
1
10
55.2856761771542
20
0.485944712957632
30
0
41
1
10
55.3172419637791
20
0.450808059525372
30
0
41
1
10
55.3801845756658
20
0.378010414661617
30
0
41
1
10
55.4115531352664
20
0.340357066013638
30
0
41
1
10
55.4739929289522
20
0.262721360651767
30
0
41
1
10
55.505082816842
20
0.2227183770718
30
0
41
1
10
55.5360667921898
20
0.181547057664176
30
0
0
SPLINE
5
111
100
AcDbEntity
8
1
62
256
6
ByLayer
370
18
48
1
60
0
100
AcDbSpline
70
4
71
3
72
29
73
25
40
0
40
0
40
0
40
0
40
0.0625000000000284
40
0.0625000000000284
40
0.125000000000057
40
0.125000000000057
40
0.250000000000063
40
0.250000000000063
40
0.312500000000066
40
0.312500000000066
40
0.375000000000069
40
0.437500000000072
40
0.437500000000072
40
0.500000000000074
40
0.500000000000074
40
0.62500000000008
40
0.62500000000008
40
0.687500000000083
40
0.687500000000083
40
0.750000000000085
40
0.750000000000085
40
0.875000000000043
40
0.875000000000043
40
1
40
1
40
1
40
1
41
1
10
54.779687566679
20
0.946144788849949
30
0
41
1
10
54.7856423189263
20
0.940621845862864
30
0
41
1
10
54.7922368556487
20
0.934633277043361
30
0
41
1
10
54.8064696843898
20
0.921918246673698
30
0
41
1
10
54.814138174956
20
0.915166660568133
30
0
41
1
10
54.8383693764908
20
0.894083013823121
30
0
41
1
10
54.8554529271015
20
0.879528147034563
30
0
41
1
10
54.8820292861805
20
0.857100084341965
30
0
41
1
10
54.8910625075613
20
0.849512357260892
30
0
41
1
10
54.9089962736332
20
0.834480877460066
30
0
41
1
10
54.9269070221967
20
0.819500082951635
30
0
41
1
10
54.9447526679716
20
0.804580695427262
30
0
41
1
10
54.9625568060126
20
0.789676649086374
30
0
41
1
10
54.9714624466686
20
0.782211929272052
30
0
41
1
10
54.9979363080314
20
0.759960205887751
30
0
41
1
10
55.0150622090233
20
0.745481870921338
30
0
41
1
10
55.0399667215308
20
0.724199604673174
30
0
41
1
10
55.0481364927158
20
0.717179312891403
30
0
41
1
10
55.0642006593844
20
0.703285309682315
30
0
41
1
10
55.0721113139654
20
0.696396873079749
30
0
41
1
10
55.0950451907457
20
0.676268891826425
30
0
41
1
10
55.1093973902898
20
0.6634594893371
30
0
41
1
10
55.135927835771
20
0.639232674417656
30
0
41
1
10
55.1481801438546
20
0.627740714196904
30
0
41
1
10
55.1585717394856
20
0.61757366180953
30
0
0
SPLINE
5
112
100
AcDbEntity
8
1
62
256
6
ByLayer
370
18
48
1
60
0
100
AcDbSpline
70
4
71
3
72
10
73
6
40
0
40
0
40
0
40
0
40
0.5
40
0.5
40
1
40
1
40
1
40
1
41
1
10
54.5072087387898
20
1.23034740396562
30
0
41
1
10
54.5521376510351
20
1.17829701366446
30
0
41
1
10
54.5973462431356
20
1.12843999094858
30
0
41
1
10
54.688187259529
20
1.03360643628736
30
0
41
1
10
54.7338168862545
20
0.988689153794468
30
0
41
1
10
54.7796875666791
20
0.946144788849722
30
0
0
SPLINE
5
113
100
AcDbEntity
8
1
62
256
6
ByLayer
370
18
48
1
60
0
100
AcDbSpline
70
4
71
3
72
8
73
4
40
0
40
0
40
0
40
0
40
1
40
1
40
1
40
1
41
1
10
53.8862951151968
20
1.77996059267582
30
0
41
1
10
54.0947989809342
20
1.60855050294146
30
0
41
1
10
54.3011279652959
20
1.42485820116033
30
0
41
1
10
54.5072087387864
20
1.23034740397057
30
0
0
SPLINE
5
114
100
AcDbEntity
8
1
62
256
6
ByLayer
370
18
48
1
60
0
100
AcDbSpline
70
4
71
3
72
10
73
6
40
0
40
0
40
0
40
0
40
0.5
40
0.5
40
1
40
1
40
1
40
1
41
1
10
53.6541341208475
20
1.84597485241616
30
0
41
1
10
53.6932047365221
20
1.83937277579997
30
0
41
1
10
53.732050913283
20
1.83049101982641
30
0
41
1
10
53.8094431243415
20
1.80845484866683
30
0
41
1
10
53.8479661228437
20
1.79527550974015
30
0
41
1
10
53.8862951151967
20
1.77996059267582
30
0
0
SPLINE
5
115
100
AcDbEntity
8
1
62
256
6
ByLayer
370
18
48
1
60
0
100
AcDbSpline
70
4
71
3
72
29
73
25
40
0
40
0
40
0
40
0
40
0.0625000000000096
40
0.0625000000000096
40
0.125000000000019
40
0.125000000000019
40
0.250000000000038
40
0.250000000000038
40
0.312500000000049
40
0.312500000000049
40
0.375000000000059
40
0.437500000000069
40
0.437500000000069
40
0.500000000000079
40
0.500000000000079
40
0.625000000000099
40
0.625000000000099
40
0.687500000000082
40
0.687500000000082
40
0.750000000000066
40
0.750000000000066
40
0.875000000000033
40
0.875000000000033
40
1
40
1
40
1
40
1
41
1
10
53.2752179976961
20
2.11329903918008
30
0
41
1
10
53.2811697101043
20
2.10472414384898
30
0
41
1
10
53.287760294921
20
2.09616245222159
30
0
41
1
10
53.3019825772213
20
2.0790700564489
30
0
41
1
10
53.3096432962026
20
2.07051272695495
30
0
41
1
10
53.333855683521
20
2.04506163108431
30
0
41
1
10
53.3509249560553
20
2.02907777600447
30
0
41
1
10
53.3774799660197
20
2.00610985561596
30
0
41
1
10
53.3865085653605
20
1.99861934226223
30
0
41
1
10
53.4044360688171
20
1.98426823913959
30
0
41
1
10
53.4223424517696
20
1.9704506811178
30
0
41
1
10
53.4401854518567
20
1.95755548940298
30
0
41
1
10
53.4579874090726
20
1.94507810847441
30
0
41
1
10
53.4668900217558
20
1.93903402315902
30
0
41
1
10
53.4933733173254
20
1.92159208763229
30
0
41
1
10
53.5105054762744
20
1.91101801095428
30
0
41
1
10
53.5354223675514
20
1.8965759192244
30
0
41
1
10
53.5435968835807
20
1.89200157515117
30
0
41
1
10
53.5596706666501
20
1.88333996525395
30
0
41
1
10
53.5675892500796
20
1.87924426292898
30
0
41
1
10
53.5905496395633
20
1.86789950603304
30
0
41
1
10
53.6049170115466
20
1.86151371390915
30
0
41
1
10
53.6314712242591
20
1.85143983373416
30
0
41
1
10
53.6437340340738
20
1.84773223884548
30
0
41
1
10
53.6541341208474
20
1.84597485241818
30
0
0
SPLINE
5
116
100
AcDbEntity
8
1
62
256
6
ByLayer
370
18
48
1
60
0
100
AcDbSpline
70
4
71
3
72
8
73
4
40
0
40
0
40
0
40
0
40
1
40
1
40
1
40
1
41
1
10
53.1646171286909
20
2.2764139911657
30
0
41
1
10
53.2013316149041
20
2.22099530765342
30
0
41
1
10
53.2381939862558
20
2.16664117016032
30
0
41
1
10
53.275217997697
20
2.11329903917851
30
0
0
SPLINE
5
117
100
AcDbEntity
8
1
62
256
6
ByLayer
370
18
48
1
60
0
100
AcDbSpline
70
4
71
3
72
14
73
10
40
0
40
0
40
0
40
0
40
0.499999999999984
40
0.499999999999984
40
0.749999999999992
40
0.749999999999992
40
0.874999999999996
40
0.874999999999996
40
1
40
1
40
1
40
1
41
1
10
53.1646171286845
20
2.27641399117721
30
0
41
1
10
53.076405950961
20
2.31401781962913
30
0
41
1
10
52.9877253233939
20
2.34642053755823
30
0
41
1
10
52.8534519071856
20
2.38688620656467
30
0
41
1
10
52.8084722583161
20
2.3990023706306
30
0
41
1
10
52.7406359901701
20
2.41511787936631
30
0
41
1
10
52.7179670590239
20
2.42015175775731
30
0
41
1
10
52.6725337360677
20
2.42956920369284
30
0
41
1
10
52.6497816952803
20
2.4339666149705
30
0
41
1
10
52.6269279512308
20
2.43797831821348
30
0
0
SPLINE
5
118
100
AcDbEntity
8
1
62
256
6
ByLayer
370
18
48
1
60
0
100
AcDbSpline
70
4
71
3
72
14
73
10
40
0
40
0
40
0
40
0
40
0.25
40
0.25
40
0.5
40
0.5
40
0.75
40
0.75
40
1
40
1
40
1
40
1
41
1
10
52.6269279512308
20
2.43797831821345
30
0
41
1
10
52.5856513295958
20
2.4452239387347
30
0
41
1
10
52.5430181149169
20
2.45348606515159
30
0
41
1
10
52.4551139236419
20
2.47220019445314
30
0
41
1
10
52.4098990755295
20
2.4827308507756
30
0
41
1
10
52.317522340451
20
2.50687934371351
30
0
41
1
10
52.2703622786734
20
2.5204961198248
30
0
41
1
10
52.17462001512
20
2.5514404969515
30
0
41
1
10
52.1260390809114
20
2.56876315443694
30
0
41
1
10
52.0769279512308
20
2.58821415847751
30
0
0
SPLINE
5
119
100
AcDbEntity
8
1
62
256
6
ByLayer
370
18
48
1
60
0
100
AcDbSpline
70
4
71
3
72
35
73
31
40
0
40
0
40
0
40
0
40
0.151440585637612
40
0.151440585637612
40
0.227160878456415
40
0.227160878456415
40
0.302881171275219
40
0.302881171275219
40
0.378601464094022
40
0.378601464094022
40
0.416461610503423
40
0.416461610503423
40
0.454321756912825
40
0.454321756912825
40
0.530042049731628
40
0.530042049731628
40
0.605762342550432
40
0.605762342550432
40
0.757202928188038
40
0.757202928188038
40
0.832923221006844
40
0.832923221006844
40
0.851853294211547
40
0.851853294211547
40
0.87078336741625
40
0.908643513825655
40
0.908643513825655
40
0.984363806644472
40
0.984363806644472
40
1
40
1
40
1
40
1
41
1
10
52.0769279512308
20
2.58821415847751
30
0
41
1
10
51.842663049419
20
2.6809973540858
30
0
41
1
10
51.6110993342681
20
2.75667589951704
30
0
41
1
10
51.2643521121825
20
2.843856958071
30
0
41
1
10
51.1488816633104
20
2.86853368894364
30
0
41
1
10
50.917599732005
20
2.90902312466679
30
0
41
1
10
50.8017845148366
20
2.9248496559122
30
0
41
1
10
50.5700102211211
20
2.94761697930389
30
0
41
1
10
50.4540487573728
20
2.95453828331881
30
0
41
1
10
50.2793876908625
20
2.95799155233956
30
0
41
1
10
50.221051733158
20
2.95798915467475
30
0
41
1
10
50.1040715493782
20
2.95564513229365
30
0
41
1
10
50.0456353840455
20
2.95330575897171
30
0
41
1
10
49.8707806476079
20
2.94285688475179
30
0
41
1
10
49.7546086938126
20
2.93131792355695
30
0
41
1
10
49.5225567254119
20
2.89943104010211
30
0
41
1
10
49.4067221594952
20
2.87908150651973
30
0
41
1
10
49.0597172224581
20
2.80494355970148
30
0
41
1
10
48.8291887911402
20
2.73797277340347
30
0
41
1
10
48.4812108602776
20
2.61202610907631
30
0
41
1
10
48.3648457101841
20
2.56579985520855
30
0
41
1
10
48.2184999765661
20
2.50286530426109
30
0
41
1
10
48.1891853037937
20
2.49002083304171
30
0
41
1
10
48.1306633520565
20
2.4639100925049
30
0
41
1
10
48.0429664739446
20
2.42407848166542
30
0
41
1
10
47.9555176001406
20
2.38227422820958
30
0
41
1
10
47.7809243238358
20
2.29608558487715
30
0
41
1
10
47.6649411291085
20
2.2351845203589
30
0
41
1
10
47.5253817037446
20
2.15768863134804
30
0
41
1
10
47.5015098570822
20
2.14428131397304
30
0
41
1
10
47.4776495405235
20
2.13073314177453
30
0
0
SPLINE
5
11A
100
AcDbEntity
8
1
62
256
6
ByLayer
370
18
48
1
60
0
100
AcDbSpline
70
4
71
3
72
64
73
60
40
0
40
0
40
0
40
0
40
0.0254807671585123
40
0.0254807671585123
40
0.0541430975362001
40
0.0541430975362001
40
0.0828054279138877
40
0.0828054279138877
40
0.140130088669267
40
0.140130088669267
40
0.168792419046954
40
0.168792419046954
40
0.1831235842358
40
0.1831235842358
40
0.197454749424645
40
0.197454749424645
40
0.254779410180027
40
0.254779410180027
40
0.31210407093541
40
0.31210407093541
40
0.340766401313099
40
0.340766401313099
40
0.369428731690788
40
0.369428731690788
40
0.398091062068477
40
0.398091062068477
40
0.426753392446167
40
0.426753392446167
40
0.455415722823856
40
0.455415722823856
40
0.469746888012702
40
0.469746888012702
40
0.484078053201549
40
0.484078053201549
40
0.541402713956937
40
0.541402713956937
40
0.598727374712326
40
0.598727374712326
40
0.62738970509002
40
0.62738970509002
40
0.656052035467714
40
0.684714365845408
40
0.684714365845408
40
0.713376696223102
40
0.713376696223102
40
0.727707861411948
40
0.727707861411948
40
0.742039026600793
40
0.77070135697848
40
0.77070135697848
40
0.828026017733859
40
0.828026017733859
40
0.856688348111548
40
0.856688348111548
40
0.885350678489237
40
0.885350678489237
40
0.942675339244618
40
0.942675339244618
40
1
40
1
40
1
40
1
41
1
10
44.7100766798747
20
2.95769957453308
30
0
41
1
10
44.7724524227213
20
2.95772245651588
30
0
41
1
10
44.8346183053225
20
2.95641808181654
30
0
41
1
10
44.966595344327
20
2.95082143061995
30
0
41
1
10
45.0364060074378
20
2.94617783555094
30
0
41
1
10
45.1763199135337
20
2.93361418751618
30
0
41
1
10
45.2463781934049
20
2.92569264386296
30
0
41
1
10
45.456877485601
20
2.89706694487279
30
0
41
1
10
45.5977192044044
20
2.87154004038823
30
0
41
1
10
45.8095831364859
20
2.82348293310486
30
0
41
1
10
45.8802840094937
20
2.80582239912786
30
0
41
1
10
45.9865180995891
20
2.77684307565812
30
0
41
1
10
46.0219601774774
20
2.76676854420879
30
0
41
1
10
46.0929184865479
20
2.74578544542908
30
0
41
1
10
46.128471437757
20
2.73486495608751
30
0
41
1
10
46.3059452531022
20
2.67833128048741
30
0
41
1
10
46.4468162921404
20
2.62697462764302
30
0
41
1
10
46.7274658382356
20
2.51282531427393
30
0
41
1
10
46.8672676373489
20
2.45002994995397
30
0
41
1
10
47.0776952645207
20
2.34850495569341
30
0
41
1
10
47.1480009319602
20
2.31347997216764
30
0
41
1
10
47.2887782212668
20
2.24098184117997
30
0
41
1
10
47.3592398451581
20
2.20350225302903
30
0
41
1
10
47.499993944583
20
2.12579494411401
30
0
41
1
10
47.570250156109
20
2.08553019629528
30
0
41
1
10
47.7108756208304
20
2.00242387241966
30
0
41
1
10
47.7812535737572
20
1.95959221056694
30
0
41
1
10
47.9222833906745
20
1.87145747377889
30
0
41
1
10
47.9929347659916
20
1.82615331374552
30
0
41
1
10
48.0992713156104
20
1.756459723973
30
0
41
1
10
48.1347329744147
20
1.73296826152944
30
0
41
1
10
48.2055268642614
20
1.68562798650387
30
0
41
1
10
48.2408884061801
20
1.66176079511916
30
0
41
1
10
48.4175991992421
20
1.54153416128671
30
0
41
1
10
48.558657504282
20
1.442510474004
30
0
41
1
10
48.8403462032434
20
1.23917245697479
30
0
41
1
10
48.9809436152463
20
1.13482470381618
30
0
41
1
10
49.1912763795756
20
0.974042324139646
30
0
41
1
10
49.2613034253228
20
0.919747238070443
30
0
41
1
10
49.4012882973703
20
0.809851672328961
30
0
41
1
10
49.5412215579091
20
0.698670585860555
30
0
41
1
10
49.6815565947006
20
0.585490432461057
30
0
41
1
10
49.8224040538872
20
0.471686263385863
30
0
41
1
10
49.8931097563162
20
0.414505280399567
30
0
41
1
10
49.9996425017068
20
0.328379486070531
30
0
41
1
10
50.0352629899751
20
0.299582692207025
30
0
41
1
10
50.1063829326464
20
0.242085532384237
30
0
41
1
10
50.2129502235083
20
0.155927457002008
30
0
41
1
10
50.3191735736143
20
0.0700147388917287
30
0
41
1
10
50.5310854188976
20
-0.10159456569022
30
0
41
1
10
50.6716107109725
20
-0.215760293248735
30
0
41
1
10
50.8813581244717
20
-0.386536398487607
30
0
41
1
10
50.9511349036073
20
-0.443339024311598
30
0
41
1
10
51.0907496179837
20
-0.55627993864988
30
0
41
1
10
51.1606103562454
20
-0.612390743576498
30
0
41
1
10
51.3705077051032
20
-0.779460832282041
30
0
41
1
10
51.5108521803223
20
-0.889168366406608
30
0
41
1
10
51.7928571366931
20
-1.10464325533414
30
0
41
1
10
51.9345338623148
20
-1.21039346857768
30
0
41
1
10
52.0769279512308
20
-1.31406502981045
30
0
0
SPLINE
5
11B
100
AcDbEntity
8
1
62
256
6
ByLayer
370
18
48
1
60
0
100
AcDbSpline
70
4
71
3
72
14
73
10
40
0
40
0
40
0
40
0
40
0.25
40
0.25
40
0.5
40
0.5
40
0.75
40
0.75
40
1
40
1
40
1
40
1
41
1
10
52.0769279512308
20
-1.31406502981045
30
0
41
1
10
52.1242082482945
20
-1.34848796301972
30
0
41
1
10
52.1712384619259
20
-1.3836846067114
30
0
41
1
10
52.264525875418
20
-1.4559101970984
30
0
41
1
10
52.3107786007365
20
-1.49294222048744
30
0
41
1
10
52.4024395582038
20
-1.56895987448229
30
0
41
1
10
52.4478501826023
20
-1.60794106266002
30
0
41
1
10
52.5379080688797
20
-1.68792216709031
30
0
41
1
10
52.5825611876286
20
-1.72891267817519
30
0
41
1
10
52.6269279512308
20
-1.77097974856693
30
0
0
SPLINE
5
11C
100
AcDbEntity
8
1
62
256
6
ByLayer
370
18
48
1
60
0
100
AcDbSpline
70
4
71
3
72
14
73
10
40
0
40
0
40
0
40
0
40
0.125000000000011
40
0.125000000000011
40
0.250000000000022
40
0.250000000000022
40
0.500000000000015
40
0.500000000000015
40
1
40
1
40
1
40
1
41
1
10
52.6269279512308
20
-1.77097974856693
30
0
41
1
10
52.6576979367778
20
-1.80015481212504
30
0
41
1
10
52.6885235637862
20
-1.82925743618102
30
0
41
1
10
52.7499408135411
20
-1.88763619350129
30
0
41
1
10
52.7805070129476
20
-1.91693555693743
30
0
41
1
10
52.8718530682975
20
-2.00509198733522
30
0
41
1
10
52.9323540131005
20
-2.06413979529668
30
0
41
1
10
53.1129448642959
20
-2.24184247974216
30
0
41
1
10
53.2320325062302
20
-2.3611406205259
30
0
41
1
10
53.35
20
-2.48104142518443
30
0
0
SPLINE
5
11D
100
AcDbEntity
8
1
62
256
6
ByLayer
370
18
48
1
60
0
100
AcDbSpline
70
4
71
3
72
8
73
4
40
0
40
0
40
0
40
0
40
1
40
1
40
1
40
1
41
1
10
53.4402559087981
20
-2.54972409526789
30
0
41
1
10
53.4102107499877
20
-2.52701661452241
30
0
41
1
10
53.3801242681478
20
-2.50412262741278
30
0
41
1
10
53.35
20
-2.48104142518446
30
0
0
SPLINE
5
11E
100
AcDbEntity
8
1
62
256
6
ByLayer
370
18
48
1
60
0
100
AcDbSpline
70
4
71
3
72
8
73
4
40
0
40
0
40
0
40
0
40
1
40
1
40
1
40
1
41
1
10
53.6319430392111
20
-2.4811276557827
30
0
41
1
10
53.5674427487673
20
-2.50969486540887
30
0
41
1
10
53.5036468344793
20
-2.53242072230196
30
0
41
1
10
53.4402559087981
20
-2.54972409526795
30
0
0
SPLINE
5
11F
100
AcDbEntity
8
1
62
256
6
ByLayer
370
18
48
1
60
0
100
AcDbSpline
70
4
71
3
72
32
73
28
40
0
40
0
40
0
40
0
40
0.0625000000000038
40
0.0625000000000038
40
0.125000000000007
40
0.125000000000007
40
0.187500000000011
40
0.187500000000011
40
0.250000000000015
40
0.250000000000015
40
0.312500000000019
40
0.312500000000019
40
0.375000000000023
40
0.375000000000023
40
0.50000000000003
40
0.50000000000003
40
0.562500000000034
40
0.562500000000034
40
0.625000000000038
40
0.625000000000038
40
0.750000000000044
40
0.750000000000044
40
0.812500000000022
40
0.812500000000022
40
0.875
40
0.875
40
1
40
1
40
1
40
1
41
1
10
54.0108602866964
20
-2.68423987331045
30
0
41
1
10
54.0049706863738
20
-2.67425176099155
30
0
41
1
10
53.9984763113103
20
-2.6646260114816
30
0
41
1
10
53.9845060867717
20
-2.64596538897524
30
0
41
1
10
53.9770276593612
20
-2.63693200153546
30
0
41
1
10
53.9612012411018
20
-2.61938886976335
30
0
41
1
10
53.9530089833829
20
-2.61105522148398
30
0
41
1
10
53.936302850569
20
-2.59523258972356
30
0
41
1
10
53.9277664789891
20
-2.58771969135191
30
0
41
1
10
53.9103843798112
20
-2.57338338562559
30
0
41
1
10
53.9014893723201
20
-2.56652655497996
30
0
41
1
10
53.8836928840799
20
-2.55363882467765
30
0
41
1
10
53.8748016740664
20
-2.54760947440997
30
0
41
1
10
53.848156992006
20
-2.53061592593565
30
0
41
1
10
53.8304307872413
20
-2.52073322010014
30
0
41
1
10
53.8039461604905
20
-2.50784233421132
30
0
41
1
10
53.7951203520524
20
-2.50386763384415
30
0
41
1
10
53.7778006311991
20
-2.49667828153798
30
0
41
1
10
53.7692714450278
20
-2.49344517700303
30
0
41
1
10
53.744088200763
20
-2.48479712204204
30
0
41
1
10
53.7278341781564
20
-2.48041501898064
30
0
41
1
10
53.7043842204264
20
-2.47606862318852
30
0
41
1
10
53.6967551517004
20
-2.47500478316675
30
0
41
1
10
53.6821258544811
20
-2.47372314969482
30
0
41
1
10
53.6750902596523
20
-2.47349968235341
30
0
41
1
10
53.6548884637542
20
-2.47419088286912
30
0
41
1
10
53.6425931935894
20
-2.47641069729437
30
0
41
1
10
53.6319430392126
20
-2.48112765578466
30
0
0
SPLINE
5
120
100
AcDbEntity
8
1
62
256
6
ByLayer
370
18
48
1
60
0
100
AcDbSpline
70
4
71
3
72
10
73
6
40
0
40
0
40
0
40
0
40
0.5
40
0.5
40
1
40
1
40
1
40
1
41
1
10
54.2640466068799
20
-3.12553341720911
30
0
41
1
10
54.2222955302562
20
-3.05088210744847
30
0
41
1
10
54.1803256795682
20
-2.97670758370398
30
0
41
1
10
54.0958971855629
20
-2.82948653445908
30
0
41
1
10
54.0534904798405
20
-2.7565359772862
30
0
41
1
10
54.0108602866976
20
-2.68423987331198
30
0
0
SPLINE
5
121
100
AcDbEntity
8
1
62
256
6
ByLayer
370
18
48
1
60
0
100
AcDbSpline
70
4
71
3
72
8
73
4
40
0
40
0
40
0
40
0
40
1
40
1
40
1
40
1
41
1
10
54.8227165347595
20
-3.44535652339036
30
0
41
1
10
54.6362970312359
20
-3.34975293400657
30
0
41
1
10
54.4504087295521
20
-3.24285404997303
30
0
41
1
10
54.2640466068799
20
-3.12553341720914
30
0
0
SPLINE
5
122
100
AcDbEntity
8
1
62
256
6
ByLayer
370
18
48
1
60
0
100
AcDbSpline
70
4
71
3
72
10
73
6
40
0
40
0
40
0
40
0
40
0.5
40
0.5
40
1
40
1
40
1
40
1
41
1
10
55.1362589906481
20
-3.10524545407429
30
0
41
1
10
55.0832331014588
20
-3.1682985256613
30
0
41
1
10
55.0306665828986
20
-3.22811632397313
30
0
41
1
10
54.9261254846816
20
-3.34157959225104
30
0
41
1
10
54.8742569642268
20
-3.39509671375828
30
0
41
1
10
54.8227165347595
20
-3.44535652339039
30
0
0
SPLINE
5
123
100
AcDbEntity
8
1
62
256
6
ByLayer
370
18
48
1
60
0
100
AcDbSpline
70
4
71
3
72
32
73
28
40
0
40
0
40
0
40
0
40
0.0624999999999825
40
0.0624999999999825
40
0.124999999999965
40
0.124999999999965
40
0.187499999999947
40
0.187499999999947
40
0.24999999999993
40
0.24999999999993
40
0.312499999999912
40
0.312499999999912
40
0.374999999999895
40
0.374999999999895
40
0.499999999999916
40
0.499999999999916
40
0.562499999999927
40
0.562499999999927
40
0.624999999999938
40
0.624999999999938
40
0.749999999999959
40
0.749999999999959
40
0.812499999999969
40
0.812499999999969
40
0.874999999999979
40
0.874999999999979
40
1
40
1
40
1
40
1
41
1
10
55.5151729693143
20
-3.18194705023342
30
0
41
1
10
55.5092893393631
20
-3.17173350177913
30
0
41
1
10
55.5028037416799
20
-3.16227284282687
30
0
41
1
10
55.4888560506941
20
-3.14456181352151
30
0
41
1
10
55.4813913845467
20
-3.13631488651316
30
0
41
1
10
55.465597239717
20
-3.12089195240264
30
0
41
1
10
55.4574161148757
20
-3.11386524406066
30
0
41
1
10
55.4407386418668
20
-3.10106588028938
30
0
41
1
10
55.4322171916981
20
-3.095271154258
30
0
41
1
10
55.4148655343788
20
-3.08473911429277
30
0
41
1
10
55.4059874019688
20
-3.07998156001955
30
0
41
1
10
55.3882070408179
20
-3.0715593653668
30
0
41
1
10
55.3793231466358
20
-3.06789586732933
30
0
41
1
10
55.352697960107
20
-3.05835850859839
30
0
41
1
10
55.3349814608953
20
-3.05391962679189
30
0
41
1
10
55.3085061956293
20
-3.04986519365224
30
0
41
1
10
55.2996761946191
20
-3.0489549667559
30
0
41
1
10
55.2823420077899
20
-3.04802560385943
30
0
41
1
10
55.2738053423713
20
-3.04799933304429
30
0
41
1
10
55.2485991821978
20
-3.04920574811789
30
0
41
1
10
55.2323291721721
20
-3.05170260142316
30
0
41
1
10
55.2088571248538
20
-3.05820018697278
30
0
41
1
10
55.2012044151778
20
-3.06083208652569
30
0
41
1
10
55.1865387561361
20
-3.06698588909131
30
0
41
1
10
55.1794866756407
20
-3.07051790060172
30
0
41
1
10
55.1592406433
20
-3.08259649150529
30
0
41
1
10
55.1469228405915
20
-3.09256507277064
30
0
41
1
10
55.136258990648
20
-3.10524545407418
30
0
0
SPLINE
5
124
100
AcDbEntity
8
1
62
256
6
ByLayer
370
18
48
1
60
0
100
AcDbSpline
70
4
71
3
72
12
73
8
40
0
40
0
40
0
40
0
40
0.5
40
0.5
40
0.75
40
0.75
40
1
40
1
40
1
40
1
41
1
10
55.9078630480545
20
-3.8628334187039
30
0
41
1
10
55.8435368218361
20
-3.75194058382539
30
0
41
1
10
55.7786430756052
20
-3.63949148902051
30
0
41
1
10
55.68046741639
20
-3.46907037039568
30
0
41
1
10
55.6475830849347
20
-3.41193830189587
30
0
41
1
10
55.5815729399763
20
-3.29725769348977
30
0
41
1
10
55.5484436044178
20
-3.23970242345621
30
0
41
1
10
55.5151729693143
20
-3.18194705023342
30
0
0
SPLINE
5
125
100
AcDbEntity
8
1
62
256
6
ByLayer
370
18
48
1
60
0
100
AcDbSpline
70
4
71
3
72
8
73
4
40
0
40
0
40
0
40
0
40
1
40
1
40
1
40
1
41
1
10
56.205755396627
20
-3.92316705061268
30
0
41
1
10
56.1062821349138
20
-3.90717853756826
30
0
41
1
10
56.0069820840342
20
-3.88703745756121
30
0
41
1
10
55.9078630480545
20
-3.86283341870393
30
0
0
SPLINE
5
126
100
AcDbEntity
8
1
62
256
6
ByLayer
370
18
48
1
60
0
100
AcDbSpline
70
4
71
3
72
10
73
6
40
0
40
0
40
0
40
0
40
0.5
40
0.5
40
1
40
1
40
1
40
1
41
1
10
56.640645217242
20
-3.20184457973681
30
0
41
1
10
56.5667341762227
20
-3.32990121679291
30
0
41
1
10
56.493718020273
20
-3.45411723415839
30
0
41
1
10
56.3486430082438
20
-3.69508128078596
30
0
41
1
10
56.2768941349682
20
-3.81133171936074
30
0
41
1
10
56.205755396627
20
-3.92316705061271
30
0
0
SPLINE
5
127
100
AcDbEntity
8
1
62
256
6
ByLayer
370
18
48
1
60
0
100
AcDbSpline
70
4
71
3
72
32
73
28
40
0
40
0
40
0
40
0
40
0.0625000000000344
40
0.0625000000000344
40
0.125000000000069
40
0.125000000000069
40
0.187500000000103
40
0.187500000000103
40
0.250000000000138
40
0.250000000000138
40
0.312500000000172
40
0.312500000000172
40
0.375000000000206
40
0.375000000000206
40
0.500000000000219
40
0.500000000000219
40
0.562500000000197
40
0.562500000000197
40
0.625000000000175
40
0.625000000000175
40
0.750000000000131
40
0.750000000000131
40
0.812500000000109
40
0.812500000000109
40
0.875000000000087
40
0.875000000000087
40
1
40
1
40
1
40
1
41
1
10
57.0195609268793
20
-3.13836076775914
30
0
41
1
10
57.0136739785804
20
-3.12966631594071
30
0
41
1
10
57.0071840316926
20
-3.12198641702656
30
0
41
1
10
56.9932257539519
20
-3.10825109367119
30
0
41
1
10
56.9857548539586
20
-3.10220045456455
30
0
41
1
10
56.9699465674231
20
-3.09153709684904
30
0
41
1
10
56.9617593641802
20
-3.08702957464439
30
0
41
1
10
56.9450691226328
20
-3.07946186342031
30
0
41
1
10
56.9365414333607
20
-3.07638833080077
30
0
41
1
10
56.9191776401582
20
-3.07148951261456
30
0
41
1
10
56.9102931091885
20
-3.06966002240168
30
0
41
1
10
56.8925062755162
20
-3.06718905390108
30
0
41
1
10
56.883619667034
20
-3.06654140183417
30
0
41
1
10
56.8569878912487
20
-3.06616306121916
30
0
41
1
10
56.839269074838
20
-3.06797677436703
30
0
41
1
10
56.8127935631791
20
-3.07352590500437
30
0
41
1
10
56.803966020466
20
-3.07586290708554
30
0
41
1
10
56.7866392170627
20
-3.08140437074093
30
0
41
1
10
56.778106463591
20
-3.08461364837001
30
0
41
1
10
56.7529125211528
20
-3.0955356741664
30
0
41
1
10
56.7366513605577
20
-3.10452219656224
30
0
41
1
10
56.7131912115288
20
-3.12080156787803
30
0
41
1
10
56.7055473259362
20
-3.12669280439098
30
0
41
1
10
56.6908955971084
20
-3.13925049817425
30
0
41
1
10
56.6838496170417
20
-3.1459416626258
30
0
41
1
10
56.6636186769503
20
-3.16735830073225
30
0
41
1
10
56.6513067217854
20
-3.18337269246575
30
0
41
1
10
56.6406452172419
20
-3.20184457973687
30
0
0
SPLINE
5
128
100
AcDbEntity
8
1
62
256
6
ByLayer
370
18
48
1
60
0
100
AcDbSpline
70
4
71
3
72
14
73
10
40
0
40
0
40
0
40
0
40
0.25
40
0.25
40
0.5
40
0.5
40
0.75
40
0.75
40
1
40
1
40
1
40
1
41
1
10
57.4990371414714
20
-3.80201897283169
30
0
41
1
10
57.459984347574
20
-3.75202433484463
30
0
41
1
10
57.4207333116243
20
-3.70068553335105
30
0
41
1
10
57.341743838507
20
-3.595274833773
30
0
41
1
10
57.3019773173555
20
-3.5411637955755
30
0
41
1
10
57.2220026995023
20
-3.43034507267063
30
0
41
1
10
57.181801499182
20
-3.37364801542429
30
0
41
1
10
57.1009649738573
20
-3.25776157677254
30
0
41
1
10
57.0603665752292
20
-3.19862675371417
30
0
41
1
10
57.0195609268793
20
-3.13836076775914
30
0
0
SPLINE
5
129
100
AcDbEntity
8
1
62
256
6
ByLayer
370
18
48
1
60
0
100
AcDbSpline
70
4
71
3
72
8
73
4
40
0
40
0
40
0
40
0
40
1
40
1
40
1
40
1
41
1
10
57.4990371414714
20
-3.80201897283112
30
0
41
1
10
57.5481973903921
20
-3.78410488932522
30
0
41
1
10
57.5973913852776
20
-3.76514676323617
30
0
41
1
10
57.6466459765883
20
-3.74515430837073
30
0
0
SPLINE
5
12A
100
AcDbEntity
8
1
62
256
6
ByLayer
370
18
48
1
60
0
100
AcDbSpline
70
4
71
3
72
14
73
10
40
0
40
0
40
0
40
0
40
0.25
40
0.25
40
0.5
40
0.5
40
0.75
40
0.75
40
1
40
1
40
1
40
1
41
1
10
58.1448973889211
20
-2.75527790479225
30
0
41
1
10
58.1024169032193
20
-2.83910638096199
30
0
41
1
10
58.0602347648982
20
-2.92267803291551
30
0
41
1
10
57.9763132384904
20
-3.08927277564459
30
0
41
1
10
57.9345660097908
20
-3.17230983799064
30
0
41
1
10
57.8514511897967
20
-3.33773828791706
30
0
41
1
10
57.8101618032794
20
-3.41997396901527
30
0
41
1
10
57.7280286843562
20
-3.58345000912641
30
0
41
1
10
57.6872073096098
20
-3.6646460377066
30
0
41
1
10
57.6466459765884
20
-3.74515430837076
30
0
0
SPLINE
5
12B
100
AcDbEntity
8
1
62
256
6
ByLayer
370
18
48
1
60
0
100
AcDbSpline
70
4
71
3
72
28
73
24
40
0
40
0
40
0
40
0
40
0.0295057954929852
40
0.0295057954929852
40
0.104159195839669
40
0.104159195839669
40
0.178812596186352
40
0.178812596186352
40
0.253465996533036
40
0.253465996533036
40
0.402772797226402
40
0.402772797226402
40
0.477426197573118
40
0.477426197573118
40
0.552079597919835
40
0.552079597919835
40
0.701386398613205
40
0.701386398613205
40
0.77603979895989
40
0.77603979895989
40
0.850693199306575
40
0.850693199306575
40
1
40
1
40
1
40
1
41
1
10
58.467645802255
20
-2.53804685313227
30
0
41
1
10
58.4644106420307
20
-2.53761650807931
30
0
41
1
10
58.4611431332111
20
-2.53730189656798
30
0
41
1
10
58.4495232754024
20
-2.53657323568407
30
0
41
1
10
58.4410134432749
20
-2.5367401386018
30
0
41
1
10
58.4236869626586
20
-2.53828944524972
30
0
41
1
10
58.4148240662093
20
-2.53968368118049
30
0
41
1
10
58.3970590643386
20
-2.54354563589047
30
0
41
1
10
58.3881827138857
20
-2.54600070593693
30
0
41
1
10
58.3615792466251
20
-2.55476477497658
30
0
41
1
10
58.3438759918484
20
-2.56245379545973
30
0
41
1
10
58.3174169985619
20
-2.57653980885988
30
0
41
1
10
58.3085863372166
20
-2.5816859931864
30
0
41
1
10
58.2912411643894
20
-2.59267945401984
30
0
41
1
10
58.2826985365018
20
-2.59853907602957
30
0
41
1
10
58.2574731790219
20
-2.61719807779005
30
0
41
1
10
58.24118838107
20
-2.63106154419444
30
0
41
1
10
58.2176935387909
20
-2.65422257344409
30
0
41
1
10
58.2100166788204
20
-2.66235069515622
30
0
41
1
10
58.1953081084418
20
-2.67913581713
30
0
41
1
10
58.1882359776115
20
-2.68782915279004
30
0
41
1
10
58.1679336510725
20
-2.71488671989138
30
0
41
1
10
58.1555836137316
20
-2.73419034124197
30
0
41
1
10
58.1448973889211
20
-2.75527790479185
30
0
0
SPLINE
5
12C
100
AcDbEntity
8
1
62
256
6
ByLayer
370
18
48
1
60
0
100
AcDbSpline
70
4
71
3
72
8
73
4
40
0
40
0
40
0
40
0
40
1
40
1
40
1
40
1
41
1
10
59.0030847850376
20
-2.94559686862087
30
0
41
1
10
59.0523905727322
20
-2.90829315227606
30
0
41
1
10
59.1017137707123
20
-2.87020660957035
30
0
41
1
10
59.1510630404966
20
-2.83134547340151
30
0
0
SPLINE
5
12D
100
AcDbEntity
8
1
62
256
6
ByLayer
370
18
48
1
60
0
100
AcDbSpline
70
4
71
3
72
8
73
4
40
0
40
0
40
0
40
0
40
1
40
1
40
1
40
1
41
1
10
59.2070926162145
20
-2.71480695257151
30
0
41
1
10
59.1883635265721
20
-2.75357838735454
30
0
41
1
10
59.1696864723571
20
-2.79242968545785
30
0
41
1
10
59.1510630404966
20
-2.83134547340154
30
0
0
SPLINE
5
12E
100
AcDbEntity
8
1
62
256
6
ByLayer
370
18
48
1
60
0
100
AcDbSpline
70
4
71
3
72
30
73
26
40
0
40
0
40
0
40
0
40
0.0705069251373313
40
0.0705069251373313
40
0.141013850274663
40
0.141013850274663
40
0.282027700549326
40
0.282027700549326
40
0.352534625686657
40
0.352534625686657
40
0.423041550823989
40
0.423041550823989
40
0.493548475961321
40
0.493548475961321
40
0.564055401098653
40
0.564055401098653
40
0.705069251373378
40
0.705069251373378
40
0.77557617651077
40
0.77557617651077
40
0.846083101648163
40
0.846083101648163
40
0.987096951922949
40
0.987096951922949
40
1
40
1
40
1
40
1
41
1
10
60.797612735603
20
-3.16503381568805
30
0
41
1
10
60.8035674451372
20
-3.1558361250209
30
0
41
1
10
60.8101631556229
20
-3.14767468006275
30
0
41
1
10
60.8244022363807
20
-3.13302362179542
30
0
41
1
10
60.8320754315759
20
-3.1265198421757
30
0
41
1
10
60.8563262582145
20
-3.10936680555054
30
0
41
1
10
60.8734299801736
20
-3.1014409809396
30
0
41
1
10
60.9000199767853
20
-3.09334224215235
30
0
41
1
10
60.9090534289573
20
-3.09130050246677
30
0
41
1
10
60.9269833501615
20
-3.08845695032909
30
0
41
1
10
60.9359353904627
20
-3.08763641840403
30
0
41
1
10
60.9538074525287
20
-3.08705996003889
30
0
41
1
10
60.9627275346948
20
-3.08730487356121
30
0
41
1
10
60.9805283891566
20
-3.08878757172371
30
0
41
1
10
60.9894335699993
20
-3.09003071245707
30
0
41
1
10
61.0159085096817
20
-3.09517687139245
30
0
41
1
10
61.0330417818645
20
-3.10042682532375
30
0
41
1
10
61.0579547933351
20
-3.11083919645128
30
0
41
1
10
61.066126788769
20
-3.11473738209179
30
0
41
1
10
61.0821914058885
20
-3.12341040751431
30
0
41
1
10
61.090100724345
20
-3.12820009993087
30
0
41
1
10
61.1130300239582
20
-3.14372274960124
30
0
41
1
10
61.1273804333443
20
-3.1556383829938
30
0
41
1
10
61.1418653487534
20
-3.17062622249176
30
0
41
1
10
61.1430712248203
20
-3.17189887847559
30
0
41
1
10
61.1442680339838
20
-3.17318775211001
30
0
0
SPLINE
5
12F
100
AcDbEntity
8
1
62
256
6
ByLayer
370
18
48
1
60
0
100
AcDbSpline
70
4
71
3
72
26
73
22
40
0
40
0
40
0
40
0
40
0.124999999999998
40
0.249999999999996
40
0.249999999999996
40
0.374999999999994
40
0.374999999999994
40
0.406249999999993
40
0.406249999999993
40
0.437499999999993
40
0.499999999999993
40
0.499999999999993
40
0.624999999999995
40
0.749999999999996
40
0.749999999999996
40
0.812499999999997
40
0.843749999999998
40
0.843749999999998
40
0.874999999999998
40
0.874999999999998
40
1
40
1
40
1
40
1
41
1
10
55.5360667921899
20
0.181547057664147
30
0
41
1
10
55.5287004989532
20
0.296827338513651
30
0
41
1
10
55.514167302333
20
0.525636390863468
30
0
41
1
10
55.4997594100747
20
0.750982203961058
30
0
41
1
10
55.4852958596113
20
0.974575687099332
30
0
41
1
10
55.4780363227888
20
1.08549642665687
30
0
41
1
10
55.4688628981196
20
1.22301294946226
30
0
41
1
10
55.4670214184064
20
1.25048703631069
30
0
41
1
10
55.4633449527768
20
1.3050568097741
30
0
41
1
10
55.4578349026262
20
1.3864212899625
30
0
41
1
10
55.4523328911507
20
1.46633018813819
30
0
41
1
10
55.4413263576827
20
1.62423537678495
30
0
41
1
10
55.4266430903497
20
1.82968287371312
30
0
41
1
10
55.4118386040731
20
2.02505623056277
30
0
41
1
10
55.4006622469431
20
2.16775889965734
30
0
41
1
10
55.3950558976685
20
2.2381519597069
30
0
41
1
10
55.3894177350209
20
2.30708469456255
30
0
41
1
10
55.3856513885127
20
2.35271177604699
30
0
41
1
10
55.383762723674
20
2.37538115354118
30
0
41
1
10
55.3743458920441
20
2.48734706845457
30
0
41
1
10
55.3668658097973
20
2.57289662066881
30
0
41
1
10
55.3594229228733
20
2.6545418202987
30
0
0
SPLINE
5
130
100
AcDbEntity
8
1
62
256
6
ByLayer
370
18
48
1
60
0
100
AcDbSpline
70
4
71
3
72
8
73
4
40
0
40
0
40
0
40
0
40
1
40
1
40
1
40
1
41
1
10
55.5360667921898
20
0.181547057664147
30
0
41
1
10
55.6559308381638
20
0.0519831930527914
30
0
41
1
10
55.7753169628235
20
-0.0790991039167181
30
0
41
1
10
55.8945750490073
20
-0.211393150792674
30
0
0
SPLINE
5
131
100
AcDbEntity
8
1
62
256
6
ByLayer
370
13
48
1
60
0
100
AcDbSpline
70
4
71
3
72
10
73
6
40
0
40
0
40
0
40
0
40
0.138938033525943
40
0.862647213267268
40
1
40
1
40
1
40
1
41
1
10
56.1393068727104
20
1.62324157115333
30
0
41
1
10
56.1461331674328
20
1.53837730379922
30
0
41
1
10
56.188389160989
20
0.999052549915717
30
0
41
1
10
56.2364897832787
20
0.300952846467254
30
0
41
1
10
56.2775536183898
20
-0.289069236830187
30
0
41
1
10
56.2840854508287
20
-0.382421567238396
30
0
0
SPLINE
5
132
100
AcDbEntity
8
1
62
256
6
ByLayer
370
18
48
1
60
0
100
AcDbSpline
70
4
71
3
72
23
73
19
40
0
40
0
40
0
40
0
40
0.125
40
0.25
40
0.25
40
0.3125
40
0.3125
40
0.375
40
0.375
40
0.5
40
0.625
40
0.75
40
0.75
40
0.8125
40
0.8125
40
0.874999999999999
40
0.874999999999999
40
1
40
1
40
1
40
1
41
1
10
55.7445577099802
20
2.38853191773239
30
0
41
1
10
55.7507861629944
20
2.29777268855776
30
0
41
1
10
55.7632220556387
20
2.11035872102704
30
0
41
1
10
55.7757280988623
20
1.91127804797216
30
0
41
1
10
55.7851458550817
20
1.75752805845301
30
0
41
1
10
55.7882911510797
20
1.70553698994166
30
0
41
1
10
55.7945915011407
20
1.60004725632987
30
0
41
1
10
55.7977510402158
20
1.54644401547631
30
0
41
1
10
55.8071637569114
20
1.38491016771567
30
0
41
1
10
55.8195945117897
20
1.16678416165229
30
0
41
1
10
55.8381759491053
20
0.831597216979873
30
0
41
1
10
55.8506628605402
20
0.602834847817604
30
0
41
1
10
55.8600966280942
20
0.429233531678165
30
0
41
1
10
55.8632540339458
20
0.370997626434871
30
0
41
1
10
55.8695867089155
20
0.25395798043877
30
0
41
1
10
55.8727408990829
20
0.195544005315213
30
0
41
1
10
55.8821666051814
20
0.0206133804547903
30
0
41
1
10
55.8883986360447
20
-0.0955927137396486
30
0
41
1
10
55.8945750490073
20
-0.211393150792617
30
0
0
SPLINE
5
133
100
AcDbEntity
8
1
62
256
6
ByLayer
370
18
48
1
60
0
100
AcDbSpline
70
4
71
3
72
12
73
8
40
0
40
0
40
0
40
0
40
0.499999999999999
40
0.499999999999999
40
0.75
40
0.75
40
1
40
1
40
1
40
1
41
1
10
55.8945750490073
20
-0.211393150792674
30
0
41
1
10
55.9584276015276
20
-0.251131904176674
30
0
41
1
10
56.0228661337806
20
-0.285509751734878
30
0
41
1
10
56.1202738249718
20
-0.328458504961532
30
0
41
1
10
56.1528919932975
20
-0.341344177158419
30
0
41
1
10
56.2183191490719
20
-0.364104162400992
30
0
41
1
10
56.2511431867399
20
-0.373967392517386
30
0
41
1
10
56.2840854508287
20
-0.382421567238424
30
0
0
SPLINE
5
134
100
AcDbEntity
8
1
62
256
6
ByLayer
370
18
48
1
60
0
100
AcDbSpline
70
4
71
3
72
19
73
15
40
0
40
0
40
0
40
0
40
0.134852446857783
40
0.134852446857783
40
0.269704893715566
40
0.269704893715566
40
0.539409787431024
40
0.539409787431024
40
0.674262234288692
40
0.674262234288692
40
0.809114681146361
40
0.94396712800403
40
0.94396712800403
40
1
40
1
40
1
40
1
41
1
10
53.7766930991239
20
-3.22723724278077
30
0
41
1
10
53.7826360357176
20
-3.21744570614769
30
0
41
1
10
53.7892176497974
20
-3.20858648798532
30
0
41
1
10
53.8034238838869
20
-3.19237834032407
30
0
41
1
10
53.8110761701716
20
-3.18501267232384
30
0
41
1
10
53.8352765774586
20
-3.16506147173249
30
0
41
1
10
53.8523454698467
20
-3.15508896784382
30
0
41
1
10
53.8789090361097
20
-3.14370722922433
30
0
41
1
10
53.887942977328
20
-3.14053183697774
30
0
41
1
10
53.9058821438763
20
-3.13541261664216
30
0
41
1
10
53.9238009858477
20
-3.13147359455135
30
0
41
1
10
53.9416572367936
20
-3.12962977841161
30
0
41
1
10
53.9542659747741
20
-3.1290142909437
30
0
41
1
10
53.9579676433039
20
-3.12891804645034
30
0
41
1
10
53.9616639710443
20
-3.12890482745607
30
0
0
SPLINE
5
135
100
AcDbEntity
8
1
62
256
6
ByLayer
370
18
48
1
60
0
100
AcDbSpline
70
4
71
3
72
10
73
6
40
0
40
0
40
0
40
0
40
0.5
40
0.5
40
1
40
1
40
1
40
1
41
1
10
53.5826056983069
20
-3.54369116283806
30
0
41
1
10
53.6147139485675
20
-3.49194828820009
30
0
41
1
10
53.6469271766968
20
-3.43970992829415
30
0
41
1
10
53.7116104398766
20
-3.33422205679383
30
0
41
1
10
53.7440824988786
20
-3.2809662169829
30
0
41
1
10
53.7766930991239
20
-3.22723724278077
30
0
0
SPLINE
5
136
100
AcDbEntity
8
1
62
256
6
ByLayer
370
18
48
1
60
0
100
AcDbSpline
70
4
71
3
72
8
73
4
40
0
40
0
40
0
40
0
40
1
40
1
40
1
40
1
41
1
10
53.35
20
-3.48448998509011
30
0
41
1
10
53.4279781535041
20
-3.50685353847001
30
0
41
1
10
53.505472650395
20
-3.52657783002144
30
0
41
1
10
53.582605698307
20
-3.54369116283729
30
0
0
SPLINE
5
137
100
AcDbEntity
8
1
62
256
6
ByLayer
370
18
48
1
60
0
100
AcDbSpline
70
4
71
3
72
14
73
10
40
0
40
0
40
0
40
0
40
0.500000000000012
40
0.500000000000012
40
0.750000000000017
40
0.750000000000017
40
0.875000000000009
40
0.875000000000009
40
1
40
1
40
1
40
1
41
1
10
53.35
20
-3.48448998509008
30
0
41
1
10
53.2315331302012
20
-3.39752055553251
30
0
41
1
10
53.1125342043805
20
-3.30381254678733
30
0
41
1
10
52.9321737196003
20
-3.15363334249355
30
0
41
1
10
52.8717351059167
20
-3.10196674926141
30
0
41
1
10
52.7803969805799
20
-3.02209891877268
30
0
41
1
10
52.7498370135531
20
-2.9950819549868
30
0
41
1
10
52.6885299359039
20
-2.94027596302047
30
0
41
1
10
52.6578135845756
20
-2.91249033587357
30
0
41
1
10
52.6269279512308
20
-2.88431214396465
30
0
0
SPLINE
5
138
100
AcDbEntity
8
1
62
256
6
ByLayer
370
18
48
1
60
0
100
AcDbSpline
70
4
71
3
72
14
73
10
40
0
40
0
40
0
40
0
40
0.25
40
0.25
40
0.5
40
0.5
40
0.75
40
0.75
40
1
40
1
40
1
40
1
41
1
10
52.6269279512308
20
-2.88431214396465
30
0
41
1
10
52.5856513295958
20
-2.84665384009247
30
0
41
1
10
52.5430181149169
20
-2.81108765357146
30
0
41
1
10
52.4551139236419
20
-2.74418637642933
30
0
41
1
10
52.4098990755295
20
-2.71285703697203
30
0
41
1
10
52.317522340451
20
-2.65444622774908
30
0
41
1
10
52.2703622786734
20
-2.62736217807299
30
0
41
1
10
52.17462001512
20
-2.57741015684792
30
0
41
1
10
52.1260390809114
20
-2.55453717633691
30
0
41
1
10
52.0769279512308
20
-2.53380565949624
30
0
0
SPLINE
5
139
100
AcDbEntity
8
1
62
256
6
ByLayer
370
18
48
1
60
0
100
AcDbSpline
70
4
71
3
72
74
73
70
40
0
40
0
40
0
40
0
40
0.0624999999999912
40
0.0624999999999912
40
0.0937499999999868
40
0.0937499999999868
40
0.124999999999982
40
0.124999999999982
40
0.156249999999978
40
0.156249999999978
40
0.171874999999976
40
0.171874999999976
40
0.187499999999973
40
0.187499999999973
40
0.218749999999971
40
0.218749999999971
40
0.249999999999969
40
0.249999999999969
40
0.312499999999964
40
0.312499999999964
40
0.343749999999963
40
0.343749999999963
40
0.351562499999963
40
0.351562499999963
40
0.359374999999964
40
0.374999999999964
40
0.374999999999964
40
0.406249999999963
40
0.406249999999963
40
0.437499999999962
40
0.437499999999962
40
0.468749999999961
40
0.468749999999961
40
0.49999999999996
40
0.49999999999996
40
0.51562499999996
40
0.51562499999996
40
0.52343749999996
40
0.52343749999996
40
0.531249999999961
40
0.562499999999962
40
0.562499999999962
40
0.593749999999963
40
0.593749999999963
40
0.624999999999964
40
0.624999999999964
40
0.656249999999965
40
0.656249999999965
40
0.687499999999966
40
0.687499999999966
40
0.703124999999966
40
0.703124999999966
40
0.718749999999967
40
0.718749999999967
40
0.74999999999997
40
0.74999999999997
40
0.781249999999973
40
0.781249999999973
40
0.812499999999976
40
0.812499999999976
40
0.84374999999998
40
0.84374999999998
40
0.859374999999981
40
0.859374999999981
40
0.874999999999983
40
0.874999999999983
40
0.937499999999991
40
0.937499999999991
40
1
40
1
40
1
40
1
41
1
10
52.0769279512308
20
-2.53380565949624
30
0
41
1
10
51.8426630494191
20
-2.43491429233219
30
0
41
1
10
51.6110993342681
20
-2.32089448311101
30
0
41
1
10
51.2643521121825
20
-2.13049534927302
30
0
41
1
10
51.1488816633103
20
-2.06379139908501
30
0
41
1
10
50.917599732005
20
-1.92446225488513
30
0
41
1
10
50.8017845148366
20
-1.85185099952074
30
0
41
1
10
50.5700102211211
20
-1.70047450575589
30
0
41
1
10
50.4540487573728
20
-1.6216980537865
30
0
41
1
10
50.2793876908625
20
-1.49940345070323
30
0
41
1
10
50.221051733158
20
-1.45794654171283
30
0
41
1
10
50.1040715493782
20
-1.37371066411165
30
0
41
1
10
50.0456353840455
20
-1.33108106594526
30
0
41
1
10
49.8707806476079
20
-1.20211738817002
30
0
41
1
10
49.7546086938127
20
-1.11461407064687
30
0
41
1
10
49.5225567254119
20
-0.937196422764373
30
0
41
1
10
49.4067221594952
20
-0.847230805421134
30
0
41
1
10
49.0597172224582
20
-0.573678634094676
30
0
41
1
10
48.8291887911402
20
-0.386254381723489
30
0
41
1
10
48.4812108602776
20
-0.101535149640654
30
0
41
1
10
48.3648457101841
20
-0.006041921500838
30
0
41
1
10
48.2184999765661
20
0.113547333476163
30
0
41
1
10
48.1891853037936
20
0.13747545370444
30
0
41
1
10
48.1306633520565
20
0.185183015175653
30
0
41
1
10
48.0429664739446
20
0.256584183639774
30
0
41
1
10
47.9555176001405
20
0.327499360792416
30
0
41
1
10
47.7809243238358
20
0.468662438707554
30
0
41
1
10
47.6649411291085
20
0.561890761388071
30
0
41
1
10
47.4335950912582
20
0.746361179112228
30
0
41
1
10
47.3182635145442
20
0.837638212890823
30
0
41
1
10
47.0875951171536
20
1.01744548986605
30
0
41
1
10
46.9721873138306
20
1.10589262288019
30
0
41
1
10
46.7405971629211
20
1.27914881429592
30
0
41
1
10
46.6244625466325
20
1.36401459801468
30
0
41
1
10
46.4495570087113
20
1.48842332563891
30
0
41
1
10
46.3911384494275
20
1.52941151459387
30
0
41
1
10
46.3033052809947
20
1.59013137703249
30
0
41
1
10
46.2739698620936
20
1.61025973264302
30
0
41
1
10
46.2154004748094
20
1.65013480114837
30
0
41
1
10
46.0691697727879
20
1.74891129937572
30
0
41
1
10
45.9238314083652
20
1.84310009766921
30
0
41
1
10
45.6920981209509
20
1.98770459362652
30
0
41
1
10
45.5766760530573
20
2.05698922438512
30
0
41
1
10
45.345909104003
20
2.18883244166193
30
0
41
1
10
45.2305129498549
20
2.25135022115885
30
0
41
1
10
44.9991183761555
20
2.36917563192586
30
0
41
1
10
44.8832365943208
20
2.42457960500542
30
0
41
1
10
44.6509294761139
20
2.52816349262804
30
0
41
1
10
44.5345371638802
20
2.57636317171793
30
0
41
1
10
44.3592846016849
20
2.64291462957769
30
0
41
1
10
44.3007002918412
20
2.66414807796781
30
0
41
1
10
44.1840043758179
20
2.70434484908321
30
0
41
1
10
44.1257988174503
20
2.72334568897807
30
0
41
1
10
43.9514743419527
20
2.77703202328794
30
0
41
1
10
43.8356331067067
20
2.80839373982821
30
0
41
1
10
43.6040669936075
20
2.86221958008662
30
0
41
1
10
43.4883780627478
20
2.8847058719916
30
0
41
1
10
43.2570649615658
20
2.92086525142997
30
0
41
1
10
43.1414742220802
20
2.93454205509079
30
0
41
1
10
42.9100804966339
20
2.95291873218471
30
0
41
1
10
42.7942520736074
20
2.95761106813831
30
0
41
1
10
42.6198692660087
20
2.9577425875288
30
0
41
1
10
42.5616346126002
20
2.95663538496427
30
0
41
1
10
42.4448743633368
20
2.95209356132278
30
0
41
1
10
42.386259123898
20
2.94864951424685
30
0
41
1
10
42.094069116448
20
2.92571654644868
30
0
41
1
10
41.8620672383261
20
2.88922925075892
30
0
41
1
10
41.3995715631613
20
2.78175493190869
30
0
41
1
10
41.169216737815
20
2.71061929476045
30
0
41
1
10
40.9375020460042
20
2.62286748982282
30
0
0
SPLINE
5
13A
100
AcDbEntity
8
1
62
256
6
ByLayer
370
18
48
1
60
0
100
AcDbSpline
70
4
71
3
72
14
73
10
40
0
40
0
40
0
40
0
40
0.0541868936776768
40
0.0541868936776768
40
0.580108578403618
40
0.580108578403618
40
0.843069420766588
40
0.843069420766588
40
1
40
1
40
1
40
1
41
1
10
40.9373972795892
20
2.62292052625361
30
0
41
1
10
40.9311249050284
20
2.60575505277137
30
0
41
1
10
40.9246565563851
20
2.58866861089496
30
0
41
1
10
40.8527933236185
20
2.40680088740993
30
0
41
1
10
40.7677904607561
20
2.24658680243968
30
0
41
1
10
40.6175358955358
20
2.03798530736202
30
0
41
1
10
40.5626339062754
20
1.97237620437716
30
0
41
1
10
40.4701632565796
20
1.8811431634233
30
0
41
1
10
40.4349039837634
20
1.84933510625132
30
0
41
1
10
40.3991619072743
20
1.81910790991446
30
0
0
SPLINE
5
13B
100
AcDbEntity
8
1
62
256
6
ByLayer
370
18
48
1
60
0
100
AcDbSpline
70
4
71
3
72
105
73
101
40
0
40
0
40
0
40
0
40
0.0166013682026796
40
0.0166013682026796
40
0.0332027364053593
40
0.0332027364053593
40
0.0664054728107206
40
0.0664054728107206
40
0.0996082092160819
40
0.0996082092160819
40
0.132810945621443
40
0.132810945621443
40
0.141111629722783
40
0.141111629722783
40
0.149412313824123
40
0.166013682026803
40
0.166013682026803
40
0.199216418432162
40
0.199216418432162
40
0.232419154837521
40
0.232419154837521
40
0.265621891242881
40
0.265621891242881
40
0.282223259445561
40
0.282223259445561
40
0.298824627648242
40
0.298824627648242
40
0.332027364053603
40
0.332027364053603
40
0.365230100458964
40
0.365230100458964
40
0.398432836864326
40
0.398432836864326
40
0.415034205067008
40
0.415034205067008
40
0.431635573269689
40
0.431635573269689
40
0.439936257371031
40
0.439936257371031
40
0.448236941472373
40
0.448236941472373
40
0.464838309675058
40
0.464838309675058
40
0.481439677877744
40
0.481439677877744
40
0.49804104608043
40
0.49804104608043
40
0.514642414283115
40
0.514642414283115
40
0.531243782485801
40
0.531243782485801
40
0.564446518891172
40
0.564446518891172
40
0.581047887093859
40
0.581047887093859
40
0.589348571195201
40
0.589348571195201
40
0.597649255296543
40
0.597649255296543
40
0.630851991701912
40
0.630851991701912
40
0.664054728107282
40
0.664054728107282
40
0.680656096309967
40
0.680656096309967
40
0.697257464512651
40
0.697257464512651
40
0.713858832715336
40
0.713858832715336
40
0.730460200918021
40
0.730460200918021
40
0.747061569120705
40
0.747061569120705
40
0.755362253222049
40
0.755362253222049
40
0.763662937323392
40
0.763662937323392
40
0.796865673728767
40
0.796865673728767
40
0.830068410134143
40
0.830068410134143
40
0.846669778336831
40
0.846669778336831
40
0.86327114653952
40
0.879872514742209
40
0.879872514742209
40
0.896473882944897
40
0.896473882944897
40
0.904774567046242
40
0.904774567046242
40
0.913075251147588
40
0.929676619350276
40
0.929676619350276
40
0.962879355755653
40
0.962879355755653
40
0.979480723958342
40
0.979480723958342
40
0.996082092161031
40
0.996082092161031
40
1
40
1
40
1
40
1
41
1
10
38.5589880675642
20
2.72685895905266
30
0
41
1
10
38.6296523331608
20
2.70446128796533
30
0
41
1
10
38.7000798708795
20
2.68052703186885
30
0
41
1
10
38.8407044801024
20
2.62974131851902
30
0
41
1
10
38.9108814545615
20
2.60287984704738
30
0
41
1
10
39.121205137212
20
2.5180447191768
30
0
41
1
10
39.2611702937146
20
2.45583132412406
30
0
41
1
10
39.5418141842446
20
2.32110583338573
30
0
41
1
10
39.6824533276743
20
2.24858493668941
30
0
41
1
10
39.9645361937831
20
2.09333716097805
30
0
41
1
10
40.1059751419683
20
2.01061978575933
30
0
41
1
10
40.2830338408712
20
1.90030852626316
30
0
41
1
10
40.3184927549495
20
1.87787269182502
30
0
41
1
10
40.3892341560463
20
1.83249235851142
30
0
41
1
10
40.4951133182816
20
1.76364282825781
30
0
41
1
10
40.6005252053066
20
1.69269204769455
30
0
41
1
10
40.811418781458
20
1.54875059093965
30
0
41
1
10
40.9520695662706
20
1.45004863547723
30
0
41
1
10
41.2333077812738
20
1.2471908079462
30
0
41
1
10
41.3737935225774
20
1.14291834919149
30
0
41
1
10
41.6546979701769
20
0.92887072631305
30
0
41
1
10
41.79509824448
20
0.819066196457271
30
0
41
1
10
42.0064113554945
20
0.651010029765615
30
0
41
1
10
42.0769746545582
20
0.594441160349021
30
0
41
1
10
42.2185599725998
20
0.480439917733577
30
0
41
1
10
42.2896881009265
20
0.422945150211206
30
0
41
1
10
42.5023315440946
20
0.250881915842854
30
0
41
1
10
42.6435866087859
20
0.136307714346429
30
0
41
1
10
42.9254329211249
20
-0.0921838008167981
30
0
41
1
10
43.0660233240418
20
-0.206103379125238
30
0
41
1
10
43.3463565615672
20
-0.433511302455656
30
0
41
1
10
43.4859466281524
20
-0.547182475359193
30
0
41
1
10
43.6959148129441
20
-0.715837626533983
30
0
41
1
10
43.7660128150647
20
-0.77173383460854
30
0
41
1
10
43.9067780056807
20
-0.882455154981187
30
0
41
1
10
43.9774627747918
20
-0.937259512416261
30
0
41
1
10
44.083936432242
20
-1.0186408529843
30
0
41
1
10
44.1195013691699
20
-1.04563124574028
30
0
41
1
10
44.1907714849814
20
-1.09934694663494
30
0
41
1
10
44.2264635768851
20
-1.1260619759893
30
0
41
1
10
44.333295877699
20
-1.20550489253762
30
0
41
1
10
44.4043370759459
20
-1.25763839150585
30
0
41
1
10
44.5459304943646
20
-1.36041848579191
30
0
41
1
10
44.6164758735947
20
-1.41107281715645
30
0
41
1
10
44.7569273322452
20
-1.51104275270211
30
0
41
1
10
44.8268630546592
20
-1.5603218024219
30
0
41
1
10
44.966595344327
20
-1.65698604189311
30
0
41
1
10
45.0364060074378
20
-1.7043568070647
30
0
41
1
10
45.1763199135338
20
-1.79678976714834
30
0
41
1
10
45.2463781934049
20
-1.84189981911339
30
0
41
1
10
45.4568774856009
20
-1.97392379320621
30
0
41
1
10
45.5977192044044
20
-2.05747212356363
30
0
41
1
10
45.8095831364859
20
-2.17620671100369
30
0
41
1
10
45.8802840094937
20
-2.21470100167167
30
0
41
1
10
45.9865180995891
20
-2.27073181295913
30
0
41
1
10
46.0219601774773
20
-2.28912337167301
30
0
41
1
10
46.0929184865478
20
-2.32531918452517
30
0
41
1
10
46.128471437757
20
-2.34314133466088
30
0
41
1
10
46.3059452531021
20
-2.43048912757229
30
0
41
1
10
46.4468162921404
20
-2.49467975201594
30
0
41
1
10
46.7274658382357
20
-2.61112445368852
30
0
41
1
10
46.8672676373489
20
-2.66334368444029
30
0
41
1
10
47.0776952645207
20
-2.7320814049894
30
0
41
1
10
47.1480009319602
20
-2.75338332121058
30
0
41
1
10
47.2887782212668
20
-2.79288812713111
30
0
41
1
10
47.3592398451581
20
-2.81109705301574
30
0
41
1
10
47.499993944583
20
-2.844519492144
30
0
41
1
10
47.5702501561091
20
-2.85973886018147
30
0
41
1
10
47.7108756208304
20
-2.88699951121313
30
0
41
1
10
47.7812535737572
20
-2.89904060019561
30
0
41
1
10
47.9222833906746
20
-2.91984966261811
30
0
41
1
10
47.9929347659916
20
-2.92861702701111
30
0
41
1
10
48.0992713156104
20
-2.93924014485245
30
0
41
1
10
48.1347329744147
20
-2.94235470663801
30
0
41
1
10
48.2055268642614
20
-2.94771698691076
30
0
41
1
10
48.24088840618
20
-2.94996761441715
30
0
41
1
10
48.4175991992421
20
-2.95908886100901
30
0
41
1
10
48.558657504282
20
-2.95958551945222
30
0
41
1
10
48.8403462032434
20
-2.94747980862553
30
0
41
1
10
48.9809436152462
20
-2.93488392801115
30
0
41
1
10
49.1912763795756
20
-2.90608567907853
30
0
41
1
10
49.2613034253228
20
-2.89483088010917
30
0
41
1
10
49.4012882973704
20
-2.86898210608402
30
0
41
1
10
49.5412218064412
20
-2.83979551607055
30
0
41
1
10
49.6815565947006
20
-2.80400011930922
30
0
41
1
10
49.8224040538873
20
-2.76500001192281
30
0
41
1
10
49.8931097563162
20
-2.74391188437244
30
0
41
1
10
49.9996425017068
20
-2.70992037163381
30
0
41
1
10
50.0352629899751
20
-2.69818392328972
30
0
41
1
10
50.1063829326464
20
-2.67401417531872
30
0
41
1
10
50.2129502235082
20
-2.63669314311878
30
0
41
1
10
50.3191735736142
20
-2.59621208830748
30
0
41
1
10
50.5310854188976
20
-2.51105119907777
30
0
41
1
10
50.6716107109725
20
-2.44866465720463
30
0
41
1
10
50.8813581244717
20
-2.34669146837513
30
0
41
1
10
50.9511349036073
20
-2.31132117854133
30
0
41
1
10
51.0907496179837
20
-2.23808109199067
30
0
41
1
10
51.1606103562454
20
-2.20023161543958
30
0
41
1
10
51.2470880005183
20
-2.15199314149331
30
0
41
1
10
51.2636056111436
20
-2.14271697270891
30
0
41
1
10
51.2801293737662
20
-2.13337553238497
30
0
0
SPLINE
5
13C
100
AcDbEntity
8
1
62
256
6
ByLayer
370
18
48
1
60
0
100
AcDbSpline
70
4
71
3
72
30
73
26
40
0
40
0
40
0
40
0
40
0.0750652056728929
40
0.0750652056728929
40
0.150130411345786
40
0.150130411345786
40
0.225195617018679
40
0.225195617018679
40
0.300260822691572
40
0.300260822691572
40
0.375326028364464
40
0.375326028364464
40
0.450391234037357
40
0.450391234037357
40
0.600521645383143
40
0.600521645383143
40
0.675586851056003
40
0.675586851056003
40
0.750652056728862
40
0.750652056728862
40
0.900782468074645
40
0.900782468074645
40
0.975847673747536
40
0.975847673747536
40
1
40
1
40
1
40
1
41
1
10
60.529754808191
20
3.18875263313672
30
0
41
1
10
60.5238661569227
20
3.17965590325042
30
0
41
1
10
60.5173740480033
20
3.17153513396318
30
0
41
1
10
60.5034105214694
20
3.15685950218335
30
0
41
1
10
60.4959365466992
20
3.1503091880883
30
0
41
1
10
60.4801216472451
20
3.13859596146878
30
0
41
1
10
60.4719283944351
20
3.13354672443489
30
0
41
1
10
60.4552265672412
20
3.12487942436874
30
0
41
1
10
60.4466924544316
20
3.12124574618787
30
0
41
1
10
60.4293157072648
20
3.1152085021489
30
0
41
1
10
60.4204248909181
20
3.11279759047642
30
0
41
1
10
60.4026227121239
20
3.10916327013876
30
0
41
1
10
60.3937293491997
20
3.1079352784447
30
0
41
1
10
60.367081688267
20
3.10581804164462
30
0
41
1
10
60.3493583052769
20
3.10647559375425
30
0
41
1
10
60.3228884975183
20
3.11028311622675
30
0
41
1
10
60.3140642469367
20
3.11203702749305
30
0
41
1
10
60.2967461063773
20
3.11642649758576
30
0
41
1
10
60.2882191320685
20
3.11906454194087
30
0
41
1
10
60.2630445501744
20
3.12828424016362
30
0
41
1
10
60.2467989208994
20
3.13615027561548
30
0
41
1
10
60.2233573801817
20
3.15077060367929
30
0
41
1
10
60.2157175217448
20
3.15611484093446
30
0
41
1
10
60.2060379127979
20
3.16371250559129
30
0
41
1
10
60.2037104616934
20
3.165606100753
30
0
41
1
10
60.201412617855
20
3.16754503047491
30
0
0
SPLINE
5
13D
100
AcDbEntity
8
1
62
256
6
ByLayer
370
18
48
1
60
0
100
AcDbSpline
70
4
71
3
72
14
73
10
40
0
40
0
40
0
40
0
40
0.25
40
0.25
40
0.5
40
0.5
40
0.75
40
0.75
40
1
40
1
40
1
40
1
41
1
10
61.0095012832649
20
3.89317664480373
30
0
41
1
10
60.9704284947647
20
3.83927791803799
30
0
41
1
10
60.9311510510196
20
3.78413105798092
30
0
41
1
10
60.8521051140688
20
3.67134172918392
30
0
41
1
10
60.8123083224834
20
3.61365660901979
30
0
41
1
10
60.7322785347948
20
3.4959811065234
30
0
41
1
10
60.6920531048147
20
3.43600296504414
30
0
41
1
10
60.6111795982598
20
3.3138850520071
30
0
41
1
10
60.5705668191142
20
3.25179862152498
30
0
41
1
10
60.529754808191
20
3.18875263313672
30
0
0
SPLINE
5
13E
100
AcDbEntity
8
1
62
256
6
ByLayer
370
18
48
1
60
0
100
AcDbSpline
70
4
71
3
72
8
73
4
40
0
40
0
40
0
40
0
40
1
40
1
40
1
40
1
41
1
10
61.009501283265
20
3.89317664480367
30
0
41
1
10
61.058617876283
20
3.87942387104781
30
0
41
1
10
61.1077502202478
20
3.86459403621461
30
0
41
1
10
61.1568908878942
20
3.8486749700466
30
0
0
SPLINE
5
13F
100
AcDbEntity
8
1
62
256
6
ByLayer
370
18
48
1
60
0
100
AcDbSpline
70
4
71
3
72
14
73
10
40
0
40
0
40
0
40
0
40
0.25
40
0.25
40
0.5
40
0.5
40
0.75
40
0.75
40
1
40
1
40
1
40
1
41
1
10
61.6551553781125
20
2.87792634880046
30
0
41
1
10
61.6126312878534
20
2.96091769494376
30
0
41
1
10
61.5704518164335
20
3.04344197642013
30
0
41
1
10
61.4865643560502
20
3.2075548293017
30
0
41
1
10
61.4448499254845
20
3.28915710504739
30
0
41
1
10
61.3617891660938
20
3.45134564820907
30
0
41
1
10
61.3205187436864
20
3.53178382529276
30
0
41
1
10
61.2383721331579
20
3.69134136990266
30
0
41
1
10
61.1975153099297
20
3.77042222932044
30
0
41
1
10
61.1568908878943
20
3.8486749700466
30
0
0
SPLINE
5
140
100
AcDbEntity
8
1
62
256
6
ByLayer
370
18
48
1
60
0
100
AcDbSpline
70
4
71
3
72
32
73
28
40
0
40
0
40
0
40
0
40
0.0624999999999816
40
0.0624999999999816
40
0.124999999999963
40
0.124999999999963
40
0.187499999999945
40
0.187499999999945
40
0.249999999999926
40
0.249999999999926
40
0.312499999999908
40
0.312499999999908
40
0.374999999999889
40
0.374999999999889
40
0.499999999999853
40
0.499999999999853
40
0.562499999999863
40
0.562499999999863
40
0.624999999999874
40
0.624999999999874
40
0.749999999999949
40
0.749999999999949
40
0.812499999999962
40
0.812499999999962
40
0.874999999999974
40
0.874999999999974
40
1
40
1
40
1
40
1
41
1
10
62.0339472339699
20
2.70934062232945
30
0
41
1
10
62.0280786801386
20
2.7030266467435
30
0
41
1
10
62.0216113745727
20
2.69779782108276
30
0
41
1
10
62.0077044661176
20
2.68907532691333
30
0
41
1
10
62.0002623412748
20
2.68558681542518
30
0
41
1
10
61.9845170891996
20
2.680146249535
30
0
41
1
10
61.976347591353
20
2.67824501845689
30
0
41
1
10
61.9597022119416
20
2.67585530916446
30
0
41
1
10
61.9511960306081
20
2.67535992854857
30
0
41
1
10
61.9338739313177
20
2.67560473125388
30
0
41
1
10
61.9250131981405
20
2.6763532078563
30
0
41
1
10
61.9072368948324
20
2.67896350631398
30
0
41
1
10
61.8983546531762
20
2.68081347281731
30
0
41
1
10
61.8717349072861
20
2.68781834145389
30
0
41
1
10
61.8540228507634
20
2.6944090849251
30
0
41
1
10
61.8275591152282
20
2.70694594558631
30
0
41
1
10
61.8187272163991
20
2.71159131053736
30
0
41
1
10
61.8013817323007
20
2.72163016974156
30
0
41
1
10
61.7928408703059
20
2.72703373803725
30
0
41
1
10
61.7676254961341
20
2.74438404009751
30
0
41
1
10
61.7513539247726
20
2.75745309733523
30
0
41
1
10
61.7278797258549
20
2.77953999444159
30
0
41
1
10
61.7202110118265
20
2.7873289090326
30
0
41
1
10
61.7055177888996
20
2.80349102835586
30
0
41
1
10
61.6984528959573
20
2.81189902867246
30
0
41
1
10
61.6781717896875
20
2.83818585399129
30
0
41
1
10
61.6658342470807
20
2.85708513372563
30
0
41
1
10
61.6551553781125
20
2.87792634880063
30
0
0
SPLINE
5
141
100
AcDbEntity
8
1
62
256
6
ByLayer
370
18
48
1
60
0
100
AcDbSpline
70
4
71
3
72
8
73
4
40
0
40
0
40
0
40
0
40
1
40
1
40
1
40
1
41
1
10
62.1800270875937
20
2.86003178695844
30
0
41
1
10
62.1316085309594
20
2.81231576815191
30
0
41
1
10
62.0829212239935
20
2.76203172583459
30
0
41
1
10
62.0339472339699
20
2.70934062232948
30
0
0
SPLINE
5
142
100
AcDbEntity
8
1
62
256
6
ByLayer
370
18
48
1
60
0
100
AcDbSpline
70
4
71
3
72
32
73
28
40
0
40
0
40
0
40
0
40
0.125
40
0.125
40
0.1875
40
0.1875
40
0.25
40
0.25
40
0.3125
40
0.3125
40
0.375
40
0.375
40
0.4375
40
0.4375
40
0.5
40
0.5
40
0.5625
40
0.5625
40
0.625
40
0.625
40
0.6875
40
0.6875
40
0.75
40
0.75
40
0.875
40
0.875
40
1
40
1
40
1
40
1
41
1
10
62.1800270875937
20
2.86003178695844
30
0
41
1
10
62.2969455543029
20
2.74549996551738
30
0
41
1
10
62.415973099546
20
2.629648559305
30
0
41
1
10
62.5982191262992
20
2.45508017562665
30
0
41
1
10
62.6595870160827
20
2.39676117702922
30
0
41
1
10
62.7836123592359
20
2.28007088624079
30
0
41
1
10
62.8462681794519
20
2.22168666040275
30
0
41
1
10
62.9727128904411
20
2.1050558448064
30
0
41
1
10
63.0364080021988
20
2.04693818315062
30
0
41
1
10
63.1652343256134
20
1.93163660417994
30
0
41
1
10
63.2303818950086
20
1.87446953457666
30
0
41
1
10
63.3620889587176
20
1.76127266344292
30
0
41
1
10
63.4286405760119
20
1.70523694253268
30
0
41
1
10
63.5630217636377
20
1.59439045115869
30
0
41
1
10
63.6308599943648
20
1.53958844576857
30
0
41
1
10
63.7675395218578
20
1.4311408418437
30
0
41
1
10
63.8363792636797
20
1.37749471585619
30
0
41
1
10
63.9746612689293
20
1.27110961367646
30
0
41
1
10
64.0441013931766
20
1.2183690738928
30
0
41
1
10
64.1831304833871
20
1.11341059091791
30
0
41
1
10
64.2527171041062
20
1.0611901953078
30
0
41
1
10
64.3916021887626
20
0.956814219951013
30
0
41
1
10
64.4608852689772
20
0.904641066718654
30
0
41
1
10
64.667868763296
20
0.747649709544334
30
0
41
1
10
64.8048060023267
20
0.642437787994481
30
0
41
1
10
65.0781586602826
20
0.432326879610912
30
0
41
1
10
65.2143958514125
20
0.327246593088688
30
0
41
1
10
65.3499999999999
20
0.221734612434233
30
0
0
SPLINE
5
143
100
AcDbEntity
8
1
62
256
6
ByLayer
370
18
48
1
60
0
100
AcDbSpline
70
4
71
3
72
8
73
4
40
0
40
0
40
0
40
0
40
1
40
1
40
1
40
1
41
1
10
65.3499999999999
20
0.221734612434204
30
0
41
1
10
65.3760216172976
20
0.1975608703668
30
0
41
1
10
65.4022152106226
20
0.173612258575076
30
0
41
1
10
65.4285724929036
20
0.149869649181909
30
0
0
SPLINE
5
144
100
AcDbEntity
8
1
62
256
6
ByLayer
370
18
48
1
60
0
100
AcDbSpline
70
4
71
3
72
8
73
4
40
0
40
0
40
0
40
0
40
1
40
1
40
1
40
1
41
1
10
65.55
20
0.0374285110371773
30
0
41
1
10
65.508289297496
20
0.0721930013460792
30
0
41
1
10
65.467904645468
20
0.109774588747143
30
0
41
1
10
65.4285724929036
20
0.149869649181909
30
0
0
SPLINE
5
145
100
AcDbEntity
8
1
62
256
6
ByLayer
370
18
48
1
60
0
100
AcDbSpline
70
4
71
3
72
53
73
49
40
0
40
0
40
0
40
0
40
0.0624999999999994
40
0.0624999999999994
40
0.0781249999999995
40
0.0781249999999995
40
0.0937499999999996
40
0.0937499999999996
40
0.109375
40
0.109375
40
0.125
40
0.1875
40
0.1875
40
0.249999999999999
40
0.249999999999999
40
0.281249999999999
40
0.281249999999999
40
0.312499999999999
40
0.374999999999999
40
0.499999999999998
40
0.499999999999998
40
0.624999999999998
40
0.624999999999998
40
0.656249999999998
40
0.656249999999998
40
0.687499999999998
40
0.749999999999998
40
0.749999999999998
40
0.781249999999998
40
0.781249999999998
40
0.812499999999998
40
0.812499999999998
40
0.843749999999998
40
0.843749999999998
40
0.859374999999998
40
0.859374999999998
40
0.874999999999998
40
0.874999999999998
40
0.906249999999998
40
0.906249999999998
40
0.921874999999999
40
0.921874999999999
40
0.937499999999999
40
0.937499999999999
40
0.968749999999999
40
0.984375
40
0.984375
40
1
40
1
40
1
40
1
41
1
10
65.55
20
0.0374285110371773
30
0
41
1
10
65.55
20
0.0350925646372673
30
0
41
1
10
65.55
20
0.0448722026165171
30
0
41
1
10
65.55
20
0.0722086193032965
30
0
41
1
10
65.55
20
0.0784533368024825
30
0
41
1
10
65.55
20
0.0923193159159439
30
0
41
1
10
65.55
20
0.099994455955482
30
0
41
1
10
65.55
20
0.116721719019893
30
0
41
1
10
65.55
20
0.125677606869346
30
0
41
1
10
65.55
20
0.143756128823753
30
0
41
1
10
65.55
20
0.189672109806423
30
0
41
1
10
65.55
20
0.239262302308902
30
0
41
1
10
65.55
20
0.323548028226895
30
0
41
1
10
65.55
20
0.3681338681792
30
0
41
1
10
65.55
20
0.438638629729496
30
0
41
1
10
65.55
20
0.462756000779876
30
0
41
1
10
65.5500000000001
20
0.512161902002219
30
0
41
1
10
65.55
20
0.587786808675475
30
0
41
1
10
65.55
20
0.774681047113745
30
0
41
1
10
65.55
20
0.952513101984749
30
0
41
1
10
65.55
20
1.2055054272023
30
0
41
1
10
65.55
20
1.33983265295115
30
0
41
1
10
65.55
20
1.51768426835605
30
0
41
1
10
65.55
20
1.55373852348791
30
0
41
1
10
65.55
20
1.62650906765401
30
0
41
1
10
65.5499999999999
20
1.73678215879798
30
0
41
1
10
65.55
20
1.85040296592911
30
0
41
1
10
65.5500000000001
20
1.96629750975308
30
0
41
1
10
65.55
20
2.00530881774455
30
0
41
1
10
65.55
20
2.08409898744495
30
0
41
1
10
65.55
20
2.12385490857514
30
0
41
1
10
65.55
20
2.20385921270946
30
0
41
1
10
65.55
20
2.24415259585243
30
0
41
1
10
65.55
20
2.30492033083868
30
0
41
1
10
65.55
20
2.32525720234355
30
0
41
1
10
65.55
20
2.36653334986349
30
0
41
1
10
65.55
20
2.38746767352691
30
0
41
1
10
65.55
20
2.45114162093469
30
0
41
1
10
65.55
20
2.49474989682946
30
0
41
1
10
65.55
20
2.56193202892979
30
0
41
1
10
65.55
20
2.58446691677327
30
0
41
1
10
65.55
20
2.62951505013072
30
0
41
1
10
65.55
20
2.65207533826927
30
0
41
1
10
65.55
20
2.71986364058071
30
0
41
1
10
65.5500000000001
20
2.78786559681458
30
0
41
1
10
65.55
20
2.85620434318338
30
0
41
1
10
65.55
20
2.90183847728892
30
0
41
1
10
65.55
20
2.92472445483247
30
0
41
1
10
65.55
20
2.94745729818001
30
0
0
SPLINE
5
146
100
AcDbEntity
8
1
62
256
6
ByLayer
370
18
48
1
60
0
100
AcDbSpline
70
4
71
3
72
11
73
7
40
0
40
0
40
0
40
0
40
0.250000000000021
40
0.250000000000021
40
0.500000000000043
40
1
40
1
40
1
40
1
41
1
10
65.3500853249674
20
3.14991358607529
30
0
41
1
10
65.3669643753755
20
3.13304291722275
30
0
41
1
10
65.3838475528543
20
3.11612057224789
30
0
41
1
10
65.4174515485184
20
3.08233383471961
30
0
41
1
10
65.4676480150389
20
3.03170495646441
30
0
41
1
10
65.517225574773
20
2.98116316586899
30
0
41
1
10
65.55
20
2.94745729818001
30
0
0
SPLINE
5
147
100
AcDbEntity
8
1
62
256
6
ByLayer
370
18
48
1
60
0
100
AcDbSpline
70
4
71
3
72
8
73
4
40
0
40
0
40
0
40
0
40
1
40
1
40
1
40
1
41
1
10
65.3500853249674
20
3.14991358607534
30
0
41
1
10
65.3500568832377
20
3.14992514677775
30
0
41
1
10
65.3500284415818
20
3.14993670753921
30
0
41
1
10
65.3499999999999
20
3.14994826835965
30
0
0
SPLINE
5
148
100
AcDbEntity
8
1
62
256
6
ByLayer
370
18
48
1
60
0
100
AcDbSpline
70
4
71
3
72
24
73
20
40
0
40
0
40
0
40
0
40
0.125
40
0.125
40
0.25
40
0.25
40
0.375
40
0.375
40
0.5
40
0.5
40
0.625
40
0.625
40
0.75
40
0.75
40
0.875
40
0.875
40
0.9375
40
0.9375
40
1
40
1
40
1
40
1
41
1
10
65.3499999999999
20
3.14994826835965
30
0
41
1
10
65.264496094646
20
3.12738684672988
30
0
41
1
10
65.1778669854733
20
3.10407154600733
30
0
41
1
10
65.0021535654815
20
3.05713561441075
30
0
41
1
10
64.9131173731054
20
3.03353662075446
30
0
41
1
10
64.7331113765791
20
2.98720148561367
30
0
41
1
10
64.6421592662333
20
2.9644790567898
30
0
41
1
10
64.4593020740611
20
2.92051455719903
30
0
41
1
10
64.3674341177165
20
2.89925377472778
30
0
41
1
10
64.1834421041367
20
2.85825900384165
30
0
41
1
10
64.0913040851394
20
2.83852237097872
30
0
41
1
10
63.9070649849107
20
2.80046082301214
30
0
41
1
10
63.8149633913652
20
2.78213027026982
30
0
41
1
10
63.6309174969484
20
2.74671959414079
30
0
41
1
10
63.538911534838
20
2.72970137209444
30
0
41
1
10
63.401305519346
20
2.70477901994568
30
0
41
1
10
63.3555188032417
20
2.6965568344923
30
0
41
1
10
63.2643123007699
20
2.68001294982949
30
0
41
1
10
63.218892243572
20
2.67168902894224
30
0
41
1
10
63.1736693024086
20
2.66324898109499
30
0
0
SPLINE
5
149
100
AcDbEntity
8
1
62
256
6
ByLayer
370
18
48
1
60
0
100
AcDbSpline
70
4
71
3
72
30
73
26
40
0
40
0
40
0
40
0
40
0.0625000000000014
40
0.0625000000000014
40
0.125000000000003
40
0.125000000000003
40
0.250000000000057
40
0.250000000000057
40
0.312500000000084
40
0.312500000000084
40
0.375000000000112
40
0.375000000000112
40
0.500000000000109
40
0.500000000000109
40
0.625000000000106
40
0.625000000000106
40
0.687500000000105
40
0.687500000000105
40
0.750000000000104
40
0.750000000000104
40
0.875000000000052
40
0.875000000000052
40
0.937500000000026
40
0.937500000000026
40
1
40
1
40
1
40
1
41
1
10
62.8036149025386
20
2.47661650066396
30
0
41
1
10
62.8093638422091
20
2.47092115439494
30
0
41
1
10
62.8157123141797
20
2.46631998191415
30
0
41
1
10
62.8293963597015
20
2.45888993676559
30
0
41
1
10
62.8367342282171
20
2.45606583755674
30
0
41
1
10
62.8600723454617
20
2.4499704692096
30
0
41
1
10
62.8765336687032
20
2.44921538986946
30
0
41
1
10
62.9021099113218
20
2.45171239328144
30
0
41
1
10
62.9108277602012
20
2.45317897066701
30
0
41
1
10
62.9281646829155
20
2.45716044629307
30
0
41
1
10
62.9368220570679
20
2.45967461765562
30
0
41
1
10
62.9627538989124
20
2.46860604003481
30
0
41
1
10
62.9799895170408
20
2.47639453281229
30
0
41
1
10
63.0142978108336
20
2.49528602620515
30
0
41
1
10
63.0310454902791
20
2.50622151950861
30
0
41
1
10
63.0553807384947
20
2.52460429220247
30
0
41
1
10
63.0633697962694
20
2.53107045353809
30
0
41
1
10
63.0790904822508
20
2.54469139200162
30
0
41
1
10
63.086845675506
20
2.55186975106611
30
0
41
1
10
63.1095256892209
20
2.57432244297217
30
0
41
1
10
63.1237637453668
20
2.59037930608935
30
0
41
1
10
63.143684156424
20
2.61625767926338
30
0
41
1
10
63.1500823819337
20
2.62518570688013
30
0
41
1
10
63.162334735655
20
2.64372223505825
30
0
41
1
10
63.1682039895249
20
2.65336183039096
30
0
41
1
10
63.1736693024087
20
2.66324898109488
30
0
0
SPLINE
5
14A
100
AcDbEntity
8
1
62
256
6
ByLayer
370
18
48
1
60
0
100
AcDbSpline
70
4
71
3
72
8
73
4
40
0
40
0
40
0
40
0
40
1
40
1
40
1
40
1
41
1
10
62.7081323907874
20
2.56812702242124
30
0
41
1
10
62.7398531582038
20
2.53877313569041
30
0
41
1
10
62.7716768571304
20
2.50825680969135
30
0
41
1
10
62.8036149025386
20
2.47661650066396
30
0
0
SPLINE
5
14B
100
AcDbEntity
8
1
62
256
6
ByLayer
370
18
48
1
60
0
100
AcDbSpline
70
4
71
3
72
8
73
4
40
0
40
0
40
0
40
0
40
1
40
1
40
1
40
1
41
1
10
62.7081323907875
20
2.56812702242126
30
0
41
1
10
62.6490867148392
20
2.55460417055548
30
0
41
1
10
62.5904523918854
20
2.54045667558
30
0
41
1
10
62.5322183670435
20
2.52555875036998
30
0
0
SPLINE
5
14C
100
AcDbEntity
8
1
62
256
6
ByLayer
370
18
48
1
60
0
100
AcDbSpline
70
4
71
3
72
14
73
10
40
0
40
0
40
0
40
0
40
0.25
40
0.25
40
0.5
40
0.5
40
0.75
40
0.75
40
1
40
1
40
1
40
1
41
1
10
61.3238943234075
20
2.03889559707864
30
0
41
1
10
61.3627696473945
20
1.98058434615771
30
0
41
1
10
61.4018483672519
20
1.92360236960442
30
0
41
1
10
61.4805009089019
20
1.81240829387667
30
0
41
1
10
61.5200835009644
20
1.75818648202255
30
0
41
1
10
61.5995880152081
20
1.65294919406344
30
0
41
1
10
61.6395670170223
20
1.60185934697603
30
0
41
1
10
61.7198477320127
20
1.50312541172488
30
0
41
1
10
61.7601477462933
20
1.45550304631996
30
0
41
1
10
61.8006264226611
20
1.40952445706782
30
0
0
SPLINE
5
14D
100
AcDbEntity
8
1
62
256
6
ByLayer
370
18
48
1
60
0
100
AcDbSpline
70
4
71
3
72
8
73
4
40
0
40
0
40
0
40
0
40
1
40
1
40
1
40
1
41
1
10
61.3238943234112
20
2.03889559707653
30
0
41
1
10
61.2745544020335
20
2.08620928291944
30
0
41
1
10
61.2252821261228
20
2.13289100768924
30
0
41
1
10
61.1760557067362
20
2.17892835631702
30
0
0
SPLINE
5
14E
100
AcDbEntity
8
1
62
256
6
ByLayer
370
18
48
1
60
0
100
AcDbSpline
70
4
71
3
72
14
73
10
40
0
40
0
40
0
40
0
40
0.25
40
0.25
40
0.5
40
0.5
40
0.75
40
0.75
40
1
40
1
40
1
40
1
41
1
10
60.6750056872136
20
2.23212178166
30
0
41
1
10
60.7176295503944
20
2.23801385067722
30
0
41
1
10
60.759958659858
20
2.24113837835023
30
0
41
1
10
60.844243762926
20
2.24233289179949
30
0
41
1
10
60.8862059049995
20
2.24037375344878
30
0
41
1
10
60.9697706254327
20
2.23138899585251
30
0
41
1
10
61.0113129924186
20
2.22436937363548
30
0
41
1
10
61.094016995813
20
2.20535040067222
30
0
41
1
10
61.1351511107003
20
2.19335614755977
30
0
41
1
10
61.1760557067363
20
2.17892835631699
30
0
0
SPLINE
5
14F
100
AcDbEntity
8
1
62
256
6
ByLayer
370
18
48
1
60
0
100
AcDbSpline
70
4
71
3
72
29
73
25
40
0
40
0
40
0
40
0
40
0.0624999999999642
40
0.0624999999999642
40
0.124999999999929
40
0.124999999999929
40
0.249999999999907
40
0.249999999999907
40
0.312499999999896
40
0.312499999999896
40
0.374999999999886
40
0.437499999999875
40
0.437499999999875
40
0.499999999999865
40
0.499999999999865
40
0.624999999999899
40
0.624999999999899
40
0.687499999999916
40
0.687499999999916
40
0.749999999999934
40
0.749999999999934
40
0.874999999999967
40
0.874999999999967
40
1
40
1
40
1
40
1
41
1
10
60.2961096947217
20
2.46457650750799
30
0
41
1
10
60.3020614413802
20
2.45524519654032
30
0
41
1
10
60.3086553300342
20
2.44610571184359
30
0
41
1
10
60.3228939632288
20
2.42814980546052
30
0
41
1
10
60.3305688915788
20
2.41930472623011
30
0
41
1
10
60.3548279069974
20
2.39338758813415
30
0
41
1
10
60.3719422225564
20
2.37761187306384
30
0
41
1
10
60.3985550631454
20
2.35549813515289
30
0
41
1
10
60.4075953027255
20
2.34839176975473
30
0
41
1
10
60.4255374536786
20
2.33495983217776
30
0
41
1
10
60.4434532951678
20
2.32221362149713
30
0
41
1
10
60.4613034009014
20
2.31066619341826
30
0
41
1
10
60.4791129613835
20
2.29966773527127
30
0
41
1
10
60.4880244246832
20
2.29442831420698
30
0
41
1
10
60.5144941383031
20
2.27960130534115
30
0
41
1
10
60.5316207705917
20
2.27098036897459
30
0
41
1
10
60.5565208429332
20
2.25975294447059
30
0
41
1
10
60.564688044543
20
2.25629768478513
30
0
41
1
10
60.5807425818812
20
2.249969674863
30
0
41
1
10
60.5886414462887
20
2.24709482651724
30
0
41
1
10
60.6115355331028
20
2.23950923652328
30
0
41
1
10
60.6258649201027
20
2.23577085181509
30
0
41
1
10
60.6523694077425
20
2.2313558828929
30
0
41
1
10
60.6646149821612
20
2.2306854324701
30
0
41
1
10
60.6750056872145
20
2.23212178165912
30
0
0
SPLINE
5
150
100
AcDbEntity
8
1
62
256
6
ByLayer
370
18
48
1
60
0
100
AcDbSpline
70
4
71
3
72
12
73
8
40
0
40
0
40
0
40
0
40
0.5
40
0.5
40
0.75
40
0.75
40
1
40
1
40
1
40
1
41
1
10
59.8200100125099
20
3.26653798927038
30
0
41
1
10
59.8977308659104
20
3.12725154195988
30
0
41
1
10
59.9763881497598
20
2.98993747517264
30
0
41
1
10
60.0955208013406
20
2.78881873931238
30
0
41
1
10
60.1353754831459
20
2.72266786167165
30
0
41
1
10
60.2154534503477
20
2.59223113118341
30
0
41
1
10
60.2556808125837
20
2.52796201313356
30
0
41
1
10
60.2961096947217
20
2.46457650750804
30
0
0
SPLINE
5
151
100
AcDbEntity
8
1
62
256
6
ByLayer
370
18
48
1
60
0
100
AcDbSpline
70
4
71
3
72
8
73
4
40
0
40
0
40
0
40
0
40
1
40
1
40
1
40
1
41
1
10
59.8200100125098
20
3.26653798927038
30
0
41
1
10
59.7703298766547
20
3.29882186054468
30
0
41
1
10
59.7207389769992
20
3.33012300562834
30
0
41
1
10
59.6712132008983
20
3.36043864758949
30
0
0
SPLINE
5
152
100
AcDbEntity
8
1
62
256
6
ByLayer
370
18
48
1
60
0
100
AcDbSpline
70
4
71
3
72
14
73
10
40
0
40
0
40
0
40
0
40
0.25
40
0.25
40
0.5
40
0.5
40
0.75
40
0.75
40
1
40
1
40
1
40
1
41
1
10
59.1703048521401
20
2.98476386151208
30
0
41
1
10
59.2129497377635
20
3.02540100871792
30
0
41
1
10
59.2552878846938
20
3.06359082252115
30
0
41
1
10
59.3395740275949
20
3.1354591395108
30
0
41
1
10
59.3815271686323
20
3.1691214373887
30
0
41
1
10
59.4650592849358
20
3.23182860101625
30
0
41
1
10
59.5065782848951
20
3.26082822698132
30
0
41
1
10
59.5892301396914
20
3.31416438904901
30
0
41
1
10
59.6303354433669
20
3.33848172850594
30
0
41
1
10
59.6712132008983
20
3.36043864758949
30
0
0
SPLINE
5
153
100
AcDbEntity
8
1
62
256
6
ByLayer
370
18
48
1
60
0
100
AcDbSpline
70
4
71
3
72
29
73
25
40
0
40
0
40
0
40
0
40
0.0625000000000258
40
0.0625000000000258
40
0.125000000000052
40
0.125000000000052
40
0.250000000000102
40
0.250000000000102
40
0.312500000000099
40
0.312500000000099
40
0.375000000000096
40
0.437500000000093
40
0.437500000000093
40
0.500000000000091
40
0.500000000000091
40
0.625000000000085
40
0.625000000000085
40
0.687500000000055
40
0.687500000000055
40
0.750000000000025
40
0.750000000000025
40
0.875000000000013
40
0.875000000000013
40
1
40
1
40
1
40
1
41
1
10
58.7914391822105
20
3.09787803509218
30
0
41
1
10
58.7973893311254
20
3.08756456304931
30
0
41
1
10
58.8039802135381
20
3.0778949440253
30
0
41
1
10
58.8182101295181
20
3.05960330427109
30
0
41
1
10
58.8258783552692
20
3.05095762720387
30
0
41
1
10
58.8501205655214
20
3.02659189783648
30
0
41
1
10
58.8672214109613
20
3.01304466328699
30
0
41
1
10
58.8938207700449
20
2.99559922237981
30
0
41
1
10
58.9028597276674
20
2.99027960907031
30
0
41
1
10
58.9208010039012
20
2.9807474076824
30
0
41
1
10
58.9387169322488
20
2.97224556554642
30
0
41
1
10
58.9565678557156
20
2.96556187756136
30
0
41
1
10
58.9743783191959
20
2.9597194889117
30
0
41
1
10
58.9832894067163
20
2.9572133564759
30
0
41
1
10
59.0097660184326
20
2.95095600303563
30
0
41
1
10
59.0268955983862
20
2.9484805044705
30
0
41
1
10
59.0517995643027
20
2.9470969283266
30
0
41
1
10
59.0599679919411
20
2.94702828343114
30
0
41
1
10
59.0760253456271
20
2.94769255599215
30
0
41
1
10
59.0839269068654
20
2.94843043907054
30
0
41
1
10
59.1068298961137
20
2.95186106106044
30
0
41
1
10
59.1211642020951
20
2.95574781630324
30
0
41
1
10
59.1476715978506
20
2.96721742985045
30
0
41
1
10
59.1599162917925
20
2.97486439877153
30
0
41
1
10
59.1703048521429
20
2.98476386150995
30
0
0
SPLINE
5
154
100
AcDbEntity
8
1
62
256
6
ByLayer
370
18
48
1
60
0
100
AcDbSpline
70
4
71
3
72
12
73
8
40
0
40
0
40
0
40
0
40
0.499999999999999
40
0.499999999999999
40
0.75
40
0.75
40
1
40
1
40
1
40
1
41
1
10
58.3148099975139
20
3.93798641771852
30
0
41
1
10
58.3925722964941
20
3.79945567590971
30
0
41
1
10
58.4713026374311
20
3.65946719249004
30
0
41
1
10
58.5905729550764
20
3.44888777535419
30
0
41
1
10
58.6304784446939
20
3.37867797498535
30
0
41
1
10
58.7106638589142
20
3.23826453611571
30
0
41
1
10
58.7509483151489
20
3.16806139208089
30
0
41
1
10
58.7914391822104
20
3.09787803509238
30
0
0
SPLINE
5
155
100
AcDbEntity
8
1
62
256
6
ByLayer
370
18
48
1
60
0
100
AcDbSpline
70
4
71
3
72
8
73
4
40
0
40
0
40
0
40
0
40
1
40
1
40
1
40
1
41
1
10
58.3148099975138
20
3.93798641771843
30
0
41
1
10
58.2654314534257
20
3.9493130197254
30
0
41
1
10
58.2161639907545
20
3.95951428061406
30
0
41
1
10
58.1669836669649
20
3.96859971594239
30
0
0
SPLINE
5
156
100
AcDbEntity
8
1
62
256
6
ByLayer
370
18
48
1
60
0
100
AcDbSpline
70
4
71
3
72
14
73
10
40
0
40
0
40
0
40
0
40
0.25
40
0.25
40
0.5
40
0.5
40
0.75
40
0.75
40
1
40
1
40
1
40
1
41
1
10
57.6659846040115
20
3.23015692931583
30
0
41
1
10
57.7086376175342
20
3.29843499807015
30
0
41
1
10
57.7509865369408
20
3.36498496971484
30
0
41
1
10
57.8352947223861
20
3.49487180271703
30
0
41
1
10
57.8772588480727
20
3.55821206306803
30
0
41
1
10
57.960811740737
20
3.68154285107121
30
0
41
1
10
58.0023405696776
20
3.74144524004203
30
0
41
1
10
58.0850042947276
20
3.85774580911675
30
0
41
1
10
58.126111849814
20
3.91410435052316
30
0
41
1
10
58.1669836669649
20
3.96859971594239
30
0
0
SPLINE
5
157
100
AcDbEntity
8
1
62
256
6
ByLayer
370
18
48
1
60
0
100
AcDbSpline
70
4
71
3
72
29
73
25
40
0
40
0
40
0
40
0
40
0.0625000000000008
40
0.0625000000000008
40
0.125000000000002
40
0.125000000000002
40
0.250000000000002
40
0.250000000000002
40
0.312500000000002
40
0.312500000000002
40
0.375000000000002
40
0.437500000000003
40
0.437500000000003
40
0.500000000000003
40
0.500000000000003
40
0.625000000000003
40
0.625000000000003
40
0.687500000000002
40
0.687500000000002
40
0.750000000000002
40
0.750000000000002
40
0.875000000000001
40
0.875000000000001
40
1
40
1
40
1
40
1
41
1
10
57.2870734992435
20
3.20519261309948
30
0
41
1
10
57.293021302665
20
3.19566109122656
30
0
41
1
10
57.2996087081718
20
3.18711584361873
30
0
41
1
10
57.3138293702257
20
3.17161781295846
30
0
41
1
10
57.3214909703397
20
3.16464994525529
30
0
41
1
10
57.3457159708958
20
3.1460012782411
30
0
41
1
10
57.3628024364991
20
3.13699633360747
30
0
41
1
10
57.3893867279663
20
3.12717949010408
30
0
41
1
10
57.3984241547854
20
3.12454726132413
30
0
41
1
10
57.4163647565293
20
3.12052473686691
30
0
41
1
10
57.434281251632
20
3.11769855558165
30
0
41
1
10
57.4521329945729
20
3.1169954062612
30
0
41
1
10
57.4699438914356
20
3.11728023376838
30
0
41
1
10
57.4788531924155
20
3.11792028109736
30
0
41
1
10
57.5053392696742
20
3.12125939582214
30
0
41
1
10
57.5224735016878
20
3.12532036975506
30
0
41
1
10
57.5473852981405
20
3.13396251754779
30
0
41
1
10
57.5555565076839
20
3.13727294028882
30
0
41
1
10
57.5716206256332
20
3.14477524218026
30
0
41
1
10
57.5795292815857
20
3.14898021233469
30
0
41
1
10
57.6024571390009
20
3.16278209034223
30
0
41
1
10
57.6168056810079
20
3.1735868315634
30
0
41
1
10
57.6433346634921
20
3.19889780542556
30
0
41
1
10
57.6555891475412
20
3.21351609592597
30
0
41
1
10
57.6659846040115
20
3.23015692931583
30
0
0
SPLINE
5
158
100
AcDbEntity
8
1
62
256
6
ByLayer
370
18
48
1
60
0
100
AcDbSpline
70
4
71
3
72
12
73
8
40
0
40
0
40
0
40
0
40
0.499999999999989
40
0.499999999999989
40
0.749999999999995
40
0.749999999999995
40
1
40
1
40
1
40
1
41
1
10
56.8195794983061
20
3.92505806214078
30
0
41
1
10
56.8959147883598
20
3.81312512246171
30
0
41
1
10
56.9731217345791
20
3.69674325533154
30
0
41
1
10
57.0901263910904
20
3.51635046803816
30
0
41
1
10
57.129264395789
20
3.45534666689298
30
0
41
1
10
57.2078914228576
20
3.33157743916212
30
0
41
1
10
57.2473846758084
20
3.26879506628569
30
0
41
1
10
57.2870734992435
20
3.20519261309946
30
0
0
SPLINE
5
159
100
AcDbEntity
8
1
62
256
6
ByLayer
370
18
48
1
60
0
100
AcDbSpline
70
4
71
3
72
8
73
4
40
0
40
0
40
0
40
0
40
1
40
1
40
1
40
1
41
1
10
56.6378196321096
20
3.85277872120233
30
0
41
1
10
56.6985511713602
20
3.87855169694021
30
0
41
1
10
56.759123652
20
3.90264818326599
30
0
41
1
10
56.8195794983037
20
3.9250580621555
30
0
0
SPLINE
5
15A
100
AcDbEntity
8
1
62
256
6
ByLayer
370
18
48
1
60
0
100
AcDbSpline
70
4
71
3
72
14
73
10
40
0
40
0
40
0
40
0
40
0.25
40
0.25
40
0.5
40
0.5
40
0.75
40
0.75
40
1
40
1
40
1
40
1
41
1
10
56.1615070945053
20
2.92549840243908
30
0
41
1
10
56.2020153159277
20
3.00551104104264
30
0
41
1
10
56.2422584253481
20
3.08486826160754
30
0
41
1
10
56.3223886075409
20
3.24232582573998
30
0
41
1
10
56.3622669165401
20
3.32042105716283
30
0
41
1
10
56.4417211756647
20
3.47532343937289
30
0
41
1
10
56.4812623983722
20
3.55206293970787
30
0
41
1
10
56.5598471514044
20
3.7037081215426
30
0
41
1
10
56.598921939629
20
3.77867449990433
30
0
41
1
10
56.6378196321096
20
3.85277872120233
30
0
0
SPLINE
5
15B
100
AcDbEntity
8
1
62
256
6
ByLayer
370
18
48
1
60
0
100
AcDbSpline
70
4
71
3
72
29
73
25
40
0
40
0
40
0
40
0
40
0.0624999999999667
40
0.0624999999999667
40
0.124999999999933
40
0.124999999999933
40
0.249999999999917
40
0.249999999999917
40
0.312499999999936
40
0.312499999999936
40
0.374999999999956
40
0.437499999999975
40
0.437499999999975
40
0.499999999999995
40
0.499999999999995
40
0.625000000000034
40
0.625000000000034
40
0.687500000000028
40
0.687500000000028
40
0.750000000000021
40
0.750000000000021
40
0.875000000000011
40
0.875000000000011
40
1
40
1
40
1
40
1
41
1
10
55.7826194064726
20
2.76625114273321
30
0
41
1
10
55.788569141022
20
2.75912852192638
30
0
41
1
10
55.795159198946
20
2.75316919059634
30
0
41
1
10
55.8093851556838
20
2.74312435388052
30
0
41
1
10
55.8170508614591
20
2.73903294231181
30
0
41
1
10
55.8412788107989
20
2.72932954578954
30
0
41
1
10
55.8583637451099
20
2.72644423207345
30
0
41
1
10
55.8849429914696
20
2.72599229624521
30
0
41
1
10
55.8939771824428
20
2.72651745447351
30
0
41
1
10
55.9119115364567
20
2.72872992003707
30
0
41
1
10
55.9298221311437
20
2.73209880722257
30
0
41
1
10
55.9476664431249
20
2.7375281687043
30
0
41
1
10
55.9654689959621
20
2.74392233495104
30
0
41
1
10
55.9743736662457
20
2.74761336578902
30
0
41
1
10
56.0008441702139
20
2.76002044228997
30
0
41
1
10
56.0179686793454
20
2.7699468432705
30
0
41
1
10
56.0428711224771
20
2.78716435951563
30
0
41
1
10
56.0510401213824
20
2.79329560983569
30
0
41
1
10
56.0671026678166
20
2.80636571352008
30
0
41
1
10
56.0750128028087
20
2.81332383333771
30
0
41
1
10
56.0979473246546
20
2.83514770344982
30
0
41
1
10
56.1123023407635
20
2.85102648763171
30
0
41
1
10
56.1388442555605
20
2.88585905261078
30
0
41
1
10
56.1511057873775
20
2.90495353527393
30
0
41
1
10
56.1615070945054
20
2.92549840243922
30
0
0
SPLINE
5
15C
100
AcDbEntity
8
1
62
256
6
ByLayer
370
18
48
1
60
0
100
AcDbSpline
70
4
71
3
72
12
73
8
40
0
40
0
40
0
40
0
40
0.499999999999986
40
0.499999999999986
40
0.749999999999993
40
0.749999999999993
40
1
40
1
40
1
40
1
41
1
10
55.4327022795133
20
3.14797476003739
30
0
41
1
10
55.4902064156563
20
3.09166413625201
30
0
41
1
10
55.5482058505639
20
3.03158314993809
30
0
41
1
10
55.6356702005782
20
2.93614046319067
30
0
41
1
10
55.6649132879266
20
2.90342859435853
30
0
41
1
10
55.7236074065346
20
2.83618021886042
30
0
41
1
10
55.7530592260961
20
2.8016385964174
30
0
41
1
10
55.7826194064725
20
2.76625114273321
30
0
0
SPLINE
5
15D
100
AcDbEntity
8
1
62
256
6
ByLayer
370
18
48
1
60
0
100
AcDbSpline
70
4
71
3
72
8
73
4
40
0
40
0
40
0
40
0
40
1
40
1
40
1
40
1
41
1
10
54.9871964077634
20
2.80340982042327
30
0
41
1
10
55.1366100035043
20
2.92526154178279
30
0
41
1
10
55.2848967765504
20
3.04024645060841
30
0
41
1
10
55.4327022795133
20
3.1479747600373
30
0
0
SPLINE
5
15E
100
AcDbEntity
8
1
62
256
6
ByLayer
370
18
48
1
60
0
100
AcDbSpline
70
4
71
3
72
12
73
8
40
0
40
0
40
0
40
0
40
0.0876439218410427
40
0.0876439218410427
40
0.543821960920521
40
0.543821960920521
40
1
40
1
40
1
40
1
41
1
10
54.8074012891136
20
2.42778049271129
30
0
41
1
10
54.8126923275156
20
2.43870722828234
30
0
41
1
10
54.8179805555155
20
2.44963994177655
30
0
41
1
10
54.8507771064313
20
2.5175127158472
30
0
41
1
10
54.8782086092627
20
2.57460448763973
30
0
41
1
10
54.9328461073806
20
2.68889312164867
30
0
41
1
10
54.9600643635616
20
2.74611581423156
30
0
41
1
10
54.9871964077635
20
2.80340982042321
30
0
0
SPLINE
5
15F
100
AcDbEntity
8
1
62
256
6
ByLayer
370
18
48
1
60
0
100
AcDbSpline
70
4
71
3
72
41
73
37
40
0
40
0
40
0
40
0
40
0.0231912636045273
40
0.0231912636045273
40
0.0389462432238085
40
0.0389462432238085
40
0.0547012228430897
40
0.117721141320214
40
0.117721141320214
40
0.180741059797338
40
0.180741059797338
40
0.243760978274462
40
0.243760978274462
40
0.306780896751586
40
0.306780896751586
40
0.36980081522871
40
0.36980081522871
40
0.401310774467272
40
0.401310774467272
40
0.432820733705834
40
0.432820733705834
40
0.495840652182963
40
0.495840652182963
40
0.558860570660091
40
0.558860570660091
40
0.62188048913722
40
0.62188048913722
40
0.684900407614348
40
0.684900407614348
40
0.716410366852912
40
0.716410366852912
40
0.747920326091477
40
0.747920326091477
40
0.873960163045738
40
0.873960163045738
40
1
40
1
40
1
40
1
41
1
10
46.4616586491985
20
-2.95769987490229
30
0
41
1
10
46.4187022226379
20
-2.95768833670414
30
0
41
1
10
46.3756796884004
20
-2.95705434616403
30
0
41
1
10
46.3033052809947
20
-2.95493405766439
30
0
41
1
10
46.2739698620935
20
-2.95378476624512
30
0
41
1
10
46.2154004748094
20
-2.95091112423395
30
0
41
1
10
46.0691697727878
20
-2.94228901539108
30
0
41
1
10
45.9238314083652
20
-2.92653911724497
30
0
41
1
10
45.6920981209509
20
-2.89240897974989
30
0
41
1
10
45.5766760530573
20
-2.87086020827408
30
0
41
1
10
45.3459091040031
20
-2.81908253588975
30
0
41
1
10
45.2305129498549
20
-2.78887536244869
30
0
41
1
10
44.9991183761554
20
-2.72014099328001
30
0
41
1
10
44.8832365943209
20
-2.68156884606637
30
0
41
1
10
44.650929476114
20
-2.59600239692301
30
0
41
1
10
44.5345371638802
20
-2.54898579576948
30
0
41
1
10
44.3592846016849
20
-2.47209250186586
30
0
41
1
10
44.3007002918412
20
-2.44537815655045
30
0
41
1
10
44.1840043758179
20
-2.39024708328398
30
0
41
1
10
44.1257988174503
20
-2.36179105597091
30
0
41
1
10
43.9514743419526
20
-2.27388312561544
30
0
41
1
10
43.8356331067067
20
-2.21190214013362
30
0
41
1
10
43.6040669936075
20
-2.08185448537068
30
0
41
1
10
43.4883780627477
20
-2.01376341460789
30
0
41
1
10
43.2570649615657
20
-1.87160843754808
30
0
41
1
10
43.1414742220803
20
-1.7975105197477
30
0
41
1
10
42.910080496634
20
-1.64353464214142
30
0
41
1
10
42.7942520736074
20
-1.56367940702236
30
0
41
1
10
42.6198692660087
20
-1.43996995269825
30
0
41
1
10
42.5616346126002
20
-1.39807950382894
30
0
41
1
10
42.4448743633369
20
-1.31305760760736
30
0
41
1
10
42.3862591238981
20
-1.2698585470574
30
0
41
1
10
42.094069116448
20
-1.05228806457234
30
0
41
1
10
41.8620672383261
20
-0.872759154884818
30
0
41
1
10
41.3995715631613
20
-0.505364873826636
30
0
41
1
10
41.169216737815
20
-0.31731286820056
30
0
41
1
10
40.9375020460042
20
-0.12761933140601
30
0
0
SPLINE
5
160
100
AcDbEntity
8
1
62
256
6
ByLayer
370
18
48
1
60
0
100
AcDbSpline
70
4
71
3
72
39
73
35
40
0
40
0
40
0
40
0
40
0.0411624253170896
40
0.0411624253170896
40
0.0823248506341792
40
0.0823248506341792
40
0.164649701268358
40
0.164649701268358
40
0.246974551902538
40
0.246974551902538
40
0.329299402536717
40
0.329299402536717
40
0.34988061519526
40
0.34988061519526
40
0.370461827853804
40
0.411624253170891
40
0.411624253170891
40
0.493949103805065
40
0.493949103805065
40
0.576273954439239
40
0.576273954439239
40
0.658598805073414
40
0.658598805073414
40
0.699761230390503
40
0.699761230390503
40
0.740923655707593
40
0.740923655707593
40
0.823248506341772
40
0.823248506341772
40
0.905573356975951
40
0.905573356975951
40
0.98789820761013
40
0.98789820761013
40
1
40
1
40
1
40
1
41
1
10
38.5589880675641
20
-2.35548397932743
30
0
41
1
10
38.6296523331608
20
-2.39045848159839
30
0
41
1
10
38.7000798708795
20
-2.42403664142088
30
0
41
1
10
38.8407044801024
20
-2.48825402040657
30
0
41
1
10
38.9108814545614
20
-2.51890854291727
30
0
41
1
10
39.121205137212
20
-2.60642060917883
30
0
41
1
10
39.2611702937146
20
-2.65880506096207
30
0
41
1
10
39.5418141842446
20
-2.75118985640074
30
0
41
1
10
39.6824533276743
20
-2.79123249072634
30
0
41
1
10
39.964536193783
20
-2.85891700418785
30
0
41
1
10
40.1059751419683
20
-2.88657572515044
30
0
41
1
10
40.2830338408712
20
-2.9131225933408
30
0
41
1
10
40.3184927549495
20
-2.91803315106148
30
0
41
1
10
40.3892341560463
20
-2.92699414112846
30
0
41
1
10
40.4951133182816
20
-2.93915450147173
30
0
41
1
10
40.6005252053066
20
-2.94743780841102
30
0
41
1
10
40.811418781458
20
-2.95887035301288
30
0
41
1
10
40.9520695662706
20
-2.95969483205982
30
0
41
1
10
41.2333077812738
20
-2.94827159818695
30
0
41
1
10
41.3737935225774
20
-2.93600709685836
30
0
41
1
10
41.6546979701769
20
-2.89829711389638
30
0
41
1
10
41.79509824448
20
-2.87282860470646
30
0
41
1
10
42.0064113554945
20
-2.82463038957894
30
0
41
1
10
42.0769746545582
20
-2.80690019255488
30
0
41
1
10
42.2185599725998
20
-2.76814303734872
30
0
41
1
10
42.2896881009265
20
-2.74708600050968
30
0
41
1
10
42.5023315440946
20
-2.67961545633531
30
0
41
1
10
42.6435866087859
20
-2.62878790702999
30
0
41
1
10
42.9254329211249
20
-2.51601820498885
30
0
41
1
10
43.0660233240418
20
-2.45408424056276
30
0
41
1
10
43.3463565615671
20
-2.31896004267117
30
0
41
1
10
43.4859466281525
20
-2.24561761733028
30
0
41
1
10
43.6465023670251
20
-2.15558340220269
30
0
41
1
10
43.6670887036688
20
-2.14393424277813
30
0
41
1
10
43.6876889001767
20
-2.1321787299108
30
0
0
SPLINE
5
161
100
AcDbEntity
8
1
62
256
6
ByLayer
370
18
48
1
60
0
100
AcDbSpline
70
4
71
3
72
12
73
8
40
0
40
0
40
0
40
0
40
0.15022444647968
40
0.15022444647968
40
0.57511222323984
40
0.57511222323984
40
1
40
1
40
1
40
1
41
1
10
52.3078402746118
20
2.98220748736057
30
0
41
1
10
52.3241484052535
20
2.98571008888106
30
0
41
1
10
52.3404051341551
20
2.9895024732719
30
0
41
1
10
52.4024395582038
20
3.00514877412363
30
0
41
1
10
52.4478501826026
20
3.01905609853003
30
0
41
1
10
52.5379080688799
20
3.05226516256369
30
0
41
1
10
52.5825611876287
20
3.07155280991367
30
0
41
1
10
52.6269279512308
20
3.0942966565938
30
0
0
SPLINE
5
162
100
AcDbEntity
8
1
62
256
6
ByLayer
370
18
48
1
60
0
100
AcDbSpline
70
4
71
3
72
12
73
8
40
0
40
0
40
0
40
0
40
0.25
40
0.25
40
0.5
40
0.5
40
1
40
1
40
1
40
1
41
1
10
52.6269279512308
20
3.09429665659374
30
0
41
1
10
52.6628986264103
20
3.1127363951467
30
0
41
1
10
52.6989491485594
20
3.13086419165026
30
0
41
1
10
52.7706772437191
20
3.16609963946897
30
0
41
1
10
52.8063493689768
20
3.18319827398278
30
0
41
1
10
52.91300303312
20
3.23304244381012
30
0
41
1
10
52.9836634345422
20
3.26437425365901
30
0
41
1
10
53.0539340614257
20
3.29372495072985
30
0
0
SPLINE
5
163
100
AcDbEntity
8
1
62
256
6
ByLayer
370
18
48
1
60
0
100
AcDbSpline
70
4
71
3
72
8
73
4
40
0
40
0
40
0
40
0
40
1
40
1
40
1
40
1
41
1
10
53.1306129753055
20
3.15619393638585
30
0
41
1
10
53.1049450475711
20
3.20242834461536
30
0
41
1
10
53.0793909248924
20
3.2482718441704
30
0
41
1
10
53.0539340614256
20
3.29372495072985
30
0
0
SPLINE
5
164
100
AcDbEntity
8
1
62
256
6
ByLayer
370
18
48
1
60
0
100
AcDbSpline
70
4
71
3
72
32
73
28
40
0
40
0
40
0
40
0
40
0.0624999999999997
40
0.0624999999999997
40
0.124999999999999
40
0.124999999999999
40
0.187499999999999
40
0.187499999999999
40
0.249999999999999
40
0.249999999999999
40
0.312499999999999
40
0.312499999999999
40
0.374999999999998
40
0.374999999999998
40
0.499999999999998
40
0.499999999999998
40
0.562499999999998
40
0.562499999999998
40
0.624999999999998
40
0.624999999999998
40
0.749999999999999
40
0.749999999999999
40
0.812499999999999
40
0.812499999999999
40
0.875
40
0.875
40
1
40
1
40
1
40
1
41
1
10
53.5092756493447
20
3.06882727448013
30
0
41
1
10
53.5034082034752
20
3.06056921186186
30
0
41
1
10
53.4969370727802
20
3.05334557348678
30
0
41
1
10
53.4830117120273
20
3.04055864899303
30
0
41
1
10
53.4755549703137
20
3.03500015763586
30
0
41
1
10
53.4597680869641
20
3.02535610093096
30
0
41
1
10
53.451588758855
20
3.02136638739634
30
0
41
1
10
53.4349071240854
20
3.0148418715309
30
0
41
1
10
53.426380288295
20
3.01229550547245
30
0
41
1
10
53.4090112035438
20
3.00846453004661
30
0
41
1
10
53.4001195076728
20
3.00717870518358
30
0
41
1
10
53.3823225988882
20
3.00579532387329
30
0
41
1
10
53.3734291104584
20
3.00569006086397
30
0
41
1
10
53.3467728928107
20
3.00693839470233
30
0
41
1
10
53.3290328192349
20
3.00983599601093
30
0
41
1
10
53.3025237581745
20
3.0170205241557
30
0
41
1
10
53.2936926965178
20
3.01990316049049
30
0
41
1
10
53.2763662824478
20
3.0265173277871
30
0
41
1
10
53.2678343088397
20
3.03025706427397
30
0
41
1
10
53.2426443183486
20
3.04275433873769
30
0
41
1
10
53.2263881557459
20
3.05276965821858
30
0
41
1
10
53.2029343243551
20
3.07056271211087
30
0
41
1
10
53.1953201073478
20
3.07692953904055
30
0
41
1
10
53.1807107710354
20
3.09041159926346
30
0
41
1
10
53.1736852987903
20
3.09754885086011
30
0
41
1
10
53.1535154665574
20
3.1202480291692
30
0
41
1
10
53.1412430791728
20
3.13704643968072
30
0
41
1
10
53.1306129753055
20
3.15619393638596
30
0
0
SPLINE
5
165
100
AcDbEntity
8
1
62
256
6
ByLayer
370
18
48
1
60
0
100
AcDbSpline
70
4
71
3
72
8
73
4
40
0
40
0
40
0
40
0
40
1
40
1
40
1
40
1
41
1
10
53.7155025972853
20
3.35004634171992
30
0
41
1
10
53.6473243133579
20
3.26027400870353
30
0
41
1
10
53.5786353420883
20
3.16644669843271
30
0
41
1
10
53.5092756493447
20
3.06882727448013
30
0
0
SPLINE
5
166
100
AcDbEntity
8
1
62
256
6
ByLayer
370
18
48
1
60
0
100
AcDbSpline
70
4
71
3
72
10
73
6
40
0
40
0
40
0
40
0
40
0.5
40
0.5
40
1
40
1
40
1
40
1
41
1
10
54.3619668316873
20
3.16116627892362
30
0
41
1
10
54.254486364038
20
3.2018496395564
30
0
41
1
10
54.1470604084491
20
3.23797565252573
30
0
41
1
10
53.931872967292
20
3.30104372098944
30
0
41
1
10
53.8240618725089
20
3.32794777731706
30
0
41
1
10
53.7155025972853
20
3.35004634171992
30
0
0
SPLINE
5
167
100
AcDbEntity
8
1
62
256
6
ByLayer
370
18
48
1
60
0
100
AcDbSpline
70
4
71
3
72
10
73
6
40
0
40
0
40
0
40
0
40
0.5
40
0.5
40
1
40
1
40
1
40
1
41
1
10
54.6348750761892
20
2.61261892566742
30
0
41
1
10
54.5887788231256
20
2.7041756622861
30
0
41
1
10
54.5430435840468
20
2.79573374924888
30
0
41
1
10
54.4520575702892
20
2.97875775063724
30
0
41
1
10
54.4068787502092
20
3.07009150771472
30
0
41
1
10
54.3619668316873
20
3.16116627892359
30
0
0
SPLINE
5
168
100
AcDbEntity
8
1
62
256
6
ByLayer
370
18
48
1
60
0
100
AcDbSpline
70
4
71
3
72
32
73
28
40
0
40
0
40
0
40
0
40
0.0625
40
0.0625
40
0.125
40
0.125
40
0.1875
40
0.1875
40
0.25
40
0.25
40
0.3125
40
0.3125
40
0.375
40
0.375
40
0.5
40
0.5
40
0.5625
40
0.5625
40
0.625
40
0.625
40
0.750000000000001
40
0.750000000000001
40
0.812500000000001
40
0.812500000000001
40
0.875000000000001
40
0.875000000000001
40
1
40
1
40
1
40
1
41
1
10
55.0136617191698
20
2.40110257287594
30
0
41
1
10
55.0077862612053
20
2.39604643061028
30
0
41
1
10
55.0013058211086
20
2.39208235464349
30
0
41
1
10
54.9873604968217
20
2.38590177022297
30
0
41
1
10
54.9798930874529
20
2.38369045019431
30
0
41
1
10
54.964084648271
20
2.38081820279118
30
0
41
1
10
54.9558975822258
20
2.38018761916089
30
0
41
1
10
54.9392002584533
20
2.38028451708837
30
0
41
1
10
54.9306665193402
20
2.38101132716949
30
0
41
1
10
54.9132858735516
20
2.38366535391927
30
0
41
1
10
54.9043893487314
20
2.38560845116541
30
0
41
1
10
54.8865895062322
20
2.39053151046176
30
0
41
1
10
54.87769556157
20
2.39350122784512
30
0
41
1
10
54.8510406584754
20
2.40376996391584
30
0
41
1
10
54.8333050576418
20
2.41241043915534
30
0
41
1
10
54.8068064943963
20
2.4278612564344
30
0
41
1
10
54.7979795217706
20
2.43344382333035
30
0
41
1
10
54.7806603245563
20
2.44526072870681
30
0
41
1
10
54.7721317289155
20
2.45151476518913
30
0
41
1
10
54.7469507326803
20
2.4713065975163
30
0
41
1
10
54.730699010747
20
2.48585882756925
30
0
41
1
10
54.7072480963887
20
2.50994485781192
30
0
41
1
10
54.6996303982495
20
2.51831377390133
30
0
41
1
10
54.6850144701581
20
2.53553717362431
30
0
41
1
10
54.6779848702273
20
2.54442244414409
30
0
41
1
10
54.6578008922122
20
2.57196785837874
30
0
41
1
10
54.6455165325126
20
2.59148278229185
30
0
41
1
10
54.6348750761892
20
2.61261892566776
30
0
0
SPLINE
5
169
100
AcDbEntity
8
1
62
256
6
ByLayer
370
18
48
1
60
0
100
AcDbSpline
70
4
71
3
72
12
73
8
40
0
40
0
40
0
40
0
40
0.250000000000007
40
0.250000000000007
40
0.500000000000015
40
0.500000000000015
40
1
40
1
40
1
40
1
41
1
10
55.3594229228733
20
2.6545418202987
30
0
41
1
10
55.3310490478731
20
2.6375831419916
30
0
41
1
10
55.3025667807691
20
2.6195800505042
30
0
41
1
10
55.2453495390239
20
2.58145065722161
30
0
41
1
10
55.2166111881324
20
2.56131943391139
30
0
41
1
10
55.1301602427
20
2.49787647062968
30
0
41
1
10
55.0721423969761
20
2.45142828851704
30
0
41
1
10
55.0136617191698
20
2.40110257287591
30
0
0
SPLINE
5
16A
100
AcDbEntity
8
1
62
256
6
ByLayer
370
18
48
1
60
0
100
AcDbSpline
70
4
71
3
72
8
73
4
40
0
40
0
40
0
40
0
40
1
40
1
40
1
40
1
41
1
10
55.7445577099801
20
2.38853191773239
30
0
41
1
10
55.6164045575539
20
2.48304312755246
30
0
41
1
10
55.4883703409838
20
2.57194020622416
30
0
41
1
10
55.3594229228733
20
2.6545418202987
30
0
0
SPLINE
5
16B
100
AcDbEntity
8
1
62
256
6
ByLayer
370
18
48
1
60
0
100
AcDbSpline
70
4
71
3
72
10
73
6
40
0
40
0
40
0
40
0
40
0.5
40
0.5
40
1
40
1
40
1
40
1
41
1
10
56.1393068727104
20
1.6232415711533
30
0
41
1
10
56.0721787140398
20
1.74602986306482
30
0
41
1
10
56.0058498671429
20
1.87147635575582
30
0
41
1
10
55.8741828014711
20
2.12713189368722
30
0
41
1
10
55.8090957173857
20
2.25696642809589
30
0
41
1
10
55.7445577099801
20
2.38853191773242
30
0
0
SPLINE
5
16C
100
AcDbEntity
8
1
62
256
6
ByLayer
370
18
48
1
60
0
100
AcDbSpline
70
4
71
3
72
32
73
28
40
0
40
0
40
0
40
0
40
0.0624999999999998
40
0.0624999999999998
40
0.125
40
0.125
40
0.187499999999999
40
0.187499999999999
40
0.249999999999999
40
0.249999999999999
40
0.312499999999999
40
0.312499999999999
40
0.374999999999999
40
0.374999999999999
40
0.499999999999999
40
0.499999999999999
40
0.562499999999999
40
0.562499999999999
40
0.624999999999999
40
0.624999999999999
40
0.749999999999999
40
0.749999999999999
40
0.812499999999999
40
0.812499999999999
40
0.874999999999999
40
0.874999999999999
40
1
40
1
40
1
40
1
41
1
10
56.518036329829
20
1.32466342566505
30
0
41
1
10
56.5121661057899
20
1.32369085440416
30
0
41
1
10
56.5056932139567
20
1.32367445260604
30
0
41
1
10
56.4917668929577
20
1.325165023952
30
0
41
1
10
56.4843109466702
20
1.32667666110206
30
0
41
1
10
56.4685288710241
20
1.33104971977718
30
0
41
1
10
56.4603507362171
20
1.33387132154252
30
0
41
1
10
56.4436756266715
20
1.34053493871437
30
0
41
1
10
56.4351530889813
20
1.3443870687594
30
0
41
1
10
56.4177945913015
20
1.3530178277579
30
0
41
1
10
56.4089099340567
20
1.35782583764529
30
0
41
1
10
56.3911197680032
20
1.36815366864488
30
0
41
1
10
56.3822299366159
20
1.37365933300177
30
0
41
1
10
56.3555854186074
20
1.39109712512726
30
0
41
1
10
56.3378541241181
20
1.40393708530112
30
0
41
1
10
56.3113593317775
20
1.42491672918459
30
0
41
1
10
56.3025282684162
20
1.4322173260054
30
0
41
1
10
56.285198747435
20
1.44716618971395
30
0
41
1
10
56.2766652338299
20
1.4548409830108
30
0
41
1
10
56.2514705037923
20
1.47847356176789
30
0
41
1
10
56.2352110145187
20
1.49503201338948
30
0
41
1
10
56.2117513941219
20
1.52123316774342
30
0
41
1
10
56.2041198377989
20
1.53016436439447
30
0
41
1
10
56.1894858266703
20
1.54815999903175
30
0
41
1
10
56.1824484283201
20
1.55726173725372
30
0
41
1
10
56.1622446643256
20
1.58490427855318
30
0
41
1
10
56.1499518831608
20
1.60377012017895
30
0
41
1
10
56.1393068727104
20
1.62324157115373
30
0
0
SPLINE
5
16D
100
AcDbEntity
8
1
62
256
6
ByLayer
370
18
48
1
60
0
100
AcDbSpline
70
4
71
3
72
14
73
10
40
0
40
0
40
0
40
0
40
0.25
40
0.25
40
0.5
40
0.5
40
0.75
40
0.75
40
1
40
1
40
1
40
1
41
1
10
56.9970496656067
20
1.29884223418739
30
0
41
1
10
56.9580228274094
20
1.30971720094146
30
0
41
1
10
56.9188033717515
20
1.31850724265559
30
0
41
1
10
56.8398801121745
20
1.33176147989411
30
0
41
1
10
56.8001510858044
20
1.33622681383204
30
0
41
1
10
56.7202176578382
20
1.34066491742888
30
0
41
1
10
56.680082639215
20
1.34063567432867
30
0
41
1
10
56.5993887046693
20
1.33600932543388
30
0
41
1
10
56.5588305835517
20
1.33142216579435
30
0
41
1
10
56.518036329829
20
1.32466342566505
30
0
0
SPLINE
5
16E
100
AcDbEntity
8
1
62
256
6
ByLayer
370
18
48
1
60
0
100
AcDbSpline
70
4
71
3
72
8
73
4
40
0
40
0
40
0
40
0
40
1
40
1
40
1
40
1
41
1
10
56.9970496656088
20
1.29884223419194
30
0
41
1
10
57.0465017298935
20
1.24652395109956
30
0
41
1
10
57.0958873582674
20
1.19392220707431
30
0
41
1
10
57.1452501450977
20
1.14107700273678
30
0
0
SPLINE
5
16F
100
AcDbEntity
8
1
62
256
6
ByLayer
370
18
48
1
60
0
100
AcDbSpline
70
4
71
3
72
14
73
10
40
0
40
0
40
0
40
0
40
0.25
40
0.25
40
0.5
40
0.5
40
0.75
40
0.75
40
1
40
1
40
1
40
1
41
1
10
57.6435057282719
20
0.358865469350746
30
0
41
1
10
57.6009041509652
20
0.416901601562927
30
0
41
1
10
57.5586525275045
20
0.476905089870712
30
0
41
1
10
57.474652832735
20
0.600545876016326
30
0
41
1
10
57.432905897663
20
0.664185209174775
30
0
41
1
10
57.3498022290535
20
0.795030618838467
30
0
41
1
10
57.3085137330431
20
0.86213214335254
30
0
41
1
10
57.2265153906292
20
0.999321786089126
30
0
41
1
10
57.1857791387262
20
1.0694514553312
30
0
41
1
10
57.1452501450929
20
1.14107700273922
30
0
0
SPLINE
5
170
100
AcDbEntity
8
1
62
256
6
ByLayer
370
18
48
1
60
0
100
AcDbSpline
70
4
71
3
72
32
73
28
40
0
40
0
40
0
40
0
40
0.0624999999999973
40
0.0624999999999973
40
0.124999999999995
40
0.124999999999995
40
0.187499999999992
40
0.187499999999992
40
0.249999999999989
40
0.249999999999989
40
0.312499999999987
40
0.312499999999987
40
0.374999999999984
40
0.374999999999984
40
0.499999999999978
40
0.499999999999978
40
0.562499999999975
40
0.562499999999975
40
0.624999999999972
40
0.624999999999972
40
0.749999999999967
40
0.749999999999967
40
0.812499999999964
40
0.812499999999964
40
0.874999999999962
40
0.874999999999962
40
1
40
1
40
1
40
1
41
1
10
58.0221891601909
20
0.0236883731253954
30
0
41
1
10
58.0163240235955
20
0.0269439222909682
30
0
41
1
10
58.0098573739095
20
0.0308560433730349
30
0
41
1
10
57.9959451154739
20
0.0397219217821885
30
0
41
1
10
57.9884970034211
20
0.0446789904048899
30
0
41
1
10
57.9727320889637
20
0.0555173141140983
30
0
41
1
10
57.9645576586381
20
0.0613002136273906
30
0
41
1
10
57.947895322612
20
0.073381338431517
30
0
41
1
10
57.9393795861544
20
0.0796999358212815
30
0
41
1
10
57.9220351543194
20
0.0928394673084938
30
0
41
1
10
57.9131585426431
20
0.0996981364994838
30
0
41
1
10
57.8953748772644
20
0.11369036298828
30
0
41
1
10
57.8864881983743
20
0.120806014473402
30
0
41
1
10
57.8598524360691
20
0.142483580586799
30
0
41
1
10
57.8421260180527
20
0.157370380013987
30
0
41
1
10
57.8156359248508
20
0.180362984724923
30
0
41
1
10
57.8068033369376
20
0.188157720088412
30
0
41
1
10
57.7894687184213
20
0.20373134890778
30
0
41
1
10
57.7809326278265
20
0.21153927153162
30
0
41
1
10
57.7557301510551
20
0.235046453607509
30
0
41
1
10
57.7394654428566
20
0.250830474644118
30
0
41
1
10
57.7159990026387
20
0.274746593098911
30
0
41
1
10
57.7083598811886
20
0.282733448169608
30
0
41
1
10
57.6937158163375
20
0.298468916288783
30
0
41
1
10
57.6866739446763
20
0.306252583639065
30
0
41
1
10
57.6664572251598
20
0.329327490179026
30
0
41
1
10
57.6541566477983
20
0.344355720818612
30
0
41
1
10
57.6435057282719
20
0.358865469351201
30
0
0
SPLINE
5
171
100
AcDbEntity
8
1
62
256
6
ByLayer
370
18
48
1
60
0
100
AcDbSpline
70
4
71
3
72
14
73
10
40
0
40
0
40
0
40
0
40
0.25
40
0.25
40
0.5
40
0.5
40
0.75
40
0.75
40
1
40
1
40
1
40
1
41
1
10
58.500983125089
20
-0.348770545645635
30
0
41
1
10
58.4620314887408
20
-0.309696615874174
30
0
41
1
10
58.4228764175171
20
-0.272496089870373
30
0
41
1
10
58.3440494650573
20
-0.202032699256108
30
0
41
1
10
58.3043459323984
20
-0.168745962018676
30
0
41
1
10
58.2244710063995
20
-0.106425442543752
30
0
41
1
10
58.1843065582495
20
-0.0773925261867134
30
0
41
1
10
58.1035343018624
20
-0.0236444065430135
30
0
41
1
10
58.0629655613023
20
0.0010547010100481
30
0
41
1
10
58.0221891601909
20
0.0236883731254238
30
0
0
SPLINE
5
172
100
AcDbEntity
8
1
62
256
6
ByLayer
370
18
48
1
60
0
100
AcDbSpline
70
4
71
3
72
8
73
4
40
0
40
0
40
0
40
0
40
1
40
1
40
1
40
1
41
1
10
58.5009831250911
20
-0.348770545647085
30
0
41
1
10
58.5506385797272
20
-0.404227516560013
30
0
41
1
10
58.600178163276
20
-0.459492307780067
30
0
41
1
10
58.6496955898337
20
-0.514483004583354
30
0
0
SPLINE
5
173
100
AcDbEntity
8
1
62
256
6
ByLayer
370
18
48
1
60
0
100
AcDbSpline
70
4
71
3
72
14
73
10
40
0
40
0
40
0
40
0
40
0.29921638601643
40
0.29921638601643
40
0.598432772032861
40
0.598432772032861
40
0.897649158049291
40
0.897649158049291
40
1
40
1
40
1
40
1
41
1
10
59.1479569991499
20
-0.966923906723451
30
0
41
1
10
59.1053830083314
20
-0.938753151399624
30
0
41
1
10
59.0631448746036
20
-0.90803750315888
30
0
41
1
10
58.9791555854609
20
-0.841839451321562
30
0
41
1
10
58.9373982710296
20
-0.806348034323349
30
0
41
1
10
58.8542970540402
20
-0.730657767324573
30
0
41
1
10
58.8130339964671
20
-0.690533640244581
30
0
41
1
10
58.7579688525101
20
-0.633669517718175
30
0
41
1
10
58.7439639117633
20
-0.618915568276691
30
0
41
1
10
58.7299895041054
20
-0.603905568718773
30
0
0
SPLINE
5
174
100
AcDbEntity
8
1
62
256
6
ByLayer
370
18
48
1
60
0
100
AcDbSpline
70
4
71
3
72
8
73
4
40
0
40
0
40
0
40
0
40
1
40
1
40
1
40
1
41
1
10
58.6895005947376
20
-0.559607970098568
30
0
41
1
10
58.6762037274714
20
-0.544794891609513
30
0
41
1
10
58.6629352313569
20
-0.529751939571355
30
0
41
1
10
58.6496955898337
20
-0.514483004583411
30
0
0
SPLINE
5
175
100
AcDbEntity
8
1
62
256
6
ByLayer
370
18
48
1
60
0
100
AcDbSpline
70
4
71
3
72
32
73
28
40
0
40
0
40
0
40
0
40
0.0624999999999856
40
0.0624999999999856
40
0.124999999999971
40
0.124999999999971
40
0.187499999999957
40
0.187499999999957
40
0.249999999999942
40
0.249999999999942
40
0.312499999999928
40
0.312499999999928
40
0.374999999999914
40
0.374999999999914
40
0.499999999999886
40
0.499999999999886
40
0.5624999999999
40
0.5624999999999
40
0.624999999999914
40
0.624999999999914
40
0.749999999999943
40
0.749999999999943
40
0.812499999999958
40
0.812499999999958
40
0.874999999999972
40
0.874999999999972
40
1
40
1
40
1
40
1
41
1
10
59.5266818071619
20
-1.28222994638867
30
0
41
1
10
59.5208156711705
20
-1.27527709019245
30
0
41
1
10
59.5143493127462
20
-1.26807497834969
30
0
41
1
10
59.5004406826201
20
-1.2532842636046
30
0
41
1
10
59.4929958999655
20
-1.24569421528935
30
0
41
1
10
59.4772410684782
20
-1.23017178435251
30
0
41
1
10
59.4690706342092
20
-1.22237958489316
30
0
41
1
10
59.452419357015
20
-1.20687987262414
30
0
41
1
10
59.4439098934241
20
-1.19914390718412
30
0
41
1
10
59.4265795011443
20
-1.18368295450472
30
0
41
1
10
59.4177116682921
20
-1.1759184862012
30
0
41
1
10
59.3999370931017
20
-1.16059970325495
30
0
41
1
10
59.3910550240022
20
-1.15306519593264
30
0
41
1
10
59.3644330185929
20
-1.1307823110825
30
0
41
1
10
59.3467156693671
20
-1.11635196949047
30
0
41
1
10
59.3202378162945
20
-1.09522337685894
30
0
41
1
10
59.3114051823943
20
-1.08824966833143
30
0
41
1
10
59.2940654394398
20
-1.07468093573172
30
0
41
1
10
59.2855265474289
20
-1.06806012302076
30
0
41
1
10
59.260314939007
20
-1.04865881358313
30
0
41
1
10
59.2440430443224
20
-1.03632957009961
30
0
41
1
10
59.2205657208905
20
-1.01877131718979
30
0
41
1
10
59.2129107741592
20
-1.01308817221434
30
0
41
1
10
59.1982414966851
20
-1.00229586395699
30
0
41
1
10
59.1911878013925
20
-0.997159238074232
30
0
41
1
10
59.170938505392
20
-0.982595810473128
30
0
41
1
10
59.1586199497309
20
-0.973979467314678
30
0
41
1
10
59.1479569991499
20
-0.966923906723054
30
0
0
SPLINE
5
176
100
AcDbEntity
8
1
62
256
6
ByLayer
370
18
48
1
60
0
100
AcDbSpline
70
4
71
3
72
14
73
10
40
0
40
0
40
0
40
0
40
0.25
40
0.25
40
0.5
40
0.5
40
0.75
40
0.75
40
1
40
1
40
1
40
1
41
1
10
60.0056663313215
20
-1.9379886496416
30
0
41
1
10
59.9666941429827
20
-1.87754335147903
30
0
41
1
10
59.9275077723883
20
-1.8184581876593
30
0
41
1
10
59.8486221197888
20
-1.70306159298892
30
0
41
1
10
59.8088928855196
20
-1.64670931994055
30
0
41
1
10
59.7289846004105
20
-1.53707312953432
30
0
41
1
10
59.6888120244589
20
-1.48379618058883
30
0
41
1
10
59.6080308472503
20
-1.38051967951537
30
0
41
1
10
59.5674600016587
20
-1.33056243010427
30
0
41
1
10
59.5266818071619
20
-1.28222994638867
30
0
0
SPLINE
5
177
100
AcDbEntity
8
1
62
256
6
ByLayer
370
18
48
1
60
0
100
AcDbSpline
70
4
71
3
72
8
73
4
40
0
40
0
40
0
40
0
40
1
40
1
40
1
40
1
41
1
10
60.005666331324
20
-1.93798864964899
30
0
41
1
10
60.0556233978277
20
-1.9869190892951
30
0
41
1
10
60.1053810317124
20
-2.03523500308711
30
0
41
1
10
60.1550317364559
20
-2.08286906367152
30
0
0
SPLINE
5
178
100
AcDbEntity
8
1
62
256
6
ByLayer
370
18
48
1
60
0
100
AcDbSpline
70
4
71
3
72
14
73
10
40
0
40
0
40
0
40
0
40
0.25
40
0.25
40
0.5
40
0.5
40
0.75
40
0.75
40
1
40
1
40
1
40
1
41
1
10
60.6523380880684
20
-2.1289758685806
30
0
41
1
10
60.6098617369927
20
-2.13547701221543
30
0
41
1
10
60.5677221736235
20
-2.13927566414026
30
0
41
1
10
60.4839226498905
20
-2.14176225880496
30
0
41
1
10
60.4422574918428
20
-2.14044552295223
30
0
41
1
10
60.3593259507075
20
-2.13267880113418
30
0
41
1
10
60.3181459332172
20
-2.12623141009922
30
0
41
1
10
60.2362315679221
20
-2.1082653644163
30
0
41
1
10
60.195515567359
20
-2.09676322084036
30
0
41
1
10
60.1550317364559
20
-2.08286906367155
30
0
0
SPLINE
5
179
100
AcDbEntity
8
1
62
256
6
ByLayer
370
18
48
1
60
0
100
AcDbSpline
70
4
71
3
72
32
73
28
40
0
40
0
40
0
40
0
40
0.0624999999999996
40
0.0624999999999996
40
0.124999999999999
40
0.124999999999999
40
0.187499999999999
40
0.187499999999999
40
0.249999999999998
40
0.249999999999998
40
0.312499999999998
40
0.312499999999998
40
0.374999999999998
40
0.374999999999998
40
0.499999999999997
40
0.499999999999997
40
0.562499999999997
40
0.562499999999997
40
0.624999999999998
40
0.624999999999998
40
0.749999999999999
40
0.749999999999999
40
0.812499999999999
40
0.812499999999999
40
0.874999999999999
40
0.874999999999999
40
1
40
1
40
1
40
1
41
1
10
61.031020135836
20
-2.36922197139606
30
0
41
1
10
61.0251532880511
20
-2.35979048277824
30
0
41
1
10
61.0186859042053
20
-2.35056050358352
30
0
41
1
10
61.0047741227915
20
-2.3324356004199
30
0
41
1
10
60.9973272224444
20
-2.32354136007163
30
0
41
1
10
60.9815667609452
20
-2.30605012505234
30
0
41
1
10
60.9733938326881
20
-2.29761330721505
30
0
41
1
10
60.9567372597998
20
-2.28140491171914
30
0
41
1
10
60.9482250541818
20
-2.2736030308709
30
0
41
1
10
60.930888488913
20
-2.25851995936148
30
0
41
1
10
60.9220167506075
20
-2.25120331324726
30
0
41
1
10
60.90423794676
20
-2.23723803858061
30
0
41
1
10
60.8953535968587
20
-2.23060269942195
30
0
41
1
10
60.8687243102311
20
-2.21161186728582
30
0
41
1
10
60.8510014103797
20
-2.20016122963162
30
0
41
1
10
60.8245159214199
20
-2.18458739543993
30
0
41
1
10
60.815682712569
20
-2.1796566565983
30
0
41
1
10
60.7983449169803
20
-2.17047379679761
30
0
41
1
10
60.7898073526636
20
-2.16620097375167
30
0
41
1
10
60.7646009989689
20
-2.15430383173015
30
0
41
1
10
60.7483344491751
20
-2.1475837784601
30
0
41
1
10
60.7248667167677
20
-2.13944443574627
30
0
41
1
10
60.7172211831113
20
-2.13706917771969
30
0
41
1
10
60.702567911563
20
-2.13312009325423
30
0
41
1
10
60.6955219320216
20
-2.1315339324419
30
0
41
1
10
60.6752948909081
20
-2.12804036963377
30
0
41
1
10
60.6629899450058
20
-2.12734556724376
30
0
41
1
10
60.6523380880684
20
-2.12897586858028
30
0
0
SPLINE
5
17A
100
AcDbEntity
8
1
62
256
6
ByLayer
370
18
48
1
60
0
100
AcDbSpline
70
4
71
3
72
14
73
10
40
0
40
0
40
0
40
0
40
0.25
40
0.25
40
0.5
40
0.5
40
0.75
40
0.75
40
1
40
1
40
1
40
1
41
1
10
61.4195008997993
20
-3.03150507108578
30
0
41
1
10
61.3877662126771
20
-2.9744528429714
30
0
41
1
10
61.3558698248581
20
-2.91777497937051
30
0
41
1
10
61.2916975731061
20
-2.80521619506831
30
0
41
1
10
61.259438082771
20
-2.74936669828009
30
0
41
1
10
61.1946568621231
20
-2.63879723896991
30
0
41
1
10
61.1621019226853
20
-2.58401806727881
30
0
41
1
10
61.0967513521335
20
-2.47571543468331
30
0
41
1
10
61.0639547107139
20
-2.42216728027105
30
0
41
1
10
61.031020135836
20
-2.36922197139606
30
0
0
SPLINE
5
17B
100
AcDbEntity
8
1
62
256
6
ByLayer
370
18
48
1
60
0
100
AcDbSpline
70
4
71
3
72
10
73
6
40
0
40
0
40
0
40
0
40
0.5
40
0.5
40
1
40
1
40
1
40
1
41
1
10
61.4195008997993
20
-3.03150507108575
30
0
41
1
10
61.5020627013275
20
-3.05447975520684
30
0
41
1
10
61.585210117983
20
-3.0737245008863
30
0
41
1
10
61.7534339148935
20
-3.10460661798823
30
0
41
1
10
61.8385216603269
20
-3.11623886151472
30
0
41
1
10
61.9247598847734
20
-3.12436394146789
30
0
0
SPLINE
5
17C
100
AcDbEntity
8
1
62
256
6
ByLayer
370
18
48
1
60
0
100
AcDbSpline
70
4
71
3
72
10
73
6
40
0
40
0
40
0
40
0
40
0.5
40
0.5
40
1
40
1
40
1
40
1
41
1
10
62.1566068197505
20
-2.92835392243038
30
0
41
1
10
62.117509235946
20
-2.96491257167833
30
0
41
1
10
62.0786842506044
20
-2.99946953958408
30
0
41
1
10
62.0014389872333
20
-3.06476747460621
30
0
41
1
10
61.963017808321
20
-3.09551652782997
30
0
41
1
10
61.9247598847734
20
-3.12436394146789
30
0
0
SPLINE
5
17D
100
AcDbEntity
8
1
62
256
6
ByLayer
370
18
48
1
60
0
100
AcDbSpline
70
4
71
3
72
32
73
28
40
0
40
0
40
0
40
0
40
0.0625000000000124
40
0.0625000000000124
40
0.125000000000025
40
0.125000000000025
40
0.187500000000037
40
0.187500000000037
40
0.25000000000005
40
0.25000000000005
40
0.312500000000062
40
0.312500000000062
40
0.375000000000075
40
0.375000000000075
40
0.500000000000043
40
0.500000000000043
40
0.562500000000054
40
0.562500000000054
40
0.625000000000066
40
0.625000000000066
40
0.750000000000091
40
0.750000000000091
40
0.812500000000079
40
0.812500000000079
40
0.875000000000067
40
0.875000000000067
40
1
40
1
40
1
40
1
41
1
10
62.5353908502096
20
-3.05478331573244
30
0
41
1
10
62.5295252871165
20
-3.04446551233448
30
0
41
1
10
62.523061035863
20
-3.03476295940445
30
0
41
1
10
62.5091596085798
20
-3.01635235183269
30
0
41
1
10
62.5017199249863
20
-3.00764699097161
30
0
41
1
10
62.4859784900226
20
-2.99111746486872
30
0
41
1
10
62.4778113523642
20
-2.98344030388276
30
0
41
1
10
62.4611716818771
20
-2.96921993924295
30
0
41
1
10
62.4526687315224
20
-2.9626469469425
30
0
41
1
10
62.4353525862013
20
-2.9504378970058
30
0
41
1
10
62.4264939763798
20
-2.94477751712446
30
0
41
1
10
62.4087255231326
20
-2.93445139780144
30
0
41
1
10
62.3998465153369
20
-2.92979715772407
30
0
41
1
10
62.3732335791822
20
-2.91718300528171
30
0
41
1
10
62.3555221199639
20
-2.91055516485818
30
0
41
1
10
62.3290525729496
20
-2.90301880737476
30
0
41
1
10
62.3202188636576
20
-2.90090962870792
30
0
41
1
10
62.3028710016616
20
-2.89755230731473
30
0
41
1
10
62.2943281484972
20
-2.89629357361079
30
0
41
1
10
62.2691049162855
20
-2.89374428353557
30
0
41
1
10
62.2528256555357
20
-2.89365968631603
30
0
41
1
10
62.2293376607123
20
-2.89615239970158
30
0
41
1
10
62.2216680630521
20
-2.89743076066463
30
0
41
1
10
62.2069733658107
20
-2.90088869358061
30
0
41
1
10
62.1999076691085
20
-2.90307194695154
30
0
41
1
10
62.1796241200468
20
-2.9111024075732
30
0
41
1
10
62.1672850520381
20
-2.91836911746782
30
0
41
1
10
62.1566068197505
20
-2.92835392243021
30
0
0
SPLINE
5
17E
100
AcDbEntity
8
1
62
256
6
ByLayer
370
18
48
1
60
0
100
AcDbSpline
70
4
71
3
72
8
73
4
40
0
40
0
40
0
40
0
40
1
40
1
40
1
40
1
41
1
10
62.5763027377699
20
-3.12688402285647
30
0
41
1
10
62.5626901902026
20
-3.10285180727115
30
0
41
1
10
62.5490542936237
20
-3.07881796008795
30
0
41
1
10
62.5353908502096
20
-3.05478331573244
30
0
0
SPLINE
5
17F
100
AcDbEntity
8
1
62
256
6
ByLayer
370
18
48
1
60
0
100
AcDbSpline
70
4
71
3
72
28
73
24
40
0
40
0
40
0
40
0
40
0.125000000000002
40
0.125000000000002
40
0.187500000000003
40
0.187500000000003
40
0.250000000000005
40
0.250000000000005
40
0.375000000000007
40
0.375000000000007
40
0.500000000000009
40
0.500000000000009
40
0.625000000000011
40
0.625000000000011
40
0.687500000000008
40
0.687500000000008
40
0.750000000000005
40
0.750000000000005
40
0.812500000000001
40
0.812500000000001
40
0.874999999999998
40
0.874999999999998
40
1
40
1
40
1
40
1
41
1
10
62.5763027377699
20
-3.12688402285647
30
0
41
1
10
62.6821982495592
20
-3.11927190988086
30
0
41
1
10
62.7895318621641
20
-3.10835836351367
30
0
41
1
10
62.9525815824911
20
-3.0886631644837
30
0
41
1
10
63.0072722342164
20
-3.081535340655
30
0
41
1
10
63.1176772981371
20
-3.06617506769328
30
0
41
1
10
63.173405490973
20
-3.05793764616797
30
0
41
1
10
63.3422652783059
20
-3.03203654081705
30
0
41
1
10
63.4570151451732
20
-3.01324913348137
30
0
41
1
10
63.6901920415175
20
-2.97568107752619
30
0
41
1
10
63.8086096527921
20
-2.95695101869049
30
0
41
1
10
64.0471565008319
20
-2.921997779463
30
0
41
1
10
64.1672524765445
20
-2.90579682047061
30
0
41
1
10
64.3468849979618
20
-2.88378849235187
30
0
41
1
10
64.4066777438474
20
-2.8768171704582
30
0
41
1
10
64.5258495386468
20
-2.86348077400095
30
0
41
1
10
64.5852290772623
20
-2.85710963638263
30
0
41
1
10
64.703655491954
20
-2.84485116035333
30
0
41
1
10
64.7627036169544
20
-2.83896269085142
30
0
41
1
10
64.8806267383171
20
-2.82763161447087
30
0
41
1
10
64.9395210933588
20
-2.82219997825328
30
0
41
1
10
65.1159573095801
20
-2.8065072932734
30
0
41
1
10
65.2332148139823
20
-2.7968352836119
30
0
41
1
10
65.3499999999999
20
-2.78759493178154
30
0
0
SPLINE
5
180
100
AcDbEntity
8
1
62
256
6
ByLayer
370
18
48
1
60
0
100
AcDbSpline
70
4
71
3
72
8
73
4
40
0
40
0
40
0
40
0
40
1
40
1
40
1
40
1
41
1
10
65.35
20
-2.78759493178154
30
0
41
1
10
65.3760216172976
20
-2.7689288099715
30
0
41
1
10
65.4022152106226
20
-2.75029199727692
30
0
41
1
10
65.4285724929036
20
-2.73170062433718
30
0
0
SPLINE
5
181
100
AcDbEntity
8
1
62
256
6
ByLayer
370
18
48
1
60
0
100
AcDbSpline
70
4
71
3
72
8
73
4
40
0
40
0
40
0
40
0
40
1
40
1
40
1
40
1
41
1
10
65.55
20
-2.57328355971063
30
0
41
1
10
65.5082892974969
20
-2.62640922423734
30
0
41
1
10
65.4679046454672
20
-2.67924616649407
30
0
41
1
10
65.4285724929036
20
-2.73170062433715
30
0
0
SPLINE
5
182
100
AcDbEntity
8
1
62
256
6
ByLayer
370
18
48
1
60
0
100
AcDbSpline
70
4
71
3
72
58
73
54
40
0
40
0
40
0
40
0
40
0.0156926805594517
40
0.0156926805594517
40
0.0313853611189034
40
0.0313853611189034
40
0.0627707222378067
40
0.0627707222378067
40
0.0941560833567101
40
0.0941560833567101
40
0.109848763916162
40
0.109848763916162
40
0.125541444475613
40
0.125541444475613
40
0.156926805594517
40
0.156926805594517
40
0.18831216671342
40
0.18831216671342
40
0.251082888951227
40
0.251082888951227
40
0.313853611189034
40
0.313853611189034
40
0.376624333426841
40
0.376624333426841
40
0.502165777902455
40
0.502165777902455
40
0.627707222378069
40
0.627707222378069
40
0.659092583496973
40
0.659092583496973
40
0.690477944615876
40
0.690477944615876
40
0.753248666853683
40
0.753248666853683
40
0.784634027972587
40
0.784634027972587
40
0.81601938909149
40
0.81601938909149
40
0.847404750210393
40
0.847404750210393
40
0.863097430769845
40
0.863097430769845
40
0.878790111329297
40
0.878790111329297
40
0.9101754724482
40
0.9101754724482
40
0.925868153007652
40
0.925868153007652
40
0.941560833567104
40
0.941560833567104
40
0.972946194686007
40
0.972946194686007
40
1
40
1
40
1
40
1
41
1
10
65.55
20
-2.57328355970358
30
0
41
1
10
65.55
20
-2.55320209985254
30
0
41
1
10
65.55
20
-2.53340460716328
30
0
41
1
10
65.55
20
-2.49439870544049
30
0
41
1
10
65.5500000000001
20
-2.47546279410128
30
0
41
1
10
65.55
20
-2.42036405946848
30
0
41
1
10
65.55
20
-2.38589091200745
30
0
41
1
10
65.55
20
-2.32112447873342
30
0
41
1
10
65.55
20
-2.29082056315008
30
0
41
1
10
65.55
20
-2.24880166619062
30
0
41
1
10
65.55
20
-2.23528602052582
30
0
41
1
10
65.55
20
-2.20840714016759
30
0
41
1
10
65.55
20
-2.19508519297398
30
0
41
1
10
65.55
20
-2.1554804683131
30
0
41
1
10
65.55
20
-2.12955095045399
30
0
41
1
10
65.55
20
-2.07893568456444
30
0
41
1
10
65.55
20
-2.05422080022146
30
0
41
1
10
65.55
20
-1.98187553693282
30
0
41
1
10
65.55
20
-1.93602605597294
30
0
41
1
10
65.55
20
-1.84899287822654
30
0
41
1
10
65.55
20
-1.8077909745393
30
0
41
1
10
65.55
20
-1.7301476364982
30
0
41
1
10
65.55
20
-1.69395871153071
30
0
41
1
10
65.55
20
-1.59313411030391
30
0
41
1
10
65.55
20
-1.53624598038743
30
0
41
1
10
65.55
20
-1.44317333202716
30
0
41
1
10
65.55
20
-1.40684491274916
30
0
41
1
10
65.55
20
-1.37426108163774
30
0
41
1
10
65.55
20
-1.36838978019534
30
0
41
1
10
65.55
20
-1.35795701062017
30
0
41
1
10
65.55
20
-1.35340088482553
30
0
41
1
10
65.5499999999999
20
-1.34177513259226
30
0
41
1
10
65.55
20
-1.33672035302175
30
0
41
1
10
65.55
20
-1.33324202924666
30
0
41
1
10
65.55
20
-1.33276805091319
30
0
41
1
10
65.55
20
-1.33320255012023
30
0
41
1
10
65.55
20
-1.33411259275147
30
0
41
1
10
65.55
20
-1.33732382808921
30
0
41
1
10
65.55
20
-1.33965037427939
30
0
41
1
10
65.55
20
-1.34396332610643
30
0
41
1
10
65.55
20
-1.3456113279077
30
0
41
1
10
65.55
20
-1.35041443454131
30
0
41
1
10
65.55
20
-1.35354904898651
30
0
41
1
10
65.55
20
-1.36509734085405
30
0
41
1
10
65.55
20
-1.37565024162669
30
0
41
1
10
65.5499999999999
20
-1.39579183121526
30
0
41
1
10
65.55
20
-1.40325571089619
30
0
41
1
10
65.55
20
-1.41943014102446
30
0
41
1
10
65.55
20
-1.42814779448111
30
0
41
1
10
65.55
20
-1.45616022804364
30
0
41
1
10
65.55
20
-1.47730098774889
30
0
41
1
10
65.55
20
-1.52143465301668
30
0
41
1
10
65.55
20
-1.54377961799676
30
0
41
1
10
65.55
20
-1.56800057579065
30
0
0
SPLINE
5
183
100
AcDbEntity
8
1
62
256
6
ByLayer
370
18
48
1
60
0
100
AcDbSpline
70
4
71
3
72
11
73
7
40
0
40
0
40
0
40
0
40
0.250000000000001
40
0.250000000000001
40
0.500000000000002
40
1
40
1
40
1
40
1
41
1
10
65.3500853249673
20
-1.57268849335
30
0
41
1
10
65.3669643753755
20
-1.57298863051974
30
0
41
1
10
65.3838475528542
20
-1.57318900094452
30
0
41
1
10
65.4174515485184
20
-1.57391143626703
30
0
41
1
10
65.467648015039
20
-1.57536725739646
30
0
41
1
10
65.517225574773
20
-1.57780521724303
30
0
41
1
10
65.55
20
-1.5797786682059
30
0
0
SPLINE
5
184
100
AcDbEntity
8
1
62
256
6
ByLayer
370
18
48
1
60
0
100
AcDbSpline
70
4
71
3
72
8
73
4
40
0
40
0
40
0
40
0
40
1
40
1
40
1
40
1
41
1
10
65.3500853249673
20
-1.57268849335
30
0
41
1
10
65.3500568832376
20
-1.57267553639653
30
0
41
1
10
65.3500284415817
20
-1.57266257941492
30
0
41
1
10
65.3499999999999
20
-1.57264962240507
30
0
0
SPLINE
5
185
100
AcDbEntity
8
1
62
256
6
ByLayer
370
18
48
1
60
0
100
AcDbSpline
70
4
71
3
72
22
73
18
40
0
40
0
40
0
40
0
40
0.125
40
0.125
40
0.25
40
0.25
40
0.375
40
0.375
40
0.5
40
0.5
40
0.625
40
0.625
40
0.75
40
0.75
40
0.875
40
0.875
40
1
40
1
40
1
40
1
41
1
10
65.3499999999999
20
-1.57264962240509
30
0
41
1
10
65.2768939550185
20
-1.50316924360317
30
0
41
1
10
65.2029771206561
20
-1.43439323285355
30
0
41
1
10
65.0533286902346
20
-1.2986391064529
30
0
41
1
10
64.9776273780654
20
-1.23163294979227
30
0
41
1
10
64.8247090071901
20
-1.09930302357708
30
0
41
1
10
64.7474754629547
20
-1.03399841548335
30
0
41
1
10
64.5919932029817
20
-0.904686577331034
30
0
41
1
10
64.51375368606
20
-0.840669779557601
30
0
41
1
10
64.3568713220336
20
-0.713338276189802
30
0
41
1
10
64.2782227053851
20
-0.650028126878198
30
0
41
1
10
64.1207936517609
20
-0.523826060108377
30
0
41
1
10
64.0420133652749
20
-0.460933274424917
30
0
41
1
10
63.8844959433477
20
-0.335361143628717
30
0
41
1
10
63.8057585239152
20
-0.272681452574602
30
0
41
1
10
63.6483952176363
20
-0.147439393660591
30
0
41
1
10
63.5697408568336
20
-0.0849160300015228
30
0
41
1
10
63.4912262446773
20
-0.0223613519460457
30
0
0
SPLINE
5
186
100
AcDbEntity
8
1
62
256
6
ByLayer
370
18
48
1
60
0
100
AcDbSpline
70
4
71
3
72
12
73
8
40
0
40
0
40
0
40
0
40
0.250000000000056
40
0.250000000000056
40
0.500000000000112
40
0.500000000000112
40
1
40
1
40
1
40
1
41
1
10
63.3819605651277
20
0.0649221873981389
30
0
41
1
10
63.390807368255
20
0.058477960405753
30
0
41
1
10
63.399852097093
20
0.0517120424120208
30
0
41
1
10
63.4182060787268
20
0.0376496096067171
30
0
41
1
10
63.4273711085362
20
0.0304646290934727
30
0
41
1
10
63.4548227335895
20
0.0085017566869681
30
0
41
1
10
63.4730676675532
20
-0.006676945939688
30
0
41
1
10
63.4912262446773
20
-0.0223613519461594
30
0
0
SPLINE
5
187
100
AcDbEntity
8
1
62
256
6
ByLayer
370
18
48
1
60
0
100
AcDbSpline
70
4
71
3
72
12
73
8
40
0
40
0
40
0
40
0
40
0.249999999999994
40
0.249999999999994
40
0.499999999999989
40
0.499999999999989
40
1
40
1
40
1
40
1
41
1
10
63.3819605651277
20
0.0649221873980537
30
0
41
1
10
63.2951472550274
20
0.13452622475134
30
0
41
1
10
63.208891368295
20
0.204680762774871
30
0
41
1
10
63.037886403469
20
0.346779882481059
30
0
41
1
10
62.9530824957544
20
0.418653859603182
30
0
41
1
10
62.7010513833648
20
0.637439326797249
30
0
41
1
10
62.5362651205244
20
0.787602373822097
30
0
41
1
10
62.3746017772654
20
0.942809530070889
30
0
0
SPLINE
5
188
100
AcDbEntity
8
1
62
256
6
ByLayer
370
18
48
1
60
0
100
AcDbSpline
70
4
71
3
72
8
73
4
40
0
40
0
40
0
40
0
40
1
40
1
40
1
40
1
41
1
10
62.1795475494114
20
1.09764205972095
30
0
41
1
10
62.2451470363234
20
1.05192778032239
30
0
41
1
10
62.3100668352161
20
1.0001384684962
30
0
41
1
10
62.3746017772654
20
0.942809530070917
30
0
0
SPLINE
5
189
100
AcDbEntity
8
1
62
256
6
ByLayer
370
18
48
1
60
0
100
AcDbSpline
70
4
71
3
72
29
73
25
40
0
40
0
40
0
40
0
40
0.0625000000000143
40
0.0625000000000143
40
0.125000000000029
40
0.125000000000029
40
0.250000000000007
40
0.250000000000007
40
0.312500000000024
40
0.312500000000024
40
0.375000000000042
40
0.437500000000059
40
0.437500000000059
40
0.500000000000076
40
0.500000000000076
40
0.625000000000056
40
0.625000000000056
40
0.687500000000047
40
0.687500000000047
40
0.750000000000037
40
0.750000000000037
40
0.875000000000019
40
0.875000000000019
40
1
40
1
40
1
40
1
41
1
10
61.8006264226606
20
1.40952445706901
30
0
41
1
10
61.8065812020332
20
1.40276059077132
30
0
41
1
10
61.8131789154857
20
1.39570499664217
30
0
41
1
10
61.8274268857932
20
1.38113772923924
30
0
41
1
10
61.8351080810583
20
1.37359757470341
30
0
41
1
10
61.8593836194955
20
1.35053431725746
30
0
41
1
10
61.8765102864944
20
1.33520924246247
30
0
41
1
10
61.9031326800326
20
1.31216894444847
30
0
41
1
10
61.9121728686343
20
1.3044780813502
30
0
41
1
10
61.9301144670615
20
1.28942099449011
30
0
41
1
10
61.9480299600663
20
1.27459081034658
30
0
41
1
10
61.9658822377675
20
1.26014369780066
30
0
41
1
10
61.9836956246067
20
1.24586418472055
30
0
41
1
10
61.9926111779115
20
1.23878610202215
30
0
41
1
10
62.0190828599413
20
1.2179361896589
30
0
41
1
10
62.0362139114128
20
1.2046618758815
30
0
41
1
10
62.0611199509085
20
1.18554732748851
30
0
41
1
10
62.0692889976332
20
1.17931021793584
30
0
41
1
10
62.0853457224781
20
1.16710188360653
30
0
41
1
10
62.0932424068905
20
1.16112387298108
30
0
41
1
10
62.1161248759059
20
1.14387437936526
30
0
41
1
10
62.1304416035779
20
1.13318388040204
30
0
41
1
10
62.1569276642291
20
1.11371211390403
30
0
41
1
10
62.169163934071
20
1.10487808419592
30
0
41
1
10
62.1795475494114
20
1.09764205972095
30
0
0
SPLINE
5
18A
100
AcDbEntity
8
1
62
256
6
ByLayer
370
18
48
1
60
0
100
AcDbSpline
70
4
71
3
72
97
73
93
40
0
40
0
40
0
40
0
40
0.0312500000000126
40
0.0312500000000126
40
0.0625000000000253
40
0.0625000000000253
40
0.12500000000005
40
0.12500000000005
40
0.156250000000061
40
0.156250000000061
40
0.16406250000006
40
0.16406250000006
40
0.171875000000059
40
0.171875000000059
40
0.187500000000062
40
0.187500000000062
40
0.218750000000062
40
0.218750000000062
40
0.250000000000063
40
0.250000000000063
40
0.281250000000063
40
0.281250000000063
40
0.312500000000064
40
0.312500000000064
40
0.328125000000067
40
0.328125000000067
40
0.34375000000007
40
0.34375000000007
40
0.37500000000007
40
0.37500000000007
40
0.406250000000071
40
0.406250000000071
40
0.421875000000071
40
0.421875000000071
40
0.437500000000069
40
0.437500000000069
40
0.468750000000064
40
0.468750000000064
40
0.476562500000063
40
0.476562500000063
40
0.484375000000061
40
0.484375000000061
40
0.500000000000057
40
0.500000000000057
40
0.515625000000054
40
0.515625000000054
40
0.523437500000053
40
0.523437500000053
40
0.531250000000053
40
0.531250000000053
40
0.546875000000051
40
0.546875000000051
40
0.55468750000005
40
0.55468750000005
40
0.56250000000005
40
0.56250000000005
40
0.593750000000047
40
0.593750000000047
40
0.601562500000046
40
0.601562500000046
40
0.609375000000044
40
0.609375000000044
40
0.625000000000042
40
0.625000000000042
40
0.632812500000041
40
0.632812500000041
40
0.64062500000004
40
0.656250000000038
40
0.656250000000038
40
0.687500000000034
40
0.687500000000034
40
0.695312500000033
40
0.695312500000033
40
0.703125000000032
40
0.703125000000032
40
0.718750000000031
40
0.718750000000031
40
0.75000000000003
40
0.75000000000003
40
0.781250000000029
40
0.781250000000029
40
0.796875000000027
40
0.796875000000027
40
0.812500000000026
40
0.812500000000026
40
0.843750000000022
40
0.843750000000022
40
0.875000000000017
40
0.875000000000017
40
0.937500000000009
40
0.937500000000009
40
1
40
1
40
1
40
1
41
1
10
40.9374031612677
20
-0.127768783393179
30
0
41
1
10
40.8741191635878
20
-0.074989666886097
30
0
41
1
10
40.8098184883587
20
-0.023970798574851
30
0
41
1
10
40.6791609905989
20
0.0745468773862683
30
0
41
1
10
40.6127899972208
20
0.122022310918567
30
0
41
1
10
40.4101024724829
20
0.258423864559916
30
0
41
1
10
40.2702575043197
20
0.341398452380417
30
0
41
1
10
40.0510209952793
20
0.450275058074851
30
0
41
1
10
39.9763554510801
20
0.483956211500242
30
0
41
1
10
39.8806570394645
20
0.522199896745946
30
0
41
1
10
39.8613776704441
20
0.52966126643156
30
0
41
1
10
39.822757092674
20
0.544102960497952
30
0
41
1
10
39.8033985054979
20
0.551090736515988
30
0
41
1
10
39.7451714151502
20
0.571328012920844
30
0
41
1
10
39.706132793061
20
0.583763741961008
30
0
41
1
10
39.5886042974618
20
0.619092873841652
30
0
41
1
10
39.5096631822778
20
0.639827814797798
30
0
41
1
10
39.3509604925551
20
0.677397958451962
30
0
41
1
10
39.2712448400177
20
0.694444803723258
30
0
41
1
10
39.110862197503
20
0.724073485684357
30
0
41
1
10
39.0302134655659
20
0.73674059605122
30
0
41
1
10
38.8679274732282
20
0.75747858645002
30
0
41
1
10
38.7862910481073
20
0.765553394100408
30
0
41
1
10
38.662998727729
20
0.773794529511832
30
0
41
1
10
38.6217420853879
20
0.77589209950267
30
0
41
1
10
38.539444011772
20
0.778674583808254
30
0
41
1
10
38.498341215781
20
0.779373331929889
30
0
41
1
10
38.3751787078155
20
0.779286158429869
30
0
41
1
10
38.2932649563309
20
0.776316730816973
30
0
41
1
10
38.1298787837772
20
0.763758231161887
30
0
41
1
10
38.0484084648984
20
0.754138410414527
30
0
41
1
10
37.9265956164501
20
0.733776334466711
30
0
41
1
10
37.8859565939159
20
0.725962924106625
30
0
41
1
10
37.8054528793855
20
0.708175129864316
30
0
41
1
10
37.7655786315829
20
0.698221392465825
30
0
41
1
10
37.6472058829082
20
0.664830973448801
30
0
41
1
10
37.56993205553
20
0.637940658643259
30
0
41
1
10
37.4760052535881
20
0.596697016688324
30
0
41
1
10
37.4573542783873
20
0.588063264887182
30
0
41
1
10
37.420340824279
20
0.569965610397418
30
0
41
1
10
37.4019376132809
20
0.560478789309684
30
0
41
1
10
37.3475866847612
20
0.530870205009279
30
0
41
1
10
37.3124673418803
20
0.509607268850317
30
0
41
1
10
37.2447948256851
20
0.463548268186372
30
0
41
1
10
37.212216673464
20
0.43878588223626
30
0
41
1
10
37.1655152614318
20
0.398634953706193
30
0
41
1
10
37.1503100122931
20
0.384748742189657
30
0
41
1
10
37.1206836414605
20
0.355882827657808
30
0
41
1
10
37.1062771897685
20
0.340908328933267
30
0
41
1
10
37.0649256710979
20
0.294901397955215
30
0
41
1
10
37.0396325324749
20
0.262588138504185
30
0
41
1
10
37.0053239986757
20
0.211480392636247
30
0
41
1
10
36.9944938092733
20
0.194004236355539
30
0
41
1
10
36.9740928225843
20
0.158134077052011
30
0
41
1
10
36.9645011038897
20
0.139695371536533
30
0
41
1
10
36.9200589019539
20
0.0455849607343168
30
0
41
1
10
36.8967866494728
20
-0.0331875662608638
30
0
41
1
10
36.8816436798102
20
-0.135605530696552
30
0
41
1
10
36.879316408399
20
-0.156350099772112
30
0
41
1
10
36.8760745243664
20
-0.197647781381022
30
0
41
1
10
36.8751471267233
20
-0.218257448227575
30
0
41
1
10
36.8742862838232
20
-0.279973561794293
30
0
41
1
10
36.8762685405711
20
-0.320967306249031
30
0
41
1
10
36.8825599732089
20
-0.382247093527269
30
0
41
1
10
36.8852145074853
20
-0.402656690357418
30
0
41
1
10
36.89155042648
20
-0.443331061407434
30
0
41
1
10
36.9025304328536
20
-0.503744181487264
30
0
41
1
10
36.9174879064077
20
-0.562522143742314
30
0
41
1
10
36.9518355070986
20
-0.678208487505401
30
0
41
1
10
36.9805548667419
20
-0.752869829658636
30
0
41
1
10
37.0217998314879
20
-0.843800597716381
30
0
41
1
10
37.0303342023519
20
-0.86189207743115
30
0
41
1
10
37.0478179407724
20
-0.897651983226496
30
0
41
1
10
37.0567558013495
20
-0.915343099415594
30
0
41
1
10
37.0841637239971
20
-0.967855459946861
30
0
41
1
10
37.1032439191343
20
-1.00210627383871
30
0
41
1
10
37.1629680814303
20
-1.10262390665551
30
0
41
1
10
37.2061178630546
20
-1.16664695217813
30
0
41
1
10
37.2982050034765
20
-1.28955909793996
30
0
41
1
10
37.3472114077387
20
-1.34841122457567
30
0
41
1
10
37.4235486743826
20
-1.43386717989819
30
0
41
1
10
37.4494785794967
20
-1.46188844312749
30
0
41
1
10
37.5017682462821
20
-1.51671837903757
30
0
41
1
10
37.5281743941494
20
-1.54357934432812
30
0
41
1
10
37.6080194097372
20
-1.62268637344519
30
0
41
1
10
37.6620774080097
20
-1.67346604367654
30
0
41
1
10
37.7712769262999
20
-1.77177178354447
30
0
41
1
10
37.8264224965157
20
-1.81929303272142
30
0
41
1
10
37.9929425998914
20
-1.95756563336232
30
0
41
1
10
38.1053653633945
20
-2.04407393225637
30
0
41
1
10
38.3313817548151
20
-2.20722061265886
30
0
41
1
10
38.4449845754725
20
-2.28383866583201
30
0
41
1
10
38.5589871347294
20
-2.35548450104255
30
0
0
SPLINE
5
18B
100
AcDbEntity
8
1
62
256
6
ByLayer
370
18
48
1
60
0
100
AcDbSpline
70
4
71
3
72
34
73
30
40
0
40
0
40
0
40
0
40
0.0199458778034128
40
0.0199458778034128
40
0.0848426871827338
40
0.0848426871827338
40
0.149739496562055
40
0.149739496562055
40
0.279533115320698
40
0.279533115320698
40
0.344429924700018
40
0.344429924700018
40
0.40932673407934
40
0.40932673407934
40
0.474223543458661
40
0.474223543458661
40
0.539120352837982
40
0.539120352837982
40
0.668913971596626
40
0.668913971596626
40
0.79870759035527
40
0.79870759035527
40
0.863604399734592
40
0.863604399734592
40
0.928501209113914
40
0.928501209113914
40
0.993398018493236
40
0.993398018493236
40
1
40
1
40
1
40
1
41
1
10
40.7127096007707
20
0.0520953966330922
30
0
41
1
10
40.698049494642
20
0.0578516788751813
30
0
41
1
10
40.6830142099896
20
0.0628972267577979
30
0
41
1
10
40.6175358955358
20
0.0811850245898995
30
0
41
1
10
40.5626339062754
20
0.0875077890800355
30
0
41
1
10
40.4468127263837
20
0.0803506661598021
30
0
41
1
10
40.3869388821958
20
0.069547723050448
30
0
41
1
10
40.2044821413894
20
0.0267058963195836
30
0
41
1
10
40.0765390699133
20
-0.0211802092487119
30
0
41
1
10
39.8853609657007
20
-0.121800983833225
30
0
41
1
10
39.8214581280149
20
-0.160201029095873
30
0
41
1
10
39.6932626906243
20
-0.247714518001004
30
0
41
1
10
39.6290662549808
20
-0.296893506690623
30
0
41
1
10
39.5050131274
20
-0.403010019787359
30
0
41
1
10
39.444561619554
20
-0.460326697479331
30
0
41
1
10
39.3269057637312
20
-0.583739280226865
30
0
41
1
10
39.2691986935859
20
-0.650506849791611
30
0
41
1
10
39.1052228587988
20
-0.859778716012073
30
0
41
1
10
39.0085090503076
20
-1.0100256083814
30
0
41
1
10
38.8395006516536
20
-1.32357821801119
30
0
41
1
10
38.769736778423
20
-1.48173436136335
30
0
41
1
10
38.6819004277666
20
-1.72054210600203
30
0
41
1
10
38.6553952814475
20
-1.80075634914419
30
0
41
1
10
38.6079924404658
20
-1.95957530728569
30
0
41
1
10
38.5863729380482
20
-2.03840340820941
30
0
41
1
10
38.5615690585887
20
-2.19091157893681
30
0
41
1
10
38.556600763785
20
-2.26563314271041
30
0
41
1
10
38.5584481888709
20
-2.34159938147047
30
0
41
1
10
38.558684921555
20
-2.34856575705746
30
0
41
1
10
38.5589871347278
20
-2.35548450100848
30
0
0
SPLINE
5
18C
100
AcDbEntity
8
SK1
62
256
6
ByLayer
370
18
48
1
60
0
100
AcDbSpline
70
4
71
3
72
25
73
21
40
0
40
0
40
0
40
0
40
0.125067071228876
40
0.125067071228876
40
0.187600606843314
40
0.187600606843314
40
0.250134142457752
40
0.250134142457752
40
0.375201213686628
40
0.375201213686628
40
0.500268284915504
40
0.625335356144381
40
0.625335356144381
40
0.687868891758819
40
0.687868891758819
40
0.750402427373257
40
0.750402427373257
40
0.875469498602134
40
0.875469498602134
40
1
40
1
40
1
40
1
41
1
10
-23.4500000000001
20
3.02499999999998
30
0
41
1
10
-23.5074802369517
20
3.02499999999998
30
0
41
1
10
-23.563618367439
20
3.02499999999998
30
0
41
1
10
-23.6453496028415
20
3.02499999999998
30
0
41
1
10
-23.672203368939
20
3.02499999999998
30
0
41
1
10
-23.7248577335834
20
3.02499999999998
30
0
41
1
10
-23.7506505185036
20
3.02499999999998
30
0
41
1
10
-23.8262698112998
20
3.02499999999998
30
0
41
1
10
-23.8743434204951
20
3.02499999999998
30
0
41
1
10
-23.9648434087796
20
3.02499999999998
30
0
41
1
10
-24.0496975587445
20
3.02499999999998
30
0
41
1
10
-24.1209081515016
20
3.02499999999998
30
0
41
1
10
-24.1681450988509
20
3.02499999999998
30
0
41
1
10
-24.1828603997798
20
3.02499999999998
30
0
41
1
10
-24.2100328109391
20
3.02499999999998
30
0
41
1
10
-24.222500417408
20
3.02499999999998
30
0
41
1
10
-24.2561328365472
20
3.02499999999998
30
0
41
1
10
-24.2732420010248
20
3.02499999999998
30
0
41
1
10
-24.2961130101932
20
3.02499999999998
30
0
41
1
10
-24.3019209147998
20
3.02499999999998
30
0
41
1
10
-24.3019599999991
20
3.02499999999998
30
0
0
SPLINE
5
18D
100
AcDbEntity
8
SK1
62
256
6
ByLayer
370
18
48
1
60
0
100
AcDbSpline
70
4
71
3
72
25
73
21
40
0
40
0
40
0
40
0
40
0.124530509010638
40
0.124530509010638
40
0.249597579151975
40
0.249597579151975
40
0.312131114222644
40
0.312131114222644
40
0.374664649293313
40
0.374664649293313
40
0.49973171943465
40
0.624798789575988
40
0.624798789575988
40
0.749865859717326
40
0.749865859717326
40
0.812399394787994
40
0.812399394787994
40
0.874932929858663
40
0.874932929858663
40
1
40
1
40
1
40
1
41
1
10
-24.3019600000073
20
-3.02500000000001
30
0
41
1
10
-24.3019209156109
20
-3.02500000000001
30
0
41
1
10
-24.29611301099
20
-3.02500000000006
30
0
41
1
10
-24.2732420010248
20
-3.02500000000003
30
0
41
1
10
-24.2561328365472
20
-3.02500000000003
30
0
41
1
10
-24.222500417408
20
-3.02500000000003
30
0
41
1
10
-24.2100328109391
20
-3.02500000000003
30
0
41
1
10
-24.1828603997798
20
-3.02500000000003
30
0
41
1
10
-24.1681450988509
20
-3.02500000000003
30
0
41
1
10
-24.1209081515016
20
-3.02500000000003
30
0
41
1
10
-24.0496975587445
20
-3.02500000000003
30
0
41
1
10
-23.9648434087796
20
-3.02500000000003
30
0
41
1
10
-23.874343420495
20
-3.02500000000003
30
0
41
1
10
-23.8262698112998
20
-3.02500000000003
30
0
41
1
10
-23.7506505185036
20
-3.02500000000003
30
0
41
1
10
-23.7248577335834
20
-3.02500000000003
30
0
41
1
10
-23.672203368939
20
-3.02500000000003
30
0
41
1
10
-23.6453496028415
20
-3.02500000000003
30
0
41
1
10
-23.563618367439
20
-3.02500000000003
30
0
41
1
10
-23.5074802369517
20
-3.02500000000003
30
0
41
1
10
-23.45
20
-3.02500000000003
30
0
0
SPLINE
5
18E
100
AcDbEntity
8
SK1
62
256
6
ByLayer
370
18
48
1
60
0
100
AcDbSpline
70
4
71
3
72
44
73
40
40
0
40
0
40
0
40
0
40
0.0624999999999999
40
0.0624999999999999
40
0.125
40
0.125
40
0.15625
40
0.15625
40
0.1875
40
0.1875
40
0.25
40
0.25
40
0.375
40
0.375
40
0.40625
40
0.40625
40
0.421875
40
0.421875
40
0.437499999999999
40
0.437499999999999
40
0.5
40
0.5625
40
0.5625
40
0.625
40
0.625
40
0.65625
40
0.65625
40
0.6875
40
0.6875
40
0.75
40
0.8125
40
0.8125
40
0.875
40
0.875
40
0.90625
40
0.90625
40
0.9375
40
0.9375
40
1
40
1
40
1
40
1
41
1
10
-23.4500000000001
20
-2.42491109973139
30
0
41
1
10
-23.5071573980625
20
-2.33352756570559
30
0
41
1
10
-23.5629683498709
20
-2.24116665688408
30
0
41
1
10
-23.6712899833967
20
-2.05404919901645
30
0
41
1
10
-23.7238025944584
20
-1.9592940504663
30
0
41
1
10
-23.7995052164022
20
-1.8149355283586
30
0
41
1
10
-23.82422676175
20
-1.76644388368075
30
0
41
1
10
-23.8725229031571
20
-1.66862803281498
30
0
41
1
10
-23.8960537133059
20
-1.61938810198265
30
0
41
1
10
-23.9643638771543
20
-1.47109727497516
30
0
41
1
10
-24.0069637800502
20
-1.37128188593556
30
0
41
1
10
-24.1242300553216
20
-1.06841496591713
30
0
41
1
10
-24.1884377154215
20
-0.861966947873981
30
0
41
1
10
-24.2442506345047
20
-0.595967826430581
30
0
41
1
10
-24.2541852871314
20
-0.542369229110136
30
0
41
1
10
-24.267101216653
20
-0.461326359734926
30
0
41
1
10
-24.271080110494
20
-0.434168843470644
30
0
41
1
10
-24.2783288084576
20
-0.379806302736256
30
0
41
1
10
-24.2815946585719
20
-0.352638580224948
30
0
41
1
10
-24.2961194713312
20
-0.216868158297842
30
0
41
1
10
-24.3077795437009
20
-7.30832911415E-05
30
0
41
1
10
-24.2961621769114
20
0.215842325363468
30
0
41
1
10
-24.2732420010248
20
0.431330595071302
30
0
41
1
10
-24.2561328365472
20
0.538861248428674
30
0
41
1
10
-24.222500417408
20
0.699856088251096
30
0
41
1
10
-24.2100328109391
20
0.753133927007639
30
0
41
1
10
-24.1828603997798
20
0.858683822025057
30
0
41
1
10
-24.1681450988509
20
0.911006780527543
30
0
41
1
10
-24.1209081515016
20
1.06673827766744
30
0
41
1
10
-24.0496975587445
20
1.27108651848636
30
0
41
1
10
-23.9648434087796
20
1.46997309668484
30
0
41
1
10
-23.874343420495
20
1.66659958511042
30
0
41
1
10
-23.8262698112998
20
1.76378250586328
30
0
41
1
10
-23.7506505185036
20
1.9081522450065
30
0
41
1
10
-23.7248577335834
20
1.95604076758281
30
0
41
1
10
-23.672203368939
20
2.05138996268553
30
0
41
1
10
-23.6453496028415
20
2.09883419978092
30
0
41
1
10
-23.563618367439
20
2.24009258071769
30
0
41
1
10
-23.5074802369517
20
2.33301140927378
30
0
41
1
10
-23.45
20
2.42491109973125
30
0
0
SPLINE
5
18F
100
AcDbEntity
8
1
62
256
6
ByLayer
370
18
48
1
60
0
100
AcDbSpline
70
4
71
2
72
6
73
3
40
0
40
0
40
0
40
1
40
1
40
1
41
1
10
65.3499999999999
20
3.14514879992853
30
0
41
1
10
65.2521334183754
20
3.11696824823301
30
0
41
1
10
65.1524074448037
20
3.09841722998772
30
0
0
SPLINE
5
190
100
AcDbEntity
8
1
62
256
6
ByLayer
370
18
48
1
60
0
100
AcDbSpline
70
4
71
2
72
6
73
3
40
0
40
0
40
0
40
1
40
1
40
1
41
1
10
62.5810369338201
20
-3.20501776810445
30
0
41
1
10
62.6070931008932
20
-3.24977231980279
30
0
41
1
10
62.633134522613
20
-3.29454451128126
30
0
0
SPLINE
5
191
100
AcDbEntity
8
1
62
256
6
ByLayer
370
18
48
1
60
0
100
AcDbSpline
70
4
71
3
72
11
73
7
40
0
40
0
40
0
40
0
40
0.128965220384639
40
0.414872618522577
40
0.743349535025445
40
1
40
1
40
1
40
1
41
1
10
62.6950327708563
20
-3.33760545017509
30
0
41
1
10
62.7475993580285
20
-3.31229353346816
30
0
41
1
10
62.9179591400417
20
-3.233875105024
30
0
41
1
10
63.2314819569309
20
-3.11280232368932
30
0
41
1
10
63.6088142115492
20
-2.99575018415132
30
0
41
1
10
63.8695543344055
20
-2.95226218813838
30
0
41
1
10
63.985256516669
20
-2.93861589089877
30
0
0
SPLINE
5
192
100
AcDbEntity
8
1
62
256
6
ByLayer
370
18
48
1
60
0
100
AcDbSpline
70
4
71
2
72
6
73
3
40
0
40
0
40
0
40
1
40
1
40
1
41
1
10
57.5818838430725
20
3.1514839980691
30
0
41
1
10
57.5752962587682
20
3.14898512132345
30
0
41
1
10
57.5679259113008
20
3.14660078147003
30
0
0
SPLINE
5
193
100
AcDbEntity
8
1
62
256
6
ByLayer
370
18
48
1
60
0
100
AcDbSpline
70
4
71
2
72
6
73
3
40
0
40
0
40
0
40
1
40
1
40
1
41
1
10
56.2420522954395
20
-3.88539219466708
30
0
41
1
10
56.4415374009388
20
-3.54252658311435
30
0
41
1
10
56.6412056238983
20
-3.20073307537854
30
0
0
SPLINE
5
194
100
AcDbEntity
8
1
62
256
6
ByLayer
370
18
48
1
60
0
100
AcDbSpline
70
4
71
2
72
6
73
3
40
0
40
0
40
0
40
1
40
1
40
1
41
1
10
55.5279526746615
20
-3.20904740129802
30
0
41
1
10
55.718154996784
20
-3.53582718687196
30
0
41
1
10
55.907885792387
20
-3.86289235089001
30
0
0
SPLINE
5
195
100
AcDbEntity
8
1
62
256
6
ByLayer
370
18
48
1
60
0
100
AcDbSpline
70
4
71
2
72
6
73
3
40
0
40
0
40
0
40
1
40
1
40
1
41
1
10
58.1130965473511
20
4.01516934503221
30
0
41
1
10
57.8802083546364
20
3.61368052629518
30
0
41
1
10
57.6467574569263
20
3.21247375692337
30
0
0
SPLINE
5
196
100
AcDbEntity
8
1
62
256
6
ByLayer
370
18
48
1
60
0
100
AcDbSpline
70
4
71
3
72
11
73
7
40
0
40
0
40
0
40
0
40
0.268001024105419
40
0.528384378909379
40
0.773758845553399
40
1
40
1
40
1
40
1
41
1
10
55.2258721949045
20
-3.20925690626072
30
0
41
1
10
55.2397518527689
20
-3.18379759454916
30
0
41
1
10
55.2786163472657
20
-3.14754381235895
30
0
41
1
10
55.3894547023872
20
-3.11870564105686
30
0
41
1
10
55.4862938515535
20
-3.15726970742134
30
0
41
1
10
55.5184360374721
20
-3.19038683225014
30
0
41
1
10
55.528896857126
20
-3.21064113922034
30
0
0
SPLINE
5
197
100
AcDbEntity
8
1
62
256
6
ByLayer
370
18
48
1
60
0
100
AcDbSpline
70
4
71
2
72
6
73
3
40
0
40
0
40
0
40
1
40
1
40
1
41
1
10
58.7497070912066
20
3.21572691955075
30
0
41
1
10
58.5171247402073
20
3.61529673172976
30
0
41
1
10
58.2848266325021
20
4.01571780485818
30
0
0
SPLINE
5
198
100
AcDbEntity
8
1
62
256
6
ByLayer
370
18
48
1
60
0
100
AcDbSpline
70
4
71
3
72
11
73
7
40
0
40
0
40
0
40
0
40
0.217032987648711
40
0.457929343841044
40
0.721564554713202
40
1
40
1
40
1
40
1
41
1
10
59.0536631067185
20
3.20561036926682
30
0
41
1
10
59.0461156855994
20
3.19021945155362
30
0
41
1
10
59.0192940343074
20
3.16349305496172
30
0
41
1
10
58.9322068469923
20
3.12121940460483
30
0
41
1
10
58.813929962162
20
3.14198701528167
30
0
41
1
10
58.7709941714129
20
3.1800702174007
30
0
41
1
10
58.7543271875731
20
3.20811883386151
30
0
0
SPLINE
5
199
100
AcDbEntity
8
1
62
256
6
ByLayer
370
18
48
1
60
0
100
AcDbSpline
70
4
71
3
72
11
73
7
40
0
40
0
40
0
40
0
40
0.215915527643004
40
0.457101068041579
40
0.721345456627141
40
1
40
1
40
1
40
1
41
1
10
62.2822249190769
20
-3.20785615568226
30
0
41
1
10
62.2900482743215
20
-3.19169196673971
30
0
41
1
10
62.3173249781708
20
-3.16355544388651
30
0
41
1
10
62.4047244643706
20
-3.1204862067714
30
0
41
1
10
62.5232512835001
20
-3.14136070494382
30
0
41
1
10
62.5664933941595
20
-3.18038268825168
30
0
41
1
10
62.583317505701
20
-3.20910705111041
30
0
0
SPLINE
5
19A
100
AcDbEntity
8
1
62
256
6
ByLayer
370
18
48
1
60
0
100
AcDbSpline
70
4
71
2
72
6
73
3
40
0
40
0
40
0
40
1
40
1
40
1
41
1
10
54.9225249957873
20
-3.73007382506168
30
0
41
1
10
55.075250709547
20
-3.46727302014659
30
0
41
1
10
55.2283433680069
20
-3.2048072363649
30
0
0
SPLINE
5
19B
100
AcDbEntity
8
1
62
256
6
ByLayer
370
18
48
1
60
0
100
AcDbSpline
70
4
71
2
72
6
73
3
40
0
40
0
40
0
40
1
40
1
40
1
41
1
10
61.9851523738287
20
-3.7165920513392
30
0
41
1
10
62.1287406382451
20
-3.46924379593349
30
0
41
1
10
62.272408269281
20
-3.22214887873881
30
0
0
SPLINE
5
19C
100
AcDbEntity
8
1
62
256
6
ByLayer
370
18
48
1
60
0
100
AcDbSpline
70
4
71
2
72
6
73
3
40
0
40
0
40
0
40
1
40
1
40
1
41
1
10
54.1170709506892
20
-3.20938245446788
30
0
41
1
10
54.248888285761
20
-3.435856413822
30
0
41
1
10
54.3802253581482
20
-3.66190036328743
30
0
0
SPLINE
5
19D
100
AcDbEntity
8
1
62
256
6
ByLayer
370
18
48
1
60
0
100
AcDbSpline
70
4
71
3
72
10
73
6
40
0
40
0
40
0
40
0
40
0.205989929653319
40
0.608296477329251
40
1
40
1
40
1
40
1
41
1
10
53.9616686503833
20
-3.13345910626342
30
0
41
1
10
53.976370234576
20
-3.13127708855896
30
0
41
1
10
54.0173271280223
20
-3.12935156301927
30
0
41
1
10
54.0792216405302
20
-3.16162588550424
30
0
41
1
10
54.1058250916207
20
-3.18881855674101
30
0
41
1
10
54.114847069481
20
-3.2054924523579
30
0
0
SPLINE
5
19E
100
AcDbEntity
8
1
62
256
6
ByLayer
370
18
48
1
60
0
100
AcDbSpline
70
4
71
2
72
6
73
3
40
0
40
0
40
0
40
1
40
1
40
1
41
1
10
59.5259806010757
20
4.0189828023702
30
0
41
1
10
59.294090868113
20
3.61872790864825
30
0
41
1
10
59.0619874559747
20
3.21907088929626
30
0
0
SPLINE
5
19F
100
AcDbEntity
8
1
62
256
6
ByLayer
370
18
48
1
60
0
100
AcDbSpline
70
4
71
2
72
6
73
3
40
0
40
0
40
0
40
1
40
1
40
1
41
1
10
60.1619747313772
20
3.21289836985369
30
0
41
1
10
59.9287464280197
20
3.61323535346327
30
0
41
1
10
59.6960016930577
20
4.014330955182
30
0
0
SPLINE
5
1A0
100
AcDbEntity
8
1
62
256
6
ByLayer
370
18
48
1
60
0
100
AcDbSpline
70
4
71
2
72
6
73
3
40
0
40
0
40
0
40
1
40
1
40
1
41
1
10
60.2004335191552
20
3.16845104154578
30
0
41
1
10
60.1927286250838
20
3.17411666270954
30
0
41
1
10
60.1878387629251
20
3.1770566854708
30
0
0
SPLINE
5
1A1
100
AcDbEntity
8
1
62
256
6
ByLayer
370
18
48
1
60
0
100
AcDbSpline
70
4
71
1
72
4
73
2
40
0
40
0
40
1
40
1
41
1
10
60.180249477806
20
3.18020518827168
30
0
41
1
10
60.1773491076844
20
3.18140842958627
30
0
0
SPLINE
5
1A2
100
AcDbEntity
8
1
62
256
6
ByLayer
370
18
48
1
60
0
100
AcDbSpline
70
4
71
2
72
6
73
3
40
0
40
0
40
0
40
1
40
1
40
1
41
1
10
61.1708113133812
20
-3.20717551350853
30
0
41
1
10
61.3769540515064
20
-3.5611599324869
30
0
41
1
10
61.5829241475379
20
-3.91597806667281
30
0
0
SPLINE
5
1A3
100
AcDbEntity
8
1
62
256
6
ByLayer
370
18
48
1
60
0
100
AcDbSpline
70
4
71
2
72
6
73
3
40
0
40
0
40
0
40
1
40
1
40
1
41
1
10
61.6044973788126
20
-3.92888964293039
30
0
41
1
10
61.8072347573888
20
-3.80446026541168
30
0
41
1
10
62.01125543363
20
-3.69070444681387
30
0
0
LINE
5
82
100
AcDbEntity
8
81
62
256
6
ByLayer
370
18
48
1
60
0
100
AcDbLine
10
65.35
20
0
30
0
11
70.35
21
0
31
0
39
0
210
0
220
0
230
1
0
LINE
5
83
100
AcDbEntity
8
SK4
62
256
6
ByLayer
370
18
48
0.05
60
0
100
AcDbLine
10
-29.65
20
0
30
0
11
70.35
21
0
31
0
39
0
210
0
220
0
230
1
0
LINE
5
85
100
AcDbEntity
8
80
62
256
6
ByLayer
370
18
48
1
60
0
100
AcDbLine
10
0
20
0
30
0
11
-5
21
0
31
0
39
0
210
0
220
0
230
1
0
LINE
5
86
100
AcDbEntity
8
4
62
256
6
ByLayer
370
18
48
0.05
60
0
100
AcDbLine
10
-5
20
0
30
0
11
70.35
21
0
31
0
39
0
210
0
220
0
230
1
0
LINE
5
88
100
AcDbEntity
8
1
62
256
6
ByLayer
370
18
48
1
60
0
100
AcDbLine
10
0
20
4.0385
30
0
11
0
21
-4.0385
31
0
39
0
210
0
220
0
230
1
0
LINE
5
89
100
AcDbEntity
8
1
62
256
6
ByLayer
370
18
48
1
60
0
100
AcDbLine
10
65.55
20
2.95
30
0
11
65.55
21
2.947457
31
0
39
0
210
0
220
0
230
1
0
LINE
5
8A
100
AcDbEntity
8
1
62
256
6
ByLayer
370
18
48
1
60
0
100
AcDbLine
10
65.35
20
3.145154
30
0
11
65.35
21
3.149948
31
0
39
0
210
0
220
0
230
1
0
LINE
5
8B
100
AcDbEntity
8
1
62
256
6
ByLayer
370
18
48
1
60
0
100
AcDbLine
10
56.205755
20
-3.923167
30
0
11
56.20973
21
-3.924447
31
0
39
0
210
0
220
0
230
1
0
LINE
5
8C
100
AcDbEntity
8
1
62
256
6
ByLayer
370
18
48
1
60
0
100
AcDbLine
10
55.527972
20
-3.209081
30
0
11
55.53027
21
-3.212859
31
0
39
0
210
0
220
0
230
1
0
LINE
5
8D
100
AcDbEntity
8
1
62
256
6
ByLayer
370
18
48
1
60
0
100
AcDbLine
10
58.749618
20
3.21586
30
0
11
58.752991
21
3.210461
31
0
39
0
210
0
220
0
230
1
0
LINE
5
8E
100
AcDbEntity
8
1
62
256
6
ByLayer
370
18
48
1
60
0
100
AcDbLine
10
55.225214
20
-3.210376
30
0
11
55.228324
21
-3.204843
31
0
39
0
210
0
220
0
230
1
0
LINE
5
8F
100
AcDbEntity
8
1
62
256
6
ByLayer
370
13
48
1
60
0
100
AcDbLine
10
52.626928
20
3.094297
30
0
11
52.626928
21
2.437978
31
0
39
0
210
0
220
0
230
1
0
LINE
5
90
100
AcDbEntity
8
1
62
256
6
ByLayer
370
18
48
1
60
0
100
AcDbLine
10
53.35
20
-2.481041
30
0
11
53.35
21
-3.48449
31
0
39
0
210
0
220
0
230
1
0
LINE
5
91
100
AcDbEntity
8
1
62
256
6
ByLayer
370
13
48
1
60
0
100
AcDbLine
10
52.626928
20
-1.77098
30
0
11
52.626928
21
-2.884312
31
0
39
0
210
0
220
0
230
1
0
LINE
5
92
100
AcDbEntity
8
1
62
256
6
ByLayer
370
13
48
1
60
0
100
AcDbLine
10
52.076928
20
-2.533806
30
0
11
52.076928
21
-1.314065
31
0
39
0
210
0
220
0
230
1
0
LINE
5
93
100
AcDbEntity
8
1
62
256
6
ByLayer
370
13
48
1
60
0
100
AcDbLine
10
52.076928
20
2.588214
30
0
11
52.076928
21
2.9577
31
0
39
0
210
0
220
0
230
1
0
LINE
5
94
100
AcDbEntity
8
1
62
256
6
ByLayer
370
13
48
1
60
0
100
AcDbLine
10
31.946238
20
-2.9577
30
0
11
31.946238
21
2.9577
31
0
39
0
210
0
220
0
230
1
0
LINE
5
95
100
AcDbEntity
8
1
62
256
6
ByLayer
370
18
48
1
60
0
100
AcDbLine
10
65.55
20
0.037429
30
0
11
65.55
21
-1.579779
31
0
39
0
210
0
220
0
230
1
0
LINE
5
96
100
AcDbEntity
8
1
62
256
6
ByLayer
370
13
48
1
60
0
100
AcDbLine
10
31.755225
20
2.974411
30
0
11
31.755225
21
-2.974411
31
0
39
0
210
0
220
0
230
1
0
LINE
5
97
100
AcDbEntity
8
1
62
256
6
ByLayer
370
18
48
1
60
0
100
AcDbLine
10
25.720479
20
4.0385
30
0
11
25.720479
21
-4.0385
31
0
39
0
210
0
220
0
230
1
0
LINE
5
98
100
AcDbEntity
8
SK1
62
256
6
ByLayer
370
18
48
1
60
0
100
AcDbLine
10
-24.65
20
2.67696
30
0
11
-24.65
21
-2.67696
31
0
39
0
210
0
220
0
230
1
0
LINE
5
9A
100
AcDbEntity
8
SK1
62
256
6
ByLayer
370
18
48
1
60
0
100
AcDbLine
10
-15
20
2.424911
30
0
11
-15
21
-2.424911
31
0
39
0
210
0
220
0
230
1
0
LINE
5
9B
100
AcDbEntity
8
SK1
62
256
6
ByLayer
370
18
48
1
60
0
100
AcDbLine
10
-14.14804
20
3.87696
30
0
11
-15
21
3.025
31
0
39
0
210
0
220
0
230
1
0
LINE
5
9C
100
AcDbEntity
8
SK1
62
256
6
ByLayer
370
18
48
1
60
0
100
AcDbLine
10
-23.45
20
3.025
30
0
11
-15
21
3.025
31
0
39
0
210
0
220
0
230
1
0
LINE
5
9D
100
AcDbEntity
8
SK1
62
256
6
ByLayer
370
18
48
1
60
0
100
AcDbLine
10
-23.45
20
2.424911
30
0
11
-23.45
21
3.025
31
0
39
0
210
0
220
0
230
1
0
LINE
5
9E
100
AcDbEntity
8
SK1
62
256
6
ByLayer
370
18
48
1
60
0
100
AcDbLine
10
-15
20
2.424911
30
0
11
-23.45
21
2.424911
31
0
39
0
210
0
220
0
230
1
0
LINE
5
9F
100
AcDbEntity
8
SK1
62
256
6
ByLayer
370
18
48
1
60
0
100
AcDbLine
10
-23.45
20
-2.424911
30
0
11
-15
21
-2.424911
31
0
39
0
210
0
220
0
230
1
0
LINE
5
A0
100
AcDbEntity
8
SK1
62
256
6
ByLayer
370
18
48
1
60
0
100
AcDbLine
10
-23.45
20
-3.025
30
0
11
-23.45
21
-2.424911
31
0
39
0
210
0
220
0
230
1
0
LINE
5
A1
100
AcDbEntity
8
SK1
62
256
6
ByLayer
370
18
48
1
60
0
100
AcDbLine
10
-15
20
-3.025
30
0
11
-23.45
21
-3.025
31
0
39
0
210
0
220
0
230
1
0
LINE
5
A2
100
AcDbEntity
8
SK1
62
256
6
ByLayer
370
18
48
1
60
0
100
AcDbLine
10
-15
20
-3.025
30
0
11
-14.14804
21
-3.87696
31
0
39
0
210
0
220
0
230
1
0
LINE
5
A3
100
AcDbEntity
8
SK1
62
256
6
ByLayer
370
18
48
1
60
0
100
AcDbLine
10
-14.035
20
3.87696
30
0
11
-14.035
21
-3.87696
31
0
39
0
210
0
220
0
230
1
0
LINE
5
A4
100
AcDbEntity
8
SK1
62
256
6
ByLayer
370
18
48
1
60
0
100
AcDbLine
10
0
20
4.0385
30
0
11
0
21
-4.0385
31
0
39
0
210
0
220
0
230
1
0
LINE
5
A5
100
AcDbEntity
8
SK1
62
256
6
ByLayer
370
18
48
1
60
0
100
AcDbLine
10
-13.87346
20
-4.0385
30
0
11
-13.87346
21
4.0385
31
0
39
0
210
0
220
0
230
1
0
LINE
5
A6
100
AcDbEntity
8
1
62
256
6
ByLayer
370
18
48
1
60
0
100
AcDbLine
10
25.720479
20
4.0385
30
0
11
0
21
4.0385
31
0
39
0
210
0
220
0
230
1
0
LINE
5
A7
100
AcDbEntity
8
1
62
256
6
ByLayer
370
18
48
1
60
0
100
AcDbLine
10
0
20
-4.0385
30
0
11
25.720479
21
-4.0385
31
0
39
0
210
0
220
0
230
1
0
LINE
5
A8
100
AcDbEntity
8
1
62
256
6
ByLayer
370
18
48
1
60
0
100
AcDbLine
10
65.55
20
2.95
30
0
11
65.354298
21
3.145702
31
0
39
0
210
0
220
0
230
1
0
LINE
5
A9
100
AcDbEntity
8
1
62
256
6
ByLayer
370
18
48
1
60
0
100
AcDbLine
10
55.928504
20
-3.884923
30
0
11
56.209556
21
-3.924422
31
0
39
0
210
0
220
0
230
1
0
LINE
5
AA
100
AcDbEntity
8
1
62
256
6
ByLayer
370
18
48
1
60
0
100
AcDbLine
10
58.268907
20
4.024486
30
0
11
58.129529
21
4.024486
31
0
39
0
210
0
220
0
230
1
0
LINE
5
AB
100
AcDbEntity
8
1
62
256
6
ByLayer
370
18
48
1
60
0
100
AcDbLine
10
54.395444
20
-3.669465
30
0
11
54.902772
21
-3.740766
31
0
39
0
210
0
220
0
230
1
0
LINE
5
AC
100
AcDbEntity
8
1
62
256
6
ByLayer
370
18
48
1
60
0
100
AcDbLine
10
59.679777
20
4.024486
30
0
11
59.539409
21
4.024486
31
0
39
0
210
0
220
0
230
1
0
LINE
5
AD
100
AcDbEntity
8
1
62
256
6
ByLayer
370
18
48
1
60
0
100
AcDbLine
10
61.14471
20
-3.173204
30
0
11
61.150147
21
-3.173541
31
0
39
0
210
0
220
0
230
1
0
LINE
5
AE
100
AcDbEntity
8
1
62
256
6
ByLayer
370
18
48
1
60
0
100
AcDbLine
10
31.946238
20
-2.9577
30
0
11
40.913128
21
-2.9577
31
0
39
0
210
0
220
0
230
1
0
LINE
5
AF
100
AcDbEntity
8
1
62
256
6
ByLayer
370
18
48
1
60
0
100
AcDbLine
10
46.461862
20
-2.9577
30
0
11
48.507373
21
-2.9577
31
0
39
0
210
0
220
0
230
1
0
LINE
5
B0
100
AcDbEntity
8
1
62
256
6
ByLayer
370
18
48
1
60
0
100
AcDbLine
10
52.076928
20
2.9577
30
0
11
50.250544
21
2.9577
31
0
39
0
210
0
220
0
230
1
0
LINE
5
B1
100
AcDbEntity
8
1
62
256
6
ByLayer
370
18
48
1
60
0
100
AcDbLine
10
44.708431
20
2.9577
30
0
11
42.674524
21
2.9577
31
0
39
0
210
0
220
0
230
1
0
LINE
5
B2
100
AcDbEntity
8
1
62
256
6
ByLayer
370
18
48
1
60
0
100
AcDbLine
10
37.469282
20
2.9577
30
0
11
31.946238
21
2.9577
31
0
39
0
210
0
220
0
230
1
0
LINE
5
B3
100
AcDbEntity
8
1
62
256
6
ByLayer
370
18
48
1
60
0
100
AcDbLine
10
31.755225
20
2.974411
30
0
11
25.720479
21
4.0385
31
0
39
0
210
0
220
0
230
1
0
LINE
5
B4
100
AcDbEntity
8
1
62
256
6
ByLayer
370
18
48
1
60
0
100
AcDbLine
10
25.720479
20
-4.0385
30
0
11
31.755225
21
-2.974411
31
0
39
0
210
0
220
0
230
1
0
LINE
5
B5
100
AcDbEntity
8
SK1
62
256
6
ByLayer
370
18
48
1
60
0
100
AcDbLine
10
-24.65
20
-2.67696
30
0
11
-24.30196
21
-3.025
31
0
39
0
210
0
220
0
230
1
0
LINE
5
B6
100
AcDbEntity
8
SK1
62
256
6
ByLayer
370
18
48
1
60
0
100
AcDbLine
10
-24.30196
20
3.025
30
0
11
-24.65
21
2.67696
31
0
39
0
210
0
220
0
230
1
0
LINE
5
B7
100
AcDbEntity
8
SK1
62
256
6
ByLayer
370
18
48
1
60
0
100
AcDbLine
10
-14.035
20
3.87696
30
0
11
-14.14804
21
3.87696
31
0
39
0
210
0
220
0
230
1
0
LINE
5
B8
100
AcDbEntity
8
SK1
62
256
6
ByLayer
370
18
48
1
60
0
100
AcDbLine
10
-14.14804
20
-3.87696
30
0
11
-14.035
21
-3.87696
31
0
39
0
210
0
220
0
230
1
0
LINE
5
B9
100
AcDbEntity
8
SK1
62
256
6
ByLayer
370
18
48
1
60
0
100
AcDbLine
10
-14.035
20
-3.87696
30
0
11
-13.87346
21
-4.0385
31
0
39
0
210
0
220
0
230
1
0
LINE
5
BA
100
AcDbEntity
8
SK1
62
256
6
ByLayer
370
18
48
1
60
0
100
AcDbLine
10
-13.87346
20
4.0385
30
0
11
-14.035
21
3.87696
31
0
39
0
210
0
220
0
230
1
0
LINE
5
BB
100
AcDbEntity
8
SK1
62
256
6
ByLayer
370
18
48
1
60
0
100
AcDbLine
10
0
20
4.0385
30
0
11
-13.87346
21
4.0385
31
0
39
0
210
0
220
0
230
1
0
LINE
5
BC
100
AcDbEntity
8
SK1
62
256
6
ByLayer
370
18
48
1
60
0
100
AcDbLine
10
-13.87346
20
-4.0385
30
0
11
0
21
-4.0385
31
0
39
0
210
0
220
0
230
1
0
LINE
5
BD
100
AcDbEntity
8
SK2
62
256
6
ByLayer
370
13
48
1
60
0
100
AcDbLine
10
20.1
20
-4.0385
30
0
11
20.1
21
60.62016
31
0
39
0
210
0
220
0
230
1
0
LINE
5
BF
100
AcDbEntity
8
SK2
62
256
6
ByLayer
370
13
48
1
60
0
100
AcDbLine
10
19.9375
20
4.0385
30
0
11
22.1
21
4.0385
31
0
39
0
210
0
220
0
230
1
0
LINE
5
C0
100
AcDbEntity
8
SK2
62
256
6
ByLayer
370
13
48
1
60
0
100
AcDbLine
10
19.9375
20
-4.0385
30
0
11
22.1
21
-4.0385
31
0
39
0
210
0
220
0
230
1
0
LINE
5
C1
100
AcDbEntity
8
1
62
256
6
ByLayer
370
18
48
1
60
1
100
AcDbLine
10
20.1
20
4.0385
30
0
11
20.560784
21
0.538502
31
0
39
0
210
0
220
0
230
1
0
LINE
5
C2
100
AcDbEntity
8
1
62
256
6
ByLayer
370
18
48
1
60
1
100
AcDbLine
10
20.560784
20
0.538502
30
0
11
19.639216
21
0.538498
31
0
39
0
210
0
220
0
230
1
0
LINE
5
C3
100
AcDbEntity
8
1
62
256
6
ByLayer
370
18
48
1
60
1
100
AcDbLine
10
19.639216
20
0.538498
30
0
11
20.1
21
4.0385
31
0
39
0
210
0
220
0
230
1
0
LINE
5
C4
100
AcDbEntity
8
1
62
256
6
ByLayer
370
18
48
1
60
1
100
AcDbLine
10
20.1
20
-4.0385
30
0
11
19.639216
21
-0.538502
31
0
39
0
210
0
220
0
230
1
0
LINE
5
C5
100
AcDbEntity
8
1
62
256
6
ByLayer
370
18
48
1
60
1
100
AcDbLine
10
19.639216
20
-0.538502
30
0
11
20.560784
21
-0.538498
31
0
39
0
210
0
220
0
230
1
0
LINE
5
C6
100
AcDbEntity
8
1
62
256
6
ByLayer
370
18
48
1
60
1
100
AcDbLine
10
20.560784
20
-0.538498
30
0
11
20.1
21
-4.0385
31
0
39
0
210
0
220
0
230
1
0
LINE
5
1A9
100
AcDbEntity
8
1
62
256
6
ByLayer
370
18
48
1
60
1
100
AcDbLine
10
20.1
20
4.0385
30
0
11
20.560784
21
0.538502
31
0
39
0
210
0
220
0
230
1
0
LINE
5
1AA
100
AcDbEntity
8
1
62
256
6
ByLayer
370
18
48
1
60
1
100
AcDbLine
10
20.560784
20
0.538502
30
0
11
19.639216
21
0.538498
31
0
39
0
210
0
220
0
230
1
0
LINE
5
1AB
100
AcDbEntity
8
1
62
256
6
ByLayer
370
18
48
1
60
1
100
AcDbLine
10
19.639216
20
0.538498
30
0
11
20.1
21
4.0385
31
0
39
0
210
0
220
0
230
1
0
LINE
5
1AD
100
AcDbEntity
8
1
62
256
6
ByLayer
370
18
48
1
60
1
100
AcDbLine
10
20.1
20
-4.0385
30
0
11
19.639216
21
-0.538502
31
0
39
0
210
0
220
0
230
1
0
LINE
5
1AE
100
AcDbEntity
8
1
62
256
6
ByLayer
370
18
48
1
60
1
100
AcDbLine
10
19.639216
20
-0.538502
30
0
11
20.560784
21
-0.538498
31
0
39
0
210
0
220
0
230
1
0
LINE
5
1AF
100
AcDbEntity
8
1
62
256
6
ByLayer
370
18
48
1
60
1
100
AcDbLine
10
20.560784
20
-0.538498
30
0
11
20.1
21
-4.0385
31
0
39
0
210
0
220
0
230
1
0
MTEXT
5
1A4
100
AcDbEntity
8
SK2
62
256
6
ByLayer
370
18
48
1
60
0
100
AcDbMText
10
18.535366
20
12.896344
30
0
210
0
220
0
230
1
1
%%c
40
3.5
41
0
44
1.084337
50
90
71
7
72
5
7
iso_b_vert
0
MTEXT
5
1A7
100
AcDbEntity
8
SK2
62
256
6
ByLayer
370
18
48
1
60
0
100
AcDbMText
10
18.535366
20
34.198864
30
0
210
0
220
0
230
1
1
\W0.8220;ASME-B94.9
40
3.5
41
0
44
1.084337
50
90
71
7
72
5
7
iso_b_vert
0
MTEXT
5
1A8
100
AcDbEntity
8
SK2
62
256
6
ByLayer
370
18
48
1
60
0
100
AcDbMText
10
18.535366
20
19.869
30
0
210
0
220
0
230
1
1
\W0.7468;8.077
40
3.5
41
0
44
1.084337
50
90
71
7
72
5
7
iso_b_vert
0
MTEXT
5
1B1
100
AcDbEntity
8
SK6
62
256
6
ByLayer
370
18
48
1
60
0
100
AcDbMText
10
28.240832
20
-68.614886
30
0
210
0
220
0
230
1
1
\W0.7637;T300-PM100AE-5/16 P1PM
40
3
41
0
44
1.084337
50
0
71
7
72
5
7
iso_b_vert
0
HATCH
5
1AC
100
AcDbEntity
8
SK2
62
256
6
ByLayer
370
13
48
1
60
0
100
AcDbHatch
10
0
20
0
30
0
210
0
220
0
230
1
2
ANSI31
70
0
71
0
91
1
92
5
93
3
72
1
10
20.1
20
4.03850000000003
11
20.5607837415528
21
0.538501692553211
72
1
10
20.5607837415528
20
0.538501692553211
11
19.6392162584472
21
0.538498307446844
72
1
10
19.6392162584472
20
0.538498307446844
11
20.1
21
4.03850000000003
97
0
75
0
76
1
52
0
41
0.0062
77
0
78
1
53
45
43
0
44
0
45
-0.0139193969876572
46
0.0139193969876572
79
0
47
0
98
1
10
0
20
0
0
HATCH
5
1B0
100
AcDbEntity
8
SK2
62
256
6
ByLayer
370
13
48
1
60
0
100
AcDbHatch
10
0
20
0
30
0
210
0
220
0
230
1
2
ANSI31
70
0
71
0
91
1
92
5
93
3
72
1
10
20.1
20
-4.03849999999997
11
19.6392162584472
21
-0.538501692553155
72
1
10
19.6392162584472
20
-0.538501692553155
11
20.5607837415528
21
-0.538498307446787
72
1
10
20.5607837415528
20
-0.538498307446787
11
20.1
21
-4.03849999999997
97
0
75
0
76
1
52
0
41
0.0062
77
0
78
1
53
45
43
0
44
0
45
-0.0139193969876572
46
0.0139193969876572
79
0
47
0
98
1
10
0
20
0
0
DIMENSION
5
1B4
100
AcDbEntity
8
SK2
62
256
6
ByLayer
370
18
48
1
60
0
100
AcDbDimension
2
_U0
10
65.35
20
-51.863052
30
0
11
20.35
21
-51.863052
31
0
70
32
71
1
72
1
41
1
210
0
220
0
230
1
3
Standard
100
AcDbAlignedDimension
13
-24.65
23
0
33
0
14
65.35
24
0
34
0
50
0
100
AcDbRotatedDimension
1001
ACAD
1000
DSTYLE
1002
{
1070
   371
1070
    13
1070
   372
1070
    13
1070
     3
1000

1070
   170
1070
     0
1070
   144
1040
1.0
1070
   277
1070
     2
1070
   284
1070
     8
1070
   278
1070
    46
1070
   146
1040
1.0
1070
   345
1005
16
1070
   347
1005
16
1070
   346
1005
16
1070
   344
1005
0
1070
   343
1005
0
1070
   172
1070
     1
1070
    76
1070
     0
1070
    75
1070
     0
1070
   282
1070
     0
1070
   281
1070
     0
1070
    71
1070
     0
1070
    74
1070
     0
1070
   279
1070
     0
1070
   173
1070
     1
1070
   340
1005
1A5
1070
   271
1070
     2
1070
   272
1070
     2
1070
    77
1070
     1
1070
    73
1070
     1
1070
   171
1070
     3
1070
   274
1070
     4
1070
   177
1070
     2
1070
   176
1070
     2
1070
   178
1070
     2
1070
    78
1070
     8
1070
    48
1040
-0.1
1070
    41
1040
3.5
1070
   147
1040
1.75
1070
    42
1040
1.5875
1070
    44
1040
2.0
1070
   140
1040
3.5
1002
}
1001
ACAD_DSTYLE_DIM_LINETYPE
1070
   380
1005
16
1001
ACAD_DSTYLE_DIM_EXT1_LINETYPE
1070
   381
1005
16
1001
ACAD_DSTYLE_DIM_EXT2_LINETYPE
1070
   382
1005
16
0
DIMENSION
5
1CD
100
AcDbEntity
8
SK2
62
256
6
ByLayer
370
18
48
1
60
0
100
AcDbDimension
2
_U1
10
31.85
20
-43.863052
30
0
11
48.6
21
-43.863052
31
0
70
32
71
1
72
1
41
1
210
0
220
0
230
1
3
Standard
100
AcDbAlignedDimension
13
65.35
23
0
33
0
14
31.85
24
0
34
0
50
0
100
AcDbRotatedDimension
1001
ACAD
1000
DSTYLE
1002
{
1070
   371
1070
    13
1070
   372
1070
    13
1070
     3
1000

1070
   170
1070
     0
1070
   144
1040
1.0
1070
   277
1070
     2
1070
   284
1070
     8
1070
   278
1070
    46
1070
   146
1040
1.0
1070
   345
1005
16
1070
   347
1005
16
1070
   346
1005
16
1070
   344
1005
0
1070
   343
1005
0
1070
   172
1070
     1
1070
    76
1070
     0
1070
    75
1070
     0
1070
   282
1070
     0
1070
   281
1070
     0
1070
    71
1070
     0
1070
    74
1070
     0
1070
   279
1070
     0
1070
   173
1070
     1
1070
   340
1005
1A5
1070
   271
1070
     2
1070
   272
1070
     2
1070
    77
1070
     1
1070
    73
1070
     1
1070
   171
1070
     3
1070
   274
1070
     4
1070
   177
1070
     2
1070
   176
1070
     2
1070
   178
1070
     2
1070
    78
1070
     8
1070
    48
1040
-0.1
1070
    41
1040
3.5
1070
   147
1040
1.75
1070
    42
1040
1.5875
1070
    44
1040
2.0
1070
   140
1040
3.5
1002
}
1001
ACAD_DSTYLE_DIM_LINETYPE
1070
   380
1005
16
1001
ACAD_DSTYLE_DIM_EXT1_LINETYPE
1070
   381
1005
16
1001
ACAD_DSTYLE_DIM_EXT2_LINETYPE
1070
   382
1005
16
0
DIMENSION
5
1E5
100
AcDbEntity
8
2
62
256
6
ByLayer
370
18
48
1
60
0
100
AcDbDimension
2
_U2
10
36.875
20
-35.863052
30
0
11
51.1125
21
-35.863052
31
0
70
32
71
1
72
1
41
1
210
0
220
0
230
1
3
Standard
100
AcDbAlignedDimension
13
65.35
23
0
33
0
14
36.875
24
0
34
0
50
0
100
AcDbRotatedDimension
1001
ACAD
1000
DSTYLE
1002
{
1070
   371
1070
    13
1070
   372
1070
    13
1070
     3
1000

1070
   170
1070
     0
1070
   144
1040
1.0
1070
   277
1070
     2
1070
   284
1070
     8
1070
   278
1070
    46
1070
   146
1040
1.0
1070
   345
1005
16
1070
   347
1005
16
1070
   346
1005
16
1070
   344
1005
0
1070
   343
1005
0
1070
   172
1070
     1
1070
    76
1070
     0
1070
    75
1070
     0
1070
   282
1070
     0
1070
   281
1070
     0
1070
    71
1070
     0
1070
    74
1070
     0
1070
   279
1070
     0
1070
   173
1070
     1
1070
   340
1005
1A5
1070
   271
1070
     2
1070
   272
1070
     2
1070
    77
1070
     1
1070
    73
1070
     1
1070
   171
1070
     3
1070
   274
1070
     4
1070
   177
1070
     2
1070
   176
1070
     2
1070
   178
1070
     2
1070
    78
1070
     8
1070
    48
1040
-0.1
1070
    41
1040
3.5
1070
   147
1040
1.75
1070
    42
1040
1.5875
1070
    44
1040
2.0
1070
   140
1040
3.5
1002
}
1001
ACAD_DSTYLE_DIM_LINETYPE
1070
   380
1005
16
1001
ACAD_DSTYLE_DIM_EXT1_LINETYPE
1070
   381
1005
16
1001
ACAD_DSTYLE_DIM_EXT2_LINETYPE
1070
   382
1005
16
0
DIMENSION
5
1FE
100
AcDbEntity
8
SK2
62
256
6
ByLayer
370
18
48
1
60
0
100
AcDbDimension
2
_U3
10
53.35
20
-27.863052
30
0
11
59.35
21
-27.863052
31
0
70
32
71
1
72
1
41
1
210
0
220
0
230
1
3
Standard
100
AcDbAlignedDimension
13
65.35
23
0
33
0
14
53.35
24
0
34
0
50
0
100
AcDbRotatedDimension
1001
ACAD
1000
DSTYLE
1002
{
1070
   371
1070
    13
1070
   372
1070
    13
1070
     3
1000

1070
   170
1070
     0
1070
   144
1040
1.0
1070
   277
1070
     2
1070
   284
1070
     8
1070
   278
1070
    46
1070
   146
1040
1.0
1070
   345
1005
16
1070
   347
1005
16
1070
   346
1005
16
1070
   344
1005
0
1070
   343
1005
0
1070
   172
1070
     1
1070
    76
1070
     0
1070
    75
1070
     0
1070
   282
1070
     0
1070
   281
1070
     0
1070
    71
1070
     0
1070
    74
1070
     0
1070
   279
1070
     0
1070
   173
1070
     1
1070
   340
1005
1A5
1070
   271
1070
     2
1070
   272
1070
     2
1070
    77
1070
     1
1070
    73
1070
     1
1070
   171
1070
     3
1070
   274
1070
     4
1070
   177
1070
     2
1070
   176
1070
     2
1070
   178
1070
     2
1070
    78
1070
     8
1070
    48
1040
-0.1
1070
    41
1040
3.5
1070
   147
1040
1.75
1070
    42
1040
1.5875
1070
    44
1040
2.0
1070
   140
1040
3.5
1002
}
1001
ACAD_DSTYLE_DIM_LINETYPE
1070
   380
1005
16
1001
ACAD_DSTYLE_DIM_EXT1_LINETYPE
1070
   381
1005
16
1001
ACAD_DSTYLE_DIM_EXT2_LINETYPE
1070
   382
1005
16
0
DIMENSION
5
217
100
AcDbEntity
8
SK2
62
256
6
ByLayer
370
18
48
1
60
0
100
AcDbDimension
2
_U4
10
61.47
20
8.298973
30
0
11
63.41
21
8.298973
31
0
70
32
71
1
72
1
41
1
210
0
220
0
230
1
3
Standard
100
AcDbAlignedDimension
13
65.35
23
0
33
0
14
61.47
24
0
34
0
50
0
100
AcDbRotatedDimension
1001
ACAD
1000
DSTYLE
1002
{
1070
   371
1070
    13
1070
   372
1070
    13
1070
     3
1000

1070
   170
1070
     0
1070
   144
1040
1.0
1070
   277
1070
     2
1070
   284
1070
     8
1070
   278
1070
    46
1070
   146
1040
1.0
1070
   345
1005
16
1070
   347
1005
16
1070
   346
1005
16
1070
   344
1005
0
1070
   343
1005
0
1070
   172
1070
     1
1070
    76
1070
     0
1070
    75
1070
     0
1070
   282
1070
     0
1070
   281
1070
     0
1070
    71
1070
     0
1070
    74
1070
     0
1070
   279
1070
     0
1070
   173
1070
     1
1070
   340
1005
1A5
1070
   271
1070
     2
1070
   272
1070
     2
1070
    77
1070
     1
1070
    73
1070
     1
1070
   171
1070
     3
1070
   274
1070
     4
1070
   177
1070
     2
1070
   176
1070
     2
1070
   178
1070
     2
1070
    78
1070
     8
1070
    48
1040
-0.1
1070
    41
1040
3.5
1070
   147
1040
1.75
1070
    42
1040
1.5875
1070
    44
1040
2.0
1070
   140
1040
3.5
1002
}
1001
ACAD_DSTYLE_DIM_LINETYPE
1070
   380
1005
16
1001
ACAD_DSTYLE_DIM_EXT1_LINETYPE
1070
   381
1005
16
1001
ACAD_DSTYLE_DIM_EXT2_LINETYPE
1070
   382
1005
16
0
DIMENSION
5
231
100
AcDbEntity
8
2
62
256
6
ByLayer
370
18
48
1
60
0
100
AcDbDimension
2
_U5
10
82.1
20
4.024486
30
0
11
82.1
21
0
31
0
70
32
71
1
72
1
41
1
210
0
220
0
230
1
3
Standard
100
AcDbAlignedDimension
13
65.35
23
-4.024486
33
0
14
65.35
24
4.024486
34
0
50
90
100
AcDbRotatedDimension
1001
ACAD
1000
DSTYLE
1002
{
1070
   371
1070
    13
1070
   372
1070
    13
1070
     3
1000

1070
   170
1070
     0
1070
   144
1040
1.0
1070
   277
1070
     2
1070
   284
1070
     8
1070
   278
1070
    46
1070
   146
1040
1.0
1070
   345
1005
16
1070
   347
1005
16
1070
   346
1005
16
1070
   344
1005
0
1070
   343
1005
0
1070
   172
1070
     1
1070
    76
1070
     0
1070
    75
1070
     0
1070
   282
1070
     0
1070
   281
1070
     0
1070
    71
1070
     0
1070
    74
1070
     0
1070
   279
1070
     0
1070
   173
1070
     1
1070
   340
1005
1A5
1070
   271
1070
     2
1070
   272
1070
     2
1070
    77
1070
     1
1070
    73
1070
     0
1070
   171
1070
     3
1070
   274
1070
     4
1070
   177
1070
     2
1070
   176
1070
     2
1070
   178
1070
     2
1070
    78
1070
     8
1070
    48
1040
-0.1
1070
    41
1040
3.5
1070
   147
1040
1.75
1070
    42
1040
1.5875
1070
    44
1040
2.0
1070
   140
1040
3.5
1002
}
1001
ACAD_DSTYLE_DIM_LINETYPE
1070
   380
1005
16
1001
ACAD_DSTYLE_DIM_EXT1_LINETYPE
1070
   381
1005
16
1001
ACAD_DSTYLE_DIM_EXT2_LINETYPE
1070
   382
1005
16
0
ENDSEC
0
SECTION
2
OBJECTS
0
DICTIONARY
5
2bb
330
0
100
AcDbDictionary
280
0
281
1
3
ACAD_GROUP
350
2bc
3
ACAD_MLINESTYLE
350
2bd
0
DICTIONARY
5
2bc
330
0
100
AcDbDictionary
280
0
281
1
0
DICTIONARY
5
2bd
330
0
100
AcDbDictionary
280
0
281
1
3
Standard
350
18
0
MLINESTYLE
5
18
330
2bd
100
AcDbMlineStyle
2
Standard
70
0
3

62
256
51
90
52
90
71
2
49
-0.5
62
256
6
ByLayer
49
0.5
62
256
6
ByLayer
0
RASTERVARIABLES
5
2a9
330

100
AcDbRasterVariables
90
0
70
1
71
1
72
1
0
ENDSEC
0
EOF
