0
SECTION
2
HEADER
9
$ACADVER
1
AC1015
9
$DWGCODEPAGE
3
ANSI_1252
9
$HANDSEED
5
307
9
$ANGBASE
50
0
9
$ANGDIR
70
0
9
$ATTMODE
70
1
9
$AUNITS
70
0
9
$AUPREC
70
0
9
$CECOLOR
62
256
9
$CELTSCALE
40
1
9
$CELTYPE
6
ByLayer
9
$CELWEIGHT
370
18
9
$CLAYER
8
0
9
$CMLJUST
70
0
9
$CMLSCALE
40
1
9
$CMLSTYLE
2
Standard
9
$DIMSTYLE
2
Standard
9
$TEXTSIZE
40
0.2
9
$TEXTSTYLE
7
Standard
9
$LUNITS
70
2
9
$LUPREC
70
4
9
$EXTNAMES
290
1
9
$INSUNITS
70
4
9
$LTSCALE
40
1
9
$LWDISPLAY
290
1
9
$PDMODE
70
0
9
$PDSIZE
40
0
9
$PLINEGEN
70
0
0
ENDSEC
0
SECTION
2
CLASSES
0
CLASS
1
RASTERVARIABLES
2
AcDbRasterVariables
3
ISM
90
0
280
0
281
0
0
ENDSEC
0
SECTION
2
TABLES
0
TABLE
2
VPORT
5
2fd
100
AcDbSymbolTable
0
VPORT
5
1
100
AcDbSymbolTableRecord
100
AcDbViewportTableRecord
2
*Active
70
0
10
0
20
0
11
1
21
1
12
-1
22
1
13
0
23
0
14
0.5
24
0.5
15
10
25
10
16
0
26
0
36
1
17
0
27
0
37
0
0
ENDTAB
0
TABLE
2
LTYPE
5
2fe
100
AcDbSymbolTable
0
LTYPE
5
14
100
AcDbSymbolTableRecord
100
AcDbLinetypeTableRecord
70
0
2
ByBlock
3

72
65
73
0
40
0
0
LTYPE
5
15
100
AcDbSymbolTableRecord
100
AcDbLinetypeTableRecord
70
0
2
ByLayer
3

72
65
73
0
40
0
0
LTYPE
5
16
100
AcDbSymbolTableRecord
100
AcDbLinetypeTableRecord
70
0
2
Continuous
3
Solid line
72
65
73
0
40
0
0
LTYPE
5
6E
100
AcDbSymbolTableRecord
100
AcDbLinetypeTableRecord
70
0
2
CENTER
3
____ _ ____ _ ____ _ ____
72
65
73
4
40
47.5
49
22
74
0
49
-8.5
74
0
49
8.5
74
0
49
-8.5
74
0
0
LTYPE
5
6F
100
AcDbSymbolTableRecord
100
AcDbLinetypeTableRecord
70
0
2
DASHED
3
__ __ __ __ __ __ __ __ __
72
65
73
2
40
25.72
49
12.86
74
0
49
-12.86
74
0
0
ENDTAB
0
TABLE
2
LAYER
5
2ff
100
AcDbSymbolTable
0
LAYER
5
10
100
AcDbSymbolTableRecord
100
AcDbLayerTableRecord
2
0
70
0
62
7
6
Continuous
290
1
370
-3
390
0
0
LAYER
5
71
100
AcDbSymbolTableRecord
100
AcDbLayerTableRecord
2
81
70
0
62
-3
6
Continuous
290
1
370
-3
390
0
0
LAYER
5
73
100
AcDbSymbolTableRecord
100
AcDbLayerTableRecord
2
80
70
0
62
-6
6
Continuous
290
1
370
-3
390
0
0
LAYER
5
75
100
AcDbSymbolTableRecord
100
AcDbLayerTableRecord
2
1
70
0
62
4
6
Continuous
290
1
370
-3
390
0
0
LAYER
5
83
100
AcDbSymbolTableRecord
100
AcDbLayerTableRecord
2
4
70
0
62
-2
6
CENTER
290
1
370
-3
390
0
0
LAYER
5
1F6
100
AcDbSymbolTableRecord
100
AcDbLayerTableRecord
2
Defpoints
70
0
62
7
6
Continuous
290
0
370
-3
390
0
0
LAYER
5
233
100
AcDbSymbolTableRecord
100
AcDbLayerTableRecord
2
2
70
0
62
7
6
Continuous
290
1
370
-3
390
0
0
LAYER
5
2e9
100
AcDbSymbolTableRecord
100
AcDbLayerTableRecord
2
SK4
70
0
62
2
6
CENTER
290
1
370
-3
390
0
0
LAYER
5
2ea
100
AcDbSymbolTableRecord
100
AcDbLayerTableRecord
2
SK1
70
0
62
4
6
Continuous
290
1
370
-3
390
0
0
LAYER
5
2eb
100
AcDbSymbolTableRecord
100
AcDbLayerTableRecord
2
SK2
70
0
62
7
6
Continuous
290
1
370
-3
390
0
0
LAYER
5
2ec
100
AcDbSymbolTableRecord
100
AcDbLayerTableRecord
2
SK6
70
0
62
5
6
Continuous
290
1
370
-3
390
0
0
ENDTAB
0
TABLE
2
STYLE
5
300
100
AcDbSymbolTable
0
STYLE
5
11
100
AcDbSymbolTableRecord
100
AcDbTextStyleTableRecord
2
Standard
3
txt
70
0
71
0
40
0
41
1
42
0
50
0
0
STYLE
5
1E4
100
AcDbSymbolTableRecord
100
AcDbTextStyleTableRecord
2
iso_b_vert
3
simplex.shx
70
0
71
0
40
0
41
1
42
0
50
0
0
STYLE
5
1E5
100
AcDbSymbolTableRecord
100
AcDbTextStyleTableRecord
2
DWGDirectTextStyle
3
simplex
70
0
71
0
40
0
41
1
42
0
50
0
0
ENDTAB
0
TABLE
2
DIMSTYLE
5
301
100
AcDbSymbolTable
100
AcDbDimStyleTable
0
DIMSTYLE
105
27
100
AcDbSymbolTableRecord
100
AcDbDimStyleTableRecord
2
Standard
70
0
3
<>
41
0.18
42
0.0625
44
0.18
140
0.18
147
0.09
73
0
74
0
77
1
271
2
275
0
278
52
280
0
340
11
0
ENDTAB
0
TABLE
2
VIEW
5
302
100
AcDbSymbolTable
0
ENDTAB
0
TABLE
2
UCS
5
303
100
AcDbSymbolTable
0
ENDTAB
0
TABLE
2
APPID
5
304
100
AcDbSymbolTable
0
APPID
5
12
100
AcDbSymbolTableRecord
100
AcDbRegAppTableRecord
2
ACAD
70
0
0
APPID
5
1F2
100
AcDbSymbolTableRecord
100
AcDbRegAppTableRecord
2
ACAD_DSTYLE_DIMBREAK
70
0
0
APPID
5
2A8
100
AcDbSymbolTableRecord
100
AcDbRegAppTableRecord
2
ACAD_DSTYLE_DIM_LINETYPE
70
0
0
APPID
5
2A9
100
AcDbSymbolTableRecord
100
AcDbRegAppTableRecord
2
ACAD_DSTYLE_DIM_EXT1_LINETYPE
70
0
0
APPID
5
2AA
100
AcDbSymbolTableRecord
100
AcDbRegAppTableRecord
2
ACAD_DSTYLE_DIM_EXT2_LINETYPE
70
0
0
APPID
5
2E5
100
AcDbSymbolTableRecord
100
AcDbRegAppTableRecord
2
ACAD_MLEADERVER
70
0
0
ENDTAB
0
TABLE
2
BLOCK_RECORD
5
305
100
AcDbSymbolTable
0
BLOCK_RECORD
5
1F
100
AcDbSymbolTableRecord
100
AcDbBlockTableRecord
2
*Model_Space
340
0
70
0
0
BLOCK_RECORD
5
1B
100
AcDbSymbolTableRecord
100
AcDbBlockTableRecord
2
*Paper_Space
340
0
70
0
0
BLOCK_RECORD
5
23
100
AcDbSymbolTableRecord
100
AcDbBlockTableRecord
2
*Paper_Space0
340
0
70
0
0
BLOCK_RECORD
5
1F7
100
AcDbSymbolTableRecord
100
AcDbBlockTableRecord
2
*D1
340
0
70
0
0
BLOCK_RECORD
5
203
100
AcDbSymbolTableRecord
100
AcDbBlockTableRecord
2
_U0
340
0
70
0
0
BLOCK_RECORD
5
20F
100
AcDbSymbolTableRecord
100
AcDbBlockTableRecord
2
*D3
340
0
70
0
0
BLOCK_RECORD
5
21B
100
AcDbSymbolTableRecord
100
AcDbBlockTableRecord
2
_U1
340
0
70
0
0
BLOCK_RECORD
5
227
100
AcDbSymbolTableRecord
100
AcDbBlockTableRecord
2
*D5
340
0
70
0
0
BLOCK_RECORD
5
234
100
AcDbSymbolTableRecord
100
AcDbBlockTableRecord
2
_U2
340
0
70
0
0
BLOCK_RECORD
5
240
100
AcDbSymbolTableRecord
100
AcDbBlockTableRecord
2
*D7
340
0
70
0
0
BLOCK_RECORD
5
24D
100
AcDbSymbolTableRecord
100
AcDbBlockTableRecord
2
_U3
340
0
70
0
0
BLOCK_RECORD
5
259
100
AcDbSymbolTableRecord
100
AcDbBlockTableRecord
2
*D9
340
0
70
0
0
BLOCK_RECORD
5
266
100
AcDbSymbolTableRecord
100
AcDbBlockTableRecord
2
_U4
340
0
70
0
0
BLOCK_RECORD
5
273
100
AcDbSymbolTableRecord
100
AcDbBlockTableRecord
2
*D11
340
0
70
0
0
BLOCK_RECORD
5
280
100
AcDbSymbolTableRecord
100
AcDbBlockTableRecord
2
_U5
340
0
70
0
0
ENDTAB
0
ENDSEC
0
SECTION
2
BLOCKS
0
BLOCK
5
20
100
AcDbEntity
8
0
100
AcDbBlockBegin
2
*Model_Space
70
0
10
0
20
0
30
0
3
*Model_Space
0
ENDBLK
5
21
100
AcDbEntity
8
0
100
AcDbBlockEnd
0
BLOCK
5
1C
100
AcDbEntity
8
0
100
AcDbBlockBegin
2
*Paper_Space
70
0
10
0
20
0
30
0
3
*Paper_Space
0
ENDBLK
5
1D
100
AcDbEntity
8
0
100
AcDbBlockEnd
0
BLOCK
5
24
100
AcDbEntity
8
0
100
AcDbBlockBegin
2
*Paper_Space0
70
0
10
0
20
0
30
0
3
*Paper_Space0
0
ENDBLK
5
25
100
AcDbEntity
8
0
100
AcDbBlockEnd
0
BLOCK
5
1F8
100
AcDbEntity
8
0
100
AcDbBlockBegin
2
*D1
70
1
10
0
20
0
30
0
3
*D1
0
LINE
5
1FA
100
AcDbEntity
8
0
62
256
6
ByLayer
370
-2
48
1
60
0
100
AcDbLine
10
-24.65
20
-1.5875
30
0
11
-24.65
21
-53.255752
31
0
39
0
210
0
220
0
230
1
0
LINE
5
1FB
100
AcDbEntity
8
0
62
256
6
ByLayer
370
-2
48
1
60
0
100
AcDbLine
10
65.35
20
-1.5875
30
0
11
65.35
21
-53.255752
31
0
39
0
210
0
220
0
230
1
0
LINE
5
1FC
100
AcDbEntity
8
0
62
256
6
ByLayer
370
-2
48
1
60
0
100
AcDbLine
10
-21.15
20
-51.255752
30
0
11
61.85
21
-51.255752
31
0
39
0
210
0
220
0
230
1
0
SOLID
5
1FD
100
AcDbEntity
8
0
62
256
6
ByLayer
370
-1
48
1
60
0
100
AcDbTrace
10
-21.15
20
-50.672419
30
0
11
-21.15
21
-51.839085
31
0
12
-24.65
22
-51.255752
32
0
13
-24.65
23
-51.255752
33
0
39
0
210
0
220
0
230
1
0
SOLID
5
1FE
100
AcDbEntity
8
0
62
256
6
ByLayer
370
-1
48
1
60
0
100
AcDbTrace
10
61.85
20
-51.839085
30
0
11
61.85
21
-50.672419
31
0
12
65.35
22
-51.255752
32
0
13
65.35
23
-51.255752
33
0
39
0
210
0
220
0
230
1
0
MTEXT
5
1FF
100
AcDbEntity
8
0
62
256
6
ByLayer
370
18
48
1
60
0
100
AcDbMText
10
20.35
20
-44.255752
30
0
210
0
220
0
230
1
1
\A1;90
40
3.5
41
0
44
1
50
0
71
5
72
5
7
iso_b_vert
0
POINT
5
200
100
AcDbEntity
8
Defpoints
62
0
6
ByLayer
370
-1
48
1
60
0
100
AcDbPoint
10
-24.65
20
0
30
0
39
0
210
0
220
0
230
1
50
360
0
POINT
5
201
100
AcDbEntity
8
Defpoints
62
0
6
ByLayer
370
-1
48
1
60
0
100
AcDbPoint
10
65.35
20
0
30
0
39
0
210
0
220
0
230
1
50
360
0
POINT
5
202
100
AcDbEntity
8
Defpoints
62
0
6
ByLayer
370
-1
48
1
60
0
100
AcDbPoint
10
65.35
20
-51.255752
30
0
39
0
210
0
220
0
230
1
50
360
0
ENDBLK
5
1F9
100
AcDbEntity
8
0
100
AcDbBlockEnd
0
BLOCK
5
20A
100
AcDbEntity
8
0
100
AcDbBlockBegin
2
_U0
70
0
10
0
20
0
30
0
3
_U0
0
MTEXT
5
204
100
AcDbEntity
8
SK2
62
256
6
ByLayer
370
18
48
1
60
0
100
AcDbMText
10
16.428301
20
-50.223119
30
0
210
0
220
0
230
1
1
\W0.7346;90.0
40
3.5
41
0
44
1.084337
50
0
71
7
72
5
7
iso_b_vert
0
LINE
5
205
100
AcDbEntity
8
SK2
62
256
6
ByLayer
370
13
48
1
60
0
100
AcDbLine
10
-24.65
20
-1.5875
30
0
11
-24.65
21
-53.255752
31
0
39
0
210
0
220
0
230
1
0
LINE
5
206
100
AcDbEntity
8
SK2
62
256
6
ByLayer
370
13
48
1
60
0
100
AcDbLine
10
65.35
20
-1.5875
30
0
11
65.35
21
-53.255752
31
0
39
0
210
0
220
0
230
1
0
LINE
5
207
100
AcDbEntity
8
SK2
62
256
6
ByLayer
370
13
48
1
60
0
100
AcDbLine
10
-24.65
20
-51.255752
30
0
11
65.35
21
-51.255752
31
0
39
0
210
0
220
0
230
1
0
SOLID
5
208
100
AcDbEntity
8
SK2
62
256
6
ByLayer
370
18
48
1
60
0
100
AcDbTrace
10
-24.65
20
-51.255752
30
0
11
-21.150002
21
-50.794968
31
0
12
-21.149998
22
-51.716536
32
0
13
-21.149998
23
-51.716536
33
0
39
0
210
0
220
0
230
1
0
SOLID
5
209
100
AcDbEntity
8
SK2
62
256
6
ByLayer
370
18
48
1
60
0
100
AcDbTrace
10
65.35
20
-51.255752
30
0
11
61.850002
21
-51.716536
31
0
12
61.849998
22
-50.794968
32
0
13
61.849998
23
-50.794968
33
0
39
0
210
0
220
0
230
1
0
ENDBLK
5
20B
100
AcDbEntity
8
0
100
AcDbBlockEnd
0
BLOCK
5
210
100
AcDbEntity
8
0
100
AcDbBlockBegin
2
*D3
70
1
10
0
20
0
30
0
3
*D3
0
LINE
5
212
100
AcDbEntity
8
0
62
256
6
ByLayer
370
-2
48
1
60
0
100
AcDbLine
10
65.35
20
-1.5875
30
0
11
65.35
21
-45.255752
31
0
39
0
210
0
220
0
230
1
0
LINE
5
213
100
AcDbEntity
8
0
62
256
6
ByLayer
370
-2
48
1
60
0
100
AcDbLine
10
31.85
20
-1.5875
30
0
11
31.85
21
-45.255752
31
0
39
0
210
0
220
0
230
1
0
LINE
5
214
100
AcDbEntity
8
0
62
256
6
ByLayer
370
-2
48
1
60
0
100
AcDbLine
10
61.85
20
-43.255752
30
0
11
35.35
21
-43.255752
31
0
39
0
210
0
220
0
230
1
0
SOLID
5
215
100
AcDbEntity
8
0
62
256
6
ByLayer
370
-1
48
1
60
0
100
AcDbTrace
10
61.85
20
-43.839085
30
0
11
61.85
21
-42.672419
31
0
12
65.35
22
-43.255752
32
0
13
65.35
23
-43.255752
33
0
39
0
210
0
220
0
230
1
0
SOLID
5
216
100
AcDbEntity
8
0
62
256
6
ByLayer
370
-1
48
1
60
0
100
AcDbTrace
10
35.35
20
-42.672419
30
0
11
35.35
21
-43.839085
31
0
12
31.85
22
-43.255752
32
0
13
31.85
23
-43.255752
33
0
39
0
210
0
220
0
230
1
0
MTEXT
5
217
100
AcDbEntity
8
0
62
256
6
ByLayer
370
18
48
1
60
0
100
AcDbMText
10
48.6
20
-36.255752
30
0
210
0
220
0
230
1
1
\A1;33.5
40
3.5
41
0
44
1
50
0
71
5
72
5
7
iso_b_vert
0
POINT
5
218
100
AcDbEntity
8
Defpoints
62
0
6
ByLayer
370
-1
48
1
60
0
100
AcDbPoint
10
65.35
20
0
30
0
39
0
210
0
220
0
230
1
50
360
0
POINT
5
219
100
AcDbEntity
8
Defpoints
62
0
6
ByLayer
370
-1
48
1
60
0
100
AcDbPoint
10
31.85
20
0
30
0
39
0
210
0
220
0
230
1
50
360
0
POINT
5
21A
100
AcDbEntity
8
Defpoints
62
0
6
ByLayer
370
-1
48
1
60
0
100
AcDbPoint
10
31.85
20
-43.255752
30
0
39
0
210
0
220
0
230
1
50
360
0
ENDBLK
5
211
100
AcDbEntity
8
0
100
AcDbBlockEnd
0
BLOCK
5
222
100
AcDbEntity
8
0
100
AcDbBlockBegin
2
_U1
70
0
10
0
20
0
30
0
3
_U1
0
MTEXT
5
21C
100
AcDbEntity
8
SK2
62
256
6
ByLayer
370
18
48
1
60
0
100
AcDbMText
10
44.678301
20
-42.223119
30
0
210
0
220
0
230
1
1
\W0.7346;33.5
40
3.5
41
0
44
1.084337
50
0
71
7
72
5
7
iso_b_vert
0
LINE
5
21D
100
AcDbEntity
8
SK2
62
256
6
ByLayer
370
13
48
1
60
0
100
AcDbLine
10
65.35
20
-1.5875
30
0
11
65.35
21
-45.255752
31
0
39
0
210
0
220
0
230
1
0
LINE
5
21E
100
AcDbEntity
8
SK2
62
256
6
ByLayer
370
13
48
1
60
0
100
AcDbLine
10
31.85
20
-1.5875
30
0
11
31.85
21
-45.255752
31
0
39
0
210
0
220
0
230
1
0
LINE
5
21F
100
AcDbEntity
8
SK2
62
256
6
ByLayer
370
13
48
1
60
0
100
AcDbLine
10
65.35
20
-43.255752
30
0
11
31.85
21
-43.255752
31
0
39
0
210
0
220
0
230
1
0
SOLID
5
220
100
AcDbEntity
8
SK2
62
256
6
ByLayer
370
18
48
1
60
0
100
AcDbTrace
10
65.35
20
-43.255752
30
0
11
61.850002
21
-43.716536
31
0
12
61.849998
22
-42.794968
32
0
13
61.849998
23
-42.794968
33
0
39
0
210
0
220
0
230
1
0
SOLID
5
221
100
AcDbEntity
8
SK2
62
256
6
ByLayer
370
18
48
1
60
0
100
AcDbTrace
10
31.85
20
-43.255752
30
0
11
35.349998
21
-42.794968
31
0
12
35.350002
22
-43.716536
32
0
13
35.350002
23
-43.716536
33
0
39
0
210
0
220
0
230
1
0
ENDBLK
5
223
100
AcDbEntity
8
0
100
AcDbBlockEnd
0
BLOCK
5
228
100
AcDbEntity
8
0
100
AcDbBlockBegin
2
*D5
70
1
10
0
20
0
30
0
3
*D5
0
LINE
5
22A
100
AcDbEntity
8
0
62
256
6
ByLayer
370
-2
48
1
60
0
100
AcDbLine
10
65.35
20
-1.5875
30
0
11
65.35
21
-37.255752
31
0
39
0
210
0
220
0
230
1
0
LINE
5
22B
100
AcDbEntity
8
0
62
256
6
ByLayer
370
-2
48
1
60
0
100
AcDbLine
10
36.875
20
-1.5875
30
0
11
36.875
21
-37.255752
31
0
39
0
210
0
220
0
230
1
0
LINE
5
22C
100
AcDbEntity
8
0
62
256
6
ByLayer
370
-2
48
1
60
0
100
AcDbLine
10
61.85
20
-35.255752
30
0
11
40.375
21
-35.255752
31
0
39
0
210
0
220
0
230
1
0
SOLID
5
22D
100
AcDbEntity
8
0
62
256
6
ByLayer
370
-1
48
1
60
0
100
AcDbTrace
10
61.85
20
-35.839085
30
0
11
61.85
21
-34.672419
31
0
12
65.35
22
-35.255752
32
0
13
65.35
23
-35.255752
33
0
39
0
210
0
220
0
230
1
0
SOLID
5
22E
100
AcDbEntity
8
0
62
256
6
ByLayer
370
-1
48
1
60
0
100
AcDbTrace
10
40.375
20
-34.672419
30
0
11
40.375
21
-35.839085
31
0
12
36.875
22
-35.255752
32
0
13
36.875
23
-35.255752
33
0
39
0
210
0
220
0
230
1
0
MTEXT
5
22F
100
AcDbEntity
8
0
62
256
6
ByLayer
370
18
48
1
60
0
100
AcDbMText
10
51.1125
20
-28.255752
30
0
210
0
220
0
230
1
1
\A1;28.48
40
3.5
41
0
44
1
50
0
71
5
72
5
7
iso_b_vert
0
POINT
5
230
100
AcDbEntity
8
Defpoints
62
0
6
ByLayer
370
-1
48
1
60
0
100
AcDbPoint
10
65.35
20
0
30
0
39
0
210
0
220
0
230
1
50
360
0
POINT
5
231
100
AcDbEntity
8
Defpoints
62
0
6
ByLayer
370
-1
48
1
60
0
100
AcDbPoint
10
36.875
20
0
30
0
39
0
210
0
220
0
230
1
50
360
0
POINT
5
232
100
AcDbEntity
8
Defpoints
62
0
6
ByLayer
370
-1
48
1
60
0
100
AcDbPoint
10
36.875
20
-35.255752
30
0
39
0
210
0
220
0
230
1
50
360
0
ENDBLK
5
229
100
AcDbEntity
8
0
100
AcDbBlockEnd
0
BLOCK
5
23B
100
AcDbEntity
8
0
100
AcDbBlockBegin
2
_U2
70
0
10
0
20
0
30
0
3
_U2
0
MTEXT
5
235
100
AcDbEntity
8
2
62
256
6
ByLayer
370
18
48
1
60
0
100
AcDbMText
10
47.190801
20
-34.223119
30
0
210
0
220
0
230
1
1
\W0.7346;28.5
40
3.5
41
0
44
1.084337
50
0
71
7
72
5
7
iso_b_vert
0
LINE
5
236
100
AcDbEntity
8
2
62
256
6
ByLayer
370
13
48
1
60
0
100
AcDbLine
10
65.35
20
-1.5875
30
0
11
65.35
21
-37.255752
31
0
39
0
210
0
220
0
230
1
0
LINE
5
237
100
AcDbEntity
8
2
62
256
6
ByLayer
370
13
48
1
60
0
100
AcDbLine
10
36.875
20
-1.5875
30
0
11
36.875
21
-37.255752
31
0
39
0
210
0
220
0
230
1
0
LINE
5
238
100
AcDbEntity
8
2
62
256
6
ByLayer
370
13
48
1
60
0
100
AcDbLine
10
65.35
20
-35.255752
30
0
11
36.875
21
-35.255752
31
0
39
0
210
0
220
0
230
1
0
SOLID
5
239
100
AcDbEntity
8
2
62
256
6
ByLayer
370
18
48
1
60
0
100
AcDbTrace
10
65.35
20
-35.255752
30
0
11
61.850002
21
-35.716536
31
0
12
61.849998
22
-34.794968
32
0
13
61.849998
23
-34.794968
33
0
39
0
210
0
220
0
230
1
0
SOLID
5
23A
100
AcDbEntity
8
2
62
256
6
ByLayer
370
18
48
1
60
0
100
AcDbTrace
10
36.875
20
-35.255752
30
0
11
40.374998
21
-34.794968
31
0
12
40.375002
22
-35.716536
32
0
13
40.375002
23
-35.716536
33
0
39
0
210
0
220
0
230
1
0
ENDBLK
5
23C
100
AcDbEntity
8
0
100
AcDbBlockEnd
0
BLOCK
5
241
100
AcDbEntity
8
0
100
AcDbBlockBegin
2
*D7
70
1
10
0
20
0
30
0
3
*D7
0
LINE
5
243
100
AcDbEntity
8
0
62
256
6
ByLayer
370
-2
48
1
60
0
100
AcDbLine
10
65.35
20
-1.5875
30
0
11
65.35
21
-29.255752
31
0
39
0
210
0
220
0
230
1
0
LINE
5
244
100
AcDbEntity
8
0
62
256
6
ByLayer
370
-2
48
1
60
0
100
AcDbLine
10
53.35
20
-1.5875
30
0
11
53.35
21
-29.255752
31
0
39
0
210
0
220
0
230
1
0
LINE
5
245
100
AcDbEntity
8
0
62
256
6
ByLayer
370
-2
48
1
60
0
100
AcDbLine
10
68.85
20
-27.255752
30
0
11
72.35
21
-27.255752
31
0
39
0
210
0
220
0
230
1
0
LINE
5
246
100
AcDbEntity
8
0
62
256
6
ByLayer
370
-2
48
1
60
0
100
AcDbLine
10
49.85
20
-27.255752
30
0
11
46.35
21
-27.255752
31
0
39
0
210
0
220
0
230
1
0
SOLID
5
247
100
AcDbEntity
8
0
62
256
6
ByLayer
370
-1
48
1
60
0
100
AcDbTrace
10
68.85
20
-26.672419
30
0
11
68.85
21
-27.839085
31
0
12
65.35
22
-27.255752
32
0
13
65.35
23
-27.255752
33
0
39
0
210
0
220
0
230
1
0
SOLID
5
248
100
AcDbEntity
8
0
62
256
6
ByLayer
370
-1
48
1
60
0
100
AcDbTrace
10
49.85
20
-27.839085
30
0
11
49.85
21
-26.672419
31
0
12
53.35
22
-27.255752
32
0
13
53.35
23
-27.255752
33
0
39
0
210
0
220
0
230
1
0
MTEXT
5
249
100
AcDbEntity
8
0
62
256
6
ByLayer
370
18
48
1
60
0
100
AcDbMText
10
59.35
20
-20.255752
30
0
210
0
220
0
230
1
1
\A1;12
40
3.5
41
0
44
1
50
0
71
5
72
5
7
iso_b_vert
0
POINT
5
24A
100
AcDbEntity
8
Defpoints
62
0
6
ByLayer
370
-1
48
1
60
0
100
AcDbPoint
10
65.35
20
0
30
0
39
0
210
0
220
0
230
1
50
360
0
POINT
5
24B
100
AcDbEntity
8
Defpoints
62
0
6
ByLayer
370
-1
48
1
60
0
100
AcDbPoint
10
53.35
20
0
30
0
39
0
210
0
220
0
230
1
50
360
0
POINT
5
24C
100
AcDbEntity
8
Defpoints
62
0
6
ByLayer
370
-1
48
1
60
0
100
AcDbPoint
10
53.35
20
-27.255752
30
0
39
0
210
0
220
0
230
1
50
360
0
ENDBLK
5
242
100
AcDbEntity
8
0
100
AcDbBlockEnd
0
BLOCK
5
254
100
AcDbEntity
8
0
100
AcDbBlockBegin
2
_U3
70
0
10
0
20
0
30
0
3
_U3
0
MTEXT
5
24E
100
AcDbEntity
8
SK2
62
256
6
ByLayer
370
18
48
1
60
0
100
AcDbMText
10
55.865734
20
-26.223119
30
0
210
0
220
0
230
1
1
\W0.6563;12.0
40
3.5
41
0
44
1.084337
50
0
71
7
72
5
7
iso_b_vert
0
LINE
5
24F
100
AcDbEntity
8
SK2
62
256
6
ByLayer
370
13
48
1
60
0
100
AcDbLine
10
65.35
20
-1.5875
30
0
11
65.35
21
-29.255752
31
0
39
0
210
0
220
0
230
1
0
LINE
5
250
100
AcDbEntity
8
SK2
62
256
6
ByLayer
370
13
48
1
60
0
100
AcDbLine
10
53.35
20
-1.5875
30
0
11
53.35
21
-29.255752
31
0
39
0
210
0
220
0
230
1
0
LINE
5
251
100
AcDbEntity
8
SK2
62
256
6
ByLayer
370
13
48
1
60
0
100
AcDbLine
10
65.35
20
-27.255752
30
0
11
53.35
21
-27.255752
31
0
39
0
210
0
220
0
230
1
0
SOLID
5
252
100
AcDbEntity
8
SK2
62
256
6
ByLayer
370
18
48
1
60
0
100
AcDbTrace
10
65.35
20
-27.255752
30
0
11
61.850002
21
-27.716536
31
0
12
61.849998
22
-26.794968
32
0
13
61.849998
23
-26.794968
33
0
39
0
210
0
220
0
230
1
0
SOLID
5
253
100
AcDbEntity
8
SK2
62
256
6
ByLayer
370
18
48
1
60
0
100
AcDbTrace
10
53.35
20
-27.255752
30
0
11
56.849998
21
-26.794968
31
0
12
56.850002
22
-27.716536
32
0
13
56.850002
23
-27.716536
33
0
39
0
210
0
220
0
230
1
0
ENDBLK
5
255
100
AcDbEntity
8
0
100
AcDbBlockEnd
0
BLOCK
5
25A
100
AcDbEntity
8
0
100
AcDbBlockBegin
2
*D9
70
1
10
0
20
0
30
0
3
*D9
0
LINE
5
25C
100
AcDbEntity
8
0
62
256
6
ByLayer
370
-2
48
1
60
0
100
AcDbLine
10
65.35
20
1.5875
30
0
11
65.35
21
10.283302
31
0
39
0
210
0
220
0
230
1
0
LINE
5
25D
100
AcDbEntity
8
0
62
256
6
ByLayer
370
-2
48
1
60
0
100
AcDbLine
10
62.44
20
1.5875
30
0
11
62.44
21
10.283302
31
0
39
0
210
0
220
0
230
1
0
LINE
5
25E
100
AcDbEntity
8
0
62
256
6
ByLayer
370
-2
48
1
60
0
100
AcDbLine
10
68.85
20
8.283302
30
0
11
72.35
21
8.283302
31
0
39
0
210
0
220
0
230
1
0
LINE
5
25F
100
AcDbEntity
8
0
62
256
6
ByLayer
370
-2
48
1
60
0
100
AcDbLine
10
58.94
20
8.283302
30
0
11
55.44
21
8.283302
31
0
39
0
210
0
220
0
230
1
0
SOLID
5
260
100
AcDbEntity
8
0
62
256
6
ByLayer
370
-1
48
1
60
0
100
AcDbTrace
10
68.85
20
8.866635
30
0
11
68.85
21
7.699969
31
0
12
65.35
22
8.283302
32
0
13
65.35
23
8.283302
33
0
39
0
210
0
220
0
230
1
0
SOLID
5
261
100
AcDbEntity
8
0
62
256
6
ByLayer
370
-1
48
1
60
0
100
AcDbTrace
10
58.94
20
7.699969
30
0
11
58.94
21
8.866635
31
0
12
62.44
22
8.283302
32
0
13
62.44
23
8.283302
33
0
39
0
210
0
220
0
230
1
0
MTEXT
5
262
100
AcDbEntity
8
0
62
256
6
ByLayer
370
18
48
1
60
0
100
AcDbMText
10
63.895
20
15.283302
30
0
210
0
220
0
230
1
1
\A1;2.91
40
3.5
41
0
44
1
50
0
71
5
72
5
7
iso_b_vert
0
POINT
5
263
100
AcDbEntity
8
Defpoints
62
0
6
ByLayer
370
-1
48
1
60
0
100
AcDbPoint
10
65.35
20
0
30
0
39
0
210
0
220
0
230
1
50
360
0
POINT
5
264
100
AcDbEntity
8
Defpoints
62
0
6
ByLayer
370
-1
48
1
60
0
100
AcDbPoint
10
62.44
20
0
30
0
39
0
210
0
220
0
230
1
50
360
0
POINT
5
265
100
AcDbEntity
8
Defpoints
62
0
6
ByLayer
370
-1
48
1
60
0
100
AcDbPoint
10
62.44
20
8.283302
30
0
39
0
210
0
220
0
230
1
50
360
0
ENDBLK
5
25B
100
AcDbEntity
8
0
100
AcDbBlockEnd
0
BLOCK
5
26E
100
AcDbEntity
8
0
100
AcDbBlockBegin
2
_U4
70
0
10
0
20
0
30
0
3
_U4
0
MTEXT
5
267
100
AcDbEntity
8
SK2
62
256
6
ByLayer
370
18
48
1
60
0
100
AcDbMText
10
60.410734
20
16.315935
30
0
210
0
220
0
230
1
1
\W0.7208;2.91
40
3.5
41
0
44
1.084337
50
0
71
7
72
5
7
iso_b_vert
0
MTEXT
5
268
100
AcDbEntity
8
SK2
62
256
6
ByLayer
370
18
48
1
60
0
100
AcDbMText
10
60.410734
20
9.315935
30
0
210
0
220
0
230
1
1
\W0.6474;'C'
40
3.5
41
0
44
1.084337
50
0
71
7
72
5
7
iso_b_vert
0
LINE
5
269
100
AcDbEntity
8
SK2
62
256
6
ByLayer
370
13
48
1
60
0
100
AcDbLine
10
65.35
20
1.5875
30
0
11
65.35
21
10.283302
31
0
39
0
210
0
220
0
230
1
0
LINE
5
26A
100
AcDbEntity
8
SK2
62
256
6
ByLayer
370
13
48
1
60
0
100
AcDbLine
10
62.44
20
1.5875
30
0
11
62.44
21
10.283302
31
0
39
0
210
0
220
0
230
1
0
LINE
5
26B
100
AcDbEntity
8
SK2
62
256
6
ByLayer
370
13
48
1
60
0
100
AcDbLine
10
74.1
20
8.283302
30
0
11
53.69
21
8.283302
31
0
39
0
210
0
220
0
230
1
0
SOLID
5
26C
100
AcDbEntity
8
SK2
62
256
6
ByLayer
370
18
48
1
60
0
100
AcDbTrace
10
65.35
20
8.283302
30
0
11
68.849998
21
8.744086
31
0
12
68.850002
22
7.822518
32
0
13
68.850002
23
7.822518
33
0
39
0
210
0
220
0
230
1
0
SOLID
5
26D
100
AcDbEntity
8
SK2
62
256
6
ByLayer
370
18
48
1
60
0
100
AcDbTrace
10
62.44
20
8.283302
30
0
11
58.940002
21
7.822518
31
0
12
58.939998
22
8.744086
32
0
13
58.939998
23
8.744086
33
0
39
0
210
0
220
0
230
1
0
ENDBLK
5
26F
100
AcDbEntity
8
0
100
AcDbBlockEnd
0
BLOCK
5
274
100
AcDbEntity
8
0
100
AcDbBlockBegin
2
*D11
70
1
10
0
20
0
30
0
3
*D11
0
LINE
5
276
100
AcDbEntity
8
0
62
256
6
ByLayer
370
-2
48
1
60
0
100
AcDbLine
10
66.9375
20
-4.016651
30
0
11
84.1
21
-4.016651
31
0
39
0
210
0
220
0
230
1
0
LINE
5
277
100
AcDbEntity
8
0
62
256
6
ByLayer
370
-2
48
1
60
0
100
AcDbLine
10
66.9375
20
4.016651
30
0
11
84.1
21
4.016651
31
0
39
0
210
0
220
0
230
1
0
LINE
5
278
100
AcDbEntity
8
0
62
256
6
ByLayer
370
-2
48
1
60
0
100
AcDbLine
10
82.1
20
-7.516651
30
0
11
82.1
21
-11.016651
31
0
39
0
210
0
220
0
230
1
0
LINE
5
279
100
AcDbEntity
8
0
62
256
6
ByLayer
370
-2
48
1
60
0
100
AcDbLine
10
82.1
20
7.516651
30
0
11
82.1
21
11.016651
31
0
39
0
210
0
220
0
230
1
0
SOLID
5
27A
100
AcDbEntity
8
0
62
256
6
ByLayer
370
-1
48
1
60
0
100
AcDbTrace
10
82.683333
20
-7.516651
30
0
11
81.516667
21
-7.516651
31
0
12
82.1
22
-4.016651
32
0
13
82.1
23
-4.016651
33
0
39
0
210
0
220
0
230
1
0
SOLID
5
27B
100
AcDbEntity
8
0
62
256
6
ByLayer
370
-1
48
1
60
0
100
AcDbTrace
10
81.516667
20
7.516651
30
0
11
82.683333
21
7.516651
31
0
12
82.1
22
4.016651
32
0
13
82.1
23
4.016651
33
0
39
0
210
0
220
0
230
1
0
MTEXT
5
27C
100
AcDbEntity
8
0
62
256
6
ByLayer
370
18
48
1
60
0
100
AcDbMText
10
75.1
20
0
30
0
210
0
220
0
230
1
1
\A1;8.03
40
3.5
41
0
44
1
50
90
71
5
72
5
7
iso_b_vert
0
POINT
5
27D
100
AcDbEntity
8
Defpoints
62
0
6
ByLayer
370
-1
48
1
60
0
100
AcDbPoint
10
65.35
20
-4.016651
30
0
39
0
210
0
220
0
230
1
50
360
0
POINT
5
27E
100
AcDbEntity
8
Defpoints
62
0
6
ByLayer
370
-1
48
1
60
0
100
AcDbPoint
10
65.35
20
4.016651
30
0
39
0
210
0
220
0
230
1
50
360
0
POINT
5
27F
100
AcDbEntity
8
Defpoints
62
0
6
ByLayer
370
-1
48
1
60
0
100
AcDbPoint
10
82.1
20
4.016651
30
0
39
0
210
0
220
0
230
1
50
360
0
ENDBLK
5
275
100
AcDbEntity
8
0
100
AcDbBlockEnd
0
BLOCK
5
288
100
AcDbEntity
8
0
100
AcDbBlockBegin
2
_U5
70
0
10
0
20
0
30
0
3
_U5
0
MTEXT
5
281
100
AcDbEntity
8
2
62
256
6
ByLayer
370
18
48
1
60
0
100
AcDbMText
10
81.410366
20
-20.734797
30
0
210
0
220
0
230
1
1
\W0.7394;UNF 5/16-24
40
3.5
41
0
44
1.084337
50
90
71
7
72
5
7
iso_b_vert
0
MTEXT
5
282
100
AcDbEntity
8
2
62
256
6
ByLayer
370
18
48
1
60
0
100
AcDbMText
10
81.410366
20
10.992732
30
0
210
0
220
0
230
1
1
\W0.7601; 3BX
40
3.5
41
0
44
1.084337
50
90
71
7
72
5
7
iso_b_vert
0
LINE
5
283
100
AcDbEntity
8
2
62
256
6
ByLayer
370
13
48
1
60
0
100
AcDbLine
10
66.9375
20
-4.016651
30
0
11
84.1
21
-4.016651
31
0
39
0
210
0
220
0
230
1
0
LINE
5
284
100
AcDbEntity
8
2
62
256
6
ByLayer
370
13
48
1
60
0
100
AcDbLine
10
66.9375
20
4.016651
30
0
11
84.1
21
4.016651
31
0
39
0
210
0
220
0
230
1
0
LINE
5
285
100
AcDbEntity
8
2
62
256
6
ByLayer
370
13
48
1
60
0
100
AcDbLine
10
82.1
20
20.892297
30
0
11
82.1
21
-20.892297
31
0
39
0
210
0
220
0
230
1
0
SOLID
5
286
100
AcDbEntity
8
2
62
256
6
ByLayer
370
18
48
1
60
0
100
AcDbTrace
10
82.1
20
-4.016651
30
0
11
81.639216
21
-0.516653
31
0
12
82.560784
22
-0.516649
32
0
13
82.560784
23
-0.516649
33
0
39
0
210
0
220
0
230
1
0
SOLID
5
287
100
AcDbEntity
8
2
62
256
6
ByLayer
370
18
48
1
60
0
100
AcDbTrace
10
82.1
20
4.016651
30
0
11
82.560784
21
0.516653
31
0
12
81.639216
22
0.516649
32
0
13
81.639216
23
0.516649
33
0
39
0
210
0
220
0
230
1
0
ENDBLK
5
289
100
AcDbEntity
8
0
100
AcDbBlockEnd
0
ENDSEC
0
SECTION
2
ENTITIES
0
ARC
5
CC
100
AcDbEntity
8
SK1
62
256
6
ByLayer
370
18
48
1
60
0
100
AcDbCircle
39
0
10
-18.025
20
0
30
0
40
3.87696
210
0
220
0
230
1
100
AcDbArc
50
321.283517
51
38.716483
0
ARC
5
CD
100
AcDbEntity
8
1
62
256
6
ByLayer
370
18
48
1
60
0
100
AcDbCircle
39
0
10
31.946238
20
-4.3304
30
0
40
1.1
210
0
220
0
230
1
100
AcDbArc
50
90
51
100
0
ARC
5
CE
100
AcDbEntity
8
1
62
256
6
ByLayer
370
18
48
1
60
0
100
AcDbCircle
39
0
10
31.946238
20
4.3304
30
0
40
1.1
210
0
220
0
230
1
100
AcDbArc
50
260
51
270
0
POINT
5
70
100
AcDbEntity
8
81
62
256
6
ByLayer
370
18
48
1
60
0
100
AcDbPoint
10
65.35
20
0
30
0
39
0
210
0
220
0
230
1
50
360
0
POINT
5
72
100
AcDbEntity
8
80
62
256
6
ByLayer
370
18
48
1
60
0
100
AcDbPoint
10
0
20
0
30
0
39
0
210
0
220
0
230
1
50
360
0
POINT
5
74
100
AcDbEntity
8
1
62
256
6
ByLayer
370
18
48
1
60
0
100
AcDbPoint
10
-24.65
20
0
30
0
39
0
210
0
220
0
230
1
50
360
0
POINT
5
76
100
AcDbEntity
8
1
62
256
6
ByLayer
370
18
48
1
60
1
100
AcDbPoint
10
-24.65
20
0
30
0
39
0
210
0
220
0
230
1
50
360
0
POINT
5
77
100
AcDbEntity
8
1
62
256
6
ByLayer
370
18
48
1
60
1
100
AcDbPoint
10
65.35
20
0
30
0
39
0
210
0
220
0
230
1
50
360
0
POINT
5
78
100
AcDbEntity
8
1
62
256
6
ByLayer
370
18
48
1
60
1
100
AcDbPoint
10
65.35
20
0
30
0
39
0
210
0
220
0
230
1
50
360
0
POINT
5
79
100
AcDbEntity
8
1
62
256
6
ByLayer
370
18
48
1
60
1
100
AcDbPoint
10
31.85
20
0
30
0
39
0
210
0
220
0
230
1
50
360
0
POINT
5
7A
100
AcDbEntity
8
1
62
256
6
ByLayer
370
18
48
1
60
1
100
AcDbPoint
10
65.35
20
0
30
0
39
0
210
0
220
0
230
1
50
360
0
POINT
5
7B
100
AcDbEntity
8
1
62
256
6
ByLayer
370
18
48
1
60
1
100
AcDbPoint
10
36.875
20
0
30
0
39
0
210
0
220
0
230
1
50
360
0
POINT
5
7C
100
AcDbEntity
8
1
62
256
6
ByLayer
370
18
48
1
60
1
100
AcDbPoint
10
65.35
20
0
30
0
39
0
210
0
220
0
230
1
50
360
0
POINT
5
7D
100
AcDbEntity
8
1
62
256
6
ByLayer
370
18
48
1
60
1
100
AcDbPoint
10
53.35
20
0
30
0
39
0
210
0
220
0
230
1
50
360
0
POINT
5
7E
100
AcDbEntity
8
1
62
256
6
ByLayer
370
18
48
1
60
1
100
AcDbPoint
10
65.35
20
0
30
0
39
0
210
0
220
0
230
1
50
360
0
POINT
5
7F
100
AcDbEntity
8
1
62
256
6
ByLayer
370
18
48
1
60
1
100
AcDbPoint
10
62.44
20
0
30
0
39
0
210
0
220
0
230
1
50
360
0
POINT
5
80
100
AcDbEntity
8
1
62
256
6
ByLayer
370
18
48
1
60
1
100
AcDbPoint
10
65.35
20
-4.016651
30
0
39
0
210
0
220
0
230
1
50
360
0
POINT
5
81
100
AcDbEntity
8
1
62
256
6
ByLayer
370
18
48
1
60
1
100
AcDbPoint
10
65.35
20
4.016651
30
0
39
0
210
0
220
0
230
1
50
360
0
SPLINE
5
CF
100
AcDbEntity
8
1
62
256
6
ByLayer
370
18
48
1
60
0
100
AcDbSpline
70
4
71
3
72
8
73
4
40
0
40
0
40
0
40
0
40
1
40
1
40
1
40
1
41
1.04
10
57.4054437465804
20
3.39349081057216
30
0
41
1.04
10
57.4068585728541
20
3.39710367469867
30
0
41
1.04
10
57.4082774821317
20
3.40036602669939
30
0
41
1.04
10
57.4097005387554
20
3.40327057399745
30
0
0
SPLINE
5
D0
100
AcDbEntity
8
1
62
256
6
ByLayer
370
18
48
1
60
0
100
AcDbSpline
70
4
71
3
72
8
73
4
40
0
40
0
40
0
40
0
40
1
40
1
40
1
40
1
41
1
10
56.4289509397222
20
-3.77431187266347
30
0
41
1
10
56.4318689988765
20
-3.77294753414014
30
0
41
1
10
56.4348032735145
20
-3.7697155900054
30
0
41
1
10
56.4377477283989
20
-3.76462576553021
30
0
0
SPLINE
5
D1
100
AcDbEntity
8
1
62
256
6
ByLayer
370
18
48
1
60
0
100
AcDbSpline
70
4
71
3
72
9
73
5
40
0
40
0
40
0
40
0
40
0.0440047912373034
40
1
40
1
40
1
40
1
41
1
10
56.010948601378
20
-3.71682310806943
30
0
41
1
10
56.0107070852257
20
-3.71678929991239
30
0
41
1
10
56.0052171415946
20
-3.71579160834608
30
0
41
1
10
55.9996892479724
20
-3.70958053847789
30
0
41
1
10
55.9943318705521
20
-3.69876694398485
30
0
0
SPLINE
5
D2
100
AcDbEntity
8
1
62
256
6
ByLayer
370
18
48
1
60
0
100
AcDbSpline
70
4
71
3
72
8
73
4
40
0
40
0
40
0
40
0
40
1
40
1
40
1
40
1
41
1
10
57.8938933738431
20
3.98145448349624
30
0
41
1
10
57.8977914044783
20
3.98200752488711
30
0
41
1
10
57.9016699464322
20
3.97908300768748
30
0
41
1
10
57.9055169402722
20
3.97274478226581
30
0
0
SPLINE
5
D3
100
AcDbEntity
8
1
62
256
6
ByLayer
370
18
48
1
60
0
100
AcDbSpline
70
4
71
3
72
8
73
4
40
0
40
0
40
0
40
0
40
1
40
1
40
1
40
1
41
1
10
63.2890848033112
20
-3.50341995531119
30
0
41
1
10
63.2825104452091
20
-3.49203320632216
30
0
41
1
10
63.2758027156981
20
-3.476561437349
30
0
41
1
10
63.2689356134343
20
-3.45694897575507
30
0
0
SPLINE
5
D4
100
AcDbEntity
8
1
62
256
6
ByLayer
370
13
48
1
60
0
100
AcDbSpline
70
4
71
3
72
8
73
4
40
0
40
0
40
0
40
0
40
1
40
1
40
1
40
1
41
1.04
10
55.8178996338265
20
-3.39182827858329
30
0
41
1.04
10
55.8202792820467
20
-3.39791915809878
30
0
41
1.04
10
55.8226524980269
20
-3.40299081392771
30
0
41
1.04
10
55.8250195119271
20
-3.40705348319119
30
0
0
SPLINE
5
D5
100
AcDbEntity
8
1
62
256
6
ByLayer
370
13
48
1
60
0
100
AcDbSpline
70
4
71
3
72
8
73
4
40
0
40
0
40
0
40
0
40
1
40
1
40
1
40
1
41
1
10
58.2279589905105
20
3.41494409812438
30
0
41
1
10
58.2320889907659
20
3.41039136036349
30
0
41
1
10
58.2362302474232
20
3.40272329113751
30
0
41
1
10
58.2403835136188
20
3.39186197544265
30
0
0
SPLINE
5
D6
100
AcDbEntity
8
1
62
256
6
ByLayer
370
13
48
1
60
0
100
AcDbSpline
70
4
71
3
72
8
73
4
40
0
40
0
40
0
40
0
40
1
40
1
40
1
40
1
41
1.04
10
63.2178855216896
20
-3.36698300278935
30
0
41
1.04
10
63.2233471491892
20
-3.38616204205503
30
0
41
1.04
10
63.2288285323718
20
-3.40018173869654
30
0
41
1.04
10
63.2343311568585
20
-3.40885868189632
30
0
0
SPLINE
5
D7
100
AcDbEntity
8
1
62
256
6
ByLayer
370
13
48
1
60
0
100
AcDbSpline
70
4
71
3
72
8
73
4
40
0
40
0
40
0
40
0
40
1
40
1
40
1
40
1
41
1
10
55.5383842078142
20
-3.34839451338453
30
0
41
1
10
55.5541970738166
20
-3.41305208812403
30
0
41
1
10
55.5697129313071
20
-3.43279194986096
30
0
41
1
10
55.5849972054532
20
-3.4105662017009
30
0
0
SPLINE
5
D8
100
AcDbEntity
8
1
62
256
6
ByLayer
370
13
48
1
60
0
100
AcDbSpline
70
4
71
3
72
8
73
4
40
0
40
0
40
0
40
0
40
1
40
1
40
1
40
1
41
1
10
62.938443209297
20
-3.31160312886411
30
0
41
1
10
62.9568221457751
20
-3.40381979611112
30
0
41
1
10
62.9754132774928
20
-3.43860517836339
30
0
41
1
10
62.9942742150494
20
-3.4089146851571
30
0
0
SPLINE
5
D9
100
AcDbEntity
8
1
62
256
6
ByLayer
370
13
48
1
60
0
100
AcDbSpline
70
4
71
3
72
9
73
5
40
0
40
0
40
0
40
0
40
0.960003545192839
40
1
40
1
40
1
40
1
41
1.04
10
58.4709825535594
20
3.40772373422213
30
0
41
1.04
10
58.4864791938889
20
3.43431253432894
30
0
41
1.04
10
58.5027688690335
20
3.41762203395368
30
0
41
1.04
10
58.5192565070946
20
3.3500588078042
30
0
41
1.04
10
58.5199162744041
20
3.34727538348664
30
0
0
SPLINE
5
DA
100
AcDbEntity
8
1
62
256
6
ByLayer
370
18
48
1
60
0
100
AcDbSpline
70
4
71
3
72
13
73
9
40
0
40
0
40
0
40
0
40
0.172052374705073
40
0.172052374705073
40
0.344104749410146
40
0.344104749410146
40
0.688209498820293
40
1
40
1
40
1
40
1
41
1
10
55.4073999352654
20
-3.51831149184971
30
0
41
1
10
55.4096104040049
20
-3.53158208538267
30
0
41
1
10
55.4118289982514
20
-3.54379219568531
30
0
41
1
10
55.4162898863678
20
-3.56605826003795
30
0
41
1
10
55.4185371306124
20
-3.57613049084918
30
0
41
1
10
55.4252660217131
20
-3.6028314810745
30
0
41
1
10
55.4338084535599
20
-3.62799528538704
30
0
41
1
10
55.4424055610007
20
-3.63691170197839
30
0
41
1
10
55.4465092104856
20
-3.63749660234424
30
0
0
SPLINE
5
DB
100
AcDbEntity
8
1
62
256
6
ByLayer
370
18
48
1
60
0
100
AcDbSpline
70
4
71
3
72
16
73
12
40
0
40
0
40
0
40
0
40
0.491304344609091
40
0.491304344609091
40
0.554891301532955
40
0.554891301532955
40
0.618478258456818
40
0.618478258456818
40
0.745652172304545
40
0.745652172304545
40
1
40
1
40
1
40
1
41
1
10
54.8438822374397
20
-3.54064527245359
30
0
41
1
10
54.8336203952133
20
-3.52313860088509
30
0
41
1
10
54.8233067837501
20
-3.48985374888244
30
0
41
1
10
54.8116983431192
20
-3.43403220456321
30
0
41
1
10
54.8103687925739
20
-3.42736311039258
30
0
41
1
10
54.8077116038119
20
-3.41347528794603
30
0
41
1
10
54.8063823793174
20
-3.40624742278251
30
0
41
1
10
54.8024114385512
20
-3.38380567123315
30
0
41
1
10
54.7997883900007
20
-3.3678482219793
30
0
41
1
10
54.7919956328838
20
-3.31704142551112
30
0
41
1
10
54.7869192884963
20
-3.27926473785644
30
0
41
1
10
54.7818971405554
20
-3.23765156159581
30
0
0
SPLINE
5
DC
100
AcDbEntity
8
1
62
256
6
ByLayer
370
18
48
1
60
0
100
AcDbSpline
70
4
71
3
72
16
73
12
40
0
40
0
40
0
40
0
40
0.264385331598606
40
0.264385331598606
40
0.528770663197212
40
0.528770663197212
40
0.793155994795819
40
0.793155994795819
40
0.925348660595121
40
0.925348660595121
40
1
40
1
40
1
40
1
41
1
10
58.8881008481422
20
3.77869348542353
30
0
41
1
10
58.8827395461957
20
3.82047750574628
30
0
41
1
10
58.8773837764084
20
3.85664572555527
30
0
41
1
10
58.8667734084476
20
3.91807391230563
30
0
41
1
10
58.86152936686
20
3.94333323249225
30
0
41
1
10
58.8512553900152
20
3.9829842612379
30
0
41
1
10
58.8462058929777
20
3.99737608691012
30
0
41
1
10
58.8386663009441
20
4.01063833785892
30
0
41
1
10
58.8361587644312
20
4.01366935503847
30
0
41
1
10
58.8322306519466
20
4.01619309205506
30
0
41
1
10
58.8308180331767
20
4.01664766621724
30
0
41
1
10
58.8294091628836
20
4.01665100816066
30
0
0
SPLINE
5
DD
100
AcDbEntity
8
1
62
256
6
ByLayer
370
18
48
1
60
0
100
AcDbSpline
70
4
71
3
72
14
73
10
40
0
40
0
40
0
40
0
40
0.0930711876409964
40
0.395380791760664
40
0.697690395880332
40
0.697690395880332
40
0.848845197940166
40
0.848845197940166
40
1
40
1
40
1
40
1
41
1
10
58.943816733032
20
4.00597721812122
30
0
41
1
10
58.945399082965
20
4.00324008807368
30
0
41
1
10
58.9521228051647
20
3.98938884662664
30
0
41
1
10
58.9640105450523
20
3.94838922086117
30
0
41
1
10
58.9743327440569
20
3.89084210010759
30
0
41
1
10
58.9820600159518
20
3.83918546094458
30
0
41
1
10
58.9846362690968
20
3.82052693128955
30
0
41
1
10
58.9897673453328
20
3.78062008458048
30
0
41
1
10
58.9923266933561
20
3.75934420863345
30
0
41
1
10
58.9948878908931
20
3.73674998420097
30
0
0
SPLINE
5
DE
100
AcDbEntity
8
1
62
256
6
ByLayer
370
18
48
1
60
0
100
AcDbSpline
70
4
71
3
72
18
73
14
40
0
40
0
40
0
40
0
40
0.119089454851917
40
0.119089454851917
40
0.238178909703833
40
0.238178909703833
40
0.476357819407666
40
0.476357819407666
40
0.714536729111498
40
0.714536729111498
40
0.952715638815331
40
0.952715638815331
40
1
40
1
40
1
40
1
41
1
10
62.757026641769
20
-3.53146274908425
30
0
41
1
10
62.7573697762679
20
-3.5517439571949
30
0
41
1
10
62.7577264626984
20
-3.57089004664724
30
0
41
1
10
62.7585102628352
20
-3.60685650731159
30
0
41
1
10
62.7589382008171
20
-3.62369599552415
30
0
41
1
10
62.7603836244195
20
-3.67031190744064
30
0
41
1
10
62.7615919861842
20
-3.69625656969743
30
0
41
1
10
62.7644465413478
20
-3.73829522112825
30
0
41
1
10
62.7660842038508
20
-3.75440226278431
30
0
41
1
10
62.7697351119319
20
-3.77688566838899
30
0
41
1
10
62.7717477613567
20
-3.78326313065793
30
0
41
1
10
62.7744007820149
20
-3.7848867839991
30
0
41
1
10
62.7748487436913
20
-3.78495672827489
30
0
41
1
10
62.7753041513153
20
-3.78482633935832
30
0
0
SPLINE
5
DF
100
AcDbEntity
8
1
62
256
6
ByLayer
370
18
48
1
60
0
100
AcDbSpline
70
4
71
3
72
16
73
12
40
0
40
0
40
0
40
0
40
0.0662626353165505
40
0.0662626353165505
40
0.132958161365368
40
0.132958161365368
40
0.199653687414186
40
0.199653687414186
40
0.466435791609457
40
0.466435791609457
40
1
40
1
40
1
40
1
41
1
10
62.4705835056295
20
-3.91791467042546
30
0
41
1
10
62.4688963478842
20
-3.91482792527393
30
0
41
1
10
62.4672009620773
20
-3.91138959513586
30
0
41
1
10
62.4637818223006
20
-3.90378011058567
30
0
41
1
10
62.4620582962243
20
-3.89960381767938
30
0
41
1
10
62.4586102674882
20
-3.89057682664236
30
0
41
1
10
62.4568836030321
20
-3.88572155926133
30
0
41
1
10
62.4482348017781
20
-3.85975290334261
30
0
41
1
10
62.4412704024256
20
-3.83357645389529
30
0
41
1
10
62.4201765784428
20
-3.73906350073537
30
0
41
1
10
62.4057435018687
20
-3.6546947486932
30
0
41
1
10
62.3911631877532
20
-3.54888967786564
30
0
0
SPLINE
5
E0
100
AcDbEntity
8
1
62
256
6
ByLayer
370
13
48
1
60
0
100
AcDbSpline
70
4
71
3
72
9
73
5
40
0
40
0
40
0
40
0
40
0.167214933393065
40
1
40
1
40
1
40
1
41
1.04
10
54.7078951784132
20
-3.1046427879498
30
0
41
1.04
10
54.7113058904981
20
-3.13388978568549
30
0
41
1.04
10
54.7316295956446
20
-3.29658414145283
30
0
41
1.04
10
54.751502156903
20
-3.38422392353709
30
0
41
1.04
10
54.7678048178842
20
-3.4092891522957
30
0
0
SPLINE
5
E1
100
AcDbEntity
8
1
62
256
6
ByLayer
370
13
48
1
60
0
100
AcDbSpline
70
4
71
3
72
9
73
5
40
0
40
0
40
0
40
0
40
0.551737022183386
40
1
40
1
40
1
40
1
41
1
10
59.2895867082906
20
3.40945630463025
30
0
41
1
10
59.3007488266856
20
3.39224119292015
30
0
41
1
10
59.3209569126825
20
3.32050266414223
30
0
41
1
10
59.3412456089473
20
3.17603615530592
30
0
41
1
10
59.35035498649
20
3.09768680163435
30
0
0
SPLINE
5
E2
100
AcDbEntity
8
1
62
256
6
ByLayer
370
13
48
1
60
0
100
AcDbSpline
70
4
71
3
72
9
73
5
40
0
40
0
40
0
40
0
40
0.237175176087787
40
1
40
1
40
1
40
1
41
1
10
54.4284058042589
20
-2.98370355282393
30
0
41
1
10
54.4364112038217
20
-3.06355839850269
30
0
41
1
10
54.4698941851689
20
-3.35533510718113
30
0
41
1
10
54.5021646291145
20
-3.44522260045451
30
0
41
1
10
54.5262991545007
20
-3.4104624522634
30
0
0
SPLINE
5
E3
100
AcDbEntity
8
1
62
256
6
ByLayer
370
13
48
1
60
0
100
AcDbSpline
70
4
71
3
72
9
73
5
40
0
40
0
40
0
40
0
40
0.857896605177263
40
1
40
1
40
1
40
1
41
1.04
10
62.1079509114744
20
-3.03221207674303
30
0
41
1.04
10
62.1264260732271
20
-3.20523960478645
30
0
41
1.04
10
62.1484049978698
20
-3.34720918911432
30
0
41
1.04
10
62.1711401073403
20
-3.40093313874399
30
0
41
1.04
10
62.1743881531035
20
-3.40670500914078
30
0
0
SPLINE
5
E4
100
AcDbEntity
8
1
62
256
6
ByLayer
370
18
48
1
60
0
100
AcDbSpline
70
4
71
3
72
19
73
15
40
0
40
0
40
0
40
0
40
0.318548593044211
40
0.318548593044211
40
0.398185741305263
40
0.398185741305263
40
0.438004315435789
40
0.438004315435789
40
0.477822889566315
40
0.637097186088421
40
0.637097186088421
40
0.955645779132633
40
0.955645779132633
40
1
40
1
40
1
40
1
41
1
10
54.3855512047833
20
-3.01715951435168
30
0
41
1
10
54.3944733675472
20
-3.11595280476939
30
0
41
1
10
54.4035463278094
20
-3.20037146787814
30
0
41
1
10
54.4146921091137
20
-3.28762529885469
30
0
41
1
10
54.4169111721575
20
-3.30415649730716
30
0
41
1
10
54.4202301097515
20
-3.32755087493462
30
0
41
1
10
54.4213361437843
20
-3.33512375924858
30
0
41
1
10
54.4235380198596
20
-3.34974446200914
30
0
41
1
10
54.4290175395757
20
-3.38498748730564
30
0
41
1
10
54.4343862982784
20
-3.41377050545702
30
0
41
1
10
54.4471751545459
20
-3.47076484173616
30
0
41
1
10
54.455577718615
20
-3.49273077302948
30
0
41
1
10
54.4653290027694
20
-3.49928638814177
30
0
41
1
10
54.466523740383
20
-3.49977126017376
30
0
41
1
10
54.4677220080209
20
-3.49993690200486
30
0
0
SPLINE
5
E5
100
AcDbEntity
8
1
62
256
6
ByLayer
370
18
48
1
60
0
100
AcDbSpline
70
4
71
3
72
25
73
21
40
0
40
0
40
0
40
0
40
0.25
40
0.25
40
0.374999999999999
40
0.374999999999999
40
0.437499999999999
40
0.437499999999999
40
0.46875
40
0.46875
40
0.5
40
0.5
40
0.750000000000001
40
0.750000000000001
40
0.875000000000002
40
0.875000000000002
40
0.937500000000001
40
0.937500000000001
40
0.968750000000001
40
1
40
1
40
1
40
1
41
1
10
53.6862230359186
20
-3.37757640583732
30
0
41
1
10
53.6759460160309
20
-3.36001053713718
30
0
41
1
10
53.6655643562756
20
-3.32717881262434
30
0
41
1
10
53.6492534976565
20
-3.25549083622337
30
0
41
1
10
53.6437010037764
20
-3.22783667787218
30
0
41
1
10
53.6351827599435
20
-3.18060778731757
30
0
41
1
10
53.632312101497
20
-3.16390568701559
30
0
41
1
10
53.627960212694
20
-3.13738856746261
30
0
41
1
10
53.6265012563008
20
-3.12830051146739
30
0
41
1
10
53.6235823385967
20
-3.10972115496023
30
0
41
1
10
53.6221207329548
20
-3.10022006660793
30
0
41
1
10
53.6089503656527
20
-3.01282542042435
30
0
41
1
10
53.5971195176259
20
-2.92182940593895
30
0
41
1
10
53.5796306021963
20
-2.76592263968598
30
0
41
1
10
53.5738466565507
20
-2.71070136547417
30
0
41
1
10
53.5652782150869
20
-2.62290503614804
30
0
41
1
10
53.5624396303197
20
-2.59281108850467
30
0
41
1
10
53.5582077733082
20
-2.54640608602432
30
0
41
1
10
53.5553918327723
20
-2.51500949176108
30
0
41
1
10
53.552611500781
20
-2.48299022299827
30
0
41
1
10
53.5512294920474
20
-2.46682646024891
30
0
0
SPLINE
5
E6
100
AcDbEntity
8
1
62
256
6
ByLayer
370
18
48
1
60
0
100
AcDbSpline
70
4
71
3
72
26
73
22
40
0
40
0
40
0
40
0
40
0.124999999999998
40
0.124999999999998
40
0.249999999999997
40
0.249999999999997
40
0.374999999999995
40
0.374999999999995
40
0.437499999999995
40
0.437499999999995
40
0.468749999999995
40
0.468749999999995
40
0.499999999999995
40
0.499999999999995
40
0.749999999999997
40
0.749999999999997
40
0.874999999999999
40
0.874999999999999
40
0.937499999999999
40
0.937499999999999
40
1
40
1
40
1
40
1
41
1
10
53.4074380253284
20
-2.36253424847035
30
0
41
1
10
53.411081469898
20
-2.42708283817367
30
0
41
1
10
53.4147250088667
20
-2.48874662302174
30
0
41
1
10
53.4217341112828
20
-2.60639364647199
30
0
41
1
10
53.4251272193855
20
-2.6623789592949
30
0
41
1
10
53.4317368632758
20
-2.76867694302467
30
0
41
1
10
53.434954902429
20
-2.81898987587687
30
0
41
1
10
53.4397362014135
20
-2.89012881450623
30
0
41
1
10
53.441322712137
20
-2.91311920521503
30
0
41
1
10
53.4437043715443
20
-2.94650321955271
30
0
41
1
10
53.4444990212028
20
-2.95745302711623
30
0
41
1
10
53.4460839779096
20
-2.97888613070114
30
0
41
1
10
53.446875135586
20
-2.98938157728148
30
0
41
1
10
53.4539933487707
20
-3.08186949374488
30
0
41
1
10
53.4603265336093
20
-3.15015628395537
30
0
41
1
10
53.4704582785712
20
-3.23233245634603
30
0
41
1
10
53.4739367514126
20
-3.25633178997566
30
0
41
1
10
53.479340649856
20
-3.2871670951908
30
0
41
1
10
53.4811726462859
20
-3.29658384076018
30
0
41
1
10
53.4848991893354
20
-3.31366790328755
30
0
41
1
10
53.4867977162044
20
-3.32134647752338
30
0
41
1
10
53.4887104821339
20
-3.32808222740673
30
0
0
SPLINE
5
E7
100
AcDbEntity
8
1
62
256
6
ByLayer
370
13
48
1
60
0
100
AcDbSpline
70
4
71
3
72
9
73
5
40
0
40
0
40
0
40
0
40
0.582435644698987
40
1
40
1
40
1
40
1
41
1.04
10
59.5319947039444
20
3.41192283804657
30
0
41
1.04
10
59.5510260132343
20
3.43742108292447
30
0
41
1.04
10
59.5835103271816
20
3.36950972488217
30
0
41
1.04
10
59.616203579621
20
3.11290499175615
30
0
41
1.04
10
59.629886515938
20
2.97628140784525
30
0
0
SPLINE
5
E8
100
AcDbEntity
8
1
62
256
6
ByLayer
370
18
48
1
60
0
100
AcDbSpline
70
4
71
3
72
8
73
4
40
0
40
0
40
0
40
0
40
1
40
1
40
1
40
1
41
1
10
60.3535225840921
20
3.39861040373924
30
0
41
1
10
60.3557333070033
20
3.39372063069828
30
0
41
1
10
60.3579408795706
20
3.38796784544817
30
0
41
1
10
60.3601452085233
20
3.38135989356925
30
0
0
SPLINE
5
E9
100
AcDbEntity
8
1
62
256
6
ByLayer
370
13
48
1
60
0
100
AcDbSpline
70
4
71
3
72
9
73
5
40
0
40
0
40
0
40
0
40
0.0836152383191755
40
1
40
1
40
1
40
1
41
1
10
60.3601452085233
20
3.38135989356923
30
0
41
1
10
60.3629820309256
20
3.3728559060404
30
0
41
1
10
60.3968448817738
20
3.25421353321849
30
0
41
1
10
60.4299109293549
20
2.93538536694353
30
0
41
1
10
60.4604703635431
20
2.51409253960554
30
0
0
SPLINE
5
EA
100
AcDbEntity
8
1
62
256
6
ByLayer
370
18
48
1
60
0
100
AcDbSpline
70
4
71
3
72
21
73
17
40
0
40
0
40
0
40
0
40
0.139869518179835
40
0.27973903635967
40
0.419608554539505
40
0.419608554539505
40
0.489543313629423
40
0.489543313629423
40
0.559478072719341
40
0.559478072719341
40
0.699347590899177
40
0.699347590899177
40
0.839217109079013
40
0.979086627258849
40
0.979086627258849
40
1
40
1
40
1
40
1
41
1
10
59.9978306759716
20
3.18948987052767
30
0
41
1
10
59.9927220556436
20
3.26438626508124
30
0
41
1
10
59.9826033992091
20
3.40414722756373
30
0
41
1
10
59.9673855244068
20
3.58454386790376
30
0
41
1
10
59.9570912836654
20
3.68538766663204
30
0
41
1
10
59.9493071033811
20
3.75358353565042
30
0
41
1
10
59.9467021965724
20
3.77507407031473
30
0
41
1
10
59.9414758543666
20
3.81552182619885
30
0
41
1
10
59.9388739878218
20
3.83432728755005
30
0
41
1
10
59.931117300418
20
3.88654110719887
30
0
41
1
10
59.9260223607546
20
3.91577043588137
30
0
41
1
10
59.915887262264
20
3.9633029437849
30
0
41
1
10
59.9057999914478
20
3.99990768015098
30
0
41
1
10
59.8956152500456
20
4.01457929692751
30
0
41
1
10
59.8896905834244
20
4.01652494462399
30
0
41
1
10
59.8889184221723
20
4.01665100682087
30
0
41
1
10
59.8881452106427
20
4.01665004359933
30
0
0
SPLINE
5
EB
100
AcDbEntity
8
1
62
256
6
ByLayer
370
18
48
1
60
0
100
AcDbSpline
70
4
71
3
72
23
73
19
40
0
40
0
40
0
40
0
40
0.0626199498724981
40
0.196531385604999
40
0.196531385604999
40
0.330442821337499
40
0.330442821337499
40
0.39739853920375
40
0.39739853920375
40
0.46435425707
40
0.46435425707
40
0.5982656928025
40
0.732177128535
40
0.8660885642675
40
0.8660885642675
40
0.93304428213375
40
0.93304428213375
40
1
40
1
40
1
40
1
41
1
10
59.9896564505908
20
4.01665343269502
30
0
41
1
10
59.9920384797108
20
4.01665783692712
30
0
41
1
10
59.9995273045133
20
4.01282123729928
30
0
41
1
10
60.0070909326152
20
3.99706573347635
30
0
41
1
10
60.0174645625178
20
3.96457419493569
30
0
41
1
10
60.0226817662703
20
3.94281845756913
30
0
41
1
10
60.0305063180279
20
3.90174567875721
30
0
41
1
10
60.0331161407127
20
3.8866460339205
30
0
41
1
10
60.0383454281056
20
3.85357224690293
30
0
41
1
10
60.0409466184395
20
3.83571269488576
30
0
41
1
10
60.0487109591936
20
3.77830818842247
30
0
41
1
10
60.0589676924992
20
3.69152793993507
30
0
41
1
10
60.0742383580508
20
3.53128677590112
30
0
41
1
10
60.0844489250377
20
3.40434586061784
30
0
41
1
10
60.092154406683
20
3.30137954587968
30
0
41
1
10
60.0947328429027
20
3.26572811679239
30
0
41
1
10
60.0998731389404
20
3.19233220670901
30
0
41
1
10
60.1024395044862
20
3.15452971574322
30
0
41
1
10
60.1050044210957
20
3.11562606860181
30
0
0
SPLINE
5
EC
100
AcDbEntity
8
1
62
256
6
ByLayer
370
13
48
1
60
0
100
AcDbSpline
70
4
71
3
72
9
73
5
40
0
40
0
40
0
40
0
40
0.708140324797393
40
1
40
1
40
1
40
1
41
1
10
61.8283742642569
20
-2.90034807889438
30
0
41
1
10
61.8512201264742
20
-3.14573278027572
30
0
41
1
10
61.8842232092226
20
-3.38667539700225
30
0
41
1
10
61.9189565912536
20
-3.42542733881152
30
0
41
1
10
61.9293024193967
20
-3.4171115608352
30
0
0
SPLINE
5
ED
100
AcDbEntity
8
1
62
256
6
ByLayer
370
18
48
1
60
0
100
AcDbSpline
70
4
71
3
72
8
73
4
40
0
40
0
40
0
40
0
40
1
40
1
40
1
40
1
41
1
10
61.9293028367832
20
-3.41711122533746
30
0
41
1
10
61.9318297117508
20
-3.41508004394385
30
0
41
1
10
61.9343690277928
20
-3.41187810499324
30
0
41
1
10
61.9369216760598
20
-3.40747039880867
30
0
0
SPLINE
5
EE
100
AcDbEntity
8
1
62
256
6
ByLayer
370
13
48
1
60
0
100
AcDbSpline
70
4
71
3
72
9
73
5
40
0
40
0
40
0
40
0
40
0.396065501232952
40
1
40
1
40
1
40
1
41
1.04
10
60.9980117473843
20
-2.41276473783938
30
0
41
1.04
10
61.0129188753552
20
-2.62764215974407
30
0
41
1.04
10
61.0503564326289
20
-3.09694297494305
30
0
41
1.04
10
61.087534884519
20
-3.33769162255291
30
0
41
1.04
10
61.1100020593583
20
-3.39356567193748
30
0
0
SPLINE
5
EF
100
AcDbEntity
8
1
62
256
6
ByLayer
370
18
48
1
60
0
100
AcDbSpline
70
4
71
3
72
22
73
18
40
0
40
0
40
0
40
0
40
0.076443528598182
40
0.230369607165152
40
0.230369607165152
40
0.307332646448637
40
0.307332646448637
40
0.384295685732121
40
0.384295685732121
40
0.538221764299091
40
0.69214784286606
40
0.69214784286606
40
0.84607392143303
40
0.84607392143303
40
0.923036960716515
40
0.923036960716515
40
1
40
1
40
1
40
1
41
1
10
61.4553347174383
20
-3.98716960976341
30
0
41
1
10
61.4528105888847
20
-3.97985017614352
30
0
41
1
10
61.4451793849928
20
-3.95370373123072
30
0
41
1
10
61.4374352083677
20
-3.91526083821051
30
0
41
1
10
61.4295749115525
20
-3.86832282821155
30
0
41
1
10
61.4269386774827
20
-3.85127323409625
30
0
41
1
10
61.4216338598993
20
-3.8143097875755
30
0
41
1
10
61.4189851456046
20
-3.79453383589032
30
0
41
1
10
61.4110589608455
20
-3.73143087595906
30
0
41
1
10
61.4005379769499
20
-3.63721602613865
30
0
41
1
10
61.3902181189248
20
-3.52326806048697
30
0
41
1
10
61.380082167973
20
-3.39941316549999
30
0
41
1
10
61.3750968012599
20
-3.33253315343782
30
0
41
1
10
61.3676005832196
20
-3.22456927969026
30
0
41
1
10
61.3650973914342
20
-3.18727499740587
30
0
41
1
10
61.3601027182796
20
-3.11067274227443
30
0
41
1
10
61.3576066597468
20
-3.07130091791447
30
0
41
1
10
61.3551033688364
20
-3.03086246270524
30
0
0
SPLINE
5
F0
100
AcDbEntity
8
1
62
256
6
ByLayer
370
18
48
1
60
0
100
AcDbSpline
70
4
71
3
72
23
73
19
40
0
40
0
40
0
40
0
40
0.13329386061745
40
0.2665877212349
40
0.39988158185235
40
0.39988158185235
40
0.466528512161074
40
0.466528512161074
40
0.533175442469799
40
0.533175442469799
40
0.666469303087247
40
0.799763163704696
40
0.799763163704696
40
0.933057024322145
40
0.933057024322145
40
0.999703954630869
40
0.999703954630869
40
1
40
1
40
1
40
1
41
1
10
61.4618500202899
20
-3.10706490070504
30
0
41
1
10
61.4669547383161
20
-3.18522254908345
30
0
41
1
10
61.4771215903655
20
-3.33166645896378
30
0
41
1
10
61.4924005351553
20
-3.5225692749502
30
0
41
1
10
61.5026654351421
20
-3.63074324250209
30
0
41
1
10
61.5104110276067
20
-3.70456303202607
30
0
41
1
10
61.5130006964239
20
-3.72794928069303
30
0
41
1
10
61.518199104208
20
-3.77223164951931
30
0
41
1
10
61.5207899553728
20
-3.79297415498269
30
0
41
1
10
61.5285326094034
20
-3.85099534430859
30
0
41
1
10
61.5387852701137
20
-3.91724217124252
30
0
41
1
10
61.5489893395236
20
-3.96173023249619
30
0
41
1
10
61.5592483248536
20
-3.99530064070771
30
0
41
1
10
61.564409545524
20
-4.00662774685895
30
0
41
1
10
61.5722397536258
20
-4.01519370589597
30
0
41
1
10
61.5748662447334
20
-4.01663718301225
30
0
41
1
10
61.5775004975612
20
-4.01665092834494
30
0
41
1
10
61.5775121471659
20
-4.01665096107229
30
0
41
1
10
61.5775237967833
20
-4.01665096574069
30
0
0
SPLINE
5
F1
100
AcDbEntity
8
1
62
256
6
ByLayer
370
18
48
1
60
0
100
AcDbSpline
70
4
71
3
72
24
73
20
40
0
40
0
40
0
40
0
40
0.0624999999999992
40
0.0624999999999992
40
0.0937499999999988
40
0.0937499999999988
40
0.124999999999998
40
0.249999999999998
40
0.249999999999998
40
0.499999999999998
40
0.499999999999998
40
0.562499999999998
40
0.562499999999998
40
0.593749999999997
40
0.593749999999997
40
0.624999999999997
40
0.749999999999998
40
0.749999999999998
40
1
40
1
40
1
40
1
41
1
10
54.045587291232
20
3.12805396008201
30
0
41
1
10
54.0477931647075
20
3.10840997110412
30
0
41
1
10
54.0500025698297
20
3.08780785915977
30
0
41
1
10
54.0533216479032
20
3.05544213511314
30
0
41
1
10
54.0544295239798
20
3.04440214787829
30
0
41
1
10
54.0566365920508
20
3.02193577540569
30
0
41
1
10
54.0621385163364
20
2.96474597828188
30
0
41
1
10
54.0675611467184
20
2.90249870543391
30
0
41
1
10
54.0804186377464
20
2.74362014434718
30
0
41
1
10
54.088693301205
20
2.62510554910574
30
0
41
1
10
54.0992317503044
20
2.46105749357767
30
0
41
1
10
54.1013507491502
20
2.42744778236963
30
0
41
1
10
54.1045550874556
20
2.37581402045313
30
0
41
1
10
54.1056287541466
20
2.35837854042816
30
0
41
1
10
54.1077779806654
20
2.32322524752254
30
0
41
1
10
54.1131555748273
20
2.23463104236697
30
0
41
1
10
54.1185720134572
20
2.14252786883969
30
0
41
1
10
54.1316628544056
20
1.9149102469583
30
0
41
1
10
54.1405385786639
20
1.75445294952428
30
0
41
1
10
54.1492717596338
20
1.58513839300883
30
0
0
SPLINE
5
F2
100
AcDbEntity
8
1
62
256
6
ByLayer
370
13
48
1
60
0
100
AcDbSpline
70
4
71
3
72
9
73
5
40
0
40
0
40
0
40
0
40
0.335488127205595
40
1
40
1
40
1
40
1
41
1
10
54.0583303663557
20
3.10257587810631
30
0
41
1
10
54.0705578125996
20
2.99857608115136
30
0
41
1
10
54.1072206729087
20
2.61368938233827
30
0
41
1
10
54.1449728428096
20
2.0118994067457
30
0
41
1
10
54.1700276017058
20
1.55930640390537
30
0
0
SPLINE
5
F3
100
AcDbEntity
8
1
62
256
6
ByLayer
370
18
48
1
60
0
100
AcDbSpline
70
4
71
3
72
24
73
20
40
0
40
0
40
0
40
0
40
0.0728438374253001
40
0.0728438374253001
40
0.1456876748506
40
0.1456876748506
40
0.2913753497012
40
0.2913753497012
40
0.5827506994024
40
0.5827506994024
40
0.728438374253009
40
0.728438374253009
40
0.764860292965661
40
0.764860292965661
40
0.801282211678314
40
0.801282211678314
40
0.874126049103618
40
0.874126049103618
40
1
40
1
40
1
40
1
41
1
10
41.3705444462715
20
3.01512750974012
30
0
41
1
10
41.3356826524632
20
3.00392910456557
30
0
41
1
10
41.3006936276356
20
2.99239491814845
30
0
41
1
10
41.2302622690819
20
2.96880730664572
30
0
41
1
10
41.1948258211911
20
2.95675160729712
30
0
41
1
10
41.0877932129338
20
2.91991521297848
30
0
41
1
10
41.0154782313912
20
2.89446056366214
30
0
41
1
10
40.7950348888653
20
2.81646642858217
30
0
41
1
10
40.6434687357299
20
2.76222183953305
30
0
41
1
10
40.4063654644741
20
2.68251912658738
30
0
41
1
10
40.3257138715215
20
2.65623082162131
30
0
41
1
10
40.2225743463047
20
2.62430252597835
30
0
41
1
10
40.2018293579681
20
2.61796426963477
30
0
41
1
10
40.1600939314302
20
2.60540078189473
30
0
41
1
10
40.1390924143476
20
2.59917000599211
30
0
41
1
10
40.0759615768419
20
2.58073955309916
30
0
41
1
10
40.0336328560514
20
2.56878153858227
30
0
41
1
10
39.9174528289617
20
2.53725329934409
30
0
41
1
10
39.8430990219582
20
2.51845312010741
30
0
41
1
10
39.7678563487435
20
2.50126543422479
30
0
0
SPLINE
5
F4
100
AcDbEntity
8
1
62
256
6
ByLayer
370
18
48
1
60
0
100
AcDbSpline
70
4
71
3
72
20
73
16
40
0
40
0
40
0
40
0
40
0.0177509743330523
40
0.0177509743330523
40
0.158072263714043
40
0.158072263714043
40
0.298393553095033
40
0.298393553095033
40
0.438714842476024
40
0.438714842476024
40
0.579036131857014
40
0.579036131857014
40
0.719357421238005
40
0.719357421238005
40
1
40
1
40
1
40
1
41
1
10
37.5584120723349
20
3.23039620279692
30
0
41
1
10
37.5660090663131
20
3.23038124148118
30
0
41
1
10
37.5736233884353
20
3.23032903778105
30
0
41
1
10
37.6415745889945
20
3.22953809432877
30
0
41
1
10
37.7029245185225
20
3.22654290888076
30
0
41
1
10
37.827074391362
20
3.21631237297402
30
0
41
1
10
37.8898775771098
20
3.20907463807083
30
0
41
1
10
38.0165298152557
20
3.19053343374736
30
0
41
1
10
38.0803805490255
20
3.17922871310725
30
0
41
1
10
38.2088471572335
20
3.15261639712722
30
0
41
1
10
38.2734562896097
20
3.13730623064109
30
0
41
1
10
38.4032823658146
20
3.10267044733496
30
0
41
1
10
38.4685688486656
20
3.08332156869113
30
0
41
1
10
38.6640265943814
20
3.01948073121247
30
0
41
1
10
38.7940703882865
20
2.96914592427279
30
0
41
1
10
38.923618535485
20
2.9107758194713
30
0
0
SPLINE
5
F5
100
AcDbEntity
8
1
62
256
6
ByLayer
370
13
48
1
60
0
100
AcDbSpline
70
4
71
3
72
10
73
6
40
0
40
0
40
0
40
0
40
0.211431361291257
40
0.894135109671515
40
1
40
1
40
1
40
1
41
1.04
10
54.3378963369041
20
2.98196226122063
30
0
41
1.04
10
54.345605813173
20
2.90551814284276
30
0
41
1.04
10
54.3783606558165
20
2.54078715754673
30
0
41
1.04
10
54.4159588674583
20
1.94025063381145
30
0
41
1.04
10
54.4455466837792
20
1.39398066586707
30
0
41
1.04
10
54.4495130472024
20
1.3196504222102
30
0
0
SPLINE
5
F6
100
AcDbEntity
8
1
62
256
6
ByLayer
370
13
48
1
60
0
100
AcDbSpline
70
4
71
3
72
10
73
6
40
0
40
0
40
0
40
0
40
0.0575249914153235
40
0.96954493742993
40
1
40
1
40
1
40
1
41
1.04
10
60.627982670438
20
3.37720482467958
30
0
41
1.04
10
60.6301596176316
20
3.37032566116028
30
0
41
1.04
10
60.6667967224631
20
3.24032584616621
30
0
41
1.04
10
60.7036217707536
20
2.86407629008767
30
0
41
1.04
10
60.7388047139199
20
2.34439317068291
30
0
41
1.04
10
60.7399419927518
20
2.32743413348902
30
0
0
SPLINE
5
F7
100
AcDbEntity
8
1
62
256
6
ByLayer
370
18
48
1
60
0
100
AcDbSpline
70
4
71
3
72
24
73
20
40
0
40
0
40
0
40
0
40
0.125
40
0.125
40
0.25
40
0.25
40
0.374999999999999
40
0.374999999999999
40
0.437499999999999
40
0.437499999999999
40
0.499999999999999
40
0.499999999999999
40
0.624999999999999
40
0.75
40
0.875
40
0.875
40
0.9375
40
0.9375
40
1
40
1
40
1
40
1
41
1
10
61.1082296492992
20
2.30070204372035
30
0
41
1
10
61.1032003532325
20
2.40167138207872
30
0
41
1
10
61.0981347385421
20
2.49869283443635
30
0
41
1
10
61.0878986161574
20
2.68506671742077
30
0
41
1
10
61.0827333998541
20
2.77441884623397
30
0
41
1
10
61.0724265641615
20
2.94548804982733
30
0
41
1
10
61.0672738539675
20
3.0272049913934
30
0
41
1
10
61.0595062900984
20
3.14393152785053
30
0
41
1
10
61.0569106815138
20
3.18186404534487
30
0
41
1
10
61.0517000309113
20
3.25573659378836
30
0
41
1
10
61.0491040032979
20
3.29140612035405
30
0
41
1
10
61.0413407830887
20
3.39460300629531
30
0
41
1
10
61.0310497710609
20
3.52212871750137
30
0
41
1
10
61.0156732041498
20
3.68383991993724
30
0
41
1
10
61.0054010487108
20
3.77185918279574
30
0
41
1
10
60.997669047762
20
3.83023684501899
30
0
41
1
10
60.9950851288162
20
3.84842862132655
30
0
41
1
10
60.989943269967
20
3.88196854418902
30
0
41
1
10
60.9873806842427
20
3.89735432116586
30
0
41
1
10
60.9848246697367
20
3.91136089550872
30
0
0
SPLINE
5
F8
100
AcDbEntity
8
1
62
256
6
ByLayer
370
18
48
1
60
0
100
AcDbSpline
70
4
71
3
72
23
73
19
40
0
40
0
40
0
40
0
40
0.124999999999999
40
0.124999999999999
40
0.249999999999997
40
0.374999999999996
40
0.374999999999996
40
0.437499999999996
40
0.437499999999996
40
0.499999999999996
40
0.499999999999996
40
0.624999999999996
40
0.749999999999997
40
0.874999999999998
40
0.874999999999998
40
0.937499999999999
40
0.937499999999999
40
1
40
1
40
1
40
1
41
1
10
61.0921205566783
20
3.88264800717397
30
0
41
1
10
61.0972173039328
20
3.85109378082277
30
0
41
1
10
61.1021819826023
20
3.81429428763445
30
0
41
1
10
61.1121356888698
20
3.73051087177691
30
0
41
1
10
61.1221300279709
20
3.63654153273265
30
0
41
1
10
61.1325033545864
20
3.52229502978633
30
0
41
1
10
61.1403941465149
20
3.42884729234336
30
0
41
1
10
61.1430413831398
20
3.39640218928082
30
0
41
1
10
61.1483446412016
20
3.32886733307302
30
0
41
1
10
61.1509804602439
20
3.29400804372133
30
0
41
1
10
61.158835375846
20
3.18636690498633
30
0
41
1
10
61.1691787780405
20
3.03456044613756
30
0
41
1
10
61.184461638542
20
2.78252564472893
30
0
41
1
10
61.1946168742904
20
2.59823488385032
30
0
41
1
10
61.2022690426866
20
2.45374166328335
30
0
41
1
10
61.204827969449
20
2.40448282541399
30
0
41
1
10
61.2099284089622
20
2.30456770397373
30
0
41
1
10
61.2124743312926
20
2.25383001052731
30
0
41
1
10
61.2150195729679
20
2.20231467986477
30
0
0
SPLINE
5
F9
100
AcDbEntity
8
1
62
256
6
ByLayer
370
13
48
1
60
0
100
AcDbSpline
70
4
71
3
72
10
73
6
40
0
40
0
40
0
40
0
40
0.283389839167562
40
0.969904629145885
40
1
40
1
40
1
40
1
41
1
10
61.4583994661741
20
3.16692373647064
30
0
41
1
10
61.4691902819838
20
3.08400603930264
30
0
41
1
10
61.5061778948444
20
2.73420348210374
30
0
41
1
10
61.54310637228
20
2.17733133264215
30
0
41
1
10
61.5694769770064
20
1.71390021996206
30
0
41
1
10
61.5705842443486
20
1.69432963948023
30
0
0
SPLINE
5
FA
100
AcDbEntity
8
1
62
256
6
ByLayer
370
13
48
1
60
0
100
AcDbSpline
70
4
71
3
72
9
73
5
40
0
40
0
40
0
40
0
40
0.517373516494993
40
1
40
1
40
1
40
1
41
1
10
60.7185558847622
20
-2.2186864786274
30
0
41
1
10
60.7380532580501
20
-2.51994753753209
30
0
41
1
10
60.775439212431
20
-3.01348057424056
30
0
41
1
10
60.8125672009751
20
-3.27903867069307
30
0
41
1
10
60.8304809851895
20
-3.35103906130956
30
0
0
SPLINE
5
FB
100
AcDbEntity
8
1
62
256
6
ByLayer
370
18
48
1
60
0
100
AcDbSpline
70
4
71
3
72
27
73
23
40
0
40
0
40
0
40
0
40
0.0625000000000007
40
0.0625000000000007
40
0.125000000000001
40
0.125000000000001
40
0.250000000000003
40
0.250000000000003
40
0.375000000000004
40
0.500000000000006
40
0.500000000000006
40
0.531250000000006
40
0.531250000000006
40
0.562500000000006
40
0.562500000000006
40
0.625000000000006
40
0.625000000000006
40
0.750000000000004
40
0.750000000000004
40
0.875000000000002
40
0.875000000000002
40
1
40
1
40
1
40
1
41
1
10
65.4275287727909
20
0.256197367593813
30
0
41
1
10
65.4244285821918
20
0.214883823149165
30
0
41
1
10
65.4214077663993
20
0.173405851466754
30
0
41
1
10
65.4155361423661
20
0.0901158240157827
30
0
41
1
10
65.412691488101
20
0.0483864271077721
30
0
41
1
10
65.4044823783731
20
-0.07650732151032
30
0
41
1
10
65.3994195605428
20
-0.159595902055059
30
0
41
1
10
65.3899356464095
20
-0.325431392463969
30
0
41
1
10
65.3810952170888
20
-0.490925190917295
30
0
41
1
10
65.3735258073027
20
-0.655733468200538
30
0
41
1
10
65.3692833170942
20
-0.758519017743509
30
0
41
1
10
65.3684595959797
20
-0.779065124769915
30
0
41
1
10
65.3668654410705
20
-0.820135109847286
30
0
41
1
10
65.3660949272728
20
-0.840663577825012
30
0
41
1
10
65.3638804150277
20
-0.901907395804813
30
0
41
1
10
65.362529885864
20
-0.942383405883049
30
0
41
1
10
65.3588136907794
20
-1.06278415573954
30
0
41
1
10
65.3567781537206
20
-1.14168515019034
30
0
41
1
10
65.3535006668499
20
-1.29683562621966
30
0
41
1
10
65.3522621779411
20
-1.37308374012971
30
0
41
1
10
65.3506360079209
20
-1.52290420773377
30
0
41
1
10
65.3502330985966
20
-1.59648215751355
30
0
41
1
10
65.3501485462594
20
-1.6687359563455
30
0
0
SPLINE
5
FC
100
AcDbEntity
8
1
62
256
6
ByLayer
370
18
48
1
60
0
100
AcDbSpline
70
4
71
3
72
24
73
20
40
0
40
0
40
0
40
0
40
0.125
40
0.25
40
0.375
40
0.375
40
0.4375
40
0.4375
40
0.5
40
0.5
40
0.625
40
0.625
40
0.75
40
0.75
40
0.875
40
0.875
40
0.9375
40
0.9375
40
1
40
1
40
1
40
1
41
1
10
60.3515533338475
20
-2.19237283343213
30
0
41
1
10
60.3565669642324
20
-2.29563317725243
30
0
41
1
10
60.3665830317714
20
-2.49452102545254
30
0
41
1
10
60.3818461405178
20
-2.77060503158611
30
0
41
1
10
60.3922813399448
20
-2.93988985398923
30
0
41
1
10
60.4002101077634
20
-3.06119857446382
30
0
41
1
10
60.4028697405325
20
-3.10069087427615
30
0
41
1
10
60.4082186972478
20
-3.1777495765414
30
0
41
1
10
60.4108894675677
20
-3.21504791272446
30
0
41
1
10
60.4188687312638
20
-3.32316931772848
30
0
41
1
10
60.4241504288778
20
-3.39029552947531
30
0
41
1
10
60.4345435630975
20
-3.51485101928466
30
0
41
1
10
60.4396338291576
20
-3.57228026977373
30
0
41
1
10
60.4497225675347
20
-3.67740441425551
30
0
41
1
10
60.4547272464018
20
-3.72509984116593
30
0
41
1
10
60.4622810555659
20
-3.78912913842208
30
0
41
1
10
60.4648087529833
20
-3.80922838717981
30
0
41
1
10
60.4698577487835
20
-3.84660159829187
30
0
41
1
10
60.4723834335624
20
-3.86391532611589
30
0
41
1
10
60.4749165649581
20
-3.87986028148825
30
0
0
SPLINE
5
FD
100
AcDbEntity
8
1
62
256
6
ByLayer
370
18
48
1
60
0
100
AcDbSpline
70
4
71
3
72
23
73
19
40
0
40
0
40
0
40
0
40
0.125
40
0.25
40
0.375
40
0.375
40
0.4375
40
0.4375
40
0.5
40
0.5
40
0.625
40
0.75
40
0.75
40
0.875
40
0.875
40
0.9375
40
0.9375
40
1
40
1
40
1
40
1
41
1
10
60.36800251636
20
-3.84738418640652
30
0
41
1
10
60.3629629412091
20
-3.81198146171948
30
0
41
1
10
60.3529733034291
20
-3.73082782580272
30
0
41
1
10
60.3379409318831
20
-3.57894211340576
30
0
41
1
10
60.3277127750088
20
-3.4576649149468
30
0
41
1
10
60.3199182567249
20
-3.35904155681956
30
0
41
1
10
60.3172997409437
20
-3.32488753458716
30
0
41
1
10
60.3120175062266
20
-3.25396840190425
30
0
41
1
10
60.3093738634753
20
-3.21747281412897
30
0
41
1
10
60.3014372492558
20
-3.10497817667891
30
0
41
1
10
60.2908344313647
20
-2.94694349619471
30
0
41
1
10
60.2802539496677
20
-2.7731610118218
30
0
41
1
10
60.2697704375098
20
-2.59147199406891
30
0
41
1
10
60.264588061641
20
-2.49667441093561
30
0
41
1
10
60.2569570195866
20
-2.34837160451548
30
0
41
1
10
60.2544291794844
20
-2.29788221691703
30
0
41
1
10
60.2494195203897
20
-2.19560721796313
30
0
41
1
10
60.2469329690875
20
-2.14373215521141
30
0
41
1
10
60.244452131264
20
-2.09112255274545
30
0
0
SPLINE
5
FE
100
AcDbEntity
8
1
62
256
6
ByLayer
370
13
48
1
60
0
100
AcDbSpline
70
4
71
3
72
9
73
5
40
0
40
0
40
0
40
0
40
0.295273210739353
40
1
40
1
40
1
40
1
41
1.04
10
59.8878685076724
20
-1.56620241318192
30
0
41
1.04
10
59.8986887161039
20
-1.76156121137922
30
0
41
1.04
10
59.9355505003145
20
-2.39426503949833
30
0
41
1.04
10
59.9729605740832
20
-2.87947273246622
30
0
41
1.04
10
59.9998991384093
20
-3.10790067664459
30
0
0
SPLINE
5
FF
100
AcDbEntity
8
1
62
256
6
ByLayer
370
18
48
1
60
0
100
AcDbSpline
70
4
71
3
72
11
73
7
40
0
40
0
40
0
40
0
40
0.130587442788785
40
0.576395875758394
40
0.863077662026546
40
1
40
1
40
1
40
1
41
1
10
65.3500000000002
20
0.332892231982896
30
0
41
1
10
65.3500000000002
20
0.244403806547552
30
0
41
1
10
65.3500000000002
20
-0.149355634086049
30
0
41
1
10
65.3500000000001
20
-0.752118884588612
30
0
41
1
10
65.3500000000003
20
-1.32555135787925
30
0
41
1
10
65.3500000000001
20
-1.58651723650161
30
0
41
1
10
65.3500000000001
20
-1.66866158670018
30
0
0
SPLINE
5
100
100
AcDbEntity
8
1
62
256
6
ByLayer
370
18
48
1
60
0
100
AcDbSpline
70
4
71
3
72
34
73
30
40
0
40
0
40
0
40
0
40
0.0624999999999992
40
0.0624999999999992
40
0.124999999999998
40
0.124999999999998
40
0.249999999999997
40
0.249999999999997
40
0.499999999999994
40
0.499999999999994
40
0.562499999999994
40
0.562499999999994
40
0.624999999999994
40
0.624999999999994
40
0.749999999999993
40
0.749999999999993
40
0.812499999999992
40
0.812499999999992
40
0.874999999999992
40
0.874999999999992
40
0.937499999999991
40
0.937499999999991
40
0.968749999999991
40
0.968749999999991
40
0.984374999999993
40
0.984374999999993
40
0.992187499999996
40
0.992187499999996
40
1
40
1
40
1
40
1
41
1
10
64.0423264338369
20
-0.550612803386599
30
0
41
1
10
64.0391073925043
20
-0.501702040872942
30
0
41
1
10
64.0359708059873
20
-0.452666954894283
30
0
41
1
10
64.029812299882
20
-0.354342250812692
30
0
41
1
10
64.0267647839367
20
-0.304974612644855
30
0
41
1
10
64.0174857138409
20
-0.157089644358734
30
0
41
1
10
64.0110296326479
20
-0.0589388879368755
30
0
41
1
10
63.9907320591629
20
0.234214184281825
30
0
41
1
10
63.9762697178275
20
0.427957211122106
30
0
41
1
10
63.9549530898081
20
0.667900861458406
30
0
41
1
10
63.9505288001495
20
0.715777633884215
30
0
41
1
10
63.9412972756996
20
0.811301964696042
30
0
41
1
10
63.9365135305954
20
0.85870697203211
30
0
41
1
10
63.921561404415
20
0.999763185177869
30
0
41
1
10
63.9108180610867
20
1.09230263305767
30
0
41
1
10
63.8927556689677
20
1.22887316691305
30
0
41
1
10
63.8864005566004
20
1.27405634626629
30
0
41
1
10
63.8727857530733
20
1.36342995924991
30
0
41
1
10
63.865535519408
20
1.40764003618116
30
0
41
1
10
63.8495625371081
20
1.49508792350355
30
0
41
1
10
63.8409151031706
20
1.53826630050182
30
0
41
1
10
63.8256021886563
20
1.60222213976456
30
0
41
1
10
63.82011235447
20
1.62342456603795
30
0
41
1
10
63.8106020555193
20
1.65494100559539
30
0
41
1
10
63.8072203449254
20
1.66539753397629
30
0
41
1
10
63.8015166848773
20
1.6809865026996
30
0
41
1
10
63.7995104452097
20
1.68616167400651
30
0
41
1
10
63.7951582179413
20
1.69643772890009
30
0
41
1
10
63.7928178679621
20
1.70155108146156
30
0
41
1
10
63.7901437731391
20
1.70657921031923
30
0
0
SPLINE
5
101
100
AcDbEntity
8
1
62
256
6
ByLayer
370
13
48
1
60
0
100
AcDbSpline
70
4
71
3
72
9
73
5
40
0
40
0
40
0
40
0
40
0.675342574449497
40
1
40
1
40
1
40
1
41
1
10
63.7287830952627
20
0.916313222233299
30
0
41
1
10
63.7428442915248
20
0.64114969643623
30
0
41
1
10
63.7635514472048
20
0.221881813361477
30
0
41
1
10
63.7840628588573
20
-0.194522467395956
30
0
41
1
10
63.7907015780762
20
-0.328559193497625
30
0
0
SPLINE
5
102
100
AcDbEntity
8
1
62
256
6
ByLayer
370
18
48
1
60
0
100
AcDbSpline
70
4
71
3
72
18
73
14
40
0
40
0
40
0
40
0
40
0.250000000000002
40
0.250000000000002
40
0.375000000000002
40
0.375000000000002
40
0.500000000000002
40
0.500000000000002
40
0.750000000000001
40
0.750000000000001
40
0.875000000000001
40
0.875000000000001
40
1
40
1
40
1
40
1
41
1
10
63.7287830952627
20
0.916313222233271
30
0
41
1
10
63.7312868402009
20
0.816542962755477
30
0
41
1
10
63.7340587746757
20
0.715582629489859
30
0
41
1
10
63.7386930360659
20
0.56235063466579
30
0
41
1
10
63.7403131233177
20
0.510975521209417
30
0
41
1
10
63.7436964864006
20
0.407627511371118
30
0
41
1
10
63.7454609672318
20
0.355626575540839
30
0
41
1
10
63.7509253184789
20
0.199776197618206
30
0
41
1
10
63.7548252023682
20
0.0957364469504682
30
0
41
1
10
63.7609524892386
20
-0.0605310227886946
30
0
41
1
10
63.7630255512527
20
-0.112654474244266
30
0
41
1
10
63.7670501753846
20
-0.216967329893549
30
0
41
1
10
63.7689752676734
20
-0.269156439516735
30
0
41
1
10
63.7707966597338
20
-0.321377988753113
30
0
0
SPLINE
5
103
100
AcDbEntity
8
1
62
256
6
ByLayer
370
18
48
1
60
0
100
AcDbSpline
70
4
71
3
72
28
73
24
40
0
40
0
40
0
40
0
40
0.0078124999999939
40
0.0078124999999939
40
0.0156249999999878
40
0.0156249999999878
40
0.0312499999999951
40
0.0312499999999951
40
0.0624999999999954
40
0.0624999999999954
40
0.124999999999996
40
0.124999999999996
40
0.187499999999996
40
0.187499999999996
40
0.249999999999997
40
0.249999999999997
40
0.374999999999997
40
0.374999999999997
40
0.499999999999998
40
0.499999999999998
40
0.749999999999999
40
0.749999999999999
40
1
40
1
40
1
40
1
41
1
10
63.7676594379075
20
1.72815149306663
30
0
41
1
10
63.765437672183
20
1.72786399814362
30
0
41
1
10
63.7636013018707
20
1.72678181073351
30
0
41
1
10
63.7605790494182
20
1.72424484145722
30
0
41
1
10
63.7593255737373
20
1.72273840216323
30
0
41
1
10
63.7559981058475
20
1.71800921060287
30
0
41
1
10
63.7543308462532
20
1.71456980120129
30
0
41
1
10
63.7498946193695
20
1.70394204529921
30
0
41
1
10
63.7477602537399
20
1.69642163307091
30
0
41
1
10
63.7422369405812
20
1.67370026076034
30
0
41
1
10
63.7397651294999
20
1.65809476490441
30
0
41
1
10
63.7355900226476
20
1.62644725818561
30
0
41
1
10
63.7339620967406
20
1.61037469151458
30
0
41
1
10
63.7312105693369
20
1.57790585538396
30
0
41
1
10
63.7300983798927
20
1.56152971488257
30
0
41
1
10
63.7272697616976
20
1.51203171698091
30
0
41
1
10
63.7260509691071
20
1.47854253096656
30
0
41
1
10
63.7243285500579
20
1.4107067702229
30
0
41
1
10
63.7238392843382
20
1.37629449402652
30
0
41
1
10
63.7231024285915
20
1.272442223171
30
0
41
1
10
63.7235627580644
20
1.20233934041008
30
0
41
1
10
63.7254825999666
20
1.06052473135745
30
0
41
1
10
63.7269637543444
20
0.988811068450019
30
0
41
1
10
63.7287830952627
20
0.916313222233271
30
0
0
SPLINE
5
104
100
AcDbEntity
8
1
62
256
6
ByLayer
370
18
48
1
60
0
100
AcDbSpline
70
4
71
3
72
28
73
24
40
0
40
0
40
0
40
0
40
0.0312500000000007
40
0.0312500000000007
40
0.0625000000000014
40
0.0625000000000014
40
0.125000000000002
40
0.125000000000002
40
0.250000000000002
40
0.250000000000002
40
0.500000000000002
40
0.500000000000002
40
0.531250000000001
40
0.531250000000001
40
0.562500000000001
40
0.562500000000001
40
0.625000000000001
40
0.625000000000001
40
0.75
40
0.75
40
0.875
40
0.875
40
1
40
1
40
1
40
1
41
1
10
54.501801032362
20
1.28580160662457
30
0
41
1
10
54.5004919928507
20
1.30873862123386
30
0
41
1
10
54.4991815828197
20
1.33161153701786
30
0
41
1
10
54.4965591194291
20
1.37722803920332
30
0
41
1
10
54.4952460410347
20
1.39998920131055
30
0
41
1
10
54.4913248806977
20
1.46776388694857
30
0
41
1
10
54.4887293682508
20
1.51236134878775
30
0
41
1
10
54.4810245873034
20
1.64443026497639
30
0
41
1
10
54.4760095618904
20
1.73018274618968
30
0
41
1
10
54.4610261844086
20
1.98064848644617
30
0
41
1
10
54.4510836751585
20
2.13861420884314
30
0
41
1
10
54.4394317820259
20
2.30585327985787
30
0
41
1
10
54.4381312992828
20
2.32428900483541
30
0
41
1
10
54.4355180289165
20
2.36086482754084
30
0
41
1
10
54.4342039434508
20
2.37902222501944
30
0
41
1
10
54.4302604254898
20
2.43280649266006
30
0
41
1
10
54.4276252350529
20
2.46780832122002
30
0
41
1
10
54.4197044677493
20
2.5702962804458
30
0
41
1
10
54.4144011096238
20
2.63526903456403
30
0
41
1
10
54.4038273787845
20
2.75864639877577
30
0
41
1
10
54.3985728745388
20
2.81705308327781
30
0
41
1
10
54.3881616015921
20
2.92728970623875
30
0
41
1
10
54.3829933677657
20
2.97911828165635
30
0
41
1
10
54.377827668933
20
3.02757189589997
30
0
0
SPLINE
5
105
100
AcDbEntity
8
1
62
256
6
ByLayer
370
13
48
1
60
0
100
AcDbSpline
70
4
71
3
72
10
73
6
40
0
40
0
40
0
40
0
40
0.214240938905672
40
0.663308461355746
40
1
40
1
40
1
40
1
41
1
10
55.1683642211878
20
2.52238975652193
30
0
41
1
10
55.1760415390077
20
2.41714659889558
30
0
41
1
10
55.2002341010513
20
2.06115851848176
30
0
41
1
10
55.2388905576871
20
1.38111412120389
30
0
41
1
10
55.2679803338027
20
0.808817046015264
30
0
41
1
10
55.2801454527381
20
0.564995952291895
30
0
0
SPLINE
5
106
100
AcDbEntity
8
1
62
256
6
ByLayer
370
18
48
1
60
0
100
AcDbSpline
70
4
71
3
72
24
73
20
40
0
40
0
40
0
40
0
40
0.25
40
0.25
40
0.3125
40
0.3125
40
0.375
40
0.375
40
0.5
40
0.625
40
0.625
40
0.75
40
0.75
40
0.812500000000001
40
0.812500000000001
40
0.843750000000001
40
0.843750000000001
40
0.875000000000001
40
1
40
1
40
1
40
1
41
1
10
55.0674646898947
20
2.72968234857967
30
0
41
1
10
55.0763823758776
20
2.59860536149719
30
0
41
1
10
55.085136325961
20
2.45501195643519
30
0
41
1
10
55.0958493906247
20
2.25968914121847
30
0
41
1
10
55.0979791481465
20
2.21982742477832
30
0
41
1
10
55.1022595452162
20
2.13848927338356
30
0
41
1
10
55.1044132586436
20
2.09696110976674
30
0
41
1
10
55.1108967464347
20
1.97113311570229
30
0
41
1
10
55.1196531263918
20
1.79933233898231
30
0
41
1
10
55.1288032927975
20
1.61969633500854
30
0
41
1
10
55.138018550989
20
1.43614524589756
30
0
41
1
10
55.142635469596
20
1.34240996741738
30
0
41
1
10
55.1494332340498
20
1.19879971192293
30
0
41
1
10
55.1516861799792
20
1.15042858458202
30
0
41
1
10
55.1550573326832
20
1.07710845367228
30
0
41
1
10
55.1561810128727
20
1.05251124589404
30
0
41
1
10
55.1584186273921
20
1.00325139756495
30
0
41
1
10
55.1639890108101
20
0.879911833991798
30
0
41
1
10
55.1694682678651
20
0.755636191978937
30
0
41
1
10
55.1738278568618
20
0.65563329466454
30
0
0
SPLINE
5
107
100
AcDbEntity
8
1
62
256
6
ByLayer
370
13
48
1
60
0
100
AcDbSpline
70
4
71
3
72
10
73
6
40
0
40
0
40
0
40
0
40
0.163554383174065
40
0.847307739694196
40
1
40
1
40
1
40
1
41
1.04
10
61.737877659128
20
3.05785495822011
30
0
41
1.04
10
61.7441266246125
20
3.00112517604612
30
0
41
1.04
10
61.7764433084875
20
2.67584083603758
30
0
41
1.04
10
61.8135209287833
20
2.1186195819805
30
0
41
1.04
10
61.8444069996277
20
1.56358884950082
30
0
41
1.04
10
61.8500341660672
20
1.46004402595557
30
0
0
SPLINE
5
108
100
AcDbEntity
8
1
62
256
6
ByLayer
370
13
48
1
60
0
100
AcDbSpline
70
4
71
3
72
9
73
5
40
0
40
0
40
0
40
0
40
0.41723466157489
40
1
40
1
40
1
40
1
41
1
10
59.6084348582415
20
-1.32770048483189
30
0
41
1
10
59.6237094906434
20
-1.61358053684967
30
0
41
1
10
59.6606609801769
20
-2.26595237373982
30
0
41
1
10
59.6981654658271
20
-2.76879702777916
30
0
41
1
10
59.7203827821851
20
-2.9880834985191
30
0
0
SPLINE
5
109
100
AcDbEntity
8
1
62
256
6
ByLayer
370
18
48
1
60
0
100
AcDbSpline
70
4
71
3
72
26
73
22
40
0
40
0
40
0
40
0
40
0.0624999999999999
40
0.0624999999999999
40
0.125
40
0.125
40
0.25
40
0.25
40
0.374999999999999
40
0.374999999999999
40
0.499999999999999
40
0.499999999999999
40
0.562499999999999
40
0.562499999999999
40
0.624999999999999
40
0.624999999999999
40
0.749999999999999
40
0.749999999999999
40
0.875
40
0.875
40
1
40
1
40
1
40
1
41
1
10
63.1237702296337
20
0.259601695663463
30
0
41
1
10
63.1208425627861
20
0.31360982926796
30
0
41
1
10
63.1179698256674
20
0.367534819028918
30
0
41
1
10
63.1122896856004
20
0.47521014595381
30
0
41
1
10
63.1094624184752
20
0.529047945788335
30
0
41
1
10
63.1009004258103
20
0.689282521350066
30
0
41
1
10
63.0950334008545
20
0.794520680920243
30
0
41
1
10
63.0829409426004
20
1.00189770541635
30
0
41
1
10
63.0767350404186
20
1.1040479656082
30
0
41
1
10
63.064037082829
20
1.30529371577208
30
0
41
1
10
63.0575363056219
20
1.40438412722929
30
0
41
1
10
63.0475954826347
20
1.55067888479641
30
0
41
1
10
63.0442432169741
20
1.59917223649836
30
0
41
1
10
63.037549235652
20
1.69448951107105
30
0
41
1
10
63.0342036594987
20
1.74137474142705
30
0
41
1
10
63.0241812221507
20
1.87975693936741
30
0
41
1
10
63.0175276577138
20
1.96898491861705
30
0
41
1
10
63.0040937708473
20
2.14151870286298
30
0
41
1
10
62.9973116515827
20
2.22482336022341
30
0
41
1
10
62.9834285323033
20
2.38543685449355
30
0
41
1
10
62.9763350015285
20
2.46275435570814
30
0
41
1
10
62.9690985893663
20
2.5370601861639
30
0
0
SPLINE
5
10A
100
AcDbEntity
8
1
62
256
6
ByLayer
370
13
48
1
60
0
100
AcDbSpline
70
4
71
3
72
9
73
5
40
0
40
0
40
0
40
0
40
0.418128640579826
40
1
40
1
40
1
40
1
41
1.04
10
62.847963444854
20
2.45157837482407
30
0
41
1.04
10
62.8637827505039
20
2.2275878451511
30
0
41
1.04
10
62.9014688083755
20
1.61789347778825
30
0
41
1.04
10
62.9385734137823
20
0.889976293628108
30
0
41
1.04
10
62.9601343200532
20
0.455838044191162
30
0
0
SPLINE
5
10B
100
AcDbEntity
8
1
62
256
6
ByLayer
370
13
48
1
60
0
100
AcDbSpline
70
4
71
3
72
10
73
6
40
0
40
0
40
0
40
0
40
0.0890090375582632
40
0.537234973291869
40
1
40
1
40
1
40
1
41
1.04
10
55.4478163093745
20
2.33709331005812
30
0
41
1.04
10
55.451080376923
20
2.28868999262682
30
0
41
1.04
10
55.4709331343769
20
1.98622291742239
30
0
41
1.04
10
55.5096621628492
20
1.3063775833968
30
0
41
1.04
10
55.5432103973867
20
0.635044456489344
30
0
41
1.04
10
55.5596385325318
20
0.302488359389021
30
0
0
SPLINE
5
10C
100
AcDbEntity
8
1
62
256
6
ByLayer
370
18
48
1
60
0
100
AcDbSpline
70
4
71
3
72
27
73
23
40
0
40
0
40
0
40
0
40
0.124999999999999
40
0.124999999999999
40
0.249999999999999
40
0.249999999999999
40
0.312499999999999
40
0.312499999999999
40
0.343749999999998
40
0.343749999999998
40
0.374999999999998
40
0.499999999999999
40
0.499999999999999
40
0.624999999999999
40
0.624999999999999
40
0.749999999999999
40
0.749999999999999
40
0.812499999999999
40
0.812499999999999
40
0.874999999999999
40
0.874999999999999
40
1
40
1
40
1
40
1
41
1
10
55.7178961305065
20
0.101894054045005
30
0
41
1
10
55.7124507688571
20
0.208094442940165
30
0
41
1
10
55.7070165126414
20
0.313864852813452
30
0
41
1
10
55.6962419197207
20
0.524553661368429
30
0
41
1
10
55.6908769590572
20
0.629470504721496
30
0
41
1
10
55.6828030022759
20
0.786188499979971
30
0
41
1
10
55.6801081153706
20
0.838318187521196
30
0
41
1
10
55.6760598073716
20
0.916345227193801
30
0
41
1
10
55.6747082101549
20
0.942349450009146
30
0
41
1
10
55.672016216307
20
0.994057665579277
30
0
41
1
10
55.6653081960938
20
1.12270407636893
30
0
41
1
10
55.6587118211428
20
1.24827026619636
30
0
41
1
10
55.6483785816722
20
1.44533578615884
30
0
41
1
10
55.6433564036079
20
1.54195157438096
30
0
41
1
10
55.6331838381015
20
1.73131112084025
30
0
41
1
10
55.6280244500376
20
1.82405420241514
30
0
41
1
10
55.6200232053655
20
1.96018650195606
30
0
41
1
10
55.6173144693438
20
2.00506639155049
30
0
41
1
10
55.6118141172765
20
2.09381179879486
30
0
41
1
10
55.6090426268441
20
2.13735212895642
30
0
41
1
10
55.6007001025206
20
2.26548553708605
30
0
41
1
10
55.5951104146191
20
2.34761700506383
30
0
41
1
10
55.589628468683
20
2.42654583609243
30
0
0
SPLINE
5
10D
100
AcDbEntity
8
1
62
256
6
ByLayer
370
13
48
1
60
0
100
AcDbSpline
70
4
71
3
72
9
73
5
40
0
40
0
40
0
40
0
40
0.310319341196477
40
1
40
1
40
1
40
1
41
1
10
56.27851826512
20
1.7041192897176
30
0
41
1
10
56.2904097976723
20
1.49444848262848
30
0
41
1
10
56.3283287158916
20
0.784729238377395
30
0
41
1
10
56.3652073649976
20
0.0206040707673765
30
0
41
1
10
56.3901599597621
20
-0.481231532474084
30
0
0
SPLINE
5
10E
100
AcDbEntity
8
1
62
256
6
ByLayer
370
18
48
1
60
0
100
AcDbSpline
70
4
71
3
72
24
73
20
40
0
40
0
40
0
40
0
40
0.0625000000000014
40
0.0937500000000017
40
0.0937500000000017
40
0.125000000000002
40
0.125000000000002
40
0.250000000000002
40
0.375000000000002
40
0.375000000000002
40
0.500000000000002
40
0.500000000000002
40
0.562500000000002
40
0.562500000000002
40
0.625000000000002
40
0.625000000000002
40
0.750000000000001
40
0.875000000000001
40
1
40
1
40
1
40
1
41
1
10
56.0884727004186
20
2.07408717663412
30
0
41
1
10
56.090751184953
20
2.02907146693678
30
0
41
1
10
56.0941914141196
20
1.96040956741402
30
0
41
1
10
56.0976694856161
20
1.8900144019095
30
0
41
1
10
56.0999967973806
20
1.8426951001878
30
0
41
1
10
56.1011652171625
20
1.81883129942963
30
0
41
1
10
56.1070000062114
20
1.69912766329094
30
0
41
1
10
56.1163375719834
20
1.5042324544288
30
0
41
1
10
56.1256189924553
20
1.3027875505787
30
0
41
1
10
56.1347908940447
20
1.09808078698342
30
0
41
1
10
56.139305083896
20
0.994094997610176
30
0
41
1
10
56.1460312251578
20
0.835632155335702
30
0
41
1
10
56.1482667723471
20
0.782396688393391
30
0
41
1
10
56.1527389295657
20
0.675083729503029
30
0
41
1
10
56.1549777426045
20
0.620951648977183
30
0
41
1
10
56.1616508297211
20
0.458879109742952
30
0
41
1
10
56.1704770549344
20
0.242626812295782
30
0
41
1
10
56.1837923624114
20
-0.0821940975144173
30
0
41
1
10
56.1928550500646
20
-0.299029523931694
30
0
41
1
10
56.1974491994426
20
-0.407520025011479
30
0
0
SPLINE
5
10F
100
AcDbEntity
8
1
62
256
6
ByLayer
370
13
48
1
60
0
100
AcDbSpline
70
4
71
3
72
10
73
6
40
0
40
0
40
0
40
0
40
0.420647055758397
40
0.870490696676546
40
1
40
1
40
1
40
1
41
1.04
10
58.7778345738163
20
-0.573502449909377
30
0
41
1.04
10
58.7929295624027
20
-0.875595467212903
30
0
41
1.04
10
58.8246704881335
20
-1.4963480964843
30
0
41
1.04
10
58.8625932070821
20
-2.14602014547342
30
0
41
1.04
10
58.8848688744389
20
-2.46402957270254
30
0
41
1.04
10
58.8898611168908
20
-2.53193573374129
30
0
0
SPLINE
5
110
100
AcDbEntity
8
1
62
256
6
ByLayer
370
18
48
1
60
0
100
AcDbSpline
70
4
71
3
72
23
73
19
40
0
40
0
40
0
40
0
40
0.125
40
0.249999999999999
40
0.249999999999999
40
0.374999999999999
40
0.374999999999999
40
0.437499999999999
40
0.437499999999999
40
0.499999999999999
40
0.499999999999999
40
0.624999999999999
40
0.75
40
0.875
40
0.875
40
0.9375
40
0.9375
40
1
40
1
40
1
40
1
41
1
10
59.258701453614
20
-3.31831752709263
30
0
41
1
10
59.2534155195322
20
-3.24895192326062
30
0
41
1
10
59.2427505168284
20
-3.10186600809749
30
0
41
1
10
59.2320326479341
20
-2.93854674512537
30
0
41
1
10
59.2214473852272
20
-2.76713824826837
30
0
41
1
10
59.2162525911983
20
-2.67738864336386
30
0
41
1
10
59.2086168917945
20
-2.53656641434415
30
0
41
1
10
59.206089533219
20
-2.48859135754793
30
0
41
1
10
59.2010410248936
20
-2.39053155354901
30
0
41
1
10
59.1985377554262
20
-2.34079564074085
30
0
41
1
10
59.1910597932648
20
-2.18966865439211
30
0
41
1
10
59.1811604260319
20
-1.98291865898827
30
0
41
1
10
59.1661243890617
20
-1.65739885488051
30
0
41
1
10
59.1559179630364
20
-1.43009068836113
30
0
41
1
10
59.1481573279791
20
-1.25563890039902
30
0
41
1
10
59.1455505328756
20
-1.19677297709796
30
0
41
1
10
59.1403353075922
20
-1.07857875381742
30
0
41
1
10
59.1377222962051
20
-1.0191482955139
30
0
41
1
10
59.1351022719312
20
-0.959385801103593
30
0
0
SPLINE
5
111
100
AcDbEntity
8
1
62
256
6
ByLayer
370
18
48
1
60
0
100
AcDbSpline
70
4
71
3
72
23
73
19
40
0
40
0
40
0
40
0
40
0.125
40
0.250000000000001
40
0.375000000000001
40
0.375000000000001
40
0.437500000000001
40
0.437500000000001
40
0.500000000000002
40
0.500000000000002
40
0.625000000000001
40
0.625000000000001
40
0.750000000000001
40
0.875
40
0.875
40
0.9375
40
0.9375
40
1
40
1
40
1
40
1
41
1
10
59.2412085138871
20
-1.07413092715871
30
0
41
1
10
59.246252538338
20
-1.1927338302888
30
0
41
1
10
59.2564143278146
20
-1.42524355167765
30
0
41
1
10
59.2720624945408
20
-1.7603202368112
30
0
41
1
10
59.2827415160608
20
-1.97462108901652
30
0
41
1
10
59.2907880678255
20
-2.13187198031676
30
0
41
1
10
59.2934760012293
20
-2.18370893359992
30
0
41
1
10
59.2988487529528
20
-2.2862000153651
30
0
41
1
10
59.3015161816627
20
-2.3365230443822
30
0
41
1
10
59.3094204753463
20
-2.48446696597216
30
0
41
1
10
59.3145410790228
20
-2.5792078601846
30
0
41
1
10
59.3245560803095
20
-2.76107634348944
30
0
41
1
10
59.3343889848713
20
-2.93532895072366
30
0
41
1
10
59.3442237550852
20
-3.09429177960618
30
0
41
1
10
59.3517029212523
20
-3.20761357278209
30
0
41
1
10
59.3542154710973
20
-3.24443543031856
30
0
41
1
10
59.3592507721667
20
-3.31556003363104
30
0
41
1
10
59.3617776121809
20
-3.34992766410068
30
0
41
1
10
59.3643181761524
20
-3.38310432389241
30
0
0
SPLINE
5
112
100
AcDbEntity
8
1
62
256
6
ByLayer
370
18
48
1
60
0
100
AcDbSpline
70
4
71
3
72
12
73
8
40
0
40
0
40
0
40
0
40
0.500000000000002
40
0.500000000000002
40
0.750000000000001
40
0.750000000000001
40
1
40
1
40
1
40
1
41
1
10
62.2235079627038
20
3.34448440332514
30
0
41
1
10
62.2241332156032
20
3.29600111688248
30
0
41
1
10
62.2246889901959
20
3.24440755369082
30
0
41
1
10
62.22559603012
20
3.16251976980135
30
0
41
1
10
62.2259108061539
20
3.13446258644578
30
0
41
1
10
62.2265959831569
20
3.07679336794578
30
0
41
1
10
62.2269668460712
20
3.04714808511184
30
0
41
1
10
62.2273799730182
20
3.0167837137416
30
0
0
SPLINE
5
113
100
AcDbEntity
8
1
62
256
6
ByLayer
370
13
48
1
60
0
100
AcDbSpline
70
4
71
3
72
9
73
5
40
0
40
0
40
0
40
0
40
0.539319347244526
40
1
40
1
40
1
40
1
41
1
10
62.5685214499736
20
2.62793459471686
30
0
41
1
10
62.5889030084372
20
2.36260756008326
30
0
41
1
10
62.6265401904554
20
1.7671182732135
30
0
41
1
10
62.6635995621511
20
1.05497947522571
30
0
41
1
10
62.6806318974073
20
0.716635940371901
30
0
0
SPLINE
5
114
100
AcDbEntity
8
1
62
256
6
ByLayer
370
18
48
1
60
0
100
AcDbSpline
70
4
71
3
72
22
73
18
40
0
40
0
40
0
40
0
40
0.249999999999998
40
0.249999999999998
40
0.312499999999998
40
0.312499999999998
40
0.374999999999997
40
0.374999999999997
40
0.499999999999998
40
0.499999999999998
40
0.75
40
0.75
40
0.875
40
0.875
40
0.9375
40
0.9375
40
1
40
1
40
1
40
1
41
1
10
62.2273799730177
20
3.01678371374231
30
0
41
1
10
62.2352780801933
20
2.88996230004727
30
0
41
1
10
62.2433516307166
20
2.75300203851217
30
0
41
1
10
62.2537551774977
20
2.56882835489205
30
0
41
1
10
62.2558503967867
20
2.53134174317364
30
0
41
1
10
62.2600676889703
20
2.45504388932713
30
0
41
1
10
62.2621837580981
20
2.41633976999324
30
0
41
1
10
62.2685170340793
20
2.29913055762879
30
0
41
1
10
62.2727324809429
20
2.21930903210918
30
0
41
1
10
62.2852702899658
20
1.9749054176159
30
0
41
1
10
62.2933912644208
20
1.8054056660892
30
0
41
1
10
62.3053707781264
20
1.54128854574083
30
0
41
1
10
62.3093424509081
20
1.45159920279977
30
0
41
1
10
62.3153164432706
20
1.31452962378913
30
0
41
1
10
62.3173127841235
20
1.26836282360557
30
0
41
1
10
62.3212978435375
20
1.17565237071668
30
0
41
1
10
62.3232884675521
20
1.1290658316201
30
0
41
1
10
62.3252805860592
20
1.08224878274441
30
0
0
SPLINE
5
115
100
AcDbEntity
8
1
62
256
6
ByLayer
370
18
48
1
60
0
100
AcDbSpline
70
4
71
3
72
22
73
18
40
0
40
0
40
0
40
0
40
0.249999999999988
40
0.249999999999988
40
0.374999999999981
40
0.374999999999981
40
0.437499999999979
40
0.437499999999979
40
0.499999999999978
40
0.499999999999978
40
0.562499999999976
40
0.562499999999976
40
0.624999999999974
40
0.624999999999974
40
0.74999999999998
40
0.74999999999998
40
1
40
1
40
1
40
1
41
1
10
62.1946032989966
20
3.39394003591988
30
0
41
1
10
62.1946565557249
20
3.36566997696295
30
0
41
1
10
62.1946837070342
20
3.33652678909201
30
0
41
1
10
62.1947673132179
20
3.29152500793518
30
0
41
1
10
62.1948122043084
20
3.27630880627089
30
0
41
1
10
62.1949039082932
20
3.25316076974911
30
0
41
1
10
62.1948787205839
20
3.24539276408402
30
0
41
1
10
62.1948563113175
20
3.22976101160739
30
0
41
1
10
62.1951036887117
20
3.22191047950182
30
0
41
1
10
62.1967764976265
20
3.20617838870865
30
0
41
1
10
62.1982249856877
20
3.19829831321678
30
0
41
1
10
62.2011416015923
20
3.18244462400412
30
0
41
1
10
62.2025470428437
20
3.17446736483342
30
0
41
1
10
62.2066626264569
20
3.15038764587774
30
0
41
1
10
62.2092769348454
20
3.13413750235279
30
0
41
1
10
62.2170738931552
20
3.08481677474845
30
0
41
1
10
62.2221988966647
20
3.05117552079997
30
0
41
1
10
62.2273799730167
20
3.0167837137422
30
0
0
SPLINE
5
116
100
AcDbEntity
8
1
62
256
6
ByLayer
370
18
48
1
60
0
100
AcDbSpline
70
4
71
3
72
23
73
19
40
0
40
0
40
0
40
0
40
0.125
40
0.25
40
0.25
40
0.375
40
0.375
40
0.4375
40
0.4375
40
0.5
40
0.5
40
0.625
40
0.75
40
0.875
40
0.875
40
0.9375
40
0.9375
40
1
40
1
40
1
40
1
41
1
10
62.2180078385871
20
1.19670631556983
30
0
41
1
10
62.2130065738064
20
1.31431782097852
30
0
41
1
10
62.2030610503294
20
1.5445230797543
30
0
41
1
10
62.1929188642485
20
1.76496807672569
30
0
41
1
10
62.1826567850259
20
1.98055191998864
30
0
41
1
10
62.1774725930922
20
2.08591370989237
30
0
41
1
10
62.1696583348174
20
2.24023566700762
30
0
41
1
10
62.1670450520531
20
2.29105514876724
30
0
41
1
10
62.161797263385
20
2.39142638371692
30
0
41
1
10
62.1591821336814
20
2.44060700042729
30
0
41
1
10
62.1513631702435
20
2.58509271762011
30
0
41
1
10
62.1410028663774
20
2.76969434671938
30
0
41
1
10
62.1255991260314
20
3.02296372077791
30
0
41
1
10
62.1153905621361
20
3.17599742966726
30
0
41
1
10
62.1077408321085
20
3.28466939933094
30
0
41
1
10
62.1051901560168
20
3.31989445667986
30
0
41
1
10
62.1001249282881
20
3.38776103917209
30
0
41
1
10
62.0976080509741
20
3.42047063805646
30
0
41
1
10
62.0950889157674
20
3.45196063891319
30
0
0
SPLINE
5
117
100
AcDbEntity
8
1
62
256
6
ByLayer
370
18
48
1
60
0
100
AcDbSpline
70
4
71
3
72
23
73
19
40
0
40
0
40
0
40
0
40
0.249999999999996
40
0.249999999999996
40
0.374999999999994
40
0.374999999999994
40
0.406249999999994
40
0.406249999999994
40
0.437499999999994
40
0.499999999999994
40
0.499999999999994
40
0.749999999999996
40
0.749999999999996
40
0.874999999999998
40
0.874999999999998
40
0.937499999999999
40
0.937499999999999
40
1
40
1
40
1
40
1
41
1
10
58.1443341279569
20
-0.140909530157387
30
0
41
1
10
58.1534947712284
20
-0.361309869322213
30
0
41
1
10
58.16240158653
20
-0.579408483445093
30
0
41
1
10
58.1759636327168
20
-0.903097925125792
30
0
41
1
10
58.1805134013553
20
-1.01041535562504
30
0
41
1
10
58.1862720629751
20
-1.14381644971346
30
0
41
1
10
58.1874286541346
20
-1.17048983638668
30
0
41
1
10
58.1897423366359
20
-1.22359468157302
30
0
41
1
10
58.193212180452
20
-1.30285751955489
30
0
41
1
10
58.1966826051014
20
-1.38094884458042
30
0
41
1
10
58.2082611063665
20
-1.63868877083445
30
0
41
1
10
58.2175433285703
20
-1.83672630523088
30
0
41
1
10
58.2317157962126
20
-2.12165702412381
30
0
41
1
10
58.23648385385
20
-2.21460290363953
30
0
41
1
10
58.2436805349286
20
-2.35089613198332
30
0
41
1
10
58.2460897975718
20
-2.39586886978552
30
0
41
1
10
58.2508840705655
20
-2.48423918309703
30
0
41
1
10
58.2532712387776
20
-2.52767980685852
30
0
41
1
10
58.2556415158332
20
-2.5703785196624
30
0
0
SPLINE
5
118
100
AcDbEntity
8
1
62
256
6
ByLayer
370
13
48
1
60
0
100
AcDbSpline
70
4
71
3
72
10
73
6
40
0
40
0
40
0
40
0
40
0.542803385487441
40
0.988636336058128
40
1
40
1
40
1
40
1
41
1
10
58.4983586849046
20
-0.31173157834499
30
0
41
1
10
58.5178276119819
20
-0.705319574842292
30
0
41
1
10
58.5539883350755
20
-1.42520253798415
30
0
41
1
10
58.5922522085726
20
-2.07914940173742
30
0
41
1
10
58.6099397135437
20
-2.34095301332036
30
0
41
1
10
58.610379455824
20
-2.34743701531815
30
0
0
SPLINE
5
119
100
AcDbEntity
8
1
62
256
6
ByLayer
370
13
48
1
60
0
100
AcDbSpline
70
4
71
3
72
9
73
5
40
0
40
0
40
0
40
0
40
0.190342885925496
40
1
40
1
40
1
40
1
41
1.04
10
56.5579515520593
20
1.47071871146837
30
0
41
1.04
10
56.5652458332751
20
1.33682762824943
30
0
41
1.04
10
56.6033362618128
20
0.616103333409376
30
0
41
1.04
10
56.6403701330346
20
-0.160825930223041
30
0
41
1.04
10
56.6696836422893
20
-0.742096142633195
30
0
0
SPLINE
5
11A
100
AcDbEntity
8
1
62
256
6
ByLayer
370
18
48
1
60
0
100
AcDbSpline
70
4
71
3
72
8
73
4
40
0
40
0
40
0
40
0
40
1
40
1
40
1
40
1
41
1
10
53.6862230359186
20
-3.37757640583732
30
0
41
1
10
53.7848179771282
20
-3.39964581883473
30
0
41
1
10
53.8828676488625
20
-3.41760710304936
30
0
41
1
10
53.9806121852276
20
-3.43147510405615
30
0
0
SPLINE
5
11B
100
AcDbEntity
8
1
62
256
6
ByLayer
370
18
48
1
60
0
100
AcDbSpline
70
4
71
3
72
18
73
14
40
0
40
0
40
0
40
0
40
0.125
40
0.125
40
0.25
40
0.25
40
0.375
40
0.375
40
0.5
40
0.5
40
0.75
40
0.75
40
1
40
1
40
1
40
1
41
1
10
53.4887104821356
20
-3.32808222739871
30
0
41
1
10
53.497306890659
20
-3.3243824246299
30
0
41
1
10
53.506190336208
20
-3.32159417901988
30
0
41
1
10
53.5239414862699
20
-3.31771264497809
30
0
41
1
10
53.5327973419467
20
-3.31660559811462
30
0
41
1
10
53.5504621192147
20
-3.31580988458001
30
0
41
1
10
53.5592710619007
20
-3.31612371424723
30
0
41
1
10
53.5768309228333
20
-3.31807532116929
30
0
41
1
10
53.5855805193651
20
-3.31972285407045
30
0
41
1
10
53.6111694628112
20
-3.32646137692237
30
0
41
1
10
53.627558097431
20
-3.33331767089595
30
0
41
1
10
53.6588360368568
20
-3.35196594806376
30
0
41
1
10
53.6732835838863
20
-3.36348274207236
30
0
41
1
10
53.6862230359186
20
-3.37757640583698
30
0
0
SPLINE
5
11C
100
AcDbEntity
8
1
62
256
6
ByLayer
370
18
48
1
60
0
100
AcDbSpline
70
4
71
3
72
8
73
4
40
0
40
0
40
0
40
0
40
1
40
1
40
1
40
1
41
1
10
53.35
20
-3.28712411246988
30
0
41
1
10
53.3964088100867
20
-3.30166505069394
30
0
41
1
10
53.4426357291953
20
-3.3153167784923
30
0
41
1
10
53.4887104821338
20
-3.32808222740673
30
0
0
SPLINE
5
11D
100
AcDbEntity
8
1
62
256
6
ByLayer
370
18
48
1
60
0
100
AcDbSpline
70
4
71
3
72
12
73
8
40
0
40
0
40
0
40
0
40
0.249999999999989
40
0.249999999999989
40
0.499999999999978
40
0.499999999999978
40
1
40
1
40
1
40
1
41
1
10
53.35
20
-3.28712411246985
30
0
41
1
10
53.3126107981598
20
-3.26192534611161
30
0
41
1
10
53.2743607976175
20
-3.23828972366948
30
0
41
1
10
53.1962671148255
20
-3.19413136460975
30
0
41
1
10
53.1564243978382
20
-3.17361171085497
30
0
41
1
10
53.0348292727731
20
-3.11686736107373
30
0
41
1
10
52.951033723063
20
-3.08543365109412
30
0
41
1
10
52.8654925607977
20
-3.06103800716718
30
0
0
SPLINE
5
11E
100
AcDbEntity
8
1
62
256
6
ByLayer
370
18
48
1
60
0
100
AcDbSpline
70
4
71
3
72
84
73
80
40
0
40
0
40
0
40
0
40
0.0312500000000002
40
0.0312500000000002
40
0.0625000000000004
40
0.0625000000000004
40
0.0937500000000006
40
0.0937500000000006
40
0.125000000000001
40
0.125000000000001
40
0.156250000000001
40
0.156250000000001
40
0.164062500000001
40
0.164062500000001
40
0.171875000000001
40
0.187500000000001
40
0.187500000000001
40
0.21875
40
0.21875
40
0.249999999999998
40
0.249999999999998
40
0.281249999999996
40
0.281249999999996
40
0.312499999999995
40
0.312499999999995
40
0.328124999999994
40
0.328124999999994
40
0.343749999999993
40
0.343749999999993
40
0.374999999999989
40
0.374999999999989
40
0.406249999999986
40
0.406249999999986
40
0.437499999999982
40
0.437499999999982
40
0.468749999999978
40
0.476562499999978
40
0.476562499999978
40
0.484374999999978
40
0.484374999999978
40
0.49999999999998
40
0.49999999999998
40
0.531249999999983
40
0.531249999999983
40
0.562499999999985
40
0.562499999999985
40
0.593749999999987
40
0.593749999999987
40
0.62499999999999
40
0.62499999999999
40
0.632812499999989
40
0.632812499999989
40
0.640624999999989
40
0.640624999999989
40
0.656249999999988
40
0.656249999999988
40
0.687499999999986
40
0.687499999999986
40
0.749999999999983
40
0.749999999999983
40
0.781249999999981
40
0.781249999999981
40
0.796874999999982
40
0.796874999999982
40
0.812499999999982
40
0.812499999999982
40
0.843749999999982
40
0.843749999999982
40
0.874999999999983
40
0.874999999999983
40
0.937499999999985
40
0.937499999999985
40
0.953124999999988
40
0.953124999999988
40
0.96093749999999
40
0.96093749999999
40
0.968749999999992
40
0.968749999999992
40
1
40
1
40
1
40
1
41
1
10
52.8654925607973
20
-3.06103800716753
30
0
41
1
10
52.7444961348748
20
-3.02653081033893
30
0
41
1
10
52.6241627971578
20
-2.98710121921675
30
0
41
1
10
52.384512664432
20
-2.89875024043172
30
0
41
1
10
52.2651733638379
20
-2.84983420132391
30
0
41
1
10
52.026869794953
20
-2.74291765765844
30
0
41
1
10
51.9079077392993
20
-2.68491407952837
30
0
41
1
10
51.6696590801259
20
-2.56025396590417
30
0
41
1
10
51.5503433557791
20
-2.49361841706198
30
0
41
1
10
51.3107328928441
20
-2.35210137794104
30
0
41
1
10
51.1905000230822
20
-2.27717960572974
30
0
41
1
10
51.0395220407974
20
-2.1782901682665
30
0
41
1
10
51.0092782949849
20
-2.15824316825385
30
0
41
1
10
50.9489339995983
20
-2.11778214041891
30
0
41
1
10
50.8585506768586
20
-2.05648881397775
30
0
41
1
10
50.7685387349842
20
-1.99342382329345
30
0
41
1
10
50.5888844705673
20
-1.86506402231171
30
0
41
1
10
50.4696104749492
20
-1.77651437949589
30
0
41
1
10
50.2312495915705
20
-1.5942954028115
30
0
41
1
10
50.1121154655345
20
-1.50067504001393
30
0
41
1
10
49.8735367204641
20
-1.30885220849171
30
0
41
1
10
49.7541093525514
20
-1.21063329079618
30
0
41
1
10
49.5146958409666
20
-1.00981873095682
30
0
41
1
10
49.3947350528377
20
-0.907193109687739
30
0
41
1
10
49.2139246548567
20
-0.750354177895019
30
0
41
1
10
49.1534517397768
20
-0.697542968419526
30
0
41
1
10
49.0330186359081
20
-0.591824638296913
30
0
41
1
10
48.972952908835
20
-0.538828088168373
30
0
41
1
10
48.7931008300689
20
-0.379546777203473
30
0
41
1
10
48.6736637876624
20
-0.272965566764214
30
0
41
1
10
48.4350789254142
20
-0.0597352950223922
30
0
41
1
10
48.315895351601
20
0.0468733939904382
30
0
41
1
10
48.0772906286174
20
0.259565568553512
30
0
41
1
10
47.9579393005193
20
0.365727947398795
30
0
41
1
10
47.718892967754
20
0.577404528791163
30
0
41
1
10
47.569206952838
20
0.709221303852075
30
0
41
1
10
47.4185955542664
20
0.839787319015812
30
0
41
1
10
47.35826425893
20
0.891899270515466
30
0
41
1
10
47.3280644175075
20
0.917889872779
30
0
41
1
10
47.2376549581401
20
0.995377231816605
30
0
41
1
10
47.1775229767606
20
1.04648502142936
30
0
41
1
10
46.9973913979362
20
1.19801959010937
30
0
41
1
10
46.8776768734855
20
1.29668465130695
30
0
41
1
10
46.638727936099
20
1.48913421729276
30
0
41
1
10
46.5194882837488
20
1.58291179948651
30
0
41
1
10
46.2810804012778
20
1.76518918754073
30
0
41
1
10
46.1619435537463
20
1.85371735324489
30
0
41
1
10
45.9231886714371
20
2.0249056563226
30
0
41
1
10
45.8035607505978
20
2.10755518949642
30
0
41
1
10
45.6532090998823
20
2.20667487806276
30
0
41
1
10
45.6230976651465
20
2.22628901562703
30
0
41
1
10
45.5627790069871
20
2.26508426742347
30
0
41
1
10
45.5325427888352
20
2.28428234558589
30
0
41
1
10
45.4419175357244
20
2.34106157729082
30
0
41
1
10
45.3816343361859
20
2.37782105107706
30
0
41
1
10
45.2011672109273
20
2.48486501654881
30
0
41
1
10
45.0814017623311
20
2.55194538653848
30
0
41
1
10
44.7231690142857
20
2.74013987961072
30
0
41
1
10
44.4856162977978
20
2.84810519925361
30
0
41
1
10
44.1274514841709
20
2.98161816498848
30
0
41
1
10
44.0077747031783
20
3.02138866688421
30
0
41
1
10
43.8273721165584
20
3.07363008215373
30
0
41
1
10
43.7670879752689
20
3.08980701974824
30
0
41
1
10
43.6461399423541
20
3.1196294236525
30
0
41
1
10
43.5857452491587
20
3.13320952556648
30
0
41
1
10
43.4051050463905
20
3.16993179903042
30
0
41
1
10
43.2852930423451
20
3.18910495805716
30
0
41
1
10
43.0465619277441
20
3.21690983077124
30
0
41
1
10
42.9275819887569
20
3.22552079190393
30
0
41
1
10
42.5703816782912
20
3.23547340357013
30
0
41
1
10
42.3318958625249
20
3.22104874367736
30
0
41
1
10
42.0314393669076
20
3.17634091835214
30
0
41
1
10
41.9712267220734
20
3.16606039738798
30
0
41
1
10
41.8806841212802
20
3.14860874349733
30
0
41
1
10
41.8504404374807
20
3.14244711209318
30
0
41
1
10
41.7900735708548
20
3.12948669881303
30
0
41
1
10
41.7599350612961
20
3.12268555135114
30
0
41
1
10
41.6094515831969
20
3.08708954867535
30
0
41
1
10
41.4897555396096
20
3.05351584548566
30
0
41
1
10
41.3703527820267
20
3.01508022161312
30
0
0
SPLINE
5
11F
100
AcDbEntity
8
1
62
256
6
ByLayer
370
18
48
1
60
0
100
AcDbSpline
70
4
71
3
72
18
73
14
40
0
40
0
40
0
40
0
40
0.0542069758041938
40
0.0542069758041938
40
0.250428687534804
40
0.250428687534804
40
0.446650399265415
40
0.446650399265415
40
0.642872110996026
40
0.642872110996026
40
0.839093822726638
40
0.839093822726638
40
1
40
1
40
1
40
1
41
1
10
41.370526980982
20
3.01507170780508
30
0
41
1
10
41.3633003722996
20
2.99198312316756
30
0
41
1
10
41.3558573815397
20
2.96890916097894
30
0
41
1
10
41.3200755674243
20
2.8624050186294
30
0
41
1
10
41.2880678784215
20
2.77899191578243
30
0
41
1
10
41.2176993633576
20
2.61700042696455
30
0
41
1
10
41.1792152731259
20
2.53788307457418
30
0
41
1
10
41.095012824095
20
2.38376639442467
30
0
41
1
10
41.0488115761073
20
2.30809526398912
30
0
41
1
10
40.9507162409659
20
2.16526393524748
30
0
41
1
10
40.8990379185836
20
2.09819229062953
30
0
41
1
10
40.7995912784071
20
1.98502250413009
30
0
41
1
10
40.7525643125332
20
1.93770016233839
30
0
41
1
10
40.7039911116823
20
1.89293112980346
30
0
0
SPLINE
5
120
100
AcDbEntity
8
1
62
256
6
ByLayer
370
18
48
1
60
0
100
AcDbSpline
70
4
71
3
72
98
73
94
40
0
40
0
40
0
40
0
40
0.0175131346067285
40
0.0175131346067285
40
0.0350262692134571
40
0.0350262692134571
40
0.070052538426916
40
0.070052538426916
40
0.105078807640375
40
0.105078807640375
40
0.122591942247104
40
0.122591942247104
40
0.131348509550469
40
0.131348509550469
40
0.140105076853834
40
0.140105076853834
40
0.157618211460562
40
0.157618211460562
40
0.175131346067289
40
0.175131346067289
40
0.210157615280743
40
0.210157615280743
40
0.227670749887469
40
0.227670749887469
40
0.245183884494196
40
0.245183884494196
40
0.280210153707649
40
0.280210153707649
40
0.288966721011013
40
0.288966721011013
40
0.297723288314377
40
0.315236422921103
40
0.315236422921103
40
0.350262692134554
40
0.350262692134554
40
0.36777582674128
40
0.36777582674128
40
0.385288961348006
40
0.385288961348006
40
0.420315230561457
40
0.420315230561457
40
0.437828365168184
40
0.437828365168184
40
0.455341499774911
40
0.455341499774911
40
0.490367768988364
40
0.490367768988364
40
0.507880903595092
40
0.507880903595092
40
0.525394038201819
40
0.525394038201819
40
0.542907172808547
40
0.542907172808547
40
0.560420307415274
40
0.560420307415274
40
0.577933442022002
40
0.577933442022002
40
0.59544657662873
40
0.59544657662873
40
0.630472845842185
40
0.630472845842185
40
0.66549911505564
40
0.66549911505564
40
0.700525384269096
40
0.700525384269096
40
0.718038518875823
40
0.718038518875823
40
0.726795086179186
40
0.726795086179186
40
0.735551653482549
40
0.753064788089273
40
0.753064788089273
40
0.770577922695997
40
0.770577922695997
40
0.805604191909443
40
0.805604191909443
40
0.840630461122889
40
0.840630461122889
40
0.858143595729611
40
0.858143595729611
40
0.866900163032973
40
0.866900163032973
40
0.875656730336335
40
0.875656730336335
40
0.910682999549783
40
0.910682999549783
40
0.945709268763231
40
0.945709268763231
40
0.963222403369956
40
0.963222403369956
40
0.980735537976681
40
0.980735537976681
40
1
40
1
40
1
40
1
41
1
10
38.9235364067311
20
2.91071790547937
30
0
41
1
10
38.9963887794366
20
2.88242934776005
30
0
41
1
10
39.0689455876203
20
2.85239022339047
30
0
41
1
10
39.2138017476312
20
2.78901852462022
30
0
41
1
10
39.2861205106794
20
2.75569859685416
30
0
41
1
10
39.5029545721363
20
2.65101797057778
30
0
41
1
10
39.6473331045903
20
2.57493318257076
30
0
41
1
10
39.9366139679076
20
2.41089327561755
30
0
41
1
10
40.0815362933773
20
2.32295751044873
30
0
41
1
10
40.2998004033236
20
2.18243112055077
30
0
41
1
10
40.3726977001128
20
2.134146737056
30
0
41
1
10
40.4822825558191
20
2.05953627507856
30
0
41
1
10
40.5188504657173
20
2.03430174939152
30
0
41
1
10
40.5920677109191
20
1.98309569604697
30
0
41
1
10
40.6287065188352
20
1.9571305487394
30
0
41
1
10
40.7382463070946
20
1.87847864289807
30
0
41
1
10
40.8109083192966
20
1.82489515091734
30
0
41
1
10
40.955705790102
20
1.71562859541976
30
0
41
1
10
41.0278705587145
20
1.65997199521513
30
0
41
1
10
41.2445184204264
20
1.49080401317414
30
0
41
1
10
41.3894027593372
20
1.37536337158332
30
0
41
1
10
41.6069621357628
20
1.19791704917802
30
0
41
1
10
41.6795047560924
20
1.13803486839055
30
0
41
1
10
41.824432354663
20
1.01657447957888
30
0
41
1
10
41.896828863412
20
0.955006647866639
30
0
41
1
10
42.1141714075157
20
0.768131344604939
30
0
41
1
10
42.2593293941262
20
0.64071501549256
30
0
41
1
10
42.4421377275589
20
0.478930354622946
30
0
41
1
10
42.4787237404079
20
0.446480526748047
30
0
41
1
10
42.5517288678906
20
0.381634001853712
30
0
41
1
10
42.6610917781712
20
0.284351511652858
30
0
41
1
10
42.7701373933145
20
0.187160814549628
30
0
41
1
10
42.9881681519054
20
-0.006696386768823
30
0
41
1
10
43.1335055894673
20
-0.135167807328571
30
0
41
1
10
43.3507323480371
20
-0.327598002916233
30
0
41
1
10
43.4229540985458
20
-0.391758510139965
30
0
41
1
10
43.5672189487268
20
-0.519887304776631
30
0
41
1
10
43.6392748066787
20
-0.583841094851181
30
0
41
1
10
43.8557657914226
20
-0.774745947523854
30
0
41
1
10
44.0006850208263
20
-0.900563034403518
30
0
41
1
10
44.2197183405853
20
-1.08624366694423
30
0
41
1
10
44.2931373930233
20
-1.14774972284272
30
0
41
1
10
44.4394070339703
20
-1.26863775142454
30
0
41
1
10
44.5123679892095
20
-1.32811263071648
30
0
41
1
10
44.7308508604876
20
-1.50356776417638
30
0
41
1
10
44.875993666746
20
-1.61656987400016
30
0
41
1
10
45.0930017515728
20
-1.78013859328803
30
0
41
1
10
45.1652059141329
20
-1.83368317664889
30
0
41
1
10
45.3093626148682
20
-1.93878034135884
30
0
41
1
10
45.3813368629172
20
-1.99031035239443
30
0
41
1
10
45.5254919849387
20
-2.0909415413575
30
0
41
1
10
45.5976969291487
20
-2.14002189260128
30
0
41
1
10
45.7427149896601
20
-2.23541605129725
30
0
41
1
10
45.8154964276962
20
-2.28175886099427
30
0
41
1
10
45.9616025940682
20
-2.37173444275376
30
0
41
1
10
46.0349571046314
20
-2.41538480466841
30
0
41
1
10
46.1820232524088
20
-2.49992402580912
30
0
41
1
10
46.2552978587185
20
-2.54056415457293
30
0
41
1
10
46.4741512084735
20
-2.65779111339427
30
0
41
1
10
46.6187084065029
20
-2.72969314052872
30
0
41
1
10
46.9070621810836
20
-2.85981588857257
30
0
41
1
10
47.0508369735355
20
-2.91804206900096
30
0
41
1
10
47.339863486594
20
-3.01984847117095
30
0
41
1
10
47.4851583188985
20
-3.06346735851329
30
0
41
1
10
47.7038511334144
20
-3.11807749438893
30
0
41
1
10
47.776883744896
20
-3.1344668152702
30
0
41
1
10
47.8866558049582
20
-3.15626667432721
30
0
41
1
10
47.9233097361513
20
-3.16307370854355
30
0
41
1
10
47.9965683486446
20
-3.17572616558977
30
0
41
1
10
48.1061759955325
20
-3.19323303080827
30
0
41
1
10
48.2150686824564
20
-3.20630712856212
30
0
41
1
10
48.3599651753399
20
-3.21978761351957
30
0
41
1
10
48.4322905397124
20
-3.22455049188025
30
0
41
1
10
48.6492481095143
20
-3.23297701555484
30
0
41
1
10
48.7938042524598
20
-3.23079993502532
30
0
41
1
10
49.0833230434087
20
-3.2111367897065
30
0
41
1
10
49.2282724483984
20
-3.19365479793959
30
0
41
1
10
49.4462383118733
20
-3.15582969373614
30
0
41
1
10
49.5189814784802
20
-3.14128394238998
30
0
41
1
10
49.6282251080154
20
-3.11649353489452
30
0
41
1
10
49.6646612538842
20
-3.10773426349544
30
0
41
1
10
49.7376041763448
20
-3.08921861890496
30
0
41
1
10
49.7741467425465
20
-3.07945204416063
30
0
41
1
10
49.9566783197944
20
-3.02824264955518
30
0
41
1
10
50.1014783680869
20
-2.97982924846448
30
0
41
1
10
50.39113578522
20
-2.86968241526333
30
0
41
1
10
50.5361773236668
20
-2.80809436195224
30
0
41
1
10
50.7537103202488
20
-2.70603699003561
30
0
41
1
10
50.8262041808633
20
-2.67039283689519
30
0
41
1
10
50.9709928003335
20
-2.5957177287805
30
0
41
1
10
51.0432955352965
20
-2.55668789904041
30
0
41
1
10
51.1952239455574
20
-2.47130622926628
30
0
41
1
10
51.2748563781288
20
-2.42460791209226
30
0
41
1
10
51.3547060233752
20
-2.37603178732206
30
0
0
SPLINE
5
121
100
AcDbEntity
8
1
62
256
6
ByLayer
370
18
48
1
60
0
100
AcDbSpline
70
4
71
3
72
30
73
26
40
0
40
0
40
0
40
0
40
0.139818650982313
40
0.139818650982313
40
0.209727976473504
40
0.209727976473504
40
0.279637301964695
40
0.279637301964695
40
0.349546627455886
40
0.349546627455886
40
0.419455952947077
40
0.419455952947077
40
0.559274603929539
40
0.559274603929539
40
0.62918392942081
40
0.62918392942081
40
0.699093254912081
40
0.699093254912081
40
0.838911905894621
40
0.838911905894621
40
0.908821231385891
40
0.908821231385891
40
0.978730556877162
40
0.978730556877162
40
1
40
1
40
1
40
1
41
1
10
60.627982670438
20
3.37720482467958
30
0
41
1
10
60.6192053887234
20
3.36355944698212
30
0
41
1
10
60.6087319678855
20
3.35283552953612
30
0
41
1
10
60.5912563554327
20
3.33979981708598
30
0
41
1
10
60.5852318058717
20
3.336062648888
30
0
41
1
10
60.5729705806821
20
3.32965779045165
30
0
41
1
10
60.5667133412815
20
3.32697726386056
30
0
41
1
10
60.5539805377808
20
3.32252880693773
30
0
41
1
10
60.5474740985907
20
3.32075620224757
30
0
41
1
10
60.5344138712382
20
3.31808674160729
30
0
41
1
10
60.5278889091302
20
3.31719073047731
30
0
41
1
10
60.5083346065392
20
3.3156739842359
30
0
41
1
10
60.4953252858304
20
3.31620970243685
30
0
41
1
10
60.4758807538867
20
3.31913732092431
30
0
41
1
10
60.469385445471
20
3.32047967038738
30
0
41
1
10
60.4566084464298
20
3.32384068879378
30
0
41
1
10
60.4503149816191
20
3.32585803261873
30
0
41
1
10
60.4317248360804
20
3.33290605897298
30
0
41
1
10
60.4197139914204
20
3.33891693714602
30
0
41
1
10
60.4023634120582
20
3.35010260430505
30
0
41
1
10
60.3966728175664
20
3.3542158548023
30
0
41
1
10
60.3857631769597
20
3.36307458499221
30
0
41
1
10
60.3805193640104
20
3.36783244743583
30
0
41
1
10
60.3739781953366
20
3.37450127399029
30
0
41
1
10
60.3724728567646
20
3.37608874174629
30
0
41
1
10
60.3709892969605
20
3.37771010013407
30
0
0
SPLINE
5
122
100
AcDbEntity
8
1
62
256
6
ByLayer
370
18
48
1
60
0
100
AcDbSpline
70
4
71
3
72
10
73
6
40
0
40
0
40
0
40
0
40
0.5
40
0.5
40
1
40
1
40
1
40
1
41
1
10
60.9848246697367
20
3.91136089550878
30
0
41
1
10
60.9263361161148
20
3.82754783685911
30
0
41
1
10
60.8673324399115
20
3.74097592943386
30
0
41
1
10
60.748356779976
20
3.56275513026637
30
0
41
1
10
60.6884611841299
20
3.47122620723701
30
0
41
1
10
60.627982670438
20
3.37720482467958
30
0
0
SPLINE
5
123
100
AcDbEntity
8
1
62
256
6
ByLayer
370
18
48
1
60
0
100
AcDbSpline
70
4
71
3
72
8
73
4
40
0
40
0
40
0
40
0
40
1
40
1
40
1
40
1
41
1
10
60.9848246697367
20
3.91136089550872
30
0
41
1
10
61.0205537389503
20
3.90236065651135
30
0
41
1
10
61.0563182649933
20
3.89278991061693
30
0
41
1
10
61.0921205566783
20
3.88264800717397
30
0
0
SPLINE
5
124
100
AcDbEntity
8
1
62
256
6
ByLayer
370
18
48
1
60
0
100
AcDbSpline
70
4
71
3
72
8
73
4
40
0
40
0
40
0
40
0
40
1
40
1
40
1
40
1
41
1
10
61.4583994661736
20
3.16692373647476
30
0
41
1
10
61.3343657823289
20
3.41148762096734
30
0
41
1
10
61.2122556693029
20
3.65117104939466
30
0
41
1
10
61.0921205566783
20
3.882648007174
30
0
0
SPLINE
5
125
100
AcDbEntity
8
1
62
256
6
ByLayer
370
18
48
1
60
0
100
AcDbSpline
70
4
71
3
72
30
73
26
40
0
40
0
40
0
40
0
40
0.125000000000045
40
0.125000000000045
40
0.187500000000067
40
0.187500000000067
40
0.250000000000089
40
0.250000000000089
40
0.312500000000111
40
0.312500000000111
40
0.375000000000133
40
0.375000000000133
40
0.500000000000104
40
0.500000000000104
40
0.56250000000009
40
0.56250000000009
40
0.625000000000076
40
0.625000000000076
40
0.75000000000005
40
0.75000000000005
40
0.812500000000037
40
0.812500000000037
40
0.875000000000024
40
0.875000000000024
40
1
40
1
40
1
40
1
41
1
10
61.737877659128
20
3.05785495821982
30
0
41
1
10
61.7291201278274
20
3.04726879502826
30
0
41
1
10
61.7186749424186
20
3.03991641533719
30
0
41
1
10
61.7012469375169
20
3.03226472810769
30
0
41
1
10
61.6952346628303
20
3.03034458452424
30
0
41
1
10
61.6829996783948
20
3.02758134120015
30
0
41
1
10
61.6767549337097
20
3.02673089654564
30
0
41
1
10
61.6640451334491
20
3.02596018134113
30
0
41
1
10
61.6575506354125
20
3.02604366639937
30
0
41
1
10
61.6445014775759
20
3.02706313360892
30
0
41
1
10
61.6379806518892
20
3.02799192382594
30
0
41
1
10
61.6184344793876
20
3.03190033648801
30
0
41
1
10
61.6054248439184
20
3.0359876588885
30
0
41
1
10
61.5859714828928
20
3.04416870954856
30
0
41
1
10
61.5794710489739
20
3.04725682344795
30
0
41
1
10
61.5666793387674
20
3.05403953684998
30
0
41
1
10
61.5603781979927
20
3.05773507081312
30
0
41
1
10
61.541764825368
20
3.06972442418524
30
0
41
1
10
61.529738234434
20
3.07890683036163
30
0
41
1
10
61.5123665748087
20
3.09465744263298
30
0
41
1
10
61.5066682471154
20
3.10026595555422
30
0
41
1
10
61.4957454113042
20
3.11198601771642
30
0
41
1
10
61.490496591737
20
3.11811590789242
30
0
41
1
10
61.4754403731742
20
3.13738016731131
30
0
41
1
10
61.4662966901466
20
3.15135235528476
30
0
41
1
10
61.4583994661736
20
3.16692373647481
30
0
0
SPLINE
5
126
100
AcDbEntity
8
1
62
256
6
ByLayer
370
18
48
1
60
0
100
AcDbSpline
70
4
71
3
72
10
73
6
40
0
40
0
40
0
40
0
40
0.5
40
0.5
40
1
40
1
40
1
40
1
41
1
10
62.0950889157674
20
3.45196063891325
30
0
41
1
10
62.0365849180343
20
3.39377924233895
30
0
41
1
10
61.9775538468702
20
3.33183905008457
30
0
41
1
10
61.8584679333407
20
3.2004745332901
30
0
41
1
10
61.7984892948006
20
3.1311227142246
30
0
41
1
10
61.7378776591281
20
3.05785495821982
30
0
0
SPLINE
5
127
100
AcDbEntity
8
1
62
256
6
ByLayer
370
18
48
1
60
0
100
AcDbSpline
70
4
71
3
72
8
73
4
40
0
40
0
40
0
40
0
40
1
40
1
40
1
40
1
41
1
10
62.0950889157674
20
3.45196063891322
30
0
41
1
10
62.1282630180953
20
3.43303849377708
30
0
41
1
10
62.1614327088714
20
3.41369668210788
30
0
41
1
10
62.1946032989987
20
3.39394003592096
30
0
0
SPLINE
5
128
100
AcDbEntity
8
1
62
256
6
ByLayer
370
18
48
1
60
0
100
AcDbSpline
70
4
71
3
72
24
73
20
40
0
40
0
40
0
40
0
40
0.125000000000512
40
0.125000000000512
40
0.187500000000763
40
0.187500000000763
40
0.250000000001014
40
0.250000000001014
40
0.265625000001079
40
0.265625000001079
40
0.281250000001144
40
0.281250000001144
40
0.312500000001078
40
0.312500000001078
40
0.375000000000945
40
0.375000000000945
40
0.500000000000679
40
0.500000000000679
40
1
40
1
40
1
40
1
41
1
10
62.1946032989966
20
3.39394003592162
30
0
41
1
10
62.1945999172448
20
3.3914218111145
30
0
41
1
10
62.1945833434891
20
3.38890940688833
30
0
41
1
10
62.1945704492117
20
3.38513556762587
30
0
41
1
10
62.194570904859
20
3.38387554230809
30
0
41
1
10
62.1945998984611
20
3.38134324005045
30
0
41
1
10
62.1946796217243
20
3.38004863208454
30
0
41
1
10
62.1946124636067
20
3.37850318733521
30
0
41
1
10
62.1945793835775
20
3.37820212665358
30
0
41
1
10
62.1945854910101
20
3.37757229901601
30
0
41
1
10
62.1946425719647
20
3.37722634865997
30
0
41
1
10
62.19496902304
20
3.37623676369429
30
0
41
1
10
62.1953426211979
20
3.37564500227205
30
0
41
1
10
62.1965003306481
20
3.37402837099592
30
0
41
1
10
62.1973533849346
20
3.3731234535735
30
0
41
1
10
62.1999084301149
20
3.37041981111426
30
0
41
1
10
62.2016191379626
20
3.36863296815787
30
0
41
1
10
62.2100901491202
20
3.35949747596285
30
0
41
1
10
62.2167719472638
20
3.35193986656122
30
0
41
1
10
62.2235079627041
20
3.34448440332497
30
0
0
SPLINE
5
129
100
AcDbEntity
8
1
62
256
6
ByLayer
370
18
48
1
60
0
100
AcDbSpline
70
4
71
3
72
10
73
6
40
0
40
0
40
0
40
0
40
0.5
40
0.5
40
1
40
1
40
1
40
1
41
1
10
62.5685214499736
20
2.62793459471686
30
0
41
1
10
62.5101038042429
20
2.74704751652544
30
0
41
1
10
62.4521283591482
20
2.86657178249854
30
0
41
1
10
62.3371347301013
20
3.10562866264397
30
0
41
1
10
62.2800731928279
20
3.22525083210277
30
0
41
1
10
62.223507962704
20
3.34448440332486
30
0
0
SPLINE
5
12A
100
AcDbEntity
8
1
62
256
6
ByLayer
370
18
48
1
60
0
100
AcDbSpline
70
4
71
3
72
30
73
26
40
0
40
0
40
0
40
0
40
0.124999999999972
40
0.124999999999972
40
0.187499999999988
40
0.187499999999988
40
0.250000000000004
40
0.250000000000004
40
0.31250000000002
40
0.31250000000002
40
0.375000000000037
40
0.375000000000037
40
0.500000000000072
40
0.500000000000072
40
0.562500000000088
40
0.562500000000088
40
0.625000000000104
40
0.625000000000104
40
0.750000000000069
40
0.750000000000069
40
0.812500000000052
40
0.812500000000052
40
0.875000000000034
40
0.875000000000034
40
1
40
1
40
1
40
1
41
1
10
62.847963444854
20
2.45157837482407
30
0
41
1
10
62.839209946655
20
2.44499141107912
30
0
41
1
10
62.8287645531667
20
2.44164921333399
30
0
41
1
10
62.811327589045
20
2.44003903200749
30
0
41
1
10
62.8053118353758
20
2.44010168813199
30
0
41
1
10
62.7930680730323
20
2.44121425585243
30
0
41
1
10
62.7868182276787
20
2.44226413718445
30
0
41
1
10
62.7740972318111
20
2.4452299400285
30
0
41
1
10
62.7675956773935
20
2.44715788392142
30
0
41
1
10
62.7545382149199
20
2.45176735004816
30
0
41
1
10
62.7480134689969
20
2.45443379144322
30
0
41
1
10
62.7284566556396
20
2.46340405353246
30
0
41
1
10
62.7154414577421
20
2.4706663298098
30
0
41
1
10
62.6959830089656
20
2.48334441036323
30
0
41
1
10
62.68948237112
20
2.48789178177896
30
0
41
1
10
62.6766972242064
20
2.49745915404665
30
0
41
1
10
62.6703996259328
20
2.50248509047401
30
0
41
1
10
62.6517971695505
20
2.51828506206061
30
0
41
1
10
62.6397782534959
20
2.52976992697211
30
0
41
1
10
62.6224165143841
20
2.54859109904945
30
0
41
1
10
62.6167254767875
20
2.555156815647
30
0
41
1
10
62.6058210271115
20
2.56860581586619
30
0
41
1
10
62.6005805351732
20
2.57551561131589
30
0
41
1
10
62.5855462606528
20
2.59684616265079
30
0
41
1
10
62.5764130115675
20
2.61184378949307
30
0
41
1
10
62.5685214499735
20
2.627934594717
30
0
0
SPLINE
5
12B
100
AcDbEntity
8
1
62
256
6
ByLayer
370
18
48
1
60
0
100
AcDbSpline
70
4
71
3
72
8
73
4
40
0
40
0
40
0
40
0
40
1
40
1
40
1
40
1
41
1
10
62.9690985893663
20
2.5370601861639
30
0
41
1
10
62.9289572220057
20
2.51062820053568
30
0
41
1
10
62.8885957657582
20
2.48215399368922
30
0
41
1
10
62.847963444854
20
2.45157837482409
30
0
0
SPLINE
5
12C
100
AcDbEntity
8
1
62
256
6
ByLayer
370
18
48
1
60
0
100
AcDbSpline
70
4
71
3
72
10
73
6
40
0
40
0
40
0
40
0
40
0.5
40
0.5
40
1
40
1
40
1
40
1
41
1
10
62.9690985893663
20
2.5370601861639
30
0
41
1
10
63.0974042173395
20
2.40139008037752
30
0
41
1
10
63.2279537951954
20
2.26565847907167
30
0
41
1
10
63.4939611539142
20
1.99550371772469
30
0
41
1
10
63.6293845391816
20
1.86105221967091
30
0
41
1
10
63.7676594379022
20
1.7281514930836
30
0
0
SPLINE
5
12D
100
AcDbEntity
8
1
62
256
6
ByLayer
370
18
48
1
60
0
100
AcDbSpline
70
4
71
3
72
8
73
4
40
0
40
0
40
0
40
0
40
1
40
1
40
1
40
1
41
1
10
63.7901437731342
20
1.70657921031528
30
0
41
1
10
63.7825106991043
20
1.71354498763222
30
0
41
1
10
63.7750143890023
20
1.72073464473667
30
0
41
1
10
63.7676594379026
20
1.72815149308406
30
0
0
SPLINE
5
12E
100
AcDbEntity
8
1
62
256
6
ByLayer
370
18
48
1
60
0
100
AcDbSpline
70
4
71
3
72
20
73
16
40
0
40
0
40
0
40
0
40
0.125
40
0.125
40
0.25
40
0.25
40
0.375
40
0.375
40
0.5
40
0.5
40
0.625
40
0.625
40
0.75
40
0.75
40
1
40
1
40
1
40
1
41
1
10
63.7901437731341
20
1.70657921031602
30
0
41
1
10
63.8525601129163
20
1.64680100823909
30
0
41
1
10
63.9155383272552
20
1.58737504837657
30
0
41
1
10
64.0425244713718
20
1.46950680763575
30
0
41
1
10
64.1065637246967
20
1.4110560041195
30
0
41
1
10
64.235638298538
20
1.29514160130688
30
0
41
1
10
64.3006614400605
20
1.23766841685747
30
0
41
1
10
64.4312885639164
20
1.12340229823818
30
0
41
1
10
64.496890220533
20
1.06660779124505
30
0
41
1
10
64.6281663572094
20
0.953238228773046
30
0
41
1
10
64.6938076698064
20
0.896627674978589
30
0
41
1
10
64.8250350457288
20
0.783490335289542
30
0
41
1
10
64.8906262151888
20
0.726967857294483
30
0
41
1
10
65.0874849764434
20
0.557699840433344
30
0
41
1
10
65.2189618906616
20
0.445403676631941
30
0
41
1
10
65.3499999999954
20
0.332892231982783
30
0
0
SPLINE
5
12F
100
AcDbEntity
8
1
62
256
6
ByLayer
370
18
48
1
60
0
100
AcDbSpline
70
4
71
3
72
8
73
4
40
0
40
0
40
0
40
0
40
1
40
1
40
1
40
1
41
1
10
65.3500000000002
20
0.332892231978661
30
0
41
1
10
65.3756870020287
20
0.307140027377756
30
0
41
1
10
65.40152792284
20
0.281574480466702
30
0
41
1
10
65.4275287727909
20
0.256197367593842
30
0
0
SPLINE
5
130
100
AcDbEntity
8
1
62
256
6
ByLayer
370
18
48
1
60
0
100
AcDbSpline
70
4
71
3
72
8
73
4
40
0
40
0
40
0
40
0
40
1
40
1
40
1
40
1
41
1
10
65.55
20
0.128946689523303
30
0
41
1
10
65.5082366777027
20
0.169263285670411
30
0
41
1
10
65.467458614833
20
0.21171460116426
30
0
41
1
10
65.4275287727909
20
0.256197367593842
30
0
0
SPLINE
5
131
100
AcDbEntity
8
1
62
256
6
ByLayer
370
18
48
1
60
0
100
AcDbSpline
70
4
71
3
72
52
73
48
40
0
40
0
40
0
40
0
40
0.0176459296388325
40
0.0176459296388325
40
0.0540294137262832
40
0.0540294137262832
40
0.0722211557700085
40
0.0722211557700085
40
0.0904128978137338
40
0.0904128978137338
40
0.126796381901185
40
0.126796381901185
40
0.163179865988635
40
0.163179865988635
40
0.199563350076086
40
0.199563350076086
40
0.272330318250987
40
0.272330318250987
40
0.41786425460079
40
0.41786425460079
40
0.490631222775691
40
0.490631222775691
40
0.527014706863142
40
0.527014706863142
40
0.563398190950593
40
0.563398190950593
40
0.708932127300396
40
0.708932127300396
40
0.745315611387846
40
0.745315611387846
40
0.763507353431572
40
0.763507353431572
40
0.781699095475297
40
0.781699095475297
40
0.818082579562748
40
0.818082579562748
40
0.854466063650198
40
0.854466063650198
40
0.872657805693924
40
0.872657805693924
40
0.890849547737649
40
0.890849547737649
40
0.927233031825099
40
0.927233031825099
40
0.96361651591255
40
0.96361651591255
40
1
40
1
40
1
40
1
41
1
10
65.55
20
0.195302967935191
30
0
41
1
10
65.55
20
0.202436645217034
30
0
41
1
10
65.55
20
0.210046175229536
30
0
41
1
10
65.55
20
0.234728790697716
30
0
41
1
10
65.55
20
0.253320430969211
30
0
41
1
10
65.55
20
0.283206444605753
30
0
41
1
10
65.55
20
0.293478398491175
30
0
41
1
10
65.55
20
0.314375867532419
30
0
41
1
10
65.55
20
0.324990678775208
30
0
41
1
10
65.55
20
0.357351614277917
30
0
41
1
10
65.55
20
0.379617733121251
30
0
41
1
10
65.55
20
0.42569012444261
30
0
41
1
10
65.55
20
0.449504069300417
30
0
41
1
10
65.55
20
0.498803571207873
30
0
41
1
10
65.55
20
0.524289515686633
30
0
41
1
10
65.55
20
0.602660723311459
30
0
41
1
10
65.55
20
0.657622160846017
30
0
41
1
10
65.5499999999999
20
0.830355935436188
30
0
41
1
10
65.55
20
0.955929838308293
30
0
41
1
10
65.55
20
1.15999982841086
30
0
41
1
10
65.55
20
1.23063691001323
30
0
41
1
10
65.55
20
1.34059387641889
30
0
41
1
10
65.55
20
1.37796410849805
30
0
41
1
10
65.55
20
1.45383681618498
30
0
41
1
10
65.55
20
1.49226118259679
30
0
41
1
10
65.55
20
1.6867890729871
30
0
41
1
10
65.55
20
1.85006082397669
30
0
41
1
10
65.55
20
2.06366672950733
30
0
41
1
10
65.55
20
2.10683227714088
30
0
41
1
10
65.55
20
2.17235551143568
30
0
41
1
10
65.55
20
2.19433948361237
30
0
41
1
10
65.55
20
2.2384496983166
30
0
41
1
10
65.55
20
2.26058882849969
30
0
41
1
10
65.55
20
2.3275115965173
30
0
41
1
10
65.55
20
2.37285392457747
30
0
41
1
10
65.55
20
2.46513099377495
30
0
41
1
10
65.5499999999999
20
2.51203164858438
30
0
41
1
10
65.5499999999999
20
2.58350291028881
30
0
41
1
10
65.55
20
2.60751438480895
30
0
41
1
10
65.55
20
2.65591856466529
30
0
41
1
10
65.55
20
2.68037575141921
30
0
41
1
10
65.55
20
2.7535876499629
30
0
41
1
10
65.55
20
2.80232605679672
30
0
41
1
10
65.55
20
2.89966553050928
30
0
41
1
10
65.55
20
2.94826733604683
30
0
41
1
10
65.55
20
3.04533763145466
30
0
41
1
10
65.55
20
3.09380614954804
30
0
41
1
10
65.55
20
3.14220496789014
30
0
0
SPLINE
5
132
100
AcDbEntity
8
1
62
256
6
ByLayer
370
18
48
1
60
0
100
AcDbSpline
70
4
71
3
72
10
73
6
40
0
40
0
40
0
40
0
40
0.5
40
0.5
40
1
40
1
40
1
40
1
41
1
10
65.3501485462594
20
3.34484874222826
30
0
41
1
10
65.3837214092686
20
3.31130482487842
30
0
41
1
10
65.4172623281303
20
3.27756481609373
30
0
41
1
10
65.4839038230281
20
3.2100140660028
30
0
41
1
10
65.5170427461822
20
3.17616345771103
30
0
41
1
10
65.55
20
3.14220496789014
30
0
0
SPLINE
5
133
100
AcDbEntity
8
1
62
256
6
ByLayer
370
18
48
1
60
0
100
AcDbSpline
70
4
71
3
72
8
73
4
40
0
40
0
40
0
40
0
40
1
40
1
40
1
40
1
41
1
10
65.3501485462594
20
3.34484874222832
30
0
41
1
10
65.3500990306225
20
3.34486962004394
30
0
41
1
10
65.3500495152028
20
3.34489049808525
30
0
41
1
10
65.3500000000001
20
3.3449113763522
30
0
0
SPLINE
5
134
100
AcDbEntity
8
1
62
256
6
ByLayer
370
18
48
1
60
0
100
AcDbSpline
70
4
71
3
72
14
73
10
40
0
40
0
40
0
40
0
40
0.25
40
0.25
40
0.5
40
0.5
40
0.75
40
0.75
40
1
40
1
40
1
40
1
41
1
10
65.3500000000001
20
3.3449113763522
30
0
41
1
10
65.2186524756494
20
3.32472732028501
30
0
41
1
10
65.0852333252432
20
3.30412167766968
30
0
41
1
10
64.8156144608205
20
3.26472371898038
30
0
41
1
10
64.6794832444575
20
3.2459729072597
30
0
41
1
10
64.4070461836598
20
3.21088668991516
30
0
41
1
10
64.2706521587023
20
3.1945227257672
30
0
41
1
10
63.9985517455847
20
3.1635133877262
30
0
41
1
10
63.8628505194875
20
3.14890935962219
30
0
41
1
10
63.7286561296221
20
3.13366289699081
30
0
0
SPLINE
5
135
100
AcDbEntity
8
1
62
256
6
ByLayer
370
18
48
1
60
0
100
AcDbSpline
70
4
71
3
72
8
73
4
40
0
40
0
40
0
40
0
40
1
40
1
40
1
40
1
41
1
10
63.7002099086993
20
3.0755253976381
30
0
41
1
10
63.7096985496836
20
3.09493461447636
30
0
41
1
10
63.7191807310552
20
3.11431390738065
30
0
41
1
10
63.7286561296221
20
3.13366289699081
30
0
0
SPLINE
5
136
100
AcDbEntity
8
1
62
256
6
ByLayer
370
18
48
1
60
0
100
AcDbSpline
70
4
71
3
72
28
73
24
40
0
40
0
40
0
40
0
40
0.0625000000000484
40
0.0625000000000484
40
0.125000000000097
40
0.125000000000097
40
0.250000000000195
40
0.250000000000195
40
0.312500000000209
40
0.312500000000209
40
0.375000000000222
40
0.375000000000222
40
0.500000000000177
40
0.500000000000177
40
0.625000000000132
40
0.625000000000132
40
0.68750000000011
40
0.68750000000011
40
0.750000000000088
40
0.750000000000088
40
0.875000000000044
40
0.875000000000044
40
1
40
1
40
1
40
1
41
1
10
63.4207006050045
20
2.95115435902315
30
0
41
1
10
63.4251483964714
20
2.94583799125166
30
0
41
1
10
63.4300612878515
20
2.94141164909365
30
0
41
1
10
63.440635690474
20
2.93399894233258
30
0
41
1
10
63.4463194230511
20
2.93100860126415
30
0
41
1
10
63.4642349244867
20
2.92400452094768
30
0
41
1
10
63.4768117729314
20
2.92206109489672
30
0
41
1
10
63.4963331628043
20
2.92204436807691
30
0
41
1
10
63.5029650190748
20
2.92254479102317
30
0
41
1
10
63.5161323588635
20
2.92440761902984
30
0
41
1
10
63.522706832372
20
2.92576849847344
30
0
41
1
10
63.5423988525272
20
2.93099980210207
30
0
41
1
10
63.5555051758868
20
2.93601372557782
30
0
41
1
10
63.5815174779177
20
2.94879659939667
30
0
41
1
10
63.5941492942693
20
2.95642873640389
30
0
41
1
10
63.6125315003685
20
2.96963652567013
30
0
41
1
10
63.6185637352243
20
2.97433546924518
30
0
41
1
10
63.6304262176521
20
2.98434563748174
30
0
41
1
10
63.6362781118492
20
2.98967969949052
30
0
41
1
10
63.653265262426
20
3.006428304244
30
0
41
1
10
63.6638842980515
20
3.01859819147009
30
0
41
1
10
63.6834903809833
20
3.04524543867311
30
0
41
1
10
63.6925409948891
20
3.05983847141735
30
0
41
1
10
63.7002099086993
20
3.0755253976381
30
0
0
SPLINE
5
137
100
AcDbEntity
8
1
62
256
6
ByLayer
370
18
48
1
60
0
100
AcDbSpline
70
4
71
3
72
8
73
4
40
0
40
0
40
0
40
0
40
1
40
1
40
1
40
1
41
1
10
63.3084443529838
20
3.08102079412731
30
0
41
1
10
63.3456547477819
20
3.03935580562836
30
0
41
1
10
63.3830467328812
20
2.99616137738673
30
0
41
1
10
63.4207006050045
20
2.95115435902315
30
0
0
SPLINE
5
138
100
AcDbEntity
8
1
62
256
6
ByLayer
370
18
48
1
60
0
100
AcDbSpline
70
4
71
3
72
10
73
6
40
0
40
0
40
0
40
0
40
0.5
40
0.5
40
1
40
1
40
1
40
1
41
1
10
63.3084443529838
20
3.08102079412731
30
0
41
1
10
63.227990688153
20
3.06958067842874
30
0
41
1
10
63.148247271501
20
3.0572049520315
30
0
41
1
10
62.9903281590681
20
3.02995769115654
30
0
41
1
10
62.9121364045681
20
3.01509330673287
30
0
41
1
10
62.834697151461
20
2.99868964500371
30
0
0
SPLINE
5
139
100
AcDbEntity
8
1
62
256
6
ByLayer
370
18
48
1
60
0
100
AcDbSpline
70
4
71
3
72
10
73
6
40
0
40
0
40
0
40
0
40
0.422403260092707
40
0.422403260092707
40
1
40
1
40
1
40
1
41
1
10
62.6231858130169
20
2.54843605783427
30
0
41
1
10
62.6531711492132
20
2.61169455673283
30
0
41
1
10
62.6830872667205
20
2.67501080743341
30
0
41
1
10
62.7536997578033
20
2.82507005035427
30
0
41
1
10
62.7943219080756
20
2.91190301805284
30
0
41
1
10
62.834697151461
20
2.99868964500374
30
0
0
SPLINE
5
13A
100
AcDbEntity
8
1
62
256
6
ByLayer
370
18
48
1
60
0
100
AcDbSpline
70
4
71
3
72
10
73
6
40
0
40
0
40
0
40
0
40
0.934796771355003
40
0.934796771355003
40
1
40
1
40
1
40
1
41
1
10
61.5853585312642
20
-4.01243003785061
30
0
41
1
10
61.6435912510497
20
-3.91295905207792
30
0
41
1
10
61.7023380694962
20
-3.81199147565667
30
0
41
1
10
61.765671044211
20
-3.70276776710549
30
0
41
1
10
61.7698022795933
20
-3.69564133505963
30
0
41
1
10
61.7739353374975
20
-3.68851014192433
30
0
0
SPLINE
5
13B
100
AcDbEntity
8
1
62
256
6
ByLayer
370
18
48
1
60
0
100
AcDbSpline
70
4
71
3
72
28
73
24
40
0
40
0
40
0
40
0
40
0.0624999999999276
40
0.0624999999999276
40
0.124999999999855
40
0.124999999999855
40
0.249999999999776
40
0.249999999999776
40
0.312499999999737
40
0.312499999999737
40
0.374999999999697
40
0.374999999999697
40
0.499999999999692
40
0.499999999999692
40
0.624999999999686
40
0.624999999999686
40
0.687499999999717
40
0.687499999999717
40
0.749999999999749
40
0.749999999999749
40
0.874999999999875
40
0.874999999999875
40
1
40
1
40
1
40
1
41
1
10
60.8304809851895
20
-3.35103906130956
30
0
41
1
10
60.8349335732
20
-3.34414097613976
30
0
41
1
10
60.8398519676232
20
-3.3380361181427
30
0
41
1
10
60.8504387975919
20
-3.32710769623702
30
0
41
1
10
60.8561296155732
20
-3.3222735417433
30
0
41
1
10
60.8740653481065
20
-3.30956944962745
30
0
41
1
10
60.886655401268
20
-3.30376065697592
30
0
41
1
10
60.9061924920984
20
-3.29787188934057
30
0
41
1
10
60.9128282585513
20
-3.29639912537428
30
0
41
1
10
60.9260010725555
20
-3.2943781522049
30
0
41
1
10
60.9325773256362
20
-3.29381662918317
30
0
41
1
10
60.9522717976989
20
-3.29332960947053
30
0
41
1
10
60.965377253535
20
-3.29459081770838
30
0
41
1
10
60.9913750906215
20
-3.29998741713246
30
0
41
1
10
61.0039975555565
20
-3.30406409162575
30
0
41
1
10
61.0223648351452
20
-3.31211781139902
30
0
41
1
10
61.0283919502341
20
-3.31512894829419
30
0
41
1
10
61.0402443615504
20
-3.32182364311976
30
0
41
1
10
61.0460909785505
20
-3.32552381070931
30
0
41
1
10
61.0630630897572
20
-3.33753053561458
30
0
41
1
10
61.0736752323748
20
-3.34673796551738
30
0
41
1
10
61.093276142045
20
-3.36791949446979
30
0
41
1
10
61.1023288187147
20
-3.37999037661842
30
0
41
1
10
61.1100020593583
20
-3.39356567193747
30
0
0
SPLINE
5
13C
100
AcDbEntity
8
1
62
256
6
ByLayer
370
18
48
1
60
0
100
AcDbSpline
70
4
71
3
72
10
73
6
40
0
40
0
40
0
40
0
40
0.5
40
0.5
40
1
40
1
40
1
40
1
41
1
10
60.4749165649581
20
-3.87986028148833
30
0
41
1
10
60.5332095528548
20
-3.7969295724445
30
0
41
1
10
60.5920260281047
20
-3.71122399692874
30
0
41
1
10
60.7105737482721
20
-3.53488540651733
30
0
41
1
10
60.770202080238
20
-3.4444249796374
30
0
41
1
10
60.8304809851895
20
-3.35103906130953
30
0
0
SPLINE
5
13D
100
AcDbEntity
8
1
62
256
6
ByLayer
370
18
48
1
60
0
100
AcDbSpline
70
4
71
3
72
8
73
4
40
0
40
0
40
0
40
0
40
1
40
1
40
1
40
1
41
1
10
60.4749165649581
20
-3.87986028148825
30
0
41
1
10
60.4393111609914
20
-3.86960982135724
30
0
41
1
10
60.4036761741952
20
-3.85878480645286
30
0
41
1
10
60.36800251636
20
-3.84738418640649
30
0
0
SPLINE
5
13E
100
AcDbEntity
8
1
62
256
6
ByLayer
370
18
48
1
60
0
100
AcDbSpline
70
4
71
3
72
10
73
6
40
0
40
0
40
0
40
0
40
0.5
40
0.5
40
1
40
1
40
1
40
1
41
1
10
59.999899138407
20
-3.10790067664408
30
0
41
1
10
60.0620317953104
20
-3.23431173056579
30
0
41
1
10
60.1238948764395
20
-3.35939141292383
30
0
41
1
10
60.2467138544377
20
-3.60628354519449
30
0
41
1
10
60.3076020151669
20
-3.72791762123924
30
0
41
1
10
60.36800251636
20
-3.84738418640652
30
0
0
SPLINE
5
13F
100
AcDbEntity
8
1
62
256
6
ByLayer
370
18
48
1
60
0
100
AcDbSpline
70
4
71
3
72
28
73
24
40
0
40
0
40
0
40
0
40
0.0625000000000226
40
0.0625000000000226
40
0.125000000000045
40
0.125000000000045
40
0.25000000000009
40
0.25000000000009
40
0.312500000000114
40
0.312500000000114
40
0.375000000000137
40
0.375000000000137
40
0.50000000000011
40
0.50000000000011
40
0.625000000000083
40
0.625000000000083
40
0.687500000000069
40
0.687500000000069
40
0.750000000000055
40
0.750000000000055
40
0.875000000000028
40
0.875000000000028
40
1
40
1
40
1
40
1
41
1
10
59.7203827821851
20
-2.9880834985191
30
0
41
1
10
59.7248342180241
20
-2.9826552234947
30
0
41
1
10
59.729750608361
20
-2.97811403574875
30
0
41
1
10
59.7403326083171
20
-2.97046266502576
30
0
41
1
10
59.7460196924756
20
-2.96734923680413
30
0
41
1
10
59.7639483639318
20
-2.95996984904517
30
0
41
1
10
59.7765336207595
20
-2.95778116974853
30
0
41
1
10
59.7960631999059
20
-2.95740520122999
30
0
41
1
10
59.8026977906882
20
-2.95778709713514
30
0
41
1
10
59.8158690064613
20
-2.95942066376438
30
0
41
1
10
59.822444491591
20
-2.96067002349577
30
0
41
1
10
59.8421367156166
20
-2.96557438077159
30
0
41
1
10
59.8552375651279
20
-2.97037927479573
30
0
41
1
10
59.8812397124498
20
-2.9827620949365
30
0
41
1
10
59.8938639557127
20
-2.99020628704884
30
0
41
1
10
59.9122336014869
20
-3.00314612077489
30
0
41
1
10
59.9182614547519
20
-3.00775811253018
30
0
41
1
10
59.9301152867598
20
-3.01759891352489
30
0
41
1
10
59.9359631225021
20
-3.02285039300094
30
0
41
1
10
59.9529427835513
20
-3.03936555142994
30
0
41
1
10
59.9635590394454
20
-3.05139407334974
30
0
41
1
10
59.9831667463367
20
-3.07779528089645
30
0
41
1
10
59.9922233674658
20
-3.09228405339263
30
0
41
1
10
59.9998991384097
20
-3.10790067664743
30
0
0
SPLINE
5
140
100
AcDbEntity
8
1
62
256
6
ByLayer
370
18
48
1
60
0
100
AcDbSpline
70
4
71
3
72
10
73
6
40
0
40
0
40
0
40
0
40
0.5
40
0.5
40
1
40
1
40
1
40
1
41
1
10
59.3643181761549
20
-3.38310432388516
30
0
41
1
10
59.4227020748365
20
-3.32463537805967
30
0
41
1
10
59.4816028900192
20
-3.26241334794193
30
0
41
1
10
59.6003148423869
20
-3.13085736234916
30
0
41
1
10
59.6600223772586
20
-3.06168960908127
30
0
41
1
10
59.7203827821851
20
-2.98808349851908
30
0
0
SPLINE
5
141
100
AcDbEntity
8
1
62
256
6
ByLayer
370
18
48
1
60
0
100
AcDbSpline
70
4
71
3
72
8
73
4
40
0
40
0
40
0
40
0
40
1
40
1
40
1
40
1
41
1
10
59.364318176159
20
-3.38310432389227
30
0
41
1
10
59.329100463976
20
-3.36198319703138
30
0
41
1
10
59.2938976800826
20
-3.3403860116118
30
0
41
1
10
59.258701453614
20
-3.31831752709263
30
0
0
SPLINE
5
142
100
AcDbEntity
8
1
62
256
6
ByLayer
370
18
48
1
60
0
100
AcDbSpline
70
4
71
3
72
10
73
6
40
0
40
0
40
0
40
0
40
0.5
40
0.5
40
1
40
1
40
1
40
1
41
1
10
58.8898611168907
20
-2.53193573373929
30
0
41
1
10
58.9521390198106
20
-2.66286508697163
30
0
41
1
10
59.0141367681341
20
-2.79396038593913
30
0
41
1
10
59.1371980580113
20
-3.0564474683602
30
0
41
1
10
59.1981957873452
20
-3.1876298225688
30
0
41
1
10
59.258701453614
20
-3.31831752709263
30
0
0
SPLINE
5
143
100
AcDbEntity
8
1
62
256
6
ByLayer
370
18
48
1
60
0
100
AcDbSpline
70
4
71
3
72
28
73
24
40
0
40
0
40
0
40
0
40
0.0624999999999562
40
0.0624999999999562
40
0.124999999999912
40
0.124999999999912
40
0.249999999999887
40
0.249999999999887
40
0.312499999999875
40
0.312499999999875
40
0.374999999999864
40
0.374999999999864
40
0.499999999999916
40
0.499999999999916
40
0.624999999999967
40
0.624999999999967
40
0.687499999999993
40
0.687499999999993
40
0.750000000000019
40
0.750000000000019
40
0.87500000000001
40
0.87500000000001
40
1
40
1
40
1
40
1
41
1
10
58.610379455824
20
-2.34743701531815
30
0
41
1
10
58.6148209083867
20
-2.34398144451467
30
0
41
1
10
58.6197255173472
20
-2.34141777818385
30
0
41
1
10
58.6302827710013
20
-2.33772581008259
30
0
41
1
10
58.6359541680699
20
-2.33660141881265
30
0
41
1
10
58.6538521108752
20
-2.33515822494877
30
0
41
1
10
58.6664202322613
20
-2.33673043971351
30
0
41
1
10
58.6859263992127
20
-2.34179814615084
30
0
41
1
10
58.6925573844879
20
-2.34396407602247
30
0
41
1
10
58.7057245657394
20
-2.34903043507796
30
0
41
1
10
58.7122984379712
20
-2.35193900388145
30
0
41
1
10
58.731986606497
20
-2.36167068580767
30
0
41
1
10
58.7450767301572
20
-2.36949274041837
30
0
41
1
10
58.7710958041448
20
-2.38757058550613
30
0
41
1
10
58.7837277321042
20
-2.39762027013944
30
0
41
1
10
58.8021077793599
20
-2.41413803316385
30
0
41
1
10
58.8081389099331
20
-2.41988700568748
30
0
41
1
10
58.8199989658169
20
-2.43188866178679
30
0
41
1
10
58.8258507644459
20
-2.43816844755509
30
0
41
1
10
58.8428536371391
20
-2.45756493459814
30
0
41
1
10
58.8534823589193
20
-2.47123582531881
30
0
41
1
10
58.873110376005
20
-2.50028170968213
30
0
41
1
10
58.8821776130874
20
-2.51578239304507
30
0
41
1
10
58.8898611168906
20
-2.53193573373815
30
0
0
SPLINE
5
144
100
AcDbEntity
8
1
62
256
6
ByLayer
370
18
48
1
60
0
100
AcDbSpline
70
4
71
3
72
10
73
6
40
0
40
0
40
0
40
0
40
0.5
40
0.5
40
1
40
1
40
1
40
1
41
1
10
58.2556415158332
20
-2.57037851966237
30
0
41
1
10
58.3138367444446
20
-2.54211689465592
30
0
41
1
10
58.3725299814961
20
-2.50945762644847
30
0
41
1
10
58.4907964034716
20
-2.43542690868239
30
0
41
1
10
58.5502650806374
20
-2.39420763299896
30
0
41
1
10
58.6103794558239
20
-2.34743701531735
30
0
0
SPLINE
5
145
100
AcDbEntity
8
1
62
256
6
ByLayer
370
18
48
1
60
0
100
AcDbSpline
70
4
71
3
72
8
73
4
40
0
40
0
40
0
40
0
40
1
40
1
40
1
40
1
41
1
10
58.2556415158332
20
-2.5703785196624
30
0
41
1
10
58.2196065400234
20
-2.53958109818376
30
0
41
1
10
58.1836302697808
20
-2.50844840009165
30
0
41
1
10
58.1477036844078
20
-2.47698942451422
30
0
0
SPLINE
5
146
100
AcDbEntity
8
1
62
256
6
ByLayer
370
18
48
1
60
0
100
AcDbSpline
70
4
71
3
72
28
73
24
40
0
40
0
40
0
40
0
40
0.062499999999998
40
0.062499999999998
40
0.124999999999996
40
0.124999999999996
40
0.249999999999928
40
0.249999999999928
40
0.312499999999893
40
0.312499999999893
40
0.374999999999859
40
0.374999999999859
40
0.499999999999861
40
0.499999999999861
40
0.624999999999864
40
0.624999999999864
40
0.687499999999866
40
0.687499999999866
40
0.749999999999868
40
0.749999999999868
40
0.874999999999934
40
0.874999999999934
40
1
40
1
40
1
40
1
41
1
10
57.5002403721939
20
-1.48284296871313
30
0
41
1
10
57.5046874713117
20
-1.48167629802739
30
0
41
1
10
57.5095989794114
20
-1.48133067758872
30
0
41
1
10
57.5201723486422
20
-1.4819597121118
30
0
41
1
10
57.5258544165463
20
-1.48294402245574
30
0
41
1
10
57.5437789596195
20
-1.48763874848427
30
0
41
1
10
57.5563662883488
20
-1.49288822646344
30
0
41
1
10
57.5759017183675
20
-1.50304252399175
30
0
41
1
10
57.5825400200493
20
-1.50683136766176
30
0
41
1
10
57.5957185893252
20
-1.51494077873664
30
0
41
1
10
57.6022975336043
20
-1.51928030684573
30
0
41
1
10
57.6219989062955
20
-1.53306560215668
30
0
41
1
10
57.6351046374304
20
-1.54328364035027
30
0
41
1
10
57.6611098056029
20
-1.56554812017973
30
0
41
1
10
57.6737324627683
20
-1.57735646419744
30
0
41
1
10
57.6920964164651
20
-1.59604939186028
30
0
41
1
10
57.6981218290005
20
-1.60244541980938
30
0
41
1
10
57.7099700272993
20
-1.61558160584363
30
0
41
1
10
57.7158142624002
20
-1.62234887907042
30
0
41
1
10
57.7327796453995
20
-1.64291787117369
30
0
41
1
10
57.7433865080042
20
-1.65702133749028
30
0
41
1
10
57.7629796244296
20
-1.68612900503965
30
0
41
1
10
57.7720308523064
20
-1.70124939364646
30
0
41
1
10
57.7797013562249
20
-1.71646982950358
30
0
0
SPLINE
5
147
100
AcDbEntity
8
1
62
256
6
ByLayer
370
18
48
1
60
0
100
AcDbSpline
70
4
71
3
72
10
73
6
40
0
40
0
40
0
40
0
40
0.5
40
0.5
40
1
40
1
40
1
40
1
41
1
10
56.6696836422893
20
-0.742096142633216
30
0
41
1
10
56.713850969908
20
-0.816051552702049
30
0
41
1
10
56.757883869196
20
-0.891527408100615
30
0
41
1
10
56.8455899549598
20
-1.04593996511926
30
0
41
1
10
56.8892135954867
20
-1.12484437279349
30
0
41
1
10
56.9326021577973
20
-1.20533072752929
30
0
0
SPLINE
5
148
100
AcDbEntity
8
1
62
256
6
ByLayer
370
18
48
1
60
0
100
AcDbSpline
70
4
71
3
72
28
73
24
40
0
40
0
40
0
40
0
40
0.0625000000000357
40
0.0625000000000357
40
0.125000000000071
40
0.125000000000071
40
0.250000000000145
40
0.250000000000145
40
0.312500000000146
40
0.312500000000146
40
0.375000000000147
40
0.375000000000147
40
0.500000000000078
40
0.500000000000078
40
0.625000000000008
40
0.625000000000008
40
0.687500000000006
40
0.687500000000006
40
0.750000000000005
40
0.750000000000005
40
0.875000000000003
40
0.875000000000003
40
1
40
1
40
1
40
1
41
1
10
56.3901599597625
20
-0.481231532481502
30
0
41
1
10
56.39461300888
20
-0.482480888904291
30
0
41
1
10
56.3995311419465
20
-0.484404329812605
30
0
41
1
10
56.4101182525399
20
-0.489333234717208
30
0
41
1
10
56.4158088949326
20
-0.492353135606351
30
0
41
1
10
56.4337521001323
20
-0.502793537158027
30
0
41
1
10
56.4463507813679
20
-0.511253193377428
30
0
41
1
10
56.4658998327015
20
-0.525566986752267
30
0
41
1
10
56.4725405363957
20
-0.530629206894247
30
0
41
1
10
56.485721931721
20
-0.541029166349489
30
0
41
1
10
56.4923017063966
20
-0.546394868958686
30
0
41
1
10
56.5120039446067
20
-0.562942126256246
30
0
41
1
10
56.52511002937
20
-0.574586671744157
30
0
41
1
10
56.551104237788
20
-0.59893243644467
30
0
41
1
10
56.5637213196757
20
-0.611379058822195
30
0
41
1
10
56.5820778588268
20
-0.630468731190007
30
0
41
1
10
56.5881009604172
20
-0.636902542309031
30
0
41
1
10
56.5999450690508
20
-0.649920458939619
30
0
41
1
10
56.6057872854333
20
-0.656530074450956
30
0
41
1
10
56.6227476774322
20
-0.676327396748349
30
0
41
1
10
56.6333540578669
20
-0.689528765507902
30
0
41
1
10
56.6529517703649
20
-0.715937638340847
30
0
41
1
10
56.6620084551623
20
-0.729244524889054
30
0
41
1
10
56.6696836422893
20
-0.742096142633216
30
0
0
SPLINE
5
149
100
AcDbEntity
8
1
62
256
6
ByLayer
370
18
48
1
60
0
100
AcDbSpline
70
4
71
3
72
8
73
4
40
0
40
0
40
0
40
0
40
1
40
1
40
1
40
1
41
1
10
56.1974491994426
20
-0.407520025011451
30
0
41
1
10
56.2611381685077
20
-0.43786384748438
30
0
41
1
10
56.3253338595716
20
-0.463043791340823
30
0
41
1
10
56.3901599597625
20
-0.481231532481559
30
0
0
SPLINE
5
14A
100
AcDbEntity
8
1
62
256
6
ByLayer
370
18
48
1
60
0
100
AcDbSpline
70
4
71
3
72
8
73
4
40
0
40
0
40
0
40
0
40
1
40
1
40
1
40
1
41
1
10
55.7178961305065
20
0.101894054045005
30
0
41
1
10
55.8782914609945
20
-0.0656718750877587
30
0
41
1
10
56.0379023336198
20
-0.23569119139438
30
0
41
1
10
56.1974491994426
20
-0.407520025011479
30
0
0
SPLINE
5
14B
100
AcDbEntity
8
1
62
256
6
ByLayer
370
18
48
1
60
0
100
AcDbSpline
70
4
71
3
72
8
73
4
40
0
40
0
40
0
40
0
40
1
40
1
40
1
40
1
41
1
10
55.5596385325317
20
0.302488359389031
30
0
41
1
10
55.6126285363806
20
0.238747721751338
30
0
41
1
10
55.6654166015161
20
0.172036833692573
30
0
41
1
10
55.7178961305065
20
0.101894054045005
30
0
0
SPLINE
5
14C
100
AcDbEntity
8
1
62
256
6
ByLayer
370
18
48
1
60
0
100
AcDbSpline
70
4
71
3
72
28
73
24
40
0
40
0
40
0
40
0
40
0.0625000000000353
40
0.0625000000000353
40
0.125000000000071
40
0.125000000000071
40
0.250000000000142
40
0.250000000000142
40
0.312500000000177
40
0.312500000000177
40
0.375000000000213
40
0.375000000000213
40
0.50000000000021
40
0.50000000000021
40
0.625000000000208
40
0.625000000000208
40
0.687500000000173
40
0.687500000000173
40
0.750000000000139
40
0.750000000000139
40
0.875000000000069
40
0.875000000000069
40
1
40
1
40
1
40
1
41
1
10
55.2801454527381
20
0.564995952291895
30
0
41
1
10
55.2845897521732
20
0.56145546335992
30
0
41
1
10
55.2894968969585
20
0.557458562633997
30
0
41
1
10
55.3000584801624
20
0.54873349868123
30
0
41
1
10
55.3057316582788
20
0.543989539139119
30
0
41
1
10
55.3236382951003
20
0.528864409493792
30
0
41
1
10
55.3362139007499
20
0.518052928880053
30
0
41
1
10
55.355729194696
20
0.501028409550599
30
0
41
1
10
55.3623634046607
20
0.495199729796099
30
0
41
1
10
55.3755357550936
20
0.483545767154368
30
0
41
1
10
55.3821114672697
20
0.47768791871485
30
0
41
1
10
55.401802641991
20
0.460023133576755
30
0
41
1
10
55.4148909017024
20
0.44811884351688
30
0
41
1
10
55.4409015781834
20
0.424069104435631
30
0
41
1
10
55.4535267152498
20
0.412198113298501
30
0
41
1
10
55.4718956380119
20
0.394570444477722
30
0
41
1
10
55.4779229170953
20
0.388724809932654
30
0
41
1
10
55.4897755747224
20
0.377090602767396
30
0
41
1
10
55.4956237376682
20
0.371278841245101
30
0
41
1
10
55.5126181206294
20
0.354152227346191
30
0
41
1
10
55.5232442364294
20
0.34312087547633
30
0
41
1
10
55.5428759133195
20
0.321951543945232
30
0
41
1
10
55.5519499685854
20
0.311736782352938
30
0
41
1
10
55.5596385325317
20
0.302488359388974
30
0
0
SPLINE
5
14D
100
AcDbEntity
8
1
62
256
6
ByLayer
370
18
48
1
60
0
100
AcDbSpline
70
4
71
3
72
8
73
4
40
0
40
0
40
0
40
0
40
1
40
1
40
1
40
1
41
1
10
55.1738278568618
20
0.655633294664483
30
0
41
1
10
55.2090960194567
20
0.623696547241622
30
0
41
1
10
55.2445136019154
20
0.593381567461648
30
0
41
1
10
55.2801454527381
20
0.564995952291895
30
0
0
SPLINE
5
14E
100
AcDbEntity
8
1
62
256
6
ByLayer
370
18
48
1
60
0
100
AcDbSpline
70
4
71
3
72
8
73
4
40
0
40
0
40
0
40
0
40
1
40
1
40
1
40
1
41
1
10
54.501801032362
20
1.28580160662455
30
0
41
1
10
54.727333193008
20
1.08672922323339
30
0
41
1
10
54.9505279265209
20
0.875984108774702
30
0
41
1
10
55.1738278568617
20
0.655633294664483
30
0
0
SPLINE
5
14F
100
AcDbEntity
8
1
62
256
6
ByLayer
370
18
48
1
60
0
100
AcDbSpline
70
4
71
3
72
8
73
4
40
0
40
0
40
0
40
0
40
1
40
1
40
1
40
1
41
1
10
54.4495130472024
20
1.31965042221015
30
0
41
1
10
54.4669639497414
20
1.30875853047689
30
0
41
1
10
54.4843945168311
20
1.29748160567894
30
0
41
1
10
54.501801032362
20
1.28580160662455
30
0
0
SPLINE
5
150
100
AcDbEntity
8
1
62
256
6
ByLayer
370
18
48
1
60
0
100
AcDbSpline
70
4
71
3
72
28
73
24
40
0
40
0
40
0
40
0
40
0.0624999999999847
40
0.0624999999999847
40
0.124999999999969
40
0.124999999999969
40
0.249999999999875
40
0.249999999999875
40
0.312499999999828
40
0.312499999999828
40
0.374999999999781
40
0.374999999999781
40
0.49999999999976
40
0.49999999999976
40
0.624999999999739
40
0.624999999999739
40
0.687499999999761
40
0.687499999999761
40
0.749999999999784
40
0.749999999999784
40
0.874999999999892
40
0.874999999999892
40
1
40
1
40
1
40
1
41
1
10
54.1700276017058
20
1.55930640390537
30
0
41
1
10
54.1744722543165
20
1.55381892467639
30
0
41
1
10
54.1793805174495
20
1.54813208303258
30
0
41
1
10
54.1899461278812
20
1.53644045566912
30
0
41
1
10
54.1956225035869
20
1.53041746940727
30
0
41
1
10
54.2135400284455
20
1.51202949823693
30
0
41
1
10
54.226126353789
20
1.49987466017726
30
0
41
1
10
54.2456594542071
20
1.48171950421275
30
0
41
1
10
54.2522990791524
20
1.47566821132693
30
0
41
1
10
54.2654808800987
20
1.46384934613499
30
0
41
1
10
54.2720610449344
20
1.45804608665995
30
0
41
1
10
54.2917642997183
20
1.44091009807059
30
0
41
1
10
54.3048628925478
20
1.42983784224418
30
0
41
1
10
54.33087277522
20
1.40834176400324
30
0
41
1
10
54.3434952310061
20
1.39815610582156
30
0
41
1
10
54.3618571011821
20
1.38363062293001
30
0
41
1
10
54.367881527616
20
1.37891578427374
30
0
41
1
10
54.3797276959148
20
1.36974264817781
30
0
41
1
10
54.3855717207756
20
1.36526762157831
30
0
41
1
10
54.4025462740976
20
1.35242102201363
30
0
41
1
10
54.4131598105933
20
1.34458895372052
30
0
41
1
10
54.4327702912387
20
1.33062162374179
30
0
41
1
10
54.4418336087378
20
1.32444350452448
30
0
41
1
10
54.4495130472024
20
1.31965042221015
30
0
0
SPLINE
5
151
100
AcDbEntity
8
1
62
256
6
ByLayer
370
18
48
1
60
0
100
AcDbSpline
70
4
71
3
72
8
73
4
40
0
40
0
40
0
40
0
40
1
40
1
40
1
40
1
41
1
10
54.1492717596338
20
1.5851383930088
30
0
41
1
10
54.1561834856938
20
1.57646833202142
30
0
41
1
10
54.1631019397259
20
1.56785699932681
30
0
41
1
10
54.1700276017058
20
1.5593064039054
30
0
0
SPLINE
5
152
100
AcDbEntity
8
1
62
256
6
ByLayer
370
18
48
1
60
0
100
AcDbSpline
70
4
71
3
72
12
73
8
40
0
40
0
40
0
40
0
40
0.5
40
0.5
40
0.75
40
0.75
40
1
40
1
40
1
40
1
41
1
10
53.35
20
2.1699669783317
30
0
41
1
10
53.4848645996372
20
2.08346753570123
30
0
41
1
10
53.6184984930245
20
1.99113740636551
30
0
41
1
10
53.8180202091909
20
1.84468178006779
30
0
41
1
10
53.8843620946585
20
1.79452616044597
30
0
41
1
10
54.0169059884753
20
1.69170483017226
30
0
41
1
10
54.0831130801101
20
1.63904504967994
30
0
41
1
10
54.1492717596338
20
1.58513839300883
30
0
0
SPLINE
5
153
100
AcDbEntity
8
1
62
256
6
ByLayer
370
18
48
1
60
0
100
AcDbSpline
70
4
71
3
72
12
73
8
40
0
40
0
40
0
40
0
40
0.249999999999989
40
0.249999999999989
40
0.499999999999977
40
0.499999999999977
40
1
40
1
40
1
40
1
41
1
10
53.35
20
2.1699669783317
30
0
41
1
10
53.3126107981598
20
2.18801564881181
30
0
41
1
10
53.2743607976175
20
2.20671599262533
30
0
41
1
10
53.1962671148254
20
2.24553360909567
30
0
41
1
10
53.1564243978382
20
2.26565479976406
30
0
41
1
10
53.0348292727731
20
2.32860331339796
30
0
41
1
10
52.951033723063
20
2.37401642824375
30
0
41
1
10
52.8654925607977
20
2.42446970636652
30
0
0
SPLINE
5
154
100
AcDbEntity
8
1
62
256
6
ByLayer
370
18
48
1
60
0
100
AcDbSpline
70
4
71
3
72
40
73
36
40
0
40
0
40
0
40
0
40
0.0677346129596436
40
0.0677346129596436
40
0.135469225919287
40
0.135469225919287
40
0.203203838878931
40
0.203203838878931
40
0.270938451838575
40
0.270938451838575
40
0.338673064798218
40
0.338673064798218
40
0.355606718038129
40
0.355606718038129
40
0.37254037127804
40
0.406407677757862
40
0.474142290717501
40
0.474142290717501
40
0.541876903677141
40
0.541876903677141
40
0.60961151663678
40
0.60961151663678
40
0.677346129596419
40
0.677346129596419
40
0.711213436076239
40
0.711213436076239
40
0.745080742556059
40
0.745080742556059
40
0.812815355515694
40
0.812815355515694
40
0.880549968475329
40
0.880549968475329
40
0.948284581434964
40
0.948284581434964
40
1
40
1
40
1
40
1
41
1
10
52.8654925607973
20
2.42446970636703
30
0
41
1
10
52.7444961348748
20
2.49583495518138
30
0
41
1
10
52.6241627971578
20
2.56272748379618
30
0
41
1
10
52.384512664432
20
2.68758137984327
30
0
41
1
10
52.2651733638379
20
2.74552213285938
30
0
41
1
10
52.026869794953
20
2.85215661191023
30
0
41
1
10
51.9079077392993
20
2.90084964834332
30
0
41
1
10
51.6696590801259
20
2.98863070137512
30
0
41
1
10
51.5503433557791
20
3.02770704087865
30
0
41
1
10
51.310732892844
20
3.09592334818768
30
0
41
1
10
51.1905000230822
20
3.12509271489924
30
0
41
1
10
51.0395220407975
20
3.15516744229956
30
0
41
1
10
51.0092782949849
20
3.16086344058502
30
0
41
1
10
50.9489339995982
20
3.17156909612999
30
0
41
1
10
50.8585506768586
20
3.18661488547392
30
0
41
1
10
50.6485214683763
20
3.21466517035685
30
0
41
1
10
50.4696104749492
20
3.22666793495907
30
0
41
1
10
50.2312495915705
20
3.23206740134785
30
0
41
1
10
50.1121154655345
20
3.22947085402839
30
0
41
1
10
49.8735367204642
20
3.21378162700773
30
0
41
1
10
49.7541093525513
20
3.2006899009472
30
0
41
1
10
49.5146958409666
20
3.16392923324253
30
0
41
1
10
49.3947350528378
20
3.14024922851192
30
0
41
1
10
49.2139246548567
20
3.09667012016098
30
0
41
1
10
49.1534517397768
20
3.08078007984932
30
0
41
1
10
49.0330186359081
20
3.04656738828575
30
0
41
1
10
48.972952908835
20
3.02822256520724
30
0
41
1
10
48.7931008300689
20
2.96956182904413
30
0
41
1
10
48.6736637876624
20
2.92561853242222
30
0
41
1
10
48.4350789254142
20
2.8285252985913
30
0
41
1
10
48.315895351601
20
2.77539636809658
30
0
41
1
10
48.0772906286174
20
2.66030388987252
30
0
41
1
10
47.9579393005193
20
2.59830118765501
30
0
41
1
10
47.7471601232492
20
2.48112690279183
30
0
41
1
10
47.6557725760821
20
2.42782561722072
30
0
41
1
10
47.5640903300343
20
2.37202321390097
30
0
0
SPLINE
5
155
100
AcDbEntity
8
1
62
256
6
ByLayer
370
18
48
1
60
0
100
AcDbSpline
70
4
71
3
72
66
73
62
40
0
40
0
40
0
40
0
40
0.0181371439546895
40
0.0181371439546895
40
0.0454111121781733
40
0.0454111121781733
40
0.0726850804016571
40
0.0726850804016571
40
0.0999590486251409
40
0.0999590486251409
40
0.127233016848625
40
0.127233016848625
40
0.154506985072109
40
0.154506985072109
40
0.181780953295592
40
0.181780953295592
40
0.236328889742557
40
0.236328889742557
40
0.290876826189522
40
0.290876826189522
40
0.345424762636487
40
0.345424762636487
40
0.372698730859968
40
0.372698730859968
40
0.386335714971708
40
0.386335714971708
40
0.399972699083449
40
0.427246667306929
40
0.427246667306929
40
0.45452063553041
40
0.45452063553041
40
0.509068571977375
40
0.509068571977375
40
0.56361650842434
40
0.56361650842434
40
0.590890476647821
40
0.590890476647821
40
0.604527460759561
40
0.604527460759561
40
0.618164444871301
40
0.618164444871301
40
0.672712381318263
40
0.672712381318263
40
0.727260317765225
40
0.727260317765225
40
0.754534285988705
40
0.754534285988705
40
0.781808254212184
40
0.781808254212184
40
0.83635619065914
40
0.83635619065914
40
0.84999317477088
40
0.84999317477088
40
0.86363015888262
40
0.890904127106096
40
0.890904127106096
40
0.94545206355305
40
0.94545206355305
40
0.972726031776525
40
0.972726031776525
40
1
40
1
40
1
40
1
41
1
10
44.8761980394877
20
3.23040386868718
30
0
41
1
10
44.9244069998675
20
3.23039753239624
30
0
41
1
10
44.9725623836146
20
3.22953642032343
30
0
41
1
10
45.0930017515728
20
3.22524870055483
30
0
41
1
10
45.1652059141329
20
3.22074262814286
30
0
41
1
10
45.3093626148682
20
3.20782792645699
30
0
41
1
10
45.3813368629172
20
3.19941721907935
30
0
41
1
10
45.5254919849387
20
3.17871834908973
30
0
41
1
10
45.5976969291487
20
3.16643519619186
30
0
41
1
10
45.7427149896601
20
3.1380919543472
30
0
41
1
10
45.8154964276962
20
3.12202804741491
30
0
41
1
10
45.9616025940683
20
3.08611043394237
30
0
41
1
10
46.0349571046314
20
3.06624877504296
30
0
41
1
10
46.1820232524089
20
3.02269422770473
30
0
41
1
10
46.2552978587185
20
2.99913261279804
30
0
41
1
10
46.4741512084734
20
2.92306173537185
30
0
41
1
10
46.6187084065029
20
2.86511866890441
30
0
41
1
10
46.9070621810836
20
2.73578874422395
30
0
41
1
10
47.0508369735355
20
2.66438315368097
30
0
41
1
10
47.339863486594
20
2.50967989777229
30
0
41
1
10
47.4851583188986
20
2.42646491537423
30
0
41
1
10
47.7038511334144
20
2.29248706751892
30
0
41
1
10
47.776883744896
20
2.24630253817313
30
0
41
1
10
47.8866558049583
20
2.1747022660532
30
0
41
1
10
47.9233097361513
20
2.1504296485939
30
0
41
1
10
47.9965683486446
20
2.10117387226126
30
0
41
1
10
48.1061759955325
20
2.02635088083787
30
0
41
1
10
48.2150686824565
20
1.94882562293151
30
0
41
1
10
48.3599651753399
20
1.84338688374987
30
0
41
1
10
48.4322905397124
20
1.78965450589192
30
0
41
1
10
48.6492481095143
20
1.62579356937755
30
0
41
1
10
48.7938042524599
20
1.51295438569488
30
0
41
1
10
49.0833230434087
20
1.28076591533875
30
0
41
1
10
49.2282724483984
20
1.16140546909457
30
0
41
1
10
49.4462383118733
20
0.977660385052815
30
0
41
1
10
49.5189814784802
20
0.915623916840701
30
0
41
1
10
49.6282251080154
20
0.821354516597864
30
0
41
1
10
49.6646612538842
20
0.789728825877887
30
0
41
1
10
49.7376041763448
20
0.726096766278232
30
0
41
1
10
49.7741467425465
20
0.694058856984441
30
0
41
1
10
49.9566783197945
20
0.533377211906299
30
0
41
1
10
50.1014783680869
20
0.403777104188123
30
0
41
1
10
50.3911357852201
20
0.145297256617539
30
0
41
1
10
50.5361773236668
20
0.0166238787611519
30
0
41
1
10
50.7537103202488
20
-0.175945178882387
30
0
41
1
10
50.8262041808634
20
-0.240074954930861
30
0
41
1
10
50.9709928003335
20
-0.368399048317883
30
0
41
1
10
51.0432955352965
20
-0.432584174575652
30
0
41
1
10
51.2603360390237
20
-0.624746402231608
30
0
41
1
10
51.4051978298689
20
-0.752339204918201
30
0
41
1
10
51.5877350734915
20
-0.909772816825893
30
0
41
1
10
51.6243559628604
20
-0.941180213385195
30
0
41
1
10
51.6975646564253
20
-1.00357530209811
30
0
41
1
10
51.8073252009977
20
-1.09654492682427
30
0
41
1
10
51.9169769731536
20
-1.18761563963497
30
0
41
1
10
52.1361920575857
20
-1.36720354305879
30
0
41
1
10
52.2822216172297
20
-1.48353202712036
30
0
41
1
10
52.5009492056696
20
-1.65305204310275
30
0
41
1
10
52.573815712025
20
-1.70871664646089
30
0
41
1
10
52.719564354817
20
-1.81823497549792
30
0
41
1
10
52.7924541243719
20
-1.87208061542955
30
0
41
1
10
52.865492560797
20
-1.92487255097723
30
0
0
SPLINE
5
156
100
AcDbEntity
8
1
62
256
6
ByLayer
370
18
48
1
60
0
100
AcDbSpline
70
4
71
3
72
11
73
7
40
0
40
0
40
0
40
0
40
0.500000000000024
40
0.500000000000024
40
0.750000000000012
40
1
40
1
40
1
40
1
41
1
10
52.8654925607973
20
-1.92487255097757
30
0
41
1
10
52.9470601407542
20
-1.98382932270803
30
0
41
1
10
53.0285350920604
20
-2.04570372313378
30
0
41
1
10
53.1498871746457
20
-2.14400870734397
30
0
41
1
10
53.230527043388
20
-2.2113704314105
30
0
41
1
10
53.3103943724434
20
-2.28299335430455
30
0
41
1
10
53.3499999999994
20
-2.32012185188725
30
0
0
SPLINE
5
157
100
AcDbEntity
8
1
62
256
6
ByLayer
370
18
48
1
60
0
100
AcDbSpline
70
4
71
3
72
8
73
4
40
0
40
0
40
0
40
0
40
1
40
1
40
1
40
1
41
1
10
53.4074380253284
20
-2.36253424847121
30
0
41
1
10
53.3883062556669
20
-2.34847899139379
30
0
41
1
10
53.3691601677019
20
-2.3343416306877
30
0
41
1
10
53.3499999999999
20
-2.32012185188867
30
0
0
SPLINE
5
158
100
AcDbEntity
8
1
62
256
6
ByLayer
370
18
48
1
60
0
100
AcDbSpline
70
4
71
3
72
18
73
14
40
0
40
0
40
0
40
0
40
0.125000000000001
40
0.125000000000001
40
0.250000000000001
40
0.250000000000001
40
0.499999999999845
40
0.499999999999845
40
0.624999999999846
40
0.624999999999846
40
0.749999999999848
40
0.749999999999848
40
1
40
1
40
1
40
1
41
1
10
53.5512294920474
20
-2.46682646024888
30
0
41
1
10
53.5455547156035
20
-2.46094210461001
30
0
41
1
10
53.539746401111
20
-2.4552395344447
30
0
41
1
10
53.5278940808814
20
-2.44415649263661
30
0
41
1
10
53.5218150073016
20
-2.43874750627
30
0
41
1
10
53.5035609937384
20
-2.42322864315347
30
0
41
1
10
53.4913707794054
20
-2.41380131881132
30
0
41
1
10
53.4730830578394
20
-2.4007846297697
30
0
41
1
10
53.466986712669
20
-2.39663597674758
30
0
41
1
10
53.4547980031393
20
-2.38870362703679
30
0
41
1
10
53.4486840291748
20
-2.38490800970746
30
0
41
1
10
53.4306124924723
20
-2.37421244950929
30
0
41
1
10
53.4188671891635
20
-2.36795461470501
30
0
41
1
10
53.4074380253284
20
-2.36253424847092
30
0
0
SPLINE
5
159
100
AcDbEntity
8
1
62
256
6
ByLayer
370
18
48
1
60
0
100
AcDbSpline
70
4
71
3
72
10
73
6
40
0
40
0
40
0
40
0
40
0.5
40
0.5
40
1
40
1
40
1
40
1
41
1
10
54.3855512047833
20
-3.01715951435168
30
0
41
1
10
54.2476203165495
20
-2.9350853896697
30
0
41
1
10
54.1097264791383
20
-2.8477122416129
30
0
41
1
10
53.8318711930112
20
-2.66397371933823
30
0
41
1
10
53.6919828933969
20
-2.56760154314154
30
0
41
1
10
53.5512294920475
20
-2.46682646024888
30
0
0
SPLINE
5
15A
100
AcDbEntity
8
1
62
256
6
ByLayer
370
18
48
1
60
0
100
AcDbSpline
70
4
71
3
72
8
73
4
40
0
40
0
40
0
40
0
40
1
40
1
40
1
40
1
41
1
10
54.4284058042589
20
-2.98370355282447
30
0
41
1
10
54.4140933189655
20
-2.99513002619241
30
0
41
1
10
54.399809086271
20
-3.00628187048108
30
0
41
1
10
54.3855512047833
20
-3.01715951435168
30
0
0
SPLINE
5
15B
100
AcDbEntity
8
1
62
256
6
ByLayer
370
18
48
1
60
0
100
AcDbSpline
70
4
71
3
72
28
73
24
40
0
40
0
40
0
40
0
40
0.124999999999896
40
0.124999999999896
40
0.249999999999793
40
0.249999999999793
40
0.312499999999776
40
0.312499999999776
40
0.374999999999758
40
0.374999999999758
40
0.499999999999795
40
0.499999999999795
40
0.562499999999814
40
0.562499999999814
40
0.624999999999832
40
0.624999999999832
40
0.74999999999987
40
0.74999999999987
40
0.812499999999889
40
0.812499999999889
40
0.874999999999907
40
0.874999999999907
40
1
40
1
40
1
40
1
41
1
10
54.7078951784132
20
-3.10464278794979
30
0
41
1
10
54.6991154240169
20
-3.08894794676021
30
0
41
1
10
54.6886269500193
20
-3.07480510453578
30
0
41
1
10
54.6652674616479
20
-3.04868494882581
30
0
41
1
10
54.6528948101808
20
-3.03730041635376
30
0
41
1
10
54.6337474731661
20
-3.02214389341299
30
0
41
1
10
54.6272208807796
20
-3.01738965290195
30
0
41
1
10
54.614143940208
20
-3.0085876768008
30
0
41
1
10
54.607610862138
20
-3.00454687809869
30
0
41
1
10
54.5880332753228
20
-2.99338179846291
30
0
41
1
10
54.5750098635538
20
-2.98720289911506
30
0
41
1
10
54.5555474615345
20
-2.97965000905433
30
0
41
1
10
54.5490514109025
20
-2.97741717136756
30
0
41
1
10
54.5362899451636
20
-2.97359052675782
30
0
41
1
10
54.5300042880571
20
-2.97198708166278
30
0
41
1
10
54.511437726464
20
-2.96808773743339
30
0
41
1
10
54.4994428583772
20
-2.9666881591545
30
0
41
1
10
54.4821159513548
20
-2.96655472478901
30
0
41
1
10
54.4764480936794
20
-2.96684633465944
30
0
41
1
10
54.4655901666665
20
-2.96813014400672
30
0
41
1
10
54.4603704340168
20
-2.96912039988115
30
0
41
1
10
54.4453906828105
20
-2.9732221110192
30
0
41
1
10
54.4362833388999
20
-2.97741446760014
30
0
41
1
10
54.4284058042589
20
-2.98370355282432
30
0
0
SPLINE
5
15C
100
AcDbEntity
8
1
62
256
6
ByLayer
370
18
48
1
60
0
100
AcDbSpline
70
4
71
3
72
8
73
4
40
0
40
0
40
0
40
0
40
1
40
1
40
1
40
1
41
1
10
54.7818971405554
20
-3.23765156159581
30
0
41
1
10
54.7573090688907
20
-3.19322604186729
30
0
41
1
10
54.7326457029185
20
-3.14888725470067
30
0
41
1
10
54.7078951784132
20
-3.1046427879499
30
0
0
SPLINE
5
15D
100
AcDbEntity
8
1
62
256
6
ByLayer
370
18
48
1
60
0
100
AcDbSpline
70
4
71
3
72
10
73
6
40
0
40
0
40
0
40
0
40
0.5
40
0.5
40
1
40
1
40
1
40
1
41
1
10
55.4073999352654
20
-3.51831149184971
30
0
41
1
10
55.3032536542689
20
-3.47888806766389
30
0
41
1
10
55.1991030035493
20
-3.43568867383425
30
0
41
1
10
54.9906718602691
20
-3.34204636098443
30
0
41
1
10
54.886385957215
20
-3.29160223460727
30
0
41
1
10
54.7818971405555
20
-3.23765156159584
30
0
0
SPLINE
5
15E
100
AcDbEntity
8
1
62
256
6
ByLayer
370
18
48
1
60
0
100
AcDbSpline
70
4
71
3
72
8
73
4
40
0
40
0
40
0
40
0
40
1
40
1
40
1
40
1
41
1
10
55.5383842078142
20
-3.34839451338453
30
0
41
1
10
55.4944818460848
20
-3.4070819889497
30
0
41
1
10
55.450838123928
20
-3.46372324008303
30
0
41
1
10
55.4073999352654
20
-3.51831149184971
30
0
0
SPLINE
5
15F
100
AcDbEntity
8
1
62
256
6
ByLayer
370
18
48
1
60
0
100
AcDbSpline
70
4
71
3
72
28
73
24
40
0
40
0
40
0
40
0
40
0.124999999999979
40
0.124999999999979
40
0.249999999999958
40
0.249999999999958
40
0.312499999999948
40
0.312499999999948
40
0.374999999999938
40
0.374999999999938
40
0.499999999999992
40
0.499999999999992
40
0.562499999999983
40
0.562499999999983
40
0.624999999999975
40
0.624999999999975
40
0.750000000000025
40
0.750000000000025
40
0.812500000000019
40
0.812500000000019
40
0.875000000000013
40
0.875000000000013
40
1
40
1
40
1
40
1
41
1
10
55.8178996338266
20
-3.39182827858332
30
0
41
1
10
55.8091157458087
20
-3.37651730270764
30
0
41
1
10
55.7986275780401
20
-3.36358168419548
30
0
41
1
10
55.7752798721834
20
-3.34101933815359
30
0
41
1
10
55.7629170573596
20
-3.33191545714706
30
0
41
1
10
55.7437861358161
20
-3.32069641022056
30
0
41
1
10
55.7372657409093
20
-3.31735279600269
30
0
41
1
10
55.7241975252012
20
-3.31149896421422
30
0
41
1
10
55.7176684262497
20
-3.30899175760621
30
0
41
1
10
55.698101178185
20
-3.30258907929132
30
0
41
1
10
55.6850824826978
20
-3.29979848336987
30
0
41
1
10
55.6656230957095
20
-3.29763372625956
30
0
41
1
10
55.6591261701464
20
-3.29725481655643
30
0
41
1
10
55.6463592293152
20
-3.29718401048282
30
0
41
1
10
55.6400704053597
20
-3.29748773784365
30
0
41
1
10
55.6214934150056
20
-3.29939939795384
30
0
41
1
10
55.6094903174162
20
-3.30199190337029
30
0
41
1
10
55.5921512911221
20
-3.30805078624357
30
0
41
1
10
55.5864755273758
20
-3.31044498696019
30
0
41
1
10
55.5756024840387
20
-3.31592356041796
30
0
41
1
10
55.5703759787449
20
-3.3190158143351
30
0
41
1
10
55.5553788986869
20
-3.32943711179325
30
0
41
1
10
55.5462643016832
20
-3.33786061957653
30
0
41
1
10
55.5383842078143
20
-3.34839451338468
30
0
0
SPLINE
5
160
100
AcDbEntity
8
1
62
256
6
ByLayer
370
18
48
1
60
0
100
AcDbSpline
70
4
71
3
72
8
73
4
40
0
40
0
40
0
40
0
40
1
40
1
40
1
40
1
41
1
10
55.9943318705521
20
-3.69876694398485
30
0
41
1
10
55.9359915591462
20
-3.59757287945473
30
0
41
1
10
55.8772383676643
20
-3.49526014388491
30
0
41
1
10
55.8178996338266
20
-3.39182827858332
30
0
0
SPLINE
5
161
100
AcDbEntity
8
1
62
256
6
ByLayer
370
18
48
1
60
0
100
AcDbSpline
70
4
71
3
72
10
73
6
40
0
40
0
40
0
40
0
40
0.5
40
0.5
40
1
40
1
40
1
40
1
41
1
10
56.4289509397222
20
-3.77431187266347
30
0
41
1
10
56.3564129148242
20
-3.76602975528741
30
0
41
1
10
56.2839654563288
20
-3.75557423187956
30
0
41
1
10
56.1391559007205
20
-3.73037767915537
30
0
41
1
10
56.0667999282741
20
-3.71563497353082
30
0
41
1
10
55.9943318705521
20
-3.69876694398485
30
0
0
SPLINE
5
162
100
AcDbEntity
8
1
62
256
6
ByLayer
370
18
48
1
60
0
100
AcDbSpline
70
4
71
3
72
8
73
4
40
0
40
0
40
0
40
0
40
1
40
1
40
1
40
1
41
1
10
56.6484611283513
20
-3.40102246116845
30
0
41
1
10
56.5745789265033
20
-3.52954198334311
30
0
41
1
10
56.501402492696
20
-3.65413359377564
30
0
41
1
10
56.4289509397222
20
-3.77431187266353
30
0
0
SPLINE
5
163
100
AcDbEntity
8
1
62
256
6
ByLayer
370
18
48
1
60
0
100
AcDbSpline
70
4
71
3
72
30
73
26
40
0
40
0
40
0
40
0
40
0.12499999999991
40
0.12499999999991
40
0.187499999999897
40
0.187499999999897
40
0.249999999999884
40
0.249999999999884
40
0.312499999999871
40
0.312499999999871
40
0.374999999999859
40
0.374999999999859
40
0.499999999999833
40
0.499999999999833
40
0.56249999999982
40
0.56249999999982
40
0.624999999999808
40
0.624999999999808
40
0.749999999999852
40
0.749999999999852
40
0.812499999999875
40
0.812499999999875
40
0.874999999999897
40
0.874999999999897
40
1
40
1
40
1
40
1
41
1
10
56.9278797870332
20
-3.36469799344752
30
0
41
1
10
56.9191267435417
20
-3.35122081041632
30
0
41
1
10
56.9086719769017
20
-3.3406718403098
30
0
41
1
10
56.891205061035
20
-3.3279254988156
30
0
41
1
10
56.8851831198772
20
-3.32428920684299
30
0
41
1
10
56.8729210539674
20
-3.31808959432095
30
0
41
1
10
56.8666612185494
20
-3.31551439217083
30
0
41
1
10
56.8539189580818
20
-3.31128280862109
30
0
41
1
10
56.847403690411
20
-3.30962208656567
30
0
41
1
10
56.834336540818
20
-3.30718304668366
30
0
41
1
10
56.8278071316794
20
-3.3064034463502
30
0
41
1
10
56.8082370222164
20
-3.30524022527621
30
0
41
1
10
56.7952138972708
20
-3.30601730158946
30
0
41
1
10
56.7757452735733
20
-3.30931859160833
30
0
41
1
10
56.7692445846081
20
-3.31078756283202
30
0
41
1
10
56.7564703618417
20
-3.31439666426491
30
0
41
1
10
56.7501780142056
20
-3.31653751431284
30
0
41
1
10
56.7315906761997
20
-3.32395503494118
30
0
41
1
10
56.7195810101423
20
-3.3302108158868
30
0
41
1
10
56.702231525041
20
-3.34176411620862
30
0
41
1
10
56.6965541286578
20
-3.34599148310332
30
0
41
1
10
56.6856797682932
20
-3.3550593042952
30
0
41
1
10
56.6804529757846
20
-3.35991722890142
30
0
41
1
10
56.6654555114744
20
-3.37554217180968
30
0
41
1
10
56.6563410394726
20
-3.38731520303657
30
0
41
1
10
56.6484611283513
20
-3.40102246116845
30
0
0
SPLINE
5
164
100
AcDbEntity
8
1
62
256
6
ByLayer
370
18
48
1
60
0
100
AcDbSpline
70
4
71
3
72
10
73
6
40
0
40
0
40
0
40
0
40
0.5
40
0.5
40
1
40
1
40
1
40
1
41
1
10
57.2047258018785
20
-3.77785799591439
30
0
41
1
10
57.1591878892805
20
-3.71226107167624
30
0
41
1
10
57.1133212045372
20
-3.64491624984248
30
0
41
1
10
57.0210520293134
20
-3.50713923048122
30
0
41
1
10
56.9746420504101
20
-3.43669850196747
30
0
41
1
10
56.9278797870332
20
-3.36469799344752
30
0
0
SPLINE
5
165
100
AcDbEntity
8
1
62
256
6
ByLayer
370
18
48
1
60
0
100
AcDbSpline
70
4
71
3
72
8
73
4
40
0
40
0
40
0
40
0
40
1
40
1
40
1
40
1
41
1
10
57.451373302012
20
-3.7418883187309
30
0
41
1
10
57.3692993706629
20
-3.7569473135141
30
0
41
1
10
57.2871486656262
20
-3.76893172746099
30
0
41
1
10
57.2047258018785
20
-3.77785799591439
30
0
0
SPLINE
5
166
100
AcDbEntity
8
1
62
256
6
ByLayer
370
18
48
1
60
0
100
AcDbSpline
70
4
71
3
72
10
73
6
40
0
40
0
40
0
40
0
40
0.5
40
0.5
40
1
40
1
40
1
40
1
41
1
10
57.7584760279306
20
-3.13430370819069
30
0
41
1
10
57.706568744729
20
-3.23754832252939
30
0
41
1
10
57.6550727460896
20
-3.33987533638094
30
0
41
1
10
57.5526738759442
20
-3.54263249013499
30
0
41
1
10
57.5018699464553
20
-3.64286548847301
30
0
41
1
10
57.451373302012
20
-3.74188831873087
30
0
0
SPLINE
5
167
100
AcDbEntity
8
1
62
256
6
ByLayer
370
18
48
1
60
0
100
AcDbSpline
70
4
71
3
72
28
73
24
40
0
40
0
40
0
40
0
40
0.125000000000027
40
0.125000000000027
40
0.250000000000054
40
0.250000000000054
40
0.312500000000103
40
0.312500000000103
40
0.375000000000151
40
0.375000000000151
40
0.500000000000177
40
0.500000000000177
40
0.562500000000154
40
0.562500000000154
40
0.625000000000131
40
0.625000000000131
40
0.750000000000087
40
0.750000000000087
40
0.812500000000065
40
0.812500000000065
40
0.875000000000043
40
0.875000000000043
40
1
40
1
40
1
40
1
41
1
10
58.0379707546697
20
-3.01918860861687
30
0
41
1
10
58.029189370479
20
-3.00879341334428
30
0
41
1
10
58.0186993676653
20
-3.00166417119479
30
0
41
1
10
57.9953373037467
20
-2.99197857843279
30
0
41
1
10
57.9829625334095
20
-2.98967123832892
30
0
41
1
10
57.9638122704502
20
-2.98897100600985
30
0
41
1
10
57.9572846507569
20
-2.98921269958427
30
0
41
1
10
57.944205410396
20
-2.99054931892337
30
0
41
1
10
57.937671232632
20
-2.9916369809641
30
0
41
1
10
57.9180905616859
20
-2.996022414875
30
0
41
1
10
57.9050653830746
20
-3.00042836498497
30
0
41
1
10
57.8856010480664
20
-3.00908476879471
30
0
41
1
10
57.8791046236105
20
-3.01232916504574
30
0
41
1
10
57.8663431229307
20
-3.01940511810494
30
0
41
1
10
57.8600576122344
20
-3.02324356399228
30
0
41
1
10
57.8414919337967
20
-3.0356505538453
30
0
41
1
10
57.8294983289104
20
-3.04509660176544
30
0
41
1
10
57.8121734165302
20
-3.06121941710418
30
0
41
1
10
57.8065070243049
20
-3.06693235643215
30
0
41
1
10
57.7956520056389
20
-3.07883302602175
30
0
41
1
10
57.7904336419269
20
-3.08504627419754
30
0
41
1
10
57.7754576050581
20
-3.10453983351073
30
0
41
1
10
57.7663522219081
20
-3.11863780237741
30
0
41
1
10
57.7584760279306
20
-3.13430370819077
30
0
0
SPLINE
5
168
100
AcDbEntity
8
1
62
256
6
ByLayer
370
18
48
1
60
0
100
AcDbSpline
70
4
71
3
72
10
73
6
40
0
40
0
40
0
40
0
40
0.5
40
0.5
40
1
40
1
40
1
40
1
41
1
10
58.3952312979245
20
-3.40468298800005
30
0
41
1
10
58.3366992150932
20
-3.34796662872256
30
0
41
1
10
58.2776278577765
20
-3.28739547286259
30
0
41
1
10
58.1584984554609
20
-3.15879789629776
30
0
41
1
10
58.0985196203911
20
-3.0908649262721
30
0
41
1
10
58.0379707546697
20
-3.01918860861687
30
0
0
SPLINE
5
169
100
AcDbEntity
8
1
62
256
6
ByLayer
370
18
48
1
60
0
100
AcDbSpline
70
4
71
3
72
8
73
4
40
0
40
0
40
0
40
0
40
1
40
1
40
1
40
1
41
1
10
58.3952312979245
20
-3.40468298799999
30
0
41
1
10
58.4309755588096
20
-3.38374298193369
30
0
41
1
10
58.4666550023431
20
-3.36233982508938
30
0
41
1
10
58.5022659628954
20
-3.3404746524256
30
0
0
SPLINE
5
16A
100
AcDbEntity
8
1
62
256
6
ByLayer
370
18
48
1
60
0
100
AcDbSpline
70
4
71
3
72
10
73
6
40
0
40
0
40
0
40
0
40
0.5
40
0.5
40
1
40
1
40
1
40
1
41
1
10
58.8684121957049
20
-2.57679312622531
30
0
41
1
10
58.806519126725
20
-2.70365362203523
30
0
41
1
10
58.7451224652925
20
-2.83087167945055
30
0
41
1
10
58.6230173402317
20
-3.0857865464246
30
0
41
1
10
58.5624114033697
20
-3.21329647414405
30
0
41
1
10
58.5022659628954
20
-3.3404746524256
30
0
0
SPLINE
5
16B
100
AcDbEntity
8
1
62
256
6
ByLayer
370
18
48
1
60
0
100
AcDbSpline
70
4
71
3
72
8
73
4
40
0
40
0
40
0
40
0
40
1
40
1
40
1
40
1
41
1
10
58.8950364263166
20
-2.53168878714635
30
0
41
1
10
58.8851871832523
20
-2.54589604600878
30
0
41
1
10
58.8761990404824
20
-2.56083264784638
30
0
41
1
10
58.8684121957048
20
-2.57679312622545
30
0
0
SPLINE
5
16C
100
AcDbEntity
8
1
62
256
6
ByLayer
370
18
48
1
60
0
100
AcDbSpline
70
4
71
3
72
23
73
19
40
0
40
0
40
0
40
0
40
0.0625000000000001
40
0.0625000000000001
40
0.125
40
0.125
40
0.25
40
0.375
40
0.5
40
0.5
40
0.5625
40
0.5625
40
0.625
40
0.625
40
0.75
40
0.875
40
0.875
40
1
40
1
40
1
40
1
41
1
10
56.9326021577973
20
-1.20533072752932
30
0
41
1
10
56.9298972410753
20
-1.15091853488661
30
0
41
1
10
56.9272032992262
20
-1.09601504645059
30
0
41
1
10
56.9218312819926
20
-0.985211419820729
30
0
41
1
10
56.9191483257407
20
-0.92925634879623
30
0
41
1
10
56.9110945574661
20
-0.760214339218663
30
0
41
1
10
56.9004575649103
20
-0.534227914083829
30
0
41
1
10
56.8843619328235
20
-0.193531702135488
30
0
41
1
10
56.8733817744543
20
0.0347273510691082
30
0
41
1
10
56.8650351510332
20
0.206350552443354
30
0
41
1
10
56.8622347515563
20
0.263629894324282
30
0
41
1
10
56.8565989175221
20
0.378334295594982
30
0
41
1
10
56.8537578844692
20
0.435871525412608
30
0
41
1
10
56.8452700902415
20
0.607060268882378
30
0
41
1
10
56.8340031614689
20
0.832396850858771
30
0
41
1
10
56.8229543567055
20
1.05207093984927
30
0
41
1
10
56.8120921452064
20
1.26892879138455
30
0
41
1
10
56.8067662609489
20
1.37595075331296
30
0
41
1
10
56.8014371429551
20
1.48152679941737
30
0
0
SPLINE
5
16D
100
AcDbEntity
8
1
62
256
6
ByLayer
370
18
48
1
60
0
100
AcDbSpline
70
4
71
3
72
8
73
4
40
0
40
0
40
0
40
0
40
1
40
1
40
1
40
1
41
1
10
56.9326021577973
20
-1.20533072752932
30
0
41
1
10
57.0292045560729
20
-1.31008356666004
30
0
41
1
10
57.1255269280252
20
-1.41417219434968
30
0
41
1
10
57.2217276272621
20
-1.51744926239459
30
0
0
SPLINE
5
16E
100
AcDbEntity
8
1
62
256
6
ByLayer
370
13
48
1
60
0
100
AcDbSpline
70
4
71
3
72
10
73
6
40
0
40
0
40
0
40
0
40
0.413182559012808
40
0.875975677451189
40
1
40
1
40
1
40
1
41
1
10
57.3884132135072
20
0.730614237460372
30
0
41
1
10
57.4044859791581
20
0.411692404428635
30
0
41
1
10
57.4381786652401
20
-0.278005657678506
30
0
41
1
10
57.4749858179449
20
-1.01314266924308
30
0
41
1
10
57.4958625426411
20
-1.40261658402602
30
0
41
1
10
57.5002403721939
20
-1.48284296871313
30
0
0
SPLINE
5
16F
100
AcDbEntity
8
1
62
256
6
ByLayer
370
18
48
1
60
0
100
AcDbSpline
70
4
71
3
72
27
73
23
40
0
40
0
40
0
40
0
40
0.125000000000001
40
0.250000000000003
40
0.250000000000003
40
0.312500000000004
40
0.343750000000004
40
0.343750000000004
40
0.375000000000004
40
0.375000000000004
40
0.500000000000004
40
0.500000000000004
40
0.625000000000004
40
0.625000000000004
40
0.750000000000003
40
0.750000000000003
40
0.812500000000003
40
0.812500000000003
40
0.843750000000002
40
0.843750000000002
40
0.875000000000002
40
1
40
1
40
1
40
1
41
1
10
57.1100508472242
20
1.1966004362225
30
0
41
1
10
57.1145146196709
20
1.08691855525402
30
0
41
1
10
57.1235242109861
20
0.865163154542699
30
0
41
1
10
57.1329031161059
20
0.638692836362736
30
0
41
1
10
57.1400930419763
20
0.467050868909382
30
0
41
1
10
57.1437259885733
20
0.380781848349841
30
0
41
1
10
57.1474096084047
20
0.293829832945107
30
0
41
1
10
57.1498751691426
20
0.235708309473296
30
0
41
1
10
57.1511133244938
20
0.206560625344707
30
0
41
1
10
57.1572929089533
20
0.0611749590817112
30
0
41
1
10
57.1622296027498
20
-0.0545872299221628
30
0
41
1
10
57.171905526155
20
-0.285055760800731
30
0
41
1
10
57.176610695559
20
-0.399762913981988
30
0
41
1
10
57.1858166289265
20
-0.628127046934168
30
0
41
1
10
57.1903305910034
20
-0.741783701461088
30
0
41
1
10
57.1970776319795
20
-0.911462967736924
30
0
41
1
10
57.1993225999292
20
-0.96788824053624
30
0
41
1
10
57.2026965937569
20
-1.05232036286605
30
0
41
1
10
57.2038233626698
20
-1.08045542259194
30
0
41
1
10
57.2060701318166
20
-1.1363859520026
30
0
41
1
10
57.2116758651618
20
-1.27550432780197
30
0
41
1
10
57.2172467753034
20
-1.41112989317125
30
0
41
1
10
57.2217276272622
20
-1.51744926239411
30
0
0
SPLINE
5
170
100
AcDbEntity
8
1
62
256
6
ByLayer
370
18
48
1
60
0
100
AcDbSpline
70
4
71
3
72
10
73
6
40
0
40
0
40
0
40
0
40
0.5
40
0.5
40
1
40
1
40
1
40
1
41
1
10
57.2217276272621
20
-1.51744926239471
30
0
41
1
10
57.2675540772257
20
-1.51764531000205
30
0
41
1
10
57.3136843465831
20
-1.51499491126614
30
0
41
1
10
57.4065022648756
20
-1.50379628504305
30
0
41
1
10
57.4532004368385
20
-1.4951836231902
30
0
41
1
10
57.5002403721939
20
-1.48284296871316
30
0
0
SPLINE
5
171
100
AcDbEntity
8
1
62
256
6
ByLayer
370
18
48
1
60
0
100
AcDbSpline
70
4
71
3
72
10
73
6
40
0
40
0
40
0
40
0
40
0.5
40
0.5
40
1
40
1
40
1
40
1
41
1
10
62.3252805860603
20
1.0822487827499
30
0
41
1
10
62.3835479490362
20
1.01327050784707
30
0
41
1
10
62.4423276011714
20
0.948009101342592
30
0
41
1
10
62.5607948466722
20
0.825527557387034
30
0
41
1
10
62.6203835158175
20
0.768355006361304
30
0
41
1
10
62.6806318974073
20
0.716635940371617
30
0
0
SPLINE
5
172
100
AcDbEntity
8
1
62
256
6
ByLayer
370
18
48
1
60
0
100
AcDbSpline
70
4
71
3
72
8
73
4
40
0
40
0
40
0
40
0
40
1
40
1
40
1
40
1
41
1
10
62.3252805860627
20
1.08224878274743
30
0
41
1
10
62.2895390024878
20
1.12054952172775
30
0
41
1
10
62.2537845146374
20
1.15870485533537
30
0
41
1
10
62.2180078385871
20
1.19670631556988
30
0
0
SPLINE
5
173
100
AcDbEntity
8
1
62
256
6
ByLayer
370
18
48
1
60
0
100
AcDbSpline
70
4
71
3
72
10
73
6
40
0
40
0
40
0
40
0
40
0.5
40
0.5
40
1
40
1
40
1
40
1
41
1
10
61.8500341660672
20
1.46004402595557
30
0
41
1
10
61.9121759829933
20
1.42664218736971
30
0
41
1
10
61.9740202294985
20
1.38841623758341
30
0
41
1
10
62.0967859755342
20
1.30068908487115
30
0
41
1
10
62.1576354906491
20
1.25127424769698
30
0
41
1
10
62.2180078385871
20
1.19670631556991
30
0
0
SPLINE
5
174
100
AcDbEntity
8
1
62
256
6
ByLayer
370
18
48
1
60
0
100
AcDbSpline
70
4
71
3
72
28
73
24
40
0
40
0
40
0
40
0
40
0.0625000000000002
40
0.0625000000000002
40
0.125
40
0.125
40
0.250000000000002
40
0.250000000000002
40
0.312500000000002
40
0.312500000000002
40
0.375000000000002
40
0.375000000000002
40
0.500000000000001
40
0.500000000000001
40
0.625
40
0.625
40
0.6875
40
0.6875
40
0.75
40
0.75
40
0.875
40
0.875
40
1
40
1
40
1
40
1
41
1
10
61.5705842443486
20
1.69432963948026
30
0
41
1
10
61.575029836314
20
1.68861748554693
30
0
41
1
10
61.5799401531004
20
1.6827427356302
30
0
41
1
10
61.5905094279366
20
1.67072707018568
30
0
41
1
10
61.5961894968915
20
1.66456535360109
30
0
41
1
10
61.61410107868
20
1.6458460485351
30
0
41
1
10
61.6266768890843
20
1.63357632247775
30
0
41
1
10
61.6461972707964
20
1.61537535341677
30
0
41
1
10
61.6528301607075
20
1.60933338600319
30
0
41
1
10
61.6659997355874
20
1.59757366927766
30
0
41
1
10
61.6725751587092
20
1.59181938858285
30
0
41
1
10
61.6922692623701
20
1.57488413455417
30
0
41
1
10
61.7053746879744
20
1.56401238100085
30
0
41
1
10
61.7313876311413
20
1.54307224744261
30
0
41
1
10
61.7440177852216
20
1.53322618681975
30
0
41
1
10
61.7623952369024
20
1.51929589210789
30
0
41
1
10
61.7684255143962
20
1.51479384235262
30
0
41
1
10
61.7802835186127
20
1.50607483903312
30
0
41
1
10
61.7861329264564
20
1.50184268612847
30
0
41
1
10
61.8031125280515
20
1.48976373133428
30
0
41
1
10
61.8137259312728
20
1.48248776219523
30
0
41
1
10
61.8333220550478
20
1.46970842737912
30
0
41
1
10
61.8423683906778
20
1.4641644557218
30
0
41
1
10
61.8500341660672
20
1.46004402595554
30
0
0
SPLINE
5
175
100
AcDbEntity
8
1
62
256
6
ByLayer
370
18
48
1
60
0
100
AcDbSpline
70
4
71
3
72
10
73
6
40
0
40
0
40
0
40
0
40
0.5
40
0.5
40
1
40
1
40
1
40
1
41
1
10
61.2150195729708
20
2.20231467986721
30
0
41
1
10
61.2733249093251
20
2.11157774707257
30
0
41
1
10
61.3321378752692
20
2.02352691852008
30
0
41
1
10
61.4506741400181
20
1.85359583825056
30
0
41
1
10
61.5102945557771
20
1.77179603414547
30
0
41
1
10
61.5705842443486
20
1.6943296394802
30
0
0
SPLINE
5
176
100
AcDbEntity
8
1
62
256
6
ByLayer
370
18
48
1
60
0
100
AcDbSpline
70
4
71
3
72
8
73
4
40
0
40
0
40
0
40
0
40
1
40
1
40
1
40
1
41
1
10
61.2150195729753
20
2.20231467986503
30
0
41
1
10
61.1793957291046
20
2.2354617013273
30
0
41
1
10
61.1438020861446
20
2.26825921238742
30
0
41
1
10
61.1082296492993
20
2.30070204372038
30
0
0
SPLINE
5
177
100
AcDbEntity
8
1
62
256
6
ByLayer
370
18
48
1
60
0
100
AcDbSpline
70
4
71
3
72
10
73
6
40
0
40
0
40
0
40
0
40
0.5
40
0.5
40
1
40
1
40
1
40
1
41
1
10
60.7399419927517
20
2.32743413348899
30
0
41
1
10
60.8021084428027
20
2.33383314275355
30
0
41
1
10
60.8640013246901
20
2.33524315315191
30
0
41
1
10
60.9868809820708
20
2.32647659843067
30
0
41
1
10
61.0477988793709
20
2.3163331785639
30
0
41
1
10
61.1082296492993
20
2.30070204372041
30
0
0
SPLINE
5
178
100
AcDbEntity
8
1
62
256
6
ByLayer
370
18
48
1
60
0
100
AcDbSpline
70
4
71
3
72
28
73
24
40
0
40
0
40
0
40
0
40
0.0625000000000484
40
0.0625000000000484
40
0.125000000000097
40
0.125000000000097
40
0.250000000000131
40
0.250000000000131
40
0.312500000000113
40
0.312500000000113
40
0.375000000000094
40
0.375000000000094
40
0.500000000000058
40
0.500000000000058
40
0.625000000000022
40
0.625000000000022
40
0.687500000000038
40
0.687500000000038
40
0.750000000000055
40
0.750000000000055
40
0.875000000000027
40
0.875000000000027
40
1
40
1
40
1
40
1
41
1
10
60.4604703635426
20
2.51409253960543
30
0
41
1
10
60.4649181093818
20
2.50702326587111
30
0
41
1
10
60.469831468396
20
2.50006663832889
30
0
41
1
10
60.4804090802206
20
2.48633383998296
30
0
41
1
10
60.486094980275
20
2.47953582913155
30
0
41
1
10
60.5040223263999
20
2.45951509174944
30
0
41
1
10
60.5166099408413
20
2.44719246976689
30
0
41
1
10
60.5361464934818
20
2.42977817136188
30
0
41
1
10
60.5427831599622
20
2.42415127961641
30
0
41
1
10
60.5559581992212
20
2.41346813741342
30
0
41
1
10
60.562535732392
20
2.40837616849746
30
0
41
1
10
60.5822341998746
20
2.3937593125429
30
0
41
1
10
60.5953432452318
20
2.38487204828056
30
0
41
1
10
60.6213442831457
20
2.36870213348797
30
0
41
1
10
60.6339674053107
20
2.36158480613022
30
0
41
1
10
60.6523343509983
20
2.35223708858444
30
0
41
1
10
60.658361142914
20
2.34934502042344
30
0
41
1
10
60.6702125471735
20
2.34401695254326
30
0
41
1
10
60.6760581423672
20
2.34157361146845
30
0
41
1
10
60.6930243966321
20
2.33505921714502
30
0
41
1
10
60.7036323985989
20
2.33175918780484
30
0
41
1
10
60.7232253582595
20
2.32755343942867
30
0
41
1
10
60.7322734591698
20
2.32664478461339
30
0
41
1
10
60.7399419927518
20
2.32743413348882
30
0
0
SPLINE
5
179
100
AcDbEntity
8
1
62
256
6
ByLayer
370
18
48
1
60
0
100
AcDbSpline
70
4
71
3
72
10
73
6
40
0
40
0
40
0
40
0
40
0.5
40
0.5
40
1
40
1
40
1
40
1
41
1
10
60.1050044210957
20
3.11562606860181
30
0
41
1
10
60.1632821895916
20
3.01180340445211
30
0
41
1
10
60.2220768002918
20
2.90942066666142
30
0
41
1
10
60.3405884917901
20
2.70840272581489
30
0
41
1
10
60.4002000814351
20
2.60988648504741
30
0
41
1
10
60.4604703635432
20
2.51409253960446
30
0
0
SPLINE
5
17A
100
AcDbEntity
8
1
62
256
6
ByLayer
370
18
48
1
60
0
100
AcDbSpline
70
4
71
3
72
8
73
4
40
0
40
0
40
0
40
0
40
1
40
1
40
1
40
1
41
1
10
60.1050044210957
20
3.11562606860181
30
0
41
1
10
60.0693366875093
20
3.14066894740776
30
0
41
1
10
60.0335698636354
20
3.16532376388969
30
0
41
1
10
59.9978306759717
20
3.18948987052769
30
0
0
SPLINE
5
17B
100
AcDbEntity
8
1
62
256
6
ByLayer
370
18
48
1
60
0
100
AcDbSpline
70
4
71
3
72
10
73
6
40
0
40
0
40
0
40
0
40
0.5
40
0.5
40
1
40
1
40
1
40
1
41
1
10
59.629886515938
20
2.97628140784525
30
0
41
1
10
59.6919618020501
20
3.02204143076563
30
0
41
1
10
59.7537745380205
20
3.06317808249617
30
0
41
1
10
59.8765356739558
20
3.13452378560831
30
0
41
1
10
59.9374188341505
20
3.16471714705929
30
0
41
1
10
59.9978306759716
20
3.18948987052772
30
0
0
SPLINE
5
17C
100
AcDbEntity
8
1
62
256
6
ByLayer
370
18
48
1
60
0
100
AcDbSpline
70
4
71
3
72
28
73
24
40
0
40
0
40
0
40
0
40
0.0625000000000674
40
0.0625000000000674
40
0.125000000000135
40
0.125000000000135
40
0.250000000000205
40
0.250000000000205
40
0.312500000000205
40
0.312500000000205
40
0.375000000000205
40
0.375000000000205
40
0.500000000000205
40
0.500000000000205
40
0.625000000000205
40
0.625000000000205
40
0.687500000000171
40
0.687500000000171
40
0.750000000000137
40
0.750000000000137
40
0.875000000000069
40
0.875000000000069
40
1
40
1
40
1
40
1
41
1
10
59.3503549864894
20
3.09768680163418
30
0
41
1
10
59.3548074446986
20
3.08991007298525
30
0
41
1
10
59.3597254046817
20
3.08251277489052
30
0
41
1
10
59.3703119850204
20
3.06833002147897
30
0
41
1
10
59.3760024379801
20
3.06152449315084
30
0
41
1
10
59.3939403930336
20
3.04205541750491
30
0
41
1
10
59.4065330208855
20
3.03082398120046
30
0
41
1
10
59.4260733548229
20
3.0158187242441
30
0
41
1
10
59.4327106480562
20
3.01113086857365
30
0
41
1
10
59.4458861442418
20
3.00251993312543
30
0
41
1
10
59.4524634686337
20
2.99856564334198
30
0
41
1
10
59.4721602160513
20
2.9876343799036
30
0
41
1
10
59.4852651043845
20
2.98156982366615
30
0
41
1
10
59.5112626938231
20
2.97169026131368
30
0
41
1
10
59.5238839221489
20
2.96797626650911
30
0
41
1
10
59.5422485744471
20
2.9641056548526
30
0
41
1
10
59.5482746875952
20
2.96310194297266
30
0
41
1
10
59.5601250307178
20
2.96168099852875
30
0
41
1
10
59.5659706619842
20
2.96126442336049
30
0
41
1
10
59.5829411965709
20
2.96095280547365
30
0
41
1
10
59.5935528611444
20
2.96196203569718
30
0
41
1
10
59.6131553362262
20
2.96677966191425
30
0
41
1
10
59.6222108639085
20
2.97062314938617
30
0
41
1
10
59.6298865159379
20
2.97628140784607
30
0
0
SPLINE
5
17D
100
AcDbEntity
8
1
62
256
6
ByLayer
370
18
48
1
60
0
100
AcDbSpline
70
4
71
3
72
10
73
6
40
0
40
0
40
0
40
0
40
0.5
40
0.5
40
1
40
1
40
1
40
1
41
1
10
58.9948878908931
20
3.73674998420097
30
0
41
1
10
59.0531661843128
20
3.62958611870417
30
0
41
1
10
59.1119678531041
20
3.52244817143546
30
0
41
1
10
59.2304860529611
20
3.3090503803773
30
0
41
1
10
59.2900969930681
20
3.20293429454344
30
0
41
1
10
59.3503549864901
20
3.0976868016337
30
0
0
SPLINE
5
17E
100
AcDbEntity
8
1
62
256
6
ByLayer
370
18
48
1
60
0
100
AcDbSpline
70
4
71
3
72
8
73
4
40
0
40
0
40
0
40
0
40
1
40
1
40
1
40
1
41
1
10
58.994887890893
20
3.73674998420097
30
0
41
1
10
58.9593131874451
20
3.7512710409944
30
0
41
1
10
58.9237207180805
20
3.76525381740808
30
0
41
1
10
58.8881008481422
20
3.77869348542356
30
0
0
SPLINE
5
17F
100
AcDbEntity
8
1
62
256
6
ByLayer
370
18
48
1
60
0
100
AcDbSpline
70
4
71
3
72
10
73
6
40
0
40
0
40
0
40
0
40
0.5
40
0.5
40
1
40
1
40
1
40
1
41
1
10
58.519916274404
20
3.34727538348707
30
0
41
1
10
58.5820104835018
20
3.42798901501831
30
0
41
1
10
58.6438732139219
20
3.50473838724184
30
0
41
1
10
58.7667345678026
20
3.64888022848959
30
0
41
1
10
58.8276667361141
20
3.71619751954387
30
0
41
1
10
58.8881008481422
20
3.77869348542356
30
0
0
SPLINE
5
180
100
AcDbEntity
8
1
62
256
6
ByLayer
370
18
48
1
60
0
100
AcDbSpline
70
4
71
3
72
28
73
24
40
0
40
0
40
0
40
0
40
0.062499999999973
40
0.062499999999973
40
0.124999999999946
40
0.124999999999946
40
0.249999999999894
40
0.249999999999894
40
0.312499999999903
40
0.312499999999903
40
0.374999999999913
40
0.374999999999913
40
0.499999999999931
40
0.499999999999931
40
0.624999999999949
40
0.624999999999949
40
0.687499999999958
40
0.687499999999958
40
0.749999999999967
40
0.749999999999967
40
0.874999999999984
40
0.874999999999984
40
1
40
1
40
1
40
1
41
1
10
58.2403835136187
20
3.39186197544282
30
0
41
1
10
58.2448326005425
20
3.38412627790549
30
0
41
1
10
58.249745985089
20
3.37700059234902
30
0
41
1
10
58.2603222181311
20
3.36373179041718
30
0
41
1
10
58.266005687463
20
3.3575739326171
30
0
41
1
10
58.283929450092
20
3.34052040767418
30
0
41
1
10
58.2965131975164
20
3.33145354920868
30
0
41
1
10
58.3160394234141
20
3.32029044642576
30
0
41
1
10
58.3226740089503
20
3.31698795315234
30
0
41
1
10
58.3358453649559
20
3.31126872375736
30
0
41
1
10
58.342420646328
20
3.30882839592624
30
0
41
1
10
58.3621111864521
20
3.302622387387
30
0
41
1
10
58.3752056152582
20
3.29995620677946
30
0
41
1
10
58.4012078322509
20
3.29730185513532
30
0
41
1
10
58.4138312178463
20
3.29734152342351
30
0
41
1
10
58.4321995235266
20
3.29930943702314
30
0
41
1
10
58.4382269256716
20
3.30028692907203
30
0
41
1
10
58.4500801173513
20
3.30290213246175
30
0
41
1
10
58.4559282688774
20
3.30454872819635
30
0
41
1
10
58.4729164239396
20
3.31046438212337
30
0
41
1
10
58.4835393222452
20
3.31568310143555
30
0
41
1
10
58.5031630047778
20
3.32905815313109
30
0
41
1
10
58.512231171155
20
3.33728584338454
30
0
41
1
10
58.519916274404
20
3.34727538348707
30
0
0
SPLINE
5
181
100
AcDbEntity
8
1
62
256
6
ByLayer
370
18
48
1
60
0
100
AcDbSpline
70
4
71
3
72
10
73
6
40
0
40
0
40
0
40
0
40
0.5
40
0.5
40
1
40
1
40
1
40
1
41
1
10
57.9055169402721
20
3.97274478226598
30
0
41
1
10
57.9605005952645
20
3.87793336989606
30
0
41
1
10
58.0159172611974
20
3.78193512252918
30
0
41
1
10
58.127566089294
20
3.5880965203547
30
0
41
1
10
58.1837006508677
20
3.49041736204219
30
0
41
1
10
58.2403835136187
20
3.39186197544282
30
0
0
SPLINE
5
182
100
AcDbEntity
8
1
62
256
6
ByLayer
370
18
48
1
60
0
100
AcDbSpline
70
4
71
3
72
8
73
4
40
0
40
0
40
0
40
0
40
1
40
1
40
1
40
1
41
1
10
57.7426348952182
20
3.95888442378708
30
0
41
1
10
57.7970373546224
20
3.96494991720706
30
0
41
1
10
57.8513188487006
20
3.96956994991885
30
0
41
1
10
57.9055169402721
20
3.97274478226581
30
0
0
SPLINE
5
183
100
AcDbEntity
8
1
62
256
6
ByLayer
370
18
48
1
60
0
100
AcDbSpline
70
4
71
3
72
12
73
8
40
0
40
0
40
0
40
0
40
0.500000000000001
40
0.500000000000001
40
0.75
40
0.75
40
1
40
1
40
1
40
1
41
1
10
57.4097005387554
20
3.40327057399745
30
0
41
1
10
57.4658089388081
20
3.50112569211868
30
0
41
1
10
57.5216813292777
20
3.59661053207259
30
0
41
1
10
57.6049935883649
20
3.73575431354132
30
0
41
1
10
57.632671599175
20
3.78143409878939
30
0
41
1
10
57.6877978662433
20
3.87126837214788
30
0
41
1
10
57.7152582700068
20
3.91544325550294
30
0
41
1
10
57.7426348952182
20
3.958884423787
30
0
0
SPLINE
5
184
100
AcDbEntity
8
1
62
256
6
ByLayer
370
18
48
1
60
0
100
AcDbSpline
70
4
71
3
72
28
73
24
40
0
40
0
40
0
40
0
40
0.0625000000000459
40
0.0625000000000459
40
0.125000000000092
40
0.125000000000092
40
0.25000000000012
40
0.25000000000012
40
0.312500000000134
40
0.312500000000134
40
0.375000000000147
40
0.375000000000147
40
0.500000000000101
40
0.500000000000101
40
0.625000000000056
40
0.625000000000056
40
0.687500000000067
40
0.687500000000067
40
0.750000000000078
40
0.750000000000078
40
0.875000000000039
40
0.875000000000039
40
1
40
1
40
1
40
1
41
1
10
57.1301423433157
20
3.36619812957457
30
0
41
1
10
57.1345926313711
20
3.35923214927254
30
0
41
1
10
57.1395077672873
20
3.35304944118838
30
0
41
1
10
57.150088938023
20
3.34194494967139
30
0
41
1
10
57.155776064511
20
3.33701322333559
30
0
41
1
10
57.1737117448479
20
3.32398837095522
30
0
41
1
10
57.1863062113381
20
3.31794743386879
30
0
41
1
10
57.2058510312621
20
3.31169738345801
30
0
41
1
10
57.2124913282584
20
3.3101010851903
30
0
41
1
10
57.2256730568637
20
3.30783488283879
30
0
41
1
10
57.2322533927724
20
3.30715089689727
30
0
41
1
10
57.2519584116521
20
3.30629625872763
30
0
41
1
10
57.2650664870874
20
3.30731131433814
30
0
41
1
10
57.2910725013019
20
3.31221332253847
30
0
41
1
10
57.3036959653258
20
3.31604622417027
30
0
41
1
10
57.3220618184364
20
3.32373575308699
30
0
41
1
10
57.3280879799299
20
3.32662576191493
30
0
41
1
10
57.3399379371064
20
3.33307842266788
30
0
41
1
10
57.3457831909101
20
3.33665727414345
30
0
41
1
10
57.3627530985585
20
3.3483069471593
30
0
41
1
10
57.3733641284349
20
3.35728288874927
30
0
41
1
10
57.3929671220174
20
3.37802227894198
30
0
41
1
10
57.4020246755275
20
3.38988358555815
30
0
41
1
10
57.4097005387554
20
3.40327057399745
30
0
0
SPLINE
5
185
100
AcDbEntity
8
1
62
256
6
ByLayer
370
18
48
1
60
0
100
AcDbSpline
70
4
71
3
72
10
73
6
40
0
40
0
40
0
40
0
40
0.5
40
0.5
40
1
40
1
40
1
40
1
41
1
10
56.8804813314531
20
3.74674406739331
30
0
41
1
10
56.9216439869987
20
3.68569740134416
30
0
41
1
10
56.96304760293
20
3.62342316199738
30
0
41
1
10
57.0462312956368
20
3.49665484424185
30
0
41
1
10
57.0880293751512
20
3.43211703258621
30
0
41
1
10
57.1301423433157
20
3.3661981295746
30
0
0
SPLINE
5
186
100
AcDbEntity
8
1
62
256
6
ByLayer
370
18
48
1
60
0
100
AcDbSpline
70
4
71
3
72
8
73
4
40
0
40
0
40
0
40
0
40
1
40
1
40
1
40
1
41
1
10
56.5285463409489
20
3.59715041390533
30
0
41
1
10
56.6463836961323
20
3.65294543354344
30
0
41
1
10
56.7635774669197
20
3.70284517109502
30
0
41
1
10
56.8804813314531
20
3.74674406739311
30
0
0
SPLINE
5
187
100
AcDbEntity
8
1
62
256
6
ByLayer
370
18
48
1
60
0
100
AcDbSpline
70
4
71
3
72
10
73
6
40
0
40
0
40
0
40
0
40
0.5
40
0.5
40
1
40
1
40
1
40
1
41
1
10
56.2996721759781
20
3.13907462562915
30
0
41
1
10
56.3380996631783
20
3.21662099613471
30
0
41
1
10
56.3764194115306
20
3.29361354576079
30
0
41
1
10
56.4527633301163
20
3.44640657464939
30
0
41
1
10
56.4907574989165
20
3.52215465028655
30
0
41
1
10
56.528546340949
20
3.59715041390527
30
0
0
SPLINE
5
188
100
AcDbEntity
8
1
62
256
6
ByLayer
370
18
48
1
60
0
100
AcDbSpline
70
4
71
3
72
28
73
24
40
0
40
0
40
0
40
0
40
0.0624999999999634
40
0.0624999999999634
40
0.124999999999927
40
0.124999999999927
40
0.24999999999992
40
0.24999999999992
40
0.312499999999917
40
0.312499999999917
40
0.374999999999913
40
0.374999999999913
40
0.499999999999907
40
0.499999999999907
40
0.624999999999901
40
0.624999999999901
40
0.687499999999898
40
0.687499999999898
40
0.749999999999894
40
0.749999999999894
40
0.874999999999947
40
0.874999999999947
40
1
40
1
40
1
40
1
41
1
10
56.0201641939384
20
3.02529926563472
30
0
41
1
10
56.0246100403965
20
3.0197479455739
30
0
41
1
10
56.0295198183559
20
3.01507541441671
30
0
41
1
10
56.0400888610573
20
3.00714446881312
30
0
41
1
10
56.0457677134666
20
3.00388236055491
30
0
41
1
10
56.0636881798595
20
2.99603366120624
30
0
41
1
10
56.0762740452527
20
2.99352540798793
30
0
41
1
10
56.0958062046912
20
2.9926748872098
30
0
41
1
10
56.1024446779481
20
2.99289889781085
30
0
41
1
10
56.1156240587111
20
2.99422625520236
30
0
41
1
10
56.1222031935108
20
2.99532612868472
30
0
41
1
10
56.1419042748256
20
2.99979130443487
30
0
41
1
10
56.1550044106651
20
3.00431365017326
30
0
41
1
10
56.1810135386152
20
3.01615730230361
30
0
41
1
10
56.1936372287655
20
3.02334753523695
30
0
41
1
10
56.21200279653
20
3.03592396139109
30
0
41
1
10
56.2180287596044
20
3.04041779195782
30
0
41
1
10
56.229878357029
20
3.05002788357368
30
0
41
1
10
56.2357241060029
20
3.05516656374357
30
0
41
1
10
56.2527013529861
20
3.07136017197669
30
0
41
1
10
56.2633166734668
20
3.0831913754962
30
0
41
1
10
56.2829285570452
20
3.10924084236439
30
0
41
1
10
56.291991868874
20
3.12357582558556
30
0
41
1
10
56.2996721759781
20
3.13907462562915
30
0
0
SPLINE
5
189
100
AcDbEntity
8
1
62
256
6
ByLayer
370
18
48
1
60
0
100
AcDbSpline
70
4
71
3
72
8
73
4
40
0
40
0
40
0
40
0
40
1
40
1
40
1
40
1
41
1
10
55.8562929340024
20
3.22155400880942
30
0
41
1
10
55.9105105735541
20
3.15927056228168
30
0
41
1
10
55.9651084533548
20
3.09404478801071
30
0
41
1
10
56.0201641939384
20
3.02529926563472
30
0
0
SPLINE
5
18A
100
AcDbEntity
8
1
62
256
6
ByLayer
370
18
48
1
60
0
100
AcDbSpline
70
4
71
3
72
8
73
4
40
0
40
0
40
0
40
0
40
1
40
1
40
1
40
1
41
1
10
55.3125701986354
20
2.84288871462539
30
0
41
1
10
55.4951224672728
20
2.97990234537588
30
0
41
1
10
55.6759769964524
20
3.10635997491138
30
0
41
1
10
55.8562929340024
20
3.22155400880928
30
0
0
SPLINE
5
18B
100
AcDbEntity
8
1
62
256
6
ByLayer
370
18
48
1
60
0
100
AcDbSpline
70
4
71
3
72
8
73
4
40
0
40
0
40
0
40
0
40
1
40
1
40
1
40
1
41
1
10
55.1896432098298
20
2.58332234821125
30
0
41
1
10
55.2307491007078
20
2.66982292055266
30
0
41
1
10
55.2717404892512
20
2.75633908507393
30
0
41
1
10
55.3125701986354
20
2.84288871462539
30
0
0
SPLINE
5
18C
100
AcDbEntity
8
1
62
256
6
ByLayer
370
18
48
1
60
0
100
AcDbSpline
70
4
71
3
72
10
73
6
40
0
40
0
40
0
40
0
40
0.019128987487639
40
0.019128987487639
40
1
40
1
40
1
40
1
41
1
10
55.1624817346658
20
2.53629998800554
30
0
41
1
10
55.1626738127668
20
2.53658197560972
30
0
41
1
10
55.1628655838663
20
2.53686429554492
30
0
41
1
10
55.1728746503206
20
2.5516404633257
30
0
41
1
10
55.1819514376526
20
2.56713628141088
30
0
41
1
10
55.1896432098298
20
2.58332234821128
30
0
0
SPLINE
5
18D
100
AcDbEntity
8
1
62
256
6
ByLayer
370
18
48
1
60
0
100
AcDbSpline
70
4
71
3
72
42
73
38
40
0
40
0
40
0
40
0
40
0.0150209772798118
40
0.0150209772798118
40
0.0853766217598204
40
0.0853766217598204
40
0.155732266239829
40
0.155732266239829
40
0.173321177359832
40
0.173321177359832
40
0.190910088479835
40
0.190910088479835
40
0.226087910719842
40
0.226087910719842
40
0.296443555199855
40
0.296443555199855
40
0.437154844159877
40
0.437154844159877
40
0.507510488639887
40
0.507510488639887
40
0.542688310879895
40
0.542688310879895
40
0.577866133119903
40
0.577866133119903
40
0.648221777599919
40
0.648221777599919
40
0.718577422079934
40
0.718577422079934
40
0.859288711039969
40
0.859288711039969
40
0.89446653327998
40
0.89446653327998
40
0.912055444399984
40
0.912055444399984
40
0.929644355519987
40
0.929644355519987
40
1
40
1
40
1
40
1
41
1
10
46.4766415277857
20
-3.230400462251
30
0
41
1
10
46.45118621311
20
-3.23039928709815
30
0
41
1
10
46.4257344639101
20
-3.2301578982493
30
0
41
1
10
46.2810804012779
20
-3.22742089387006
30
0
41
1
10
46.1619435537463
20
-3.21989226159235
30
0
41
1
10
45.9231886714371
20
-3.19420025931265
30
0
41
1
10
45.8035607505979
20
-3.17603505437961
30
0
41
1
10
45.6532090998823
20
-3.14664277250546
30
0
41
1
10
45.6230976651464
20
-3.14043017039259
30
0
41
1
10
45.5627790069871
20
-3.12733640621903
30
0
41
1
10
45.5325427888352
20
-3.12044857352979
30
0
41
1
10
45.4419175357245
20
-3.0988388161158
30
0
41
1
10
45.3816343361859
20
-3.08317810819855
30
0
41
1
10
45.2011672109273
20
-3.03250026644767
30
0
41
1
10
45.0814017623311
20
-2.99377714172235
30
0
41
1
10
44.7231690142857
20
-2.86324440390931
30
0
41
1
10
44.4856162977979
20
-2.75713750425135
30
0
41
1
10
44.1274514841709
20
-2.57138664762803
30
0
41
1
10
44.0077747031783
20
-2.5050235372251
30
0
41
1
10
43.8273721165584
20
-2.39900939083469
30
0
41
1
10
43.7670879752689
20
-2.36259425998921
30
0
41
1
10
43.6461399423541
20
-2.28764224744106
30
0
41
1
10
43.5857452491587
20
-2.24926634355197
30
0
41
1
10
43.4051050463905
20
-2.13170446670588
30
0
41
1
10
43.2852930423451
20
-2.04996891336034
30
0
41
1
10
43.0465619277441
20
-1.88014464523115
30
0
41
1
10
42.927581988757
20
-1.79210469960006
30
0
41
1
10
42.5703816782912
20
-1.51998607462627
30
0
41
1
10
42.3318958625249
20
-1.32797268618211
30
0
41
1
10
42.0314393669076
20
-1.07639054085468
30
0
41
1
10
41.9712267220734
20
-1.02549699062197
30
0
41
1
10
41.8806841212801
20
-0.948320065006101
30
0
41
1
10
41.8504404374807
20
-0.922432824048883
30
0
41
1
10
41.7900735708548
20
-0.870557095856725
30
0
41
1
10
41.7599350612961
20
-0.844555729574125
30
0
41
1
10
41.6094515831969
20
-0.714249210869951
30
0
41
1
10
41.4897555396096
20
-0.60902062492292
30
0
41
1
10
41.3703527820267
20
-0.503258495457402
30
0
0
SPLINE
5
18E
100
AcDbEntity
8
1
62
256
6
ByLayer
370
18
48
1
60
0
100
AcDbSpline
70
4
71
3
72
45
73
41
40
0
40
0
40
0
40
0
40
0.0448692076846268
40
0.0448692076846268
40
0.0897384153692536
40
0.0897384153692536
40
0.179476830738502
40
0.179476830738502
40
0.269215246107751
40
0.269215246107751
40
0.314084453792373
40
0.314084453792373
40
0.336519057634684
40
0.336519057634684
40
0.358953661476995
40
0.358953661476995
40
0.403822869161613
40
0.403822869161613
40
0.44869207684623
40
0.44869207684623
40
0.53843049221546
40
0.53843049221546
40
0.583299699900077
40
0.583299699900077
40
0.628168907584694
40
0.628168907584694
40
0.717907322953934
40
0.717907322953934
40
0.740341926796244
40
0.740341926796244
40
0.762776530638554
40
0.807645738323173
40
0.807645738323173
40
0.897384153692412
40
0.897384153692412
40
0.94225336137703
40
0.94225336137703
40
0.987122569061647
40
0.987122569061647
40
1
40
1
40
1
40
1
41
1
10
38.9235364067311
20
-2.66878553726849
30
0
41
1
10
38.9963887794366
20
-2.70553433211654
30
0
41
1
10
39.0689455876203
20
-2.74060952898313
30
0
41
1
10
39.2138017476312
20
-2.80724225273624
30
0
41
1
10
39.2861205106794
20
-2.83879052018168
30
0
41
1
10
39.5029545721363
20
-2.92808806712989
30
0
41
1
10
39.6473331045903
20
-2.98050427677902
30
0
41
1
10
39.9366139679076
20
-3.07086414756793
30
0
41
1
10
40.0815362933773
20
-3.10880564003165
30
0
41
1
10
40.2998004033236
20
-3.15458678626453
30
0
41
1
10
40.3726977001128
20
-3.16799117340938
30
0
41
1
10
40.4822825558192
20
-3.18525895747092
30
0
41
1
10
40.5188504657173
20
-3.19054153727132
30
0
41
1
10
40.5920677109191
20
-3.20014769251628
30
0
41
1
10
40.6287065188352
20
-3.20446850936702
30
0
41
1
10
40.7382463070946
20
-3.2159276909554
30
0
41
1
10
40.8109083192966
20
-3.22158827589152
30
0
41
1
10
40.955705790102
20
-3.22894828806349
30
0
41
1
10
41.0278705587145
20
-3.23064163465685
30
0
41
1
10
41.2445184204265
20
-3.22983337235456
30
0
41
1
10
41.3894027593373
20
-3.22150557529861
30
0
41
1
10
41.6069621357628
20
-3.19769886347535
30
0
41
1
10
41.6795047560924
20
-3.18786887052181
30
0
41
1
10
41.824432354663
20
-3.16434778360346
30
0
41
1
10
41.896828863412
20
-3.15065421153517
30
0
41
1
10
42.1141714075157
20
-3.10375261789727
30
0
41
1
10
42.2593293941261
20
-3.06473590504393
30
0
41
1
10
42.442137727559
20
-3.00630232659972
30
0
41
1
10
42.4787237404079
20
-2.99414374331056
30
0
41
1
10
42.5517288678907
20
-2.96897850760175
30
0
41
1
10
42.6610917781714
20
-2.92992582546791
30
0
41
1
10
42.7701373933145
20
-2.88705091418535
30
0
41
1
10
42.9881681519053
20
-2.79649544729088
30
0
41
1
10
43.1335055894672
20
-2.7297963244645
30
0
41
1
10
43.350732348037
20
-2.61994474116096
30
0
41
1
10
43.4229540985458
20
-2.58164622464474
30
0
41
1
10
43.5672189487269
20
-2.50176627642642
30
0
41
1
10
43.6392748066787
20
-2.46019218128777
30
0
41
1
10
43.7321493882032
20
-2.40473283969331
30
0
41
1
10
43.7528724967678
20
-2.39224320161736
30
0
41
1
10
43.7736093041704
20
-2.37963224495814
30
0
0
SPLINE
5
18F
100
AcDbEntity
8
1
62
256
6
ByLayer
370
18
48
1
60
0
100
AcDbSpline
70
4
71
3
72
10
73
6
40
0
40
0
40
0
40
0
40
0.472017300362035
40
0.472017300362035
40
1
40
1
40
1
40
1
41
1
10
52.451223437401
20
3.23039991400674
30
0
41
1
10
52.5163967811496
20
3.2304148511115
30
0
41
1
10
52.5815402842443
20
3.22886056765776
30
0
41
1
10
52.719564354817
20
3.22219615663167
30
0
41
1
10
52.792454124372
20
3.21668488546962
30
0
41
1
10
52.865492560797
20
3.20915885891321
30
0
0
SPLINE
5
190
100
AcDbEntity
8
1
62
256
6
ByLayer
370
18
48
1
60
0
100
AcDbSpline
70
4
71
3
72
11
73
7
40
0
40
0
40
0
40
0
40
0.500000000000024
40
0.500000000000024
40
0.750000000000012
40
1
40
1
40
1
40
1
41
1
10
52.8654925607973
20
3.20915885891338
30
0
41
1
10
52.9470601407542
20
3.2007539723503
30
0
41
1
10
53.0285350920604
20
3.19892154551499
30
0
41
1
10
53.1498871746457
20
3.20701429361205
30
0
41
1
10
53.2305270433879
20
3.21606564607623
30
0
41
1
10
53.3103943724434
20
3.23329151395004
30
0
41
1
10
53.3499999999994
20
3.24423145264788
30
0
0
SPLINE
5
191
100
AcDbEntity
8
1
62
256
6
ByLayer
370
18
48
1
60
0
100
AcDbSpline
70
4
71
3
72
10
73
6
40
0
40
0
40
0
40
0
40
0.5
40
0.5
40
1
40
1
40
1
40
1
41
1
10
54.045587291232
20
3.12805396008201
30
0
41
1
10
53.9306482490584
20
3.1577007146681
30
0
41
1
10
53.8152165508028
20
3.18208362861208
30
0
41
1
10
53.5832942187816
20
3.22069323764174
30
0
41
1
10
53.4668430056071
20
3.23494352360359
30
0
41
1
10
53.35
20
3.24423145264922
30
0
0
SPLINE
5
192
100
AcDbEntity
8
1
62
256
6
ByLayer
370
18
48
1
60
0
100
AcDbSpline
70
4
71
3
72
8
73
4
40
0
40
0
40
0
40
0
40
1
40
1
40
1
40
1
41
1
10
54.0583303663557
20
3.10257587810631
30
0
41
1
10
54.0540806767321
20
3.11107341393966
30
0
41
1
10
54.0498329747083
20
3.1195661719461
30
0
41
1
10
54.045587291232
20
3.12805396008204
30
0
0
SPLINE
5
193
100
AcDbEntity
8
1
62
256
6
ByLayer
370
18
48
1
60
0
100
AcDbSpline
70
4
71
3
72
28
73
24
40
0
40
0
40
0
40
0
40
0.124999999999912
40
0.124999999999912
40
0.249999999999824
40
0.249999999999824
40
0.312499999999814
40
0.312499999999814
40
0.374999999999805
40
0.374999999999805
40
0.499999999999788
40
0.499999999999788
40
0.562499999999814
40
0.562499999999814
40
0.62499999999984
40
0.62499999999984
40
0.749999999999892
40
0.749999999999892
40
0.812499999999919
40
0.812499999999919
40
0.874999999999946
40
0.874999999999946
40
1
40
1
40
1
40
1
41
1
10
54.3378963369041
20
2.98196226122059
30
0
41
1
10
54.3291035474374
20
2.97181435682216
30
0
41
1
10
54.3186020953689
20
2.96496936981191
30
0
41
1
10
54.2952238245364
20
2.95588166704854
30
0
41
1
10
54.2828513622139
20
2.95387750283314
30
0
41
1
10
54.2637053112144
20
2.95362038464228
30
0
41
1
10
54.257179819316
20
2.95400922091329
30
0
41
1
10
54.2441081285569
20
2.95563238685676
30
0
41
1
10
54.2375778518785
20
2.95685926516663
30
0
41
1
10
54.2180086232927
20
2.96165102899749
30
0
41
1
10
54.2049906818353
20
2.9663128244041
30
0
41
1
10
54.1855348974673
20
2.97533244109834
30
0
41
1
10
54.1790403213811
20
2.97869509084282
30
0
41
1
10
54.1662793792945
20
2.98599896910588
30
0
41
1
10
54.1599934759163
20
2.98994700133946
30
0
41
1
10
54.1414248353913
20
3.00267051037352
30
0
41
1
10
54.1294267517697
20
3.01231149185691
30
0
41
1
10
54.1120937729772
20
3.02870267666819
30
0
41
1
10
54.1064205410258
20
3.03450490805398
30
0
41
1
10
54.0955511552403
20
3.04657499398383
30
0
41
1
10
54.0903257836545
20
3.05286808400737
30
0
41
1
10
54.0753301693397
20
3.0725853619424
30
0
41
1
10
54.066213830807
20
3.08681236886264
30
0
41
1
10
54.0583303663557
20
3.10257587810642
30
0
0
SPLINE
5
194
100
AcDbEntity
8
1
62
256
6
ByLayer
370
18
48
1
60
0
100
AcDbSpline
70
4
71
3
72
8
73
4
40
0
40
0
40
0
40
0
40
1
40
1
40
1
40
1
41
1
10
54.377827668933
20
3.0275718959
30
0
41
1
10
54.3645404661114
20
3.01255390724046
30
0
41
1
10
54.351230714065
20
2.99735168742643
30
0
41
1
10
54.3378963369042
20
2.98196226122059
30
0
0
SPLINE
5
195
100
AcDbEntity
8
1
62
256
6
ByLayer
370
18
48
1
60
0
100
AcDbSpline
70
4
71
3
72
10
73
6
40
0
40
0
40
0
40
0
40
0.5
40
0.5
40
1
40
1
40
1
40
1
41
1
10
55.0674646898946
20
2.72968234857967
30
0
41
1
10
54.9527229936287
20
2.78896793750047
30
0
41
1
10
54.8380092619055
20
2.84344796897753
30
0
41
1
10
54.6082699898821
20
2.94278154836138
30
0
41
1
10
54.4932450086299
20
2.98763359929401
30
0
41
1
10
54.377827668933
20
3.0275718959
30
0
0
SPLINE
5
196
100
AcDbEntity
8
1
62
256
6
ByLayer
370
18
48
1
60
0
100
AcDbSpline
70
4
71
3
72
8
73
4
40
0
40
0
40
0
40
0
40
1
40
1
40
1
40
1
41
1
10
55.1683642211878
20
2.52238975652193
30
0
41
1
10
55.1345903605933
20
2.59132146857954
30
0
41
1
10
55.1009646484172
20
2.66042265329276
30
0
41
1
10
55.0674646898946
20
2.72968234857967
30
0
0
SPLINE
5
197
100
AcDbEntity
8
1
62
256
6
ByLayer
370
18
48
1
60
0
100
AcDbSpline
70
4
71
3
72
28
73
24
40
0
40
0
40
0
40
0
40
0.124999999999979
40
0.124999999999979
40
0.249999999999958
40
0.249999999999958
40
0.312499999999948
40
0.312499999999948
40
0.374999999999938
40
0.374999999999938
40
0.499999999999993
40
0.499999999999993
40
0.562499999999983
40
0.562499999999983
40
0.624999999999974
40
0.624999999999974
40
0.750000000000025
40
0.750000000000025
40
0.81250000000002
40
0.81250000000002
40
0.875000000000014
40
0.875000000000014
40
1
40
1
40
1
40
1
41
1
10
55.4478163093744
20
2.33709331005809
30
0
41
1
10
55.4390416172442
20
2.33105154895534
30
0
41
1
10
55.4285575613356
20
2.32827299557465
30
0
41
1
10
55.4052018602391
20
2.32728425047324
30
0
41
1
10
55.392833782321
20
2.32913060419537
30
0
41
1
10
55.373686905888
20
2.3344054197413
30
0
41
1
10
55.3671592986786
20
2.33660836077391
30
0
41
1
10
55.354084494854
20
2.34174051133502
30
0
41
1
10
55.3475519203061
20
2.34465924501896
30
0
41
1
10
55.3279740386741
20
2.35436213292485
30
0
41
1
10
55.3149480029064
20
2.36208076890731
30
0
41
1
10
55.2954781151287
20
2.37539963282001
30
0
41
1
10
55.2889805648462
20
2.3801498625123
30
0
41
1
10
55.2762185691332
20
2.39008798369866
30
0
41
1
10
55.2699322198026
20
2.39528910009375
30
0
41
1
10
55.251362640346
20
2.41158518533104
30
0
41
1
10
55.2393644976915
20
2.42336199370311
30
0
41
1
10
55.2220322219574
20
2.4425598510322
30
0
41
1
10
55.2163674209381
20
2.44922197095823
30
0
41
1
10
55.2055164835308
20
2.46282731892711
30
0
41
1
10
55.2003003756329
20
2.46980205911939
30
0
41
1
10
55.1853320107485
20
2.49128502065113
30
0
41
1
10
55.176233103958
20
2.50632953859665
30
0
41
1
10
55.1683642211878
20
2.52238975652213
30
0
0
SPLINE
5
198
100
AcDbEntity
8
1
62
256
6
ByLayer
370
18
48
1
60
0
100
AcDbSpline
70
4
71
3
72
8
73
4
40
0
40
0
40
0
40
0
40
1
40
1
40
1
40
1
41
1
10
55.589628468683
20
2.42654583609237
30
0
41
1
10
55.5426537101024
20
2.39966534819985
30
0
41
1
10
55.4954086656491
20
2.36986273862146
30
0
41
1
10
55.4478163093745
20
2.33709331005787
30
0
0
SPLINE
5
199
100
AcDbEntity
8
1
62
256
6
ByLayer
370
18
48
1
60
0
100
AcDbSpline
70
4
71
3
72
8
73
4
40
0
40
0
40
0
40
0
40
1
40
1
40
1
40
1
41
1
10
56.0884727004185
20
2.07408717663412
30
0
41
1
10
55.9227417412746
20
2.20064284121685
30
0
41
1
10
55.7570132233248
20
2.31849754296829
30
0
41
1
10
55.5896284686829
20
2.42654583609243
30
0
0
SPLINE
5
19A
100
AcDbEntity
8
1
62
256
6
ByLayer
370
18
48
1
60
0
100
AcDbSpline
70
4
71
3
72
8
73
4
40
0
40
0
40
0
40
0
40
1
40
1
40
1
40
1
41
1
10
56.27851826512
20
1.70411928971757
30
0
41
1
10
56.214614011913
20
1.82510459265535
30
0
41
1
10
56.1512704212739
20
1.94857506141233
30
0
41
1
10
56.0884727004186
20
2.07408717663415
30
0
0
SPLINE
5
19B
100
AcDbEntity
8
1
62
256
6
ByLayer
370
18
48
1
60
0
100
AcDbSpline
70
4
71
3
72
30
73
26
40
0
40
0
40
0
40
0
40
0.124999999999879
40
0.124999999999879
40
0.187499999999851
40
0.187499999999851
40
0.249999999999823
40
0.249999999999823
40
0.312499999999795
40
0.312499999999795
40
0.374999999999768
40
0.374999999999768
40
0.499999999999785
40
0.499999999999785
40
0.562499999999793
40
0.562499999999793
40
0.624999999999802
40
0.624999999999802
40
0.749999999999887
40
0.749999999999887
40
0.81249999999993
40
0.81249999999993
40
0.874999999999972
40
0.874999999999972
40
1
40
1
40
1
40
1
41
1
10
56.5579515520593
20
1.47071871146841
30
0
41
1
10
56.5491814697568
20
1.46935754547829
30
0
41
1
10
56.5387050199802
20
1.47092556592946
30
0
41
1
10
56.5212037603327
20
1.47635735825881
30
0
41
1
10
56.5151737840304
20
1.47866639108668
30
0
41
1
10
56.5028941100826
20
1.48406741518517
30
0
41
1
10
56.4966260235118
20
1.48716655574538
30
0
41
1
10
56.4838685893845
20
1.4940657695121
30
0
41
1
10
56.4773455924523
20
1.49788800036691
30
0
41
1
10
56.4642719591508
20
1.5060768812404
30
0
41
1
10
56.4577401633129
20
1.51042839766407
30
0
41
1
10
56.4381653796111
20
1.52417606753303
30
0
41
1
10
56.4251424525519
20
1.53425632395889
30
0
41
1
10
56.4056788402483
20
1.55066443156599
30
0
41
1
10
56.3991818149547
20
1.556371640007
30
0
41
1
10
56.3864179892139
20
1.56804687637444
30
0
41
1
10
56.380131092204
20
1.57403038055992
30
0
41
1
10
56.361560640211
20
1.59242037230013
30
0
41
1
10
56.3495629561942
20
1.60525955379046
30
0
41
1
10
56.3322314412275
20
1.62550434688316
30
0
41
1
10
56.3265623426069
20
1.63242754272204
30
0
41
1
10
56.3157028023219
20
1.64634780871285
30
0
41
1
10
56.3104825310152
20
1.65337825039037
30
0
41
1
10
56.2955018400933
20
1.67469782748125
30
0
41
1
10
56.2863947227956
20
1.6892073617922
30
0
41
1
10
56.27851826512
20
1.70411928971782
30
0
0
SPLINE
5
19C
100
AcDbEntity
8
1
62
256
6
ByLayer
370
18
48
1
60
0
100
AcDbSpline
70
4
71
3
72
10
73
6
40
0
40
0
40
0
40
0
40
0.5
40
0.5
40
1
40
1
40
1
40
1
41
1
10
56.8014371429551
20
1.48152679941737
30
0
41
1
10
56.7613062252897
20
1.48421350454984
30
0
41
1
10
56.7209380961853
20
1.48469325374378
30
0
41
1
10
56.63977765932
20
1.48112909367546
30
0
41
1
10
56.5989926716648
20
1.4770885235495
30
0
41
1
10
56.5579515520593
20
1.47071871146841
30
0
0
SPLINE
5
19D
100
AcDbEntity
8
1
62
256
6
ByLayer
370
18
48
1
60
0
100
AcDbSpline
70
4
71
3
72
8
73
4
40
0
40
0
40
0
40
0
40
1
40
1
40
1
40
1
41
1
10
57.1100508472241
20
1.19660043622247
30
0
41
1
10
57.0074802756386
20
1.2941609889061
30
0
41
1
10
56.9046116621347
20
1.38911846705972
30
0
41
1
10
56.801437142955
20
1.48152679941737
30
0
0
SPLINE
5
19E
100
AcDbEntity
8
1
62
256
6
ByLayer
370
18
48
1
60
0
100
AcDbSpline
70
4
71
3
72
8
73
4
40
0
40
0
40
0
40
0
40
1
40
1
40
1
40
1
41
1
10
57.3884132135072
20
0.730614237460401
30
0
41
1
10
57.2944780804652
20
0.878020165302587
30
0
41
1
10
57.2017296298194
20
1.0337753819525
30
0
41
1
10
57.1100508472241
20
1.19660043622255
30
0
0
SPLINE
5
19F
100
AcDbEntity
8
1
62
256
6
ByLayer
370
18
48
1
60
0
100
AcDbSpline
70
4
71
3
72
30
73
26
40
0
40
0
40
0
40
0
40
0.125000000000011
40
0.125000000000011
40
0.187499999999986
40
0.187499999999986
40
0.24999999999996
40
0.24999999999996
40
0.312499999999935
40
0.312499999999935
40
0.37499999999991
40
0.37499999999991
40
0.49999999999986
40
0.49999999999986
40
0.562499999999871
40
0.562499999999871
40
0.624999999999882
40
0.624999999999882
40
0.749999999999903
40
0.749999999999903
40
0.812499999999913
40
0.812499999999913
40
0.874999999999924
40
0.874999999999924
40
1
40
1
40
1
40
1
41
1
10
57.6679556653628
20
0.469269229734067
30
0
41
1
10
57.6591732507296
20
0.472807981205051
30
0
41
1
10
57.6486914379832
20
0.478686226758413
30
0
41
1
10
57.631198909881
20
0.489950690748941
30
0
41
1
10
57.625171383941
20
0.49405911960767
30
0
41
1
10
57.6129014516746
20
0.502786819640022
30
0
41
1
10
57.6066396856915
20
0.5074192918932
30
0
41
1
10
57.5938973459635
20
0.517157171483888
30
0
41
1
10
57.5873847376457
20
0.522289019915206
30
0
41
1
10
57.5743204815214
20
0.532865332713158
30
0
41
1
10
57.5677935106205
20
0.538288173345535
30
0
41
1
10
57.5482331376462
20
0.554923428843267
30
0
41
1
10
57.5352196955519
20
0.566497603933016
30
0
41
1
10
57.5157690027433
20
0.584557832743855
30
0
41
1
10
57.509272830647
20
0.590720018164149
30
0
41
1
10
57.4965002468467
20
0.603105241671102
30
0
41
1
10
57.4902089066353
20
0.609341117832031
30
0
41
1
10
57.4716250358252
20
0.628186087912184
30
0
41
1
10
57.4596182438201
20
0.640930531958162
30
0
41
1
10
57.4422740829309
20
0.660380584907614
30
0
41
1
10
57.4365898230475
20
0.666939674513344
30
0
41
1
10
57.4256966781398
20
0.679918461945903
30
0
41
1
10
57.4204606587697
20
0.686367338795691
30
0
41
1
10
57.4054366196255
20
0.705583481979687
30
0
41
1
10
57.3963059866484
20
0.718228652744443
30
0
41
1
10
57.3884132135072
20
0.7306142374606
30
0
0
SPLINE
5
1A0
100
AcDbEntity
8
1
62
256
6
ByLayer
370
18
48
1
60
0
100
AcDbSpline
70
4
71
3
72
10
73
6
40
0
40
0
40
0
40
0
40
0.5
40
0.5
40
1
40
1
40
1
40
1
41
1
10
58.4983586849046
20
-0.31173157834499
30
0
41
1
10
58.4365570725762
20
-0.24451982837482
30
0
41
1
10
58.3752791946677
20
-0.172724795254339
30
0
41
1
10
58.2534747176682
20
-0.0199886608412214
30
0
41
1
10
58.1931113738564
20
0.0607479812353233
30
0
41
1
10
58.1331790595373
20
0.145779356395622
30
0
0
SPLINE
5
1A1
100
AcDbEntity
8
1
62
256
6
ByLayer
370
18
48
1
60
0
100
AcDbSpline
70
4
71
3
72
30
73
26
40
0
40
0
40
0
40
0
40
0.124999999999936
40
0.124999999999936
40
0.187499999999903
40
0.187499999999903
40
0.249999999999871
40
0.249999999999871
40
0.312499999999839
40
0.312499999999839
40
0.374999999999807
40
0.374999999999807
40
0.499999999999815
40
0.499999999999815
40
0.56249999999982
40
0.56249999999982
40
0.624999999999824
40
0.624999999999824
40
0.749999999999902
40
0.749999999999902
40
0.81249999999994
40
0.81249999999994
40
0.874999999999979
40
0.874999999999979
40
1
40
1
40
1
40
1
41
1
10
58.7778345738163
20
-0.573502449909341
30
0
41
1
10
58.769068002125
20
-0.565492614905139
30
0
41
1
10
58.7586064949091
20
-0.555972913119319
30
0
41
1
10
58.7411432877909
20
-0.54011736488377
30
0
41
1
10
58.7351235839401
20
-0.534656908608781
30
0
41
1
10
58.72286877101
20
-0.523545769896373
30
0
41
1
10
58.7166136954675
20
-0.517876990411082
30
0
41
1
10
58.7038825911902
20
-0.506338636178242
30
0
41
1
10
58.6973748612593
20
-0.500440331759535
30
0
41
1
10
58.6843151618814
20
-0.488596031889927
30
0
41
1
10
58.6777893615427
20
-0.482673778010934
30
0
41
1
10
58.6582294437139
20
-0.464899431205566
30
0
41
1
10
58.6452122140072
20
-0.453040259731892
30
0
41
1
10
58.6257511900607
20
-0.435201463514346
30
0
41
1
10
58.6192506957458
20
-0.429224071089663
30
0
41
1
10
58.6064694783546
20
-0.417421274279462
30
0
41
1
10
58.6001736745096
20
-0.411582208592336
30
0
41
1
10
58.581576507812
20
-0.394238940616361
30
0
41
1
10
58.5695609863385
20
-0.38290572859313
30
0
41
1
10
58.5522058963988
20
-0.366246440643891
30
0
41
1
10
58.5465193167088
20
-0.360736531813615
30
0
41
1
10
58.5356246423766
20
-0.350061536946072
30
0
41
1
10
58.5303887756212
20
-0.34487010095566
30
0
41
1
10
58.5153678681172
20
-0.329767929591753
30
0
41
1
10
58.5062430265657
20
-0.320306118400339
30
0
41
1
10
58.4983586849045
20
-0.311731578344762
30
0
0
SPLINE
5
1A2
100
AcDbEntity
8
1
62
256
6
ByLayer
370
18
48
1
60
0
100
AcDbSpline
70
4
71
3
72
10
73
6
40
0
40
0
40
0
40
0
40
0.5
40
0.5
40
1
40
1
40
1
40
1
41
1
10
59.1351022719313
20
-0.959385801103622
30
0
41
1
10
59.0765824011486
20
-0.887063144305216
30
0
41
1
10
59.0175591835333
20
-0.818250851184246
30
0
41
1
10
58.8984612375728
20
-0.689128563374652
30
0
41
1
10
58.8384735895752
20
-0.628907062812715
30
0
41
1
10
58.7778345738163
20
-0.57350244990937
30
0
0
SPLINE
5
1A3
100
AcDbEntity
8
1
62
256
6
ByLayer
370
18
48
1
60
0
100
AcDbSpline
70
4
71
3
72
8
73
4
40
0
40
0
40
0
40
0
40
1
40
1
40
1
40
1
41
1
10
59.1351022719311
20
-0.959385801103423
30
0
41
1
10
59.1704032918288
20
-0.997828550057022
30
0
41
1
10
59.2057636291128
20
-1.03608396066136
30
0
41
1
10
59.2412085138871
20
-1.07413092715871
30
0
0
SPLINE
5
1A4
100
AcDbEntity
8
1
62
256
6
ByLayer
370
18
48
1
60
0
100
AcDbSpline
70
4
71
3
72
12
73
8
40
0
40
0
40
0
40
0
40
0.499999999999989
40
0.499999999999989
40
0.749999999999995
40
0.749999999999995
40
1
40
1
40
1
40
1
41
1
10
59.6084348582415
20
-1.32770048483186
30
0
41
1
10
59.5461814110361
20
-1.29603543539221
30
0
41
1
10
59.4843918491276
20
-1.25910685034336
30
0
41
1
10
59.3925592507292
20
-1.19573399925451
30
0
41
1
10
59.3620705692996
20
-1.17326689240281
30
0
41
1
10
59.3014059826963
20
-1.12568372898693
30
0
41
1
10
59.2712346014738
20
-1.10057278627175
30
0
41
1
10
59.2412085138871
20
-1.07413092715871
30
0
0
SPLINE
5
1A5
100
AcDbEntity
8
1
62
256
6
ByLayer
370
18
48
1
60
0
100
AcDbSpline
70
4
71
3
72
30
73
26
40
0
40
0
40
0
40
0
40
0.125000000000033
40
0.125000000000033
40
0.187500000000017
40
0.187500000000017
40
0.250000000000002
40
0.250000000000002
40
0.312499999999987
40
0.312499999999987
40
0.374999999999972
40
0.374999999999972
40
0.499999999999941
40
0.499999999999941
40
0.562499999999926
40
0.562499999999926
40
0.62499999999991
40
0.62499999999991
40
0.749999999999879
40
0.749999999999879
40
0.812499999999896
40
0.812499999999896
40
0.874999999999912
40
0.874999999999912
40
1
40
1
40
1
40
1
41
1
10
59.8878685076724
20
-1.56620241318188
30
0
41
1
10
59.8791215655337
20
-1.5545248372174
30
0
41
1
10
59.8686826056395
20
-1.54229767988127
30
0
41
1
10
59.8512534236949
20
-1.52337809675558
30
0
41
1
10
59.8452405210608
20
-1.51708352119209
30
0
41
1
10
59.83300151506
20
-1.50463757139937
30
0
41
1
10
59.8267537783342
20
-1.49846348681473
30
0
41
1
10
59.8140363392363
20
-1.48619821141236
30
0
41
1
10
59.8075359808868
20
-1.48007928103243
30
0
41
1
10
59.7944819221109
20
-1.46805170136406
30
0
41
1
10
59.787958512684
20
-1.46216946474061
30
0
41
1
10
59.7684045148011
20
-1.44486751383692
30
0
41
1
10
59.7553896002973
20
-1.43378856055963
30
0
41
1
10
59.7359288231885
20
-1.41776322870837
30
0
41
1
10
59.7294271777246
20
-1.41250188371615
30
0
41
1
10
59.7166406863149
20
-1.40232557580643
30
0
41
1
10
59.7103420284438
20
-1.39739850456544
30
0
41
1
10
59.6917353300867
20
-1.38308421556465
30
0
41
1
10
59.6797121545057
20
-1.37415632314517
30
0
41
1
10
59.6623424617419
20
-1.36174714977395
30
0
41
1
10
59.6566495244196
20
-1.35776701818961
30
0
41
1
10
59.6457425082187
20
-1.35032513204791
30
0
41
1
10
59.6405007553067
20
-1.34684296026126
30
0
41
1
10
59.6254629486442
20
-1.33716942410808
30
0
41
1
10
59.6163276328324
20
-1.33171512351947
30
0
41
1
10
59.6084348582431
20
-1.32770048483181
30
0
0
SPLINE
5
1A6
100
AcDbEntity
8
1
62
256
6
ByLayer
370
18
48
1
60
0
100
AcDbSpline
70
4
71
3
72
10
73
6
40
0
40
0
40
0
40
0
40
0.5
40
0.5
40
1
40
1
40
1
40
1
41
1
10
60.2444521312641
20
-2.09112255274553
30
0
41
1
10
60.1860872455426
20
-1.99749368544715
30
0
41
1
10
60.1271615479293
20
-1.90658914018843
30
0
41
1
10
60.0082600654338
20
-1.73127289953672
30
0
41
1
10
59.9483670130275
20
-1.64697074122293
30
0
41
1
10
59.8878685076724
20
-1.56620241318186
30
0
0
SPLINE
5
1A7
100
AcDbEntity
8
1
62
256
6
ByLayer
370
18
48
1
60
0
100
AcDbSpline
70
4
71
3
72
8
73
4
40
0
40
0
40
0
40
0
40
1
40
1
40
1
40
1
41
1
10
60.2444521312641
20
-2.09112255274548
30
0
41
1
10
60.2802060029856
20
-2.12521225835369
30
0
41
1
10
60.3159006947051
20
-2.15896621596877
30
0
41
1
10
60.3515533338474
20
-2.19237283343213
30
0
0
SPLINE
5
1A8
100
AcDbEntity
8
1
62
256
6
ByLayer
370
18
48
1
60
0
100
AcDbSpline
70
4
71
3
72
10
73
6
40
0
40
0
40
0
40
0
40
0.5
40
0.5
40
1
40
1
40
1
40
1
41
1
10
60.7185558847622
20
-2.21868647862738
30
0
41
1
10
60.6563135835007
20
-2.22548471710519
30
0
41
1
10
60.5946801836773
20
-2.22661292763416
30
0
41
1
10
60.4723096786642
20
-2.21772992892372
30
0
41
1
10
60.4116727842782
20
-2.20773199062268
30
0
41
1
10
60.3515533338474
20
-2.19237283343216
30
0
0
SPLINE
5
1A9
100
AcDbEntity
8
1
62
256
6
ByLayer
370
18
48
1
60
0
100
AcDbSpline
70
4
71
3
72
30
73
26
40
0
40
0
40
0
40
0
40
0.125000000000007
40
0.125000000000007
40
0.18750000000001
40
0.18750000000001
40
0.250000000000014
40
0.250000000000014
40
0.312500000000017
40
0.312500000000017
40
0.375000000000021
40
0.375000000000021
40
0.500000000000029
40
0.500000000000029
40
0.562499999999998
40
0.562499999999998
40
0.624999999999968
40
0.624999999999968
40
0.749999999999977
40
0.749999999999977
40
0.812499999999982
40
0.812499999999982
40
0.874999999999987
40
0.874999999999987
40
1
40
1
40
1
40
1
41
1
10
60.9980117473843
20
-2.41276473783938
30
0
41
1
10
60.9892501534555
20
-2.39843306125059
30
0
41
1
10
60.9787902881688
20
-2.38456083188171
30
0
41
1
10
60.961324442069
20
-2.36422936128014
30
0
41
1
10
60.955301311373
20
-2.35765841360126
30
0
41
1
10
60.9430403992785
20
-2.34497831514156
30
0
41
1
10
60.9367819004713
20
-2.33884651266564
30
0
41
1
10
60.9240438760288
20
-2.32694468318715
30
0
41
1
10
60.9175326466475
20
-2.32114864930131
30
0
41
1
10
60.9044660464992
20
-2.3100215247195
30
0
41
1
10
60.8979373718201
20
-2.30471018177602
30
0
41
1
10
60.8783708470466
20
-2.28944356997215
30
0
41
1
10
60.8653519598251
20
-2.28014754845483
30
0
41
1
10
60.845892392581
20
-2.26738506893824
30
0
41
1
10
60.839393390518
20
-2.2633167635324
30
0
41
1
10
60.8266173894617
20
-2.25569172660249
30
0
41
1
10
60.8203245986078
20
-2.25212318747467
30
0
41
1
10
60.8017370235737
20
-2.24213096455208
30
0
41
1
10
60.7897286641923
20
-2.23640908751543
30
0
41
1
10
60.7723822994978
20
-2.22935202337828
30
0
41
1
10
60.7667000750736
20
-2.22725509956754
30
0
41
1
10
60.7558138083926
20
-2.22370123898494
30
0
41
1
10
60.7505813586237
20
-2.22223133333279
30
0
41
1
10
60.7355677766306
20
-2.21881780283488
30
0
41
1
10
60.7264435816885
20
-2.21782496734534
30
0
41
1
10
60.7185558847622
20
-2.2186864786272
30
0
0
SPLINE
5
1AA
100
AcDbEntity
8
1
62
256
6
ByLayer
370
18
48
1
60
0
100
AcDbSpline
70
4
71
3
72
10
73
6
40
0
40
0
40
0
40
0
40
0.5
40
0.5
40
1
40
1
40
1
40
1
41
1
10
61.355103368829
20
-3.03086246269572
30
0
41
1
10
61.2966183641622
20
-2.92441085441064
30
0
41
1
10
61.2375854735764
20
-2.81935725844153
30
0
41
1
10
61.1185143352339
20
-2.61298582913148
30
0
41
1
10
61.0585549684992
20
-2.51179761606966
30
0
41
1
10
60.9980117473844
20
-2.41276473783938
30
0
0
SPLINE
5
1AB
100
AcDbEntity
8
1
62
256
6
ByLayer
370
18
48
1
60
0
100
AcDbSpline
70
4
71
3
72
8
73
4
40
0
40
0
40
0
40
0
40
1
40
1
40
1
40
1
41
1
10
61.3551033688289
20
-3.03086246270408
30
0
41
1
10
61.3906496309302
20
-3.05665807320418
30
0
41
1
10
61.4262326430763
20
-3.0820598059297
30
0
41
1
10
61.4618500202899
20
-3.10706490070504
30
0
0
SPLINE
5
1AC
100
AcDbEntity
8
1
62
256
6
ByLayer
370
18
48
1
60
0
100
AcDbSpline
70
4
71
3
72
10
73
6
40
0
40
0
40
0
40
0
40
0.5
40
0.5
40
1
40
1
40
1
40
1
41
1
10
61.8283742642568
20
-2.90034807889435
30
0
41
1
10
61.7663426307219
20
-2.94494994516194
30
0
41
1
10
61.7047904989622
20
-2.98444696165785
30
0
41
1
10
61.5826362975265
20
-3.05332420025175
30
0
41
1
10
61.5219961247327
20
-3.08274515264841
30
0
41
1
10
61.4618500202899
20
-3.1070649007051
30
0
0
SPLINE
5
1AD
100
AcDbEntity
8
1
62
256
6
ByLayer
370
18
48
1
60
0
100
AcDbSpline
70
4
71
3
72
30
73
26
40
0
40
0
40
0
40
0
40
0.12500000000003
40
0.12500000000003
40
0.187500000000044
40
0.187500000000044
40
0.250000000000058
40
0.250000000000058
40
0.312500000000072
40
0.312500000000072
40
0.375000000000085
40
0.375000000000085
40
0.500000000000041
40
0.500000000000041
40
0.562500000000054
40
0.562500000000054
40
0.625000000000068
40
0.625000000000068
40
0.750000000000027
40
0.750000000000027
40
0.812500000000006
40
0.812500000000006
40
0.874999999999986
40
0.874999999999986
40
1
40
1
40
1
40
1
41
1
10
62.1079509114745
20
-3.03221207674326
30
0
41
1
10
62.0991728276167
20
-3.0165399765157
30
0
41
1
10
62.0886988171503
20
-3.00230179371124
30
0
41
1
10
62.0712228504985
20
-2.98243797244328
30
0
41
1
10
62.06519749436
20
-2.9761955411729
30
0
41
1
10
62.052935209538
20
-2.96445073012245
30
0
41
1
10
62.0466774389681
20
-2.95892667746085
30
0
41
1
10
62.0339437150858
20
-2.94848561297977
30
0
41
1
10
62.0274371257787
20
-2.94354830459494
30
0
41
1
10
62.0143751514839
20
-2.93433816671825
30
0
41
1
10
62.0078494769004
20
-2.93008231961613
30
0
41
1
10
61.9882937703583
20
-2.91824239143006
30
0
41
1
10
61.9752846490595
20
-2.91157427548023
30
0
41
1
10
61.9558416461706
20
-2.90323251992726
30
0
41
1
10
61.9493468800452
20
-2.9007243076459
30
0
41
1
10
61.9365698933239
20
-2.89633306516032
30
0
41
1
10
61.9302765157492
20
-2.89444285434408
30
0
41
1
10
61.9116866559695
20
-2.88966962265437
30
0
41
1
10
61.8996760228492
20
-2.88766961791305
30
0
41
1
10
61.8823251395985
20
-2.88660417184687
30
0
41
1
10
61.8766336773009
20
-2.88657880163805
30
0
41
1
10
61.8657211553243
20
-2.88723640554448
30
0
41
1
10
61.8604758464028
20
-2.88791518700904
30
0
41
1
10
61.8454253867495
20
-2.8910870920871
30
0
41
1
10
61.8362788880166
20
-2.89466451146683
30
0
41
1
10
61.8283742642568
20
-2.90034807889427
30
0
0
SPLINE
5
1AE
100
AcDbEntity
8
1
62
256
6
ByLayer
370
18
48
1
60
0
100
AcDbSpline
70
4
71
3
72
10
73
6
40
0
40
0
40
0
40
0
40
0.5
40
0.5
40
1
40
1
40
1
40
1
41
1
10
62.3911631877532
20
-3.54888967786564
30
0
41
1
10
62.3445764767354
20
-3.46230281447916
30
0
41
1
10
62.2976616643967
20
-3.3757845164875
30
0
41
1
10
62.203273372454
20
-3.20345407428039
30
0
41
1
10
62.1557961716489
20
-3.11763341983007
30
0
41
1
10
62.1079509114745
20
-3.03221207674321
30
0
0
SPLINE
5
1AF
100
AcDbEntity
8
1
62
256
6
ByLayer
370
18
48
1
60
0
100
AcDbSpline
70
4
71
3
72
10
73
6
40
0
40
0
40
0
40
0
40
0.5
40
0.5
40
1
40
1
40
1
40
1
41
1
10
62.3911631877532
20
-3.54888967786559
30
0
41
1
10
62.4510261770858
20
-3.54915359775416
30
0
41
1
10
62.5114371802842
20
-3.54774758781613
30
0
41
1
10
62.6334411098749
20
-3.5418451989355
30
0
41
1
10
62.6950140042514
20
-3.53734843137772
30
0
41
1
10
62.7570266417692
20
-3.5314627490842
30
0
0
SPLINE
5
1B0
100
AcDbEntity
8
1
62
256
6
ByLayer
370
18
48
1
60
0
100
AcDbSpline
70
4
71
3
72
8
73
4
40
0
40
0
40
0
40
0
40
1
40
1
40
1
40
1
41
1
10
62.9384432092968
20
-3.31160312886328
30
0
41
1
10
62.877492584353
20
-3.3889714555622
30
0
41
1
10
62.8170114797806
20
-3.46233436950149
30
0
41
1
10
62.7570266417691
20
-3.53146274908403
30
0
0
SPLINE
5
1B1
100
AcDbEntity
8
1
62
256
6
ByLayer
370
18
48
1
60
0
100
AcDbSpline
70
4
71
3
72
30
73
26
40
0
40
0
40
0
40
0
40
0.125000000000091
40
0.125000000000091
40
0.187500000000105
40
0.187500000000105
40
0.250000000000118
40
0.250000000000118
40
0.312500000000132
40
0.312500000000132
40
0.375000000000146
40
0.375000000000146
40
0.500000000000174
40
0.500000000000174
40
0.562500000000152
40
0.562500000000152
40
0.62500000000013
40
0.62500000000013
40
0.750000000000086
40
0.750000000000086
40
0.812500000000065
40
0.812500000000065
40
0.875000000000043
40
0.875000000000043
40
1
40
1
40
1
40
1
41
1
10
63.2178855216896
20
-3.36698300278934
30
0
41
1
10
63.2091313431645
20
-3.35155974127721
30
0
41
1
10
63.1986873693036
20
-3.33838596961178
30
0
41
1
10
63.1812562952843
20
-3.32097827563035
30
0
41
1
10
63.1752422298216
20
-3.31568559691129
30
0
41
1
10
63.1630028804488
20
-3.30604719596155
30
0
41
1
10
63.1567554981028
20
-3.30168171576679
30
0
41
1
10
63.1440398252033
20
-3.29374405791009
30
0
41
1
10
63.1375416852731
20
-3.29015879312971
30
0
41
1
10
63.1244875796806
20
-3.28379248669117
30
0
41
1
10
63.1179644426733
20
-3.2810228956869
30
0
41
1
10
63.0984121857087
20
-3.27381696239823
30
0
41
1
10
63.0853996546223
20
-3.27046964399656
30
0
41
1
10
63.0659446107028
20
-3.26744081979152
30
0
41
1
10
63.0594444914746
20
-3.26676725642309
30
0
41
1
10
63.046657132753
20
-3.26610752888567
30
0
41
1
10
63.0403584167713
20
-3.26611664900159
30
0
41
1
10
63.0217526668947
20
-3.26714311230614
30
0
41
1
10
63.0097316245414
20
-3.26914367340694
30
0
41
1
10
62.9923673725629
20
-3.27430821070612
30
0
41
1
10
62.9866734322659
20
-3.27640598945436
30
0
41
1
10
62.9757614180248
20
-3.28130769818824
30
0
41
1
10
62.9705175135178
20
-3.28411614683441
30
0
41
1
10
62.9554742922957
20
-3.29370018542528
30
0
41
1
10
62.9463369001589
20
-3.30158318806625
30
0
41
1
10
62.9384432092968
20
-3.31160312886325
30
0
0
SPLINE
5
1B2
100
AcDbEntity
8
1
62
256
6
ByLayer
370
18
48
1
60
0
100
AcDbSpline
70
4
71
3
72
8
73
4
40
0
40
0
40
0
40
0
40
1
40
1
40
1
40
1
41
1
10
63.2689356134343
20
-3.45694897575507
30
0
41
1
10
63.2519645659078
20
-3.42703492564402
30
0
41
1
10
63.2349491741604
20
-3.39704603767691
30
0
41
1
10
63.2178855216895
20
-3.36698300278934
30
0
0
SPLINE
5
1B3
100
AcDbEntity
8
1
62
256
6
ByLayer
370
18
48
1
60
0
100
AcDbSpline
70
4
71
3
72
20
73
16
40
0
40
0
40
0
40
0
40
0.250000000000008
40
0.250000000000008
40
0.375000000000006
40
0.375000000000006
40
0.500000000000005
40
0.500000000000005
40
0.625000000000004
40
0.625000000000004
40
0.750000000000003
40
0.750000000000003
40
0.875000000000001
40
0.875000000000001
40
1
40
1
40
1
40
1
41
1
10
63.2689356134343
20
-3.45694897575504
30
0
41
1
10
63.4300521060944
20
-3.42675541741755
30
0
41
1
10
63.5946104673958
20
-3.39081331641469
30
0
41
1
10
63.8476593071552
20
-3.33257739758383
30
0
41
1
10
63.9330605366894
20
-3.31245192287375
30
0
41
1
10
64.1060575620778
20
-3.27167648087035
30
0
41
1
10
64.1936191060799
20
-3.25105274915188
30
0
41
1
10
64.3701793270936
20
-3.21032799402761
30
0
41
1
10
64.4591653482779
20
-3.19024245384546
30
0
41
1
10
64.6373549332699
20
-3.1510496354999
30
0
41
1
10
64.7264638110072
20
-3.13190752501816
30
0
41
1
10
64.9045826816764
20
-3.09449849700817
30
0
41
1
10
64.9936449961796
20
-3.07623629617993
30
0
41
1
10
65.1719096641895
20
-3.04067370736871
30
0
41
1
10
65.2610583868312
20
-3.02336822518385
30
0
41
1
10
65.3500000000002
20
-3.00638504145212
30
0
0
SPLINE
5
1B4
100
AcDbEntity
8
1
62
256
6
ByLayer
370
18
48
1
60
0
100
AcDbSpline
70
4
71
3
72
8
73
4
40
0
40
0
40
0
40
0
40
1
40
1
40
1
40
1
41
1
10
65.3500000000002
20
-3.00638504145212
30
0
41
1
10
65.3756870020293
20
-2.98726307929434
30
0
41
1
10
65.4015279228393
20
-2.96816335231401
30
0
41
1
10
65.4275287727909
20
-2.94909998601344
30
0
0
SPLINE
5
1B5
100
AcDbEntity
8
1
62
256
6
ByLayer
370
18
48
1
60
0
100
AcDbSpline
70
4
71
3
72
8
73
4
40
0
40
0
40
0
40
0
40
1
40
1
40
1
40
1
41
1
10
65.55
20
-2.78583298902862
30
0
41
1
10
65.5082560040874
20
-2.84073166039235
30
0
41
1
10
65.4674769394832
20
-2.89517669266613
30
0
41
1
10
65.4275287727909
20
-2.94909998601344
30
0
0
SPLINE
5
1B6
100
AcDbEntity
8
1
62
256
6
ByLayer
370
18
48
1
60
0
100
AcDbSpline
70
4
71
3
72
30
73
26
40
0
40
0
40
0
40
0
40
0.0904772266536484
40
0.0904772266536484
40
0.180954453307297
40
0.180954453307297
40
0.226193066634121
40
0.226193066634121
40
0.271431679960946
40
0.271431679960946
40
0.361908906614594
40
0.361908906614594
40
0.452386133268243
40
0.452386133268243
40
0.542863359921891
40
0.542863359921891
40
0.588101973248715
40
0.588101973248715
40
0.63334058657554
40
0.63334058657554
40
0.723817813229188
40
0.723817813229188
40
0.904772266536483
40
0.904772266536483
40
1
40
1
40
1
40
1
41
1
10
65.55
20
-2.78583298902885
30
0
41
1
10
65.55
20
-2.74167382309565
30
0
41
1
10
65.55
20
-2.69841878297186
30
0
41
1
10
65.55
20
-2.61368701173419
30
0
41
1
10
65.55
20
-2.57221461140227
30
0
41
1
10
65.55
20
-2.51141276889558
30
0
41
1
10
65.55
20
-2.4913809750206
30
0
41
1
10
65.55
20
-2.45180671188677
30
0
41
1
10
65.55
20
-2.43219876744448
30
0
41
1
10
65.55
20
-2.37473882314541
30
0
41
1
10
65.55
20
-2.33819620512688
30
0
41
1
10
65.55
20
-2.26852745074504
30
0
41
1
10
65.55
20
-2.23544221894292
30
0
41
1
10
65.55
20
-2.17249161017648
30
0
41
1
10
65.55
20
-2.14266608990184
30
0
41
1
10
65.55
20
-2.09964772719559
30
0
41
1
10
65.55
20
-2.08557457541534
30
0
41
1
10
65.55
20
-2.05773603440949
30
0
41
1
10
65.55
20
-2.04395931536979
30
0
41
1
10
65.55
20
-2.00306859382584
30
0
41
1
10
65.55
20
-1.97639909246971
30
0
41
1
10
65.5499999999999
20
-1.89837761817495
30
0
41
1
10
65.55
20
-1.84964668958216
30
0
41
1
10
65.55
20
-1.78033939512179
30
0
41
1
10
65.55
20
-1.75734526267837
30
0
41
1
10
65.55
20
-1.73524198902581
30
0
0
SPLINE
5
1B7
100
AcDbEntity
8
1
62
256
6
ByLayer
370
18
48
1
60
0
100
AcDbSpline
70
4
71
3
72
10
73
6
40
0
40
0
40
0
40
0
40
0.5
40
0.5
40
1
40
1
40
1
40
1
41
1
10
65.3501485462593
20
-1.66873595634553
30
0
41
1
10
65.3837215822279
20
-1.67166960948711
30
0
41
1
10
65.4172613251391
20
-1.67430804332187
30
0
41
1
10
65.4839026551011
20
-1.67999693453012
30
0
41
1
10
65.5170420298189
20
-1.68293315430799
30
0
41
1
10
65.55
20
-1.68590537948901
30
0
0
SPLINE
5
1B8
100
AcDbEntity
8
1
62
256
6
ByLayer
370
18
48
1
60
0
100
AcDbSpline
70
4
71
3
72
8
73
4
40
0
40
0
40
0
40
0
40
1
40
1
40
1
40
1
41
1
10
65.3501485462594
20
-1.66873595634556
30
0
41
1
10
65.3500990306215
20
-1.66871116648227
30
0
41
1
10
65.3500495152017
20
-1.66868637660053
30
0
41
1
10
65.3500000000001
20
-1.66866158670018
30
0
0
SPLINE
5
1B9
100
AcDbEntity
8
1
62
256
6
ByLayer
370
18
48
1
60
0
100
AcDbSpline
70
4
71
3
72
14
73
10
40
0
40
0
40
0
40
0
40
0.25
40
0.25
40
0.5
40
0.5
40
0.75
40
0.75
40
1
40
1
40
1
40
1
41
1
10
65.3500000000001
20
-1.66866158670018
30
0
41
1
10
65.2440601354729
20
-1.57200707490088
30
0
41
1
10
65.136781411802
20
-1.4765195944176
30
0
41
1
10
64.9202145032408
20
-1.28779157273601
30
0
41
1
10
64.8109135882646
20
-1.19457170543922
30
0
41
1
10
64.5915840353562
20
-1.00941992556241
30
0
41
1
10
64.481619485326
20
-0.917413301628841
30
0
41
1
10
64.2617963468319
20
-0.73382884352884
30
0
41
1
10
64.1518868797557
20
-0.642308117583667
30
0
41
1
10
64.0423264338368
20
-0.550612803386599
30
0
0
SPLINE
5
1BA
100
AcDbEntity
8
1
62
256
6
ByLayer
370
18
48
1
60
0
100
AcDbSpline
70
4
71
3
72
26
73
22
40
0
40
0
40
0
40
0
40
0.125000000000144
40
0.125000000000144
40
0.187500000000179
40
0.187500000000179
40
0.250000000000215
40
0.250000000000215
40
0.375000000000205
40
0.375000000000205
40
0.500000000000195
40
0.500000000000195
40
0.625000000000184
40
0.625000000000184
40
0.750000000000174
40
0.750000000000174
40
0.812500000000131
40
0.812500000000131
40
0.875000000000087
40
0.875000000000087
40
1
40
1
40
1
40
1
41
1
10
63.7907015780762
20
-0.328559193497625
30
0
41
1
10
63.7984373696601
20
-0.331260264930791
30
0
41
1
10
63.8075543777786
20
-0.335890255252849
30
0
41
1
10
63.8227320151752
20
-0.344961029040718
30
0
41
1
10
63.828016634916
20
-0.34833223933876
30
0
41
1
10
63.8387227492466
20
-0.355507530021612
30
0
41
1
10
63.8441821879841
20
-0.359334424057948
30
0
41
1
10
63.8608340773493
20
-0.371439463802062
30
0
41
1
10
63.8723890834486
20
-0.380415569329841
30
0
41
1
10
63.8952650935214
20
-0.399102785326022
30
0
41
1
10
63.9066747169106
20
-0.408874211927895
30
0
41
1
10
63.9294194652415
20
-0.429179813958257
30
0
41
1
10
63.9408237541553
20
-0.439785756448572
30
0
41
1
10
63.9629774954682
20
-0.461242553041927
30
0
41
1
10
63.9737752067529
20
-0.47213170027581
30
0
41
1
10
63.9895341065095
20
-0.488728549062358
30
0
41
1
10
63.9947136362954
20
-0.494304963617623
30
0
41
1
10
64.0049162820829
20
-0.505553344850199
30
0
41
1
10
64.0099381485961
20
-0.51122522979901
30
0
41
1
10
64.0245420481957
20
-0.528153342461508
30
0
41
1
10
64.0337401273772
20
-0.539401973446132
30
0
41
1
10
64.0423264338367
20
-0.550612803387907
30
0
0
SPLINE
5
1BB
100
AcDbEntity
8
1
62
256
6
ByLayer
370
18
48
1
60
0
100
AcDbSpline
70
4
71
3
72
8
73
4
40
0
40
0
40
0
40
0
40
1
40
1
40
1
40
1
41
1
10
63.7707966597339
20
-0.321377988753085
30
0
41
1
10
63.7774240891888
20
-0.323845730355231
30
0
41
1
10
63.7840589578755
20
-0.326239819782501
30
0
41
1
10
63.7907015780762
20
-0.328559193497625
30
0
0
SPLINE
5
1BC
100
AcDbEntity
8
1
62
256
6
ByLayer
370
18
48
1
60
0
100
AcDbSpline
70
4
71
3
72
10
73
6
40
0
40
0
40
0
40
0
40
0.5
40
0.5
40
1
40
1
40
1
40
1
41
1
10
63.7707966597339
20
-0.321377988753113
30
0
41
1
10
63.6607178606944
20
-0.227302321526025
30
0
41
1
10
63.5515833027487
20
-0.132243701981651
30
0
41
1
10
63.3357904191076
20
0.0610848816407952
30
0
41
1
10
63.2291065430163
20
0.159378414301727
30
0
41
1
10
63.1237702296337
20
0.259601695663434
30
0
0
SPLINE
5
1BD
100
AcDbEntity
8
1
62
256
6
ByLayer
370
18
48
1
60
0
100
AcDbSpline
70
4
71
3
72
8
73
4
40
0
40
0
40
0
40
0
40
1
40
1
40
1
40
1
41
1
10
62.9601343200532
20
0.455838044191154
30
0
41
1
10
63.0149288723201
20
0.393795025332423
30
0
41
1
10
63.0695081435562
20
0.32855991592271
30
0
41
1
10
63.1237702296337
20
0.259601695663434
30
0
0
SPLINE
5
1BE
100
AcDbEntity
8
1
62
256
6
ByLayer
370
18
48
1
60
0
100
AcDbSpline
70
4
71
3
72
28
73
24
40
0
40
0
40
0
40
0
40
0.0625000000000321
40
0.0625000000000321
40
0.125000000000064
40
0.125000000000064
40
0.250000000000064
40
0.250000000000064
40
0.312500000000099
40
0.312500000000099
40
0.375000000000135
40
0.375000000000135
40
0.500000000000133
40
0.500000000000133
40
0.62500000000013
40
0.62500000000013
40
0.687500000000129
40
0.687500000000129
40
0.750000000000128
40
0.750000000000128
40
0.875000000000064
40
0.875000000000064
40
1
40
1
40
1
40
1
41
1
10
62.6806318974072
20
0.716635940371901
30
0
41
1
10
62.685082018933
20
0.712815819021301
30
0
41
1
10
62.6899973902496
20
0.708569283364568
30
0
41
1
10
62.7005766016384
20
0.699382855432702
30
0
41
1
10
62.7062628288287
20
0.694423361289608
30
0
41
1
10
62.7241840884357
20
0.678730058139678
30
0
41
1
10
62.7367635858715
20
0.667637740485617
30
0
41
1
10
62.7562867305064
20
0.650311947542889
30
0
41
1
10
62.7629186444915
20
0.644407918511888
30
0
41
1
10
62.7760854157672
20
0.632646749250853
30
0
41
1
10
62.7826592882821
20
0.626755073196534
30
0
41
1
10
62.8023486517638
20
0.60904282679914
30
0
41
1
10
62.8154517934635
20
0.597168414738405
30
0
41
1
10
62.8414571681854
20
0.573351966989975
30
0
41
1
10
62.8540851688409
20
0.561660764470616
30
0
41
1
10
62.8724618287208
20
0.544389051199602
30
0
41
1
10
62.878492245168
20
0.538676558101656
30
0
41
1
10
62.8903512828491
20
0.527337459449598
30
0
41
1
10
62.8962016214282
20
0.521689417346948
30
0
41
1
10
62.9131858488421
20
0.505106140084763
30
0
41
1
10
62.9238039219973
20
0.494485654870061
30
0
41
1
10
62.943410480706
20
0.47423182668291
30
0
41
1
10
62.9524629101006
20
0.464524262303485
30
0
41
1
10
62.9601343200532
20
0.455838044191154
30
0
0
SPLINE
5
1BF
100
AcDbEntity
8
1
62
256
6
ByLayer
370
18
48
1
60
0
100
AcDbSpline
70
4
71
3
72
10
73
6
40
0
40
0
40
0
40
0
40
0.5
40
0.5
40
1
40
1
40
1
40
1
41
1
10
57.779701356225
20
-1.71646982950358
30
0
41
1
10
57.8418445025808
20
-1.83977929953619
30
0
41
1
10
57.9036758788974
20
-1.96477899305077
30
0
41
1
10
58.0264315674248
20
-2.21859197389975
30
0
41
1
10
58.0872944004659
20
-2.34719377392423
30
0
41
1
10
58.1477036844078
20
-2.47698942451424
30
0
0
SPLINE
5
1C0
100
AcDbEntity
8
1
62
256
6
ByLayer
370
18
48
1
60
0
100
AcDbSpline
70
4
71
3
72
8
73
4
40
0
40
0
40
0
40
0
40
1
40
1
40
1
40
1
41
1
10
58.1477036844078
20
-2.47698942451424
30
0
41
1
10
58.1465767848652
20
-2.45506333582728
30
0
41
1
10
58.1454542384997
20
-2.43299625858808
30
0
41
1
10
58.1443341279578
20
-2.41078960744065
30
0
0
SPLINE
5
1C1
100
AcDbEntity
8
1
62
256
6
ByLayer
370
18
48
1
60
0
100
AcDbSpline
70
4
71
3
72
10
73
6
40
0
40
0
40
0
40
0
40
0.5
40
0.5
40
1
40
1
40
1
40
1
41
1
10
58.0140608361787
20
0.273629883216984
30
0
41
1
10
57.9573118630146
20
0.314699173549854
30
0
41
1
10
57.9000972085389
20
0.351753549603245
30
0
41
1
10
57.784706361152
20
0.417243636138181
30
0
41
1
10
57.7265984101772
20
0.445639953715642
30
0
41
1
10
57.6679556653628
20
0.469269229734039
30
0
0
SPLINE
5
1C2
100
AcDbEntity
8
1
62
256
6
ByLayer
370
13
48
1
60
0
100
AcDbSpline
70
4
71
3
72
10
73
6
40
0
40
0
40
0
40
0
40
0.292103196373302
40
0.749465259912917
40
1
40
1
40
1
40
1
41
1.04
10
57.6679556653627
20
0.469269229735239
30
0
41
1.04
10
57.6793716311843
20
0.239593936761623
30
0
41
1.04
10
57.7083720512344
20
-0.352114882943511
30
0
41
1.04
10
57.7456162788531
20
-1.09661950662872
30
0
41
1.04
10
57.7709050388125
20
-1.56155939342243
30
0
41
1.04
10
57.7797013562248
20
-1.71646982950057
30
0
0
SPLINE
5
1C3
100
AcDbEntity
8
1
62
256
6
ByLayer
370
18
48
1
60
0
100
AcDbSpline
70
4
71
3
72
25
73
21
40
0
40
0
40
0
40
0
40
0.125000000000001
40
0.125000000000001
40
0.250000000000001
40
0.250000000000001
40
0.312500000000001
40
0.312500000000001
40
0.375000000000002
40
0.375000000000002
40
0.500000000000002
40
0.500000000000002
40
0.625000000000002
40
0.750000000000002
40
0.750000000000002
40
0.812500000000001
40
0.812500000000001
40
0.875000000000001
40
0.875000000000001
40
1
40
1
40
1
40
1
41
1
10
58.1443341279578
20
-2.41078960744065
30
0
41
1
10
58.1391134008995
20
-2.31524567303219
30
0
41
1
10
58.1339214749556
20
-2.21696506357358
30
0
41
1
10
58.1233864262835
20
-2.01499582921835
30
0
41
1
10
58.1180450004618
20
-1.91130730410535
30
0
41
1
10
58.1098690214904
20
-1.75167569974241
30
0
41
1
10
58.107117305399
20
-1.69778106674895
30
0
41
1
10
58.1015620143455
20
-1.58860431316293
30
0
41
1
10
58.0987559818132
20
-1.53327310907355
30
0
41
1
10
58.0902854285092
20
-1.36546618730591
30
0
41
1
10
58.0846383486299
20
-1.25248591835287
30
0
41
1
10
58.0733553662473
20
-1.02437863875966
30
0
41
1
10
58.0620822749131
20
-0.79412426903076
30
0
41
1
10
58.0509723023772
20
-0.559610095587743
30
0
41
1
10
58.0427849870973
20
-0.382101171779397
30
0
41
1
10
58.0400803361718
20
-0.322660578961006
30
0
41
1
10
58.0347361155179
20
-0.203228116130049
30
0
41
1
10
58.0320941618997
20
-0.143109385242212
30
0
41
1
10
58.0242767148724
20
0.0364081481835967
30
0
41
1
10
58.0191844414008
20
0.155371449236554
30
0
41
1
10
58.0140608361787
20
0.273629883217041
30
0
0
SPLINE
5
1C4
100
AcDbEntity
8
1
62
256
6
ByLayer
370
18
48
1
60
0
100
AcDbSpline
70
4
71
3
72
8
73
4
40
0
40
0
40
0
40
0
40
1
40
1
40
1
40
1
41
1
10
58.1331790595372
20
0.14577935639565
30
0
41
1
10
58.1369328596045
20
0.050608779355656
30
0
41
1
10
58.1406459217258
20
-0.0449514201700936
30
0
41
1
10
58.144334127957
20
-0.140909530157387
30
0
0
SPLINE
5
1C5
100
AcDbEntity
8
1
62
256
6
ByLayer
370
18
48
1
60
0
100
AcDbSpline
70
4
71
3
72
8
73
4
40
0
40
0
40
0
40
0
40
1
40
1
40
1
40
1
41
1
10
58.1331790595372
20
0.14577935639565
30
0
41
1
10
58.0934782738811
20
0.188555154593871
30
0
41
1
10
58.0537725249633
20
0.231172072778406
30
0
41
1
10
58.0140608361787
20
0.273629883216955
30
0
0
SPLINE
5
1C6
100
AcDbEntity
8
1
62
256
6
ByLayer
370
18
48
1
60
0
100
AcDbSpline
70
4
71
3
72
106
73
102
40
0
40
0
40
0
40
0
40
0.0156249999999996
40
0.0156249999999996
40
0.0312499999999992
40
0.0312499999999992
40
0.0624999999999984
40
0.0624999999999984
40
0.124999999999993
40
0.124999999999993
40
0.156249999999991
40
0.156249999999991
40
0.164062499999991
40
0.164062499999991
40
0.171874999999991
40
0.171874999999991
40
0.187499999999988
40
0.187499999999988
40
0.218749999999985
40
0.218749999999985
40
0.249999999999982
40
0.249999999999982
40
0.28124999999998
40
0.28124999999998
40
0.296874999999981
40
0.296874999999981
40
0.312499999999982
40
0.312499999999982
40
0.343749999999979
40
0.343749999999979
40
0.374999999999977
40
0.374999999999977
40
0.406249999999974
40
0.406249999999974
40
0.414062499999976
40
0.414062499999976
40
0.421874999999977
40
0.421874999999977
40
0.437499999999981
40
0.437499999999981
40
0.468749999999989
40
0.468749999999989
40
0.47656249999999
40
0.47656249999999
40
0.484374999999991
40
0.484374999999991
40
0.49999999999999
40
0.49999999999999
40
0.515624999999989
40
0.515624999999989
40
0.523437499999988
40
0.523437499999988
40
0.531249999999988
40
0.531249999999988
40
0.546874999999989
40
0.546874999999989
40
0.554687499999989
40
0.554687499999989
40
0.562499999999989
40
0.562499999999989
40
0.57812499999999
40
0.57812499999999
40
0.58203124999999
40
0.58203124999999
40
0.585937499999991
40
0.585937499999991
40
0.593749999999991
40
0.593749999999991
40
0.609374999999992
40
0.609374999999992
40
0.617187499999993
40
0.617187499999993
40
0.624999999999993
40
0.624999999999993
40
0.640624999999994
40
0.640624999999994
40
0.656249999999995
40
0.656249999999995
40
0.671874999999997
40
0.671874999999997
40
0.687499999999998
40
0.687499999999998
40
0.718749999999999
40
0.718749999999999
40
0.734374999999999
40
0.734374999999999
40
0.75
40
0.75
40
0.781249999999999
40
0.781249999999999
40
0.812499999999999
40
0.812499999999999
40
0.843749999999999
40
0.843749999999999
40
0.874999999999998
40
0.874999999999998
40
0.906249999999998
40
0.906249999999998
40
0.937499999999997
40
0.937499999999997
40
1
40
1
40
1
40
1
41
1
10
41.3705444462715
20
-0.503388623228886
30
0
41
1
10
41.3356826524631
20
-0.472571245213516
30
0
41
1
10
41.3006936276357
20
-0.441923170666911
30
0
41
1
10
41.2302622690819
20
-0.381248103628081
30
0
41
1
10
41.1948258211911
20
-0.351212808902716
30
0
41
1
10
41.0877932129338
20
-0.262102076627087
30
0
41
1
10
41.0154782313911
20
-0.204015445712145
30
0
41
1
10
40.7950348888653
20
-0.0346114827873691
30
0
41
1
10
40.6434687357301
20
0.0719367659391139
30
0
41
1
10
40.4063654644745
20
0.218056189008195
30
0
41
1
10
40.325713871522
20
0.26449069717296
30
0
41
1
10
40.2225743463052
20
0.319253378611989
30
0
41
1
10
40.2018293579686
20
0.330040706617524
30
0
41
1
10
40.1600939314308
20
0.351268664638411
30
0
41
1
10
40.1390924143482
20
0.361718450585784
30
0
41
1
10
40.0759615768423
20
0.392416299867079
30
0
41
1
10
40.0336328560518
20
0.412047410398913
30
0
41
1
10
39.9058687679417
20
0.468284455721147
30
0
41
1
10
39.8196721924047
20
0.502289312079625
30
0
41
1
10
39.6448440141175
20
0.562144329598794
30
0
41
1
10
39.55625570723
20
0.588139376643568
30
0
41
1
10
39.3773606361513
20
0.634417137498076
30
0
41
1
10
39.2871132535192
20
0.654892583032932
30
0
41
1
10
39.1504659451098
20
0.6814001705377
30
0
41
1
10
39.1047003959779
20
0.689522805572381
30
0
41
1
10
39.0127096463308
20
0.704259987569657
30
0
41
1
10
38.9664379999496
20
0.710880305534857
30
0
41
1
10
38.8271971820085
20
0.728307272272417
30
0
41
1
10
38.734389909296
20
0.736635723215869
30
0
41
1
10
38.5488186280714
20
0.74619417594883
30
0
41
1
10
38.4560547982393
20
0.747395216955567
30
0
41
1
10
38.2705764076053
20
0.741719964376671
30
0
41
1
10
38.1778620832639
20
0.734805779195312
30
0
41
1
10
38.0620065808154
20
0.720004989620293
30
0
41
1
10
38.0388373680677
20
0.71673388298214
30
0
41
1
10
37.9925029395871
20
0.709532026180597
30
0
41
1
10
37.9693341029042
20
0.705599600089499
30
0
41
1
10
37.900221746874
20
0.692826537138501
30
0
41
1
10
37.8545523716941
20
0.682972700938365
30
0
41
1
10
37.7188482506607
20
0.649084873428961
30
0
41
1
10
37.6300966498434
20
0.620799356961669
30
0
41
1
10
37.5220013512063
20
0.575889804018942
30
0
41
1
10
37.5004792111161
20
0.566401923944426
30
0
41
1
10
37.4580269071909
20
0.546498988438827
30
0
41
1
10
37.4370986278188
20
0.536087970874803
30
0
41
1
10
37.3752592194885
20
0.503391513918274
30
0
41
1
10
37.3352873903686
20
0.479652476441601
30
0
41
1
10
37.258229200889
20
0.427677617838839
30
0
41
1
10
37.2211317201362
20
0.399459052992228
30
0
41
1
10
37.1680248525294
20
0.353143657611156
30
0
41
1
10
37.1507543640808
20
0.337031131657938
30
0
41
1
10
37.1176611068044
20
0.303857503235008
30
0
41
1
10
37.1017696228139
20
0.286741707390263
30
0
41
1
10
37.0561296889859
20
0.233746975010888
30
0
41
1
10
37.0284193300065
20
0.196218173655012
30
0
41
1
10
36.9913648211124
20
0.136252947328273
30
0
41
1
10
36.9797210747294
20
0.115550634732983
30
0
41
1
10
36.9583862469099
20
0.0735963365399641
30
0
41
1
10
36.9486826974764
20
0.0522921599451251
30
0
41
1
10
36.9223612876944
20
-0.0125662393555501
30
0
41
1
10
36.9085228807095
20
-0.0570630003628025
30
0
41
1
10
36.8956104877421
20
-0.114169614058085
30
0
41
1
10
36.8932478151687
20
-0.125665398694736
30
0
41
1
10
36.8889578035229
20
-0.148804404515204
30
0
41
1
10
36.8870271084427
20
-0.160472449634426
30
0
41
1
10
36.8819119867418
20
-0.195484187413626
30
0
41
1
10
36.8794010526053
20
-0.218817830480163
30
0
41
1
10
36.8743434046369
20
-0.288792079854318
30
0
41
1
10
36.8742623914377
20
-0.335405863590182
30
0
41
1
10
36.8784079990884
20
-0.405259936004057
30
0
41
1
10
36.8805104567005
20
-0.428587495992446
30
0
41
1
10
36.8860261616488
20
-0.474966015264471
30
0
41
1
10
36.8893583084003
20
-0.497950180817014
30
0
41
1
10
36.901028113741
20
-0.56630711204653
30
0
41
1
10
36.9110931758413
20
-0.611069964881779
30
0
41
1
10
36.9357662967663
20
-0.699018314573067
30
0
41
1
10
36.9503687657663
20
-0.742205366777256
30
0
41
1
10
36.9838212915141
20
-0.827108468676528
30
0
41
1
10
37.002768375805
20
-0.868971185414921
30
0
41
1
10
37.043410160097
20
-0.950080096825189
30
0
41
1
10
37.0651557202696
20
-0.989488920483893
30
0
41
1
10
37.1337318911267
20
-1.10493656170308
30
0
41
1
10
37.1838876006897
20
-1.17821144722265
30
0
41
1
10
37.2634195643902
20
-1.28422678046778
30
0
41
1
10
37.2906644523177
20
-1.31890325218845
30
0
41
1
10
37.3463974181684
20
-1.38708966004941
30
0
41
1
10
37.3749363606698
20
-1.42065457662292
30
0
41
1
10
37.4616356916048
20
-1.51920349881112
30
0
41
1
10
37.5209335624993
20
-1.58216292484803
30
0
41
1
10
37.6415745889946
20
-1.70372700971902
30
0
41
1
10
37.7029245185227
20
-1.76232334074831
30
0
41
1
10
37.8270743913621
20
-1.87583483998634
30
0
41
1
10
37.88987757711
20
-1.93074600884555
30
0
41
1
10
38.0165298152558
20
-2.03731246105065
30
0
41
1
10
38.0803805490256
20
-2.08896566172325
30
0
41
1
10
38.2088471572336
20
-2.18927681365099
30
0
41
1
10
38.2734562896097
20
-2.23793859096344
30
0
41
1
10
38.4032823658146
20
-2.33238445895725
30
0
41
1
10
38.4685688486655
20
-2.37820414601501
30
0
41
1
10
38.6640265943814
20
-2.51076364058943
30
0
41
1
10
38.7940703882865
20
-2.59287238275934
30
0
41
1
10
38.923618535485
20
-2.6687102974735
30
0
0
SPLINE
5
1C7
100
AcDbEntity
8
1
62
256
6
ByLayer
370
18
48
1
60
0
100
AcDbSpline
70
4
71
3
72
34
73
30
40
0
40
0
40
0
40
0
40
0.0264308729966289
40
0.0264308729966289
40
0.0903167723934919
40
0.0903167723934919
40
0.218088571187216
40
0.218088571187216
40
0.281974470584079
40
0.281974470584079
40
0.345860369980941
40
0.345860369980941
40
0.409746269377804
40
0.409746269377804
40
0.473632168774667
40
0.473632168774667
40
0.537518068171529
40
0.537518068171529
40
0.601403967568392
40
0.601403967568392
40
0.729175766362117
40
0.729175766362117
40
0.793061665758979
40
0.793061665758979
40
0.856947565155842
40
0.856947565155842
40
0.984719363949566
40
0.984719363949566
40
1
40
1
40
1
40
1
41
1
10
40.9107174700784
20
-0.108086808552315
30
0
41
1
10
40.8891021871896
20
-0.103108621005902
30
0
41
1
10
40.8670033778143
20
-0.099305101557178
30
0
41
1
10
40.7897572347608
20
-0.0905168647774417
30
0
41
1
10
40.7318144733239
20
-0.0923232951897432
30
0
41
1
10
40.5517482273723
20
-0.112896946610505
30
0
41
1
10
40.4284526466809
20
-0.145646400895629
30
0
41
1
10
40.2387640621147
20
-0.226870059418701
30
0
41
1
10
40.1741290926225
20
-0.259760591153309
30
0
41
1
10
40.0465254505374
20
-0.33589346747533
30
0
41
1
10
39.9834621092324
20
-0.379075852661799
30
0
41
1
10
39.8588853225794
20
-0.476177797270623
30
0
41
1
10
39.7968094859429
20
-0.530664484042973
30
0
41
1
10
39.6773483463453
20
-0.648402463690502
30
0
41
1
10
39.6201978872995
20
-0.711281407726318
30
0
41
1
10
39.5109148890957
20
-0.84483804202074
30
0
41
1
10
39.4584780405277
20
-0.91597535447616
30
0
41
1
10
39.3600178677901
20
-1.06393321931603
30
0
41
1
10
39.3145372301941
20
-1.13982463612288
30
0
41
1
10
39.1881384795169
20
-1.37262161041474
30
0
41
1
10
39.1174463842951
20
-1.53557631325052
30
0
41
1
10
39.0308133870222
20
-1.77770099430708
30
0
41
1
10
39.0042537370174
20
-1.85847793529786
30
0
41
1
10
38.9611403684106
20
-2.02032842755406
30
0
41
1
10
38.94498537315
20
-2.10026135360565
30
0
41
1
10
38.9115784419231
20
-2.3320167195119
30
0
41
1
10
38.9079004959786
20
-2.47906281105063
30
0
41
1
10
38.920201945529
20
-2.63576675085986
30
0
41
1
10
38.9218045075306
20
-2.65230729698197
30
0
41
1
10
38.9236177336926
20
-2.66870304755292
30
0
0
SPLINE
5
1C8
100
AcDbEntity
8
SK1
62
256
6
ByLayer
370
18
48
1
60
0
100
AcDbSpline
70
4
71
3
72
25
73
21
40
0
40
0
40
0
40
0
40
0.125067071228876
40
0.125067071228876
40
0.187600606843314
40
0.187600606843314
40
0.250134142457752
40
0.250134142457752
40
0.375201213686628
40
0.375201213686628
40
0.500268284915504
40
0.625335356144381
40
0.625335356144381
40
0.687868891758819
40
0.687868891758819
40
0.750402427373257
40
0.750402427373257
40
0.875469498602134
40
0.875469498602134
40
1
40
1
40
1
40
1
41
1
10
-23.4500000000001
20
3.02499999999998
30
0
41
1
10
-23.5074802369517
20
3.02499999999998
30
0
41
1
10
-23.563618367439
20
3.02499999999998
30
0
41
1
10
-23.6453496028415
20
3.02499999999998
30
0
41
1
10
-23.672203368939
20
3.02499999999998
30
0
41
1
10
-23.7248577335834
20
3.02499999999998
30
0
41
1
10
-23.7506505185036
20
3.02499999999998
30
0
41
1
10
-23.8262698112998
20
3.02499999999998
30
0
41
1
10
-23.8743434204951
20
3.02499999999998
30
0
41
1
10
-23.9648434087796
20
3.02499999999998
30
0
41
1
10
-24.0496975587445
20
3.02499999999998
30
0
41
1
10
-24.1209081515016
20
3.02499999999998
30
0
41
1
10
-24.1681450988509
20
3.02499999999998
30
0
41
1
10
-24.1828603997798
20
3.02499999999998
30
0
41
1
10
-24.2100328109391
20
3.02499999999998
30
0
41
1
10
-24.222500417408
20
3.02499999999998
30
0
41
1
10
-24.2561328365472
20
3.02499999999998
30
0
41
1
10
-24.2732420010248
20
3.02499999999998
30
0
41
1
10
-24.2961130101932
20
3.02499999999998
30
0
41
1
10
-24.3019209147998
20
3.02499999999998
30
0
41
1
10
-24.3019599999991
20
3.02499999999998
30
0
0
SPLINE
5
1C9
100
AcDbEntity
8
SK1
62
256
6
ByLayer
370
18
48
1
60
0
100
AcDbSpline
70
4
71
3
72
25
73
21
40
0
40
0
40
0
40
0
40
0.124530506070189
40
0.124530506070189
40
0.249597576631591
40
0.249597576631591
40
0.312131111912292
40
0.312131111912292
40
0.374664647192992
40
0.374664647192992
40
0.499731717754394
40
0.624798788315796
40
0.624798788315796
40
0.749865858877197
40
0.749865858877197
40
0.812399394157898
40
0.812399394157898
40
0.874932929438599
40
0.874932929438599
40
1
40
1
40
1
40
1
41
1
10
-24.3019600000041
20
-3.02500000000006
30
0
41
1
10
-24.3019209152976
20
-3.02500000000006
30
0
41
1
10
-24.2961130106822
20
-3.02500000000006
30
0
41
1
10
-24.2732420010248
20
-3.02500000000003
30
0
41
1
10
-24.2561328365472
20
-3.02500000000003
30
0
41
1
10
-24.222500417408
20
-3.02500000000003
30
0
41
1
10
-24.2100328109391
20
-3.02500000000003
30
0
41
1
10
-24.1828603997798
20
-3.02500000000003
30
0
41
1
10
-24.1681450988509
20
-3.02500000000003
30
0
41
1
10
-24.1209081515016
20
-3.02500000000003
30
0
41
1
10
-24.0496975587445
20
-3.02500000000003
30
0
41
1
10
-23.9648434087796
20
-3.02500000000003
30
0
41
1
10
-23.874343420495
20
-3.02500000000003
30
0
41
1
10
-23.8262698112998
20
-3.02500000000003
30
0
41
1
10
-23.7506505185036
20
-3.02500000000003
30
0
41
1
10
-23.7248577335834
20
-3.02500000000003
30
0
41
1
10
-23.672203368939
20
-3.02500000000003
30
0
41
1
10
-23.6453496028415
20
-3.02500000000003
30
0
41
1
10
-23.563618367439
20
-3.02500000000003
30
0
41
1
10
-23.5074802369517
20
-3.02500000000003
30
0
41
1
10
-23.45
20
-3.02500000000003
30
0
0
SPLINE
5
1CA
100
AcDbEntity
8
SK1
62
256
6
ByLayer
370
18
48
1
60
0
100
AcDbSpline
70
4
71
3
72
44
73
40
40
0
40
0
40
0
40
0
40
0.0624999999999999
40
0.0624999999999999
40
0.125
40
0.125
40
0.15625
40
0.15625
40
0.1875
40
0.1875
40
0.25
40
0.25
40
0.375
40
0.375
40
0.40625
40
0.40625
40
0.421875
40
0.421875
40
0.437499999999999
40
0.437499999999999
40
0.5
40
0.5625
40
0.5625
40
0.625
40
0.625
40
0.65625
40
0.65625
40
0.6875
40
0.6875
40
0.75
40
0.8125
40
0.8125
40
0.875
40
0.875
40
0.90625
40
0.90625
40
0.9375
40
0.9375
40
1
40
1
40
1
40
1
41
1
10
-23.4500000000001
20
-2.42491109973139
30
0
41
1
10
-23.5071573980625
20
-2.33352756570559
30
0
41
1
10
-23.5629683498709
20
-2.24116665688408
30
0
41
1
10
-23.6712899833967
20
-2.05404919901645
30
0
41
1
10
-23.7238025944584
20
-1.9592940504663
30
0
41
1
10
-23.7995052164022
20
-1.8149355283586
30
0
41
1
10
-23.82422676175
20
-1.76644388368075
30
0
41
1
10
-23.8725229031571
20
-1.66862803281498
30
0
41
1
10
-23.8960537133059
20
-1.61938810198265
30
0
41
1
10
-23.9643638771543
20
-1.47109727497516
30
0
41
1
10
-24.0069637800502
20
-1.37128188593556
30
0
41
1
10
-24.1242300553216
20
-1.06841496591713
30
0
41
1
10
-24.1884377154215
20
-0.861966947873981
30
0
41
1
10
-24.2442506345047
20
-0.595967826430581
30
0
41
1
10
-24.2541852871314
20
-0.542369229110136
30
0
41
1
10
-24.267101216653
20
-0.461326359734926
30
0
41
1
10
-24.271080110494
20
-0.434168843470644
30
0
41
1
10
-24.2783288084576
20
-0.379806302736256
30
0
41
1
10
-24.2815946585719
20
-0.352638580224948
30
0
41
1
10
-24.2961194713312
20
-0.216868158297842
30
0
41
1
10
-24.3077795437009
20
-7.30832911415E-05
30
0
41
1
10
-24.2961621769114
20
0.215842325363468
30
0
41
1
10
-24.2732420010248
20
0.431330595071302
30
0
41
1
10
-24.2561328365472
20
0.538861248428674
30
0
41
1
10
-24.222500417408
20
0.699856088251096
30
0
41
1
10
-24.2100328109391
20
0.753133927007639
30
0
41
1
10
-24.1828603997798
20
0.858683822025057
30
0
41
1
10
-24.1681450988509
20
0.911006780527543
30
0
41
1
10
-24.1209081515016
20
1.06673827766744
30
0
41
1
10
-24.0496975587445
20
1.27108651848636
30
0
41
1
10
-23.9648434087796
20
1.46997309668484
30
0
41
1
10
-23.874343420495
20
1.66659958511042
30
0
41
1
10
-23.8262698112998
20
1.76378250586328
30
0
41
1
10
-23.7506505185036
20
1.9081522450065
30
0
41
1
10
-23.7248577335834
20
1.95604076758281
30
0
41
1
10
-23.672203368939
20
2.05138996268553
30
0
41
1
10
-23.6453496028415
20
2.09883419978092
30
0
41
1
10
-23.563618367439
20
2.24009258071769
30
0
41
1
10
-23.5074802369517
20
2.33301140927378
30
0
41
1
10
-23.45
20
2.42491109973125
30
0
0
SPLINE
5
1CB
100
AcDbEntity
8
1
62
256
6
ByLayer
370
18
48
1
60
0
100
AcDbSpline
70
4
71
2
72
6
73
3
40
0
40
0
40
0
40
1
40
1
40
1
41
1
10
56.4463267446517
20
-3.74983594732316
30
0
41
1
10
56.5232378800897
20
-3.61717910027664
30
0
41
1
10
56.6002313163136
20
-3.48454372858376
30
0
0
SPLINE
5
1CC
100
AcDbEntity
8
1
62
256
6
ByLayer
370
18
48
1
60
0
100
AcDbSpline
70
4
71
2
72
6
73
3
40
0
40
0
40
0
40
1
40
1
40
1
41
1
10
63.233083504292
20
-3.40679918711382
30
0
41
1
10
63.2583810615349
20
-3.45042134769386
30
0
41
1
10
63.2836694208186
20
-3.49404802621009
30
0
0
SPLINE
5
1CD
100
AcDbEntity
8
1
62
256
6
ByLayer
370
18
48
1
60
0
100
AcDbSpline
70
4
71
1
72
4
73
2
40
0
40
0
40
1
40
1
41
1
10
61.7741676905848
20
-3.68811927594908
30
0
41
1
10
61.9368949676806
20
-3.40751647351343
30
0
0
SPLINE
5
1CE
100
AcDbEntity
8
1
62
256
6
ByLayer
370
18
48
1
60
0
100
AcDbSpline
70
4
71
2
72
6
73
3
40
0
40
0
40
0
40
1
40
1
40
1
41
1
10
65.3500000000002
20
3.33702450999354
30
0
41
1
10
65.256697340322
20
3.32371968559764
30
0
41
1
10
65.1621747515135
20
3.31707467754862
30
0
0
SPLINE
5
1CF
100
AcDbEntity
8
1
62
256
6
ByLayer
370
18
48
1
60
0
100
AcDbSpline
70
4
71
2
72
6
73
3
40
0
40
0
40
0
40
1
40
1
40
1
41
1
10
55.8249515196462
20
-3.4069365087694
30
0
41
1
10
55.9164972013417
20
-3.56480528569622
30
0
41
1
10
56.0079788384616
20
-3.72270857010653
30
0
0
SPLINE
5
1D0
100
AcDbEntity
8
1
62
256
6
ByLayer
370
18
48
1
60
0
100
AcDbSpline
70
4
71
2
72
6
73
3
40
0
40
0
40
0
40
1
40
1
40
1
41
1
10
58.2330718594379
20
3.40772089622715
30
0
41
1
10
58.0796160984223
20
3.6722100508232
30
0
41
1
10
57.9263468942083
20
3.93681799036952
30
0
0
SPLINE
5
1D1
100
AcDbEntity
8
1
62
256
6
ByLayer
370
18
48
1
60
0
100
AcDbSpline
70
4
71
2
72
6
73
3
40
0
40
0
40
0
40
1
40
1
40
1
41
1
10
63.3240803002532
20
-3.52805156853685
30
0
41
1
10
63.6776395649176
20
-3.37159977820255
30
0
41
1
10
64.0525394595034
20
-3.28891304893043
30
0
0
SPLINE
5
1D2
100
AcDbEntity
8
1
62
256
6
ByLayer
370
18
48
1
60
0
100
AcDbSpline
70
4
71
3
72
11
73
7
40
0
40
0
40
0
40
0
40
0.247633203635805
40
0.499550901055068
40
0.755001097322652
40
1
40
1
40
1
40
1
41
1
10
55.5871756667248
20
-3.40711183812513
30
0
41
1
10
55.5926022001718
20
-3.39363374464142
30
0
41
1
10
55.6140690019321
20
-3.37139835275644
30
0
41
1
10
55.6816527593436
20
-3.33544859504949
30
0
41
1
10
55.7753089782912
20
-3.34992950796686
30
0
41
1
10
55.8134071638496
20
-3.38791739572588
30
0
41
1
10
55.8296167428541
20
-3.41368716549354
30
0
0
SPLINE
5
1D3
100
AcDbEntity
8
1
62
256
6
ByLayer
370
18
48
1
60
0
100
AcDbSpline
70
4
71
3
72
11
73
7
40
0
40
0
40
0
40
0
40
0.249604979359699
40
0.501691666436813
40
0.756382549635514
40
1
40
1
40
1
40
1
41
1
10
58.4708049217734
20
3.40741708065656
30
0
41
1
10
58.4655393700526
20
3.39409142885336
30
0
41
1
10
58.4442437939103
20
3.37216384417198
30
0
41
1
10
58.3767755781847
20
3.33610990064912
30
0
41
1
10
58.2830956176786
20
3.35041059391401
30
0
41
1
10
58.2449469078972
20
3.38838982106211
30
0
41
1
10
58.2286902423645
20
3.41410556631769
30
0
0
SPLINE
5
1D4
100
AcDbEntity
8
1
62
256
6
ByLayer
370
18
48
1
60
0
100
AcDbSpline
70
4
71
3
72
11
73
7
40
0
40
0
40
0
40
0
40
0.222467232298844
40
0.466168308213045
40
0.728742206933176
40
1
40
1
40
1
40
1
41
1
10
62.9954844693203
20
-3.40692160525484
30
0
41
1
10
63.0019158937845
20
-3.39323357943192
30
0
41
1
10
63.02391691151
20
-3.36974388768954
30
0
41
1
10
63.0920030142983
20
-3.33516188950063
30
0
41
1
10
63.1842154267913
20
-3.35093914205956
30
0
41
1
10
63.2194083650007
20
-3.38390028765627
30
0
41
1
10
63.2336306659816
20
-3.40772505924423
30
0
0
SPLINE
5
1D5
100
AcDbEntity
8
1
62
256
6
ByLayer
370
18
48
1
60
0
100
AcDbSpline
70
4
71
2
72
6
73
3
40
0
40
0
40
0
40
1
40
1
40
1
41
1
10
55.4548811649335
20
-3.63509575491534
30
0
41
1
10
55.5214275150726
20
-3.52035065284809
30
0
41
1
10
55.5880015166193
20
-3.40565243264521
30
0
0
SPLINE
5
1D6
100
AcDbEntity
8
1
62
256
6
ByLayer
370
18
48
1
60
0
100
AcDbSpline
70
4
71
2
72
6
73
3
40
0
40
0
40
0
40
1
40
1
40
1
41
1
10
62.7803160847714
20
-3.77784045117045
30
0
41
1
10
62.8872792484019
20
-3.59330274702393
30
0
41
1
10
62.9943216903696
20
-3.40883981522657
30
0
0
SPLINE
5
1D7
100
AcDbEntity
8
1
62
256
6
ByLayer
370
18
48
1
60
0
100
AcDbSpline
70
4
71
2
72
6
73
3
40
0
40
0
40
0
40
1
40
1
40
1
41
1
10
58.8208538227609
20
4.01174027468787
30
0
41
1
10
58.6459811901097
20
3.70960304435241
30
0
41
1
10
58.4708916804868
20
3.40756732497155
30
0
0
SPLINE
5
1D8
100
AcDbEntity
8
1
62
256
6
ByLayer
370
18
48
1
60
0
100
AcDbSpline
70
4
71
2
72
6
73
3
40
0
40
0
40
0
40
1
40
1
40
1
41
1
10
54.7665791554122
20
-3.40731513891146
30
0
41
1
10
54.8081141748295
20
-3.47893914994765
30
0
41
1
10
54.8496411264961
20
-3.55057890395807
30
0
0
SPLINE
5
1D9
100
AcDbEntity
8
1
62
256
6
ByLayer
370
18
48
1
60
0
100
AcDbSpline
70
4
71
2
72
6
73
3
40
0
40
0
40
0
40
1
40
1
40
1
41
1
10
59.2898243701638
20
3.40908638083241
30
0
41
1
10
59.1156814037656
20
3.70929395148855
30
0
41
1
10
58.941608452359
20
4.00978715856431
30
0
0
SPLINE
5
1DA
100
AcDbEntity
8
1
62
256
6
ByLayer
370
18
48
1
60
0
100
AcDbSpline
70
4
71
2
72
6
73
3
40
0
40
0
40
0
40
1
40
1
40
1
41
1
10
62.5010579204666
20
-3.93588987545201
30
0
41
1
10
62.6518425350352
20
-3.84822892087877
30
0
41
1
10
62.812435167218
20
-3.76543088413814
30
0
0
SPLINE
5
1DB
100
AcDbEntity
8
1
62
256
6
ByLayer
370
18
48
1
60
0
100
AcDbSpline
70
4
71
2
72
6
73
3
40
0
40
0
40
0
40
1
40
1
40
1
41
1
10
62.1742761196826
20
-3.40650517175644
30
0
41
1
10
62.3208677078774
20
-3.65932823884884
30
0
41
1
10
62.4673483173648
20
-3.91234073456525
30
0
0
SPLINE
5
1DC
100
AcDbEntity
8
1
62
256
6
ByLayer
370
18
48
1
60
0
100
AcDbSpline
70
4
71
3
72
11
73
7
40
0
40
0
40
0
40
0
40
0.253787332216146
40
0.510825282928354
40
0.759776693635767
40
1
40
1
40
1
40
1
41
1
10
54.5267847883808
20
-3.4097489712662
30
0
41
1
10
54.5421586382975
20
-3.38508631781807
30
0
41
1
10
54.578891854192
20
-3.34969620271633
30
0
41
1
10
54.6720249570415
20
-3.33532021714444
30
0
41
1
10
54.7394278987637
20
-3.37121886084358
30
0
41
1
10
54.7607239693811
20
-3.39349487580259
30
0
41
1
10
54.7662831558439
20
-3.40681155910846
30
0
0
SPLINE
5
1DD
100
AcDbEntity
8
1
62
256
6
ByLayer
370
18
48
1
60
0
100
AcDbSpline
70
4
71
3
72
11
73
7
40
0
40
0
40
0
40
0
40
0.249122261308681
40
0.504942547536635
40
0.755446110324776
40
1
40
1
40
1
40
1
41
1
10
59.5313872884233
20
3.41108698310308
30
0
41
1
10
59.515662235808
20
3.38607154500301
30
0
41
1
10
59.4783954993461
20
3.34974363537762
30
0
41
1
10
59.3850189732262
20
3.33559091432372
30
0
41
1
10
59.3177390314682
20
3.37165087936441
30
0
41
1
10
59.2964806106659
20
3.39374363326331
30
0
41
1
10
59.2910715748913
20
3.4070341926313
30
0
0
SPLINE
5
1DE
100
AcDbEntity
8
1
62
256
6
ByLayer
370
18
48
1
60
0
100
AcDbSpline
70
4
71
2
72
6
73
3
40
0
40
0
40
0
40
1
40
1
40
1
41
1
10
54.4794502880019
20
-3.49153536794142
30
0
41
1
10
54.5040598981512
20
-3.44911819251914
30
0
41
1
10
54.528675241978
20
-3.40670423649479
30
0
0
SPLINE
5
1DF
100
AcDbEntity
8
1
62
256
6
ByLayer
370
18
48
1
60
0
100
AcDbSpline
70
4
71
3
72
11
73
7
40
0
40
0
40
0
40
0
40
0.245481732084969
40
0.50232230941899
40
0.757997239582681
40
1
40
1
40
1
40
1
41
1
10
61.9301206204058
20
-3.4164133397239
30
0
41
1
10
61.9410860391583
20
-3.39519974979217
30
0
41
1
10
61.9713262032679
20
-3.36215489706211
30
0
41
1
10
62.0530851548689
20
-3.33335926812447
30
0
41
1
10
62.1350281707221
20
-3.35891333772696
30
0
41
1
10
62.1654656545389
20
-3.39013808646669
30
0
41
1
10
62.176606773431
20
-3.41035284329547
30
0
0
SPLINE
5
1E0
100
AcDbEntity
8
1
62
256
6
ByLayer
370
18
48
1
60
0
100
AcDbSpline
70
4
71
2
72
6
73
3
40
0
40
0
40
0
40
1
40
1
40
1
41
1
10
59.8779524037317
20
4.00964426505107
30
0
41
1
10
59.7034639651885
20
3.70825509682155
30
0
41
1
10
59.5287726550527
20
3.40698608516109
30
0
0
SPLINE
5
1E1
100
AcDbEntity
8
1
62
256
6
ByLayer
370
18
48
1
60
0
100
AcDbSpline
70
4
71
2
72
6
73
3
40
0
40
0
40
0
40
1
40
1
40
1
41
1
10
60.3536017996794
20
3.39843481891879
30
0
41
1
10
60.1793823797858
20
3.69805718020896
30
0
41
1
10
60.0052249899471
20
3.99813956105675
30
0
0
SPLINE
5
1E2
100
AcDbEntity
8
1
62
256
6
ByLayer
370
18
48
1
60
0
100
AcDbSpline
70
4
71
2
72
6
73
3
40
0
40
0
40
0
40
1
40
1
40
1
41
1
10
61.1094721926419
20
-3.39223133514656
30
0
41
1
10
61.2835245539441
20
-3.69135891485646
30
0
41
1
10
61.4575271670621
20
-3.99095748718312
30
0
0
LINE
5
82
100
AcDbEntity
8
4
62
256
6
ByLayer
370
18
48
0.05
60
0
100
AcDbLine
10
-5
20
0
30
0
11
70.35
21
0
31
0
39
0
210
0
220
0
230
1
0
LINE
5
84
100
AcDbEntity
8
81
62
256
6
ByLayer
370
18
48
1
60
0
100
AcDbLine
10
65.35
20
0
30
0
11
70.35
21
0
31
0
39
0
210
0
220
0
230
1
0
LINE
5
85
100
AcDbEntity
8
SK4
62
256
6
ByLayer
370
18
48
0.05
60
0
100
AcDbLine
10
-29.65
20
0
30
0
11
70.35
21
0
31
0
39
0
210
0
220
0
230
1
0
LINE
5
87
100
AcDbEntity
8
80
62
256
6
ByLayer
370
18
48
1
60
0
100
AcDbLine
10
0
20
0
30
0
11
-5
21
0
31
0
39
0
210
0
220
0
230
1
0
LINE
5
88
100
AcDbEntity
8
1
62
256
6
ByLayer
370
18
48
1
60
0
100
AcDbLine
10
0
20
4.0385
30
0
11
0
21
-4.0385
31
0
39
0
210
0
220
0
230
1
0
LINE
5
89
100
AcDbEntity
8
1
62
256
6
ByLayer
370
18
48
1
60
0
100
AcDbLine
10
65.35
20
3.337083
30
0
11
65.35
21
3.344911
31
0
39
0
210
0
220
0
230
1
0
LINE
5
8A
100
AcDbEntity
8
1
62
256
6
ByLayer
370
18
48
1
60
0
100
AcDbLine
10
65.55
20
3.145
30
0
11
65.55
21
3.142205
31
0
39
0
210
0
220
0
230
1
0
LINE
5
8B
100
AcDbEntity
8
1
62
256
6
ByLayer
370
18
48
1
60
0
100
AcDbLine
10
57.742635
20
3.958884
30
0
11
57.737859
21
3.959526
31
0
39
0
210
0
220
0
230
1
0
LINE
5
8C
100
AcDbEntity
8
1
62
256
6
ByLayer
370
18
48
1
60
0
100
AcDbLine
10
55.82502
20
-3.407054
30
0
11
55.829693
21
-3.413776
31
0
39
0
210
0
220
0
230
1
0
LINE
5
8D
100
AcDbEntity
8
1
62
256
6
ByLayer
370
18
48
1
60
0
100
AcDbLine
10
55.584997
20
-3.410566
30
0
11
55.587997
21
-3.40566
31
0
39
0
210
0
220
0
230
1
0
LINE
5
8E
100
AcDbEntity
8
1
62
256
6
ByLayer
370
18
48
1
60
0
100
AcDbLine
10
54.526299
20
-3.410463
30
0
11
54.528631
21
-3.40678
31
0
39
0
210
0
220
0
230
1
0
LINE
5
8F
100
AcDbEntity
8
1
62
256
6
ByLayer
370
18
48
1
60
0
100
AcDbLine
10
62.174388
20
-3.406705
30
0
11
62.177023
21
-3.410971
31
0
39
0
210
0
220
0
230
1
0
LINE
5
90
100
AcDbEntity
8
1
62
256
6
ByLayer
370
18
48
1
60
0
100
AcDbLine
10
59.528797
20
3.407028
30
0
11
59.531995
21
3.411923
31
0
39
0
210
0
220
0
230
1
0
LINE
5
91
100
AcDbEntity
8
1
62
256
6
ByLayer
370
18
48
1
60
0
100
AcDbLine
10
53.35
20
-3.287124
30
0
11
53.35
21
-2.320122
31
0
39
0
210
0
220
0
230
1
0
LINE
5
92
100
AcDbEntity
8
1
62
256
6
ByLayer
370
18
48
1
60
0
100
AcDbLine
10
53.35
20
2.169967
30
0
11
53.35
21
3.244231
31
0
39
0
210
0
220
0
230
1
0
LINE
5
93
100
AcDbEntity
8
1
62
256
6
ByLayer
370
13
48
1
60
0
100
AcDbLine
10
52.865493
20
-3.061038
30
0
11
52.865493
21
-1.924873
31
0
39
0
210
0
220
0
230
1
0
LINE
5
94
100
AcDbEntity
8
1
62
256
6
ByLayer
370
13
48
1
60
0
100
AcDbLine
10
52.865493
20
2.42447
30
0
11
52.865493
21
3.209159
31
0
39
0
210
0
220
0
230
1
0
LINE
5
95
100
AcDbEntity
8
1
62
256
6
ByLayer
370
13
48
1
60
0
100
AcDbLine
10
31.946238
20
-3.2304
30
0
11
31.946238
21
3.2304
31
0
39
0
210
0
220
0
230
1
0
LINE
5
96
100
AcDbEntity
8
1
62
256
6
ByLayer
370
18
48
1
60
0
100
AcDbLine
10
65.55
20
0.128947
30
0
11
65.55
21
-1.685905
31
0
39
0
210
0
220
0
230
1
0
LINE
5
97
100
AcDbEntity
8
1
62
256
6
ByLayer
370
13
48
1
60
0
100
AcDbLine
10
31.755225
20
3.247111
30
0
11
31.755225
21
-3.247111
31
0
39
0
210
0
220
0
230
1
0
LINE
5
98
100
AcDbEntity
8
1
62
256
6
ByLayer
370
18
48
1
60
0
100
AcDbLine
10
27.267037
20
4.0385
30
0
11
27.267037
21
-4.0385
31
0
39
0
210
0
220
0
230
1
0
LINE
5
99
100
AcDbEntity
8
1
62
256
6
ByLayer
370
18
48
1
60
0
100
AcDbLine
10
58.144334
20
-2.41079
30
0
11
58.144334
21
-0.14091
31
0
39
0
210
0
220
0
230
1
0
LINE
5
9A
100
AcDbEntity
8
SK1
62
256
6
ByLayer
370
18
48
1
60
0
100
AcDbLine
10
-24.65
20
2.67696
30
0
11
-24.65
21
-2.67696
31
0
39
0
210
0
220
0
230
1
0
LINE
5
9C
100
AcDbEntity
8
SK1
62
256
6
ByLayer
370
18
48
1
60
0
100
AcDbLine
10
-15
20
2.424911
30
0
11
-15
21
-2.424911
31
0
39
0
210
0
220
0
230
1
0
LINE
5
9D
100
AcDbEntity
8
SK1
62
256
6
ByLayer
370
18
48
1
60
0
100
AcDbLine
10
-14.14804
20
3.87696
30
0
11
-15
21
3.025
31
0
39
0
210
0
220
0
230
1
0
LINE
5
9E
100
AcDbEntity
8
SK1
62
256
6
ByLayer
370
18
48
1
60
0
100
AcDbLine
10
-23.45
20
3.025
30
0
11
-15
21
3.025
31
0
39
0
210
0
220
0
230
1
0
LINE
5
9F
100
AcDbEntity
8
SK1
62
256
6
ByLayer
370
18
48
1
60
0
100
AcDbLine
10
-23.45
20
2.424911
30
0
11
-23.45
21
3.025
31
0
39
0
210
0
220
0
230
1
0
LINE
5
A0
100
AcDbEntity
8
SK1
62
256
6
ByLayer
370
18
48
1
60
0
100
AcDbLine
10
-15
20
2.424911
30
0
11
-23.45
21
2.424911
31
0
39
0
210
0
220
0
230
1
0
LINE
5
A1
100
AcDbEntity
8
SK1
62
256
6
ByLayer
370
18
48
1
60
0
100
AcDbLine
10
-23.45
20
-2.424911
30
0
11
-15
21
-2.424911
31
0
39
0
210
0
220
0
230
1
0
LINE
5
A2
100
AcDbEntity
8
SK1
62
256
6
ByLayer
370
18
48
1
60
0
100
AcDbLine
10
-23.45
20
-3.025
30
0
11
-23.45
21
-2.424911
31
0
39
0
210
0
220
0
230
1
0
LINE
5
A3
100
AcDbEntity
8
SK1
62
256
6
ByLayer
370
18
48
1
60
0
100
AcDbLine
10
-15
20
-3.025
30
0
11
-23.45
21
-3.025
31
0
39
0
210
0
220
0
230
1
0
LINE
5
A4
100
AcDbEntity
8
SK1
62
256
6
ByLayer
370
18
48
1
60
0
100
AcDbLine
10
-15
20
-3.025
30
0
11
-14.14804
21
-3.87696
31
0
39
0
210
0
220
0
230
1
0
LINE
5
A5
100
AcDbEntity
8
SK1
62
256
6
ByLayer
370
18
48
1
60
0
100
AcDbLine
10
-14.035
20
3.87696
30
0
11
-14.035
21
-3.87696
31
0
39
0
210
0
220
0
230
1
0
LINE
5
A6
100
AcDbEntity
8
SK1
62
256
6
ByLayer
370
18
48
1
60
0
100
AcDbLine
10
0
20
4.0385
30
0
11
0
21
-4.0385
31
0
39
0
210
0
220
0
230
1
0
LINE
5
A7
100
AcDbEntity
8
SK1
62
256
6
ByLayer
370
18
48
1
60
0
100
AcDbLine
10
-13.87346
20
-4.0385
30
0
11
-13.87346
21
4.0385
31
0
39
0
210
0
220
0
230
1
0
LINE
5
A8
100
AcDbEntity
8
1
62
256
6
ByLayer
370
18
48
1
60
0
100
AcDbLine
10
56.009522
20
-3.716623
30
0
11
56.331968
21
-3.76194
31
0
39
0
210
0
220
0
230
1
0
LINE
5
A9
100
AcDbEntity
8
1
62
256
6
ByLayer
370
18
48
1
60
0
100
AcDbLine
10
27.267037
20
4.0385
30
0
11
0
21
4.0385
31
0
39
0
210
0
220
0
230
1
0
LINE
5
AA
100
AcDbEntity
8
1
62
256
6
ByLayer
370
18
48
1
60
0
100
AcDbLine
10
0
20
-4.0385
30
0
11
27.267037
21
-4.0385
31
0
39
0
210
0
220
0
230
1
0
LINE
5
AB
100
AcDbEntity
8
1
62
256
6
ByLayer
370
18
48
1
60
0
100
AcDbLine
10
65.55
20
3.145
30
0
11
65.356413
21
3.338587
31
0
39
0
210
0
220
0
230
1
0
LINE
5
AC
100
AcDbEntity
8
1
62
256
6
ByLayer
370
18
48
1
60
0
100
AcDbLine
10
57.892806
20
3.981301
30
0
11
57.737339
21
3.959452
31
0
39
0
210
0
220
0
230
1
0
LINE
5
AD
100
AcDbEntity
8
1
62
256
6
ByLayer
370
18
48
1
60
0
100
AcDbLine
10
54.857749
20
-3.554752
30
0
11
55.445858
21
-3.637405
31
0
39
0
210
0
220
0
230
1
0
LINE
5
AE
100
AcDbEntity
8
1
62
256
6
ByLayer
370
18
48
1
60
0
100
AcDbLine
10
58.931547
20
4.016651
30
0
11
58.829395
21
4.016651
31
0
39
0
210
0
220
0
230
1
0
LINE
5
AF
100
AcDbEntity
8
1
62
256
6
ByLayer
370
18
48
1
60
0
100
AcDbLine
10
53.976728
20
-3.430932
30
0
11
54.466605
21
-3.49978
31
0
39
0
210
0
220
0
230
1
0
LINE
5
B0
100
AcDbEntity
8
1
62
256
6
ByLayer
370
18
48
1
60
0
100
AcDbLine
10
60.370063
20
3.37821
30
0
11
60.367601
21
3.37827
31
0
39
0
210
0
220
0
230
1
0
LINE
5
B1
100
AcDbEntity
8
1
62
256
6
ByLayer
370
18
48
1
60
0
100
AcDbLine
10
59.989749
20
4.016651
30
0
11
59.888144
21
4.016651
31
0
39
0
210
0
220
0
230
1
0
LINE
5
B2
100
AcDbEntity
8
1
62
256
6
ByLayer
370
18
48
1
60
0
100
AcDbLine
10
61.475488
20
-4.016651
30
0
11
61.577531
21
-4.016651
31
0
39
0
210
0
220
0
230
1
0
LINE
5
B3
100
AcDbEntity
8
1
62
256
6
ByLayer
370
18
48
1
60
0
100
AcDbLine
10
31.946238
20
-3.2304
30
0
11
41.087336
21
-3.2304
31
0
39
0
210
0
220
0
230
1
0
LINE
5
B4
100
AcDbEntity
8
1
62
256
6
ByLayer
370
18
48
1
60
0
100
AcDbLine
10
46.476702
20
-3.2304
30
0
11
48.662699
21
-3.2304
31
0
39
0
210
0
220
0
230
1
0
LINE
5
B5
100
AcDbEntity
8
1
62
256
6
ByLayer
370
18
48
1
60
0
100
AcDbLine
10
52.450966
20
3.2304
30
0
11
50.258645
21
3.2304
31
0
39
0
210
0
220
0
230
1
0
LINE
5
B6
100
AcDbEntity
8
1
62
256
6
ByLayer
370
18
48
1
60
0
100
AcDbLine
10
44.875638
20
3.2304
30
0
11
42.69656
21
3.2304
31
0
39
0
210
0
220
0
230
1
0
LINE
5
B7
100
AcDbEntity
8
1
62
256
6
ByLayer
370
18
48
1
60
0
100
AcDbLine
10
37.565137
20
3.2304
30
0
11
31.946238
21
3.2304
31
0
39
0
210
0
220
0
230
1
0
LINE
5
B8
100
AcDbEntity
8
1
62
256
6
ByLayer
370
18
48
1
60
0
100
AcDbLine
10
31.755225
20
3.247111
30
0
11
27.267037
21
4.0385
31
0
39
0
210
0
220
0
230
1
0
LINE
5
B9
100
AcDbEntity
8
1
62
256
6
ByLayer
370
18
48
1
60
0
100
AcDbLine
10
27.267037
20
-4.0385
30
0
11
31.755225
21
-3.247111
31
0
39
0
210
0
220
0
230
1
0
LINE
5
BA
100
AcDbEntity
8
SK1
62
256
6
ByLayer
370
18
48
1
60
0
100
AcDbLine
10
-24.65
20
-2.67696
30
0
11
-24.30196
21
-3.025
31
0
39
0
210
0
220
0
230
1
0
LINE
5
BB
100
AcDbEntity
8
SK1
62
256
6
ByLayer
370
18
48
1
60
0
100
AcDbLine
10
-24.30196
20
3.025
30
0
11
-24.65
21
2.67696
31
0
39
0
210
0
220
0
230
1
0
LINE
5
BC
100
AcDbEntity
8
SK1
62
256
6
ByLayer
370
18
48
1
60
0
100
AcDbLine
10
-14.035
20
3.87696
30
0
11
-14.14804
21
3.87696
31
0
39
0
210
0
220
0
230
1
0
LINE
5
BD
100
AcDbEntity
8
SK1
62
256
6
ByLayer
370
18
48
1
60
0
100
AcDbLine
10
-14.14804
20
-3.87696
30
0
11
-14.035
21
-3.87696
31
0
39
0
210
0
220
0
230
1
0
LINE
5
BE
100
AcDbEntity
8
SK1
62
256
6
ByLayer
370
18
48
1
60
0
100
AcDbLine
10
-14.035
20
-3.87696
30
0
11
-13.87346
21
-4.0385
31
0
39
0
210
0
220
0
230
1
0
LINE
5
BF
100
AcDbEntity
8
SK1
62
256
6
ByLayer
370
18
48
1
60
0
100
AcDbLine
10
-13.87346
20
4.0385
30
0
11
-14.035
21
3.87696
31
0
39
0
210
0
220
0
230
1
0
LINE
5
C0
100
AcDbEntity
8
SK1
62
256
6
ByLayer
370
18
48
1
60
0
100
AcDbLine
10
0
20
4.0385
30
0
11
-13.87346
21
4.0385
31
0
39
0
210
0
220
0
230
1
0
LINE
5
C1
100
AcDbEntity
8
SK1
62
256
6
ByLayer
370
18
48
1
60
0
100
AcDbLine
10
-13.87346
20
-4.0385
30
0
11
0
21
-4.0385
31
0
39
0
210
0
220
0
230
1
0
LINE
5
C2
100
AcDbEntity
8
SK2
62
256
6
ByLayer
370
13
48
1
60
0
100
AcDbLine
10
20.1
20
-4.0385
30
0
11
20.1
21
60.62016
31
0
39
0
210
0
220
0
230
1
0
LINE
5
C4
100
AcDbEntity
8
SK2
62
256
6
ByLayer
370
13
48
1
60
0
100
AcDbLine
10
19.9375
20
4.0385
30
0
11
22.1
21
4.0385
31
0
39
0
210
0
220
0
230
1
0
LINE
5
C5
100
AcDbEntity
8
SK2
62
256
6
ByLayer
370
13
48
1
60
0
100
AcDbLine
10
19.9375
20
-4.0385
30
0
11
22.1
21
-4.0385
31
0
39
0
210
0
220
0
230
1
0
LINE
5
C6
100
AcDbEntity
8
1
62
256
6
ByLayer
370
18
48
1
60
1
100
AcDbLine
10
20.1
20
4.0385
30
0
11
20.560784
21
0.538502
31
0
39
0
210
0
220
0
230
1
0
LINE
5
C7
100
AcDbEntity
8
1
62
256
6
ByLayer
370
18
48
1
60
1
100
AcDbLine
10
20.560784
20
0.538502
30
0
11
19.639216
21
0.538498
31
0
39
0
210
0
220
0
230
1
0
LINE
5
C8
100
AcDbEntity
8
1
62
256
6
ByLayer
370
18
48
1
60
1
100
AcDbLine
10
19.639216
20
0.538498
30
0
11
20.1
21
4.0385
31
0
39
0
210
0
220
0
230
1
0
LINE
5
C9
100
AcDbEntity
8
1
62
256
6
ByLayer
370
18
48
1
60
1
100
AcDbLine
10
20.1
20
-4.0385
30
0
11
19.639216
21
-0.538502
31
0
39
0
210
0
220
0
230
1
0
LINE
5
CA
100
AcDbEntity
8
1
62
256
6
ByLayer
370
18
48
1
60
1
100
AcDbLine
10
19.639216
20
-0.538502
30
0
11
20.560784
21
-0.538498
31
0
39
0
210
0
220
0
230
1
0
LINE
5
CB
100
AcDbEntity
8
1
62
256
6
ByLayer
370
18
48
1
60
1
100
AcDbLine
10
20.560784
20
-0.538498
30
0
11
20.1
21
-4.0385
31
0
39
0
210
0
220
0
230
1
0
LINE
5
1E8
100
AcDbEntity
8
1
62
256
6
ByLayer
370
18
48
1
60
1
100
AcDbLine
10
20.1
20
4.0385
30
0
11
20.560784
21
0.538502
31
0
39
0
210
0
220
0
230
1
0
LINE
5
1E9
100
AcDbEntity
8
1
62
256
6
ByLayer
370
18
48
1
60
1
100
AcDbLine
10
20.560784
20
0.538502
30
0
11
19.639216
21
0.538498
31
0
39
0
210
0
220
0
230
1
0
LINE
5
1EA
100
AcDbEntity
8
1
62
256
6
ByLayer
370
18
48
1
60
1
100
AcDbLine
10
19.639216
20
0.538498
30
0
11
20.1
21
4.0385
31
0
39
0
210
0
220
0
230
1
0
LINE
5
1EC
100
AcDbEntity
8
1
62
256
6
ByLayer
370
18
48
1
60
1
100
AcDbLine
10
20.1
20
-4.0385
30
0
11
19.639216
21
-0.538502
31
0
39
0
210
0
220
0
230
1
0
LINE
5
1ED
100
AcDbEntity
8
1
62
256
6
ByLayer
370
18
48
1
60
1
100
AcDbLine
10
19.639216
20
-0.538502
30
0
11
20.560784
21
-0.538498
31
0
39
0
210
0
220
0
230
1
0
LINE
5
1EE
100
AcDbEntity
8
1
62
256
6
ByLayer
370
18
48
1
60
1
100
AcDbLine
10
20.560784
20
-0.538498
30
0
11
20.1
21
-4.0385
31
0
39
0
210
0
220
0
230
1
0
MTEXT
5
1E3
100
AcDbEntity
8
SK2
62
256
6
ByLayer
370
18
48
1
60
0
100
AcDbMText
10
18.535366
20
12.896344
30
0
210
0
220
0
230
1
1
%%c
40
3.5
41
0
44
1.084337
50
90
71
7
72
5
7
iso_b_vert
0
MTEXT
5
1E6
100
AcDbEntity
8
SK2
62
256
6
ByLayer
370
18
48
1
60
0
100
AcDbMText
10
18.535366
20
34.198864
30
0
210
0
220
0
230
1
1
\W0.8220;ASME-B94.9
40
3.5
41
0
44
1.084337
50
90
71
7
72
5
7
iso_b_vert
0
MTEXT
5
1E7
100
AcDbEntity
8
SK2
62
256
6
ByLayer
370
18
48
1
60
0
100
AcDbMText
10
18.535366
20
19.869
30
0
210
0
220
0
230
1
1
\W0.7468;8.077
40
3.5
41
0
44
1.084337
50
90
71
7
72
5
7
iso_b_vert
0
MTEXT
5
1F0
100
AcDbEntity
8
SK6
62
256
6
ByLayer
370
18
48
1
60
0
100
AcDbMText
10
28.405133
20
-68.614886
30
0
210
0
220
0
230
1
1
\W0.7654;T300-PM100AF-5/16 P1PM
40
3
41
0
44
1.084337
50
0
71
7
72
5
7
iso_b_vert
0
HATCH
5
1EB
100
AcDbEntity
8
SK2
62
256
6
ByLayer
370
13
48
1
60
0
100
AcDbHatch
10
0
20
0
30
0
210
0
220
0
230
1
2
ANSI31
70
0
71
0
91
1
92
5
93
3
72
1
10
20.1
20
4.03850000000003
11
20.5607837415528
21
0.538501692553211
72
1
10
20.5607837415528
20
0.538501692553211
11
19.6392162584472
21
0.538498307446844
72
1
10
19.6392162584472
20
0.538498307446844
11
20.1
21
4.03850000000003
97
0
75
0
76
1
52
0
41
0.0062
77
0
78
1
53
45
43
0
44
0
45
-0.0139193969876572
46
0.0139193969876572
79
0
47
0
98
1
10
0
20
0
0
HATCH
5
1EF
100
AcDbEntity
8
SK2
62
256
6
ByLayer
370
13
48
1
60
0
100
AcDbHatch
10
0
20
0
30
0
210
0
220
0
230
1
2
ANSI31
70
0
71
0
91
1
92
5
93
3
72
1
10
20.1
20
-4.03849999999997
11
19.6392162584472
21
-0.538501692553155
72
1
10
19.6392162584472
20
-0.538501692553155
11
20.5607837415528
21
-0.538498307446787
72
1
10
20.5607837415528
20
-0.538498307446787
11
20.1
21
-4.03849999999997
97
0
75
0
76
1
52
0
41
0.0062
77
0
78
1
53
45
43
0
44
0
45
-0.0139193969876572
46
0.0139193969876572
79
0
47
0
98
1
10
0
20
0
0
DIMENSION
5
1F3
100
AcDbEntity
8
SK2
62
256
6
ByLayer
370
18
48
1
60
0
100
AcDbDimension
2
_U0
10
65.35
20
-51.255752
30
0
11
20.35
21
-51.255752
31
0
70
32
71
1
72
1
41
1
210
0
220
0
230
1
3
Standard
100
AcDbAlignedDimension
13
-24.65
23
0
33
0
14
65.35
24
0
34
0
50
0
100
AcDbRotatedDimension
1001
ACAD
1000
DSTYLE
1002
{
1070
   371
1070
    13
1070
   372
1070
    13
1070
     3
1000

1070
   170
1070
     0
1070
   144
1040
1.0
1070
   277
1070
     2
1070
   284
1070
     8
1070
   278
1070
    46
1070
   146
1040
1.0
1070
   345
1005
16
1070
   347
1005
16
1070
   346
1005
16
1070
   344
1005
0
1070
   343
1005
0
1070
   172
1070
     1
1070
    76
1070
     0
1070
    75
1070
     0
1070
   282
1070
     0
1070
   281
1070
     0
1070
    71
1070
     0
1070
    74
1070
     0
1070
   279
1070
     0
1070
   173
1070
     1
1070
   340
1005
1E4
1070
   271
1070
     2
1070
   272
1070
     2
1070
    77
1070
     1
1070
    73
1070
     1
1070
   171
1070
     3
1070
   274
1070
     4
1070
   177
1070
     2
1070
   176
1070
     2
1070
   178
1070
     2
1070
    78
1070
     8
1070
    48
1040
-0.1
1070
    41
1040
3.5
1070
   147
1040
1.75
1070
    42
1040
1.5875
1070
    44
1040
2.0
1070
   140
1040
3.5
1002
}
1001
ACAD_DSTYLE_DIM_LINETYPE
1070
   380
1005
16
1001
ACAD_DSTYLE_DIM_EXT1_LINETYPE
1070
   381
1005
16
1001
ACAD_DSTYLE_DIM_EXT2_LINETYPE
1070
   382
1005
16
0
DIMENSION
5
20C
100
AcDbEntity
8
SK2
62
256
6
ByLayer
370
18
48
1
60
0
100
AcDbDimension
2
_U1
10
31.85
20
-43.255752
30
0
11
48.6
21
-43.255752
31
0
70
32
71
1
72
1
41
1
210
0
220
0
230
1
3
Standard
100
AcDbAlignedDimension
13
65.35
23
0
33
0
14
31.85
24
0
34
0
50
0
100
AcDbRotatedDimension
1001
ACAD
1000
DSTYLE
1002
{
1070
   371
1070
    13
1070
   372
1070
    13
1070
     3
1000

1070
   170
1070
     0
1070
   144
1040
1.0
1070
   277
1070
     2
1070
   284
1070
     8
1070
   278
1070
    46
1070
   146
1040
1.0
1070
   345
1005
16
1070
   347
1005
16
1070
   346
1005
16
1070
   344
1005
0
1070
   343
1005
0
1070
   172
1070
     1
1070
    76
1070
     0
1070
    75
1070
     0
1070
   282
1070
     0
1070
   281
1070
     0
1070
    71
1070
     0
1070
    74
1070
     0
1070
   279
1070
     0
1070
   173
1070
     1
1070
   340
1005
1E4
1070
   271
1070
     2
1070
   272
1070
     2
1070
    77
1070
     1
1070
    73
1070
     1
1070
   171
1070
     3
1070
   274
1070
     4
1070
   177
1070
     2
1070
   176
1070
     2
1070
   178
1070
     2
1070
    78
1070
     8
1070
    48
1040
-0.1
1070
    41
1040
3.5
1070
   147
1040
1.75
1070
    42
1040
1.5875
1070
    44
1040
2.0
1070
   140
1040
3.5
1002
}
1001
ACAD_DSTYLE_DIM_LINETYPE
1070
   380
1005
16
1001
ACAD_DSTYLE_DIM_EXT1_LINETYPE
1070
   381
1005
16
1001
ACAD_DSTYLE_DIM_EXT2_LINETYPE
1070
   382
1005
16
0
DIMENSION
5
224
100
AcDbEntity
8
2
62
256
6
ByLayer
370
18
48
1
60
0
100
AcDbDimension
2
_U2
10
36.875
20
-35.255752
30
0
11
51.1125
21
-35.255752
31
0
70
32
71
1
72
1
41
1
210
0
220
0
230
1
3
Standard
100
AcDbAlignedDimension
13
65.35
23
0
33
0
14
36.875
24
0
34
0
50
0
100
AcDbRotatedDimension
1001
ACAD
1000
DSTYLE
1002
{
1070
   371
1070
    13
1070
   372
1070
    13
1070
     3
1000

1070
   170
1070
     0
1070
   144
1040
1.0
1070
   277
1070
     2
1070
   284
1070
     8
1070
   278
1070
    46
1070
   146
1040
1.0
1070
   345
1005
16
1070
   347
1005
16
1070
   346
1005
16
1070
   344
1005
0
1070
   343
1005
0
1070
   172
1070
     1
1070
    76
1070
     0
1070
    75
1070
     0
1070
   282
1070
     0
1070
   281
1070
     0
1070
    71
1070
     0
1070
    74
1070
     0
1070
   279
1070
     0
1070
   173
1070
     1
1070
   340
1005
1E4
1070
   271
1070
     2
1070
   272
1070
     2
1070
    77
1070
     1
1070
    73
1070
     1
1070
   171
1070
     3
1070
   274
1070
     4
1070
   177
1070
     2
1070
   176
1070
     2
1070
   178
1070
     2
1070
    78
1070
     8
1070
    48
1040
-0.1
1070
    41
1040
3.5
1070
   147
1040
1.75
1070
    42
1040
1.5875
1070
    44
1040
2.0
1070
   140
1040
3.5
1002
}
1001
ACAD_DSTYLE_DIM_LINETYPE
1070
   380
1005
16
1001
ACAD_DSTYLE_DIM_EXT1_LINETYPE
1070
   381
1005
16
1001
ACAD_DSTYLE_DIM_EXT2_LINETYPE
1070
   382
1005
16
0
DIMENSION
5
23D
100
AcDbEntity
8
SK2
62
256
6
ByLayer
370
18
48
1
60
0
100
AcDbDimension
2
_U3
10
53.35
20
-27.255752
30
0
11
59.35
21
-27.255752
31
0
70
32
71
1
72
1
41
1
210
0
220
0
230
1
3
Standard
100
AcDbAlignedDimension
13
65.35
23
0
33
0
14
53.35
24
0
34
0
50
0
100
AcDbRotatedDimension
1001
ACAD
1000
DSTYLE
1002
{
1070
   371
1070
    13
1070
   372
1070
    13
1070
     3
1000

1070
   170
1070
     0
1070
   144
1040
1.0
1070
   277
1070
     2
1070
   284
1070
     8
1070
   278
1070
    46
1070
   146
1040
1.0
1070
   345
1005
16
1070
   347
1005
16
1070
   346
1005
16
1070
   344
1005
0
1070
   343
1005
0
1070
   172
1070
     1
1070
    76
1070
     0
1070
    75
1070
     0
1070
   282
1070
     0
1070
   281
1070
     0
1070
    71
1070
     0
1070
    74
1070
     0
1070
   279
1070
     0
1070
   173
1070
     1
1070
   340
1005
1E4
1070
   271
1070
     2
1070
   272
1070
     2
1070
    77
1070
     1
1070
    73
1070
     1
1070
   171
1070
     3
1070
   274
1070
     4
1070
   177
1070
     2
1070
   176
1070
     2
1070
   178
1070
     2
1070
    78
1070
     8
1070
    48
1040
-0.1
1070
    41
1040
3.5
1070
   147
1040
1.75
1070
    42
1040
1.5875
1070
    44
1040
2.0
1070
   140
1040
3.5
1002
}
1001
ACAD_DSTYLE_DIM_LINETYPE
1070
   380
1005
16
1001
ACAD_DSTYLE_DIM_EXT1_LINETYPE
1070
   381
1005
16
1001
ACAD_DSTYLE_DIM_EXT2_LINETYPE
1070
   382
1005
16
0
DIMENSION
5
256
100
AcDbEntity
8
SK2
62
256
6
ByLayer
370
18
48
1
60
0
100
AcDbDimension
2
_U4
10
62.44
20
8.283302
30
0
11
63.895
21
8.283302
31
0
70
32
71
1
72
1
41
1
210
0
220
0
230
1
3
Standard
100
AcDbAlignedDimension
13
65.35
23
0
33
0
14
62.44
24
0
34
0
50
0
100
AcDbRotatedDimension
1001
ACAD
1000
DSTYLE
1002
{
1070
   371
1070
    13
1070
   372
1070
    13
1070
     3
1000

1070
   170
1070
     0
1070
   144
1040
1.0
1070
   277
1070
     2
1070
   284
1070
     8
1070
   278
1070
    46
1070
   146
1040
1.0
1070
   345
1005
16
1070
   347
1005
16
1070
   346
1005
16
1070
   344
1005
0
1070
   343
1005
0
1070
   172
1070
     1
1070
    76
1070
     0
1070
    75
1070
     0
1070
   282
1070
     0
1070
   281
1070
     0
1070
    71
1070
     0
1070
    74
1070
     0
1070
   279
1070
     0
1070
   173
1070
     1
1070
   340
1005
1E4
1070
   271
1070
     2
1070
   272
1070
     2
1070
    77
1070
     1
1070
    73
1070
     1
1070
   171
1070
     3
1070
   274
1070
     4
1070
   177
1070
     2
1070
   176
1070
     2
1070
   178
1070
     2
1070
    78
1070
     8
1070
    48
1040
-0.1
1070
    41
1040
3.5
1070
   147
1040
1.75
1070
    42
1040
1.5875
1070
    44
1040
2.0
1070
   140
1040
3.5
1002
}
1001
ACAD_DSTYLE_DIM_LINETYPE
1070
   380
1005
16
1001
ACAD_DSTYLE_DIM_EXT1_LINETYPE
1070
   381
1005
16
1001
ACAD_DSTYLE_DIM_EXT2_LINETYPE
1070
   382
1005
16
0
DIMENSION
5
270
100
AcDbEntity
8
2
62
256
6
ByLayer
370
18
48
1
60
0
100
AcDbDimension
2
_U5
10
82.1
20
4.016651
30
0
11
82.1
21
0
31
0
70
32
71
1
72
1
41
1
210
0
220
0
230
1
3
Standard
100
AcDbAlignedDimension
13
65.35
23
-4.016651
33
0
14
65.35
24
4.016651
34
0
50
90
100
AcDbRotatedDimension
1001
ACAD
1000
DSTYLE
1002
{
1070
   371
1070
    13
1070
   372
1070
    13
1070
     3
1000

1070
   170
1070
     0
1070
   144
1040
1.0
1070
   277
1070
     2
1070
   284
1070
     8
1070
   278
1070
    46
1070
   146
1040
1.0
1070
   345
1005
16
1070
   347
1005
16
1070
   346
1005
16
1070
   344
1005
0
1070
   343
1005
0
1070
   172
1070
     1
1070
    76
1070
     0
1070
    75
1070
     0
1070
   282
1070
     0
1070
   281
1070
     0
1070
    71
1070
     0
1070
    74
1070
     0
1070
   279
1070
     0
1070
   173
1070
     1
1070
   340
1005
1E4
1070
   271
1070
     2
1070
   272
1070
     2
1070
    77
1070
     1
1070
    73
1070
     0
1070
   171
1070
     3
1070
   274
1070
     4
1070
   177
1070
     2
1070
   176
1070
     2
1070
   178
1070
     2
1070
    78
1070
     8
1070
    48
1040
-0.1
1070
    41
1040
3.5
1070
   147
1040
1.75
1070
    42
1040
1.5875
1070
    44
1040
2.0
1070
   140
1040
3.5
1002
}
1001
ACAD_DSTYLE_DIM_LINETYPE
1070
   380
1005
16
1001
ACAD_DSTYLE_DIM_EXT1_LINETYPE
1070
   381
1005
16
1001
ACAD_DSTYLE_DIM_EXT2_LINETYPE
1070
   382
1005
16
0
ENDSEC
0
SECTION
2
OBJECTS
0
DICTIONARY
5
2fa
330
0
100
AcDbDictionary
280
0
281
1
3
ACAD_GROUP
350
2fb
3
ACAD_MLINESTYLE
350
2fc
0
DICTIONARY
5
2fb
330
0
100
AcDbDictionary
280
0
281
1
0
DICTIONARY
5
2fc
330
0
100
AcDbDictionary
280
0
281
1
3
Standard
350
18
0
MLINESTYLE
5
18
330
2fc
100
AcDbMlineStyle
2
Standard
70
0
3

62
256
51
90
52
90
71
2
49
-0.5
62
256
6
ByLayer
49
0.5
62
256
6
ByLayer
0
RASTERVARIABLES
5
2e8
330

100
AcDbRasterVariables
90
0
70
1
71
1
72
1
0
ENDSEC
0
EOF
