0
SECTION
2
HEADER
9
$ACADVER
1
AC1015
9
$DWGCODEPAGE
3
ANSI_1252
9
$HANDSEED
5
2f6
9
$ANGBASE
50
0
9
$ANGDIR
70
0
9
$ATTMODE
70
1
9
$AUNITS
70
0
9
$AUPREC
70
0
9
$CECOLOR
62
256
9
$CELTSCALE
40
1
9
$CELTYPE
6
ByLayer
9
$CELWEIGHT
370
18
9
$CLAYER
8
0
9
$CMLJUST
70
0
9
$CMLSCALE
40
1
9
$CMLSTYLE
2
Standard
9
$DIMSTYLE
2
Standard
9
$TEXTSIZE
40
0.2
9
$TEXTSTYLE
7
Standard
9
$LUNITS
70
2
9
$LUPREC
70
4
9
$EXTNAMES
290
1
9
$INSUNITS
70
4
9
$LTSCALE
40
1
9
$LWDISPLAY
290
1
9
$PDMODE
70
0
9
$PDSIZE
40
0
9
$PLINEGEN
70
0
0
ENDSEC
0
SECTION
2
CLASSES
0
CLASS
1
RASTERVARIABLES
2
AcDbRasterVariables
3
ISM
90
0
280
0
281
0
0
ENDSEC
0
SECTION
2
TABLES
0
TABLE
2
VPORT
5
2ec
100
AcDbSymbolTable
0
VPORT
5
1
100
AcDbSymbolTableRecord
100
AcDbViewportTableRecord
2
*Active
70
0
10
0
20
0
11
1
21
1
12
-1
22
1
13
0
23
0
14
0.5
24
0.5
15
10
25
10
16
0
26
0
36
1
17
0
27
0
37
0
0
ENDTAB
0
TABLE
2
LTYPE
5
2ed
100
AcDbSymbolTable
0
LTYPE
5
14
100
AcDbSymbolTableRecord
100
AcDbLinetypeTableRecord
70
0
2
ByBlock
3

72
65
73
0
40
0
0
LTYPE
5
15
100
AcDbSymbolTableRecord
100
AcDbLinetypeTableRecord
70
0
2
ByLayer
3

72
65
73
0
40
0
0
LTYPE
5
16
100
AcDbSymbolTableRecord
100
AcDbLinetypeTableRecord
70
0
2
Continuous
3
Solid line
72
65
73
0
40
0
0
LTYPE
5
6E
100
AcDbSymbolTableRecord
100
AcDbLinetypeTableRecord
70
0
2
CENTER
3
____ _ ____ _ ____ _ ____
72
65
73
4
40
47.5
49
22
74
0
49
-8.5
74
0
49
8.5
74
0
49
-8.5
74
0
0
LTYPE
5
6F
100
AcDbSymbolTableRecord
100
AcDbLinetypeTableRecord
70
0
2
DASHED
3
__ __ __ __ __ __ __ __ __
72
65
73
2
40
25.72
49
12.86
74
0
49
-12.86
74
0
0
ENDTAB
0
TABLE
2
LAYER
5
2ee
100
AcDbSymbolTable
0
LAYER
5
10
100
AcDbSymbolTableRecord
100
AcDbLayerTableRecord
2
0
70
0
62
7
6
Continuous
290
1
370
-3
390
0
0
LAYER
5
71
100
AcDbSymbolTableRecord
100
AcDbLayerTableRecord
2
80
70
0
62
-6
6
Continuous
290
1
370
-3
390
0
0
LAYER
5
73
100
AcDbSymbolTableRecord
100
AcDbLayerTableRecord
2
81
70
0
62
-3
6
Continuous
290
1
370
-3
390
0
0
LAYER
5
75
100
AcDbSymbolTableRecord
100
AcDbLayerTableRecord
2
1
70
0
62
4
6
Continuous
290
1
370
-3
390
0
0
LAYER
5
84
100
AcDbSymbolTableRecord
100
AcDbLayerTableRecord
2
4
70
0
62
-2
6
CENTER
290
1
370
-3
390
0
0
LAYER
5
1E4
100
AcDbSymbolTableRecord
100
AcDbLayerTableRecord
2
Defpoints
70
0
62
7
6
Continuous
290
0
370
-3
390
0
0
LAYER
5
221
100
AcDbSymbolTableRecord
100
AcDbLayerTableRecord
2
2
70
0
62
7
6
Continuous
290
1
370
-3
390
0
0
LAYER
5
2d8
100
AcDbSymbolTableRecord
100
AcDbLayerTableRecord
2
SK4
70
0
62
2
6
CENTER
290
1
370
-3
390
0
0
LAYER
5
2d9
100
AcDbSymbolTableRecord
100
AcDbLayerTableRecord
2
SK1
70
0
62
4
6
Continuous
290
1
370
-3
390
0
0
LAYER
5
2da
100
AcDbSymbolTableRecord
100
AcDbLayerTableRecord
2
SK2
70
0
62
7
6
Continuous
290
1
370
-3
390
0
0
LAYER
5
2db
100
AcDbSymbolTableRecord
100
AcDbLayerTableRecord
2
SK6
70
0
62
5
6
Continuous
290
1
370
-3
390
0
0
ENDTAB
0
TABLE
2
STYLE
5
2ef
100
AcDbSymbolTable
0
STYLE
5
11
100
AcDbSymbolTableRecord
100
AcDbTextStyleTableRecord
2
Standard
3
txt
70
0
71
0
40
0
41
1
42
0
50
0
0
STYLE
5
1D2
100
AcDbSymbolTableRecord
100
AcDbTextStyleTableRecord
2
iso_b_vert
3
simplex.shx
70
0
71
0
40
0
41
1
42
0
50
0
0
STYLE
5
1D3
100
AcDbSymbolTableRecord
100
AcDbTextStyleTableRecord
2
DWGDirectTextStyle
3
simplex
70
0
71
0
40
0
41
1
42
0
50
0
0
ENDTAB
0
TABLE
2
DIMSTYLE
5
2f0
100
AcDbSymbolTable
100
AcDbDimStyleTable
0
DIMSTYLE
105
27
100
AcDbSymbolTableRecord
100
AcDbDimStyleTableRecord
2
Standard
70
0
3
<>
41
0.18
42
0.0625
44
0.18
140
0.18
147
0.09
73
0
74
0
77
1
271
2
275
0
278
52
280
0
340
11
0
ENDTAB
0
TABLE
2
VIEW
5
2f1
100
AcDbSymbolTable
0
ENDTAB
0
TABLE
2
UCS
5
2f2
100
AcDbSymbolTable
0
ENDTAB
0
TABLE
2
APPID
5
2f3
100
AcDbSymbolTable
0
APPID
5
12
100
AcDbSymbolTableRecord
100
AcDbRegAppTableRecord
2
ACAD
70
0
0
APPID
5
1E0
100
AcDbSymbolTableRecord
100
AcDbRegAppTableRecord
2
ACAD_DSTYLE_DIMBREAK
70
0
0
APPID
5
297
100
AcDbSymbolTableRecord
100
AcDbRegAppTableRecord
2
ACAD_DSTYLE_DIM_LINETYPE
70
0
0
APPID
5
298
100
AcDbSymbolTableRecord
100
AcDbRegAppTableRecord
2
ACAD_DSTYLE_DIM_EXT1_LINETYPE
70
0
0
APPID
5
299
100
AcDbSymbolTableRecord
100
AcDbRegAppTableRecord
2
ACAD_DSTYLE_DIM_EXT2_LINETYPE
70
0
0
APPID
5
2D4
100
AcDbSymbolTableRecord
100
AcDbRegAppTableRecord
2
ACAD_MLEADERVER
70
0
0
ENDTAB
0
TABLE
2
BLOCK_RECORD
5
2f4
100
AcDbSymbolTable
0
BLOCK_RECORD
5
1F
100
AcDbSymbolTableRecord
100
AcDbBlockTableRecord
2
*Model_Space
340
0
70
0
0
BLOCK_RECORD
5
1B
100
AcDbSymbolTableRecord
100
AcDbBlockTableRecord
2
*Paper_Space
340
0
70
0
0
BLOCK_RECORD
5
23
100
AcDbSymbolTableRecord
100
AcDbBlockTableRecord
2
*Paper_Space0
340
0
70
0
0
BLOCK_RECORD
5
1E5
100
AcDbSymbolTableRecord
100
AcDbBlockTableRecord
2
*D1
340
0
70
0
0
BLOCK_RECORD
5
1F1
100
AcDbSymbolTableRecord
100
AcDbBlockTableRecord
2
_U0
340
0
70
0
0
BLOCK_RECORD
5
1FD
100
AcDbSymbolTableRecord
100
AcDbBlockTableRecord
2
*D3
340
0
70
0
0
BLOCK_RECORD
5
209
100
AcDbSymbolTableRecord
100
AcDbBlockTableRecord
2
_U1
340
0
70
0
0
BLOCK_RECORD
5
215
100
AcDbSymbolTableRecord
100
AcDbBlockTableRecord
2
*D5
340
0
70
0
0
BLOCK_RECORD
5
222
100
AcDbSymbolTableRecord
100
AcDbBlockTableRecord
2
_U2
340
0
70
0
0
BLOCK_RECORD
5
22E
100
AcDbSymbolTableRecord
100
AcDbBlockTableRecord
2
*D7
340
0
70
0
0
BLOCK_RECORD
5
23B
100
AcDbSymbolTableRecord
100
AcDbBlockTableRecord
2
_U3
340
0
70
0
0
BLOCK_RECORD
5
247
100
AcDbSymbolTableRecord
100
AcDbBlockTableRecord
2
*D9
340
0
70
0
0
BLOCK_RECORD
5
254
100
AcDbSymbolTableRecord
100
AcDbBlockTableRecord
2
_U4
340
0
70
0
0
BLOCK_RECORD
5
261
100
AcDbSymbolTableRecord
100
AcDbBlockTableRecord
2
*D11
340
0
70
0
0
BLOCK_RECORD
5
26E
100
AcDbSymbolTableRecord
100
AcDbBlockTableRecord
2
_U5
340
0
70
0
0
ENDTAB
0
ENDSEC
0
SECTION
2
BLOCKS
0
BLOCK
5
20
100
AcDbEntity
8
0
100
AcDbBlockBegin
2
*Model_Space
70
0
10
0
20
0
30
0
3
*Model_Space
0
ENDBLK
5
21
100
AcDbEntity
8
0
100
AcDbBlockEnd
0
BLOCK
5
1C
100
AcDbEntity
8
0
100
AcDbBlockBegin
2
*Paper_Space
70
0
10
0
20
0
30
0
3
*Paper_Space
0
ENDBLK
5
1D
100
AcDbEntity
8
0
100
AcDbBlockEnd
0
BLOCK
5
24
100
AcDbEntity
8
0
100
AcDbBlockBegin
2
*Paper_Space0
70
0
10
0
20
0
30
0
3
*Paper_Space0
0
ENDBLK
5
25
100
AcDbEntity
8
0
100
AcDbBlockEnd
0
BLOCK
5
1E6
100
AcDbEntity
8
0
100
AcDbBlockBegin
2
*D1
70
1
10
0
20
0
30
0
3
*D1
0
LINE
5
1E8
100
AcDbEntity
8
0
62
256
6
ByLayer
370
-2
48
1
60
0
100
AcDbLine
10
-22.87
20
-1.5875
30
0
11
-22.87
21
-53.322446
31
0
39
0
210
0
220
0
230
1
0
LINE
5
1E9
100
AcDbEntity
8
0
62
256
6
ByLayer
370
-2
48
1
60
0
100
AcDbLine
10
57.13
20
-1.5875
30
0
11
57.13
21
-53.322446
31
0
39
0
210
0
220
0
230
1
0
LINE
5
1EA
100
AcDbEntity
8
0
62
256
6
ByLayer
370
-2
48
1
60
0
100
AcDbLine
10
-19.37
20
-51.322446
30
0
11
53.63
21
-51.322446
31
0
39
0
210
0
220
0
230
1
0
SOLID
5
1EB
100
AcDbEntity
8
0
62
256
6
ByLayer
370
-1
48
1
60
0
100
AcDbTrace
10
-19.37
20
-50.739113
30
0
11
-19.37
21
-51.905779
31
0
12
-22.87
22
-51.322446
32
0
13
-22.87
23
-51.322446
33
0
39
0
210
0
220
0
230
1
0
SOLID
5
1EC
100
AcDbEntity
8
0
62
256
6
ByLayer
370
-1
48
1
60
0
100
AcDbTrace
10
53.63
20
-51.905779
30
0
11
53.63
21
-50.739113
31
0
12
57.13
22
-51.322446
32
0
13
57.13
23
-51.322446
33
0
39
0
210
0
220
0
230
1
0
MTEXT
5
1ED
100
AcDbEntity
8
0
62
256
6
ByLayer
370
18
48
1
60
0
100
AcDbMText
10
17.13
20
-44.322446
30
0
210
0
220
0
230
1
1
\A1;80
40
3.5
41
0
44
1
50
0
71
5
72
5
7
iso_b_vert
0
POINT
5
1EE
100
AcDbEntity
8
Defpoints
62
0
6
ByLayer
370
-1
48
1
60
0
100
AcDbPoint
10
-22.87
20
0
30
0
39
0
210
0
220
0
230
1
50
360
0
POINT
5
1EF
100
AcDbEntity
8
Defpoints
62
0
6
ByLayer
370
-1
48
1
60
0
100
AcDbPoint
10
57.13
20
0
30
0
39
0
210
0
220
0
230
1
50
360
0
POINT
5
1F0
100
AcDbEntity
8
Defpoints
62
0
6
ByLayer
370
-1
48
1
60
0
100
AcDbPoint
10
57.13
20
-51.322446
30
0
39
0
210
0
220
0
230
1
50
360
0
ENDBLK
5
1E7
100
AcDbEntity
8
0
100
AcDbBlockEnd
0
BLOCK
5
1F8
100
AcDbEntity
8
0
100
AcDbBlockBegin
2
_U0
70
0
10
0
20
0
30
0
3
_U0
0
MTEXT
5
1F2
100
AcDbEntity
8
SK2
62
256
6
ByLayer
370
18
48
1
60
0
100
AcDbMText
10
13.208301
20
-50.289813
30
0
210
0
220
0
230
1
1
\W0.7346;80.0
40
3.5
41
0
44
1.084337
50
0
71
7
72
5
7
iso_b_vert
0
LINE
5
1F3
100
AcDbEntity
8
SK2
62
256
6
ByLayer
370
13
48
1
60
0
100
AcDbLine
10
-22.87
20
-1.5875
30
0
11
-22.87
21
-53.322446
31
0
39
0
210
0
220
0
230
1
0
LINE
5
1F4
100
AcDbEntity
8
SK2
62
256
6
ByLayer
370
13
48
1
60
0
100
AcDbLine
10
57.13
20
-1.5875
30
0
11
57.13
21
-53.322446
31
0
39
0
210
0
220
0
230
1
0
LINE
5
1F5
100
AcDbEntity
8
SK2
62
256
6
ByLayer
370
13
48
1
60
0
100
AcDbLine
10
-22.87
20
-51.322446
30
0
11
57.13
21
-51.322446
31
0
39
0
210
0
220
0
230
1
0
SOLID
5
1F6
100
AcDbEntity
8
SK2
62
256
6
ByLayer
370
18
48
1
60
0
100
AcDbTrace
10
-22.87
20
-51.322446
30
0
11
-19.370002
21
-50.861662
31
0
12
-19.369998
22
-51.78323
32
0
13
-19.369998
23
-51.78323
33
0
39
0
210
0
220
0
230
1
0
SOLID
5
1F7
100
AcDbEntity
8
SK2
62
256
6
ByLayer
370
18
48
1
60
0
100
AcDbTrace
10
57.13
20
-51.322446
30
0
11
53.630002
21
-51.78323
31
0
12
53.629998
22
-50.861662
32
0
13
53.629998
23
-50.861662
33
0
39
0
210
0
220
0
230
1
0
ENDBLK
5
1F9
100
AcDbEntity
8
0
100
AcDbBlockEnd
0
BLOCK
5
1FE
100
AcDbEntity
8
0
100
AcDbBlockBegin
2
*D3
70
1
10
0
20
0
30
0
3
*D3
0
LINE
5
200
100
AcDbEntity
8
0
62
256
6
ByLayer
370
-2
48
1
60
0
100
AcDbLine
10
57.13
20
-1.5875
30
0
11
57.13
21
-45.322446
31
0
39
0
210
0
220
0
230
1
0
LINE
5
201
100
AcDbEntity
8
0
62
256
6
ByLayer
370
-2
48
1
60
0
100
AcDbLine
10
32.13
20
-1.5875
30
0
11
32.13
21
-45.322446
31
0
39
0
210
0
220
0
230
1
0
LINE
5
202
100
AcDbEntity
8
0
62
256
6
ByLayer
370
-2
48
1
60
0
100
AcDbLine
10
53.63
20
-43.322446
30
0
11
35.63
21
-43.322446
31
0
39
0
210
0
220
0
230
1
0
SOLID
5
203
100
AcDbEntity
8
0
62
256
6
ByLayer
370
-1
48
1
60
0
100
AcDbTrace
10
53.63
20
-43.905779
30
0
11
53.63
21
-42.739113
31
0
12
57.13
22
-43.322446
32
0
13
57.13
23
-43.322446
33
0
39
0
210
0
220
0
230
1
0
SOLID
5
204
100
AcDbEntity
8
0
62
256
6
ByLayer
370
-1
48
1
60
0
100
AcDbTrace
10
35.63
20
-42.739113
30
0
11
35.63
21
-43.905779
31
0
12
32.13
22
-43.322446
32
0
13
32.13
23
-43.322446
33
0
39
0
210
0
220
0
230
1
0
MTEXT
5
205
100
AcDbEntity
8
0
62
256
6
ByLayer
370
18
48
1
60
0
100
AcDbMText
10
44.63
20
-36.322446
30
0
210
0
220
0
230
1
1
\A1;25
40
3.5
41
0
44
1
50
0
71
5
72
5
7
iso_b_vert
0
POINT
5
206
100
AcDbEntity
8
Defpoints
62
0
6
ByLayer
370
-1
48
1
60
0
100
AcDbPoint
10
57.13
20
0
30
0
39
0
210
0
220
0
230
1
50
360
0
POINT
5
207
100
AcDbEntity
8
Defpoints
62
0
6
ByLayer
370
-1
48
1
60
0
100
AcDbPoint
10
32.13
20
0
30
0
39
0
210
0
220
0
230
1
50
360
0
POINT
5
208
100
AcDbEntity
8
Defpoints
62
0
6
ByLayer
370
-1
48
1
60
0
100
AcDbPoint
10
32.13
20
-43.322446
30
0
39
0
210
0
220
0
230
1
50
360
0
ENDBLK
5
1FF
100
AcDbEntity
8
0
100
AcDbBlockEnd
0
BLOCK
5
210
100
AcDbEntity
8
0
100
AcDbBlockBegin
2
_U1
70
0
10
0
20
0
30
0
3
_U1
0
MTEXT
5
20A
100
AcDbEntity
8
SK2
62
256
6
ByLayer
370
18
48
1
60
0
100
AcDbMText
10
40.708301
20
-42.289813
30
0
210
0
220
0
230
1
1
\W0.7346;25.0
40
3.5
41
0
44
1.084337
50
0
71
7
72
5
7
iso_b_vert
0
LINE
5
20B
100
AcDbEntity
8
SK2
62
256
6
ByLayer
370
13
48
1
60
0
100
AcDbLine
10
57.13
20
-1.5875
30
0
11
57.13
21
-45.322446
31
0
39
0
210
0
220
0
230
1
0
LINE
5
20C
100
AcDbEntity
8
SK2
62
256
6
ByLayer
370
13
48
1
60
0
100
AcDbLine
10
32.13
20
-1.5875
30
0
11
32.13
21
-45.322446
31
0
39
0
210
0
220
0
230
1
0
LINE
5
20D
100
AcDbEntity
8
SK2
62
256
6
ByLayer
370
13
48
1
60
0
100
AcDbLine
10
57.13
20
-43.322446
30
0
11
32.13
21
-43.322446
31
0
39
0
210
0
220
0
230
1
0
SOLID
5
20E
100
AcDbEntity
8
SK2
62
256
6
ByLayer
370
18
48
1
60
0
100
AcDbTrace
10
57.13
20
-43.322446
30
0
11
53.630002
21
-43.78323
31
0
12
53.629998
22
-42.861662
32
0
13
53.629998
23
-42.861662
33
0
39
0
210
0
220
0
230
1
0
SOLID
5
20F
100
AcDbEntity
8
SK2
62
256
6
ByLayer
370
18
48
1
60
0
100
AcDbTrace
10
32.13
20
-43.322446
30
0
11
35.629998
21
-42.861662
31
0
12
35.630002
22
-43.78323
32
0
13
35.630002
23
-43.78323
33
0
39
0
210
0
220
0
230
1
0
ENDBLK
5
211
100
AcDbEntity
8
0
100
AcDbBlockEnd
0
BLOCK
5
216
100
AcDbEntity
8
0
100
AcDbBlockBegin
2
*D5
70
1
10
0
20
0
30
0
3
*D5
0
LINE
5
218
100
AcDbEntity
8
0
62
256
6
ByLayer
370
-2
48
1
60
0
100
AcDbLine
10
57.13
20
-1.5875
30
0
11
57.13
21
-37.322446
31
0
39
0
210
0
220
0
230
1
0
LINE
5
219
100
AcDbEntity
8
0
62
256
6
ByLayer
370
-2
48
1
60
0
100
AcDbLine
10
35.88
20
-1.5875
30
0
11
35.88
21
-37.322446
31
0
39
0
210
0
220
0
230
1
0
LINE
5
21A
100
AcDbEntity
8
0
62
256
6
ByLayer
370
-2
48
1
60
0
100
AcDbLine
10
53.63
20
-35.322446
30
0
11
39.38
21
-35.322446
31
0
39
0
210
0
220
0
230
1
0
SOLID
5
21B
100
AcDbEntity
8
0
62
256
6
ByLayer
370
-1
48
1
60
0
100
AcDbTrace
10
53.63
20
-35.905779
30
0
11
53.63
21
-34.739113
31
0
12
57.13
22
-35.322446
32
0
13
57.13
23
-35.322446
33
0
39
0
210
0
220
0
230
1
0
SOLID
5
21C
100
AcDbEntity
8
0
62
256
6
ByLayer
370
-1
48
1
60
0
100
AcDbTrace
10
39.38
20
-34.739113
30
0
11
39.38
21
-35.905779
31
0
12
35.88
22
-35.322446
32
0
13
35.88
23
-35.322446
33
0
39
0
210
0
220
0
230
1
0
MTEXT
5
21D
100
AcDbEntity
8
0
62
256
6
ByLayer
370
18
48
1
60
0
100
AcDbMText
10
46.505
20
-28.322446
30
0
210
0
220
0
230
1
1
\A1;21.25
40
3.5
41
0
44
1
50
0
71
5
72
5
7
iso_b_vert
0
POINT
5
21E
100
AcDbEntity
8
Defpoints
62
0
6
ByLayer
370
-1
48
1
60
0
100
AcDbPoint
10
57.13
20
0
30
0
39
0
210
0
220
0
230
1
50
360
0
POINT
5
21F
100
AcDbEntity
8
Defpoints
62
0
6
ByLayer
370
-1
48
1
60
0
100
AcDbPoint
10
35.88
20
0
30
0
39
0
210
0
220
0
230
1
50
360
0
POINT
5
220
100
AcDbEntity
8
Defpoints
62
0
6
ByLayer
370
-1
48
1
60
0
100
AcDbPoint
10
35.88
20
-35.322446
30
0
39
0
210
0
220
0
230
1
50
360
0
ENDBLK
5
217
100
AcDbEntity
8
0
100
AcDbBlockEnd
0
BLOCK
5
229
100
AcDbEntity
8
0
100
AcDbBlockBegin
2
_U2
70
0
10
0
20
0
30
0
3
_U2
0
MTEXT
5
223
100
AcDbEntity
8
2
62
256
6
ByLayer
370
18
48
1
60
0
100
AcDbMText
10
43.020734
20
-34.289813
30
0
210
0
220
0
230
1
1
\W0.6563;21.3
40
3.5
41
0
44
1.084337
50
0
71
7
72
5
7
iso_b_vert
0
LINE
5
224
100
AcDbEntity
8
2
62
256
6
ByLayer
370
13
48
1
60
0
100
AcDbLine
10
57.13
20
-1.5875
30
0
11
57.13
21
-37.322446
31
0
39
0
210
0
220
0
230
1
0
LINE
5
225
100
AcDbEntity
8
2
62
256
6
ByLayer
370
13
48
1
60
0
100
AcDbLine
10
35.88
20
-1.5875
30
0
11
35.88
21
-37.322446
31
0
39
0
210
0
220
0
230
1
0
LINE
5
226
100
AcDbEntity
8
2
62
256
6
ByLayer
370
13
48
1
60
0
100
AcDbLine
10
57.13
20
-35.322446
30
0
11
35.88
21
-35.322446
31
0
39
0
210
0
220
0
230
1
0
SOLID
5
227
100
AcDbEntity
8
2
62
256
6
ByLayer
370
18
48
1
60
0
100
AcDbTrace
10
57.13
20
-35.322446
30
0
11
53.630002
21
-35.78323
31
0
12
53.629998
22
-34.861662
32
0
13
53.629998
23
-34.861662
33
0
39
0
210
0
220
0
230
1
0
SOLID
5
228
100
AcDbEntity
8
2
62
256
6
ByLayer
370
18
48
1
60
0
100
AcDbTrace
10
35.88
20
-35.322446
30
0
11
39.379998
21
-34.861662
31
0
12
39.380002
22
-35.78323
32
0
13
39.380002
23
-35.78323
33
0
39
0
210
0
220
0
230
1
0
ENDBLK
5
22A
100
AcDbEntity
8
0
100
AcDbBlockEnd
0
BLOCK
5
22F
100
AcDbEntity
8
0
100
AcDbBlockBegin
2
*D7
70
1
10
0
20
0
30
0
3
*D7
0
LINE
5
231
100
AcDbEntity
8
0
62
256
6
ByLayer
370
-2
48
1
60
0
100
AcDbLine
10
57.13
20
-1.5875
30
0
11
57.13
21
-29.322446
31
0
39
0
210
0
220
0
230
1
0
LINE
5
232
100
AcDbEntity
8
0
62
256
6
ByLayer
370
-2
48
1
60
0
100
AcDbLine
10
47.13
20
-1.5875
30
0
11
47.13
21
-29.322446
31
0
39
0
210
0
220
0
230
1
0
LINE
5
233
100
AcDbEntity
8
0
62
256
6
ByLayer
370
-2
48
1
60
0
100
AcDbLine
10
60.63
20
-27.322446
30
0
11
64.13
21
-27.322446
31
0
39
0
210
0
220
0
230
1
0
LINE
5
234
100
AcDbEntity
8
0
62
256
6
ByLayer
370
-2
48
1
60
0
100
AcDbLine
10
43.63
20
-27.322446
30
0
11
40.13
21
-27.322446
31
0
39
0
210
0
220
0
230
1
0
SOLID
5
235
100
AcDbEntity
8
0
62
256
6
ByLayer
370
-1
48
1
60
0
100
AcDbTrace
10
60.63
20
-26.739113
30
0
11
60.63
21
-27.905779
31
0
12
57.13
22
-27.322446
32
0
13
57.13
23
-27.322446
33
0
39
0
210
0
220
0
230
1
0
SOLID
5
236
100
AcDbEntity
8
0
62
256
6
ByLayer
370
-1
48
1
60
0
100
AcDbTrace
10
43.63
20
-27.905779
30
0
11
43.63
21
-26.739113
31
0
12
47.13
22
-27.322446
32
0
13
47.13
23
-27.322446
33
0
39
0
210
0
220
0
230
1
0
MTEXT
5
237
100
AcDbEntity
8
0
62
256
6
ByLayer
370
18
48
1
60
0
100
AcDbMText
10
52.13
20
-20.322446
30
0
210
0
220
0
230
1
1
\A1;10
40
3.5
41
0
44
1
50
0
71
5
72
5
7
iso_b_vert
0
POINT
5
238
100
AcDbEntity
8
Defpoints
62
0
6
ByLayer
370
-1
48
1
60
0
100
AcDbPoint
10
57.13
20
0
30
0
39
0
210
0
220
0
230
1
50
360
0
POINT
5
239
100
AcDbEntity
8
Defpoints
62
0
6
ByLayer
370
-1
48
1
60
0
100
AcDbPoint
10
47.13
20
0
30
0
39
0
210
0
220
0
230
1
50
360
0
POINT
5
23A
100
AcDbEntity
8
Defpoints
62
0
6
ByLayer
370
-1
48
1
60
0
100
AcDbPoint
10
47.13
20
-27.322446
30
0
39
0
210
0
220
0
230
1
50
360
0
ENDBLK
5
230
100
AcDbEntity
8
0
100
AcDbBlockEnd
0
BLOCK
5
242
100
AcDbEntity
8
0
100
AcDbBlockBegin
2
_U3
70
0
10
0
20
0
30
0
3
_U3
0
MTEXT
5
23C
100
AcDbEntity
8
SK2
62
256
6
ByLayer
370
18
48
1
60
0
100
AcDbMText
10
48.645734
20
-26.289813
30
0
210
0
220
0
230
1
1
\W0.6563;10.0
40
3.5
41
0
44
1.084337
50
0
71
7
72
5
7
iso_b_vert
0
LINE
5
23D
100
AcDbEntity
8
SK2
62
256
6
ByLayer
370
13
48
1
60
0
100
AcDbLine
10
57.13
20
-1.5875
30
0
11
57.13
21
-29.322446
31
0
39
0
210
0
220
0
230
1
0
LINE
5
23E
100
AcDbEntity
8
SK2
62
256
6
ByLayer
370
13
48
1
60
0
100
AcDbLine
10
47.13
20
-1.5875
30
0
11
47.13
21
-29.322446
31
0
39
0
210
0
220
0
230
1
0
LINE
5
23F
100
AcDbEntity
8
SK2
62
256
6
ByLayer
370
13
48
1
60
0
100
AcDbLine
10
57.13
20
-27.322446
30
0
11
47.13
21
-27.322446
31
0
39
0
210
0
220
0
230
1
0
SOLID
5
240
100
AcDbEntity
8
SK2
62
256
6
ByLayer
370
18
48
1
60
0
100
AcDbTrace
10
57.13
20
-27.322446
30
0
11
53.630002
21
-27.78323
31
0
12
53.629998
22
-26.861662
32
0
13
53.629998
23
-26.861662
33
0
39
0
210
0
220
0
230
1
0
SOLID
5
241
100
AcDbEntity
8
SK2
62
256
6
ByLayer
370
18
48
1
60
0
100
AcDbTrace
10
47.13
20
-27.322446
30
0
11
50.629998
21
-26.861662
31
0
12
50.630002
22
-27.78323
32
0
13
50.630002
23
-27.78323
33
0
39
0
210
0
220
0
230
1
0
ENDBLK
5
243
100
AcDbEntity
8
0
100
AcDbBlockEnd
0
BLOCK
5
248
100
AcDbEntity
8
0
100
AcDbBlockBegin
2
*D9
70
1
10
0
20
0
30
0
3
*D9
0
LINE
5
24A
100
AcDbEntity
8
0
62
256
6
ByLayer
370
-2
48
1
60
0
100
AcDbLine
10
57.13
20
1.5875
30
0
11
57.13
21
8.685524
31
0
39
0
210
0
220
0
230
1
0
LINE
5
24B
100
AcDbEntity
8
0
62
256
6
ByLayer
370
-2
48
1
60
0
100
AcDbLine
10
54.64
20
1.5875
30
0
11
54.64
21
8.685524
31
0
39
0
210
0
220
0
230
1
0
LINE
5
24C
100
AcDbEntity
8
0
62
256
6
ByLayer
370
-2
48
1
60
0
100
AcDbLine
10
60.63
20
6.685524
30
0
11
64.13
21
6.685524
31
0
39
0
210
0
220
0
230
1
0
LINE
5
24D
100
AcDbEntity
8
0
62
256
6
ByLayer
370
-2
48
1
60
0
100
AcDbLine
10
51.14
20
6.685524
30
0
11
47.64
21
6.685524
31
0
39
0
210
0
220
0
230
1
0
SOLID
5
24E
100
AcDbEntity
8
0
62
256
6
ByLayer
370
-1
48
1
60
0
100
AcDbTrace
10
60.63
20
7.268857
30
0
11
60.63
21
6.102191
31
0
12
57.13
22
6.685524
32
0
13
57.13
23
6.685524
33
0
39
0
210
0
220
0
230
1
0
SOLID
5
24F
100
AcDbEntity
8
0
62
256
6
ByLayer
370
-1
48
1
60
0
100
AcDbTrace
10
51.14
20
6.102191
30
0
11
51.14
21
7.268857
31
0
12
54.64
22
6.685524
32
0
13
54.64
23
6.685524
33
0
39
0
210
0
220
0
230
1
0
MTEXT
5
250
100
AcDbEntity
8
0
62
256
6
ByLayer
370
18
48
1
60
0
100
AcDbMText
10
55.885
20
13.685524
30
0
210
0
220
0
230
1
1
\A1;2.49
40
3.5
41
0
44
1
50
0
71
5
72
5
7
iso_b_vert
0
POINT
5
251
100
AcDbEntity
8
Defpoints
62
0
6
ByLayer
370
-1
48
1
60
0
100
AcDbPoint
10
57.13
20
0
30
0
39
0
210
0
220
0
230
1
50
360
0
POINT
5
252
100
AcDbEntity
8
Defpoints
62
0
6
ByLayer
370
-1
48
1
60
0
100
AcDbPoint
10
54.64
20
0
30
0
39
0
210
0
220
0
230
1
50
360
0
POINT
5
253
100
AcDbEntity
8
Defpoints
62
0
6
ByLayer
370
-1
48
1
60
0
100
AcDbPoint
10
54.64
20
6.685524
30
0
39
0
210
0
220
0
230
1
50
360
0
ENDBLK
5
249
100
AcDbEntity
8
0
100
AcDbBlockEnd
0
BLOCK
5
25C
100
AcDbEntity
8
0
100
AcDbBlockBegin
2
_U4
70
0
10
0
20
0
30
0
3
_U4
0
MTEXT
5
255
100
AcDbEntity
8
SK2
62
256
6
ByLayer
370
18
48
1
60
0
100
AcDbMText
10
51.779034
20
14.718157
30
0
210
0
220
0
230
1
1
\W0.7756;2.49
40
3.5
41
0
44
1.084337
50
0
71
7
72
5
7
iso_b_vert
0
MTEXT
5
256
100
AcDbEntity
8
SK2
62
256
6
ByLayer
370
18
48
1
60
0
100
AcDbMText
10
51.779034
20
7.718157
30
0
210
0
220
0
230
1
1
\W0.6474;'C'
40
3.5
41
0
44
1.084337
50
0
71
7
72
5
7
iso_b_vert
0
LINE
5
257
100
AcDbEntity
8
SK2
62
256
6
ByLayer
370
13
48
1
60
0
100
AcDbLine
10
57.13
20
1.5875
30
0
11
57.13
21
8.685524
31
0
39
0
210
0
220
0
230
1
0
LINE
5
258
100
AcDbEntity
8
SK2
62
256
6
ByLayer
370
13
48
1
60
0
100
AcDbLine
10
54.64
20
1.5875
30
0
11
54.64
21
8.685524
31
0
39
0
210
0
220
0
230
1
0
LINE
5
259
100
AcDbEntity
8
SK2
62
256
6
ByLayer
370
13
48
1
60
0
100
AcDbLine
10
65.88
20
6.685524
30
0
11
45.89
21
6.685524
31
0
39
0
210
0
220
0
230
1
0
SOLID
5
25A
100
AcDbEntity
8
SK2
62
256
6
ByLayer
370
18
48
1
60
0
100
AcDbTrace
10
57.13
20
6.685524
30
0
11
60.629998
21
7.146308
31
0
12
60.630002
22
6.22474
32
0
13
60.630002
23
6.22474
33
0
39
0
210
0
220
0
230
1
0
SOLID
5
25B
100
AcDbEntity
8
SK2
62
256
6
ByLayer
370
18
48
1
60
0
100
AcDbTrace
10
54.64
20
6.685524
30
0
11
51.140002
21
6.22474
31
0
12
51.139998
22
7.146308
32
0
13
51.139998
23
7.146308
33
0
39
0
210
0
220
0
230
1
0
ENDBLK
5
25D
100
AcDbEntity
8
0
100
AcDbBlockEnd
0
BLOCK
5
262
100
AcDbEntity
8
0
100
AcDbBlockBegin
2
*D11
70
1
10
0
20
0
30
0
3
*D11
0
LINE
5
264
100
AcDbEntity
8
0
62
256
6
ByLayer
370
-2
48
1
60
0
100
AcDbLine
10
58.7175
20
-3.217762
30
0
11
75.88
21
-3.217762
31
0
39
0
210
0
220
0
230
1
0
LINE
5
265
100
AcDbEntity
8
0
62
256
6
ByLayer
370
-2
48
1
60
0
100
AcDbLine
10
58.7175
20
3.217762
30
0
11
75.88
21
3.217762
31
0
39
0
210
0
220
0
230
1
0
LINE
5
266
100
AcDbEntity
8
0
62
256
6
ByLayer
370
-2
48
1
60
0
100
AcDbLine
10
73.88
20
-6.717762
30
0
11
73.88
21
-10.217762
31
0
39
0
210
0
220
0
230
1
0
LINE
5
267
100
AcDbEntity
8
0
62
256
6
ByLayer
370
-2
48
1
60
0
100
AcDbLine
10
73.88
20
6.717762
30
0
11
73.88
21
10.217762
31
0
39
0
210
0
220
0
230
1
0
SOLID
5
268
100
AcDbEntity
8
0
62
256
6
ByLayer
370
-1
48
1
60
0
100
AcDbTrace
10
74.463333
20
-6.717762
30
0
11
73.296667
21
-6.717762
31
0
12
73.88
22
-3.217762
32
0
13
73.88
23
-3.217762
33
0
39
0
210
0
220
0
230
1
0
SOLID
5
269
100
AcDbEntity
8
0
62
256
6
ByLayer
370
-1
48
1
60
0
100
AcDbTrace
10
73.296667
20
6.717762
30
0
11
74.463333
21
6.717762
31
0
12
73.88
22
3.217762
32
0
13
73.88
23
3.217762
33
0
39
0
210
0
220
0
230
1
0
MTEXT
5
26A
100
AcDbEntity
8
0
62
256
6
ByLayer
370
18
48
1
60
0
100
AcDbMText
10
66.88
20
0
30
0
210
0
220
0
230
1
1
\A1;6.44
40
3.5
41
0
44
1
50
90
71
5
72
5
7
iso_b_vert
0
POINT
5
26B
100
AcDbEntity
8
Defpoints
62
0
6
ByLayer
370
-1
48
1
60
0
100
AcDbPoint
10
57.13
20
-3.217762
30
0
39
0
210
0
220
0
230
1
50
360
0
POINT
5
26C
100
AcDbEntity
8
Defpoints
62
0
6
ByLayer
370
-1
48
1
60
0
100
AcDbPoint
10
57.13
20
3.217762
30
0
39
0
210
0
220
0
230
1
50
360
0
POINT
5
26D
100
AcDbEntity
8
Defpoints
62
0
6
ByLayer
370
-1
48
1
60
0
100
AcDbPoint
10
73.88
20
3.217762
30
0
39
0
210
0
220
0
230
1
50
360
0
ENDBLK
5
263
100
AcDbEntity
8
0
100
AcDbBlockEnd
0
BLOCK
5
277
100
AcDbEntity
8
0
100
AcDbBlockBegin
2
_U5
70
0
10
0
20
0
30
0
3
_U5
0
MTEXT
5
26F
100
AcDbEntity
8
2
62
256
6
ByLayer
370
18
48
1
60
0
100
AcDbMText
10
73.190366
20
-19.427064
30
0
210
0
220
0
230
1
1
\W0.7383;UNF 1/4-28
40
3.5
41
0
44
1.084337
50
90
71
7
72
5
7
iso_b_vert
0
MTEXT
5
270
100
AcDbEntity
8
2
62
256
6
ByLayer
370
18
48
1
60
0
100
AcDbMText
10
73.190366
20
9.684999
30
0
210
0
220
0
230
1
1
\W0.7601; 3BX
40
3.5
41
0
44
1.084337
50
90
71
7
72
5
7
iso_b_vert
0
LINE
5
271
100
AcDbEntity
8
2
62
256
6
ByLayer
370
13
48
1
60
0
100
AcDbLine
10
58.7175
20
-3.217762
30
0
11
75.88
21
-3.217762
31
0
39
0
210
0
220
0
230
1
0
LINE
5
272
100
AcDbEntity
8
2
62
256
6
ByLayer
370
13
48
1
60
0
100
AcDbLine
10
58.7175
20
3.217762
30
0
11
75.88
21
3.217762
31
0
39
0
210
0
220
0
230
1
0
LINE
5
273
100
AcDbEntity
8
2
62
256
6
ByLayer
370
13
48
1
60
0
100
AcDbLine
10
73.88
20
-3.217762
30
0
11
73.88
21
-19.584564
31
0
39
0
210
0
220
0
230
1
0
LINE
5
274
100
AcDbEntity
8
2
62
256
6
ByLayer
370
13
48
1
60
0
100
AcDbLine
10
73.88
20
3.217762
30
0
11
73.88
21
11.967762
31
0
39
0
210
0
220
0
230
1
0
SOLID
5
275
100
AcDbEntity
8
2
62
256
6
ByLayer
370
18
48
1
60
0
100
AcDbTrace
10
73.88
20
-3.217762
30
0
11
74.340784
21
-6.71776
31
0
12
73.419216
22
-6.717764
32
0
13
73.419216
23
-6.717764
33
0
39
0
210
0
220
0
230
1
0
SOLID
5
276
100
AcDbEntity
8
2
62
256
6
ByLayer
370
18
48
1
60
0
100
AcDbTrace
10
73.88
20
3.217762
30
0
11
73.419216
21
6.71776
31
0
12
74.340784
22
6.717764
32
0
13
74.340784
23
6.717764
33
0
39
0
210
0
220
0
230
1
0
ENDBLK
5
278
100
AcDbEntity
8
0
100
AcDbBlockEnd
0
ENDSEC
0
SECTION
2
ENTITIES
0
ARC
5
C9
100
AcDbEntity
8
SK1
62
256
6
ByLayer
370
18
48
1
60
0
100
AcDbCircle
39
0
10
-17.425
20
0
30
0
40
3.10896000000018
210
0
220
0
230
1
100
AcDbArc
50
321.260905
51
38.739095
0
ARC
5
CA
100
AcDbEntity
8
1
62
256
6
ByLayer
370
18
48
1
60
0
100
AcDbCircle
39
0
10
32.226238
20
-3.6374
30
0
40
1.1
210
0
220
0
230
1
100
AcDbArc
50
90
51
100
0
ARC
5
CB
100
AcDbEntity
8
1
62
256
6
ByLayer
370
18
48
1
60
0
100
AcDbCircle
39
0
10
32.226238
20
3.6374
30
0
40
1.1
210
0
220
0
230
1
100
AcDbArc
50
260
51
270
0
POINT
5
70
100
AcDbEntity
8
80
62
256
6
ByLayer
370
18
48
1
60
0
100
AcDbPoint
10
0
20
0
30
0
39
0
210
0
220
0
230
1
50
360
0
POINT
5
72
100
AcDbEntity
8
81
62
256
6
ByLayer
370
18
48
1
60
0
100
AcDbPoint
10
57.13
20
0
30
0
39
0
210
0
220
0
230
1
50
360
0
POINT
5
74
100
AcDbEntity
8
1
62
256
6
ByLayer
370
18
48
1
60
0
100
AcDbPoint
10
-22.87
20
0
30
0
39
0
210
0
220
0
230
1
50
360
0
POINT
5
76
100
AcDbEntity
8
1
62
256
6
ByLayer
370
18
48
1
60
1
100
AcDbPoint
10
-22.87
20
0
30
0
39
0
210
0
220
0
230
1
50
360
0
POINT
5
77
100
AcDbEntity
8
1
62
256
6
ByLayer
370
18
48
1
60
1
100
AcDbPoint
10
57.13
20
0
30
0
39
0
210
0
220
0
230
1
50
360
0
POINT
5
78
100
AcDbEntity
8
1
62
256
6
ByLayer
370
18
48
1
60
1
100
AcDbPoint
10
57.13
20
0
30
0
39
0
210
0
220
0
230
1
50
360
0
POINT
5
79
100
AcDbEntity
8
1
62
256
6
ByLayer
370
18
48
1
60
1
100
AcDbPoint
10
32.13
20
0
30
0
39
0
210
0
220
0
230
1
50
360
0
POINT
5
7A
100
AcDbEntity
8
1
62
256
6
ByLayer
370
18
48
1
60
1
100
AcDbPoint
10
57.13
20
0
30
0
39
0
210
0
220
0
230
1
50
360
0
POINT
5
7B
100
AcDbEntity
8
1
62
256
6
ByLayer
370
18
48
1
60
1
100
AcDbPoint
10
35.88
20
0
30
0
39
0
210
0
220
0
230
1
50
360
0
POINT
5
7C
100
AcDbEntity
8
1
62
256
6
ByLayer
370
18
48
1
60
1
100
AcDbPoint
10
57.13
20
0
30
0
39
0
210
0
220
0
230
1
50
360
0
POINT
5
7D
100
AcDbEntity
8
1
62
256
6
ByLayer
370
18
48
1
60
1
100
AcDbPoint
10
47.13
20
0
30
0
39
0
210
0
220
0
230
1
50
360
0
POINT
5
7E
100
AcDbEntity
8
1
62
256
6
ByLayer
370
18
48
1
60
1
100
AcDbPoint
10
57.13
20
0
30
0
39
0
210
0
220
0
230
1
50
360
0
POINT
5
7F
100
AcDbEntity
8
1
62
256
6
ByLayer
370
18
48
1
60
1
100
AcDbPoint
10
54.64
20
0
30
0
39
0
210
0
220
0
230
1
50
360
0
POINT
5
80
100
AcDbEntity
8
1
62
256
6
ByLayer
370
18
48
1
60
1
100
AcDbPoint
10
57.13
20
-3.217762
30
0
39
0
210
0
220
0
230
1
50
360
0
POINT
5
81
100
AcDbEntity
8
1
62
256
6
ByLayer
370
18
48
1
60
1
100
AcDbPoint
10
57.13
20
3.217762
30
0
39
0
210
0
220
0
230
1
50
360
0
SPLINE
5
CC
100
AcDbEntity
8
1
62
256
6
ByLayer
370
13
48
1
60
0
100
AcDbSpline
70
4
71
3
72
8
73
4
40
0
40
0
40
0
40
0
40
1
40
1
40
1
40
1
41
1
10
49.6621016943693
20
-2.70094697773126
30
0
41
1
10
49.6684531093954
20
-2.70656469785649
30
0
41
1
10
49.6747529462306
20
-2.70427492705935
30
0
41
1
10
49.6810096344843
20
-2.69447499491446
30
0
0
SPLINE
5
CD
100
AcDbEntity
8
1
62
256
6
ByLayer
370
18
48
1
60
0
100
AcDbSpline
70
4
71
3
72
10
73
6
40
0
40
0
40
0
40
0
40
0.327422670705477
40
0.327422670705477
40
1
40
1
40
1
40
1
41
1
10
55.4009142353034
20
-2.78844638910957
30
0
41
1
10
55.3954734527599
20
-2.79074273329809
30
0
41
1
10
55.3900128765776
20
-2.78965832306295
30
0
41
1
10
55.3731161189543
20
-2.77625733966386
30
0
41
1
10
55.3614173330857
20
-2.7533562755994
30
0
41
1
10
55.3490395099488
20
-2.71607788264197
30
0
0
SPLINE
5
CE
100
AcDbEntity
8
1
62
256
6
ByLayer
370
13
48
1
60
0
100
AcDbSpline
70
4
71
3
72
9
73
5
40
0
40
0
40
0
40
0
40
0.691992524683072
40
1
40
1
40
1
40
1
41
1.04
10
51.2439092196893
20
2.69240117254071
30
0
41
1.04
10
51.24984329255
20
2.70325197995014
30
0
41
1.04
10
51.2584803810175
20
2.70918824645362
30
0
41
1.04
10
51.2672189033946
20
2.70018201338446
30
0
41
1.04
10
51.269921206203
20
2.69596465832239
30
0
0
SPLINE
5
CF
100
AcDbEntity
8
1
62
256
6
ByLayer
370
18
48
1
60
0
100
AcDbSpline
70
4
71
3
72
8
73
4
40
0
40
0
40
0
40
0
40
1
40
1
40
1
40
1
41
1
10
49.4967311031388
20
-2.95045034710549
30
0
41
1
10
49.5021824907222
20
-2.96547138525122
30
0
41
1
10
49.5075689684419
20
-2.97328742601258
30
0
41
1
10
49.5129314944219
20
-2.97401993490331
30
0
0
SPLINE
5
D0
100
AcDbEntity
8
1
62
256
6
ByLayer
370
13
48
1
60
0
100
AcDbSpline
70
4
71
3
72
8
73
4
40
0
40
0
40
0
40
0
40
1
40
1
40
1
40
1
41
1.04
10
55.3111109460037
20
-2.64918743612882
30
0
41
1.04
10
55.3166438550427
20
-2.6697363983689
30
0
41
1.04
10
55.3221523187287
20
-2.68452137974219
30
0
41
1.04
10
55.3276374657685
20
-2.69355072354197
30
0
0
SPLINE
5
D1
100
AcDbEntity
8
1
62
256
6
ByLayer
370
18
48
1
60
0
100
AcDbSpline
70
4
71
3
72
10
73
6
40
0
40
0
40
0
40
0
40
0.486060606048891
40
0.486060606048891
40
1
40
1
40
1
40
1
41
1
10
49.0997948017474
20
-2.90341780233231
30
0
41
1
10
49.0955506649604
20
-2.89545691823122
30
0
41
1
10
49.0912425793041
20
-2.88422411508145
30
0
41
1
10
49.0822744034399
20
-2.854175238891
30
0
41
1
10
49.0776918773866
20
-2.83519305531936
30
0
41
1
10
49.0731240676081
20
-2.81278538018907
30
0
0
SPLINE
5
D2
100
AcDbEntity
8
1
62
256
6
ByLayer
370
18
48
1
60
0
100
AcDbSpline
70
4
71
3
72
11
73
7
40
0
40
0
40
0
40
0
40
0.392517443865589
40
0.785034887731178
40
0.785034887731178
40
1
40
1
40
1
40
1
41
1
10
51.5875232058396
20
3.13173078967438
30
0
41
1
10
51.5830715215985
20
3.15433667843388
30
0
41
1
10
51.5742304275192
20
3.19046224313712
30
0
41
1
10
51.5654468701774
20
3.20893555907406
30
0
41
1
10
51.5586620004184
20
3.21642926094265
30
0
41
1
10
51.556264794305
20
3.2177629933235
30
0
41
1
10
51.5538688698825
20
3.21776368096778
30
0
0
SPLINE
5
D3
100
AcDbEntity
8
1
62
256
6
ByLayer
370
18
48
1
60
0
100
AcDbSpline
70
4
71
3
72
12
73
8
40
0
40
0
40
0
40
0
40
0.47312727920086
40
0.47312727920086
40
0.73656363960043
40
0.73656363960043
40
1
40
1
40
1
40
1
41
1
10
51.652815764609
20
3.20496944514269
30
0
41
1
10
51.6567228794201
20
3.19717314413904
30
0
41
1
10
51.6606482671454
20
3.18580202649116
30
0
41
1
10
51.6668598809527
20
3.1623953379958
30
0
41
1
10
51.6691037644803
20
3.15286874883105
30
0
41
1
10
51.6736022328355
20
3.13164979369037
30
0
41
1
10
51.6758600337933
20
3.1199480273938
30
0
41
1
10
51.6781237753598
20
3.10715786484883
30
0
0
SPLINE
5
D4
100
AcDbEntity
8
1
62
256
6
ByLayer
370
13
48
1
60
0
100
AcDbSpline
70
4
71
3
72
8
73
4
40
0
40
0
40
0
40
0
40
1
40
1
40
1
40
1
41
1
10
55.0706864935175
20
-2.5962603429457
30
0
41
1
10
55.088861730228
20
-2.69020276158298
30
0
41
1
10
55.1067676836298
20
-2.72265612001615
30
0
41
1
10
55.1244435636149
20
-2.69400786896995
30
0
0
SPLINE
5
D5
100
AcDbEntity
8
1
62
256
6
ByLayer
370
13
48
1
60
0
100
AcDbSpline
70
4
71
3
72
9
73
5
40
0
40
0
40
0
40
0
40
0.484740392251937
40
1
40
1
40
1
40
1
41
1.04
10
48.9481081138597
20
-2.58868349415038
30
0
41
1.04
10
48.9528298786714
20
-2.61401261182013
30
0
41
1.04
10
48.9625766024632
20
-2.65776145527412
30
0
41
1.04
10
48.9723532073007
20
-2.68343327715119
30
0
41
1.04
10
48.977385834106
20
-2.69184305212343
30
0
0
SPLINE
5
D6
100
AcDbEntity
8
1
62
256
6
ByLayer
370
13
48
1
60
0
100
AcDbSpline
70
4
71
3
72
8
73
4
40
0
40
0
40
0
40
0
40
1
40
1
40
1
40
1
41
1
10
51.9509594178176
20
2.69109924619428
30
0
41
1
10
51.9617823005087
20
2.67092117349279
30
0
41
1
10
51.972793546366
20
2.62794506064623
30
0
41
1
10
51.9838754777044
20
2.56144328768568
30
0
0
SPLINE
5
D7
100
AcDbEntity
8
1
62
256
6
ByLayer
370
13
48
1
60
0
100
AcDbSpline
70
4
71
3
72
9
73
5
40
0
40
0
40
0
40
0
40
0.3920600237445
40
1
40
1
40
1
40
1
41
1
10
48.7075991861783
20
-2.51570946605292
30
0
41
1
10
48.7165160489116
20
-2.57658618523868
30
0
41
1
10
48.7392521191767
20
-2.69527822930593
30
0
41
1
10
48.7621512159704
20
-2.71520242660139
30
0
41
1
10
48.7758649082605
20
-2.69050213191483
30
0
0
SPLINE
5
D8
100
AcDbEntity
8
1
62
256
6
ByLayer
370
18
48
1
60
0
100
AcDbSpline
70
4
71
3
72
19
73
15
40
0
40
0
40
0
40
0
40
0.200646547824433
40
0.200646547824433
40
0.300969821736649
40
0.300969821736649
40
0.401293095648866
40
0.401293095648866
40
0.601939643473299
40
0.802586191297732
40
0.802586191297732
40
0.902909465209948
40
0.902909465209948
40
1
40
1
40
1
40
1
41
1
10
54.9219436957205
20
-2.76809594533191
30
0
41
1
10
54.9223530794587
20
-2.80315473349995
30
0
41
1
10
54.9229244897237
20
-2.83456073696127
30
0
41
1
10
54.9240444743323
20
-2.87619682028728
30
0
41
1
10
54.9244621562047
20
-2.88911076594175
30
0
41
1
10
54.9253832490039
20
-2.91294304855907
30
0
41
1
10
54.9258858147253
20
-2.9238819358045
30
0
41
1
10
54.9275068429267
20
-2.95384273446405
30
0
41
1
10
54.9299678752014
20
-2.98619341669783
30
0
41
1
10
54.9329584940898
20
-3.00368205618378
30
0
41
1
10
54.935404447517
20
-3.01112191106589
30
0
41
1
10
54.9362539107156
20
-3.01265339651289
30
0
41
1
10
54.9379973386734
20
-3.01375364925505
30
0
41
1
10
54.9388913695277
20
-3.01337847403391
30
0
41
1
10
54.9398153840628
20
-3.01207603229008
30
0
0
SPLINE
5
D9
100
AcDbEntity
8
1
62
256
6
ByLayer
370
18
48
1
60
0
100
AcDbSpline
70
4
71
3
72
17
73
13
40
0
40
0
40
0
40
0
40
0.0277991131865891
40
0.270849334889941
40
0.270849334889941
40
0.392374445741617
40
0.392374445741617
40
0.513899556593294
40
0.513899556593294
40
0.756949778296647
40
0.756949778296647
40
1
40
1
40
1
40
1
41
1
10
54.6719280195879
20
-3.12785151603109
30
0
41
1
10
54.6712416851634
20
-3.12657468073212
30
0
41
1
10
54.6645469463735
20
-3.1135769155604
30
0
41
1
10
54.6577790490296
20
-3.09515518414855
30
0
41
1
10
54.6485674214026
20
-3.0636322227848
30
0
41
1
10
54.6454761408987
20
-3.05198110311147
30
0
41
1
10
54.6393156513291
20
-3.02665029519008
30
0
41
1
10
54.6362389961737
20
-3.01294792309841
30
0
41
1
10
54.6270090803372
20
-2.96875899570213
30
0
41
1
10
54.6208518624324
20
-2.93519217158473
30
0
41
1
10
54.608504490476
20
-2.85985695825286
30
0
41
1
10
54.6023230641752
20
-2.81808924754697
30
0
41
1
10
54.5960867499795
20
-2.77209169855843
30
0
0
SPLINE
5
DA
100
AcDbEntity
8
1
62
256
6
ByLayer
370
13
48
1
60
0
100
AcDbSpline
70
4
71
3
72
9
73
5
40
0
40
0
40
0
40
0
40
0.225490276879561
40
1
40
1
40
1
40
1
41
1.04
10
54.3566916995094
20
-2.33922836894847
30
0
41
1.04
10
54.3612609424818
20
-2.38239340911302
30
0
41
1.04
10
54.3815528404865
20
-2.55823401241441
30
0
41
1.04
10
54.4019994697216
20
-2.65962802302601
30
0
41
1.04
10
54.4180664113723
20
-2.6890991465021
30
0
0
SPLINE
5
DB
100
AcDbEntity
8
1
62
256
6
ByLayer
370
18
48
1
60
0
100
AcDbSpline
70
4
71
3
72
18
73
14
40
0
40
0
40
0
40
0
40
0.204098155150692
40
0.204098155150692
40
0.306147232726039
40
0.306147232726039
40
0.357171771513712
40
0.357171771513712
40
0.408196310301385
40
0.408196310301385
40
0.816392620602757
40
0.816392620602757
40
1
40
1
40
1
40
1
41
1
10
48.6180687087488
20
-2.60641134872415
30
0
41
1
10
48.6217992954964
20
-2.63924385315181
30
0
41
1
10
48.6255351044654
20
-2.6690279246946
30
0
41
1
10
48.631166294462
20
-2.70905066642643
30
0
41
1
10
48.6330479110467
20
-2.72161497732887
30
0
41
1
10
48.6358794371665
20
-2.73927653310218
30
0
41
1
10
48.6368258929485
20
-2.74497228192581
30
0
41
1
10
48.6387145046613
20
-2.75592076400943
30
0
41
1
10
48.6396570777438
20
-2.76117664132732
30
0
41
1
10
48.6481262118336
20
-2.80653322054226
30
0
41
1
10
48.655510265162
20
-2.83310153612877
30
0
41
1
10
48.6664862563789
20
-2.85229116752331
30
0
41
1
10
48.6699303062815
20
-2.8555329530432
30
0
41
1
10
48.6734123614955
20
-2.85601776298276
30
0
0
SPLINE
5
DC
100
AcDbEntity
8
1
62
256
6
ByLayer
370
18
48
1
60
0
100
AcDbSpline
70
4
71
3
72
19
73
15
40
0
40
0
40
0
40
0
40
0.0284951904118337
40
0.0284951904118337
40
0.352330126941215
40
0.352330126941215
40
0.43328886107356
40
0.43328886107356
40
0.473768228139734
40
0.473768228139734
40
0.514247595205907
40
0.676165063470605
40
0.676165063470605
40
1
40
1
40
1
40
1
41
1
10
48.112285591769
20
-2.76478371130509
30
0
41
1
10
48.1115198312897
20
-2.76339674541899
30
0
41
1
10
48.1107545724266
20
-2.76191151823207
30
0
41
1
10
48.1012974539982
20
-2.74233718131708
30
0
41
1
10
48.092624701765
20
-2.71176563576282
30
0
41
1
10
48.0814952210686
20
-2.65752424598654
30
0
41
1
10
48.0792561588762
20
-2.64586958781012
30
0
41
1
10
48.0758752160278
20
-2.62715653804892
30
0
41
1
10
48.0747434520334
20
-2.62070702548252
30
0
41
1
10
48.0724823059917
20
-2.60745367793561
30
0
41
1
10
48.0668306814924
20
-2.57340823281601
30
0
41
1
10
48.0611818922011
20
-2.53485851196763
30
0
41
1
10
48.0476290793453
20
-2.43389838602835
30
0
41
1
10
48.0386029951923
20
-2.35539572180045
30
0
41
1
10
48.029601318212
20
-2.26553145360816
30
0
0
SPLINE
5
DD
100
AcDbEntity
8
1
62
256
6
ByLayer
370
13
48
1
60
0
100
AcDbSpline
70
4
71
3
72
10
73
6
40
0
40
0
40
0
40
0
40
0.340007931539763
40
0.938348480729161
40
1
40
1
40
1
40
1
41
1.04
10
52.153885299646
20
2.6967184783175
30
0
41
1.04
10
52.1616247011087
20
2.70779568788131
30
0
41
1.04
10
52.1832105755862
20
2.70673546676636
30
0
41
1.04
10
52.2070611708939
20
2.60627798362354
30
0
41
1.04
10
52.222887354917
20
2.49180044478276
30
0
41
1.04
10
52.2243664152551
20
2.48069553690538
30
0
0
SPLINE
5
DE
100
AcDbEntity
8
1
62
256
6
ByLayer
370
13
48
1
60
0
100
AcDbSpline
70
4
71
3
72
8
73
4
40
0
40
0
40
0
40
0
40
1
40
1
40
1
40
1
41
1.04
10
47.9936929031199
20
-2.20369317407005
30
0
41
1.04
10
48.0195797475245
20
-2.48396118344603
30
0
41
1.04
10
48.0441536022203
20
-2.6415632545498
30
0
41
1.04
10
48.0679351903017
20
-2.6879490816107
30
0
0
SPLINE
5
DF
100
AcDbEntity
8
1
62
256
6
ByLayer
370
13
48
1
60
0
100
AcDbSpline
70
4
71
3
72
10
73
6
40
0
40
0
40
0
40
0
40
0.0176572360372779
40
0.917055444921081
40
1
40
1
40
1
40
1
41
1
10
47.7531372635124
20
-2.06561972309694
30
0
41
1
10
47.7537263443915
20
-2.07274901893894
30
0
41
1
10
47.7842845414648
20
-2.43979744511617
30
0
41
1
10
47.8155660634286
20
-2.65678092410585
30
0
41
1
10
47.8450679582663
20
-2.6974719788009
30
0
41
1
10
47.8475506311962
20
-2.69970337836719
30
0
0
SPLINE
5
E0
100
AcDbEntity
8
1
62
256
6
ByLayer
370
18
48
1
60
0
100
AcDbSpline
70
4
71
3
72
21
73
17
40
0
40
0
40
0
40
0
40
0.162691655931524
40
0.325383311863048
40
0.325383311863048
40
0.488074967794572
40
0.488074967794572
40
0.569420795760334
40
0.569420795760334
40
0.650766623726097
40
0.650766623726097
40
0.813458279657622
40
0.813458279657622
40
0.976149935589148
40
0.976149935589148
40
1
40
1
40
1
40
1
41
1
10
52.5421183017713
20
2.72568260722193
30
0
41
1
10
52.5375303003241
20
2.77803771178952
30
0
41
1
10
52.5283825863345
20
2.87436565110141
30
0
41
1
10
52.5194431777995
20
2.95441349878496
30
0
41
1
10
52.5107346007287
20
3.02635610102502
30
0
41
1
10
52.5064970418957
20
3.05827483663148
30
0
41
1
10
52.5001194218709
20
3.09994347027487
30
0
41
1
10
52.4979907036962
20
3.11279653860231
30
0
41
1
10
52.4937038625958
20
3.13638780907334
30
0
41
1
10
52.4915594704395
20
3.14704843468084
30
0
41
1
10
52.4851131885801
20
3.17562238284941
30
0
41
1
10
52.4807880707479
20
3.19016639686112
30
0
41
1
10
52.4720621661637
20
3.21043874277638
30
0
41
1
10
52.4676715818518
20
3.21616680479934
30
0
41
1
10
52.46261712547
20
3.21766478115364
30
0
41
1
10
52.4619704835853
20
3.21776129202851
30
0
41
1
10
52.4613234081282
20
3.21776239439663
30
0
0
SPLINE
5
E1
100
AcDbEntity
8
1
62
256
6
ByLayer
370
18
48
1
60
0
100
AcDbSpline
70
4
71
3
72
20
73
16
40
0
40
0
40
0
40
0
40
0.11602098894895
40
0.11602098894895
40
0.204418890054054
40
0.204418890054054
40
0.292816791159159
40
0.292816791159159
40
0.469612593369369
40
0.64640839557958
40
0.82320419778979
40
0.82320419778979
40
0.911602098894895
40
0.911602098894895
40
1
40
1
40
1
40
1
41
1
10
52.558070112565
20
3.20881458801947
30
0
41
1
10
52.5609880948218
20
3.20404474184536
30
0
41
1
10
52.5639099937387
20
3.19735995302389
30
0
41
1
10
52.5690517292062
20
3.18216258616727
30
0
41
1
10
52.5712709987274
20
3.17446234006863
30
0
41
1
10
52.5757022458225
20
3.15675986262943
30
0
41
1
10
52.5779019059216
20
3.14680886647301
30
0
41
1
10
52.5844508162832
20
3.11379358437978
30
0
41
1
10
52.5930644690328
20
3.06129303943931
30
0
41
1
10
52.6058858525945
20
2.95765292472962
30
0
41
1
10
52.6145280238214
20
2.87192083501373
30
0
41
1
10
52.6210978340984
20
2.8012078635125
30
0
41
1
10
52.6233050302017
20
2.77653226489881
30
0
41
1
10
52.6277239176442
20
2.72536992481511
30
0
41
1
10
52.6299390302479
20
2.69884860419714
30
0
41
1
10
52.6321621665523
20
2.671390492634
30
0
0
SPLINE
5
E2
100
AcDbEntity
8
1
62
256
6
ByLayer
370
13
48
1
60
0
100
AcDbSpline
70
4
71
3
72
9
73
5
40
0
40
0
40
0
40
0
40
0.106080908259787
40
1
40
1
40
1
40
1
41
1
10
52.8560265345319
20
2.69536809527401
30
0
41
1
10
52.8590134881696
20
2.690599048015
30
0
41
1
10
52.8870812425307
20
2.62930187469178
30
0
41
1
10
52.9143446156392
20
2.41605998740795
30
0
41
1
10
52.9384184120084
20
2.14043214358332
30
0
0
SPLINE
5
E3
100
AcDbEntity
8
1
62
256
6
ByLayer
370
18
48
1
60
0
100
AcDbSpline
70
4
71
3
72
22
73
18
40
0
40
0
40
0
40
0
40
0.25
40
0.25
40
0.375000000000001
40
0.375000000000001
40
0.4375
40
0.4375
40
0.5
40
0.5
40
0.75
40
0.75
40
0.874999999999999
40
0.874999999999999
40
0.9375
40
0.9375
40
1
40
1
40
1
40
1
41
1
10
47.7411593390635
20
-2.07056197765999
30
0
41
1
10
47.7484762852759
20
-2.16899349598089
30
0
41
1
10
47.7556223849848
20
-2.2569165907241
30
0
41
1
10
47.7662479559029
20
-2.37353757972673
30
0
41
1
10
47.769776591442
20
-2.40985435284307
30
0
41
1
10
47.7750844536908
20
-2.46044103750458
30
0
41
1
10
47.7768562928408
20
-2.47665438607075
30
0
41
1
10
47.7804114519727
20
-2.50776438258541
30
0
41
1
10
47.7821989590784
20
-2.52269299069141
30
0
41
1
10
47.7911171550664
20
-2.59347952016458
30
0
41
1
10
47.7982042060614
20
-2.63796254017953
30
0
41
1
10
47.8089842323255
20
-2.6871320222541
30
0
41
1
10
47.8126007954982
20
-2.700580619714
30
0
41
1
10
47.8180667611477
20
-2.71628797057838
30
0
41
1
10
47.8198953911239
20
-2.7207785474715
30
0
41
1
10
47.8235646032069
20
-2.72824845526222
30
0
41
1
10
47.825407893433
20
-2.73123081425879
30
0
41
1
10
47.827251951544
20
-2.73343641664098
30
0
0
SPLINE
5
E4
100
AcDbEntity
8
1
62
256
6
ByLayer
370
13
48
1
60
0
100
AcDbSpline
70
4
71
3
72
9
73
5
40
0
40
0
40
0
40
0
40
0.292773796020238
40
1
40
1
40
1
40
1
41
1
10
54.116125086314
20
-2.21719715168786
30
0
41
1
10
54.1248955916453
20
-2.31172470323844
30
0
41
1
10
54.1549155351791
20
-2.59322812126288
30
0
41
1
10
54.1852752056079
20
-2.71112099388972
30
0
41
1
10
54.2072581365057
20
-2.70173610890785
30
0
0
SPLINE
5
E5
100
AcDbEntity
8
1
62
256
6
ByLayer
370
18
48
1
60
0
100
AcDbSpline
70
4
71
3
72
22
73
18
40
0
40
0
40
0
40
0
40
0.250000000000002
40
0.250000000000002
40
0.312500000000002
40
0.312500000000002
40
0.375000000000002
40
0.375000000000002
40
0.500000000000002
40
0.500000000000002
40
0.750000000000001
40
0.750000000000001
40
0.812500000000001
40
0.812500000000001
40
0.875
40
0.875
40
1
40
1
40
1
40
1
41
1
10
47.4480981272188
20
2.60582822130465
30
0
41
1
10
47.4551832828264
20
2.57207354431287
30
0
41
1
10
47.4622604242737
20
2.52710042686857
30
0
41
1
10
47.4711418094569
20
2.45668057048277
30
0
41
1
10
47.4729197994008
20
2.44188204430699
30
0
41
1
10
47.4764802887829
20
2.41083324747547
30
0
41
1
10
47.4782655241516
20
2.39455420260109
30
0
41
1
10
47.4835824873182
20
2.34395976253748
30
0
41
1
10
47.487081741163
20
2.3077786687094
30
0
41
1
10
47.4975432240797
20
2.19208272416085
30
0
41
1
10
47.5045515752043
20
2.10547169685879
30
0
41
1
10
47.5137252316704
20
1.98532819437128
30
0
41
1
10
47.5155783003188
20
1.96070156821918
30
0
41
1
10
47.5193214688225
20
1.91023557111603
30
0
41
1
10
47.5212154438198
20
1.88434235507256
30
0
41
1
10
47.5269193082134
20
1.80520804416094
30
0
41
1
10
47.5307383224483
20
1.75072517561864
30
0
41
1
10
47.5345348061539
20
1.69456080960086
30
0
0
SPLINE
5
E6
100
AcDbEntity
8
1
62
256
6
ByLayer
370
18
48
1
60
0
100
AcDbSpline
70
4
71
3
72
22
73
18
40
0
40
0
40
0
40
0
40
0.125000000000001
40
0.250000000000001
40
0.375000000000001
40
0.375000000000001
40
0.437500000000001
40
0.437500000000001
40
0.500000000000001
40
0.500000000000001
40
0.625
40
0.75
40
0.874999999999999
40
0.874999999999999
40
0.9375
40
0.9375
40
1
40
1
40
1
40
1
41
1
10
53.7993293810994
20
-2.35838148597767
30
0
41
1
10
53.8037566969942
20
-2.42543608490996
30
0
41
1
10
53.8126426478453
20
-2.55196868888268
30
0
41
1
10
53.8260991131769
20
-2.71970200270778
30
0
41
1
10
53.8351121450724
20
-2.81688187582438
30
0
41
1
10
53.8418513681784
20
-2.88416420358584
30
0
41
1
10
53.8440941488062
20
-2.90565643311399
30
0
41
1
10
53.8485641769009
20
-2.94673321085759
30
0
41
1
10
53.8507772634405
20
-2.96619749942857
30
0
41
1
10
53.8573543120202
20
-3.02124621885693
30
0
41
1
10
53.8659794731767
20
-3.08590286752491
30
0
41
1
10
53.8788127329668
20
-3.15722541493699
30
0
41
1
10
53.8874556677312
20
-3.18761688790221
30
0
41
1
10
53.894012557082
20
-3.2037951636562
30
0
41
1
10
53.8962132361212
20
-3.20808399660535
30
0
41
1
10
53.9006129545927
20
-3.21436920689069
30
0
41
1
10
53.9028153316488
20
-3.21637668254002
30
0
41
1
10
53.9050220221379
20
-3.21725302318066
30
0
0
SPLINE
5
E7
100
AcDbEntity
8
1
62
256
6
ByLayer
370
18
48
1
60
0
100
AcDbSpline
70
4
71
3
72
22
73
18
40
0
40
0
40
0
40
0
40
0.0891047705073551
40
0.219232660434876
40
0.349360550362397
40
0.349360550362397
40
0.414424495326157
40
0.414424495326157
40
0.479488440289917
40
0.479488440289917
40
0.609616330217437
40
0.739744220144958
40
0.869872110072479
40
0.869872110072479
40
0.934936055036239
40
0.934936055036239
40
1
40
1
40
1
40
1
41
1
10
53.810189959945
20
-3.20801528662784
30
0
41
1
10
53.8071646599387
20
-3.20279207407688
30
0
41
1
10
53.7997992703345
20
-3.18482825094168
30
0
41
1
10
53.7882827510094
20
-3.13655034212121
30
0
41
1
10
53.7797146556013
20
-3.08327909093444
30
0
41
1
10
53.7732077326196
20
-3.03670108325076
30
0
41
1
10
53.7710240874455
20
-3.02006930474312
30
0
41
1
10
53.7666207129248
20
-2.98454982318225
30
0
41
1
10
53.7644171296932
20
-2.96578095762365
30
0
41
1
10
53.757814496574
20
-2.90659195070705
30
0
41
1
10
53.7490250185136
20
-2.81992478911695
30
0
41
1
10
53.7358649001218
20
-2.66717554701418
30
0
41
1
10
53.7270505847666
20
-2.55012991231106
30
0
41
1
10
53.7203949089273
20
-2.45647853502652
30
0
41
1
10
53.7181664669342
20
-2.42424442617118
30
0
41
1
10
53.7137223550591
20
-2.35827506686451
30
0
41
1
10
53.711502894864
20
-2.32448856009162
30
0
41
1
10
53.7092838692627
20
-2.28990351542484
30
0
0
SPLINE
5
E8
100
AcDbEntity
8
1
62
256
6
ByLayer
370
13
48
1
60
0
100
AcDbSpline
70
4
71
3
72
9
73
5
40
0
40
0
40
0
40
0
40
0.789888695741149
40
1
40
1
40
1
40
1
41
1.04
10
53.4022252804151
20
-1.77541743880388
30
0
41
1.04
10
53.4259971329688
20
-2.11144198233211
30
0
41
1.04
10
53.4569135797491
20
-2.45634765085221
30
0
41
1.04
10
53.4899816028636
20
-2.6263806732453
30
0
41
1.04
10
53.4970595334976
20
-2.65288622875994
30
0
0
SPLINE
5
E9
100
AcDbEntity
8
1
62
256
6
ByLayer
370
13
48
1
60
0
100
AcDbSpline
70
4
71
3
72
10
73
6
40
0
40
0
40
0
40
0
40
0.322919265869339
40
0.999713631752785
40
1
40
1
40
1
40
1
41
1.04
10
47.6754717748424
20
2.56562306577538
30
0
41
1.04
10
47.6856445788998
20
2.50625167684928
30
0
41
1.04
10
47.7171473988319
20
2.26348408360154
30
0
41
1.04
10
47.7490102583043
20
1.84685086769031
30
0
41
1.04
10
47.7699608334165
20
1.52282710362996
30
0
41
1.04
10
47.7699696942563
20
1.52269005174256
30
0
0
SPLINE
5
EA
100
AcDbEntity
8
1
62
256
6
ByLayer
370
13
48
1
60
0
100
AcDbSpline
70
4
71
3
72
9
73
5
40
0
40
0
40
0
40
0
40
0.0910730445854024
40
1
40
1
40
1
40
1
41
1.04
10
53.084024342008
20
2.6962691429026
30
0
41
1.04
10
53.0869842713432
20
2.69174301212144
30
0
41
1.04
10
53.1193824702675
20
2.62333036560202
30
0
41
1.04
10
53.1507088741187
20
2.352110698817
30
0
41
1.04
10
53.1788551523559
20
1.99683606975584
30
0
0
SPLINE
5
EB
100
AcDbEntity
8
1
62
256
6
ByLayer
370
18
48
1
60
0
100
AcDbSpline
70
4
71
3
72
90
73
86
40
0
40
0
40
0
40
0
40
0.0312499999999972
40
0.0312499999999972
40
0.0624999999999944
40
0.0624999999999944
40
0.124999999999991
40
0.124999999999991
40
0.15624999999999
40
0.15624999999999
40
0.171874999999989
40
0.171874999999989
40
0.187499999999988
40
0.187499999999988
40
0.218749999999986
40
0.218749999999986
40
0.249999999999985
40
0.249999999999985
40
0.281249999999983
40
0.281249999999983
40
0.296874999999982
40
0.296874999999982
40
0.312499999999982
40
0.312499999999982
40
0.374999999999981
40
0.374999999999981
40
0.406249999999981
40
0.406249999999981
40
0.421874999999982
40
0.421874999999982
40
0.429687499999983
40
0.429687499999983
40
0.437499999999984
40
0.437499999999984
40
0.468749999999984
40
0.468749999999984
40
0.476562499999984
40
0.476562499999984
40
0.484374999999985
40
0.484374999999985
40
0.499999999999987
40
0.499999999999987
40
0.515624999999988
40
0.515624999999988
40
0.531249999999989
40
0.531249999999989
40
0.562499999999992
40
0.562499999999992
40
0.570312499999993
40
0.570312499999993
40
0.578124999999993
40
0.578124999999993
40
0.593749999999995
40
0.593749999999995
40
0.601562499999995
40
0.601562499999995
40
0.609374999999996
40
0.609374999999996
40
0.624999999999997
40
0.624999999999997
40
0.632812499999997
40
0.632812499999997
40
0.640624999999998
40
0.640624999999998
40
0.656249999999998
40
0.656249999999998
40
0.671874999999998
40
0.671874999999998
40
0.687499999999998
40
0.687499999999998
40
0.718749999999997
40
0.718749999999997
40
0.749999999999996
40
0.749999999999996
40
0.765624999999996
40
0.765624999999996
40
0.781249999999995
40
0.781249999999995
40
0.812499999999996
40
0.812499999999996
40
0.874999999999997
40
0.874999999999997
40
0.937499999999999
40
0.937499999999999
40
1
40
1
40
1
40
1
41
1
10
39.4465001339812
20
2.49305457888647
30
0
41
1
10
39.3912229339498
20
2.50205686426352
30
0
41
1
10
39.3355189073102
20
2.50954393586881
30
0
41
1
10
39.2224175250232
20
2.52164920053895
30
0
41
1
10
39.1650662660048
20
2.52628466327746
30
0
41
1
10
38.9903102520169
20
2.53650280251188
30
0
41
1
10
38.8700831906098
20
2.53836041144365
30
0
41
1
10
38.6823905246747
20
2.53626617529613
30
0
41
1
10
38.6185978049101
20
2.53475869082701
30
0
41
1
10
38.5207648670622
20
2.53165195281102
30
0
41
1
10
38.4878415546558
20
2.53047702358512
30
0
41
1
10
38.4217168986087
20
2.52793558361773
30
0
41
1
10
38.3884626066204
20
2.52656752138819
30
0
41
1
10
38.2880940004762
20
2.5222824387875
30
0
41
1
10
38.2203722994104
20
2.5191852116121
30
0
41
1
10
38.0830627284787
20
2.51312152105902
30
0
41
1
10
38.013499178376
20
2.51014591120992
30
0
41
1
10
37.8722614012977
20
2.50489410578985
30
0
41
1
10
37.8006934640879
20
2.50257087487449
30
0
41
1
10
37.6921580264941
20
2.49962625990233
30
0
41
1
10
37.655762321886
20
2.49873237268236
30
0
41
1
10
37.5827157376995
20
2.49711663598191
30
0
41
1
10
37.5462171027097
20
2.49640302347419
30
0
41
1
10
37.3638565580848
20
2.49339080971356
30
0
41
1
10
37.218380269549
20
2.49276952234132
30
0
41
1
10
37.0009217426166
20
2.49528193038407
30
0
41
1
10
36.9285597959756
20
2.49667398807077
30
0
41
1
10
36.8202343599963
20
2.49959551993416
30
0
41
1
10
36.7841623607877
20
2.50070800358404
30
0
41
1
10
36.7301160963642
20
2.50258141051194
30
0
41
1
10
36.7121109911652
20
2.50323996331286
30
0
41
1
10
36.6761229921513
20
2.50462422778273
30
0
41
1
10
36.6581478172254
20
2.50535012030795
30
0
41
1
10
36.5688844551364
20
2.50911488794847
30
0
41
1
10
36.4989720342113
20
2.51258420473573
30
0
41
1
10
36.4140326070053
20
2.51722039529233
30
0
41
1
10
36.3971680964368
20
2.51816140814418
30
0
41
1
10
36.3637094081341
20
2.52006006111645
30
0
41
1
10
36.3470844627365
20
2.52102058996238
30
0
41
1
10
36.298036720209
20
2.52388201885313
30
0
41
1
10
36.2663609695387
20
2.52576782427795
30
0
41
1
10
36.205305855489
20
2.5293346691559
30
0
41
1
10
36.1759323185383
20
2.53101801194123
30
0
41
1
10
36.1199253076069
20
2.53396314583344
30
0
41
1
10
36.0932396239992
20
2.53522564974526
30
0
41
1
10
36.0181732103405
20
2.53787389795122
30
0
41
1
10
35.9771417617734
20
2.53805354707023
30
0
41
1
10
35.9382328947682
20
2.53461407641237
30
0
41
1
10
35.931099237415
20
2.53374020042335
30
0
41
1
10
35.9183227397427
20
2.53162012832729
30
0
41
1
10
35.9126443153735
20
2.5303712255444
30
0
41
1
10
35.8976741701231
20
2.52602726135078
30
0
41
1
10
35.8904321558428
20
2.52233563282323
30
0
41
1
10
35.8835656493758
20
2.51547668412658
30
0
41
1
10
35.8819443874142
20
2.51295917610014
30
0
41
1
10
35.8800414882444
20
2.50754238426407
30
0
41
1
10
35.8797494017795
20
2.50463953698235
30
0
41
1
10
35.8807044426805
20
2.49535485139296
30
0
41
1
10
35.8836999924047
20
2.48839604529556
30
0
41
1
10
35.8920048656839
20
2.47683565419746
30
0
41
1
10
35.8954036683672
20
2.47278244948674
30
0
41
1
10
35.903336878289
20
2.46436433438205
30
0
41
1
10
35.9078520468694
20
2.46001644556336
30
0
41
1
10
35.922894567762
20
2.44658105429173
30
0
41
1
10
35.9349134193585
20
2.43710277352113
30
0
41
1
10
35.9623121552271
20
2.41720818151228
30
0
41
1
10
35.977699156795
20
2.40679359618653
30
0
41
1
10
36.010759471326
20
2.38502029570571
30
0
41
1
10
36.0285378382741
20
2.37364272238941
30
0
41
1
10
36.0840947222435
20
2.33861884611977
30
0
41
1
10
36.1242540977889
20
2.31394839214059
30
0
41
1
10
36.2085647413897
20
2.26208919046314
30
0
41
1
10
36.2527586148608
20
2.23490316757156
30
0
41
1
10
36.3212141712131
20
2.19228156897952
30
0
41
1
10
36.3443977809467
20
2.17776641500134
30
0
41
1
10
36.3913936571551
20
2.14812139916458
30
0
41
1
10
36.4152395484904
20
2.13297006902141
30
0
41
1
10
36.4873406576539
20
2.08675879456487
30
0
41
1
10
36.5360735634549
20
2.05499548061567
30
0
41
1
10
36.6836207588515
20
1.95683616666395
30
0
41
1
10
36.783803017189
20
1.88761477678901
30
0
41
1
10
36.9856155794853
20
1.74119050525701
30
0
41
1
10
37.0872659797409
20
1.66397996648402
30
0
41
1
10
37.2911022268809
20
1.50101138935622
30
0
41
1
10
37.3932971618955
20
1.41525239005154
30
0
41
1
10
37.4956520204328
20
1.32490280964765
30
0
0
SPLINE
5
EC
100
AcDbEntity
8
1
62
256
6
ByLayer
370
18
48
1
60
0
100
AcDbSpline
70
4
71
3
72
23
73
19
40
0
40
0
40
0
40
0
40
0.125
40
0.125
40
0.25
40
0.375000000000001
40
0.375000000000001
40
0.437500000000001
40
0.437500000000001
40
0.500000000000001
40
0.500000000000001
40
0.625000000000001
40
0.75
40
0.875
40
0.875
40
0.9375
40
0.9375
40
1
40
1
40
1
40
1
41
1
10
53.4967176578697
20
2.02804046774787
30
0
41
1
10
53.4922982530546
20
2.10446667951834
30
0
41
1
10
53.4879772551801
20
2.17751727154021
30
0
41
1
10
53.4793979175267
20
2.31705750263214
30
0
41
1
10
53.4708786304607
20
2.45003557041545
30
0
41
1
10
53.4622695682702
20
2.56994091357393
30
0
41
1
10
53.4557235180404
20
2.65486522363398
30
0
41
1
10
53.4535268514813
20
2.68233793191931
30
0
41
1
10
53.4490974690926
20
2.73557906336504
30
0
41
1
10
53.4468783119744
20
2.76118258802896
30
0
41
1
10
53.4402179662764
20
2.83480677377591
30
0
41
1
10
53.4313137201534
20
2.92466105659997
30
0
41
1
10
53.4178552757684
20
3.03504681568239
30
0
41
1
10
53.408835799273
20
3.09232798894107
30
0
41
1
10
53.4020697760859
20
3.12899996500696
30
0
41
1
10
53.3998115424278
20
3.14018288247479
30
0
41
1
10
53.3953305179344
20
3.16026545580922
30
0
41
1
10
53.3931041190974
20
3.16918734682832
30
0
41
1
10
53.3908930013246
20
3.17699444053392
30
0
0
SPLINE
5
ED
100
AcDbEntity
8
1
62
256
6
ByLayer
370
18
48
1
60
0
100
AcDbSpline
70
4
71
3
72
22
73
18
40
0
40
0
40
0
40
0
40
0.125000000000001
40
0.250000000000001
40
0.375000000000002
40
0.375000000000002
40
0.437500000000002
40
0.437500000000002
40
0.500000000000003
40
0.500000000000003
40
0.625000000000002
40
0.750000000000002
40
0.875000000000001
40
0.875000000000001
40
0.937500000000001
40
0.937500000000001
40
1
40
1
40
1
40
1
41
1
10
53.481426930725
20
3.15962956375239
30
0
41
1
10
53.4857464624075
20
3.14100026614435
30
0
41
1
10
53.4944169642254
20
3.09515198381683
30
0
41
1
10
53.5076607366709
20
3.00136067493349
30
0
41
1
10
53.5166178101429
20
2.92223039216387
30
0
41
1
10
53.5233571068746
20
2.8565287129619
30
0
41
1
10
53.525606781229
20
2.83356750815301
30
0
41
1
10
53.5301037583901
20
2.78548128640458
30
0
41
1
10
53.5323382517811
20
2.76049320680949
30
0
41
1
10
53.5389896287384
20
2.68296596927968
30
0
41
1
10
53.5477360931341
20
2.57258680567563
30
0
41
1
10
53.560681199498
20
2.38645003896005
30
0
41
1
10
53.5693354851149
20
2.24861263978516
30
0
41
1
10
53.5758878881138
20
2.13993666629747
30
0
41
1
10
53.5780851370535
20
2.10277603138394
30
0
41
1
10
53.5824772361221
20
2.02719232305427
30
0
41
1
10
53.5846753624422
20
1.9887167762285
30
0
41
1
10
53.5868789873198
20
1.94956009230651
30
0
0
SPLINE
5
EE
100
AcDbEntity
8
1
62
256
6
ByLayer
370
13
48
1
60
0
100
AcDbSpline
70
4
71
3
72
10
73
6
40
0
40
0
40
0
40
0
40
0.0386896041584446
40
0.258060910273634
40
1
40
1
40
1
40
1
41
1
10
53.7980506300701
20
2.55676040204469
30
0
41
1
10
53.7993160369826
20
2.5491583567628
30
0
41
1
10
53.8077417762073
20
2.49667686056219
30
0
41
1
10
53.8400054124262
20
2.24847107770074
30
0
41
1
10
53.8700283573278
20
1.85346871385255
30
0
41
1
10
53.8930235060493
20
1.49410206157114
30
0
0
SPLINE
5
EF
100
AcDbEntity
8
1
62
256
6
ByLayer
370
18
48
1
60
0
100
AcDbSpline
70
4
71
3
72
21
73
17
40
0
40
0
40
0
40
0
40
0.250000000000003
40
0.250000000000003
40
0.312500000000003
40
0.312500000000003
40
0.375000000000003
40
0.500000000000002
40
0.500000000000002
40
0.750000000000001
40
0.750000000000001
40
0.812500000000001
40
0.812500000000001
40
0.875
40
0.875
40
1
40
1
40
1
40
1
41
1
10
47.7864239785197
20
1.51932799578657
30
0
41
1
10
47.7780839842863
20
1.64272527788867
30
0
41
1
10
47.770189207487
20
1.7590207359373
30
0
41
1
10
47.7599708594835
20
1.89517009237954
30
0
41
1
10
47.7579091693056
20
1.92197215057817
30
0
41
1
10
47.7537547924983
20
1.97447152124778
30
0
41
1
10
47.7475033933859
20
2.05124316500886
30
0
41
1
10
47.7411507781583
20
2.12219446840535
30
0
41
1
10
47.7282941913599
20
2.25649338161247
30
0
41
1
10
47.7195222204053
20
2.3359398368892
30
0
41
1
10
47.7086000865729
20
2.42242389940085
30
0
41
1
10
47.7064141684695
20
2.43907485141617
30
0
41
1
10
47.7020341479407
20
2.47106064950682
30
0
41
1
10
47.699849769973
20
2.48632256534356
30
0
41
1
10
47.693330773964
20
2.52977033573961
30
0
41
1
10
47.6890194578534
20
2.5557008394492
30
0
41
1
10
47.6847221091622
20
2.5786606916455
30
0
0
SPLINE
5
F0
100
AcDbEntity
8
1
62
256
6
ByLayer
370
13
48
1
60
0
100
AcDbSpline
70
4
71
3
72
10
73
6
40
0
40
0
40
0
40
0
40
0.0443819772418105
40
0.944488161028027
40
1
40
1
40
1
40
1
41
1
10
48.3895506391773
20
2.28584928869714
30
0
41
1
10
48.3909351779578
20
2.27208313362866
30
0
41
1
10
48.4204325324042
20
1.97174060941984
30
0
41
1
10
48.4523170682828
20
1.48698519616357
30
0
41
1
10
48.4823193091676
20
0.963540597302426
30
0
41
1
10
48.484060443438
20
0.932954063103836
30
0
0
SPLINE
5
F1
100
AcDbEntity
8
1
62
256
6
ByLayer
370
18
48
1
60
0
100
AcDbSpline
70
4
71
3
72
23
73
19
40
0
40
0
40
0
40
0
40
0.125
40
0.125
40
0.250000000000001
40
0.375000000000001
40
0.375000000000001
40
0.437500000000001
40
0.437500000000001
40
0.500000000000001
40
0.500000000000001
40
0.75
40
0.75
40
0.874999999999999
40
0.874999999999999
40
0.9375
40
0.9375
40
1
40
1
40
1
40
1
41
1
10
48.3262788143766
20
2.41432636878144
30
0
41
1
10
48.3302101595008
20
2.3745168557017
30
0
41
1
10
48.3340454432587
20
2.33206479063313
30
0
41
1
10
48.3414649554577
20
2.24199660280647
30
0
41
1
10
48.3486869568754
20
2.14677085798277
30
0
41
1
10
48.3558517492894
20
2.04131533806338
30
0
41
1
10
48.3612950595837
20
1.95833455609215
30
0
41
1
10
48.3631207628566
20
1.9300252183767
30
0
41
1
10
48.3668057574452
20
1.87208835562737
30
0
41
1
10
48.3686666825299
20
1.84243281510851
30
0
41
1
10
48.3779867904123
20
1.69224477825105
30
0
41
1
10
48.3855912896836
20
1.56498405339983
30
0
41
1
10
48.3971752028672
20
1.36373837756293
30
0
41
1
10
48.4010599509466
20
1.29492082594879
30
0
41
1
10
48.4068597187646
20
1.18904015014795
30
0
41
1
10
48.4087880071023
20
1.1533035702555
30
0
41
1
10
48.412618943566
20
1.08092784816421
30
0
41
1
10
48.4145215507201
20
1.04423989579411
30
0
41
1
10
48.4163912853114
20
1.00743888551824
30
0
0
SPLINE
5
F2
100
AcDbEntity
8
1
62
256
6
ByLayer
370
18
48
1
60
0
100
AcDbSpline
70
4
71
3
72
27
73
23
40
0
40
0
40
0
40
0
40
0.0624999999999994
40
0.0624999999999994
40
0.124999999999999
40
0.124999999999999
40
0.25
40
0.25
40
0.375
40
0.500000000000001
40
0.500000000000001
40
0.562500000000001
40
0.562500000000001
40
0.625000000000001
40
0.625000000000001
40
0.75
40
0.75
40
0.875
40
0.875
40
0.9375
40
0.9375
40
1
40
1
40
1
40
1
41
1
10
57.1958142616942
20
0.172527485256921
30
0
41
1
10
57.1931543673591
20
0.140500274832789
30
0
41
1
10
57.1905515670325
20
0.108306359389047
30
0
41
1
10
57.1855220816963
20
0.0440508094420409
30
0
41
1
10
57.1830915466203
20
0.0119442246768244
30
0
41
1
10
57.1760921081947
20
-0.0843137942514147
30
0
41
1
10
57.1718318198784
20
-0.148403978050226
30
0
41
1
10
57.1639236877269
20
-0.276418241930401
30
0
41
1
10
57.1566240454722
20
-0.404266284462665
30
0
41
1
10
57.1503512283537
20
-0.531774572446551
30
0
41
1
10
57.1460418176584
20
-0.627274635850853
30
0
41
1
10
57.1446703315168
20
-0.659135262758241
30
0
41
1
10
57.1420951197871
20
-0.722233611830319
30
0
41
1
10
57.1408883401726
20
-0.753534867589877
30
0
41
1
10
57.1375278587643
20
-0.846698761067074
30
0
41
1
10
57.1356317244372
20
-0.907823459162273
30
0
41
1
10
57.1326818319447
20
-1.02807529849358
30
0
41
1
10
57.1316402696857
20
-1.08719829133142
30
0
41
1
10
57.1308390136316
20
-1.17433023680584
30
0
41
1
10
57.1306763033413
20
-1.20312293067286
30
0
41
1
10
57.1303706342216
20
-1.26026716309647
30
0
41
1
10
57.1302378804106
20
-1.28861520765656
30
0
41
1
10
57.130170512135
20
-1.31671995543979
30
0
0
SPLINE
5
F3
100
AcDbEntity
8
1
62
256
6
ByLayer
370
13
48
1
60
0
100
AcDbSpline
70
4
71
3
72
9
73
5
40
0
40
0
40
0
40
0
40
0.996377075825973
40
1
40
1
40
1
40
1
41
1
10
55.7696284840756
20
0.411249626727539
30
0
41
1
10
55.7802788584191
20
0.214625652150886
30
0
41
1
10
55.7910872326549
20
0.0118727502835441
30
0
41
1
10
55.8020273097677
20
-0.19253801353085
30
0
41
1
10
55.8020669465674
20
-0.193278599695361
30
0
0
SPLINE
5
F4
100
AcDbEntity
8
1
62
256
6
ByLayer
370
13
48
1
60
0
100
AcDbSpline
70
4
71
3
72
10
73
6
40
0
40
0
40
0
40
0
40
0.0144936039393963
40
0.916349487688312
40
1
40
1
40
1
40
1
41
1
10
53.1617701979173
20
-1.60077390696014
30
0
41
1
10
53.1622087285912
20
-1.60739863628351
30
0
41
1
10
53.1899462060706
20
-2.02501896545945
30
0
41
1
10
53.2210302016901
20
-2.39508779396113
30
0
41
1
10
53.2538132209033
20
-2.58437173965979
30
0
41
1
10
53.2566136576876
20
-2.59907680210867
30
0
0
SPLINE
5
F5
100
AcDbEntity
8
1
62
256
6
ByLayer
370
13
48
1
60
0
100
AcDbSpline
70
4
71
3
72
9
73
5
40
0
40
0
40
0
40
0
40
0.749022690501365
40
1
40
1
40
1
40
1
41
1.04
10
52.4476958131114
20
-1.02100920100136
30
0
41
1.04
10
52.4704507334977
20
-1.41613288860363
30
0
41
1.04
10
52.5017133557361
20
-1.90889662118539
30
0
41
1.04
10
52.5343266449423
20
-2.26130226398833
30
0
41
1.04
10
52.5426079445814
20
-2.33911952851779
30
0
0
SPLINE
5
F6
100
AcDbEntity
8
1
62
256
6
ByLayer
370
18
48
1
60
0
100
AcDbSpline
70
4
71
3
72
22
73
18
40
0
40
0
40
0
40
0
40
0.125
40
0.25
40
0.375
40
0.375
40
0.4375
40
0.4375
40
0.5
40
0.5
40
0.625
40
0.75
40
0.875
40
0.875
40
0.9375
40
0.9375
40
1
40
1
40
1
40
1
41
1
10
52.8603823279155
20
-2.99140392431468
30
0
41
1
10
52.8559494711027
20
-2.95511615344563
30
0
41
1
10
52.8471215763808
20
-2.87466120462895
30
0
41
1
10
52.8338539189724
20
-2.73102185091437
30
0
41
1
10
52.8249583581621
20
-2.62002388524533
30
0
41
1
10
52.8182877479403
20
-2.53094150479134
30
0
41
1
10
52.8160647630194
20
-2.50027353933876
30
0
41
1
10
52.8116286899514
20
-2.43695043721294
30
0
41
1
10
52.8094309230007
20
-2.40449878139563
30
0
41
1
10
52.8028932951758
20
-2.3050114316232
30
0
41
1
10
52.7943127744009
20
-2.16651778149358
30
0
41
1
10
52.7815383509655
20
-1.94162962302355
30
0
41
1
10
52.7728942575537
20
-1.78024368039468
30
0
41
1
10
52.766304128205
20
-1.65478717013147
30
0
41
1
10
52.7640872525261
20
-1.61218062249148
30
0
41
1
10
52.7596442625779
20
-1.52610450586172
30
0
41
1
10
52.7574145062238
20
-1.48256673030264
30
0
41
1
10
52.7551748920172
20
-1.43853136942283
30
0
0
SPLINE
5
F7
100
AcDbEntity
8
1
62
256
6
ByLayer
370
18
48
1
60
0
100
AcDbSpline
70
4
71
3
72
24
73
20
40
0
40
0
40
0
40
0
40
0.124999999999999
40
0.124999999999999
40
0.249999999999999
40
0.249999999999999
40
0.374999999999998
40
0.374999999999998
40
0.437499999999998
40
0.437499999999998
40
0.499999999999998
40
0.499999999999998
40
0.624999999999999
40
0.749999999999999
40
0.874999999999999
40
0.874999999999999
40
0.9375
40
0.9375
40
1
40
1
40
1
40
1
41
1
10
52.8453643808973
20
-1.52764252810425
30
0
41
1
10
52.8498332886173
20
-1.61432477204349
30
0
41
1
10
52.8542701346531
20
-1.69825241694883
30
0
41
1
10
52.863085053137
20
-1.86075883378183
30
0
41
1
10
52.8674597614907
20
-1.93933733946807
30
0
41
1
10
52.8761728772003
20
-2.09116776378036
30
0
41
1
10
52.8805186509542
20
-2.16441958015605
30
0
41
1
10
52.8870753395814
20
-2.27021839550574
30
0
41
1
10
52.8892670218697
20
-2.30480380838708
30
0
41
1
10
52.8936695546599
20
-2.37258558411318
30
0
41
1
10
52.8958677902183
20
-2.40558588198519
30
0
41
1
10
52.9024414315769
20
-2.50165949235552
30
0
41
1
10
52.9111685736649
20
-2.62223226338054
30
0
41
1
10
52.9242412035692
20
-2.78100304378211
30
0
41
1
10
52.9330016385745
20
-2.87208347042733
30
0
41
1
10
52.9396202596379
20
-2.93469986930734
30
0
41
1
10
52.9418375010748
20
-2.95464244200457
30
0
41
1
10
52.9462644588033
20
-2.99232444273369
30
0
41
1
10
52.9484774908896
20
-3.01009801007467
30
0
41
1
10
52.9506945992091
20
-3.0268078643457
30
0
0
SPLINE
5
F8
100
AcDbEntity
8
1
62
256
6
ByLayer
370
18
48
1
60
0
100
AcDbSpline
70
4
71
3
72
12
73
8
40
0
40
0
40
0
40
0
40
0.500000000000001
40
0.500000000000001
40
0.750000000000001
40
0.750000000000001
40
1
40
1
40
1
40
1
41
1
10
55.7696284840755
20
0.411249626728704
30
0
41
1
10
55.7729306370437
20
0.312111469216177
30
0
41
1
10
55.7766268079779
20
0.212420094945713
30
0
41
1
10
55.783031635252
20
0.0620302929478953
30
0
41
1
10
55.7852776642513
20
0.0117615724566349
30
0
41
1
10
55.7892714754249
20
-0.0889743341654707
30
0
41
1
10
55.7910910230532
20
-0.139423884684817
30
0
41
1
10
55.7928805690893
20
-0.189801571107893
30
0
0
SPLINE
5
F9
100
AcDbEntity
8
1
62
256
6
ByLayer
370
18
48
1
60
0
100
AcDbSpline
70
4
71
3
72
64
73
60
40
0
40
0
40
0
40
0
40
0.0624999999999026
40
0.0624999999999026
40
0.124999999999805
40
0.124999999999805
40
0.24999999999961
40
0.24999999999961
40
0.312499999999514
40
0.312499999999514
40
0.343749999999466
40
0.343749999999466
40
0.374999999999419
40
0.374999999999419
40
0.437499999999325
40
0.437499999999325
40
0.499999999999232
40
0.499999999999232
40
0.562499999999139
40
0.562499999999139
40
0.593749999999091
40
0.593749999999091
40
0.609374999999069
40
0.609374999999069
40
0.624999999999047
40
0.624999999999047
40
0.632812499999036
40
0.632812499999036
40
0.640624999999024
40
0.640624999999024
40
0.648437499999013
40
0.648437499999013
40
0.652343749999012
40
0.652343749999012
40
0.654296874999017
40
0.654296874999017
40
0.656249999999022
40
0.656249999999022
40
0.658203124999027
40
0.658203124999027
40
0.660156249999033
40
0.660156249999033
40
0.664062499999043
40
0.664062499999043
40
0.671874999999064
40
0.671874999999064
40
0.687499999999109
40
0.687499999999109
40
0.703124999999154
40
0.703124999999154
40
0.718749999999199
40
0.718749999999199
40
0.749999999999288
40
0.749999999999288
40
0.812499999999466
40
0.812499999999466
40
0.874999999999644
40
0.874999999999644
40
1
40
1
40
1
40
1
41
1
10
56.0071635070041
20
-0.368105351415693
30
0
41
1
10
56.0031275174219
20
-0.317092174919821
30
0
41
1
10
55.9990587033735
20
-0.265941067174708
30
0
41
1
10
55.991392497428
20
-0.163351994678663
30
0
41
1
10
55.9879039076457
20
-0.11190026764541
30
0
41
1
10
55.9767621254227
20
0.0418366751054009
30
0
41
1
10
55.9685051668955
20
0.143804906778371
30
0
41
1
10
55.9547951336281
20
0.296007038373801
30
0
41
1
10
55.9499996766695
20
0.346615233789606
30
0
41
1
10
55.9424086285588
20
0.422335793116105
30
0
41
1
10
55.9398106418936
20
0.447551165972243
30
0
41
1
10
55.9344877308847
20
0.497714674666185
30
0
41
1
10
55.9317603845777
20
0.522688018938567
30
0
41
1
10
55.923353701973
20
0.597285451235024
30
0
41
1
10
55.9174543677539
20
0.646587383905285
30
0
41
1
10
55.9048377181271
20
0.744334986362787
30
0
41
1
10
55.8981279655154
20
0.792780715703628
30
0
41
1
10
55.883440282214
20
0.888804184735051
30
0
41
1
10
55.8755201568131
20
0.936238940680596
30
0
41
1
10
55.8618633913525
20
1.00644284808237
30
0
41
1
10
55.8570116471351
20
1.02969617450049
30
0
41
1
10
55.8489283679398
20
1.06431422177278
30
0
41
1
10
55.846099772293
20
1.07580115767573
30
0
41
1
10
55.8400314115377
20
1.09865735219475
30
0
41
1
10
55.8368001413481
20
1.11002741520767
30
0
41
1
10
55.8313962209223
20
1.12697137184904
30
0
41
1
10
55.8295007776567
20
1.13260071443562
30
0
41
1
10
55.8254112190607
20
1.14381176119156
30
0
41
1
10
55.8232211908092
20
1.14939909261125
30
0
41
1
10
55.8183184978763
20
1.16040946258093
30
0
41
1
10
55.815630025509
20
1.16589913730405
30
0
41
1
10
55.8105550283454
20
1.17366924462729
30
0
41
1
10
55.8087180577286
20
1.17618148894755
30
0
41
1
10
55.8052055783851
20
1.17955089460506
30
0
41
1
10
55.803917297123
20
1.18058302992199
30
0
41
1
10
55.8010328940875
20
1.1821067150789
30
0
41
1
10
55.7994322203305
20
1.1825497523995
30
0
41
1
10
55.7963747132685
20
1.18240558228328
30
0
41
1
10
55.7950045716985
20
1.18185404830683
30
0
41
1
10
55.7926883810909
20
1.18036474358718
30
0
41
1
10
55.7916960489046
20
1.17941558005066
30
0
41
1
10
55.7890808977484
20
1.17639038855876
30
0
41
1
10
55.7877354357968
20
1.17407593061753
30
0
41
1
10
55.7841873147659
20
1.16689529321061
30
0
41
1
10
55.7825093136303
20
1.16182349345837
30
0
41
1
10
55.778100639315
20
1.14631881423213
30
0
41
1
10
55.7760984475176
20
1.13553337155864
30
0
41
1
10
55.7727153713982
20
1.11381225127423
30
0
41
1
10
55.7713850602504
20
1.10282416788036
30
0
41
1
10
55.7691045203067
20
1.08066859711306
30
0
41
1
10
55.7681625063731
20
1.0694993009219
30
0
41
1
10
55.7657194608716
20
1.03576368896609
30
0
41
1
10
55.7645935380936
20
1.01295798528147
30
0
41
1
10
55.7620322459687
20
0.943872512678553
30
0
41
1
10
55.7614119942244
20
0.897216702443757
30
0
41
1
10
55.7611376386662
20
0.802842483635175
30
0
41
1
10
55.7615221232385
20
0.755120285934623
30
0
41
1
10
55.7636259144771
20
0.610407410339775
30
0
41
1
10
55.7662765803679
20
0.511881414823165
30
0
41
1
10
55.7696284840755
20
0.411249626728903
30
0
0
SPLINE
5
FA
100
AcDbEntity
8
1
62
256
6
ByLayer
370
18
48
1
60
0
100
AcDbSpline
70
4
71
3
72
11
73
7
40
0
40
0
40
0
40
0
40
0.144029697663135
40
0.865255074482121
40
0.934220026513173
40
1
40
1
40
1
40
1
41
1
10
57.1300000000002
20
0.235749930672398
30
0
41
1
10
57.1300000000002
20
0.159839622036173
30
0
41
1
10
57.1300000000001
20
-0.300188620672856
30
0
41
1
10
57.1300000000003
20
-0.809060507053431
30
0
41
1
10
57.1300000000001
20
-1.22240686557151
30
0
41
1
10
57.1300000000002
20
-1.28599701310873
30
0
41
1
10
57.1300000000002
20
-1.31663671777406
30
0
0
SPLINE
5
FB
100
AcDbEntity
8
1
62
256
6
ByLayer
370
13
48
1
60
0
100
AcDbSpline
70
4
71
3
72
9
73
5
40
0
40
0
40
0
40
0
40
0.810784206420303
40
1
40
1
40
1
40
1
41
1.04
10
48.6299171277632
20
2.16007019978089
30
0
41
1.04
10
48.6553880767397
20
1.87267470422657
30
0
41
1.04
10
48.6872698357922
20
1.38303745748161
30
0
41
1.04
10
48.7186386283337
20
0.826467323167453
30
0
41
1.04
10
48.7245510024485
20
0.719694947860707
30
0
0
SPLINE
5
FC
100
AcDbEntity
8
1
62
256
6
ByLayer
370
13
48
1
60
0
100
AcDbSpline
70
4
71
3
72
9
73
5
40
0
40
0
40
0
40
0
40
0.129280662150916
40
1
40
1
40
1
40
1
41
1.04
10
54.0384443604753
20
2.47713343995058
30
0
41
1.04
10
54.0426542947521
20
2.4461071561129
30
0
41
1.04
10
54.0750448474097
20
2.1835801355108
30
0
41
1.04
10
54.1063465676618
20
1.74863473406274
30
0
41
1.04
10
54.133460239973
20
1.30305702499101
30
0
0
SPLINE
5
FD
100
AcDbEntity
8
1
62
256
6
ByLayer
370
18
48
1
60
0
100
AcDbSpline
70
4
71
3
72
15
73
11
40
0
40
0
40
0
40
0
40
0.249999999999999
40
0.249999999999999
40
0.499999999999998
40
0.749999999999997
40
0.749999999999997
40
0.874999999999999
40
0.874999999999999
40
1
40
1
40
1
40
1
41
1
10
54.4608541941764
20
2.74287277963967
30
0
41
1
10
54.4610762649772
20
2.71952635353247
30
0
41
1
10
54.4613570639007
20
2.69493111366563
30
0
41
1
10
54.4620120719092
20
2.64344112709367
30
0
41
1
10
54.462760877766
20
2.58961679845982
30
0
41
1
10
54.463672534586
20
2.53120716725658
30
0
41
1
10
54.4644148709103
20
2.48568642291724
30
0
41
1
10
54.4646723271583
20
2.47022103958165
30
0
41
1
10
54.4652049967391
20
2.43883073817543
30
0
41
1
10
54.4654802101222
20
2.4228932257204
30
0
41
1
10
54.4657630247649
20
2.40671742104945
30
0
0
SPLINE
5
FE
100
AcDbEntity
8
1
62
256
6
ByLayer
370
13
48
1
60
0
100
AcDbSpline
70
4
71
3
72
9
73
5
40
0
40
0
40
0
40
0
40
0.5134535369019
40
1
40
1
40
1
40
1
41
1
10
54.7526433359966
20
2.14229540304487
30
0
41
1
10
54.7695233711395
20
1.94882522244944
30
0
41
1
10
54.8016236537985
20
1.49492526422003
30
0
41
1
10
54.8326281618755
20
0.956048818339582
30
0
41
1
10
54.8474711318245
20
0.68718827046672
30
0
0
SPLINE
5
FF
100
AcDbEntity
8
1
62
256
6
ByLayer
370
18
48
1
60
0
100
AcDbSpline
70
4
71
3
72
21
73
17
40
0
40
0
40
0
40
0
40
0.249999999999998
40
0.249999999999998
40
0.312499999999997
40
0.312499999999997
40
0.374999999999997
40
0.499999999999997
40
0.499999999999997
40
0.749999999999999
40
0.749999999999999
40
0.874999999999999
40
0.874999999999999
40
0.9375
40
0.9375
40
1
40
1
40
1
40
1
41
1
10
54.4657630247643
20
2.40671742105022
30
0
41
1
10
54.4720097327779
20
2.31417799190297
30
0
41
1
10
54.4783684822058
20
2.21470269866887
30
0
41
1
10
54.4864827016121
20
2.08135251813059
30
0
41
1
10
54.4881100661292
20
2.05428300602878
30
0
41
1
10
54.4913556022355
20
1.99962489904593
30
0
41
1
10
54.4962171497122
20
1.91673885053424
30
0
41
1
10
54.5010480942736
20
1.83119229525852
30
0
41
1
10
54.5106172854165
20
1.65660285506073
30
0
41
1
10
54.5168353230845
20
1.53556116448945
30
0
41
1
10
54.5261037105678
20
1.3469744469711
30
0
41
1
10
54.5291852172716
20
1.28293798158643
30
0
41
1
10
54.5338241169486
20
1.18508146658968
30
0
41
1
10
54.5353748640384
20
1.15212612294729
30
0
41
1
10
54.5384722919069
20
1.08591348847949
30
0
41
1
10
54.5400202300326
20
1.05263023626094
30
0
41
1
10
54.5415695659469
20
1.01917065809693
30
0
0
SPLINE
5
100
100
AcDbEntity
8
1
62
256
6
ByLayer
370
18
48
1
60
0
100
AcDbSpline
70
4
71
3
72
24
73
20
40
0
40
0
40
0
40
0
40
0.0624999999999995
40
0.0624999999999995
40
0.0937499999999993
40
0.0937499999999993
40
0.124999999999999
40
0.124999999999999
40
0.1875
40
0.1875
40
0.250000000000001
40
0.250000000000001
40
0.375000000000003
40
0.375000000000003
40
0.500000000000004
40
0.500000000000004
40
0.750000000000002
40
0.750000000000002
40
1
40
1
40
1
40
1
41
1
10
54.4047634447195
20
2.81095035960269
30
0
41
1
10
54.4047975739377
20
2.80381518930241
30
0
41
1
10
54.4048299744361
20
2.79659327862353
30
0
41
1
10
54.4048762203084
20
2.78563035566071
30
0
41
1
10
54.4048997871524
20
2.78195453701883
30
0
41
1
10
54.4048792072277
20
2.77455825000948
30
0
41
1
10
54.4048324394971
20
2.77083772346131
30
0
41
1
10
54.4047618068457
20
2.75961244409282
30
0
41
1
10
54.4047513696369
20
2.75204277976278
30
0
41
1
10
54.4066102437842
20
2.73676799720303
30
0
41
1
10
54.4084571778917
20
2.72906273570533
30
0
41
1
10
54.4134095448369
20
2.70567705990325
30
0
41
1
10
54.4164195752272
20
2.68973608328403
30
0
41
1
10
54.4225916447127
20
2.65716490895989
30
0
41
1
10
54.4257152877179
20
2.64053783481194
30
0
41
1
10
54.4350885456679
20
2.58982099955961
30
0
41
1
10
54.4413185732674
20
2.55482972382251
30
0
41
1
10
54.4536112614059
20
2.48251522158392
30
0
41
1
10
54.4596975419231
20
2.44519336526579
30
0
41
1
10
54.4657630247633
20
2.40671742105007
30
0
0
SPLINE
5
101
100
AcDbEntity
8
1
62
256
6
ByLayer
370
18
48
1
60
0
100
AcDbSpline
70
4
71
3
72
22
73
18
40
0
40
0
40
0
40
0
40
0.125
40
0.25
40
0.374999999999999
40
0.374999999999999
40
0.437499999999999
40
0.437499999999999
40
0.499999999999999
40
0.499999999999999
40
0.624999999999999
40
0.749999999999999
40
0.874999999999999
40
0.874999999999999
40
0.9375
40
0.9375
40
1
40
1
40
1
40
1
41
1
10
54.4507162206629
20
1.1141325751303
30
0
41
1
10
54.4463764028
20
1.20643765768608
30
0
41
1
10
54.4377912740423
20
1.3866370399125
30
0
41
1
10
54.4249375616656
20
1.64407264086657
30
0
41
1
10
54.4162594300591
20
1.8071529360279
30
0
41
1
10
54.40967836028
20
1.92619211381123
30
0
41
1
10
54.4074727422774
20
1.9653258305112
30
0
41
1
10
54.4030340425298
20
2.04247930621582
30
0
41
1
10
54.40081476342
20
2.08025783903864
30
0
41
1
10
54.3941699234532
20
2.19097733888776
30
0
41
1
10
54.3853300681943
20
2.33187433421477
30
0
41
1
10
54.3721240315514
20
2.52346687456239
30
0
41
1
10
54.3633726080557
20
2.63798875070654
30
0
41
1
10
54.3568356139294
20
2.71878741749688
30
0
41
1
10
54.354658407739
20
2.74489793764775
30
0
41
1
10
54.350344740269
20
2.79502136861899
30
0
41
1
10
54.3482049855094
20
2.81907969303421
30
0
41
1
10
54.3460810957451
20
2.84213877789387
30
0
0
SPLINE
5
102
100
AcDbEntity
8
1
62
256
6
ByLayer
370
18
48
1
60
0
100
AcDbSpline
70
4
71
3
72
27
73
23
40
0
40
0
40
0
40
0
40
0.0624999999999996
40
0.0624999999999996
40
0.124999999999999
40
0.124999999999999
40
0.187499999999999
40
0.187499999999999
40
0.249999999999998
40
0.249999999999998
40
0.374999999999997
40
0.374999999999997
40
0.499999999999996
40
0.499999999999996
40
0.562499999999996
40
0.562499999999996
40
0.593749999999996
40
0.593749999999996
40
0.624999999999996
40
0.749999999999997
40
0.749999999999997
40
1
40
1
40
1
40
1
41
1
10
55.2258844822325
20
0.314361911720994
30
0
41
1
10
55.2233460657062
20
0.356694789086646
30
0
41
1
10
55.2208004675029
20
0.398914914271131
30
0
41
1
10
55.2157647905761
20
0.48314908061505
30
0
41
1
10
55.2132872522064
20
0.525168961809101
30
0
41
1
10
55.2083602624372
20
0.608984206015947
30
0
41
1
10
55.2058902327986
20
0.650535293293757
30
0
41
1
10
55.2008042385385
20
0.73284586957547
30
0
41
1
10
55.1982051278956
20
0.773617626129095
30
0
41
1
10
55.1902694576042
20
0.894820798810628
30
0
41
1
10
55.1847958362946
20
0.974143691146736
30
0
41
1
10
55.1736079655089
20
1.12993998964268
30
0
41
1
10
55.1678936480795
20
1.20641299823185
30
0
41
1
10
55.1592054593943
20
1.31898335882985
30
0
41
1
10
55.1562896369108
20
1.35614946349079
30
0
41
1
10
55.1518912914652
20
1.41135488130709
30
0
41
1
10
55.1504202629593
20
1.42967540934561
30
0
41
1
10
55.1474852559696
20
1.46595251232273
30
0
41
1
10
55.1401533638943
20
1.55584557662348
30
0
41
1
10
55.1328901788943
20
1.64178966633054
30
0
41
1
10
55.1154217534707
20
1.84064799902961
30
0
41
1
10
55.1036642856953
20
1.96338872932154
30
0
41
1
10
55.0913294652307
20
2.07597275726636
30
0
0
SPLINE
5
103
100
AcDbEntity
8
1
62
256
6
ByLayer
370
13
48
1
60
0
100
AcDbSpline
70
4
71
3
72
9
73
5
40
0
40
0
40
0
40
0
40
0.38236470641435
40
1
40
1
40
1
40
1
41
1.04
10
54.9930006406916
20
1.99961171853264
30
0
41
1.04
10
55.0055671724003
20
1.84072853415963
30
0
41
1.04
10
55.0378823142723
20
1.37254826022375
30
0
41
1.04
10
55.0690772837271
20
0.816720145025857
30
0
41
1.04
10
55.0879535239122
20
0.468421280851399
30
0
0
SPLINE
5
104
100
AcDbEntity
8
1
62
256
6
ByLayer
370
13
48
1
60
0
100
AcDbSpline
70
4
71
3
72
9
73
5
40
0
40
0
40
0
40
0
40
0.295513402466314
40
1
40
1
40
1
40
1
41
1
10
49.344073765728
20
1.69734133199591
30
0
41
1
10
49.353782036301
20
1.55489815990944
30
0
41
1
10
49.3867336987206
20
1.03241323144496
30
0
41
1
10
49.4175018839238
20
0.459066269073929
30
0
41
1
10
49.4385488356027
20
0.0641996626296759
30
0
0
SPLINE
5
105
100
AcDbEntity
8
1
62
256
6
ByLayer
370
18
48
1
60
0
100
AcDbSpline
70
4
71
3
72
22
73
18
40
0
40
0
40
0
40
0
40
0.125
40
0.125
40
0.187500000000001
40
0.187500000000001
40
0.250000000000001
40
0.250000000000001
40
0.499999999999999
40
0.499999999999999
40
0.624999999999999
40
0.624999999999999
40
0.687499999999999
40
0.687499999999999
40
0.749999999999999
40
0.749999999999999
40
1
40
1
40
1
40
1
41
1
10
49.2047015758251
20
1.97886810521439
30
0
41
1
10
49.2083314351869
20
1.91728786850453
30
0
41
1
10
49.2119300828418
20
1.85316507244713
30
0
41
1
10
49.2174655447348
20
1.75311508729743
30
0
41
1
10
49.2193322713835
20
1.71911974119473
30
0
41
1
10
49.2231238081746
20
1.64981634935066
30
0
41
1
10
49.2250406288366
20
1.61465457042752
30
0
41
1
10
49.2346925072345
20
1.43711277847521
30
0
41
1
10
49.2426594107912
20
1.288801843881
30
0
41
1
10
49.2544145064352
20
1.05707544016511
30
0
41
1
10
49.2583192747524
20
0.978283274152176
30
0
41
1
10
49.2641690215906
20
0.857719610188184
30
0
41
1
10
49.2661196541492
20
0.817098153970676
30
0
41
1
10
49.2700155662497
20
0.735204145118558
30
0
41
1
10
49.2719502404249
20
0.694155750218329
30
0
41
1
10
49.2815711877859
20
0.488417012801591
30
0
41
1
10
49.2891005213191
20
0.322247214159262
30
0
41
1
10
49.2966529728904
20
0.154539303714927
30
0
0
SPLINE
5
106
100
AcDbEntity
8
1
62
256
6
ByLayer
370
18
48
1
60
0
100
AcDbSpline
70
4
71
3
72
23
73
19
40
0
40
0
40
0
40
0
40
0.0625000000000003
40
0.0625000000000003
40
0.125000000000001
40
0.125000000000001
40
0.250000000000001
40
0.250000000000001
40
0.500000000000001
40
0.500000000000001
40
0.562500000000001
40
0.593750000000001
40
0.593750000000001
40
0.625
40
0.625
40
0.75
40
0.75
40
1
40
1
40
1
40
1
41
1
10
48.832002701499
20
0.621154368876375
30
0
41
1
10
48.829681084188
20
0.661085910257043
30
0
41
1
10
48.8273515397862
20
0.700897696550186
30
0
41
1
10
48.8226855854818
20
0.780279008102156
30
0
41
1
10
48.8203457838762
20
0.819905851158495
30
0
41
1
10
48.8133562134653
20
0.938034869548289
30
0
41
1
10
48.8087738971681
20
1.01514427860772
30
0
41
1
10
48.7954215987045
20
1.24171147336128
30
0
41
1
10
48.7870458564441
20
1.38644076054666
30
0
41
1
10
48.7762880829556
20
1.55931988011432
30
0
41
1
10
48.7730424624452
20
1.61057754674672
30
0
41
1
10
48.7697526993052
20
1.66091085576485
30
0
41
1
10
48.7675482627981
20
1.69425876294346
30
0
41
1
10
48.7664391714964
20
1.71084672879169
30
0
41
1
10
48.7608866940878
20
1.79290229800844
30
0
41
1
10
48.7564074849225
20
1.85591116412516
30
0
41
1
10
48.7428149602321
20
2.0372626248149
30
0
41
1
10
48.733512258938
20
2.14798047427541
30
0
41
1
10
48.7242593407084
20
2.24849645919994
30
0
0
SPLINE
5
107
100
AcDbEntity
8
1
62
256
6
ByLayer
370
13
48
1
60
0
100
AcDbSpline
70
4
71
3
72
9
73
5
40
0
40
0
40
0
40
0
40
0.166688918723184
40
1
40
1
40
1
40
1
41
1.04
10
49.5844516387906
20
1.51796418061275
30
0
41
1.04
10
49.5899973381047
20
1.43163753332182
30
0
41
1.04
10
49.6231398960804
20
0.896452112636772
30
0
41
1.04
10
49.654036124038
20
0.308099543846023
30
0
41
1.04
10
49.679007931651
20
-0.159794932508024
30
0
0
SPLINE
5
108
100
AcDbEntity
8
1
62
256
6
ByLayer
370
18
48
1
60
0
100
AcDbSpline
70
4
71
3
72
24
73
20
40
0
40
0
40
0
40
0
40
0.249999999999996
40
0.249999999999996
40
0.374999999999995
40
0.374999999999995
40
0.406249999999995
40
0.406249999999995
40
0.437499999999995
40
0.437499999999995
40
0.499999999999996
40
0.499999999999996
40
0.749999999999997
40
0.749999999999997
40
0.874999999999999
40
0.874999999999999
40
0.937499999999999
40
0.937499999999999
40
1
40
1
40
1
40
1
41
1
10
49.8775651933287
20
-0.462900338074519
30
0
41
1
10
49.8682331822082
20
-0.286508141179581
30
0
41
1
10
49.8590474445661
20
-0.109846141298362
30
0
41
1
10
49.8451683057163
20
0.155526945603356
30
0
41
1
10
49.8405268870782
20
0.244048444851956
30
0
41
1
10
49.8346911795169
20
0.354781264024808
30
0
41
1
10
49.8335223782005
20
0.376931884767259
30
0
41
1
10
49.8311811996525
20
0.421241308138207
30
0
41
1
10
49.830007440471
20
0.443426158932795
30
0
41
1
10
49.8264958345444
20
0.509703063811202
30
0
41
1
10
49.8241649445748
20
0.553569127719726
30
0
41
1
10
49.8125573008599
20
0.771335423787349
30
0
41
1
10
49.8034276468315
20
0.940580389998217
30
0
41
1
10
49.7898523998468
20
1.18709120029473
30
0
41
1
10
49.785346026899
20
1.26802821916468
30
0
41
1
10
49.7785746769937
20
1.38752767097998
30
0
41
1
10
49.7763145154612
20
1.42709972078751
30
0
41
1
10
49.771806274124
20
1.50482996557207
30
0
41
1
10
49.7695507578835
20
1.54307758518777
30
0
41
1
10
49.767277393425
20
1.58071566981005
30
0
0
SPLINE
5
109
100
AcDbEntity
8
1
62
256
6
ByLayer
370
13
48
1
60
0
100
AcDbSpline
70
4
71
3
72
9
73
5
40
0
40
0
40
0
40
0
40
0.567656388644032
40
1
40
1
40
1
40
1
41
1
10
50.2983799303487
20
0.930128102514004
30
0
41
1
10
50.3164916275407
20
0.611015463422206
30
0
41
1
10
50.3484649250437
20
0.0095867656192183
30
0
41
1
10
50.3796619290306
20
-0.570662180579205
30
0
41
1
10
50.3929954129577
20
-0.808966186268066
30
0
0
SPLINE
5
10A
100
AcDbEntity
8
1
62
256
6
ByLayer
370
18
48
1
60
0
100
AcDbSpline
70
4
71
3
72
27
73
23
40
0
40
0
40
0
40
0
40
0.124999999999999
40
0.249999999999998
40
0.374999999999997
40
0.374999999999997
40
0.406249999999998
40
0.406249999999998
40
0.437499999999998
40
0.437499999999998
40
0.499999999999998
40
0.499999999999998
40
0.624999999999998
40
0.624999999999998
40
0.749999999999999
40
0.749999999999999
40
0.874999999999999
40
0.874999999999999
40
0.90625
40
0.90625
40
0.9375
40
1
40
1
40
1
40
1
41
1
10
50.0828697836925
20
1.32093990009852
30
0
41
1
10
50.0866597244384
20
1.23962144071194
30
0
41
1
10
50.0941686887717
20
1.07439351297981
30
0
41
1
10
50.1056331203126
20
0.818982651911739
30
0
41
1
10
50.1135598890333
20
0.643670243670925
30
0
41
1
10
50.1186113371437
20
0.53248705358402
30
0
41
1
10
50.119626332975
20
0.51016960178822
30
0
41
1
10
50.1216653129613
20
0.465371418721787
30
0
41
1
10
50.1226897271119
20
0.442881283667731
30
0
41
1
10
50.1257599787948
20
0.375501441105655
30
0
41
1
10
50.1278079201962
20
0.330593058136884
30
0
41
1
10
50.1339407758853
20
0.195901231918612
30
0
41
1
10
50.1380167599339
20
0.106151131768371
30
0
41
1
10
50.1460187022083
20
-0.0732670318357407
30
0
41
1
10
50.149918374773
20
-0.162936205985801
30
0
41
1
10
50.1575674163402
20
-0.342192002978976
30
0
41
1
10
50.1613316962519
20
-0.431777999566123
30
0
41
1
10
50.1660536253289
20
-0.543702580337026
30
0
41
1
10
50.1669999928581
20
-0.566112681816179
30
0
41
1
10
50.1688894828334
20
-0.610762565858067
30
0
41
1
10
50.1717185334862
20
-0.677475627796099
30
0
41
1
10
50.1745412818087
20
-0.743411750450349
30
0
41
1
10
50.1764271903341
20
-0.787029236076194
30
0
0
SPLINE
5
10B
100
AcDbEntity
8
1
62
256
6
ByLayer
370
18
48
1
60
0
100
AcDbSpline
70
4
71
3
72
24
73
20
40
0
40
0
40
0
40
0
40
0.125
40
0.125
40
0.25
40
0.25
40
0.375
40
0.375
40
0.437499999999999
40
0.437499999999999
40
0.499999999999999
40
0.499999999999999
40
0.624999999999999
40
0.749999999999999
40
0.874999999999999
40
0.874999999999999
40
0.937499999999999
40
0.937499999999999
40
1
40
1
40
1
40
1
41
1
10
51.8913880709808
20
-0.535352674675323
30
0
41
1
10
51.8958293462745
20
-0.632356428479483
30
0
41
1
10
51.9002059407889
20
-0.727928826625572
30
0
41
1
10
51.908839371358
20
-0.916293599056246
30
0
41
1
10
51.9130854452887
20
-1.00908621367532
30
0
41
1
10
51.9215604183082
20
-1.19189893133398
30
0
41
1
10
51.9257972340242
20
-1.2819187955557
30
0
41
1
10
51.9322414828191
20
-1.41482269683692
30
0
41
1
10
51.9344039488092
20
-1.45876915778837
30
0
41
1
10
51.9387677439888
20
-1.54593795180128
30
0
41
1
10
51.9409568215142
20
-1.58891368894208
30
0
41
1
10
51.9475333660605
20
-1.71563626604359
30
0
41
1
10
51.9563477527956
20
-1.87908911152957
30
0
41
1
10
51.9697402377352
20
-2.10809663644471
30
0
41
1
10
51.9787407210241
20
-2.24996124037119
30
0
41
1
10
51.9854888419085
20
-2.3521945888765
30
0
41
1
10
51.9877407044276
20
-2.38561839877309
30
0
41
1
10
51.9922064803594
20
-2.450592824561
30
0
41
1
10
51.9944229246609
20
-2.48219500617458
30
0
41
1
10
51.9966229972204
20
-2.51291524476162
30
0
0
SPLINE
5
10C
100
AcDbEntity
8
1
62
256
6
ByLayer
370
13
48
1
60
0
100
AcDbSpline
70
4
71
3
72
9
73
5
40
0
40
0
40
0
40
0
40
0.877762676944877
40
1
40
1
40
1
40
1
41
1
10
52.207341591851
20
-0.812448113355032
30
0
41
1
10
52.2339812944723
20
-1.28848988344109
30
0
41
1
10
52.265357666963
20
-1.80400425419256
30
0
41
1
10
52.2981108298243
20
-2.17583160985228
30
0
41
1
10
52.3021363717193
20
-2.21892378162735
30
0
0
SPLINE
5
10D
100
AcDbEntity
8
1
62
256
6
ByLayer
370
18
48
1
60
0
100
AcDbSpline
70
4
71
3
72
23
73
19
40
0
40
0
40
0
40
0
40
0.125
40
0.249999999999999
40
0.249999999999999
40
0.374999999999999
40
0.374999999999999
40
0.437499999999999
40
0.437499999999999
40
0.499999999999999
40
0.499999999999999
40
0.624999999999999
40
0.749999999999999
40
0.875
40
0.875
40
0.9375
40
0.9375
40
1
40
1
40
1
40
1
41
1
10
51.9059867922077
20
-2.4490046573346
30
0
41
1
10
51.9014830052837
20
-2.38520312435131
30
0
41
1
10
51.8924757058598
20
-2.25164846974292
30
0
41
1
10
51.8835151630894
20
-2.10653210476977
30
0
41
1
10
51.8746354879034
20
-1.95565758092567
30
0
41
1
10
51.8702484613633
20
-1.87734093193794
30
0
41
1
10
51.8636883347348
20
-1.75545953971326
30
0
41
1
10
51.8615043962644
20
-1.71409689993214
30
0
41
1
10
51.8571311068349
20
-1.62987162516802
30
0
41
1
10
51.8549547222937
20
-1.58725812417975
30
0
41
1
10
51.8484592920332
20
-1.45829149218306
30
0
41
1
10
51.8398712928915
20
-1.28303749327299
30
0
41
1
10
51.8270259416187
20
-1.01048189247646
30
0
41
1
10
51.8184096702643
20
-0.822314011140918
30
0
41
1
10
51.811910312507
20
-0.678696636751681
30
0
41
1
10
51.8097355040915
20
-0.630344050332354
30
0
41
1
10
51.8053911917904
20
-0.533494597984912
30
0
41
1
10
51.8032182838882
20
-0.484925068313657
30
0
41
1
10
51.8010387868391
20
-0.436211601548337
30
0
0
SPLINE
5
10E
100
AcDbEntity
8
1
62
256
6
ByLayer
370
13
48
1
60
0
100
AcDbSpline
70
4
71
3
72
10
73
6
40
0
40
0
40
0
40
0
40
0.250328509158109
40
0.926580623449537
40
1
40
1
40
1
40
1
41
1.04
10
51.4933123002533
20
-0.161262243091269
30
0
41
1.04
10
51.5013474289683
20
-0.311534215350033
30
0
41
1.04
10
51.5309484220135
20
-0.862605849639581
30
0
41
1.04
10
51.5622984016287
20
-1.40510933443284
30
0
41
1.04
10
51.5857844969953
20
-1.74349437609068
30
0
41
1.04
10
51.5880846011346
20
-1.77595085802871
30
0
0
SPLINE
5
10F
100
AcDbEntity
8
1
62
256
6
ByLayer
370
18
48
1
60
0
100
AcDbSpline
70
4
71
3
72
12
73
8
40
0
40
0
40
0
40
0
40
0.499999999999985
40
0.499999999999985
40
0.749999999999992
40
0.749999999999992
40
1
40
1
40
1
40
1
41
1
10
53.9050220221407
20
-3.21725302317518
30
0
41
1
10
53.9551721465371
20
-3.13376758702427
30
0
41
1
10
54.0057880345747
20
-3.04861681100655
30
0
41
1
10
54.0823590393419
20
-2.91887479310967
30
0
41
1
10
54.1079610858877
20
-2.87534254553176
30
0
41
1
10
54.1593490250538
20
-2.78772939005603
30
0
41
1
10
54.1851382628365
20
-2.74363896152872
30
0
41
1
10
54.2110922206581
20
-2.69916135357221
30
0
0
SPLINE
5
110
100
AcDbEntity
8
1
62
256
6
ByLayer
370
18
48
1
60
0
100
AcDbSpline
70
4
71
3
72
8
73
4
40
0
40
0
40
0
40
0
40
1
40
1
40
1
40
1
41
1
10
53.9050220221452
20
-3.21725302318066
30
0
41
1
10
53.8747669883004
20
-3.21665725842098
30
0
41
1
10
53.8445589158553
20
-3.21553942845321
30
0
41
1
10
53.8143894617133
20
-3.21390411605518
30
0
0
SPLINE
5
111
100
AcDbEntity
8
1
62
256
6
ByLayer
370
18
48
1
60
0
100
AcDbSpline
70
4
71
3
72
12
73
8
40
0
40
0
40
0
40
0
40
0.320410118387855
40
0.320410118387855
40
0.64082023677571
40
0.64082023677571
40
1
40
1
40
1
40
1
41
1
10
53.4970595334976
20
-2.65288622875994
30
0
41
1
10
53.5238195928921
20
-2.70219905685315
30
0
41
1
10
53.5505644921168
20
-2.75100228886973
30
0
41
1
10
53.6038485028998
20
-2.84729721180852
30
0
41
1
10
53.6303898215982
20
-2.89478967909346
30
0
41
1
10
53.6865045810734
20
-2.99409841689112
30
0
41
1
10
53.7160344115361
20
-3.04570133749971
30
0
41
1
10
53.7454407207493
20
-3.09638592242956
30
0
0
SPLINE
5
112
100
AcDbEntity
8
1
62
256
6
ByLayer
370
18
48
1
60
0
100
AcDbSpline
70
4
71
3
72
28
73
24
40
0
40
0
40
0
40
0
40
0.0625000000000046
40
0.0625000000000046
40
0.125000000000009
40
0.125000000000009
40
0.250000000000018
40
0.250000000000018
40
0.312499999999981
40
0.312499999999981
40
0.374999999999943
40
0.374999999999943
40
0.499999999999955
40
0.499999999999955
40
0.624999999999966
40
0.624999999999966
40
0.687499999999972
40
0.687499999999972
40
0.749999999999977
40
0.749999999999977
40
0.874999999999989
40
0.874999999999989
40
1
40
1
40
1
40
1
41
1
10
53.2566136576876
20
-2.59907680210867
30
0
41
1
10
53.260431482112
20
-2.59343269897678
30
0
41
1
10
53.2646534902007
20
-2.58848953827271
30
0
41
1
10
53.2737510370328
20
-2.57974379354783
30
0
41
1
10
53.2786484113021
20
-2.57593143707169
30
0
41
1
10
53.2940802629785
20
-2.56610030957418
30
0
41
1
10
53.3049250962302
20
-2.56186877395447
30
0
41
1
10
53.3217674192739
20
-2.55799652336461
30
0
41
1
10
53.3274836509579
20
-2.55713698820759
30
0
41
1
10
53.3388304725673
20
-2.55620762237217
30
0
41
1
10
53.3444960486593
20
-2.5561288734346
30
0
41
1
10
53.3614651970513
20
-2.55692277582841
30
0
41
1
10
53.3727776801826
20
-2.55882279273791
30
0
41
1
10
53.3951422469681
20
-2.56507045002431
30
0
41
1
10
53.4060022741646
20
-2.56935791923883
30
0
41
1
10
53.4218050810009
20
-2.57742827878732
30
0
41
1
10
53.4269907054662
20
-2.58039448633645
30
0
41
1
10
53.4371880742393
20
-2.58689567061157
30
0
41
1
10
53.4422116026162
20
-2.59044217733754
30
0
41
1
10
53.4567733115056
20
-2.60180958701656
30
0
41
1
10
53.4658809891193
20
-2.61038171329358
30
0
41
1
10
53.4827086546953
20
-2.62981399896938
30
0
41
1
10
53.4904751402404
20
-2.64075265880064
30
0
41
1
10
53.4970595334961
20
-2.65288622875704
30
0
0
SPLINE
5
113
100
AcDbEntity
8
1
62
256
6
ByLayer
370
18
48
1
60
0
100
AcDbSpline
70
4
71
3
72
12
73
8
40
0
40
0
40
0
40
0
40
0.500000000000001
40
0.500000000000001
40
0.75
40
0.75
40
1
40
1
40
1
40
1
41
1
10
52.9506945992115
20
-3.02680786433939
30
0
41
1
10
53.0007881832827
20
-2.96091091019699
30
0
41
1
10
53.051367734627
20
-2.8921332155941
30
0
41
1
10
53.1279038263602
20
-2.78504426905917
30
0
41
1
10
53.1534986753421
20
-2.74873786869776
30
0
41
1
10
53.2048776903989
20
-2.674939814292
30
0
41
1
10
53.2306621647379
20
-2.63744234393377
30
0
41
1
10
53.2566136576876
20
-2.59907680210867
30
0
0
SPLINE
5
114
100
AcDbEntity
8
1
62
256
6
ByLayer
370
18
48
1
60
0
100
AcDbSpline
70
4
71
3
72
8
73
4
40
0
40
0
40
0
40
0
40
1
40
1
40
1
40
1
41
1
10
52.9506945992154
20
-3.02680786434559
30
0
41
1
10
52.9206321702081
20
-3.01550749907815
30
0
41
1
10
52.8905309931811
20
-3.00370667007508
30
0
41
1
10
52.8603823279155
20
-2.99140392431468
30
0
0
SPLINE
5
115
100
AcDbEntity
8
1
62
256
6
ByLayer
370
18
48
1
60
0
100
AcDbSpline
70
4
71
3
72
12
73
8
40
0
40
0
40
0
40
0
40
0.25
40
0.25
40
0.5
40
0.5
40
1
40
1
40
1
40
1
41
1
10
52.5426079445814
20
-2.33911952851778
30
0
41
1
10
52.5694610919708
20
-2.39447818136063
30
0
41
1
10
52.5962867525762
20
-2.44963913821101
30
0
41
1
10
52.6497000754219
20
-2.55949819026867
30
0
41
1
10
52.6762924212249
20
-2.6142041464355
30
0
41
1
10
52.7557719234183
20
-2.77754705035076
30
0
41
1
10
52.8082889159365
20
-2.8852450589489
30
0
41
1
10
52.8603823279155
20
-2.99140392431471
30
0
0
SPLINE
5
116
100
AcDbEntity
8
1
62
256
6
ByLayer
370
18
48
1
60
0
100
AcDbSpline
70
4
71
3
72
26
73
22
40
0
40
0
40
0
40
0
40
0.125000000000063
40
0.125000000000063
40
0.250000000000126
40
0.250000000000126
40
0.312500000000116
40
0.312500000000116
40
0.375000000000105
40
0.375000000000105
40
0.500000000000084
40
0.500000000000084
40
0.625000000000062
40
0.625000000000062
40
0.687500000000051
40
0.687500000000051
40
0.75000000000004
40
0.75000000000004
40
0.87500000000002
40
0.87500000000002
40
1
40
1
40
1
40
1
41
1
10
52.3021363717193
20
-2.21892378162735
30
0
41
1
10
52.3097564372085
20
-2.21059280558137
30
0
41
1
10
52.3189777282894
20
-2.20521066420415
30
0
41
1
10
52.3395012675378
20
-2.1987577244995
30
0
41
1
10
52.3503185756734
20
-2.19783685394412
30
0
41
1
10
52.3671188091505
20
-2.19891796170293
30
0
41
1
10
52.3728278542167
20
-2.19970854097457
30
0
41
1
10
52.3841641139573
20
-2.20200597540142
30
0
41
1
10
52.3898250714174
20
-2.20351375016656
30
0
41
1
10
52.4067822364901
20
-2.20899812204709
30
0
41
1
10
52.4180741946443
20
-2.21393481252579
30
0
41
1
10
52.4404685113098
20
-2.22610226361832
30
0
41
1
10
52.4513432585777
20
-2.23320669627344
30
0
41
1
10
52.4671676102774
20
-2.24531312793707
30
0
41
1
10
52.4723603234232
20
-2.24959276844197
30
0
41
1
10
52.4825716040602
20
-2.25865683913611
30
0
41
1
10
52.4876075225767
20
-2.26346059617992
30
0
41
1
10
52.5022182600157
20
-2.27846163694517
30
0
41
1
10
52.5113525032436
20
-2.28927056640129
30
0
41
1
10
52.5282212778844
20
-2.31274763668611
30
0
41
1
10
52.5360081230848
20
-2.32551377788616
30
0
41
1
10
52.5426079445814
20
-2.33911952851776
30
0
0
SPLINE
5
117
100
AcDbEntity
8
1
62
256
6
ByLayer
370
18
48
1
60
0
100
AcDbSpline
70
4
71
3
72
12
73
8
40
0
40
0
40
0
40
0
40
0.499999999999983
40
0.499999999999983
40
0.749999999999992
40
0.749999999999992
40
1
40
1
40
1
40
1
41
1
10
51.9966229972231
20
-2.51291524475357
30
0
41
1
10
52.0466840254204
20
-2.47122827797753
30
0
41
1
10
52.0972148429044
20
-2.4257479435112
30
0
41
1
10
52.173646183822
20
-2.35216515242894
30
0
41
1
10
52.1992023299561
20
-2.3267762558321
30
0
41
1
10
52.2504970529855
20
-2.27431337546264
30
0
41
1
10
52.2762343569204
20
-2.24724231315946
30
0
41
1
10
52.3021363717193
20
-2.21892378162732
30
0
0
SPLINE
5
118
100
AcDbEntity
8
1
62
256
6
ByLayer
370
18
48
1
60
0
100
AcDbSpline
70
4
71
3
72
8
73
4
40
0
40
0
40
0
40
0
40
1
40
1
40
1
40
1
41
1
10
51.9966229972275
20
-2.51291524476142
30
0
41
1
10
51.9664187821642
20
-2.49202199924397
30
0
41
1
10
51.936209276957
20
-2.47071726376638
30
0
41
1
10
51.9059867922077
20
-2.4490046573346
30
0
0
SPLINE
5
119
100
AcDbEntity
8
1
62
256
6
ByLayer
370
18
48
1
60
0
100
AcDbSpline
70
4
71
3
72
12
73
8
40
0
40
0
40
0
40
0
40
0.25
40
0.25
40
0.5
40
0.5
40
1
40
1
40
1
40
1
41
1
10
51.5880846011346
20
-1.77595085802872
30
0
41
1
10
51.6149506482359
20
-1.83138469572833
30
0
41
1
10
51.6417852386862
20
-1.88695369786004
30
0
41
1
10
51.6952123964523
20
-1.99852832586913
30
0
41
1
10
51.7218130203798
20
-2.05454129450394
30
0
41
1
10
51.8013223586428
20
-2.22310888742078
30
0
41
1
10
51.8538653297783
20
-2.3360131127514
30
0
41
1
10
51.9059867922077
20
-2.4490046573346
30
0
0
SPLINE
5
11A
100
AcDbEntity
8
1
62
256
6
ByLayer
370
18
48
1
60
0
100
AcDbSpline
70
4
71
3
72
26
73
22
40
0
40
0
40
0
40
0
40
0.125000000000053
40
0.125000000000053
40
0.250000000000106
40
0.250000000000106
40
0.312500000000133
40
0.312500000000133
40
0.375000000000161
40
0.375000000000161
40
0.500000000000128
40
0.500000000000128
40
0.625000000000095
40
0.625000000000095
40
0.68750000000008
40
0.68750000000008
40
0.750000000000065
40
0.750000000000065
40
0.875000000000033
40
0.875000000000033
40
1
40
1
40
1
40
1
41
1
10
51.347622554345
20
-1.60148734254125
30
0
41
1
10
51.3552427813567
20
-1.5969876557877
30
0
41
1
10
51.3644653554084
20
-1.59536403206946
30
0
41
1
10
51.3850006429909
20
-1.59627213344376
30
0
41
1
10
51.3958260240631
20
-1.59878135265163
30
0
41
1
10
51.4126377215478
20
-1.60475219048979
30
0
41
1
10
51.4183504922131
20
-1.60713050481939
30
0
41
1
10
51.4296928666862
20
-1.61245622849447
30
0
41
1
10
51.4353563164037
20
-1.61541459433238
30
0
41
1
10
51.4523190389493
20
-1.62508303534702
30
0
41
1
10
51.4636130122756
20
-1.63259265530428
30
0
41
1
10
51.4860020975308
20
-1.64949013553087
30
0
41
1
10
51.496872268517
20
-1.6587059086639
30
0
41
1
10
51.5126880980238
20
-1.67363157006633
30
0
41
1
10
51.5178776987447
20
-1.67879234788162
30
0
41
1
10
51.5280824803806
20
-1.68949938747738
30
0
41
1
10
51.5331146198035
20
-1.69506683763788
30
0
41
1
10
51.5477134980745
20
-1.71213883570266
30
0
41
1
10
51.5568411622685
20
-1.72405098816222
30
0
41
1
10
51.5737010965262
20
-1.7490990127589
30
0
41
1
10
51.5814856603899
20
-1.76233498782383
30
0
41
1
10
51.5880846011345
20
-1.77595085802781
30
0
0
SPLINE
5
11B
100
AcDbEntity
8
1
62
256
6
ByLayer
370
18
48
1
60
0
100
AcDbSpline
70
4
71
3
72
26
73
22
40
0
40
0
40
0
40
0
40
0.124999999999946
40
0.124999999999946
40
0.249999999999891
40
0.249999999999891
40
0.312499999999864
40
0.312499999999864
40
0.374999999999837
40
0.374999999999837
40
0.499999999999869
40
0.499999999999869
40
0.624999999999902
40
0.624999999999902
40
0.687499999999919
40
0.687499999999919
40
0.749999999999935
40
0.749999999999935
40
0.874999999999968
40
0.874999999999968
40
1
40
1
40
1
40
1
41
1
10
50.3929954129577
20
-0.808966186268066
30
0
41
1
10
50.4005773744242
20
-0.808672306288003
30
0
41
1
10
50.4097636898044
20
-0.810863311236488
30
0
41
1
10
50.4302638630106
20
-0.81883155892865
30
0
41
1
10
50.4410868964593
20
-0.824416048152045
30
0
41
1
10
50.4579164032835
20
-0.834535743131084
30
0
41
1
10
50.4636369577854
20
-0.838216865650708
30
0
41
1
10
50.4749966074161
20
-0.845947968059164
30
0
41
1
10
50.4806704277599
20
-0.850018125949561
30
0
41
1
10
50.4976686888162
20
-0.862782644162081
30
0
41
1
10
50.5090085426689
20
-0.872057556564016
30
0
41
1
10
50.5314264028021
20
-0.89184939417342
30
0
41
1
10
50.5423107779274
20
-0.902191586959077
30
0
41
1
10
50.5581465241563
20
-0.918365038685636
30
0
41
1
10
50.5633425383768
20
-0.923867285973159
30
0
41
1
10
50.5735595667045
20
-0.935105238201572
30
0
41
1
10
50.5785883654653
20
-0.940852053994945
30
0
41
1
10
50.5931559181666
20
-0.958187458664753
30
0
41
1
10
50.602262878408
20
-0.969952881185634
30
0
41
1
10
50.6190848472709
20
-0.99396510264279
30
0
41
1
10
50.6268377214286
20
-1.00628523546609
30
0
41
1
10
50.6334044515401
20
-1.01847317492104
30
0
0
SPLINE
5
11C
100
AcDbEntity
8
1
62
256
6
ByLayer
370
18
48
1
60
0
100
AcDbSpline
70
4
71
3
72
12
73
8
40
0
40
0
40
0
40
0
40
0.499999999999977
40
0.499999999999977
40
0.749999999999989
40
0.749999999999989
40
1
40
1
40
1
40
1
41
1
10
50.176427190334
20
-0.787029236076279
30
0
41
1
10
50.2121224254126
20
-0.795266057090487
30
0
41
1
10
50.2480486856334
20
-0.801233903157538
30
0
41
1
10
50.3021775021211
20
-0.806814823863931
30
0
41
1
10
50.3202614958666
20
-0.808131551068271
30
0
41
1
10
50.3565334097391
20
-0.809573275895787
30
0
41
1
10
50.3747237411848
20
-0.809674403868399
30
0
41
1
10
50.3929954129577
20
-0.808966186268066
30
0
0
SPLINE
5
11D
100
AcDbEntity
8
1
62
256
6
ByLayer
370
18
48
1
60
0
100
AcDbSpline
70
4
71
3
72
8
73
4
40
0
40
0
40
0
40
0
40
1
40
1
40
1
40
1
41
1
10
49.8775651933288
20
-0.462900338074519
30
0
41
1
10
49.9774837095009
20
-0.570952573419731
30
0
41
1
10
50.0769962945673
20
-0.679096237564295
30
0
41
1
10
50.176427190334
20
-0.787029236076194
30
0
0
SPLINE
5
11E
100
AcDbEntity
8
1
62
256
6
ByLayer
370
18
48
1
60
0
100
AcDbSpline
70
4
71
3
72
10
73
6
40
0
40
0
40
0
40
0
40
0.5
40
0.5
40
1
40
1
40
1
40
1
41
1
10
49.679007931651
20
-0.159794932508248
30
0
41
1
10
49.712362959823
20
-0.207535367375243
30
0
41
1
10
49.7456594092707
20
-0.25645316496778
30
0
41
1
10
49.8118763767822
20
-0.357516623797267
30
0
41
1
10
49.8448054452952
20
-0.40953853387515
30
0
41
1
10
49.8775651933288
20
-0.462900338074519
30
0
0
SPLINE
5
11F
100
AcDbEntity
8
1
62
256
6
ByLayer
370
18
48
1
60
0
100
AcDbSpline
70
4
71
3
72
28
73
24
40
0
40
0
40
0
40
0
40
0.0625000000000358
40
0.0625000000000358
40
0.125000000000072
40
0.125000000000072
40
0.250000000000067
40
0.250000000000067
40
0.312500000000066
40
0.312500000000066
40
0.375000000000064
40
0.375000000000064
40
0.499999999999975
40
0.499999999999975
40
0.624999999999885
40
0.624999999999885
40
0.68749999999988
40
0.68749999999988
40
0.749999999999875
40
0.749999999999875
40
0.874999999999938
40
0.874999999999938
40
1
40
1
40
1
40
1
41
1
10
49.4385488356027
20
0.0641996626296759
30
0
41
1
10
49.442363024277
20
0.0621213047654692
30
0
41
1
10
49.4465788814486
20
0.059568026318459
30
0
41
1
10
49.4556613468178
20
0.05369417783524
30
0
41
1
10
49.4605456359134
20
0.0503586469194772
30
0
41
1
10
49.4759588813258
20
0.0393859217315082
30
0
41
1
10
49.4867912641525
20
0.0311250716526956
30
0
41
1
10
49.503609607895
20
0.0176978486996404
30
0
41
1
10
49.5093240654778
20
0.0130345903364173
30
0
41
1
10
49.5206683843693
20
0.003595205822819
30
0
41
1
10
49.5263320807594
20
-0.0012075837638292
30
0
41
1
10
49.5432933551525
20
-0.0158455284266097
30
0
41
1
10
49.5545825943781
20
-0.0259264548037379
30
0
41
1
10
49.576960522632
20
-0.0466088942026204
30
0
41
1
10
49.5878234186463
20
-0.0570012337214791
30
0
41
1
10
49.6036276422773
20
-0.072695977179535
30
0
41
1
10
49.6088132625677
20
-0.0779453378037545
30
0
41
1
10
49.6190102245524
20
-0.088485536827676
30
0
41
1
10
49.6240387260793
20
-0.0937954587394927
30
0
41
1
10
49.6386299077906
20
-0.109568762332515
30
0
41
1
10
49.6477544957502
20
-0.119926370284588
30
0
41
1
10
49.6646143492431
20
-0.140276601108553
30
0
41
1
10
49.6724036401448
20
-0.150342332232555
30
0
41
1
10
49.679007931651
20
-0.159794932508248
30
0
0
SPLINE
5
120
100
AcDbEntity
8
1
62
256
6
ByLayer
370
18
48
1
60
0
100
AcDbSpline
70
4
71
3
72
10
73
6
40
0
40
0
40
0
40
0
40
0.5
40
0.5
40
1
40
1
40
1
40
1
41
1
10
49.2966529728903
20
0.154539303714927
30
0
41
1
10
49.3201294628783
20
0.137674765882281
30
0
41
1
10
49.343696369686
20
0.121680595213093
30
0
41
1
10
49.3909901839695
20
0.0914384299987887
30
0
41
1
10
49.4147080370452
20
0.0771905541146509
30
0
41
1
10
49.4385488356027
20
0.0641996626296759
30
0
0
SPLINE
5
121
100
AcDbEntity
8
1
62
256
6
ByLayer
370
18
48
1
60
0
100
AcDbSpline
70
4
71
3
72
8
73
4
40
0
40
0
40
0
40
0
40
1
40
1
40
1
40
1
41
1
10
48.8320027014989
20
0.621154368876404
30
0
41
1
10
48.9877979701464
20
0.470434466995556
30
0
41
1
10
49.1423012416841
20
0.314563743204701
30
0
41
1
10
49.2966529728905
20
0.154539303714842
30
0
0
SPLINE
5
122
100
AcDbEntity
8
1
62
256
6
ByLayer
370
18
48
1
60
0
100
AcDbSpline
70
4
71
3
72
8
73
4
40
0
40
0
40
0
40
0
40
1
40
1
40
1
40
1
41
1
10
48.7245510024485
20
0.719694947860688
30
0
41
1
10
48.7605018979556
20
0.688811896690879
30
0
41
1
10
48.7963669378615
20
0.656160890952293
30
0
41
1
10
48.832002701499
20
0.621154368876375
30
0
0
SPLINE
5
123
100
AcDbEntity
8
1
62
256
6
ByLayer
370
18
48
1
60
0
100
AcDbSpline
70
4
71
3
72
26
73
22
40
0
40
0
40
0
40
0
40
0.124999999999951
40
0.124999999999951
40
0.249999999999902
40
0.249999999999902
40
0.312499999999878
40
0.312499999999878
40
0.374999999999854
40
0.374999999999854
40
0.499999999999806
40
0.499999999999806
40
0.624999999999758
40
0.624999999999758
40
0.687499999999774
40
0.687499999999774
40
0.74999999999979
40
0.74999999999979
40
0.874999999999895
40
0.874999999999895
40
1
40
1
40
1
40
1
41
1
10
48.4840604434379
20
0.932954063103836
30
0
41
1
10
48.4916745429541
20
0.924896083275911
30
0
41
1
10
48.5008786836659
20
0.915819008042519
30
0
41
1
10
48.5213919614746
20
0.896339989361962
30
0
41
1
10
48.5322070459683
20
0.886400268857642
30
0
41
1
10
48.5490011367314
20
0.871248769564318
30
0
41
1
10
48.5547114328167
20
0.866145128945021
30
0
41
1
10
48.5660507613501
20
0.856083942084865
30
0
41
1
10
48.5717125063623
20
0.851096756571678
30
0
41
1
10
48.5886694104761
20
0.836242840454929
30
0
41
1
10
48.5999489520703
20
0.82647214862007
30
0
41
1
10
48.6223482391609
20
0.807185810145398
30
0
41
1
10
48.633222165085
20
0.797881470242203
30
0
41
1
10
48.6490433237071
20
0.784365786566752
30
0
41
1
10
48.6542346442554
20
0.779934926667863
30
0
41
1
10
48.6644430659654
20
0.771221284934285
30
0
41
1
10
48.6694790733724
20
0.766922317307916
30
0
41
1
10
48.6841021527258
20
0.754428600771178
30
0
41
1
10
48.693244756548
20
0.746600041343413
30
0
41
1
10
48.7101341497699
20
0.732097282676847
30
0
41
1
10
48.7179376382769
20
0.725376054304292
30
0
41
1
10
48.7245510024485
20
0.719694947860688
30
0
0
SPLINE
5
124
100
AcDbEntity
8
1
62
256
6
ByLayer
370
18
48
1
60
0
100
AcDbSpline
70
4
71
3
72
8
73
4
40
0
40
0
40
0
40
0
40
1
40
1
40
1
40
1
41
1
10
48.4163912853114
20
1.00743888551824
30
0
41
1
10
48.4388691683782
20
0.981848616640775
30
0
41
1
10
48.4614098874269
20
0.956925082006421
30
0
41
1
10
48.484060443438
20
0.932954063103836
30
0
0
SPLINE
5
125
100
AcDbEntity
8
1
62
256
6
ByLayer
370
18
48
1
60
0
100
AcDbSpline
70
4
71
3
72
10
73
6
40
0
40
0
40
0
40
0
40
0.5
40
0.5
40
1
40
1
40
1
40
1
41
1
10
47.7864239785197
20
1.51932799578651
30
0
41
1
10
47.8923207509626
20
1.44197705295693
30
0
41
1
10
47.9975755943754
20
1.36051325308131
30
0
41
1
10
48.2073274158221
20
1.18971995081051
30
0
41
1
10
48.3118112252977
20
1.10037209107443
30
0
41
1
10
48.4163912853114
20
1.00743888551824
30
0
0
SPLINE
5
126
100
AcDbEntity
8
1
62
256
6
ByLayer
370
18
48
1
60
0
100
AcDbSpline
70
4
71
3
72
8
73
4
40
0
40
0
40
0
40
0
40
1
40
1
40
1
40
1
41
1
10
47.7699696942563
20
1.52269005174256
30
0
41
1
10
47.7754551468822
20
1.52161598593105
30
0
41
1
10
47.7809402039941
20
1.52049635775245
30
0
41
1
10
47.7864239785197
20
1.51932799578657
30
0
0
SPLINE
5
127
100
AcDbEntity
8
1
62
256
6
ByLayer
370
18
48
1
60
0
100
AcDbSpline
70
4
71
3
72
28
73
24
40
0
40
0
40
0
40
0
40
0.0625000000000209
40
0.0625000000000209
40
0.125000000000042
40
0.125000000000042
40
0.250000000000082
40
0.250000000000082
40
0.375000000000122
40
0.375000000000122
40
0.437500000000142
40
0.437500000000142
40
0.500000000000162
40
0.500000000000162
40
0.625000000000119
40
0.625000000000119
40
0.687500000000099
40
0.687500000000099
40
0.750000000000079
40
0.750000000000079
40
0.87500000000004
40
0.87500000000004
40
1
40
1
40
1
40
1
41
1
10
47.5345348061524
20
1.69456080960219
30
0
41
1
10
47.5385597636569
20
1.68916388542433
30
0
41
1
10
47.5429313707166
20
1.68375810519421
30
0
41
1
10
47.5522627361636
20
1.67293036397513
30
0
41
1
10
47.557265329569
20
1.66746696292236
30
0
41
1
10
47.5725748667648
20
1.65155007189588
30
0
41
1
10
47.58327333636
20
1.6414286362301
30
0
41
1
10
47.6053820632469
20
1.62189297350238
30
0
41
1
10
47.6164558803296
20
1.61278309999659
30
0
41
1
10
47.6329754255989
20
1.59993224089425
30
0
41
1
10
47.6384722884455
20
1.59578213932721
30
0
41
1
10
47.6494426196736
20
1.58772952146137
30
0
41
1
10
47.6549373494535
20
1.58381267164637
30
0
41
1
10
47.6711779097567
20
1.57255762488083
30
0
41
1
10
47.6816977845828
20
1.56569326247805
30
0
41
1
10
47.6970095775043
20
1.55627954658485
30
0
41
1
10
47.7020348428798
20
1.55329032966316
30
0
41
1
10
47.7119186320273
20
1.54761559468918
30
0
41
1
10
47.7167775051209
20
1.5449309213985
30
0
41
1
10
47.7308633653776
20
1.53747225811972
30
0
41
1
10
47.7396840818132
20
1.53323576836797
30
0
41
1
10
47.7560082187205
20
1.52647624930961
30
0
41
1
10
47.7635530230567
20
1.52394645255947
30
0
41
1
10
47.7699696942546
20
1.52269005174293
30
0
0
SPLINE
5
128
100
AcDbEntity
8
1
62
256
6
ByLayer
370
18
48
1
60
0
100
AcDbSpline
70
4
71
3
72
8
73
4
40
0
40
0
40
0
40
0
40
1
40
1
40
1
40
1
41
1
10
47.13
20
1.93756040442798
30
0
41
1
10
47.2658270892483
20
1.86437549264917
30
0
41
1
10
47.4003779480179
20
1.78316117104129
30
0
41
1
10
47.5345348061529
20
1.69456080960069
30
0
0
SPLINE
5
129
100
AcDbEntity
8
1
62
256
6
ByLayer
370
18
48
1
60
0
100
AcDbSpline
70
4
71
3
72
12
73
8
40
0
40
0
40
0
40
0
40
0.249999999999988
40
0.249999999999988
40
0.499999999999976
40
0.499999999999976
40
1
40
1
40
1
40
1
41
1
10
47.13
20
1.93756040442798
30
0
41
1
10
47.0942353263297
20
1.95040174331766
30
0
41
1
10
47.0576707716168
20
1.96378769830557
30
0
41
1
10
46.9830650172824
20
1.99181212609838
30
0
41
1
10
46.9450256621863
20
2.00645563191671
30
0
41
1
10
46.8290451353124
20
2.05277351460114
30
0
41
1
10
46.7492659048926
20
2.08684617927037
30
0
41
1
10
46.6680396149087
20
2.12559740741961
30
0
0
SPLINE
5
12A
100
AcDbEntity
8
1
62
256
6
ByLayer
370
18
48
1
60
0
100
AcDbSpline
70
4
71
3
72
37
73
33
40
0
40
0
40
0
40
0
40
0.058356681844634
40
0.058356681844634
40
0.116713363689268
40
0.116713363689268
40
0.175070045533902
40
0.175070045533902
40
0.233426727378536
40
0.233426727378536
40
0.350140091067798
40
0.350140091067798
40
0.379318431990115
40
0.379318431990115
40
0.408496772912432
40
0.408496772912432
40
0.466853454757066
40
0.466853454757066
40
0.583566818446334
40
0.583566818446334
40
0.641923500290968
40
0.641923500290968
40
0.700280182135602
40
0.700280182135602
40
0.758636863980236
40
0.758636863980236
40
0.787815204902549
40
0.787815204902549
40
0.816993545824863
40
0.933706909514113
40
0.933706909514113
40
1
40
1
40
1
40
1
41
1
10
46.6680396149082
20
2.1255974074202
30
0
41
1
10
46.5920980083088
20
2.16182743250121
30
0
41
1
10
46.5164664178288
20
2.19570759883342
30
0
41
1
10
46.3655700047228
20
2.25874113962706
30
0
41
1
10
46.2902828584915
20
2.28788460648317
30
0
41
1
10
46.139976282995
20
2.34147975969276
30
0
41
1
10
46.0649792930659
20
2.36594309431447
30
0
41
1
10
45.915323375297
20
2.41019924327964
30
0
41
1
10
45.8406339817512
20
2.42997288502721
30
0
41
1
10
45.6162503527805
20
2.48193803779577
30
0
41
1
10
45.4660938574882
20
2.50676949743411
30
0
41
1
10
45.2769950606089
20
2.52519140938887
30
0
41
1
10
45.2391055195021
20
2.52824328576909
30
0
41
1
10
45.1631660636235
20
2.53306590295628
30
0
41
1
10
45.125151427154
20
2.53483233775384
30
0
41
1
10
45.011478164391
20
2.53818216877158
30
0
41
1
10
44.9359858689214
20
2.53783160473137
30
0
41
1
10
44.7101465223031
20
2.5291654973399
30
0
41
1
10
44.5605218627464
20
2.51323228449735
30
0
41
1
10
44.3361540415034
20
2.47440169948763
30
0
41
1
10
44.261364039147
20
2.45896985988077
30
0
41
1
10
44.1114782822265
20
2.42320268421997
30
0
41
1
10
44.0363631071374
20
2.40287530403668
30
0
41
1
10
43.8856041303884
20
2.35737435521909
30
0
41
1
10
43.809981008982
20
2.33219526176222
30
0
41
1
10
43.6961727542135
20
2.29070833829812
30
0
41
1
10
43.6581342249861
20
2.27623954819896
30
0
41
1
10
43.58231966794
20
2.24621974435536
30
0
41
1
10
43.3932347574994
20
2.16840023473415
30
0
41
1
10
43.205969376875
20
2.07707623455246
30
0
41
1
10
42.9711644286462
20
1.95038023865698
30
0
41
1
10
42.8861442364506
20
1.90198149225384
30
0
41
1
10
42.8010301299868
20
1.85117760961339
30
0
0
SPLINE
5
12B
100
AcDbEntity
8
1
62
256
6
ByLayer
370
18
48
1
60
0
100
AcDbSpline
70
4
71
3
72
56
73
52
40
0
40
0
40
0
40
0
40
0.0050930113657199
40
0.0050930113657199
40
0.0524695346340133
40
0.0524695346340133
40
0.0998460579023068
40
0.0998460579023068
40
0.1472225811706
40
0.1472225811706
40
0.170910842804749
40
0.170910842804749
40
0.194599104438897
40
0.194599104438897
40
0.241975627707195
40
0.241975627707195
40
0.289352150975492
40
0.289352150975492
40
0.33672867424379
40
0.33672867424379
40
0.384105197512087
40
0.384105197512087
40
0.431481720780385
40
0.431481720780385
40
0.478858244048682
40
0.478858244048682
40
0.526234767316979
40
0.526234767316979
40
0.573611290585277
40
0.573611290585277
40
0.620987813853574
40
0.620987813853574
40
0.668364337121871
40
0.668364337121871
40
0.692052598756022
40
0.692052598756022
40
0.715740860390173
40
0.715740860390173
40
0.763117383658478
40
0.763117383658478
40
0.810493906926783
40
0.810493906926783
40
0.857870430195088
40
0.857870430195088
40
0.905246953463393
40
0.905246953463393
40
0.928935215097546
40
0.928935215097546
40
0.952623476731699
40
0.952623476731699
40
1
40
1
40
1
40
1
41
1
10
40.618763815599
20
2.53740037748187
30
0
41
1
10
40.6290451426342
20
2.53739911672957
30
0
41
1
10
40.6393235046162
20
2.53735110133311
30
0
41
1
10
40.7451820731081
20
2.53637635929275
30
0
41
1
10
40.8404535031802
20
2.53145199410676
30
0
41
1
10
41.0307318270024
20
2.51353837842444
30
0
41
1
10
41.1257380947662
20
2.50055043954635
30
0
41
1
10
41.3157778313409
20
2.46644254112701
30
0
41
1
10
41.4108149261384
20
2.4453125049356
30
0
41
1
10
41.5540593895647
20
2.4075784900347
30
0
41
1
10
41.6019255713097
20
2.39399600006701
30
0
41
1
10
41.698040636453
20
2.36486788031516
30
0
41
1
10
41.7463707684912
20
2.34930480413408
30
0
41
1
10
41.8910211340119
20
2.30005042167758
30
0
41
1
10
41.9872614473829
20
2.26373993819803
30
0
41
1
10
42.1786364366856
20
2.18395187358146
30
0
41
1
10
42.2736688866126
20
2.14039015355715
30
0
41
1
10
42.4633718390601
20
2.04644465847366
30
0
41
1
10
42.5581164349969
20
1.99611462221017
30
0
41
1
10
42.7480156768015
20
1.8891806851488
30
0
41
1
10
42.8431363212207
20
1.83255373088107
30
0
41
1
10
43.0341927679661
20
1.71329938123901
30
0
41
1
10
43.1301706804258
20
1.65066504537935
30
0
41
1
10
43.3233152160944
20
1.51978864623243
30
0
41
1
10
43.4194713934936
20
1.45222191349578
30
0
41
1
10
43.6109595158719
20
1.31293072374277
30
0
41
1
10
43.7062516996425
20
1.24116712401812
30
0
41
1
10
43.8958775987852
20
1.09332526333594
30
0
41
1
10
43.9902900146799
20
1.01731573013774
30
0
41
1
10
44.1798922130392
20
0.862796144486254
30
0
41
1
10
44.2751473472196
20
0.784368658994453
30
0
41
1
10
44.466582574993
20
0.625239470977078
30
0
41
1
10
44.5627616195423
20
0.544539582082223
30
0
41
1
10
44.7074812940261
20
0.421451837417862
30
0
41
1
10
44.755843094715
20
0.38001689772014
30
0
41
1
10
44.8520118176144
20
0.296997230915963
30
0
41
1
10
44.8999039090998
20
0.255365156993633
30
0
41
1
10
45.0431717557812
20
0.130299585448
30
0
41
1
10
45.1381414852642
20
0.0467002018552591
30
0
41
1
10
45.3279601623625
20
-0.119827954399426
30
0
41
1
10
45.4227706264855
20
-0.202802277756035
30
0
41
1
10
45.6127496895845
20
-0.367538490192317
30
0
41
1
10
45.707958513776
20
-0.449254065989322
30
0
41
1
10
45.8993274046438
20
-0.610800658199821
30
0
41
1
10
45.9954057725938
20
-0.690727812391145
30
0
41
1
10
46.1393963222919
20
-0.810143676285065
30
0
41
1
10
46.1874039908409
20
-0.849845867811354
30
0
41
1
10
46.283567894565
20
-0.928816368825835
30
0
41
1
10
46.3315642161178
20
-0.967951537893072
30
0
41
1
10
46.4756075670916
20
-1.08397901060519
30
0
41
1
10
46.5716952312999
20
-1.15951111495201
30
0
41
1
10
46.6680396149083
20
-1.23302996739059
30
0
0
SPLINE
5
12C
100
AcDbEntity
8
1
62
256
6
ByLayer
370
18
48
1
60
0
100
AcDbSpline
70
4
71
3
72
10
73
6
40
0
40
0
40
0
40
0
40
0.5
40
0.5
40
1
40
1
40
1
40
1
41
1
10
46.6680396149082
20
-1.23302996739054
30
0
41
1
10
46.7457986365678
20
-1.29236662849155
30
0
41
1
10
46.8236513491317
20
-1.3534171862095
30
0
41
1
10
46.9780613733292
20
-1.48082979840129
30
0
41
1
10
47.054651019417
20
-1.54714364927685
30
0
41
1
10
47.1299999999996
20
-1.61721224208051
30
0
0
SPLINE
5
12D
100
AcDbEntity
8
1
62
256
6
ByLayer
370
18
48
1
60
0
100
AcDbSpline
70
4
71
3
72
10
73
6
40
0
40
0
40
0
40
0
40
0.5
40
0.5
40
1
40
1
40
1
40
1
41
1
10
47.7411593390634
20
-2.07056197765999
30
0
41
1
10
47.6402478752727
20
-1.99982432936076
30
0
41
1
10
47.5389273245795
20
-1.92655194760238
30
0
41
1
10
47.3352271897914
20
-1.77536234238516
30
0
41
1
10
47.2328936974158
20
-1.69741220439786
30
0
41
1
10
47.13
20
-1.61721224208102
30
0
0
SPLINE
5
12E
100
AcDbEntity
8
1
62
256
6
ByLayer
370
18
48
1
60
0
100
AcDbSpline
70
4
71
3
72
8
73
4
40
0
40
0
40
0
40
0
40
1
40
1
40
1
40
1
41
1
10
47.7531372635124
20
-2.065619723097
30
0
41
1
10
47.7491407063732
20
-2.06730119145598
30
0
41
1
10
47.7451484518422
20
-2.06894726557124
30
0
41
1
10
47.7411593390635
20
-2.07056197766002
30
0
0
SPLINE
5
12F
100
AcDbEntity
8
1
62
256
6
ByLayer
370
18
48
1
60
0
100
AcDbSpline
70
4
71
3
72
28
73
24
40
0
40
0
40
0
40
0
40
0.124999999999938
40
0.124999999999938
40
0.249999999999877
40
0.249999999999877
40
0.312499999999886
40
0.312499999999886
40
0.374999999999896
40
0.374999999999896
40
0.499999999999917
40
0.499999999999917
40
0.562499999999928
40
0.562499999999928
40
0.624999999999938
40
0.624999999999938
40
0.749999999999959
40
0.749999999999959
40
0.812499999999969
40
0.812499999999969
40
0.874999999999979
40
0.874999999999979
40
1
40
1
40
1
40
1
41
1
10
47.9936929031199
20
-2.20369317407005
30
0
41
1
10
47.9861309494204
20
-2.19073159309437
30
0
41
1
10
47.9770907877457
20
-2.17860492000489
30
0
41
1
10
47.9569483730188
20
-2.15551938279222
30
0
41
1
10
47.9463074956958
20
-2.14511154053019
30
0
41
1
10
47.929816044321
20
-2.13077379120352
30
0
41
1
10
47.9241925665488
20
-2.12618561583915
30
0
41
1
10
47.9129453606985
20
-2.11753408724727
30
0
41
1
10
47.9073251787976
20
-2.11346968706039
30
0
41
1
10
47.8904793315212
20
-2.10197028359209
30
0
41
1
10
47.8792678142356
20
-2.09522055039494
30
0
41
1
10
47.8625058620023
20
-2.08633392640007
30
0
41
1
10
47.8569146951704
20
-2.08357598462805
30
0
41
1
10
47.8459348338749
20
-2.07855674410047
30
0
41
1
10
47.8405251982402
20
-2.07628337991801
30
0
41
1
10
47.8245430174203
20
-2.07015624690968
30
0
41
1
10
47.8142133253917
20
-2.06698456333856
30
0
41
1
10
47.7992917143013
20
-2.06371276654667
30
0
41
1
10
47.7944197754126
20
-2.06287673197636
30
0
41
1
10
47.7850862030439
20
-2.06177238794624
30
0
41
1
10
47.7805993213576
20
-2.06149766496003
30
0
41
1
10
47.7677246679366
20
-2.06156975573313
30
0
41
1
10
47.7599009424799
20
-2.06277404573558
30
0
41
1
10
47.7531372635124
20
-2.06561972309686
30
0
0
SPLINE
5
130
100
AcDbEntity
8
1
62
256
6
ByLayer
370
18
48
1
60
0
100
AcDbSpline
70
4
71
3
72
8
73
4
40
0
40
0
40
0
40
0
40
1
40
1
40
1
40
1
41
1
10
48.029601318212
20
-2.26553145360816
30
0
41
1
10
48.0176555812036
20
-2.24484008913512
30
0
41
1
10
48.0056812316127
20
-2.22424179109657
30
0
41
1
10
47.9936929031199
20
-2.20369317407005
30
0
0
SPLINE
5
131
100
AcDbEntity
8
1
62
256
6
ByLayer
370
18
48
1
60
0
100
AcDbSpline
70
4
71
3
72
12
73
8
40
0
40
0
40
0
40
0
40
0.500000000000019
40
0.500000000000019
40
0.75000000000001
40
0.75000000000001
40
1
40
1
40
1
40
1
41
1
10
48.6180687087488
20
-2.60641134872415
30
0
41
1
10
48.5200194919748
20
-2.55634792794581
30
0
41
1
10
48.4217656443951
20
-2.50288725405522
30
0
41
1
10
48.2745680951889
20
-2.41765919990786
30
0
41
1
10
48.2255291046716
20
-2.3884079812068
30
0
41
1
10
48.1275359755653
20
-2.32821824704715
30
0
41
1
10
48.0785890319383
20
-2.29727479915457
30
0
41
1
10
48.029601318212
20
-2.26553145360816
30
0
0
SPLINE
5
132
100
AcDbEntity
8
1
62
256
6
ByLayer
370
18
48
1
60
0
100
AcDbSpline
70
4
71
3
72
10
73
6
40
0
40
0
40
0
40
0
40
0.5
40
0.5
40
1
40
1
40
1
40
1
41
1
10
48.7075991861784
20
-2.5157094660529
30
0
41
1
10
48.6926076706374
20
-2.53151017730266
30
0
41
1
10
48.6776822134328
20
-2.54687808055698
30
0
41
1
10
48.6478486463944
20
-2.57708561865547
30
0
41
1
10
48.6329482052818
20
-2.59190285644257
30
0
41
1
10
48.6180687087488
20
-2.60641134872415
30
0
0
SPLINE
5
133
100
AcDbEntity
8
1
62
256
6
ByLayer
370
18
48
1
60
0
100
AcDbSpline
70
4
71
3
72
28
73
24
40
0
40
0
40
0
40
0
40
0.125000000000091
40
0.125000000000091
40
0.250000000000183
40
0.250000000000183
40
0.312500000000228
40
0.312500000000228
40
0.375000000000274
40
0.375000000000274
40
0.50000000000028
40
0.50000000000028
40
0.562500000000284
40
0.562500000000284
40
0.625000000000287
40
0.625000000000287
40
0.750000000000213
40
0.750000000000213
40
0.812500000000176
40
0.812500000000176
40
0.87500000000014
40
0.87500000000014
40
1
40
1
40
1
40
1
41
1
10
48.9481081138595
20
-2.58868349414908
30
0
41
1
10
48.9405749708387
20
-2.57525427909442
30
0
41
1
10
48.9315698347206
20
-2.56349278640056
30
0
41
1
10
48.9114931224659
20
-2.54229903744835
30
0
41
1
10
48.9008726576822
20
-2.53337288997181
30
0
41
1
10
48.8844060117693
20
-2.52184188498811
30
0
41
1
10
48.8787890531526
20
-2.51829549182841
30
0
41
1
10
48.867546571204
20
-2.51187730289172
30
0
41
1
10
48.861927065693
20
-2.50900415445045
30
0
41
1
10
48.8450783086336
20
-2.50128097361898
30
0
41
1
10
48.8338582592235
20
-2.49731602100195
30
0
41
1
10
48.8170740342405
20
-2.49298863958231
30
0
41
1
10
48.8114742739357
20
-2.49181945437448
30
0
41
1
10
48.8004775174988
20
-2.49005739277007
30
0
41
1
10
48.7950589669302
20
-2.48945769186227
30
0
41
1
10
48.7790491565228
20
-2.48848789224829
30
0
41
1
10
48.7686998287919
20
-2.48893416883061
30
0
41
1
10
48.7537495378282
20
-2.49139649089759
30
0
41
1
10
48.7488735209725
20
-2.49252158751358
30
0
41
1
10
48.7395342364148
20
-2.49536822343598
30
0
41
1
10
48.7350459176159
20
-2.49709285244023
30
0
41
1
10
48.7221711030542
20
-2.50323860331906
30
0
41
1
10
48.7143530024861
20
-2.50859109959933
30
0
41
1
10
48.7075991861783
20
-2.51570946605278
30
0
0
SPLINE
5
134
100
AcDbEntity
8
1
62
256
6
ByLayer
370
18
48
1
60
0
100
AcDbSpline
70
4
71
3
72
12
73
8
40
0
40
0
40
0
40
0
40
0.500000000000002
40
0.500000000000002
40
0.750000000000001
40
0.750000000000001
40
1
40
1
40
1
40
1
41
1
10
49.0731240676081
20
-2.81278538018907
30
0
41
1
10
49.0524398179156
20
-2.7755141633842
30
0
41
1
10
49.0316940352042
20
-2.73820200255361
30
0
41
1
10
49.0004477400093
20
-2.68217453829891
30
0
41
1
10
48.9900107655038
20
-2.66348880620143
30
0
41
1
10
48.9690881360073
20
-2.626098240159
30
0
41
1
10
48.9586036670165
20
-2.60739375095346
30
0
41
1
10
48.9481081138595
20
-2.58868349414908
30
0
0
SPLINE
5
135
100
AcDbEntity
8
1
62
256
6
ByLayer
370
18
48
1
60
0
100
AcDbSpline
70
4
71
3
72
8
73
4
40
0
40
0
40
0
40
0
40
1
40
1
40
1
40
1
41
1
10
49.4967311031388
20
-2.95045034710549
30
0
41
1
10
49.3552854330804
20
-2.91392193668673
30
0
41
1
10
49.2142611842476
20
-2.86790452097779
30
0
41
1
10
49.0731240676081
20
-2.81278538018907
30
0
0
SPLINE
5
136
100
AcDbEntity
8
1
62
256
6
ByLayer
370
18
48
1
60
0
100
AcDbSpline
70
4
71
3
72
12
73
8
40
0
40
0
40
0
40
0
40
0.25
40
0.25
40
0.5
40
0.5
40
1
40
1
40
1
40
1
41
1
10
49.6621016964627
20
-2.70094697958282
30
0
41
1
10
49.6482019350954
20
-2.72260475029424
30
0
41
1
10
49.6343609760427
20
-2.74398889447676
30
0
41
1
10
49.6067045868669
20
-2.78639974191932
30
0
41
1
10
49.5928949788456
20
-2.80741444249159
30
0
41
1
10
49.5515322534926
20
-2.86984700167989
30
0
41
1
10
49.5240695115721
20
-2.91061380398938
30
0
41
1
10
49.4967311031388
20
-2.95045034710552
30
0
0
SPLINE
5
137
100
AcDbEntity
8
1
62
256
6
ByLayer
370
18
48
1
60
0
100
AcDbSpline
70
4
71
3
72
28
73
24
40
0
40
0
40
0
40
0
40
0.125000000000075
40
0.125000000000075
40
0.25000000000015
40
0.25000000000015
40
0.312500000000187
40
0.312500000000187
40
0.375000000000223
40
0.375000000000223
40
0.50000000000021
40
0.50000000000021
40
0.562500000000161
40
0.562500000000161
40
0.625000000000112
40
0.625000000000112
40
0.750000000000096
40
0.750000000000096
40
0.812500000000089
40
0.812500000000089
40
0.875000000000081
40
0.875000000000081
40
1
40
1
40
1
40
1
41
1
10
49.9025191929744
20
-2.70225607156058
30
0
41
1
10
49.8950079104223
20
-2.68982429569837
30
0
41
1
10
49.8860277866191
20
-2.67969644540582
30
0
41
1
10
49.8659977015331
20
-2.66266018182566
30
0
41
1
10
49.8553858090749
20
-2.65615973231439
30
0
41
1
10
49.8389333448546
20
-2.64864200520705
30
0
41
1
10
49.8333204866235
20
-2.64650579586845
30
0
41
1
10
49.8220774195512
20
-2.64298331489164
30
0
41
1
10
49.8164570304305
20
-2.64159496647008
30
0
41
1
10
49.7996044327091
20
-2.63842728294782
30
0
41
1
10
49.788380276411
20
-2.63763273026214
30
0
41
1
10
49.771589066532
20
-2.638255811622
30
0
41
1
10
49.7659859751302
20
-2.6387739435576
30
0
41
1
10
49.75498292696
20
-2.64039919092667
30
0
41
1
10
49.7495616580945
20
-2.64150558897066
30
0
41
1
10
49.7335448786313
20
-2.64569368307426
30
0
41
1
10
49.7231925280218
20
-2.64963064893118
30
0
41
1
10
49.7082390310276
20
-2.6574269257838
30
0
41
1
10
49.7033630740853
20
-2.66034282466907
30
0
41
1
10
49.6940250044985
20
-2.66673269139366
30
0
41
1
10
49.6895377964829
20
-2.67021856945752
30
0
41
1
10
49.6766670731786
20
-2.68161577937894
30
0
41
1
10
49.6688526953401
20
-2.69042797987518
30
0
41
1
10
49.6621016964627
20
-2.70094697958282
30
0
0
SPLINE
5
138
100
AcDbEntity
8
1
62
256
6
ByLayer
370
18
48
1
60
0
100
AcDbSpline
70
4
71
3
72
12
73
8
40
0
40
0
40
0
40
0
40
0.5
40
0.5
40
0.75
40
0.75
40
1
40
1
40
1
40
1
41
1
10
50.1142753195815
20
-3.04697830612531
30
0
41
1
10
50.0794232368443
20
-2.99133230066297
30
0
41
1
10
50.0443446516925
20
-2.93473032526441
30
0
41
1
10
49.9914186141373
20
-2.84854394183017
30
0
41
1
10
49.9737266871963
20
-2.81960272149737
30
0
41
1
10
49.938215477797
20
-2.76125792936665
30
0
41
1
10
49.9203852202176
20
-2.73182578148635
30
0
41
1
10
49.9025191929744
20
-2.70225607156058
30
0
0
SPLINE
5
139
100
AcDbEntity
8
1
62
256
6
ByLayer
370
18
48
1
60
0
100
AcDbSpline
70
4
71
3
72
8
73
4
40
0
40
0
40
0
40
0
40
1
40
1
40
1
40
1
41
1
10
50.3759165853696
20
-3.04774406446978
30
0
41
1
10
50.2888591068947
20
-3.05167795198639
30
0
41
1
10
50.2018018590107
20
-3.05140532437696
30
0
41
1
10
50.1142753195815
20
-3.04697830612531
30
0
0
SPLINE
5
13A
100
AcDbEntity
8
1
62
256
6
ByLayer
370
18
48
1
60
0
100
AcDbSpline
70
4
71
3
72
12
73
8
40
0
40
0
40
0
40
0
40
0.250000000000001
40
0.250000000000001
40
0.500000000000001
40
0.500000000000001
40
1
40
1
40
1
40
1
41
1
10
50.6167017429314
20
-2.59731014154886
30
0
41
1
10
50.5963628130755
20
-2.63595459959311
30
0
41
1
10
50.5761414446622
20
-2.67429099992563
30
0
41
1
10
50.5357579488563
20
-2.75050866014658
30
0
41
1
10
50.5156187220337
20
-2.78836651912013
30
0
41
1
10
50.4553750519172
20
-2.90112847270757
30
0
41
1
10
50.4155181716537
20
-2.97508286700719
30
0
41
1
10
50.3759165853696
20
-3.04774406446981
30
0
0
SPLINE
5
13B
100
AcDbEntity
8
1
62
256
6
ByLayer
370
18
48
1
60
0
100
AcDbSpline
70
4
71
3
72
28
73
24
40
0
40
0
40
0
40
0
40
0.125000000000131
40
0.125000000000131
40
0.250000000000262
40
0.250000000000262
40
0.312500000000286
40
0.312500000000286
40
0.37500000000031
40
0.37500000000031
40
0.500000000000358
40
0.500000000000358
40
0.562500000000341
40
0.562500000000341
40
0.625000000000323
40
0.625000000000323
40
0.750000000000288
40
0.750000000000288
40
0.812500000000232
40
0.812500000000232
40
0.875000000000177
40
0.875000000000177
40
1
40
1
40
1
40
1
41
1
10
50.8571154790798
20
-2.52596929521349
30
0
41
1
10
50.8495856261113
20
-2.51581557057628
30
0
41
1
10
50.8405799810913
20
-2.50838697404979
30
0
41
1
10
50.8204918549272
20
-2.4973350110422
30
0
41
1
10
50.8098576946325
20
-2.4939922641131
30
0
41
1
10
50.7933707254633
20
-2.49135369246056
30
0
41
1
10
50.7877463589236
20
-2.49087996776405
30
0
41
1
10
50.7764906145616
20
-2.49068498393334
30
0
41
1
10
50.7708650524778
20
-2.49095850013569
30
0
41
1
10
50.7540006511045
20
-2.49277291512101
30
0
41
1
10
50.742773595418
20
-2.49529506568069
30
0
41
1
10
50.7259861279722
20
-2.50089440075698
30
0
41
1
10
50.7203884151197
20
-2.50307457151797
30
0
41
1
10
50.7093996096124
20
-2.50797044384805
30
0
41
1
10
50.7039861265852
20
-2.51069229009556
30
0
41
1
10
50.6879943117075
20
-2.51967058791408
30
0
41
1
10
50.6776607935566
20
-2.52672702354559
30
0
41
1
10
50.6627365110363
20
-2.53909063582699
30
0
41
1
10
50.6578764260281
20
-2.54350127854886
30
0
41
1
10
50.6485640835088
20
-2.55278236585434
30
0
41
1
10
50.6440883697428
20
-2.55767124120217
30
0
41
1
10
50.6312474709002
20
-2.57314180261122
30
0
41
1
10
50.6234467130571
20
-2.58449453537605
30
0
41
1
10
50.6167017429335
20
-2.59731014154519
30
0
0
SPLINE
5
13C
100
AcDbEntity
8
1
62
256
6
ByLayer
370
18
48
1
60
0
100
AcDbSpline
70
4
71
3
72
14
73
10
40
0
40
0
40
0
40
0
40
0.5
40
0.5
40
0.75
40
0.75
40
0.875
40
0.875
40
1
40
1
40
1
40
1
41
1
10
51.1570409366083
20
-2.90231841618146
30
0
41
1
10
51.1079620589924
20
-2.84562228520923
30
0
41
1
10
51.0584208086751
20
-2.78585357515127
30
0
41
1
10
50.9834273283812
20
-2.69177658481033
30
0
41
1
10
50.9583240721105
20
-2.65969143762408
30
0
41
1
10
50.9205101498248
20
-2.6104275230073
30
0
41
1
10
50.9078763849905
20
-2.59381196777341
30
0
41
1
10
50.8825405379076
20
-2.56016462509103
30
0
41
1
10
50.8698362541613
20
-2.54312278385268
30
0
41
1
10
50.8571154790798
20
-2.52596929521349
30
0
0
SPLINE
5
13D
100
AcDbEntity
8
1
62
256
6
ByLayer
370
18
48
1
60
0
100
AcDbSpline
70
4
71
3
72
8
73
4
40
0
40
0
40
0
40
0
40
1
40
1
40
1
40
1
41
1
10
51.2473570047445
20
-2.87100172613256
30
0
41
1
10
51.2172790790302
20
-2.88195177832435
30
0
41
1
10
51.1871776644275
20
-2.8923904469076
30
0
41
1
10
51.1570409366083
20
-2.90231841618149
30
0
0
SPLINE
5
13E
100
AcDbEntity
8
1
62
256
6
ByLayer
370
18
48
1
60
0
100
AcDbSpline
70
4
71
3
72
8
73
4
40
0
40
0
40
0
40
0
40
1
40
1
40
1
40
1
41
1
10
51.247357004745
20
-2.87100172613478
30
0
41
1
10
51.2497056913359
20
-2.86982868346658
30
0
41
1
10
51.2520539713162
20
-2.86865292421854
30
0
41
1
10
51.2544018505998
20
-2.86747445203861
30
0
0
SPLINE
5
13F
100
AcDbEntity
8
1
62
256
6
ByLayer
370
18
48
1
60
0
100
AcDbSpline
70
4
71
3
72
14
73
10
40
0
40
0
40
0
40
0
40
0.124999999999997
40
0.124999999999997
40
0.249999999999994
40
0.249999999999994
40
0.499999999999988
40
0.499999999999988
40
1
40
1
40
1
40
1
41
1
10
51.5708979747602
20
-2.21877823119209
30
0
41
1
10
51.5575008659008
20
-2.24599577571686
30
0
41
1
10
51.5441586144315
20
-2.27320097748137
30
0
41
1
10
51.5174987825401
20
-2.32757351483113
30
0
41
1
10
51.5041859230889
20
-2.35474157668529
30
0
41
1
10
51.4643063709957
20
-2.43619062621988
30
0
41
1
10
51.4378028710669
20
-2.49041744097838
30
0
41
1
10
51.3585671417102
20
-2.65287429713598
30
0
41
1
10
51.3062757803578
20
-2.760542902927
30
0
41
1
10
51.2544018505998
20
-2.86747445203861
30
0
0
SPLINE
5
140
100
AcDbEntity
8
1
62
256
6
ByLayer
370
18
48
1
60
0
100
AcDbSpline
70
4
71
3
72
22
73
18
40
0
40
0
40
0
40
0
40
0.0692454994254438
40
0.0692454994254438
40
0.255396399540376
40
0.255396399540376
40
0.348471849597842
40
0.348471849597842
40
0.441547299655309
40
0.441547299655309
40
0.62769819977024
40
0.62769819977024
40
0.720773649827703
40
0.720773649827703
40
0.813849099885167
40
0.813849099885167
40
1
40
1
40
1
40
1
41
1
10
51.7321983997569
20
-2.07508287073932
30
0
41
1
10
51.7280188168453
20
-2.07637184683446
30
0
41
1
10
51.7238409410714
20
-2.0778361810267
30
0
41
1
10
51.7084405190855
20
-2.08383137126614
30
0
41
1
10
51.6972321844384
20
-2.08935433171689
30
0
41
1
10
51.6804722334821
20
-2.09924259214048
30
0
41
1
10
51.6748763440422
20
-2.10282337197944
30
0
41
1
10
51.6638803516406
20
-2.11041554733327
30
0
41
1
10
51.6584629823461
20
-2.11443536672948
30
0
41
1
10
51.6424585984847
20
-2.12716201492128
30
0
41
1
10
51.6321154449072
20
-2.13652558101038
30
0
41
1
10
51.6171755669534
20
-2.15204425614391
30
0
41
1
10
51.6122869677155
20
-2.15747615576168
30
0
41
1
10
51.6029235811809
20
-2.16865352885375
30
0
41
1
10
51.598423369983
20
-2.17442354520594
30
0
41
1
10
51.5855133618297
20
-2.19232212774293
30
0
41
1
10
51.5776720741548
20
-2.20501598190219
30
0
41
1
10
51.5708979747602
20
-2.21877823119218
30
0
0
SPLINE
5
141
100
AcDbEntity
8
1
62
256
6
ByLayer
370
18
48
1
60
0
100
AcDbSpline
70
4
71
3
72
18
73
14
40
0
40
0
40
0
40
0
40
0.236051131211759
40
0.236051131211759
40
0.472102262423517
40
0.472102262423517
40
0.590127828029395
40
0.590127828029395
40
0.708153393635274
40
0.708153393635274
40
0.94420452484703
40
0.94420452484703
40
1
40
1
40
1
40
1
41
1
10
47.8475506311983
20
-2.6997033783642
30
0
41
1
10
47.8551495333524
20
-2.68705615528174
30
0
41
1
10
47.864352296387
20
-2.67672318994173
30
0
41
1
10
47.8848799517027
20
-2.65955667012841
30
0
41
1
10
47.8957133388332
20
-2.65313394552109
30
0
41
1
10
47.9125485379426
20
-2.64581375570705
30
0
41
1
10
47.9182700068906
20
-2.64377387899845
30
0
41
1
10
47.9296292879853
20
-2.64048936513527
30
0
41
1
10
47.9353015747851
20
-2.63922847224168
30
0
41
1
10
47.9522911618158
20
-2.63646198349156
30
0
41
1
10
47.9636136063216
20
-2.63596201195929
30
0
41
1
10
47.9774614031603
20
-2.63684928078769
30
0
41
1
10
47.9800906051054
20
-2.63708589029699
30
0
41
1
10
47.9827015633493
20
-2.63738841448
30
0
0
SPLINE
5
142
100
AcDbEntity
8
1
62
256
6
ByLayer
370
18
48
1
60
0
100
AcDbSpline
70
4
71
3
72
8
73
4
40
0
40
0
40
0
40
0
40
1
40
1
40
1
40
1
41
1
10
47.8272519515439
20
-2.73343641664107
30
0
41
1
10
47.8340081410217
20
-2.72222554686084
30
0
41
1
10
47.8407738943198
20
-2.71098223172314
30
0
41
1
10
47.8475506311964
20
-2.69970337836742
30
0
0
SPLINE
5
143
100
AcDbEntity
8
1
62
256
6
ByLayer
370
18
48
1
60
0
100
AcDbSpline
70
4
71
3
72
10
73
6
40
0
40
0
40
0
40
0
40
0.5
40
0.5
40
1
40
1
40
1
40
1
41
1
10
47.13
20
-2.52057006032561
30
0
41
1
10
47.2482132694498
20
-2.56956046908434
30
0
41
1
10
47.3650339597394
20
-2.61180455762482
30
0
41
1
10
47.5971172517692
20
-2.68278259757489
30
0
41
1
10
47.7123905096205
20
-2.71152515525796
30
0
41
1
10
47.8272519515439
20
-2.73343641664096
30
0
0
SPLINE
5
144
100
AcDbEntity
8
1
62
256
6
ByLayer
370
18
48
1
60
0
100
AcDbSpline
70
4
71
3
72
12
73
8
40
0
40
0
40
0
40
0
40
0.249999999999988
40
0.249999999999988
40
0.499999999999977
40
0.499999999999977
40
1
40
1
40
1
40
1
41
1
10
47.13
20
-2.52057006032558
30
0
41
1
10
47.0942353263297
20
-2.49385563178964
30
0
41
1
10
47.0576707716168
20
-2.46841983570346
30
0
41
1
10
46.9830650172824
20
-2.42013134312526
30
0
41
1
10
46.9450256621863
20
-2.39728136421482
30
0
41
1
10
46.8290451353124
20
-2.33271705209435
30
0
41
1
10
46.7492659048927
20
-2.29497414546063
30
0
41
1
10
46.6680396149087
20
-2.26287195821399
30
0
0
SPLINE
5
145
100
AcDbEntity
8
1
62
256
6
ByLayer
370
18
48
1
60
0
100
AcDbSpline
70
4
71
3
72
61
73
57
40
0
40
0
40
0
40
0
40
0.031249999999996
40
0.031249999999996
40
0.0624999999999921
40
0.0624999999999921
40
0.0937499999999881
40
0.0937499999999881
40
0.124999999999984
40
0.124999999999984
40
0.187499999999976
40
0.187499999999976
40
0.203124999999975
40
0.203124999999975
40
0.218749999999974
40
0.218749999999974
40
0.249999999999972
40
0.249999999999972
40
0.312499999999971
40
0.312499999999971
40
0.343749999999968
40
0.343749999999968
40
0.374999999999966
40
0.374999999999966
40
0.406249999999964
40
0.406249999999964
40
0.421874999999964
40
0.421874999999964
40
0.437499999999965
40
0.499999999999967
40
0.499999999999967
40
0.562499999999969
40
0.562499999999969
40
0.593749999999971
40
0.593749999999971
40
0.609374999999973
40
0.609374999999973
40
0.624999999999974
40
0.624999999999974
40
0.687499999999973
40
0.687499999999973
40
0.749999999999972
40
0.749999999999972
40
0.812499999999971
40
0.812499999999971
40
0.828124999999972
40
0.828124999999972
40
0.843749999999973
40
0.843749999999973
40
0.874999999999979
40
0.874999999999979
40
0.906249999999985
40
0.906249999999985
40
0.937499999999991
40
0.937499999999991
40
1
40
1
40
1
40
1
41
1
10
46.6680396149082
20
-2.2628719582143
30
0
41
1
10
46.5920980083087
20
-2.23285837917055
30
0
41
1
10
46.5164664178288
20
-2.20066643520627
30
0
41
1
10
46.3655700047228
20
-2.13217212169477
30
0
41
1
10
46.2902828584915
20
-2.09588553852885
30
0
41
1
10
46.139976282995
20
-2.01933419037295
30
0
41
1
10
46.0649792930659
20
-1.97905488766634
30
0
41
1
10
45.915323375297
20
-1.89446051040392
30
0
41
1
10
45.8406339817511
20
-1.8501625289326
30
0
41
1
10
45.6162503527805
20
-1.7118084621726
30
0
41
1
10
45.4660938574882
20
-1.61244402236579
30
0
41
1
10
45.2769950606089
20
-1.47978366308658
30
0
41
1
10
45.2391055195021
20
-1.45282716416878
30
0
41
1
10
45.1631660636235
20
-1.39807460362982
30
0
41
1
10
45.125151427154
20
-1.37030284351044
30
0
41
1
10
45.011478164391
20
-1.28623347142704
30
0
41
1
10
44.9359858689214
20
-1.22903862590141
30
0
41
1
10
44.7101465223031
20
-1.05429075160473
30
0
41
1
10
44.5605218627464
20
-0.933486563560251
30
0
41
1
10
44.3361540415034
20
-0.747284782896116
30
0
41
1
10
44.261364039147
20
-0.684397519499157
30
0
41
1
10
44.1114782822265
20
-0.557318202127789
30
0
41
1
10
44.0363631071374
20
-0.493148626888569
30
0
41
1
10
43.8856041303883
20
-0.363751443825692
30
0
41
1
10
43.8099810089819
20
-0.298500871244443
30
0
41
1
10
43.6961727542135
20
-0.199780490353078
30
0
41
1
10
43.6581342249861
20
-0.166692922052249
30
0
41
1
10
43.58231966794
20
-0.100616530136648
30
0
41
1
10
43.3932347574994
20
0.0644970295658425
30
0
41
1
10
43.205969376875
20
0.2287288105004
30
0
41
1
10
42.9064731056403
20
0.487900841308203
30
0
41
1
10
42.7568384783997
20
0.615748052823477
30
0
41
1
10
42.5314883010499
20
0.803694960574575
30
0
41
1
10
42.4562154359745
20
0.865698811101794
30
0
41
1
10
42.3429314636581
20
0.957572051245194
30
0
41
1
10
42.3051099398332
20
0.9880101546172
30
0
41
1
10
42.2293365612163
20
1.04850018764469
30
0
41
1
10
42.1913361508098
20
1.07859019876673
30
0
41
1
10
42.0015868001266
20
1.22756444626853
30
0
41
1
10
41.8514572685928
20
1.34161594432373
30
0
41
1
10
41.5516695133891
20
1.55695763613579
30
0
41
1
10
41.4018819964902
20
1.65816492715572
30
0
41
1
10
41.101821771617
20
1.84717110472749
30
0
41
1
10
40.9516219026889
20
1.93501414307948
30
0
41
1
10
40.7626183462861
20
2.03539929852459
30
0
41
1
10
40.7247536637988
20
2.05500391524419
30
0
41
1
10
40.6488685597075
20
2.09323758073381
30
0
41
1
10
40.6109811079855
20
2.11179953743846
30
0
41
1
10
40.4975850806962
20
2.16573796201263
30
0
41
1
10
40.42228064084
20
2.1993993305417
30
0
41
1
10
40.2719720169582
20
2.26204924665476
30
0
41
1
10
40.1969634379386
20
2.29103499305057
30
0
41
1
10
40.0469349045001
20
2.34425230118202
30
0
41
1
10
39.9719298088624
20
2.36849511318826
30
0
41
1
10
39.7469534640565
20
2.43416579827184
30
0
41
1
10
39.5971456185438
20
2.468577190232
30
0
41
1
10
39.4466139983381
20
2.49308507777297
30
0
0
SPLINE
5
146
100
AcDbEntity
8
1
62
256
6
ByLayer
370
18
48
1
60
0
100
AcDbSpline
70
4
71
3
72
26
73
22
40
0
40
0
40
0
40
0
40
0.0560347244395905
40
0.0560347244395905
40
0.151363572587255
40
0.151363572587255
40
0.246692420734919
40
0.246692420734919
40
0.342021268882583
40
0.342021268882583
40
0.437350117030247
40
0.437350117030247
40
0.532678965177912
40
0.532678965177912
40
0.628007813325576
40
0.628007813325576
40
0.818665509620904
40
0.818665509620904
40
0.913994357768568
40
0.913994357768568
40
1
40
1
40
1
40
1
41
1
10
39.4464939410149
20
2.49303988271703
30
0
41
1
10
39.4324897534911
20
2.45980761951102
30
0
41
1
10
39.4175864093895
20
2.42622391928805
30
0
41
1
10
39.373728783113
20
2.33409900723456
30
0
41
1
10
39.3427682727961
20
2.27477365741183
30
0
41
1
10
39.2733537955893
20
2.1531941263593
30
0
41
1
10
39.2344373104078
20
2.09022150176989
30
0
41
1
10
39.1508006488689
20
1.96530874869776
30
0
41
1
10
39.1061471203376
20
1.90335366932163
30
0
41
1
10
39.0103952827045
20
1.78058302550508
30
0
41
1
10
38.9586944168729
20
1.71932502277267
30
0
41
1
10
38.8526538465648
20
1.60410942448254
30
0
41
1
10
38.798031082455
20
1.54922876286847
30
0
41
1
10
38.6867471504321
20
1.44293644464358
30
0
41
1
10
38.6300648807177
20
1.39184806353541
30
0
41
1
10
38.4611804055945
20
1.24911515702212
30
0
41
1
10
38.3468136558779
20
1.1654468909984
30
0
41
1
10
38.1853172748463
20
1.06742716538523
30
0
41
1
10
38.1329402744759
20
1.03909692143026
30
0
41
1
10
38.0362890861105
20
0.994102254684719
30
0
41
1
10
37.9916382826949
20
0.976634477800872
30
0
41
1
10
37.9497496164992
20
0.96361911623103
30
0
0
SPLINE
5
147
100
AcDbEntity
8
1
62
256
6
ByLayer
370
18
48
1
60
0
100
AcDbSpline
70
4
71
3
72
78
73
74
40
0
40
0
40
0
40
0
40
0.0343206248853721
40
0.0343206248853721
40
0.0514809373280581
40
0.0514809373280581
40
0.0686412497707441
40
0.0686412497707441
40
0.102961874656118
40
0.102961874656118
40
0.137282499541491
40
0.137282499541491
40
0.154442811984177
40
0.154442811984177
40
0.171603124426863
40
0.171603124426863
40
0.205923749312235
40
0.205923749312235
40
0.240244374197607
40
0.240244374197607
40
0.27456499908298
40
0.27456499908298
40
0.291725311525666
40
0.291725311525666
40
0.308885623968352
40
0.308885623968352
40
0.326045936411038
40
0.326045936411038
40
0.343206248853724
40
0.343206248853724
40
0.377526873739096
40
0.377526873739096
40
0.411847498624468
40
0.411847498624468
40
0.44616812350984
40
0.44616812350984
40
0.480488748395213
40
0.480488748395213
40
0.497649060837899
40
0.497649060837899
40
0.514809373280585
40
0.514809373280585
40
0.549129998165957
40
0.549129998165957
40
0.583450623051329
40
0.583450623051329
40
0.617771247936701
40
0.617771247936701
40
0.652091872822074
40
0.652091872822074
40
0.686412497707446
40
0.686412497707446
40
0.720733122592818
40
0.720733122592818
40
0.75505374747819
40
0.75505374747819
40
0.789374372363562
40
0.789374372363562
40
0.823694997248935
40
0.823694997248935
40
0.858015622134307
40
0.858015622134307
40
0.875175934576993
40
0.875175934576993
40
0.892336247019679
40
0.892336247019679
40
0.926656871905051
40
0.926656871905051
40
0.960977496790423
40
0.960977496790423
40
0.995298121675795
40
0.995298121675795
40
1
40
1
40
1
40
1
41
1
10
37.4956533677343
20
1.32480199703738
30
0
41
1
10
37.5913415553523
20
1.2530390122628
30
0
41
1
10
37.6865114136746
20
1.17925769562447
30
0
41
1
10
37.8293925038708
20
1.06653963093325
30
0
41
1
10
37.8770432528964
20
1.02862945747862
30
0
41
1
10
37.9725714182117
20
0.952338994976401
30
0
41
1
10
38.0204475775472
20
0.913958319740289
30
0
41
1
10
38.1642442991323
20
0.797947005220692
30
0
41
1
10
38.2602960899745
20
0.719415114495717
30
0
41
1
10
38.4516861615744
20
0.558700135824267
30
0
41
1
10
38.5471701172614
20
0.47666677163113
30
0
41
1
10
38.6909098925958
20
0.351967226277651
30
0
41
1
10
38.7389988123402
20
0.31006208852736
30
0
41
1
10
38.8349376645496
20
0.226342937362745
30
0
41
1
10
38.8828015807555
20
0.184500589032666
30
0
41
1
10
39.0261920104397
20
0.059153851421712
30
0
41
1
10
39.1215455153606
20
-0.0241373289100011
30
0
41
1
10
39.3121727172736
20
-0.189737215217235
30
0
41
1
10
39.4074434150927
20
-0.272050024489687
30
0
41
1
10
39.5980189168607
20
-0.435574757345307
30
0
41
1
10
39.6933228031029
20
-0.516788363496573
30
0
41
1
10
39.8362073923267
20
-0.637879985842488
30
0
41
1
10
39.8838110965403
20
-0.678136301647783
30
0
41
1
10
39.9790140148213
20
-0.758377731706901
30
0
41
1
10
40.0266260689982
20
-0.798348206695579
30
0
41
1
10
40.1220746562891
20
-0.877756302779687
30
0
41
1
10
40.169913853804
20
-0.917190907702974
30
0
41
1
10
40.2660512959284
20
-0.995264645322123
30
0
41
1
10
40.314136061036
20
-1.03375181826161
30
0
41
1
10
40.4581650611679
20
-1.14737809340875
30
0
41
1
10
40.5540154859336
20
-1.22077698169187
30
0
41
1
10
40.7451820731081
20
-1.36322175795212
30
0
41
1
10
40.8404535031802
20
-1.43230568597704
30
0
41
1
10
41.0307318270024
20
-1.56584734559459
30
0
41
1
10
41.1257380947661
20
-1.63030650676495
30
0
41
1
10
41.3157778313408
20
-1.75426258189913
30
0
41
1
10
41.4108149261383
20
-1.81374971069272
30
0
41
1
10
41.5540593895645
20
-1.89861855218905
30
0
41
1
10
41.6019255713096
20
-1.92617914628278
30
0
41
1
10
41.6980406364528
20
-1.97972166224304
30
0
41
1
10
41.746370768491
20
-2.00572464702353
30
0
41
1
10
41.8910211340117
20
-2.08080570420793
30
0
41
1
10
41.9872614473828
20
-2.12713776830168
30
0
41
1
10
42.1786364366856
20
-2.21300784239571
30
0
41
1
10
42.2736688866126
20
-2.25257770641238
30
0
41
1
10
42.4633718390601
20
-2.32438695556067
30
0
41
1
10
42.558116434997
20
-2.35659498714324
30
0
41
1
10
42.7480156768015
20
-2.41334051197407
30
0
41
1
10
42.8431363212206
20
-2.43789422703398
30
0
41
1
10
43.034192767966
20
-2.47913642406655
30
0
41
1
10
43.1301706804256
20
-2.49582506672777
30
0
41
1
10
43.3233152160943
20
-2.52107248326985
30
0
41
1
10
43.4194713934936
20
-2.52951377255894
30
0
41
1
10
43.6109595158719
20
-2.53825513934189
30
0
41
1
10
43.7062516996425
20
-2.53855787278687
30
0
41
1
10
43.8958775987853
20
-2.5309703775896
30
0
41
1
10
43.99029001468
20
-2.52305346375346
30
0
41
1
10
44.1798922130392
20
-2.4991686612795
30
0
41
1
10
44.2751473472197
20
-2.48324106327772
30
0
41
1
10
44.466582574993
20
-2.44352344324906
30
0
41
1
10
44.5627616195422
20
-2.41974046299836
30
0
41
1
10
44.707481294026
20
-2.37795658597003
30
0
41
1
10
44.7558430947149
20
-2.36297995216344
30
0
41
1
10
44.8520118176143
20
-2.33114821392866
30
0
41
1
10
44.8999039090998
20
-2.31427886190187
30
0
41
1
10
45.0431717557812
20
-2.26089946428209
30
0
41
1
10
45.1381414852642
20
-2.22161399507542
30
0
41
1
10
45.3279601623626
20
-2.13627152861761
30
0
41
1
10
45.4227706264856
20
-2.0901978135478
30
0
41
1
10
45.6127496895846
20
-1.99169372513376
30
0
41
1
10
45.7079585137761
20
-1.93929155420122
30
0
41
1
10
45.8167515964056
20
-1.87638347193595
30
0
41
1
10
45.8298676269843
20
-1.8687479143116
30
0
41
1
10
45.8429898203575
20
-1.86105536711923
30
0
0
SPLINE
5
148
100
AcDbEntity
8
1
62
256
6
ByLayer
370
18
48
1
60
0
100
AcDbSpline
70
4
71
3
72
22
73
18
40
0
40
0
40
0
40
0
40
0.193128894196488
40
0.193128894196488
40
0.386257788392977
40
0.386257788392977
40
0.482822235491285
40
0.482822235491285
40
0.579386682589593
40
0.579386682589593
40
0.772515576786341
40
0.772515576786341
40
0.869080023884715
40
0.869080023884715
40
0.965644470983089
40
0.965644470983089
40
1
40
1
40
1
40
1
41
1
10
53.0840243420085
20
2.6962691429018
30
0
41
1
10
53.0764948805593
20
2.6840967437079
30
0
41
1
10
53.0675052900062
20
2.67432018287536
30
0
41
1
10
53.0474880374493
20
2.65808801142438
30
0
41
1
10
53.0368817416513
20
2.65201356625516
30
0
41
1
10
53.0204593306068
20
2.64516271379401
30
0
41
1
10
53.014861159882
20
2.64325445307537
30
0
41
1
10
53.0036304864613
20
2.6401827789914
30
0
41
1
10
52.9980173619982
20
2.63902007748635
30
0
41
1
10
52.9811894848373
20
2.63652904700447
30
0
41
1
10
52.9699857088195
20
2.63618519928701
30
0
41
1
10
52.9532299203942
20
2.6374808283621
30
0
41
1
10
52.947632552552
20
2.63822362538599
30
0
41
1
10
52.936627366397
20
2.64029520795558
30
0
41
1
10
52.9312055482817
20
2.64162277729378
30
0
41
1
10
52.9239669091053
20
2.64381256606353
30
0
41
1
10
52.9220777201394
20
2.64442317752355
30
0
41
1
10
52.9201991987275
20
2.6450704067407
30
0
0
SPLINE
5
149
100
AcDbEntity
8
1
62
256
6
ByLayer
370
18
48
1
60
0
100
AcDbSpline
70
4
71
3
72
14
73
10
40
0
40
0
40
0
40
0
40
0.499999999999984
40
0.499999999999984
40
0.749999999999976
40
0.749999999999976
40
0.874999999999988
40
0.874999999999988
40
1
40
1
40
1
40
1
41
1
10
53.3908930013247
20
3.17699444053406
30
0
41
1
10
53.3406383847355
20
3.10111667849495
30
0
41
1
10
53.2899408322411
20
3.02301063331183
30
0
41
1
10
53.2132256588683
20
2.90277246711352
30
0
41
1
10
53.1875661527518
20
2.86221692420403
30
0
41
1
10
53.1488914465229
20
2.80059525003327
30
0
41
1
10
53.1359683890975
20
2.77992166214131
30
0
41
1
10
53.1100468217513
20
2.73828799679512
30
0
41
1
10
53.097045043966
20
2.71731887973655
30
0
41
1
10
53.0840243420085
20
2.69626914290183
30
0
0
SPLINE
5
14A
100
AcDbEntity
8
1
62
256
6
ByLayer
370
18
48
1
60
0
100
AcDbSpline
70
4
71
3
72
8
73
4
40
0
40
0
40
0
40
0
40
1
40
1
40
1
40
1
41
1
10
53.3908930013247
20
3.17699444053392
30
0
41
1
10
53.4210217938829
20
3.17171672596842
30
0
41
1
10
53.451199117533
20
3.16592878246433
30
0
41
1
10
53.4814269307249
20
3.15962956375242
30
0
0
SPLINE
5
14B
100
AcDbEntity
8
1
62
256
6
ByLayer
370
18
48
1
60
0
100
AcDbSpline
70
4
71
3
72
15
73
11
40
0
40
0
40
0
40
0
40
0.12500000000001
40
0.25000000000002
40
0.25000000000002
40
0.500000000000013
40
0.500000000000013
40
0.750000000000007
40
0.750000000000007
40
1
40
1
40
1
40
1
41
1
10
53.7980506300701
20
2.55676040204466
30
0
41
1
10
53.7846237469915
20
2.58270434163197
30
0
41
1
10
53.757894618104
20
2.63436144237366
30
0
41
1
10
53.7312361465012
20
2.68569372155747
30
0
41
1
10
53.6913087485889
20
2.76243084165506
30
0
41
1
10
53.664793565895
20
2.81320029882647
30
0
41
1
10
53.6120015107305
20
2.91383798918676
30
0
41
1
10
53.5857064085497
20
2.9637383770378
30
0
41
1
10
53.5333808189652
20
3.06248159099724
30
0
41
1
10
53.507349955141
20
3.11132379616228
30
0
41
1
10
53.4814269307249
20
3.15962956375245
30
0
0
SPLINE
5
14C
100
AcDbEntity
8
1
62
256
6
ByLayer
370
18
48
1
60
0
100
AcDbSpline
70
4
71
3
72
30
73
26
40
0
40
0
40
0
40
0
40
0.124999999999986
40
0.124999999999986
40
0.187499999999979
40
0.187499999999979
40
0.249999999999972
40
0.249999999999972
40
0.312499999999965
40
0.312499999999965
40
0.374999999999958
40
0.374999999999958
40
0.500000000000028
40
0.500000000000028
40
0.562500000000022
40
0.562500000000022
40
0.625000000000015
40
0.625000000000015
40
0.750000000000083
40
0.750000000000083
40
0.812500000000079
40
0.812500000000079
40
0.875000000000076
40
0.875000000000076
40
1
40
1
40
1
40
1
41
1
10
54.0384443604752
20
2.47713343995059
30
0
41
1
10
54.0309659419265
20
2.46743900894097
30
0
41
1
10
54.022040662821
20
2.46046289660094
30
0
41
1
10
54.0071232177114
20
2.45283006565481
30
0
41
1
10
54.0019731270535
20
2.45082160669205
30
0
41
1
10
53.9914838200115
20
2.44772854303488
30
0
41
1
10
53.986125760676
20
2.4466363303211
30
0
41
1
10
53.9752112732143
20
2.44524918578472
30
0
41
1
10
53.9696290191727
20
2.44495589883579
30
0
41
1
10
53.958406172403
20
2.44511000602648
30
0
41
1
10
53.9527939751366
20
2.44555297311956
30
0
41
1
10
53.9359603826668
20
2.44786457048789
30
0
41
1
10
53.9247414603898
20
2.45070334902022
30
0
41
1
10
53.9079476336584
20
2.45676868981803
30
0
41
1
10
53.9023341058418
20
2.45910694186574
30
0
41
1
10
53.8912955582501
20
2.46432295673091
30
0
41
1
10
53.8858567856169
20
2.46720325530643
30
0
41
1
10
53.8697886904721
20
2.47665303650146
30
0
41
1
10
53.8594037052615
20
2.48401893865164
30
0
41
1
10
53.8444060382983
20
2.49683955880462
30
0
41
1
10
53.8394970375953
20
2.50142380134102
30
0
41
1
10
53.8301023927208
20
2.51104074884415
30
0
41
1
10
53.8255905454772
20
2.51609363120784
30
0
41
1
10
53.8126566817555
20
2.53204026952477
30
0
41
1
10
53.80481451094
20
2.54369097143842
30
0
41
1
10
53.7980506300717
20
2.55676040204179
30
0
0
SPLINE
5
14D
100
AcDbEntity
8
1
62
256
6
ByLayer
370
18
48
1
60
0
100
AcDbSpline
70
4
71
3
72
14
73
10
40
0
40
0
40
0
40
0
40
0.500000000000016
40
0.500000000000016
40
0.750000000000024
40
0.750000000000024
40
0.875000000000012
40
0.875000000000012
40
1
40
1
40
1
40
1
41
1
10
54.3460810957452
20
2.84213877789404
30
0
41
1
10
54.2956832476564
20
2.7880302397418
30
0
41
1
10
54.2448745637023
20
2.73067048544914
30
0
41
1
10
54.1679811018088
20
2.6395613065524
30
0
41
1
10
54.1422627895562
20
2.60837813439167
30
0
41
1
10
54.1034904037445
20
2.56021938184381
30
0
41
1
10
54.0905332033677
20
2.5439331812122
30
0
41
1
10
54.0645385264477
20
2.51085470061571
30
0
41
1
10
54.0514997977715
20
2.49405747747863
30
0
41
1
10
54.0384443604752
20
2.47713343995059
30
0
0
SPLINE
5
14E
100
AcDbEntity
8
1
62
256
6
ByLayer
370
18
48
1
60
0
100
AcDbSpline
70
4
71
3
72
8
73
4
40
0
40
0
40
0
40
0
40
1
40
1
40
1
40
1
41
1
10
54.3460810957452
20
2.84213877789387
30
0
41
1
10
54.3656256916314
20
2.83192776086076
30
0
41
1
10
54.3851865038396
20
2.82153130499054
30
0
41
1
10
54.4047634447195
20
2.81095035960269
30
0
0
SPLINE
5
14F
100
AcDbEntity
8
1
62
256
6
ByLayer
370
18
48
1
60
0
100
AcDbSpline
70
4
71
3
72
26
73
22
40
0
40
0
40
0
40
0
40
0.0312499999998928
40
0.0312499999998928
40
0.0468749999998453
40
0.0468749999998453
40
0.0624999999997979
40
0.0624999999997979
40
0.0781249999997504
40
0.0781249999997504
40
0.0937499999997029
40
0.0937499999997029
40
0.124999999999825
40
0.124999999999825
40
0.187499999999819
40
0.187499999999819
40
0.249999999999813
40
0.249999999999813
40
0.499999999999793
40
0.499999999999793
40
1
40
1
40
1
40
1
41
1
10
54.4047634447195
20
2.81095035960277
30
0
41
1
10
54.4047679549882
20
2.80998027474948
30
0
41
1
10
54.4047726722837
20
2.80901012003943
30
0
41
1
10
54.4047800969422
20
2.80755475024103
30
0
41
1
10
54.4047915090832
20
2.80706591502002
30
0
41
1
10
54.4047399598812
20
2.80611915509573
30
0
41
1
10
54.4046785114103
20
2.80566059434079
30
0
41
1
10
54.4046136715266
20
2.80471933412016
30
0
41
1
10
54.4046077025884
20
2.80422433955775
30
0
41
1
10
54.4048306562982
20
2.80319616471786
30
0
41
1
10
54.4050633892215
20
2.80270894596501
30
0
41
1
10
54.4058684582514
20
2.80142092821731
30
0
41
1
10
54.4065033445482
20
2.80071854996535
30
0
41
1
10
54.4084012305733
20
2.79866418460296
30
0
41
1
10
54.4097036834027
20
2.79737280410771
30
0
41
1
10
54.4122629969089
20
2.79468539879107
30
0
41
1
10
54.4135365571591
20
2.79332542024176
30
0
41
1
10
54.4198935872495
20
2.78649238754699
30
0
41
1
10
54.4249873113079
20
2.78102426853107
30
0
41
1
10
54.4403366862766
20
2.76472466711556
30
0
41
1
10
54.4505898380875
20
2.75382572243692
30
0
41
1
10
54.4608541941763
20
2.74287277963973
30
0
0
SPLINE
5
150
100
AcDbEntity
8
1
62
256
6
ByLayer
370
18
48
1
60
0
100
AcDbSpline
70
4
71
3
72
14
73
10
40
0
40
0
40
0
40
0
40
0.124999999999999
40
0.124999999999999
40
0.249999999999999
40
0.249999999999999
40
0.499999999999999
40
0.499999999999999
40
1
40
1
40
1
40
1
41
1
10
54.7526433359966
20
2.14229540304487
30
0
41
1
10
54.7402896593417
20
2.16733399082591
30
0
41
1
10
54.7279843198102
20
2.1923905780219
30
0
41
1
10
54.7034011289696
20
2.24250990621687
30
0
41
1
10
54.6911239589795
20
2.26757295660445
30
0
41
1
10
54.6543429495031
20
2.34277509301532
30
0
41
1
10
54.6299010665331
20
2.39290809958601
30
0
41
1
10
54.5569073747772
20
2.54317825333519
30
0
41
1
10
54.5086384035989
20
2.64329045147423
30
0
41
1
10
54.4608541941763
20
2.7428727796397
30
0
0
SPLINE
5
151
100
AcDbEntity
8
1
62
256
6
ByLayer
370
18
48
1
60
0
100
AcDbSpline
70
4
71
3
72
28
73
24
40
0
40
0
40
0
40
0
40
0.125000000000022
40
0.125000000000022
40
0.250000000000043
40
0.250000000000043
40
0.312500000000053
40
0.312500000000053
40
0.375000000000063
40
0.375000000000063
40
0.500000000000083
40
0.500000000000083
40
0.562500000000094
40
0.562500000000094
40
0.625000000000105
40
0.625000000000105
40
0.750000000000048
40
0.750000000000048
40
0.812500000000019
40
0.812500000000019
40
0.874999999999991
40
0.874999999999991
40
1
40
1
40
1
40
1
41
1
10
54.9930006406915
20
1.99961171853263
30
0
41
1
10
54.985500928842
20
1.99345290472314
30
0
41
1
10
54.9765461535836
20
1.99009206040569
30
0
41
1
10
54.9565911760698
20
1.98725418141638
30
0
41
1
10
54.9460025868148
20
1.98787044118049
30
0
41
1
10
54.9296011082556
20
1.99098393843184
30
0
41
1
10
54.9240084497948
20
1.99240610130445
30
0
41
1
10
54.9127813333345
20
1.99590438342179
30
0
41
1
10
54.9071686040395
20
1.99796993268595
30
0
41
1
10
54.8903380807511
20
2.00501693681665
30
0
41
1
10
54.8791274432806
20
2.01083774278163
30
0
41
1
10
54.8623546656426
20
2.02113776482938
30
0
41
1
10
54.8567511011338
20
2.02485140981207
30
0
41
1
10
54.8457363689149
20
2.0326956444288
30
0
41
1
10
54.8403095757709
20
2.03683389759877
30
0
41
1
10
54.8242770307472
20
2.04989398022494
30
0
41
1
10
54.8139152451134
20
2.05945105001669
30
0
41
1
10
54.7989487971508
20
2.07521428706011
30
0
41
1
10
54.794051274974
20
2.08072042329098
30
0
41
1
10
54.7846749847605
20
2.09202175777949
30
0
41
1
10
54.7801702157029
20
2.09784247110912
30
0
41
1
10
54.7672515947386
20
2.11585565857851
30
0
41
1
10
54.7594113707819
20
2.12857786471216
30
0
41
1
10
54.7526433359983
20
2.142295403042
30
0
0
SPLINE
5
152
100
AcDbEntity
8
1
62
256
6
ByLayer
370
18
48
1
60
0
100
AcDbSpline
70
4
71
3
72
10
73
6
40
0
40
0
40
0
40
0
40
0.5
40
0.5
40
1
40
1
40
1
40
1
41
1
10
55.0913294652307
20
2.07597275726636
30
0
41
1
10
55.075048659141
20
2.06415583236648
30
0
41
1
10
55.0587198719043
20
2.05190016156993
30
0
41
1
10
55.0259434093545
20
2.02642427385297
30
0
41
1
10
55.0094871083837
20
2.01315051667976
30
0
41
1
10
54.9930006406915
20
1.99961171853266
30
0
0
SPLINE
5
153
100
AcDbEntity
8
1
62
256
6
ByLayer
370
18
48
1
60
0
100
AcDbSpline
70
4
71
3
72
24
73
20
40
0
40
0
40
0
40
0
40
0.125000000000003
40
0.125000000000003
40
0.250000000000006
40
0.250000000000006
40
0.375000000000008
40
0.375000000000008
40
0.500000000000011
40
0.500000000000011
40
0.625000000000014
40
0.625000000000014
40
0.687500000000015
40
0.687500000000015
40
0.750000000000017
40
0.750000000000017
40
0.875000000000008
40
0.875000000000008
40
1
40
1
40
1
40
1
41
1
10
55.0913294652307
20
2.07597275726636
30
0
41
1
10
55.1688325997583
20
1.99551666151871
30
0
41
1
10
55.24737784742
20
1.91480663615096
30
0
41
1
10
55.4065278324115
20
1.75331102502676
30
0
41
1
10
55.4869502804829
20
1.67268741353993
30
0
41
1
10
55.6501503002637
20
1.51288986201743
30
0
41
1
10
55.7330414268132
20
1.43375494647876
30
0
41
1
10
55.9015721853928
20
1.27763682365412
30
0
41
1
10
55.9871943082352
20
1.20064729934214
30
0
41
1
10
56.1604668602149
20
1.04865539634994
30
0
41
1
10
56.2480972906363
20
0.973640886329491
30
0
41
1
10
56.3801128127283
20
0.861939036607424
30
0
41
1
10
56.4242132521464
20
0.82483976683352
30
0
41
1
10
56.5124369668475
20
0.750759631441071
30
0
41
1
10
56.5565636098005
20
0.713781358807779
30
0
41
1
10
56.6889411813637
20
0.602988019600247
30
0
41
1
10
56.7772241528189
20
0.529348433010313
30
0
41
1
10
56.9538594525824
20
0.382535180638655
30
0
41
1
10
57.0421333709831
20
0.309285231758764
30
0
41
1
10
57.1300000000003
20
0.235749930672455
30
0
0
SPLINE
5
154
100
AcDbEntity
8
1
62
256
6
ByLayer
370
18
48
1
60
0
100
AcDbSpline
70
4
71
3
72
8
73
4
40
0
40
0
40
0
40
0
40
1
40
1
40
1
40
1
41
1
10
57.1300000000002
20
0.235749930672483
30
0
41
1
10
57.1518083599618
20
0.214518671980443
30
0
41
1
10
57.1737463143183
20
0.193446730807409
30
0
41
1
10
57.1958142616948
20
0.172527485256637
30
0
0
SPLINE
5
155
100
AcDbEntity
8
1
62
256
6
ByLayer
370
18
48
1
60
0
100
AcDbSpline
70
4
71
3
72
8
73
4
40
0
40
0
40
0
40
0
40
1
40
1
40
1
40
1
41
1
10
57.33
20
0.0408985472584789
30
0
41
1
10
57.2838517125125
20
0.0816082665116085
30
0
41
1
10
57.2393131946156
20
0.12572343318007
30
0
41
1
10
57.1958142616946
20
0.172527485256723
30
0
0
SPLINE
5
156
100
AcDbEntity
8
1
62
256
6
ByLayer
370
18
48
1
60
0
100
AcDbSpline
70
4
71
3
72
48
73
44
40
0
40
0
40
0
40
0
40
0.0275353644189225
40
0.0275353644189225
40
0.0455439687815351
40
0.0455439687815351
40
0.0635525731441476
40
0.0635525731441476
40
0.0995697818693726
40
0.0995697818693726
40
0.135586990594598
40
0.135586990594598
40
0.207621408045048
40
0.207621408045048
40
0.279655825495498
40
0.279655825495498
40
0.423724660396398
40
0.423724660396398
40
0.459741869121623
40
0.459741869121623
40
0.495759077846848
40
0.495759077846848
40
0.567793495297299
40
0.567793495297299
40
0.639827912747749
40
0.639827912747749
40
0.711862330198199
40
0.711862330198199
40
0.747879538923424
40
0.747879538923424
40
0.783896747648649
40
0.783896747648649
40
0.819913956373875
40
0.819913956373875
40
0.837922560736487
40
0.837922560736487
40
0.8559311650991
40
0.8559311650991
40
0.92796558254955
40
0.92796558254955
40
0.963982791274775
40
0.963982791274775
40
1
40
1
40
1
40
1
41
1
10
57.33
20
0.104978376844485
30
0
41
1
10
57.33
20
0.113993861490627
30
0
41
1
10
57.33
20
0.12387606451901
30
0
41
1
10
57.33
20
0.141691710500481
30
0
41
1
10
57.33
20
0.149119904274187
30
0
41
1
10
57.33
20
0.164783135942429
30
0
41
1
10
57.33
20
0.173031042947116
30
0
41
1
10
57.33
20
0.198752750495657
30
0
41
1
10
57.33
20
0.217165792136939
30
0
41
1
10
57.33
20
0.255051869797313
30
0
41
1
10
57.33
20
0.274653575228115
30
0
41
1
10
57.33
20
0.334984421217399
30
0
41
1
10
57.33
20
0.377058561760691
30
0
41
1
10
57.33
20
0.464306984887088
30
0
41
1
10
57.33
20
0.509552225206818
30
0
41
1
10
57.33
20
0.650242651365346
30
0
41
1
10
57.33
20
0.75071096239509
30
0
41
1
10
57.33
20
0.884875895968548
30
0
41
1
10
57.33
20
0.912134045040887
30
0
41
1
10
57.33
20
0.967504356815056
30
0
41
1
10
57.33
20
0.995648345715296
30
0
41
1
10
57.33
20
1.08104199106015
30
0
41
1
10
57.33
20
1.13929702889234
30
0
41
1
10
57.33
20
1.25841012223046
30
0
41
1
10
57.33
20
1.31926547407698
30
0
41
1
10
57.33
20
1.44354852376216
30
0
41
1
10
57.33
20
1.50699119030952
30
0
41
1
10
57.33
20
1.60405525171393
30
0
41
1
10
57.33
20
1.63661647544387
30
0
41
1
10
57.33
20
1.7026591756819
30
0
41
1
10
57.33
20
1.73616383931113
30
0
41
1
10
57.33
20
1.80470446025893
30
0
41
1
10
57.33
20
1.8397497345774
30
0
41
1
10
57.33
20
1.89343266219669
30
0
41
1
10
57.33
20
1.91151317680081
30
0
41
1
10
57.33
20
1.94804714595239
30
0
41
1
10
57.3299999999999
20
1.96654679921949
30
0
41
1
10
57.3299999999999
20
2.05942158503439
30
0
41
1
10
57.33
20
2.13422968458784
30
0
41
1
10
57.33
20
2.24716641324863
30
0
41
1
10
57.33
20
2.28493388890286
30
0
41
1
10
57.33
20
2.36072526634433
30
0
41
1
10
57.33
20
2.39881527521294
30
0
41
1
10
57.33
20
2.43652837681432
30
0
0
SPLINE
5
157
100
AcDbEntity
8
1
62
256
6
ByLayer
370
18
48
1
60
0
100
AcDbSpline
70
4
71
3
72
11
73
7
40
0
40
0
40
0
40
0
40
0.249999999999999
40
0.249999999999999
40
0.499999999999999
40
1
40
1
40
1
40
1
41
1
10
57.1301705121351
20
2.63982691233156
30
0
41
1
10
57.1469929370344
20
2.62301997492261
30
0
41
1
10
57.1638097374806
20
2.60614942057302
30
0
41
1
10
57.1973353617472
20
2.57236948588027
30
0
41
1
10
57.2474653094508
20
2.52163618108077
30
0
41
1
10
57.2971178635914
20
2.47066136176312
30
0
41
1
10
57.33
20
2.43652837681432
30
0
0
SPLINE
5
158
100
AcDbEntity
8
1
62
256
6
ByLayer
370
18
48
1
60
0
100
AcDbSpline
70
4
71
3
72
8
73
4
40
0
40
0
40
0
40
0
40
1
40
1
40
1
40
1
41
1
10
57.130170512135
20
2.6398269123321
30
0
41
1
10
57.1301136744165
20
2.63985067421154
30
0
41
1
10
57.1300568370381
20
2.63987443641094
30
0
41
1
10
57.1300000000002
20
2.63989819893007
30
0
0
SPLINE
5
159
100
AcDbEntity
8
1
62
256
6
ByLayer
370
18
48
1
60
0
100
AcDbSpline
70
4
71
3
72
14
73
10
40
0
40
0
40
0
40
0
40
0.25
40
0.25
40
0.5
40
0.5
40
0.75
40
0.75
40
1
40
1
40
1
40
1
41
1
10
57.1300000000002
20
2.63989819893007
30
0
41
1
10
57.0181945968714
20
2.62070818385269
30
0
41
1
10
56.9044525553983
20
2.6010107316755
30
0
41
1
10
56.6741618830839
20
2.56338242594086
30
0
41
1
10
56.5576027814865
20
2.54552924904976
30
0
41
1
10
56.32436163509
20
2.51230081403796
30
0
41
1
10
56.2076223255891
20
2.49686543476165
30
0
41
1
10
55.9748228855125
20
2.46767144947145
30
0
41
1
10
55.8587830237238
20
2.45393843213469
30
0
41
1
10
55.7441103385616
20
2.43958269703549
30
0
0
SPLINE
5
15A
100
AcDbEntity
8
1
62
256
6
ByLayer
370
18
48
1
60
0
100
AcDbSpline
70
4
71
3
72
8
73
4
40
0
40
0
40
0
40
0
40
1
40
1
40
1
40
1
41
1
10
55.7242653953391
20
2.39908407525047
30
0
41
1
10
55.7308840053841
20
2.41259910009592
30
0
41
1
10
55.7374980946225
20
2.42609825023121
30
0
41
1
10
55.7441103385616
20
2.43958269703552
30
0
0
SPLINE
5
15B
100
AcDbEntity
8
1
62
256
6
ByLayer
370
18
48
1
60
0
100
AcDbSpline
70
4
71
3
72
28
73
24
40
0
40
0
40
0
40
0
40
0.062499999999973
40
0.062499999999973
40
0.124999999999946
40
0.124999999999946
40
0.249999999999967
40
0.249999999999967
40
0.312499999999978
40
0.312499999999978
40
0.374999999999989
40
0.374999999999989
40
0.500000000000011
40
0.500000000000011
40
0.625000000000034
40
0.625000000000034
40
0.687500000000004
40
0.687500000000004
40
0.749999999999975
40
0.749999999999975
40
0.874999999999987
40
0.874999999999987
40
1
40
1
40
1
40
1
41
1
10
55.4838039227705
20
2.2888383032811
30
0
41
1
10
55.4876126182037
20
2.28440332512153
30
0
41
1
10
55.491823213206
20
2.28072480074317
30
0
41
1
10
55.5008940447303
20
2.27459693335109
30
0
41
1
10
55.5057736423695
20
2.2721443077522
30
0
41
1
10
55.5211638320646
20
2.26646866038712
30
0
41
1
10
55.5319805738297
20
2.26500743391352
30
0
41
1
10
55.5487840978296
20
2.26529344023456
30
0
41
1
10
55.5544931460652
20
2.26582129114098
30
0
41
1
10
55.5658298455194
20
2.26760908520524
30
0
41
1
10
55.5714916311183
20
2.26886845387068
30
0
41
1
10
55.5884531548729
20
2.27362494392162
30
0
41
1
10
55.5997552425043
20
2.27810085872829
30
0
41
1
10
55.6221540038287
20
2.28938356039001
30
0
41
1
10
55.6330325088735
20
2.29607676146512
30
0
41
1
10
55.6488631456956
20
2.30761045656021
30
0
41
1
10
55.6540580635017
20
2.3117066074239
30
0
41
1
10
55.6642736295323
20
2.32041894986054
30
0
41
1
10
55.6693102876378
20
2.3250528318043
30
0
41
1
10
55.6839158843316
20
2.33956744964468
30
0
41
1
10
55.693045662013
20
2.35008929296018
30
0
41
1
10
55.7099014135337
20
2.37307418498958
30
0
41
1
10
55.7176772696727
20
2.38563129869178
30
0
41
1
10
55.7242653953391
20
2.39908407525047
30
0
0
SPLINE
5
15C
100
AcDbEntity
8
1
62
256
6
ByLayer
370
18
48
1
60
0
100
AcDbSpline
70
4
71
3
72
8
73
4
40
0
40
0
40
0
40
0
40
1
40
1
40
1
40
1
41
1
10
55.3926800713053
20
2.39109691170285
30
0
41
1
10
55.4228967128342
20
2.35833525017671
30
0
41
1
10
55.453234863402
20
2.32443398507394
30
0
41
1
10
55.4838039227687
20
2.28883830328385
30
0
0
SPLINE
5
15D
100
AcDbEntity
8
1
62
256
6
ByLayer
370
18
48
1
60
0
100
AcDbSpline
70
4
71
3
72
10
73
6
40
0
40
0
40
0
40
0
40
0.5
40
0.5
40
1
40
1
40
1
40
1
41
1
10
55.3926800713052
20
2.39109691170293
30
0
41
1
10
55.3221587034263
20
2.38006471908557
30
0
41
1
10
55.2523160156613
20
2.36808878112163
30
0
41
1
10
55.1141551581549
20
2.34154723539089
30
0
41
1
10
55.0458332360646
20
2.32699143917378
30
0
41
1
10
54.978234984554
20
2.31085433623636
30
0
0
SPLINE
5
15E
100
AcDbEntity
8
1
62
256
6
ByLayer
370
18
48
1
60
0
100
AcDbSpline
70
4
71
3
72
10
73
6
40
0
40
0
40
0
40
0
40
0.204336890573601
40
0.204336890573601
40
1
40
1
40
1
40
1
41
1
10
54.8477141779284
20
2.03307190414324
30
0
41
1
10
54.8566690468617
20
2.05192001094832
30
0
41
1
10
54.865611343835
20
2.07078410339227
30
0
41
1
10
54.909298768068
20
2.16319130450671
30
0
41
1
10
54.9438699508315
20
2.23699992846153
30
0
41
1
10
54.9782349845542
20
2.31085433623605
30
0
0
SPLINE
5
15F
100
AcDbEntity
8
1
62
256
6
ByLayer
370
18
48
1
60
0
100
AcDbSpline
70
4
71
3
72
12
73
8
40
0
40
0
40
0
40
0
40
0.500000000000015
40
0.500000000000015
40
0.750000000000008
40
0.750000000000008
40
1
40
1
40
1
40
1
41
1
10
54.5415695659478
20
1.01917065810187
30
0
41
1
10
54.5916772931811
20
0.956658814440544
30
0
41
1
10
54.6422617220519
20
0.897540649758326
30
0
41
1
10
54.7187895803098
20
0.814307977719267
30
0
41
1
10
54.7443793867316
20
0.787489534823806
30
0
41
1
10
54.7957453965438
20
0.73569496968679
30
0
41
1
10
54.8215250418978
20
0.710752193504817
30
0
41
1
10
54.8474711318245
20
0.687188270466692
30
0
0
SPLINE
5
160
100
AcDbEntity
8
1
62
256
6
ByLayer
370
18
48
1
60
0
100
AcDbSpline
70
4
71
3
72
8
73
4
40
0
40
0
40
0
40
0
40
1
40
1
40
1
40
1
41
1
10
54.5415695659501
20
1.01917065809971
30
0
41
1
10
54.511301859368
20
1.05097660960214
30
0
41
1
10
54.4810205333832
20
1.08263345116214
30
0
41
1
10
54.450716220663
20
1.11413257513033
30
0
0
SPLINE
5
161
100
AcDbEntity
8
1
62
256
6
ByLayer
370
18
48
1
60
0
100
AcDbSpline
70
4
71
3
72
12
73
8
40
0
40
0
40
0
40
0
40
0.25
40
0.25
40
0.5
40
0.5
40
1
40
1
40
1
40
1
41
1
10
54.1334602399729
20
1.30305702499101
30
0
41
1
10
54.16028183474
20
1.29226349400042
30
0
41
1
10
54.1870704469744
20
1.28048344351302
30
0
41
1
10
54.2404083251456
20
1.25424925970887
30
0
41
1
10
54.2669572808252
20
1.23976723950085
30
0
41
1
10
54.3462962488765
20
1.19237900090019
30
0
41
1
10
54.3987072048592
20
1.15561240869658
30
0
41
1
10
54.450716220663
20
1.11413257513036
30
0
0
SPLINE
5
162
100
AcDbEntity
8
1
62
256
6
ByLayer
370
18
48
1
60
0
100
AcDbSpline
70
4
71
3
72
28
73
24
40
0
40
0
40
0
40
0
40
0.0624999999998931
40
0.0624999999998931
40
0.124999999999786
40
0.124999999999786
40
0.249999999999647
40
0.249999999999647
40
0.31249999999962
40
0.31249999999962
40
0.374999999999592
40
0.374999999999592
40
0.499999999999625
40
0.499999999999625
40
0.624999999999658
40
0.624999999999658
40
0.687499999999714
40
0.687499999999714
40
0.749999999999771
40
0.749999999999771
40
0.874999999999885
40
0.874999999999885
40
1
40
1
40
1
40
1
41
1
10
53.8930235060493
20
1.49410206157111
30
0
41
1
10
53.8968352282416
20
1.48897744162974
30
0
41
1
10
53.9010488938708
20
1.48376522211498
30
0
41
1
10
53.9101258100243
20
1.47319486270263
30
0
41
1
10
53.9150084462256
20
1.46781782262084
30
0
41
1
10
53.9304072420052
20
1.45160520641312
30
0
41
1
10
53.9412287741053
20
1.44112662470971
30
0
41
1
10
53.9580374781467
20
1.42574353765298
30
0
41
1
10
53.963747763305
20
1.42066816065886
30
0
41
1
10
53.9750860873269
20
1.41084162882635
30
0
41
1
10
53.9807483131459
20
1.40605881910778
30
0
41
1
10
53.9977101556872
20
1.39205201340414
30
0
41
1
10
54.009011492564
20
1.38314626485806
30
0
41
1
10
54.0314047232259
20
1.36619851839495
30
0
41
1
10
54.0422794766539
20
1.35831916932508
30
0
41
1
10
54.0581029726857
20
1.34730040882653
30
0
41
1
10
54.0632952564168
20
1.34376236165201
30
0
41
1
10
54.0735051012508
20
1.33695829640573
30
0
41
1
10
54.0785385376154
20
1.33368258279663
30
0
41
1
10
54.0931344007136
20
1.32442120165322
30
0
41
1
10
54.1022578368273
20
1.31894906217138
30
0
41
1
10
54.1191028108061
20
1.3096050278015
30
0
41
1
10
54.1268745249498
20
1.30570724470439
30
0
41
1
10
54.1334602399729
20
1.30305702499098
30
0
0
SPLINE
5
163
100
AcDbEntity
8
1
62
256
6
ByLayer
370
18
48
1
60
0
100
AcDbSpline
70
4
71
3
72
12
73
8
40
0
40
0
40
0
40
0
40
0.500000000000016
40
0.500000000000016
40
0.750000000000008
40
0.750000000000008
40
1
40
1
40
1
40
1
41
1
10
53.5868789873224
20
1.94956009230825
30
0
41
1
10
53.6370314341237
20
1.86853538485926
30
0
41
1
10
53.6876562553063
20
1.78980831965708
30
0
41
1
10
53.7642444991611
20
1.67566028383422
30
0
41
1
10
53.7898541811947
20
1.63830229820732
30
0
41
1
10
53.8412600271267
20
1.56497188951303
30
0
41
1
10
53.8670574889849
20
1.52901173287847
30
0
41
1
10
53.8930235060493
20
1.4941020615712
30
0
0
SPLINE
5
164
100
AcDbEntity
8
1
62
256
6
ByLayer
370
18
48
1
60
0
100
AcDbSpline
70
4
71
3
72
8
73
4
40
0
40
0
40
0
40
0
40
1
40
1
40
1
40
1
41
1
10
53.5868789873265
20
1.94956009230677
30
0
41
1
10
53.5568098848991
20
1.97605050462332
30
0
41
1
10
53.5267587706009
20
2.00221222792811
30
0
41
1
10
53.4967176578696
20
2.02804046774799
30
0
0
SPLINE
5
165
100
AcDbEntity
8
1
62
256
6
ByLayer
370
18
48
1
60
0
100
AcDbSpline
70
4
71
3
72
12
73
8
40
0
40
0
40
0
40
0
40
0.250000000000006
40
0.250000000000006
40
0.500000000000012
40
0.500000000000012
40
1
40
1
40
1
40
1
41
1
10
53.1788551523559
20
1.99683606975535
30
0
41
1
10
53.2057044207936
20
2.00446934997831
30
0
41
1
10
53.2325226681862
20
2.01110371879517
30
0
41
1
10
53.2859288217282
20
2.02167707690194
30
0
41
1
10
53.3125178063876
20
2.02559519273109
30
0
41
1
10
53.3919994001022
20
2.03335328336439
30
0
41
1
10
53.4445416786027
20
2.03322190846427
30
0
41
1
10
53.4967176578697
20
2.02804046774796
30
0
0
SPLINE
5
166
100
AcDbEntity
8
1
62
256
6
ByLayer
370
18
48
1
60
0
100
AcDbSpline
70
4
71
3
72
28
73
24
40
0
40
0
40
0
40
0
40
0.062499999999951
40
0.062499999999951
40
0.124999999999902
40
0.124999999999902
40
0.24999999999988
40
0.24999999999988
40
0.312499999999869
40
0.312499999999869
40
0.374999999999859
40
0.374999999999859
40
0.499999999999839
40
0.499999999999839
40
0.624999999999818
40
0.624999999999818
40
0.687499999999849
40
0.687499999999849
40
0.749999999999879
40
0.749999999999879
40
0.87499999999994
40
0.87499999999994
40
1
40
1
40
1
40
1
41
1
10
52.9384184120084
20
2.14043214358332
30
0
41
1
10
52.9422223702665
20
2.13419584891074
30
0
41
1
10
52.9464295570749
20
2.12811854285934
30
0
41
1
10
52.9554979816031
20
2.11621992035259
30
0
41
1
10
52.9603792035316
20
2.11037906296545
30
0
41
1
10
52.9757775651039
20
2.09332344022715
30
0
41
1
10
52.9866071081286
20
2.08300910917148
30
0
41
1
10
53.0034371044117
20
2.06865128312967
30
0
41
1
10
53.0091533069136
20
2.06405623488305
30
0
41
1
10
53.0205028934816
20
2.05540838317739
30
0
41
1
10
53.0261711690309
20
2.05132520317582
30
0
41
1
10
53.04315198028
20
2.03971299774801
30
0
41
1
10
53.0544777471927
20
2.03279366531854
30
0
41
1
10
53.0768733800687
20
2.02054633824574
30
0
41
1
10
53.0877494546353
20
2.01532008411436
30
0
41
1
10
53.1035756994996
20
2.00871494754597
30
0
41
1
10
53.1087690297967
20
2.00672119256853
30
0
41
1
10
53.118981337204
20
2.00315748844676
30
0
41
1
10
53.124010697018
20
2.00158602867182
30
0
41
1
10
53.1385839150603
20
1.99760259229578
30
0
41
1
10
53.1476954764287
20
1.99587712948394
30
0
41
1
10
53.1645235389277
20
1.99455590807264
30
0
41
1
10
53.1722825214437
20
1.99496746265936
30
0
41
1
10
53.1788551523558
20
1.99683606975645
30
0
0
SPLINE
5
167
100
AcDbEntity
8
1
62
256
6
ByLayer
370
18
48
1
60
0
100
AcDbSpline
70
4
71
3
72
12
73
8
40
0
40
0
40
0
40
0
40
0.5
40
0.5
40
0.75
40
0.75
40
1
40
1
40
1
40
1
41
1
10
52.6321621665523
20
2.67139049263403
30
0
41
1
10
52.6823377282326
20
2.58032882568156
30
0
41
1
10
52.7329862818604
20
2.49026902399743
30
0
41
1
10
52.8096071061993
20
2.35724683022428
30
0
41
1
10
52.8352263850813
20
2.31329520446028
30
0
41
1
10
52.8866477695332
20
2.22617180314225
30
0
41
1
10
52.9124504875521
20
2.1830045426359
30
0
41
1
10
52.9384184120084
20
2.14043214358335
30
0
0
SPLINE
5
168
100
AcDbEntity
8
1
62
256
6
ByLayer
370
18
48
1
60
0
100
AcDbSpline
70
4
71
3
72
8
73
4
40
0
40
0
40
0
40
0
40
1
40
1
40
1
40
1
41
1
10
52.6321621665522
20
2.671390492634
30
0
41
1
10
52.6020999221232
20
2.68994787372861
30
0
41
1
10
52.5720878901763
20
2.70804505464241
30
0
41
1
10
52.5421183017713
20
2.72568260722193
30
0
0
SPLINE
5
169
100
AcDbEntity
8
1
62
256
6
ByLayer
370
18
48
1
60
0
100
AcDbSpline
70
4
71
3
72
12
73
8
40
0
40
0
40
0
40
0
40
0.25
40
0.25
40
0.5
40
0.5
40
1
40
1
40
1
40
1
41
1
10
52.224366415255
20
2.48069553690556
30
0
41
1
10
52.251174061747
20
2.50568177506403
30
0
41
1
10
52.2779686829454
20
2.52973964744069
30
0
41
1
10
52.3313446852432
20
2.57541258611064
30
0
41
1
10
52.3579323939761
20
2.59703043975276
30
0
41
1
10
52.4374271257279
20
2.65831216213687
30
0
41
1
10
52.4899906089213
20
2.69435765856596
30
0
41
1
10
52.5421183017713
20
2.72568260722193
30
0
0
SPLINE
5
16A
100
AcDbEntity
8
1
62
256
6
ByLayer
370
18
48
1
60
0
100
AcDbSpline
70
4
71
3
72
28
73
24
40
0
40
0
40
0
40
0
40
0.0625000000000154
40
0.0625000000000154
40
0.125000000000031
40
0.125000000000031
40
0.250000000000062
40
0.250000000000062
40
0.312500000000076
40
0.312500000000076
40
0.375000000000091
40
0.375000000000091
40
0.500000000000121
40
0.500000000000121
40
0.625000000000151
40
0.625000000000151
40
0.687500000000126
40
0.687500000000126
40
0.750000000000101
40
0.750000000000101
40
0.875000000000051
40
0.875000000000051
40
1
40
1
40
1
40
1
41
1
10
51.9838754777045
20
2.56144328768568
30
0
41
1
10
51.9876950214965
20
2.55475390400167
30
0
41
1
10
51.9919186668697
20
2.54846167032582
30
0
41
1
10
52.0010188862783
20
2.53652039493113
30
0
41
1
10
52.0059164741686
20
2.53085307329721
30
0
41
1
10
52.021352069794
20
2.51483409336044
30
0
41
1
10
52.0321977216389
20
2.50583971990426
30
0
41
1
10
52.0490357288732
20
2.49412765329342
30
0
41
1
10
52.0547514276043
20
2.49053159538067
30
0
41
1
10
52.0660963733031
20
2.4840374475275
30
0
41
1
10
52.0717603442429
20
2.48111440752095
30
0
41
1
10
52.0887226153039
20
2.47320469252193
30
0
41
1
10
52.1000216056173
20
2.46905856356165
30
0
41
1
10
52.1223812509306
20
2.4628461960375
30
0
41
1
10
52.1332376024441
20
2.46083232702333
30
0
41
1
10
52.1490349990603
20
2.45932771297569
30
0
41
1
10
52.154218853916
20
2.45908164045915
30
0
41
1
10
52.1644131180684
20
2.45911283001749
30
0
41
1
10
52.169438337485
20
2.45939322011435
30
0
41
1
10
52.1840136982867
20
2.46104121574297
30
0
41
1
10
52.1931316775206
20
2.46319268855169
30
0
41
1
10
52.2099822336641
20
2.46992514280049
30
0
41
1
10
52.2177654995972
20
2.47454311130096
30
0
41
1
10
52.2243664152532
20
2.48069553690388
30
0
0
SPLINE
5
16B
100
AcDbEntity
8
1
62
256
6
ByLayer
370
18
48
1
60
0
100
AcDbSpline
70
4
71
3
72
12
73
8
40
0
40
0
40
0
40
0
40
0.5
40
0.5
40
0.75
40
0.75
40
1
40
1
40
1
40
1
41
1
10
51.6781237753625
20
3.10715786484553
30
0
41
1
10
51.7281934375347
20
3.01657517639012
30
0
41
1
10
51.7787505975239
20
2.925545527461
30
0
41
1
10
51.8552495638502
20
2.78886406873633
30
0
41
1
10
51.8808314034878
20
2.74332923193794
30
0
41
1
10
51.9321812664638
20
2.65232402519931
30
0
41
1
10
51.9579473163485
20
2.60685274728991
30
0
41
1
10
51.9838754777044
20
2.56144328768599
30
0
0
SPLINE
5
16C
100
AcDbEntity
8
1
62
256
6
ByLayer
370
18
48
1
60
0
100
AcDbSpline
70
4
71
3
72
8
73
4
40
0
40
0
40
0
40
0
40
1
40
1
40
1
40
1
41
1
10
51.6781237753667
20
3.10715786484892
30
0
41
1
10
51.6479603375041
20
3.11584344499707
30
0
41
1
10
51.6177631309808
20
3.12403632075822
30
0
41
1
10
51.5875232058397
20
3.13173078967438
30
0
0
SPLINE
5
16D
100
AcDbEntity
8
1
62
256
6
ByLayer
370
18
48
1
60
0
100
AcDbSpline
70
4
71
3
72
12
73
8
40
0
40
0
40
0
40
0
40
0.250000000000006
40
0.250000000000006
40
0.500000000000012
40
0.500000000000012
40
1
40
1
40
1
40
1
41
1
10
51.2699212062029
20
2.6959646583224
30
0
41
1
10
51.2967604620745
20
2.73595694404941
30
0
41
1
10
51.323568263564
20
2.77520972193088
30
0
41
1
10
51.3769419013678
20
2.85177047585026
30
0
41
1
10
51.4035164277872
20
2.88908913586261
30
0
41
1
10
51.4829500302112
20
2.99816527409899
30
0
41
1
10
51.5354462875557
20
3.06694790609455
30
0
41
1
10
51.5875232058396
20
3.13173078967441
30
0
0
SPLINE
5
16E
100
AcDbEntity
8
1
62
256
6
ByLayer
370
18
48
1
60
0
100
AcDbSpline
70
4
71
3
72
26
73
22
40
0
40
0
40
0
40
0
40
0.124999999999933
40
0.124999999999933
40
0.249999999999866
40
0.249999999999866
40
0.312499999999833
40
0.312499999999833
40
0.3749999999998
40
0.3749999999998
40
0.499999999999821
40
0.499999999999821
40
0.624999999999842
40
0.624999999999842
40
0.687499999999892
40
0.687499999999892
40
0.749999999999942
40
0.749999999999942
40
0.874999999999971
40
0.874999999999971
40
1
40
1
40
1
40
1
41
1
10
51.0294379608592
20
2.70524467672445
30
0
41
1
10
51.0370586212784
20
2.69241831660074
30
0
41
1
10
51.0462830716146
20
2.68183641513775
30
0
41
1
10
51.0668203582396
20
2.66406333124263
30
0
41
1
10
51.0776470000648
20
2.65729126261931
30
0
41
1
10
51.0944613449461
20
2.64938259972894
30
0
41
1
10
51.1001745786858
20
2.64713504804493
30
0
41
1
10
51.1115177879937
20
2.6434235277207
30
0
41
1
10
51.1171817460241
20
2.64194231989055
30
0
41
1
10
51.1341463106663
20
2.63849612907433
30
0
41
1
10
51.1454434654578
20
2.63751652172201
30
0
41
1
10
51.1678333352679
20
2.637953085395
30
0
41
1
10
51.1787042547865
20
2.63936141646707
30
0
41
1
10
51.194521694108
20
2.64313859663454
30
0
41
1
10
51.1997119125683
20
2.64467808868037
30
0
41
1
10
51.2099180854439
20
2.64833317122515
30
0
41
1
10
51.2149505537825
20
2.65045845688971
30
0
41
1
10
51.2295486660219
20
2.65764587491276
30
0
41
1
10
51.2386763465946
20
2.66351333826941
30
0
41
1
10
51.2555373342377
20
2.67772333837829
30
0
41
1
10
51.2633222489448
20
2.68613177080019
30
0
41
1
10
51.2699212062029
20
2.69596465832242
30
0
0
SPLINE
5
16F
100
AcDbEntity
8
1
62
256
6
ByLayer
370
18
48
1
60
0
100
AcDbSpline
70
4
71
3
72
12
73
8
40
0
40
0
40
0
40
0
40
0.499999999999981
40
0.499999999999981
40
0.749999999999991
40
0.749999999999991
40
1
40
1
40
1
40
1
41
1
10
50.764318636577
20
3.14492878757551
30
0
41
1
10
50.8078690911056
20
3.07396659676019
30
0
41
1
10
50.8517666536818
20
3.00168860104316
30
0
41
1
10
50.9180667140106
20
2.89166147021649
30
0
41
1
10
50.9402428988868
20
2.85471704922392
30
0
41
1
10
50.9847140966073
20
2.7803853736871
30
0
41
1
10
51.0070184105446
20
2.74297910003233
30
0
41
1
10
51.0294379608592
20
2.70524467672445
30
0
0
SPLINE
5
170
100
AcDbEntity
8
1
62
256
6
ByLayer
370
18
48
1
60
0
100
AcDbSpline
70
4
71
3
72
8
73
4
40
0
40
0
40
0
40
0
40
1
40
1
40
1
40
1
41
1
10
50.574959050044
20
3.09964072662936
30
0
41
1
10
50.6382773473117
20
3.11706434901021
30
0
41
1
10
50.7013627191178
20
3.13216406479214
30
0
41
1
10
50.7643186365744
20
3.14492878759029
30
0
0
SPLINE
5
171
100
AcDbEntity
8
1
62
256
6
ByLayer
370
18
48
1
60
0
100
AcDbSpline
70
4
71
3
72
12
73
8
40
0
40
0
40
0
40
0
40
0.25
40
0.25
40
0.500000000000001
40
0.500000000000001
40
1
40
1
40
1
40
1
41
1
10
50.3153247871296
20
2.6215705053049
30
0
41
1
10
50.3371964274598
20
2.66296823200662
30
0
41
1
10
50.35904838474
20
2.70404771488077
30
0
41
1
10
50.4026144169179
20
2.78542546342447
30
0
41
1
10
50.4243222788753
20
2.82571425205489
30
0
41
1
10
50.4892566829487
20
2.94537045409632
30
0
41
1
10
50.5322346195195
20
3.02341057821545
30
0
41
1
10
50.574959050044
20
3.09964072662936
30
0
0
SPLINE
5
172
100
AcDbEntity
8
1
62
256
6
ByLayer
370
18
48
1
60
0
100
AcDbSpline
70
4
71
3
72
26
73
22
40
0
40
0
40
0
40
0
40
0.124999999999933
40
0.124999999999933
40
0.249999999999866
40
0.249999999999866
40
0.312499999999834
40
0.312499999999834
40
0.374999999999801
40
0.374999999999801
40
0.499999999999821
40
0.499999999999821
40
0.624999999999841
40
0.624999999999841
40
0.687499999999892
40
0.687499999999892
40
0.749999999999943
40
0.749999999999943
40
0.874999999999971
40
0.874999999999971
40
1
40
1
40
1
40
1
41
1
10
50.0748848981074
20
2.55792793529687
30
0
41
1
10
50.082484957204
20
2.54700082562897
30
0
41
1
10
50.0916922325639
20
2.53879942694181
30
0
41
1
10
50.1122168341697
20
2.52647596419521
30
0
41
1
10
50.1230469506446
20
2.5226434789368
30
0
41
1
10
50.1398798317281
20
2.51939482491514
30
0
41
1
10
50.1455989914483
20
2.51874675728999
30
0
41
1
10
50.15695421783
20
2.51824107229768
30
0
41
1
10
50.1626250849134
20
2.51837557965686
30
0
41
1
10
50.1796125349285
20
2.51981430922842
30
0
41
1
10
50.1909404836392
20
2.52215235803951
30
0
41
1
10
50.2133395292823
20
2.52928737059744
30
0
41
1
10
50.2242151449744
20
2.53401540428641
30
0
41
1
10
50.2400390285004
20
2.5427425263338
30
0
41
1
10
50.2452313011106
20
2.5459269659226
30
0
41
1
10
50.2554413244933
20
2.55286327557673
30
0
41
1
10
50.2604691525235
20
2.55662604354782
30
0
41
1
10
50.2750387736844
20
2.56862557368748
30
0
41
1
10
50.2841495071594
20
2.57760362463222
30
0
41
1
10
50.3009818586572
20
2.59781171963303
30
0
41
1
10
50.3087462574109
20
2.60911893919987
30
0
41
1
10
50.3153247871297
20
2.62157050530499
30
0
0
SPLINE
5
173
100
AcDbEntity
8
1
62
256
6
ByLayer
370
18
48
1
60
0
100
AcDbSpline
70
4
71
3
72
10
73
6
40
0
40
0
40
0
40
0
40
0.5
40
0.5
40
1
40
1
40
1
40
1
41
1
10
49.8829440989556
20
2.82332830745648
30
0
41
1
10
49.9146064667974
20
2.78121240662574
30
0
41
1
10
49.9464518092796
20
2.73798977232889
30
0
41
1
10
50.0104200867015
20
2.64956693290927
30
0
41
1
10
50.042528920549
20
2.60444827293182
30
0
41
1
10
50.0748848981057
20
2.55792793529952
30
0
0
SPLINE
5
174
100
AcDbEntity
8
1
62
256
6
ByLayer
370
18
48
1
60
0
100
AcDbSpline
70
4
71
3
72
8
73
4
40
0
40
0
40
0
40
0
40
1
40
1
40
1
40
1
41
1
10
49.5304191596149
20
2.62184762198805
30
0
41
1
10
49.648625275196
20
2.69559102996342
30
0
41
1
10
49.7659602019293
20
2.76283191513497
30
0
41
1
10
49.8829440989556
20
2.82332830745628
30
0
0
SPLINE
5
175
100
AcDbEntity
8
1
62
256
6
ByLayer
370
18
48
1
60
0
100
AcDbSpline
70
4
71
3
72
10
73
6
40
0
40
0
40
0
40
0
40
0.5
40
0.5
40
1
40
1
40
1
40
1
41
1
10
49.3607665063915
20
2.26863648498539
30
0
41
1
10
49.3892324694544
20
2.32784937315688
30
0
41
1
10
49.4176577612809
20
2.38691188899821
30
0
41
1
10
49.4742373651213
20
2.50470568636487
30
0
41
1
10
49.5023916533194
20
2.56340855230425
30
0
41
1
10
49.5304191596151
20
2.62184762198802
30
0
0
SPLINE
5
176
100
AcDbEntity
8
1
62
256
6
ByLayer
370
18
48
1
60
0
100
AcDbSpline
70
4
71
3
72
26
73
22
40
0
40
0
40
0
40
0
40
0.125000000000065
40
0.125000000000065
40
0.25000000000013
40
0.25000000000013
40
0.31250000000012
40
0.31250000000012
40
0.375000000000109
40
0.375000000000109
40
0.500000000000089
40
0.500000000000089
40
0.625000000000068
40
0.625000000000068
40
0.687500000000057
40
0.687500000000057
40
0.750000000000047
40
0.750000000000047
40
0.875000000000023
40
0.875000000000023
40
1
40
1
40
1
40
1
41
1
10
49.1203086909387
20
2.13994456051969
30
0
41
1
10
49.1279111912524
20
2.13209560400648
30
0
41
1
10
49.1371155931379
20
2.12717771916834
30
0
41
1
10
49.1576375812373
20
2.12164560661182
30
0
41
1
10
49.1684642002413
20
2.12116507776494
30
0
41
1
10
49.1852861390665
20
2.12290438090733
30
0
41
1
10
49.1910035256964
20
2.12391396977839
30
0
41
1
10
49.2023553738385
20
2.12663922890602
30
0
41
1
10
49.2080239977776
20
2.12835716834729
30
0
41
1
10
49.2250031315676
20
2.1344627334764
30
0
41
1
10
49.2363156797729
20
2.13980637855977
30
0
41
1
10
49.2587154502851
20
2.15274475944929
30
0
41
1
10
49.2695900609101
20
2.16021228788986
30
0
41
1
10
49.2854120643192
20
2.17283160461329
30
0
41
1
10
49.2906036465152
20
2.17727686010315
30
0
41
1
10
49.3008124293796
20
2.18666120231421
30
0
41
1
10
49.3058436289504
20
2.19161709797055
30
0
41
1
10
49.320429666262
20
2.20703618961744
30
0
41
1
10
49.3295501396401
20
2.21809217359606
30
0
41
1
10
49.3464004017483
20
2.24199328294515
30
0
41
1
10
49.3541774271452
20
2.25493034717781
30
0
41
1
10
49.3607665063919
20
2.26863648498613
30
0
0
SPLINE
5
177
100
AcDbEntity
8
1
62
256
6
ByLayer
370
18
48
1
60
0
100
AcDbSpline
70
4
71
3
72
10
73
6
40
0
40
0
40
0
40
0
40
0.5
40
0.5
40
1
40
1
40
1
40
1
41
1
10
49.0020674709863
20
2.25531529509536
30
0
41
1
10
49.021661267205
20
2.23719730320712
30
0
41
1
10
49.041303556187
20
2.21855171107455
30
0
41
1
10
49.0807011168988
20
2.18018283482616
30
0
41
1
10
49.1004589678324
20
2.1604377676268
30
0
41
1
10
49.1203086909387
20
2.13994456051969
30
0
0
SPLINE
5
178
100
AcDbEntity
8
1
62
256
6
ByLayer
370
18
48
1
60
0
100
AcDbSpline
70
4
71
3
72
8
73
4
40
0
40
0
40
0
40
0
40
1
40
1
40
1
40
1
41
1
10
48.8840787755305
20
2.16442016664291
30
0
41
1
10
48.9234517940606
20
2.19524401323801
30
0
41
1
10
48.9627765538418
20
2.22554617859117
30
0
41
1
10
49.002067470983
20
2.25531529510732
30
0
0
SPLINE
5
179
100
AcDbEntity
8
1
62
256
6
ByLayer
370
18
48
1
60
0
100
AcDbSpline
70
4
71
3
72
24
73
20
40
0
40
0
40
0
40
0
40
0.0980833481547478
40
0.0980833481547478
40
0.278466678523802
40
0.278466678523802
40
0.458850008892856
40
0.458850008892856
40
0.503945841485115
40
0.503945841485115
40
0.549041674077373
40
0.549041674077373
40
0.639233339261901
40
0.639233339261901
40
0.729425004446428
40
0.729425004446428
40
0.819616669630955
40
0.819616669630955
40
1
40
1
40
1
40
1
41
1
10
41.9465171701165
20
-2.53739584510902
30
0
41
1
10
41.8646425113488
20
-2.53741184864379
30
0
41
1
10
41.7830681140328
20
-2.53439039603376
30
0
41
1
10
41.551669513389
20
-2.51733361282612
30
0
41
1
10
41.4018819964903
20
-2.49625845067007
30
0
41
1
10
41.101821771617
20
-2.43440590851759
30
0
41
1
10
40.9516219026889
20
-2.39358269971368
30
0
41
1
10
40.7626183462861
20
-2.33013259741853
30
0
41
1
10
40.7247536637988
20
-2.31682125816857
30
0
41
1
10
40.6488685597075
20
-2.28895224015653
30
0
41
1
10
40.6109811079855
20
-2.27444259192225
30
0
41
1
10
40.4975850806962
20
-2.22928313253155
30
0
41
1
10
40.42228064084
20
-2.19697874007753
30
0
41
1
10
40.2719720169582
20
-2.12821534414292
30
0
41
1
10
40.1969634379386
20
-2.09175874080978
30
0
41
1
10
40.0469349045001
20
-2.014957307006
30
0
41
1
10
39.9719298088624
20
-1.97460582226182
30
0
41
1
10
39.7469534640565
20
-1.84771947904528
30
0
41
1
10
39.5971456185438
20
-1.75525353969584
30
0
41
1
10
39.4466139983381
20
-1.65543637136551
30
0
0
SPLINE
5
17A
100
AcDbEntity
8
1
62
256
6
ByLayer
370
18
48
1
60
0
100
AcDbSpline
70
4
71
3
72
26
73
22
40
0
40
0
40
0
40
0
40
0.126718603373864
40
0.126718603373864
40
0.190077905060796
40
0.190077905060796
40
0.253437206747728
40
0.253437206747728
40
0.380155810121592
40
0.380155810121592
40
0.506874413495455
40
0.506874413495455
40
0.57023371518239
40
0.57023371518239
40
0.633593016869325
40
0.633593016869325
40
0.760311620243194
40
0.760311620243194
40
0.887030223617063
40
0.887030223617063
40
1
40
1
40
1
40
1
41
1
10
37.4956533677343
20
-2.53656049586255
30
0
41
1
10
37.5913415553522
20
-2.53872475638906
30
0
41
1
10
37.6865114136746
20
-2.53668735754985
30
0
41
1
10
37.8293925038708
20
-2.52750527246533
30
0
41
1
10
37.8770432528965
20
-2.52342588144717
30
0
41
1
10
37.9725714182118
20
-2.51329354219317
30
0
41
1
10
38.0204475775472
20
-2.50724310570678
30
0
41
1
10
38.1642442991325
20
-2.48616099866896
30
0
41
1
10
38.2602960899747
20
-2.46821449019544
30
0
41
1
10
38.4516861615747
20
-2.424078648685
30
0
41
1
10
38.5471701172616
20
-2.39789392894895
30
0
41
1
10
38.6909098925961
20
-2.35249829105385
30
0
41
1
10
38.7389988123405
20
-2.33632061979972
30
0
41
1
10
38.8349376645499
20
-2.30216775520819
30
0
41
1
10
38.8828015807559
20
-2.28418601251519
30
0
41
1
10
39.0261920104399
20
-2.22762801151754
30
0
41
1
10
39.1215455153608
20
-2.1864565534936
30
0
41
1
10
39.3121727172738
20
-2.09760714683256
30
0
41
1
10
39.4074434150928
20
-2.04993104615031
30
0
41
1
10
39.587680302274
20
-1.95374438457716
30
0
41
1
10
39.6726422625383
20
-1.90588809256593
30
0
41
1
10
39.7575719630957
20
-1.85543516315926
30
0
0
SPLINE
5
17B
100
AcDbEntity
8
1
62
256
6
ByLayer
370
18
48
1
60
0
100
AcDbSpline
70
4
71
3
72
10
73
6
40
0
40
0
40
0
40
0
40
0.5
40
0.5
40
1
40
1
40
1
40
1
41
1
10
46.6680396149082
20
2.53706878263918
30
0
41
1
10
46.7457986365678
20
2.53816571310341
30
0
41
1
10
46.8236513491317
20
2.54471935977699
30
0
41
1
10
46.9780613733293
20
2.56993560269802
30
0
41
1
10
47.054651019417
20
2.58855061927596
30
0
41
1
10
47.1299999999996
20
2.61474161634254
30
0
0
SPLINE
5
17C
100
AcDbEntity
8
1
62
256
6
ByLayer
370
18
48
1
60
0
100
AcDbSpline
70
4
71
3
72
8
73
4
40
0
40
0
40
0
40
0
40
1
40
1
40
1
40
1
41
1
10
47.4480981272184
20
2.60582822130456
30
0
41
1
10
47.3424772034022
20
2.61396652391579
30
0
41
1
10
47.2364715016446
20
2.61690344002568
30
0
41
1
10
47.13
20
2.61474161634288
30
0
0
SPLINE
5
17D
100
AcDbEntity
8
1
62
256
6
ByLayer
370
18
48
1
60
0
100
AcDbSpline
70
4
71
3
72
24
73
20
40
0
40
0
40
0
40
0
40
0.12500000000007
40
0.12500000000007
40
0.187500000000064
40
0.187500000000064
40
0.250000000000059
40
0.250000000000059
40
0.375000000000049
40
0.375000000000049
40
0.500000000000039
40
0.500000000000039
40
0.62500000000003
40
0.62500000000003
40
0.75000000000002
40
0.75000000000002
40
0.87500000000001
40
0.87500000000001
40
1
40
1
40
1
40
1
41
1
10
47.6754717748424
20
2.56562306577535
30
0
41
1
10
47.6685177578671
20
2.5558100224809
30
0
41
1
10
47.6602953718903
20
2.54830980443327
30
0
41
1
10
47.6465972060715
20
2.53952124746181
30
0
41
1
10
47.6418294793739
20
2.53704319660992
30
0
41
1
10
47.6321557578703
20
2.53294868572237
30
0
41
1
10
47.6272175771567
20
2.5313123302939
30
0
41
1
10
47.6121390903139
20
2.52747672740034
30
0
41
1
10
47.6016504666539
20
2.52635394529531
30
0
41
1
10
47.580836061643
20
2.52654499168651
30
0
41
1
10
47.5704347247015
20
2.52782796092833
30
0
41
1
10
47.5496709995986
20
2.53250520188931
30
0
41
1
10
47.5392412469186
20
2.53594228610012
30
0
41
1
10
47.5190366862585
20
2.54470939630278
30
0
41
1
10
47.5092065960319
20
2.55003856387611
30
0
41
1
10
47.490146695722
20
2.56264850468278
30
0
41
1
10
47.480842846109
20
2.57000629436769
30
0
41
1
10
47.463512651662
20
2.58649600865507
30
0
41
1
10
47.4554427817194
20
2.59562618709097
30
0
41
1
10
47.4480981272184
20
2.6058282213049
30
0
0
SPLINE
5
17E
100
AcDbEntity
8
1
62
256
6
ByLayer
370
18
48
1
60
0
100
AcDbSpline
70
4
71
3
72
8
73
4
40
0
40
0
40
0
40
0
40
1
40
1
40
1
40
1
41
1
10
47.6847221091622
20
2.5786606916455
30
0
41
1
10
47.6816396216634
20
2.57432181644981
30
0
41
1
10
47.678556075783
20
2.56997542481776
30
0
41
1
10
47.6754717748424
20
2.56562306577535
30
0
0
SPLINE
5
17F
100
AcDbEntity
8
1
62
256
6
ByLayer
370
18
48
1
60
0
100
AcDbSpline
70
4
71
3
72
12
73
8
40
0
40
0
40
0
40
0
40
0.25
40
0.25
40
0.5
40
0.5
40
1
40
1
40
1
40
1
41
1
10
48.3262788143766
20
2.41432636878144
30
0
41
1
10
48.2727460025298
20
2.43328128130412
30
0
41
1
10
48.2192789077542
20
2.45093213821565
30
0
41
1
10
48.1125136530988
20
2.48368039138757
30
0
41
1
10
48.0592173323173
20
2.49877616243018
30
0
41
1
10
47.8992305696475
20
2.5400375268332
30
0
41
1
10
47.792419550281
20
2.5621566320566
30
0
41
1
10
47.6847221091622
20
2.5786606916455
30
0
0
SPLINE
5
180
100
AcDbEntity
8
1
62
256
6
ByLayer
370
18
48
1
60
0
100
AcDbSpline
70
4
71
3
72
8
73
4
40
0
40
0
40
0
40
0
40
1
40
1
40
1
40
1
41
1
10
48.3895506391773
20
2.28584928869714
30
0
41
1
10
48.3683794819532
20
2.32873108447987
30
0
41
1
10
48.3473181442816
20
2.37155885996879
30
0
41
1
10
48.3262788143766
20
2.41432636878147
30
0
0
SPLINE
5
181
100
AcDbEntity
8
1
62
256
6
ByLayer
370
18
48
1
60
0
100
AcDbSpline
70
4
71
3
72
28
73
24
40
0
40
0
40
0
40
0
40
0.125000000000001
40
0.125000000000001
40
0.250000000000002
40
0.250000000000002
40
0.312500000000003
40
0.312500000000003
40
0.375000000000003
40
0.375000000000003
40
0.500000000000004
40
0.500000000000004
40
0.562499999999963
40
0.562499999999963
40
0.624999999999921
40
0.624999999999921
40
0.749999999999919
40
0.749999999999919
40
0.812499999999956
40
0.812499999999956
40
0.874999999999993
40
0.874999999999993
40
1
40
1
40
1
40
1
41
1
10
48.6299171277632
20
2.1600701997809
30
0
41
1
10
48.6224076894461
20
2.15271717790282
30
0
41
1
10
48.6134266933307
20
2.14819882366592
30
0
41
1
10
48.5933869014074
20
2.1431111315741
30
0
41
1
10
48.5827721949547
20
2.14268591361287
30
0
41
1
10
48.5663104280483
20
2.14432957718236
30
0
41
1
10
48.5606936776036
20
2.14527626513572
30
0
41
1
10
48.5494479107069
20
2.14785510710405
30
0
41
1
10
48.5438260829325
20
2.14948085622837
30
0
41
1
10
48.5269691418189
20
2.1552612609639
30
0
41
1
10
48.5157420493502
20
2.16030743100041
30
0
41
1
10
48.4989474810725
20
2.16953926026829
30
0
41
1
10
48.4933454499347
20
2.17290691201526
30
0
41
1
10
48.4823464012449
20
2.18009017195115
30
0
41
1
10
48.4769271660358
20
2.18391671937488
30
0
41
1
10
48.4609167709916
20
2.19609692101264
30
0
41
1
10
48.4505690450677
20
2.20514005744101
30
0
41
1
10
48.4356235732303
20
2.2202519075359
30
0
41
1
10
48.4307555492877
20
2.22553712361003
30
0
41
1
10
48.421430557301
20
2.2364475537342
30
0
41
1
10
48.416949619072
20
2.24209603459536
30
0
41
1
10
48.404096781103
20
2.25966758640087
30
0
41
1
10
48.3962932122739
20
2.27219232892307
30
0
41
1
10
48.3895506391773
20
2.28584928869725
30
0
0
SPLINE
5
182
100
AcDbEntity
8
1
62
256
6
ByLayer
370
18
48
1
60
0
100
AcDbSpline
70
4
71
3
72
10
73
6
40
0
40
0
40
0
40
0
40
0.5
40
0.5
40
1
40
1
40
1
40
1
41
1
10
48.7242593407084
20
2.24849645919994
30
0
41
1
10
48.7086246236274
20
2.23457577674108
30
0
41
1
10
48.6929506086836
20
2.22026192152984
30
0
41
1
10
48.6615038755315
20
2.19077093897914
30
0
41
1
10
48.6457239956535
20
2.17554782147681
30
0
41
1
10
48.6299171277632
20
2.1600701997809
30
0
0
SPLINE
5
183
100
AcDbEntity
8
1
62
256
6
ByLayer
370
18
48
1
60
0
100
AcDbSpline
70
4
71
3
72
8
73
4
40
0
40
0
40
0
40
0
40
1
40
1
40
1
40
1
41
1
10
49.2047015758251
20
1.97886810521436
30
0
41
1
10
49.0448662334099
20
2.0799760246893
30
0
41
1
10
48.8857146585163
20
2.17048460122695
30
0
41
1
10
48.7242593407084
20
2.24849645919994
30
0
0
SPLINE
5
184
100
AcDbEntity
8
1
62
256
6
ByLayer
370
18
48
1
60
0
100
AcDbSpline
70
4
71
3
72
12
73
8
40
0
40
0
40
0
40
0
40
0.249999999999986
40
0.249999999999986
40
0.499999999999972
40
0.499999999999972
40
1
40
1
40
1
40
1
41
1
10
49.344073765728
20
1.69734133199591
30
0
41
1
10
49.3323678715859
20
1.72056858257054
30
0
41
1
10
49.3207069791673
20
1.74387867417448
30
0
41
1
10
49.2974139431941
20
1.79059460493687
30
0
41
1
10
49.2857829058834
20
1.81400160378925
30
0
41
1
10
49.2509413588558
20
1.88437952057305
30
0
41
1
10
49.2277839663767
20
1.93150899204088
30
0
41
1
10
49.2047015758251
20
1.97886810521442
30
0
0
SPLINE
5
185
100
AcDbEntity
8
1
62
256
6
ByLayer
370
18
48
1
60
0
100
AcDbSpline
70
4
71
3
72
28
73
24
40
0
40
0
40
0
40
0
40
0.125000000000073
40
0.125000000000073
40
0.250000000000145
40
0.250000000000145
40
0.31250000000014
40
0.31250000000014
40
0.375000000000135
40
0.375000000000135
40
0.500000000000124
40
0.500000000000124
40
0.562500000000118
40
0.562500000000118
40
0.625000000000111
40
0.625000000000111
40
0.750000000000096
40
0.750000000000096
40
0.812500000000088
40
0.812500000000088
40
0.87500000000008
40
0.87500000000008
40
1
40
1
40
1
40
1
41
1
10
49.5844516387906
20
1.51796418061272
30
0
41
1
10
49.5769218615697
20
1.51462950105307
30
0
41
1
10
49.5679158306507
20
1.51400240410337
30
0
41
1
10
49.5478244730385
20
1.51651971465725
30
0
41
1
10
49.5371915187469
20
1.5196316935608
30
0
41
1
10
49.5207027710835
20
1.52626910468095
30
0
41
1
10
49.5150773672782
20
1.52883751411403
30
0
41
1
10
49.5038226537067
20
1.53451599084147
30
0
41
1
10
49.4981974348474
20
1.53762013660898
30
0
41
1
10
49.4813333988097
20
1.54764623799173
30
0
41
1
10
49.4701056840669
20
1.55527255239443
30
0
41
1
10
49.4533156032329
20
1.56803667115054
30
0
41
1
10
49.4477185099009
20
1.57252455433536
30
0
41
1
10
49.4367316699725
20
1.58179885950943
30
0
41
1
10
49.4313189307165
20
1.58660184866551
30
0
41
1
10
49.4153287784618
20
1.60150900767252
30
0
41
1
10
49.4049955941958
20
1.61210359126835
30
0
41
1
10
49.3900714927162
20
1.6291088469859
30
0
41
1
10
49.3852163677131
20
1.63494220671694
30
0
41
1
10
49.3759111116608
20
1.6467760031417
30
0
41
1
10
49.3714388022435
20
1.6528010420412
30
0
41
1
10
49.3586077834229
20
1.67122786592705
30
0
41
1
10
49.3508132537321
20
1.68396860072772
30
0
41
1
10
49.3440737657279
20
1.69734133199614
30
0
0
SPLINE
5
186
100
AcDbEntity
8
1
62
256
6
ByLayer
370
18
48
1
60
0
100
AcDbSpline
70
4
71
3
72
12
73
8
40
0
40
0
40
0
40
0
40
0.5
40
0.5
40
0.75
40
0.75
40
1
40
1
40
1
40
1
41
1
10
49.767277393425
20
1.58071566981002
30
0
41
1
10
49.737140466519
20
1.57342444365733
30
0
41
1
10
49.70685334735
20
1.564658993497
30
0
41
1
10
49.6611444661604
20
1.54906919963065
30
0
41
1
10
49.6458700242471
20
1.5434619542275
30
0
41
1
10
49.6152272230897
20
1.53134393374322
30
0
41
1
10
49.5998524876608
20
1.52478468730541
30
0
41
1
10
49.5844516387906
20
1.51796418061275
30
0
0
SPLINE
5
187
100
AcDbEntity
8
1
62
256
6
ByLayer
370
18
48
1
60
0
100
AcDbSpline
70
4
71
3
72
8
73
4
40
0
40
0
40
0
40
0
40
1
40
1
40
1
40
1
41
1
10
50.0828697836924
20
1.32093990009849
30
0
41
1
10
49.9781246063341
20
1.4116019535561
30
0
41
1
10
49.8729187029268
20
1.49813798039861
30
0
41
1
10
49.767277393425
20
1.58071566981002
30
0
0
SPLINE
5
188
100
AcDbEntity
8
1
62
256
6
ByLayer
370
18
48
1
60
0
100
AcDbSpline
70
4
71
3
72
12
73
8
40
0
40
0
40
0
40
0
40
0.250000000000009
40
0.250000000000009
40
0.500000000000017
40
0.500000000000017
40
1
40
1
40
1
40
1
41
1
10
50.2983799302135
20
0.930128104896539
30
0
41
1
10
50.2802205394268
20
0.961495284916964
30
0
41
1
10
50.2621572478685
20
0.99326919267412
30
0
41
1
10
50.2260665141226
20
1.05728707247675
30
0
41
1
10
50.2080563112756
20
1.08957022051408
30
0
41
1
10
50.1541448073048
20
1.18730543103385
30
0
41
1
10
50.1184123111705
20
1.25357394176805
30
0
41
1
10
50.0828697836924
20
1.32093990009855
30
0
0
SPLINE
5
189
100
AcDbEntity
8
1
62
256
6
ByLayer
370
18
48
1
60
0
100
AcDbSpline
70
4
71
3
72
28
73
24
40
0
40
0
40
0
40
0
40
0.12500000000003
40
0.12500000000003
40
0.250000000000059
40
0.250000000000059
40
0.312500000000033
40
0.312500000000033
40
0.375000000000008
40
0.375000000000008
40
0.499999999999958
40
0.499999999999958
40
0.562499999999933
40
0.562499999999933
40
0.624999999999908
40
0.624999999999908
40
0.749999999999939
40
0.749999999999939
40
0.812499999999954
40
0.812499999999954
40
0.87499999999997
40
0.87499999999997
40
1
40
1
40
1
40
1
41
1
10
50.5389227068936
20
0.715420388843768
30
0
41
1
10
50.5313670023904
20
0.716548727412402
30
0
41
1
10
50.52234018392
20
0.719971790341248
30
0
41
1
10
50.502236736593
20
0.729983642438981
30
0
41
1
10
50.4916053562637
20
0.736366966157306
30
0
41
1
10
50.4751368155237
20
0.747364162047631
30
0
41
1
10
50.4695218224577
20
0.751299916229499
30
0
41
1
10
50.4582790654426
20
0.759513959535582
30
0
41
1
10
50.4526609016908
20
0.763783014681081
30
0
41
1
10
50.4358205286281
20
0.77702878044326
30
0
41
1
10
50.4246118961094
20
0.786438166424631
30
0
41
1
10
50.4078530172509
20
0.801378278446947
30
0
41
1
10
50.4022592769571
20
0.806514337122422
30
0
41
1
10
50.3912706101758
20
0.816908213658479
30
0
41
1
10
50.3858569157834
20
0.822181891949725
30
0
41
1
10
50.3698634727849
20
0.838238761973741
30
0
41
1
10
50.3595274873847
20
0.849254096591096
30
0
41
1
10
50.3445979401793
20
0.866324778510204
30
0
41
1
10
50.3397165088057
20
0.872112036736638
30
0
41
1
10
50.3303668514918
20
0.883650394825054
30
0
41
1
10
50.3258729624013
20
0.889429895585067
30
0
41
1
10
50.3129801688836
20
0.906804816057075
30
0
41
1
10
50.3051481217132
20
0.918437234665504
30
0
41
1
10
50.2983799302159
20
0.930128104893214
30
0
0
SPLINE
5
18A
100
AcDbEntity
8
1
62
256
6
ByLayer
370
18
48
1
60
0
100
AcDbSpline
70
4
71
3
72
28
73
24
40
0
40
0
40
0
40
0
40
0.124999999999888
40
0.124999999999888
40
0.249999999999777
40
0.249999999999777
40
0.312499999999721
40
0.312499999999721
40
0.374999999999665
40
0.374999999999665
40
0.49999999999964
40
0.49999999999964
40
0.562499999999627
40
0.562499999999627
40
0.624999999999614
40
0.624999999999614
40
0.74999999999967
40
0.74999999999967
40
0.812499999999736
40
0.812499999999736
40
0.874999999999801
40
0.874999999999801
40
1
40
1
40
1
40
1
41
1
10
51.4933123002534
20
-0.161262243091329
30
0
41
1
10
51.4857956000056
20
-0.155910025698347
30
0
41
1
10
51.4768143606234
20
-0.14895935993107
30
0
41
1
10
51.4567943650834
20
-0.132853619200176
30
0
41
1
10
51.4461872505097
20
-0.124040624861465
30
0
41
1
10
51.4297482306985
20
-0.110093618620198
30
0
41
1
10
51.4241411790271
20
-0.105287925031433
30
0
41
1
10
51.412902920649
20
-0.0955649265016518
30
0
41
1
10
51.4072849958129
20
-0.0906596718821504
30
0
41
1
10
51.3904397000237
20
-0.0758209467060169
30
0
41
1
10
51.3792202746428
20
-0.0657665468792743
30
0
41
1
10
51.3624351208356
20
-0.0504289569694834
30
0
41
1
10
51.3568310980784
20
-0.0452575117710126
30
0
41
1
10
51.3458224940832
20
-0.0349870033791433
30
0
41
1
10
51.3403984523375
20
-0.0298704623421315
30
0
41
1
10
51.3243733901945
20
-0.0145662839750287
30
0
41
1
10
51.3140155363325
20
-0.0044234277861506
30
0
41
1
10
51.299054467199
20
0.0107311940477075
30
0
41
1
10
51.2941679644111
20
0.0157702814288143
30
0
41
1
10
51.2848124441628
20
0.0256199587649348
30
0
41
1
10
51.2803172637992
20
0.030456709439818
30
0
41
1
10
51.2674251882441
20
0.0446864414946617
30
0
41
1
10
51.2595999594292
20
0.0538125585743501
30
0
41
1
10
51.2528427468733
20
0.0624231658707686
30
0
0
SPLINE
5
18B
100
AcDbEntity
8
1
62
256
6
ByLayer
370
18
48
1
60
0
100
AcDbSpline
70
4
71
3
72
14
73
10
40
0
40
0
40
0
40
0
40
0.5
40
0.5
40
0.749999999999984
40
0.749999999999984
40
0.874999999999992
40
0.874999999999992
40
1
40
1
40
1
40
1
41
1
10
51.8010387868392
20
-0.436211601548365
30
0
41
1
10
51.7506700392572
20
-0.382386593760401
30
0
41
1
10
51.6998357980526
20
-0.332207059533232
30
0
41
1
10
51.622895776558
20
-0.263030213175711
30
0
41
1
10
51.5971601700552
20
-0.241011359034815
30
0
41
1
10
51.5583699689494
20
-0.209745236536236
30
0
41
1
10
51.5454082067232
20
-0.19962062107075
30
0
41
1
10
51.5194087739181
20
-0.180020489001663
30
0
41
1
10
51.5063688660459
20
-0.170559085618549
30
0
41
1
10
51.4933123002533
20
-0.161262243091272
30
0
0
SPLINE
5
18C
100
AcDbEntity
8
1
62
256
6
ByLayer
370
18
48
1
60
0
100
AcDbSpline
70
4
71
3
72
8
73
4
40
0
40
0
40
0
40
0
40
1
40
1
40
1
40
1
41
1
10
51.8010387868392
20
-0.436211601548337
30
0
41
1
10
51.831140309879
20
-0.469337675133005
30
0
41
1
10
51.8612520765993
20
-0.502388893795199
30
0
41
1
10
51.8913880709808
20
-0.535352674675323
30
0
0
SPLINE
5
18D
100
AcDbEntity
8
1
62
256
6
ByLayer
370
18
48
1
60
0
100
AcDbSpline
70
4
71
3
72
16
73
12
40
0
40
0
40
0
40
0
40
0.125
40
0.125
40
0.249999999999999
40
0.249999999999999
40
0.499999999999999
40
0.499999999999999
40
0.75
40
0.75
40
1
40
1
40
1
40
1
41
1
10
52.207341591851
20
-0.812448113355032
30
0
41
1
10
52.1939519373353
20
-0.803280522632519
30
0
41
1
10
52.180616480233
20
-0.793714016321076
30
0
41
1
10
52.153969388348
20
-0.774083672019117
30
0
41
1
10
52.14066254182
20
-0.764003002993832
30
0
41
1
10
52.1008028204255
20
-0.732904491891475
30
0
41
1
10
52.074335227785
20
-0.711034819348328
30
0
41
1
10
52.0216467303235
20
-0.664890848258096
30
0
41
1
10
51.9954070892789
20
-0.640606485126767
30
0
41
1
10
51.9432028484705
20
-0.5897014388608
30
0
41
1
10
51.9172385853618
20
-0.563091582750388
30
0
41
1
10
51.8913880709808
20
-0.535352674675323
30
0
0
SPLINE
5
18E
100
AcDbEntity
8
1
62
256
6
ByLayer
370
18
48
1
60
0
100
AcDbSpline
70
4
71
3
72
28
73
24
40
0
40
0
40
0
40
0
40
0.124999999999972
40
0.124999999999972
40
0.249999999999944
40
0.249999999999944
40
0.312499999999972
40
0.312499999999972
40
0.375
40
0.375
40
0.500000000000056
40
0.500000000000056
40
0.562500000000041
40
0.562500000000041
40
0.625000000000027
40
0.625000000000027
40
0.749999999999997
40
0.749999999999997
40
0.812499999999981
40
0.812499999999981
40
0.874999999999965
40
0.874999999999965
40
1
40
1
40
1
40
1
41
1
10
52.4476958131114
20
-1.02100920100148
30
0
41
1
10
52.4401864879961
20
-1.012011611568
30
0
41
1
10
52.4312157098447
20
-1.00227360213498
30
0
41
1
10
52.4112177877427
20
-0.981791875815816
30
0
41
1
10
52.4006175741101
20
-0.971492696294632
30
0
41
1
10
52.3841892898509
20
-0.956094981254751
30
0
41
1
10
52.3785857559994
20
-0.950936909356699
30
0
41
1
10
52.3673504412822
20
-0.940756265074185
30
0
41
1
10
52.3617336566891
20
-0.935746173499183
30
0
41
1
10
52.3448913587918
20
-0.920924433655131
30
0
41
1
10
52.3336733787175
20
-0.911319154478946
30
0
41
1
10
52.3168918371221
20
-0.897257850545515
30
0
41
1
10
52.3112886728972
20
-0.892615518701405
30
0
41
1
10
52.3002815418645
20
-0.883587128051488
30
0
41
1
10
52.2948586266907
20
-0.879184900651609
30
0
41
1
10
52.2788382393265
20
-0.866299414418592
30
0
41
1
10
52.2684852914596
20
-0.858132286383693
30
0
41
1
10
52.2535337025456
20
-0.846542138966043
30
0
41
1
10
52.2486495149567
20
-0.842792430838159
30
0
41
1
10
52.239298464619
20
-0.835684233145116
30
0
41
1
10
52.2348054738151
20
-0.832305320361371
30
0
41
1
10
52.2219193833005
20
-0.822731357572366
30
0
41
1
10
52.2140972794148
20
-0.817073578377915
30
0
41
1
10
52.207341591851
20
-0.812448113354833
30
0
0
SPLINE
5
18F
100
AcDbEntity
8
1
62
256
6
ByLayer
370
18
48
1
60
0
100
AcDbSpline
70
4
71
3
72
14
73
10
40
0
40
0
40
0
40
0
40
0.500000000000017
40
0.500000000000017
40
0.750000000000024
40
0.750000000000024
40
0.875000000000012
40
0.875000000000012
40
1
40
1
40
1
40
1
41
1
10
52.7551748920089
20
-1.43853136941678
30
0
41
1
10
52.7049030274991
20
-1.36264825818913
30
0
41
1
10
52.6541367454111
20
-1.28951638052382
30
0
41
1
10
52.5772548594965
20
-1.18467910937656
30
0
41
1
10
52.5515325052196
20
-1.15058156966003
30
0
41
1
10
52.5127527508604
20
-1.1008797541846
30
0
41
1
10
52.4997929231545
20
-1.08455613786288
30
0
41
1
10
52.4737947276993
20
-1.05243916437084
30
0
41
1
10
52.4607543997019
20
-1.03665585351928
30
0
41
1
10
52.4476958131114
20
-1.02100920100145
30
0
0
SPLINE
5
190
100
AcDbEntity
8
1
62
256
6
ByLayer
370
18
48
1
60
0
100
AcDbSpline
70
4
71
3
72
8
73
4
40
0
40
0
40
0
40
0
40
1
40
1
40
1
40
1
41
1
10
52.7551748920108
20
-1.43853136942317
30
0
41
1
10
52.7852739914031
20
-1.46849511422343
30
0
41
1
10
52.8153309462359
20
-1.49820346013416
30
0
41
1
10
52.8453643808973
20
-1.52764252810428
30
0
0
SPLINE
5
191
100
AcDbEntity
8
1
62
256
6
ByLayer
370
18
48
1
60
0
100
AcDbSpline
70
4
71
3
72
16
73
12
40
0
40
0
40
0
40
0
40
0.125000000000001
40
0.125000000000001
40
0.250000000000001
40
0.250000000000001
40
0.500000000000001
40
0.500000000000001
40
0.75
40
0.75
40
1
40
1
40
1
40
1
41
1
10
53.1617701979172
20
-1.60077390695841
30
0
41
1
10
53.1483616427934
20
-1.60025797927509
30
0
41
1
10
53.1350072525881
20
-1.59932521801255
30
0
41
1
10
53.1083241472129
20
-1.59692972498277
30
0
41
1
10
53.095000155052
20
-1.59544976453424
30
0
41
1
10
53.0550889402693
20
-1.59011056990158
30
0
41
1
10
53.0285869582452
20
-1.58534148452728
30
0
41
1
10
52.9758264140676
20
-1.5732307521946
30
0
41
1
10
52.9495495083341
20
-1.56589035272384
30
0
41
1
10
52.8972662576514
20
-1.54865496792107
30
0
41
1
10
52.8712601204683
20
-1.53876869672783
30
0
41
1
10
52.8453643808973
20
-1.52764252810428
30
0
0
SPLINE
5
192
100
AcDbEntity
8
1
62
256
6
ByLayer
370
18
48
1
60
0
100
AcDbSpline
70
4
71
3
72
28
73
24
40
0
40
0
40
0
40
0
40
0.125000000000029
40
0.125000000000029
40
0.250000000000058
40
0.250000000000058
40
0.312500000000073
40
0.312500000000073
40
0.375000000000088
40
0.375000000000088
40
0.500000000000118
40
0.500000000000118
40
0.562500000000135
40
0.562500000000135
40
0.625000000000151
40
0.625000000000151
40
0.7500000000001
40
0.7500000000001
40
0.812500000000075
40
0.812500000000075
40
0.87500000000005
40
0.87500000000005
40
1
40
1
40
1
40
1
41
1
10
53.4022252804151
20
-1.77541743880386
30
0
41
1
10
53.3947020777882
20
-1.76365540881275
30
0
41
1
10
53.3857148680801
20
-1.75207570883441
30
0
41
1
10
53.3656892680092
20
-1.72918341054924
30
0
41
1
10
53.3550775307502
20
-1.71837757313108
30
0
41
1
10
53.3386404900655
20
-1.70297206427114
30
0
41
1
10
53.3330357081021
20
-1.69794159387638
30
0
41
1
10
53.3217986230982
20
-1.68824509375071
30
0
41
1
10
53.3161821705805
20
-1.68359023747277
30
0
41
1
10
53.299344109799
20
-1.67013737987733
30
0
41
1
10
53.2881332944336
20
-1.66184495353244
30
0
41
1
10
53.2713668915187
20
-1.65030968555928
30
0
41
1
10
53.2657681084803
20
-1.64660608593357
30
0
41
1
10
53.2547664627008
20
-1.63961073752074
30
0
41
1
10
53.2493463575428
20
-1.63630619355746
30
0
41
1
10
53.2333339696834
20
-1.62695596622447
30
0
41
1
10
53.2229857567548
20
-1.62146480612103
30
0
41
1
10
53.2080383254554
20
-1.61442460096839
30
0
41
1
10
53.2031488572998
20
-1.6122799992981
30
0
41
1
10
53.1937856089636
20
-1.60851035071499
30
0
41
1
10
53.1892859681342
20
-1.6068723074558
30
0
41
1
10
53.1763787277592
20
-1.60275398257963
30
0
41
1
10
53.168540687458
20
-1.60103441847139
30
0
41
1
10
53.1617701979172
20
-1.60077390695829
30
0
0
SPLINE
5
193
100
AcDbEntity
8
1
62
256
6
ByLayer
370
18
48
1
60
0
100
AcDbSpline
70
4
71
3
72
14
73
10
40
0
40
0
40
0
40
0
40
0.500000000000015
40
0.500000000000015
40
0.750000000000023
40
0.750000000000023
40
0.875000000000012
40
0.875000000000012
40
1
40
1
40
1
40
1
41
1
10
53.7092838692628
20
-2.28990351542495
30
0
41
1
10
53.6590160995878
20
-2.20047356473395
30
0
41
1
10
53.6082784796257
20
-2.11256378624378
30
0
41
1
10
53.5315030156501
20
-1.98357297096968
30
0
41
1
10
53.50582346665
20
-1.94109692446031
30
0
41
1
10
53.4671228887499
20
-1.87827358554421
30
0
41
1
10
53.4541919331937
20
-1.85748292859239
30
0
41
1
10
53.4282568423666
20
-1.81623134905749
30
0
41
1
10
53.4152498536533
20
-1.79578049808316
30
0
41
1
10
53.4022252804151
20
-1.77541743880383
30
0
0
SPLINE
5
194
100
AcDbEntity
8
1
62
256
6
ByLayer
370
18
48
1
60
0
100
AcDbSpline
70
4
71
3
72
8
73
4
40
0
40
0
40
0
40
0
40
1
40
1
40
1
40
1
41
1
10
53.7092838692628
20
-2.28990351542484
30
0
41
1
10
53.7392683725273
20
-2.31305788311732
30
0
41
1
10
53.7693386799722
20
-2.33592466089587
30
0
41
1
10
53.7993293810994
20
-2.35838148597767
30
0
0
SPLINE
5
195
100
AcDbEntity
8
1
62
256
6
ByLayer
370
18
48
1
60
0
100
AcDbSpline
70
4
71
3
72
16
73
12
40
0
40
0
40
0
40
0
40
0.125
40
0.125
40
0.25
40
0.25
40
0.5
40
0.5
40
0.75
40
0.75
40
1
40
1
40
1
40
1
41
1
10
54.116125086314
20
-2.21719715168786
30
0
41
1
10
54.1027193554129
20
-2.22539372186321
30
0
41
1
10
54.0893673941991
20
-2.23320250216489
30
0
41
1
10
54.0626871989319
20
-2.24833048786559
30
0
41
1
10
54.0493620718017
20
-2.25563978004013
30
0
41
1
10
54.0094382442108
20
-2.27676588358608
30
0
41
1
10
53.982911564821
20
-2.28976496034264
30
0
41
1
10
53.9300768431528
20
-2.31342134484396
30
0
41
1
10
53.9037526347749
20
-2.32408843516322
30
0
41
1
10
53.8513596330609
20
-2.34302001283797
30
0
41
1
10
53.8252902812135
20
-2.35129248835634
30
0
41
1
10
53.7993293810994
20
-2.35838148597764
30
0
0
SPLINE
5
196
100
AcDbEntity
8
1
62
256
6
ByLayer
370
18
48
1
60
0
100
AcDbSpline
70
4
71
3
72
28
73
24
40
0
40
0
40
0
40
0
40
0.124999999999999
40
0.124999999999999
40
0.249999999999997
40
0.249999999999997
40
0.312499999999997
40
0.312499999999997
40
0.374999999999996
40
0.374999999999996
40
0.499999999999997
40
0.499999999999997
40
0.562499999999998
40
0.562499999999998
40
0.624999999999999
40
0.624999999999999
40
0.75
40
0.75
40
0.812499999999999
40
0.812499999999999
40
0.874999999999999
40
0.874999999999999
40
1
40
1
40
1
40
1
41
1
10
54.3566916995094
20
-2.33922836894843
30
0
41
1
10
54.3491509555062
20
-2.32595138108482
30
0
41
1
10
54.3401512015701
20
-2.31376849837776
30
0
41
1
10
54.3201260629708
20
-2.29092142246594
30
0
41
1
10
54.3095200397737
20
-2.28076591683856
30
0
41
1
10
54.2931071229033
20
-2.26700530783364
30
0
41
1
10
54.2875142331216
20
-2.26264304999771
30
0
41
1
10
54.2762912166051
20
-2.25446534138337
30
0
41
1
10
54.2706826264556
20
-2.25066218569103
30
0
41
1
10
54.2538698745714
20
-2.24001214375238
30
0
41
1
10
54.2426782099935
20
-2.23391526159625
30
0
41
1
10
54.2259412569277
20
-2.22613083015909
30
0
41
1
10
54.2203489266253
20
-2.22375809639752
30
0
41
1
10
54.2093459305679
20
-2.21953441480642
30
0
41
1
10
54.2039248819787
20
-2.21767672727236
30
0
41
1
10
54.1879085238275
20
-2.21285020593854
30
0
41
1
10
54.1775560939739
20
-2.2106162512878
30
0
41
1
10
54.1625996502324
20
-2.20887014290861
30
0
41
1
10
54.1576932712764
20
-2.20856053143217
30
0
41
1
10
54.1482871148723
20
-2.20853827480118
30
0
41
1
10
54.143766516785
20
-2.20882100631442
30
0
41
1
10
54.1307990232534
20
-2.21061798811462
30
0
41
1
10
54.1229239975303
20
-2.2130401420244
30
0
41
1
10
54.116125086314
20
-2.21719715168777
30
0
0
SPLINE
5
197
100
AcDbEntity
8
1
62
256
6
ByLayer
370
18
48
1
60
0
100
AcDbSpline
70
4
71
3
72
12
73
8
40
0
40
0
40
0
40
0
40
0.500000000000001
40
0.500000000000001
40
0.750000000000001
40
0.750000000000001
40
1
40
1
40
1
40
1
41
1
10
54.5960867499795
20
-2.7720916985584
30
0
41
1
10
54.5567168997698
20
-2.69925404679867
30
0
41
1
10
54.5170758401102
20
-2.62659359325471
30
0
41
1
10
54.4572552599491
20
-2.51827221357638
30
0
41
1
10
54.4372553611503
20
-2.48227685770524
30
0
41
1
10
54.3970958993074
20
-2.41055280046956
30
0
41
1
10
54.3769207085448
20
-2.37484558488126
30
0
41
1
10
54.3566916995094
20
-2.33922836894843
30
0
0
SPLINE
5
198
100
AcDbEntity
8
1
62
256
6
ByLayer
370
18
48
1
60
0
100
AcDbSpline
70
4
71
3
72
12
73
8
40
0
40
0
40
0
40
0
40
0.5
40
0.5
40
0.75
40
0.75
40
1
40
1
40
1
40
1
41
1
10
54.5960867499795
20
-2.77209169855843
30
0
41
1
10
54.6493058224196
20
-2.77466380805845
30
0
41
1
10
54.7030520844646
20
-2.77553320433367
30
0
41
1
10
54.7845046115623
20
-2.77446981595824
30
0
41
1
10
54.8117951919847
20
-2.7737194129804
30
0
41
1
10
54.8666662137299
20
-2.77146327237816
30
0
41
1
10
54.894258158869
20
-2.76995653917356
30
0
41
1
10
54.9219436957206
20
-2.76809594533182
30
0
0
SPLINE
5
199
100
AcDbEntity
8
1
62
256
6
ByLayer
370
18
48
1
60
0
100
AcDbSpline
70
4
71
3
72
12
73
8
40
0
40
0
40
0
40
0
40
0.25
40
0.25
40
0.500000000000001
40
0.500000000000001
40
1
40
1
40
1
40
1
41
1
10
55.0706864935175
20
-2.59626034294573
30
0
41
1
10
55.0581905028914
20
-2.6114445972814
30
0
41
1
10
55.0457457228453
20
-2.62634315005428
30
0
41
1
10
55.0208868318645
20
-2.65576226064627
30
0
41
1
10
55.0084715909842
20
-2.67028713546671
30
0
41
1
10
54.9712750536032
20
-2.71327521698728
30
0
41
1
10
54.9465558324329
20
-2.74113329776776
30
0
41
1
10
54.9219436957206
20
-2.76809594533165
30
0
0
SPLINE
5
19A
100
AcDbEntity
8
1
62
256
6
ByLayer
370
18
48
1
60
0
100
AcDbSpline
70
4
71
3
72
28
73
24
40
0
40
0
40
0
40
0
40
0.124999999999988
40
0.124999999999988
40
0.249999999999976
40
0.249999999999976
40
0.312499999999929
40
0.312499999999929
40
0.374999999999882
40
0.374999999999882
40
0.499999999999873
40
0.499999999999873
40
0.562499999999912
40
0.562499999999912
40
0.62499999999995
40
0.62499999999995
40
0.749999999999945
40
0.749999999999945
40
0.812499999999943
40
0.812499999999943
40
0.87499999999994
40
0.87499999999994
40
1
40
1
40
1
40
1
41
1
10
55.3111109460037
20
-2.64918743612878
30
0
41
1
10
55.3036012366542
20
-2.63594834606403
30
0
41
1
10
55.2946408094194
20
-2.62457785897192
30
0
41
1
10
55.274688000837
20
-2.60443397505523
30
0
41
1
10
55.264103473735
20
-2.59611129104809
30
0
41
1
10
55.2477135033197
20
-2.58562123974599
30
0
41
1
10
55.2421264354659
20
-2.58244527060197
30
0
41
1
10
55.2309042946602
20
-2.57677576789249
30
0
41
1
10
55.2252941104222
20
-2.57429077583981
30
0
41
1
10
55.2084711617307
20
-2.56777000874666
30
0
41
1
10
55.1972654629034
20
-2.56465680905754
30
0
41
1
10
55.1804996890025
20
-2.5616796523021
30
0
41
1
10
55.1748967336734
20
-2.56097242065573
30
0
41
1
10
55.1638767862469
20
-2.5601462288642
30
0
41
1
10
55.1584474216823
20
-2.56002276604062
30
0
41
1
10
55.1424074471065
20
-2.56050599075329
30
0
41
1
10
55.1320410725122
20
-2.56195306074912
30
0
41
1
10
55.1170693375298
20
-2.56596796590165
30
0
41
1
10
55.1121637694339
20
-2.56762553963034
30
0
41
1
10
55.1027692039678
20
-2.57154204418435
30
0
41
1
10
55.0982559792051
20
-2.57380514517877
30
0
41
1
10
55.0853144218532
20
-2.58157689254693
30
0
41
1
10
55.0774621245558
20
-2.58802706972631
30
0
41
1
10
55.0706864935174
20
-2.59626034294567
30
0
0
SPLINE
5
19B
100
AcDbEntity
8
1
62
256
6
ByLayer
370
18
48
1
60
0
100
AcDbSpline
70
4
71
3
72
8
73
4
40
0
40
0
40
0
40
0
40
1
40
1
40
1
40
1
41
1
10
55.3490395099488
20
-2.71607788264197
30
0
41
1
10
55.3364284591009
20
-2.69382382017415
30
0
41
1
10
55.3237781630669
20
-2.6715188500049
30
0
41
1
10
55.3111109460037
20
-2.64918743612878
30
0
0
SPLINE
5
19C
100
AcDbEntity
8
1
62
256
6
ByLayer
370
18
48
1
60
0
100
AcDbSpline
70
4
71
3
72
22
73
18
40
0
40
0
40
0
40
0
40
0.125
40
0.125
40
0.25
40
0.25
40
0.375
40
0.375
40
0.5
40
0.5
40
0.625
40
0.625
40
0.75
40
0.75
40
0.875
40
0.875
40
1
40
1
40
1
40
1
41
1
10
55.3490395099489
20
-2.71607788264197
30
0
41
1
10
55.4176027674636
20
-2.70463651696622
30
0
41
1
10
55.4868208089305
20
-2.69186869596109
30
0
41
1
10
55.6271395025142
20
-2.66407027292669
30
0
41
1
10
55.6982908741778
20
-2.64901774643678
30
0
41
1
10
55.8427914682306
20
-2.61750047248293
30
0
41
1
10
55.916124130075
20
-2.60105761757743
30
0
41
1
10
56.0646026890674
20
-2.56789405349807
30
0
41
1
10
56.1397470205622
20
-2.55118488174995
30
0
41
1
10
56.2910873652161
20
-2.51837708464012
30
0
41
1
10
56.3672725147898
20
-2.50228344911972
30
0
41
1
10
56.5198036827095
20
-2.47106415052278
30
0
41
1
10
56.5961127148151
20
-2.45591607277637
30
0
41
1
10
56.7487212616732
20
-2.4265543158312
30
0
41
1
10
56.8250877864566
20
-2.41235934047879
30
0
41
1
10
56.9777604309267
20
-2.38490122079631
30
0
41
1
10
57.0540277990976
20
-2.37162995710719
30
0
41
1
10
57.1300000000002
20
-2.35860440652854
30
0
0
SPLINE
5
19D
100
AcDbEntity
8
1
62
256
6
ByLayer
370
18
48
1
60
0
100
AcDbSpline
70
4
71
3
72
8
73
4
40
0
40
0
40
0
40
0
40
1
40
1
40
1
40
1
41
1
10
57.1300000000002
20
-2.35860440652854
30
0
41
1
10
57.1518083599616
20
-2.34256661839331
30
0
41
1
10
57.1737463143179
20
-2.32654673215387
30
0
41
1
10
57.1958142616942
20
-2.31056135347015
30
0
0
SPLINE
5
19E
100
AcDbEntity
8
1
62
256
6
ByLayer
370
18
48
1
60
0
100
AcDbSpline
70
4
71
3
72
8
73
4
40
0
40
0
40
0
40
0
40
1
40
1
40
1
40
1
41
1
10
57.33
20
-2.13325439517345
30
0
41
1
10
57.2838517125128
20
-2.19298943187857
30
0
41
1
10
57.2393131946149
20
-2.25212601618179
30
0
41
1
10
57.1958142616942
20
-2.31056135347015
30
0
0
SPLINE
5
19F
100
AcDbEntity
8
1
62
256
6
ByLayer
370
18
48
1
60
0
100
AcDbSpline
70
4
71
3
72
28
73
24
40
0
40
0
40
0
40
0
40
0.0932660989988711
40
0.0932660989988711
40
0.139899148498306
40
0.139899148498306
40
0.186532197997742
40
0.186532197997742
40
0.373064395995482
40
0.373064395995482
40
0.466330494994353
40
0.466330494994353
40
0.512963544493788
40
0.512963544493788
40
0.559596593993223
40
0.559596593993223
40
0.652862692992094
40
0.652862692992094
40
0.746128791990964
40
0.746128791990964
40
0.932660989988706
40
0.932660989988706
40
1
40
1
40
1
40
1
41
1
10
57.33
20
-2.13325439517695
30
0
41
1
10
57.33
20
-2.09984738463427
30
0
41
1
10
57.33
20
-2.06712611266147
30
0
41
1
10
57.33
20
-2.01906462971212
30
0
41
1
10
57.33
20
-2.00321480459283
30
0
41
1
10
57.33
20
-1.97186246668468
30
0
41
1
10
57.33
20
-1.95638628147384
30
0
41
1
10
57.33
20
-1.8806770552489
30
0
41
1
10
57.33
20
-1.82478369842366
30
0
41
1
10
57.33
20
-1.74769650981005
30
0
41
1
10
57.33
20
-1.72311805972808
30
0
41
1
10
57.33
20
-1.68806461010965
30
0
41
1
10
57.33
20
-1.67668528243666
30
0
41
1
10
57.33
20
-1.6545847232986
30
0
41
1
10
57.33
20
-1.64390015089896
30
0
41
1
10
57.33
20
-1.61292180493078
30
0
41
1
10
57.33
20
-1.59354633798105
30
0
41
1
10
57.33
20
-1.5558361690384
30
0
41
1
10
57.33
20
-1.53761442697805
30
0
41
1
10
57.33
20
-1.48460751356413
30
0
41
1
10
57.33
20
-1.45141616742043
30
0
41
1
10
57.33
20
-1.40873540667627
30
0
41
1
10
57.33
20
-1.39766366166703
30
0
41
1
10
57.33
20
-1.38684439517621
30
0
0
SPLINE
5
1A0
100
AcDbEntity
8
1
62
256
6
ByLayer
370
18
48
1
60
0
100
AcDbSpline
70
4
71
3
72
11
73
7
40
0
40
0
40
0
40
0
40
0.249999999999979
40
0.249999999999979
40
0.499999999999958
40
1
40
1
40
1
40
1
41
1
10
57.130170512135
20
-1.31671995543957
30
0
41
1
10
57.1469929370344
20
-1.31792841991867
30
0
41
1
10
57.1638097374805
20
-1.31903481236409
30
0
41
1
10
57.1973353617472
20
-1.32131293754759
30
0
41
1
10
57.2474653094507
20
-1.32481504914827
30
0
41
1
10
57.2971178635914
20
-1.3284864277002
30
0
41
1
10
57.33
20
-1.33094560539402
30
0
0
SPLINE
5
1A1
100
AcDbEntity
8
1
62
256
6
ByLayer
370
18
48
1
60
0
100
AcDbSpline
70
4
71
3
72
8
73
4
40
0
40
0
40
0
40
0
40
1
40
1
40
1
40
1
41
1
10
57.1301705121349
20
-1.31671995543982
30
0
41
1
10
57.1301136744123
20
-1.31669220962163
30
0
41
1
10
57.130056837034
20
-1.31666446373319
30
0
41
1
10
57.1300000000002
20
-1.31663671777406
30
0
0
SPLINE
5
1A2
100
AcDbEntity
8
1
62
256
6
ByLayer
370
18
48
1
60
0
100
AcDbSpline
70
4
71
3
72
14
73
10
40
0
40
0
40
0
40
0
40
0.25
40
0.25
40
0.5
40
0.5
40
0.75
40
0.75
40
1
40
1
40
1
40
1
41
1
10
57.1300000000002
20
-1.31663671777406
30
0
41
1
10
57.0394110700031
20
-1.23413617888821
30
0
41
1
10
56.9475580308868
20
-1.15274320674447
30
0
41
1
10
56.7618519913655
20
-0.99220988039076
30
0
41
1
10
56.6679571986389
20
-0.913121201736857
30
0
41
1
10
56.4793666121964
20
-0.756320915418598
30
0
41
1
10
56.3847735852655
20
-0.678492439856711
30
0
41
1
10
56.1957745103401
20
-0.523154358166693
30
0
41
1
10
56.1012818250929
20
-0.445743933752539
30
0
41
1
10
56.0071635070042
20
-0.368105351415693
30
0
0
SPLINE
5
1A3
100
AcDbEntity
8
1
62
256
6
ByLayer
370
18
48
1
60
0
100
AcDbSpline
70
4
71
3
72
24
73
20
40
0
40
0
40
0
40
0
40
0.124999999999985
40
0.124999999999985
40
0.187500000000023
40
0.187500000000023
40
0.250000000000061
40
0.312500000000099
40
0.312500000000099
40
0.375000000000137
40
0.375000000000137
40
0.500000000000109
40
0.500000000000109
40
0.625000000000082
40
0.625000000000082
40
0.750000000000055
40
0.875000000000027
40
0.875000000000027
40
1
40
1
40
1
40
1
41
1
10
55.8020669465674
20
-0.193278599695361
30
0
41
1
10
55.8082833265715
20
-0.195589121464707
30
0
41
1
10
55.8155542104682
20
-0.199313257213163
30
0
41
1
10
55.8276292282254
20
-0.206487514633466
30
0
41
1
10
55.8318601340513
20
-0.20915647151233
30
0
41
1
10
55.8404283391996
20
-0.214817480227367
30
0
41
1
10
55.8491665678732
20
-0.220838142721448
30
0
41
1
10
55.8581967976227
20
-0.227484608468444
30
0
41
1
10
55.8673577355415
20
-0.234416112653435
30
0
41
1
10
55.8720061820793
20
-0.238027564912898
30
0
41
1
10
55.8858692278238
20
-0.249051631208431
30
0
41
1
10
55.8950935695273
20
-0.256719197076137
30
0
41
1
10
55.9134947736476
20
-0.27260856955948
30
0
41
1
10
55.9227166353793
20
-0.280873673682066
30
0
41
1
10
55.94088208544
20
-0.297764315364901
30
0
41
1
10
55.9586235083565
20
-0.314873913521808
30
0
41
1
10
55.9755100681296
20
-0.33245156213593
30
0
41
1
10
55.99192136678
20
-0.350301155353975
30
0
41
1
10
55.9997650023043
20
-0.359228793633236
30
0
41
1
10
56.0071635070042
20
-0.368105351415721
30
0
0
SPLINE
5
1A4
100
AcDbEntity
8
1
62
256
6
ByLayer
370
18
48
1
60
0
100
AcDbSpline
70
4
71
3
72
8
73
4
40
0
40
0
40
0
40
0
40
1
40
1
40
1
40
1
41
1
10
55.7928805690892
20
-0.189801571107921
30
0
41
1
10
55.7959405131077
20
-0.190981921098484
30
0
41
1
10
55.7990027661803
20
-0.19213969642928
30
0
41
1
10
55.8020669465674
20
-0.193278599695333
30
0
0
SPLINE
5
1A5
100
AcDbEntity
8
1
62
256
6
ByLayer
370
18
48
1
60
0
100
AcDbSpline
70
4
71
3
72
10
73
6
40
0
40
0
40
0
40
0
40
0.5
40
0.5
40
1
40
1
40
1
40
1
41
1
10
55.7928805690892
20
-0.189801571107893
30
0
41
1
10
55.6962497040732
20
-0.10842539955857
30
0
41
1
10
55.6005209300188
20
-0.0261007892756879
30
0
41
1
10
55.4113998205063
20
0.141609142509424
30
0
41
1
10
55.3179954433902
20
0.227018469343648
30
0
41
1
10
55.2258844822322
20
0.314361911720852
30
0
0
SPLINE
5
1A6
100
AcDbEntity
8
1
62
256
6
ByLayer
370
18
48
1
60
0
100
AcDbSpline
70
4
71
3
72
10
73
6
40
0
40
0
40
0
40
0
40
0.5
40
0.5
40
1
40
1
40
1
40
1
41
1
10
55.0879535239123
20
0.468421280851374
30
0
41
1
10
55.1110475528197
20
0.444242084959086
30
0
41
1
10
55.1341205306035
20
0.419431700395734
30
0
41
1
10
55.180123781333
20
0.368186200386475
30
0
41
1
10
55.203042331644
20
0.341709548170172
30
0
41
1
10
55.2258844822323
20
0.314361911720795
30
0
0
SPLINE
5
1A7
100
AcDbEntity
8
1
62
256
6
ByLayer
370
18
48
1
60
0
100
AcDbSpline
70
4
71
3
72
28
73
24
40
0
40
0
40
0
40
0
40
0.0625000000000324
40
0.0625000000000324
40
0.125000000000065
40
0.125000000000065
40
0.25000000000013
40
0.25000000000013
40
0.312500000000163
40
0.312500000000163
40
0.375000000000196
40
0.375000000000196
40
0.500000000000175
40
0.500000000000175
40
0.625000000000154
40
0.625000000000154
40
0.687500000000105
40
0.687500000000105
40
0.750000000000055
40
0.750000000000055
40
0.875000000000028
40
0.875000000000028
40
1
40
1
40
1
40
1
41
1
10
54.8474711318245
20
0.68718827046672
30
0
41
1
10
54.8512849487898
20
0.683724608323132
30
0
41
1
10
54.8555011414666
20
0.679929481455929
30
0
41
1
10
54.8645835227174
20
0.671797500323407
30
0
41
1
10
54.8694700887163
20
0.667442732678239
30
0
41
1
10
54.8848744668927
20
0.653756610579052
30
0
41
1
10
54.895698786694
20
0.644191079388833
30
0
41
1
10
54.9125110242366
20
0.629356667919183
30
0
41
1
10
54.9182209408435
20
0.624322407806147
30
0
41
1
10
54.9295580596998
20
0.614326663644789
30
0
41
1
10
54.9352196622062
20
0.609334846840483
30
0
41
1
10
54.9521797259657
20
0.594368587769253
30
0
41
1
10
54.9634819196823
20
0.584378915280183
30
0
41
1
10
54.9858695925461
20
0.564479227164014
30
0
41
1
10
54.9967430209914
20
0.554757418083199
30
0
41
1
10
55.0125670840746
20
0.540457867819782
30
0
41
1
10
55.0177599780502
20
0.535739127413422
30
0
41
1
10
55.0279718847245
20
0.526394105865336
30
0
41
1
10
55.0330062959878
20
0.521753282101201
30
0
41
1
10
55.0476049049779
20
0.508176112745957
30
0
41
1
10
55.0567321227546
20
0.499523860172246
30
0
41
1
10
55.0735866699857
20
0.483123566008913
30
0
41
1
10
55.0813635784512
20
0.47532088173358
30
0
41
1
10
55.0879535239123
20
0.468421280851374
30
0
0
SPLINE
5
1A8
100
AcDbEntity
8
1
62
256
6
ByLayer
370
18
48
1
60
0
100
AcDbSpline
70
4
71
3
72
14
73
10
40
0
40
0
40
0
40
0
40
0.499999999999963
40
0.499999999999963
40
0.749999999999963
40
0.749999999999963
40
0.874999999999982
40
0.874999999999982
40
1
40
1
40
1
40
1
41
1
10
50.8095455123495
20
0.632332612571133
30
0
41
1
10
50.7651321551915
20
0.652788898176425
30
0
41
1
10
50.7203774489501
20
0.670145107648608
30
0
41
1
10
50.6527361103324
20
0.691200437920685
30
0
41
1
10
50.630097632455
20
0.697390323212204
30
0
41
1
10
50.5960157099242
20
0.705243613239276
30
0
41
1
10
50.5846323160676
20
0.707622032238021
30
0
41
1
10
50.5618118048486
20
0.711858545374639
30
0
41
1
10
50.5503737719535
20
0.71371033277245
30
0
41
1
10
50.5389227068936
20
0.715420388843768
30
0
0
SPLINE
5
1A9
100
AcDbEntity
8
1
62
256
6
ByLayer
370
13
48
1
60
0
100
AcDbSpline
70
4
71
3
72
9
73
5
40
0
40
0
40
0
40
0
40
0.434201539236219
40
1
40
1
40
1
40
1
41
1.04
10
50.5389227063979
20
0.715420397807083
30
0
41
1.04
10
50.5528284099985
20
0.463966064372666
30
0
41
1.04
10
50.5848152037475
20
-0.136558802499537
30
0
41
1.04
10
50.6160200501609
20
-0.716404667894875
30
0
41
1.04
10
50.6334044515401
20
-1.01847317492108
30
0
0
SPLINE
5
1AA
100
AcDbEntity
8
1
62
256
6
ByLayer
370
18
48
1
60
0
100
AcDbSpline
70
4
71
3
72
14
73
10
40
0
40
0
40
0
40
0
40
0.25
40
0.25
40
0.5
40
0.5
40
0.75
40
0.75
40
1
40
1
40
1
40
1
41
1
10
50.6334044515401
20
-1.01847317492107
30
0
41
1
10
50.6579267671207
20
-1.06398692263429
30
0
41
1
10
50.6824103905405
20
-1.10988075653657
30
0
41
1
10
50.7311775777929
20
-1.20272068941731
30
0
41
1
10
50.7554565483442
20
-1.24967806862199
30
0
41
1
10
50.8038654984805
20
-1.34462129965368
30
0
41
1
10
50.8279843926321
20
-1.39258304850841
30
0
41
1
10
50.8760344476809
20
-1.48928046317786
30
0
41
1
10
50.8999780745128
20
-1.53803742339039
30
0
41
1
10
50.9238613048346
20
-1.58718999102854
30
0
0
SPLINE
5
1AB
100
AcDbEntity
8
1
62
256
6
ByLayer
370
18
48
1
60
0
100
AcDbSpline
70
4
71
3
72
8
73
4
40
0
40
0
40
0
40
0
40
1
40
1
40
1
40
1
41
1
10
50.9613593824797
20
0.477885302175963
30
0
41
1
10
50.9107971323365
20
0.52988398818033
30
0
41
1
10
50.8601833811578
20
0.581355727470196
30
0
41
1
10
50.8095455123495
20
0.632332612571162
30
0
0
SPLINE
5
1AC
100
AcDbEntity
8
1
62
256
6
ByLayer
370
18
48
1
60
0
100
AcDbSpline
70
4
71
3
72
21
73
17
40
0
40
0
40
0
40
0
40
0.125
40
0.125
40
0.25
40
0.25
40
0.375000000000001
40
0.500000000000001
40
0.625000000000001
40
0.625000000000001
40
0.687500000000001
40
0.687500000000001
40
0.750000000000001
40
0.750000000000001
40
0.875000000000001
40
1
40
1
40
1
40
1
41
1
10
50.9238613048346
20
-1.58718999102845
30
0
41
1
10
50.919364219969
20
-1.50439078688416
30
0
41
1
10
50.9148445843618
20
-1.4195135956501
30
0
41
1
10
50.9056116125442
20
-1.24556150710183
30
0
41
1
10
50.9008978451807
20
-1.15646350676627
30
0
41
1
10
50.8912177234078
20
-0.974018799572434
30
0
41
1
10
50.8814315016426
20
-0.790085084939818
30
0
41
1
10
50.8664999122715
20
-0.509864312782753
30
0
41
1
10
50.8565414632291
20
-0.320191090295879
30
0
41
1
10
50.8491702373548
20
-0.176843922988922
30
0
41
1
10
50.8467298020378
20
-0.128879202798316
30
0
41
1
10
50.8419027677407
20
-0.0325781262282305
30
0
41
1
10
50.8395168106597
20
0.0158265010026923
30
0
41
1
10
50.8324741782495
20
0.16014453708874
30
0
41
1
10
50.8233310869027
20
0.351077966596591
30
0
41
1
10
50.8141913928905
20
0.539073383843629
30
0
41
1
10
50.8095455123495
20
0.632332612571304
30
0
0
SPLINE
5
1AD
100
AcDbEntity
8
1
62
256
6
ByLayer
370
18
48
1
60
0
100
AcDbSpline
70
4
71
3
72
8
73
4
40
0
40
0
40
0
40
0
40
1
40
1
40
1
40
1
41
1
10
50.9238613048346
20
-1.58718999102854
30
0
41
1
10
50.9686186574722
20
-1.63379956453937
30
0
41
1
10
51.0133153871352
20
-1.67999159812152
30
0
41
1
10
51.0579774828703
20
-1.72574316242628
30
0
0
SPLINE
5
1AE
100
AcDbEntity
8
1
62
256
6
ByLayer
370
13
48
1
60
0
100
AcDbSpline
70
4
71
3
72
9
73
5
40
0
40
0
40
0
40
0
40
0.381673536517355
40
1
40
1
40
1
40
1
41
1
10
51.2528427468733
20
0.0624231658705412
30
0
41
1
10
51.265110882593
20
-0.167253649651855
30
0
41
1
10
51.2970312648859
20
-0.767002567547024
30
0
41
1
10
51.3283122842988
20
-1.30996716888632
30
0
41
1
10
51.347622554345
20
-1.60148734254125
30
0
0
SPLINE
5
1AF
100
AcDbEntity
8
1
62
256
6
ByLayer
370
18
48
1
60
0
100
AcDbSpline
70
4
71
3
72
14
73
10
40
0
40
0
40
0
40
0
40
0.124999999999986
40
0.124999999999986
40
0.249999999999972
40
0.249999999999972
40
0.499999999999972
40
0.499999999999972
40
1
40
1
40
1
40
1
41
1
10
51.2528427468733
20
0.0624231658705412
30
0
41
1
10
51.2405106246227
20
0.0781377909402465
30
0
41
1
10
51.2282304660709
20
0.0941369776476222
30
0
41
1
10
51.2037025848117
20
0.126491289042377
30
0
41
1
10
51.1914540668661
20
0.1428430161005
30
0
41
1
10
51.1547602133383
20
0.192452669194722
30
0
41
1
10
51.1303686460328
20
0.22627097716213
30
0
41
1
10
51.0574247570478
20
0.330162397766401
30
0
41
1
10
51.0092211395337
20
0.402488208513489
30
0
41
1
10
50.9613593824797
20
0.477885302175963
30
0
0
SPLINE
5
1B0
100
AcDbEntity
8
1
62
256
6
ByLayer
370
18
48
1
60
0
100
AcDbSpline
70
4
71
3
72
26
73
22
40
0
40
0
40
0
40
0
40
0.125000000000001
40
0.125000000000001
40
0.156250000000001
40
0.156250000000001
40
0.187500000000001
40
0.187500000000001
40
0.250000000000002
40
0.250000000000002
40
0.375000000000002
40
0.500000000000003
40
0.500000000000003
40
0.625000000000003
40
0.625000000000003
40
0.687500000000003
40
0.687500000000003
40
0.750000000000002
40
0.750000000000002
40
0.875000000000001
40
1
40
1
40
1
40
1
41
1
10
50.9613593824797
20
0.477885302175935
30
0
41
1
10
50.9653443699583
20
0.383539226683013
30
0
41
1
10
50.9692939838975
20
0.288307577812503
30
0
41
1
10
50.974257423898
20
0.168137083181279
30
0
41
1
10
50.9752513849533
20
0.144046322037468
30
0
41
1
10
50.9772434156927
20
0.0957503984492121
30
0
41
1
10
50.9782407252485
20
0.0715637113359548
30
0
41
1
10
50.9812257931808
20
-0.0008009431269329
30
0
41
1
10
50.9832115745843
20
-0.0488998848255164
30
0
41
1
10
50.9891702842043
20
-0.192771422631665
30
0
41
1
10
50.9971214696716
20
-0.38346770220366
30
0
41
1
10
51.0051713620622
20
-0.571933997958723
30
0
41
1
10
51.0132679632155
20
-0.75927659324492
30
0
41
1
10
51.0173318508384
20
-0.85238630927779
30
0
41
1
10
51.0234759103958
20
-0.991180081528512
30
0
41
1
10
51.0255212666593
20
-1.03704436611693
30
0
41
1
10
51.029598314509
20
-1.12768846751143
30
0
41
1
10
51.0316321576608
20
-1.17251689240612
30
0
41
1
10
51.0377256225103
20
-1.3055422129591
30
0
41
1
10
51.0458298850891
20
-1.47902189365664
30
0
41
1
10
51.0539294597693
20
-1.64480421747942
30
0
41
1
10
51.0579774828652
20
-1.72574316242503
30
0
0
SPLINE
5
1B1
100
AcDbEntity
8
1
62
256
6
ByLayer
370
18
48
1
60
0
100
AcDbSpline
70
4
71
3
72
12
73
8
40
0
40
0
40
0
40
0
40
0.499999999999983
40
0.499999999999983
40
0.749999999999991
40
0.749999999999991
40
1
40
1
40
1
40
1
41
1
10
51.0579774828731
20
-1.72574316241861
30
0
41
1
10
51.1054748840732
20
-1.71272841534929
30
0
41
1
10
51.1533917670063
20
-1.69586509549919
30
0
41
1
10
51.2258482394179
20
-1.66482983043406
30
0
41
1
10
51.250077757689
20
-1.65354288708306
30
0
41
1
10
51.2986959812814
20
-1.62911865175454
30
0
41
1
10
51.3230872888925
20
-1.61597523230912
30
0
41
1
10
51.347622554345
20
-1.60148734254125
30
0
0
SPLINE
5
1B2
100
AcDbEntity
8
1
62
256
6
ByLayer
370
18
48
1
60
0
100
AcDbSpline
70
4
71
3
72
90
73
86
40
0
40
0
40
0
40
0
40
0.0312500000000094
40
0.0312500000000094
40
0.0625000000000189
40
0.0625000000000189
40
0.125000000000035
40
0.125000000000035
40
0.156250000000042
40
0.156250000000042
40
0.171875000000046
40
0.171875000000046
40
0.187500000000049
40
0.187500000000049
40
0.218750000000054
40
0.218750000000054
40
0.250000000000058
40
0.250000000000058
40
0.281250000000062
40
0.281250000000062
40
0.296875000000064
40
0.296875000000064
40
0.312500000000066
40
0.312500000000066
40
0.375000000000075
40
0.375000000000075
40
0.406250000000079
40
0.406250000000079
40
0.42187500000008
40
0.42187500000008
40
0.429687500000078
40
0.429687500000078
40
0.437500000000077
40
0.437500000000077
40
0.468750000000073
40
0.468750000000073
40
0.476562500000072
40
0.476562500000072
40
0.484375000000072
40
0.484375000000072
40
0.500000000000068
40
0.500000000000068
40
0.515625000000065
40
0.515625000000065
40
0.531250000000061
40
0.531250000000061
40
0.562500000000054
40
0.562500000000054
40
0.570312500000053
40
0.570312500000053
40
0.578125000000051
40
0.578125000000051
40
0.593750000000048
40
0.593750000000048
40
0.601562500000047
40
0.601562500000047
40
0.609375000000046
40
0.609375000000046
40
0.625000000000044
40
0.625000000000044
40
0.632812500000043
40
0.632812500000043
40
0.640625000000042
40
0.640625000000042
40
0.65625000000004
40
0.65625000000004
40
0.671875000000037
40
0.671875000000037
40
0.687500000000035
40
0.687500000000035
40
0.71875000000003
40
0.71875000000003
40
0.750000000000025
40
0.750000000000025
40
0.765625000000022
40
0.765625000000022
40
0.781250000000019
40
0.781250000000019
40
0.812500000000015
40
0.812500000000015
40
0.87500000000001
40
0.87500000000001
40
0.937500000000005
40
0.937500000000005
40
1
40
1
40
1
40
1
41
1
10
39.4465001339811
20
-1.65556056439775
30
0
41
1
10
39.3912229339498
20
-1.61891006340477
30
0
41
1
10
39.3355189073102
20
-1.58195182133727
30
0
41
1
10
39.2224175250233
20
-1.50855169422698
30
0
41
1
10
39.1650662660048
20
-1.47206212388133
30
0
41
1
10
38.990310252017
20
-1.36390942617874
30
0
41
1
10
38.8700831906099
20
-1.29369103336876
30
0
41
1
10
38.6823905246748
20
-1.19479340090464
30
0
41
1
10
38.6185978049101
20
-1.16290532773149
30
0
41
1
10
38.5207648670622
20
-1.11726755742674
30
0
41
1
10
38.4878415546558
20
-1.10244596028286
30
0
41
1
10
38.4217168986087
20
-1.07385426308028
30
0
41
1
10
38.3884626066204
20
-1.06005923464917
30
0
41
1
10
38.2880940004763
20
-1.0203043107114
30
0
41
1
10
38.2203722994105
20
-0.995979502668263
30
0
41
1
10
38.0830627284787
20
-0.952623873590454
30
0
41
1
10
38.013499178376
20
-0.933521123084603
30
0
41
1
10
37.8722614012977
20
-0.901521004054672
30
0
41
1
10
37.8006934640879
20
-0.888306479154551
30
0
41
1
10
37.6921580264942
20
-0.872022726948472
30
0
41
1
10
37.6557623218861
20
-0.867178637817858
30
0
41
1
10
37.5827157376995
20
-0.858531005240792
30
0
41
1
10
37.5462171027098
20
-0.854772485664142
30
0
41
1
10
37.3638565580848
20
-0.839037831931137
30
0
41
1
10
37.2183802695491
20
-0.835974203530185
30
0
41
1
10
37.0009217426167
20
-0.848904455026741
30
0
41
1
10
36.9285597959756
20
-0.856090747878085
30
0
41
1
10
36.8202343599963
20
-0.871857027234711
30
0
41
1
10
36.7841623607878
20
-0.87794850818122
30
0
41
1
10
36.7301160963642
20
-0.888490036036188
30
0
41
1
10
36.7121109911653
20
-0.892238506417698
30
0
41
1
10
36.6761229921514
20
-0.900238416503242
30
0
41
1
10
36.6581478172254
20
-0.904491208295525
30
0
41
1
10
36.5688844551364
20
-0.926939635624251
30
0
41
1
10
36.4989720342114
20
-0.948701019048798
30
0
41
1
10
36.4140326070054
20
-0.981953185010497
30
0
41
1
10
36.3971680964369
20
-0.988907669183533
30
0
41
1
10
36.3637094081342
20
-1.00347771005582
30
0
41
1
10
36.3470844627366
20
-1.01111753695898
30
0
41
1
10
36.298036720209
20
-1.03491922139654
30
0
41
1
10
36.2663609695388
20
-1.05198196768376
30
0
41
1
10
36.2053058554891
20
-1.0887225837389
30
0
41
1
10
36.1759323185384
20
-1.10840831963063
30
0
41
1
10
36.1199253076069
20
-1.15082288880251
30
0
41
1
10
36.0932396239992
20
-1.17355716420971
30
0
41
1
10
36.0181732103405
20
-1.24673327444555
30
0
41
1
10
35.9771417617734
20
-1.29980678605744
30
0
41
1
10
35.9382328947682
20
-1.37128964457798
30
0
41
1
10
35.9310992374151
20
-1.38580816427336
30
0
41
1
10
35.9183227397427
20
-1.41480825173622
30
0
41
1
10
35.9126443153735
20
-1.42935294420425
30
0
41
1
10
35.8976741701231
20
-1.47308924613762
30
0
41
1
10
35.8904321558428
20
-1.50238013229139
30
0
41
1
10
35.8835656493758
20
-1.54641832475892
30
0
41
1
10
35.8819443874143
20
-1.56116742566672
30
0
41
1
10
35.8800414882444
20
-1.59026924159196
30
0
41
1
10
35.8797494017796
20
-1.60465577404912
30
0
41
1
10
35.8807044426806
20
-1.64733501428481
30
0
41
1
10
35.8836999924047
20
-1.67515134220093
30
0
41
1
10
35.892004865684
20
-1.71592687376861
30
0
41
1
10
35.8954036683672
20
-1.72939992734121
30
0
41
1
10
35.903336878289
20
-1.75585065323318
30
0
41
1
10
35.9078520468695
20
-1.76878028657299
30
0
41
1
10
35.9228945677621
20
-1.80675237919681
30
0
41
1
10
35.9349134193585
20
-1.83098066318129
30
0
41
1
10
35.9623121552272
20
-1.87755888785981
30
0
41
1
10
35.977699156795
20
-1.89990767152108
30
0
41
1
10
36.010759471326
20
-1.94309498622252
30
0
41
1
10
36.0285378382741
20
-1.96395067549028
30
0
41
1
10
36.0840947222435
20
-2.02371472187105
30
0
41
1
10
36.124254097789
20
-2.06015144194947
30
0
41
1
10
36.2085647413897
20
-2.127895325975
30
0
41
1
10
36.2527586148608
20
-2.15917538475907
30
0
41
1
10
36.3212141712131
20
-2.20286843625959
30
0
41
1
10
36.3443977809466
20
-2.21689115151346
30
0
41
1
10
36.391393657155
20
-2.24392508545154
30
0
41
1
10
36.4152395484904
20
-2.25695315876626
30
0
41
1
10
36.4873406576539
20
-2.29446790553342
30
0
41
1
10
36.5360735634549
20
-2.31736022083979
30
0
41
1
10
36.6836207588516
20
-2.38045128672212
30
0
41
1
10
36.783803017189
20
-2.41510209480961
30
0
41
1
10
36.9856155794853
20
-2.47160024655932
30
0
41
1
10
37.0872659797409
20
-2.49341309556473
30
0
41
1
10
37.2911022268809
20
-2.52453285387619
30
0
41
1
10
37.3932971618955
20
-2.53382763805345
30
0
41
1
10
37.4956520204328
20
-2.53655745271459
30
0
0
SPLINE
5
1B3
100
AcDbEntity
8
1
62
256
6
ByLayer
370
18
48
1
60
0
100
AcDbSpline
70
4
71
3
72
24
73
20
40
0
40
0
40
0
40
0
40
0.0678606624562414
40
0.0678606624562414
40
0.188838426480677
40
0.188838426480677
40
0.309816190505112
40
0.309816190505112
40
0.430793954529548
40
0.430793954529548
40
0.551771718553984
40
0.551771718553984
40
0.67274948257842
40
0.67274948257842
40
0.793727246602856
40
0.793727246602856
40
0.914705010627291
40
0.914705010627291
40
1
40
1
40
1
40
1
41
1
10
38.1690929934547
20
-0.973431165685128
30
0
41
1
10
38.1396254995703
20
-0.989549447240421
30
0
41
1
10
38.110631282711
20
-1.00758040704815
30
0
41
1
10
38.0313198222419
20
-1.06329992956094
30
0
41
1
10
37.9819717723857
20
-1.1056473117462
30
0
41
1
10
37.890481257297
20
-1.19985565798834
30
0
41
1
10
37.8477940404413
20
-1.25203391147099
30
0
41
1
10
37.7679282860353
20
-1.36553074203906
30
0
41
1
10
37.7306714107264
20
-1.42710358136634
30
0
41
1
10
37.66299637061
20
-1.55495781699381
30
0
41
1
10
37.6323054953492
20
-1.62165091955498
30
0
41
1
10
37.577204043532
20
-1.76055767483285
30
0
41
1
10
37.5533078891964
20
-1.83392879873537
30
0
41
1
10
37.5186417750633
20
-1.98365855080993
30
0
41
1
10
37.5065274946772
20
-2.06010326502056
30
0
41
1
10
37.4910233427963
20
-2.21563376338202
30
0
41
1
10
37.4877423912782
20
-2.29496243242625
30
0
41
1
10
37.4888934155422
20
-2.42779188871168
30
0
41
1
10
37.4914997109518
20
-2.482319284726
30
0
41
1
10
37.4956520304552
20
-2.53655758362845
30
0
0
SPLINE
5
1B4
100
AcDbEntity
8
SK1
62
256
6
ByLayer
370
18
48
1
60
0
100
AcDbSpline
70
4
71
3
72
22
73
18
40
0
40
0
40
0
40
0
40
0.125064127512763
40
0.125064127512763
40
0.187596191269144
40
0.187596191269144
40
0.250128255025526
40
0.250128255025526
40
0.500256510051051
40
0.500256510051051
40
0.625320637563814
40
0.625320637563814
40
0.750384765076576
40
0.750384765076576
40
0.875448892589339
40
0.875448892589339
40
1
40
1
40
1
40
1
41
1
10
-21.87
20
2.42499999999998
30
0
41
1
10
-21.9161286994883
20
2.42499999999998
30
0
41
1
10
-21.9611809603311
20
2.42499999999998
30
0
41
1
10
-22.0267735041401
20
2.42499999999998
30
0
41
1
10
-22.0483224129895
20
2.42499999999998
30
0
41
1
10
-22.0905995560873
20
2.42499999999998
30
0
41
1
10
-22.1113088348484
20
2.42499999999998
30
0
41
1
10
-22.2125001674621
20
2.42499999999998
30
0
41
1
10
-22.2860194291454
20
2.42499999999998
30
0
41
1
10
-22.3799881112948
20
2.42499999999998
30
0
41
1
10
-22.4085719462844
20
2.42499999999998
30
0
41
1
10
-22.4591338700697
20
2.42499999999998
30
0
41
1
10
-22.4811148066356
20
2.42499999999998
30
0
41
1
10
-22.5171473245934
20
2.42499999999998
30
0
41
1
10
-22.5308921377331
20
2.42499999999998
30
0
41
1
10
-22.5492656359035
20
2.42499999999998
30
0
41
1
10
-22.5539296345744
20
2.42499999999998
30
0
41
1
10
-22.5539600000039
20
2.42499999999998
30
0
0
SPLINE
5
1B5
100
AcDbEntity
8
SK1
62
256
6
ByLayer
370
18
48
1
60
0
100
AcDbSpline
70
4
71
3
72
23
73
19
40
0
40
0
40
0
40
0
40
0.0003019595521655
40
0.125264214608145
40
0.125264214608145
40
0.250226469664124
40
0.250226469664124
40
0.375188724720103
40
0.375188724720103
40
0.500150979776083
40
0.500150979776083
40
0.750075489888041
40
0.750075489888041
40
0.812556617416031
40
0.812556617416031
40
0.875037744944021
40
0.875037744944021
40
1
40
1
40
1
40
1
41
1
10
-22.5539592396026
20
-2.42500000000001
30
0
41
1
10
-22.5539602397026
20
-2.42500000000001
30
0
41
1
10
-22.5539789527463
20
-2.42500000000001
30
0
41
1
10
-22.5493033979172
20
-2.42500000000004
30
0
41
1
10
-22.5308921377331
20
-2.42500000000004
30
0
41
1
10
-22.5171473245934
20
-2.42500000000004
30
0
41
1
10
-22.4811148066356
20
-2.42500000000004
30
0
41
1
10
-22.4591338700697
20
-2.42500000000004
30
0
41
1
10
-22.4085719462844
20
-2.42500000000004
30
0
41
1
10
-22.3799881112948
20
-2.42500000000004
30
0
41
1
10
-22.2860194291454
20
-2.42500000000004
30
0
41
1
10
-22.2125001674621
20
-2.42500000000004
30
0
41
1
10
-22.1113088348484
20
-2.42500000000004
30
0
41
1
10
-22.0905995560873
20
-2.42500000000004
30
0
41
1
10
-22.0483224129895
20
-2.42500000000004
30
0
41
1
10
-22.0267735041401
20
-2.42500000000004
30
0
41
1
10
-21.9611809603311
20
-2.42500000000004
30
0
41
1
10
-21.9161286994882
20
-2.42500000000004
30
0
41
1
10
-21.87
20
-2.42500000000001
30
0
0
SPLINE
5
1B6
100
AcDbEntity
8
SK1
62
256
6
ByLayer
370
18
48
1
60
0
100
AcDbSpline
70
4
71
3
72
39
73
35
40
0
40
0
40
0
40
0
40
0.125
40
0.125
40
0.15625
40
0.15625
40
0.1875
40
0.1875
40
0.25
40
0.25
40
0.375
40
0.375
40
0.40625
40
0.40625
40
0.421875
40
0.421875
40
0.4375
40
0.4375
40
0.5
40
0.5625
40
0.5625
40
0.625
40
0.625
40
0.6875
40
0.6875
40
0.75
40
0.75
40
0.875
40
0.875
40
0.90625
40
0.90625
40
0.9375
40
0.9375
40
1
40
1
40
1
40
1
41
1
10
-21.8700000000001
20
-1.94550951722172
30
0
41
1
10
-21.9617651518119
20
-1.79886711642567
30
0
41
1
10
-22.0492873517802
20
-1.64913452522694
30
0
41
1
10
-22.1505892647162
20
-1.45606885388207
30
0
41
1
10
-22.1704385682289
20
-1.41715632601688
30
0
41
1
10
-22.2092172904702
20
-1.33866130766719
30
0
41
1
10
-22.2280943359419
20
-1.2991823626638
30
0
41
1
10
-22.2829175461676
20
-1.18024215816848
30
0
41
1
10
-22.3171107315207
20
-1.100177554439
30
0
41
1
10
-22.4112462683972
20
-0.857219516933043
30
0
41
1
10
-22.4628058776618
20
-0.691581916396188
30
0
41
1
10
-22.5076299776698
20
-0.478110359126191
30
0
41
1
10
-22.5156089333792
20
-0.435093316048409
30
0
41
1
10
-22.5259821127037
20
-0.370045530477853
30
0
41
1
10
-22.5291781080732
20
-0.348242856020761
30
0
41
1
10
-22.534994808535
20
-0.304643440516486
30
0
41
1
10
-22.537615614096
20
-0.282853877047046
30
0
41
1
10
-22.5492720364585
20
-0.173957129743428
30
0
41
1
10
-22.5586325615654
20
-5.00669868018E-05
30
0
41
1
10
-22.5493033979172
20
0.173197642612138
30
0
41
1
10
-22.5308921377331
20
0.346124945108073
30
0
41
1
10
-22.5171473245934
20
0.432428458607632
30
0
41
1
10
-22.4811148066356
20
0.604734101101201
30
0
41
1
10
-22.4591338700697
20
0.689343813069286
30
0
41
1
10
-22.4085719462844
20
0.855900645063912
30
0
41
1
10
-22.3799881112948
20
0.937864176391628
30
0
41
1
10
-22.2860194291454
20
1.18048348504715
30
0
41
1
10
-22.2125001674621
20
1.33790092513371
30
0
41
1
10
-22.1113088348484
20
1.53097344768682
30
0
41
1
10
-22.0905995560873
20
1.56940044067241
30
0
41
1
10
-22.0483224129895
20
1.64591262089519
30
0
41
1
10
-22.0267735041401
20
1.68396212476608
30
0
41
1
10
-21.9611809603311
20
1.79726421471696
30
0
41
1
10
-21.9161286994883
20
1.87179500681108
30
0
41
1
10
-21.87
20
1.94550951722161
30
0
0
SPLINE
5
1B7
100
AcDbEntity
8
1
62
256
6
ByLayer
370
18
48
1
60
0
100
AcDbSpline
70
4
71
2
72
6
73
3
40
0
40
0
40
0
40
1
40
1
40
1
41
1
10
55.3309162003597
20
-2.69826596348389
30
0
41
1
10
55.3525903672558
20
-2.73566173685586
30
0
41
1
10
55.3742616600105
20
-2.77306375665287
30
0
0
SPLINE
5
1B8
100
AcDbEntity
8
1
62
256
6
ByLayer
370
18
48
1
60
0
100
AcDbSpline
70
4
71
2
72
6
73
3
40
0
40
0
40
0
40
1
40
1
40
1
41
1
10
55.4038735057198
20
-2.79036300800249
30
0
41
1
10
55.7319264210129
20
-2.63998905040134
30
0
41
1
10
56.0848430602827
20
-2.56811400222583
30
0
0
SPLINE
5
1B9
100
AcDbEntity
8
1
62
256
6
ByLayer
370
18
48
1
60
0
100
AcDbSpline
70
4
71
2
72
6
73
3
40
0
40
0
40
0
40
1
40
1
40
1
41
1
10
54.9411603502784
20
-3.00976568405727
30
0
41
1
10
55.0327432545003
20
-2.85188053839966
30
0
41
1
10
55.1244513648923
20
-2.69399522102791
30
0
0
SPLINE
5
1BA
100
AcDbEntity
8
1
62
256
6
ByLayer
370
18
48
1
60
0
100
AcDbSpline
70
4
71
2
72
6
73
3
40
0
40
0
40
0
40
1
40
1
40
1
41
1
10
57.1300000000001
20
2.63422947552681
30
0
41
1
10
57.0535422890684
20
2.62114901543677
30
0
41
1
10
56.975973980806
20
2.6143915803319
30
0
0
SPLINE
5
1BB
100
AcDbEntity
8
1
62
256
6
ByLayer
370
18
48
1
60
0
100
AcDbSpline
70
4
71
2
72
6
73
3
40
0
40
0
40
0
40
1
40
1
40
1
41
1
10
49.7490194394676
20
-2.64393715956351
30
0
41
1
10
49.7621419461402
20
-2.64314042300916
30
0
41
1
10
49.7774473785114
20
-2.64561350906666
30
0
0
SPLINE
5
1BC
100
AcDbEntity
8
1
62
256
6
ByLayer
370
18
48
1
60
0
100
AcDbSpline
70
4
71
3
72
9
73
5
40
0
40
0
40
0
40
0
40
0.719174047836377
40
1
40
1
40
1
40
1
41
1
10
51.2439942138513
20
2.69255612298977
30
0
41
1
10
51.2342277903559
20
2.67552906172582
30
0
41
1
10
51.2156372072908
20
2.65714562654736
30
0
41
1
10
51.188923438464
20
2.64487164181443
30
0
41
1
10
51.181036116622
20
2.64218244659736
30
0
0
SPLINE
5
1BD
100
AcDbEntity
8
1
62
256
6
ByLayer
370
18
48
1
60
0
100
AcDbSpline
70
4
71
2
72
6
73
3
40
0
40
0
40
0
40
1
40
1
40
1
41
1
10
49.5176537980482
20
-2.97638361294131
30
0
41
1
10
49.5993059944005
20
-2.83538232804807
30
0
41
1
10
49.6810185881245
20
-2.6944609655387
30
0
0
SPLINE
5
1BE
100
AcDbEntity
8
1
62
256
6
ByLayer
370
18
48
1
60
0
100
AcDbSpline
70
4
71
2
72
6
73
3
40
0
40
0
40
0
40
1
40
1
40
1
41
1
10
51.5452343203482
20
3.21242624876993
30
0
41
1
10
51.3947666896386
20
2.95251043655119
30
0
41
1
10
51.24390416539
20
2.69239192880252
30
0
0
SPLINE
5
1BF
100
AcDbEntity
8
1
62
256
6
ByLayer
370
18
48
1
60
0
100
AcDbSpline
70
4
71
3
72
11
73
7
40
0
40
0
40
0
40
0
40
0.246469442201027
40
0.499376435717155
40
0.75246514167023
40
1
40
1
40
1
40
1
41
1
10
55.1252123175528
20
-2.69272313456216
30
0
41
1
10
55.1335659881437
20
-2.67715364581727
30
0
41
1
10
55.1575207962196
20
-2.65335706076468
30
0
41
1
10
55.2259824141149
20
-2.63069935109797
30
0
41
1
10
55.2944655355954
20
-2.65296880991755
30
0
41
1
10
55.3183264910601
20
-2.67638364380087
30
0
41
1
10
55.326606903079
20
-2.69178703017585
30
0
0
SPLINE
5
1C0
100
AcDbEntity
8
1
62
256
6
ByLayer
370
18
48
1
60
0
100
AcDbSpline
70
4
71
2
72
6
73
3
40
0
40
0
40
0
40
1
40
1
40
1
41
1
10
48.9761267717484
20
-2.68963876085903
30
0
41
1
10
49.0415676245416
20
-2.8027124827556
30
0
41
1
10
49.1069808577602
20
-2.91585229844421
30
0
0
SPLINE
5
1C1
100
AcDbEntity
8
1
62
256
6
ByLayer
370
18
48
1
60
0
100
AcDbSpline
70
4
71
2
72
6
73
3
40
0
40
0
40
0
40
1
40
1
40
1
41
1
10
51.9511042915314
20
2.69082780454812
30
0
41
1
10
51.8008566725654
20
2.94946148993677
30
0
41
1
10
51.6508119949781
20
3.2084359175204
30
0
0
SPLINE
5
1C2
100
AcDbEntity
8
1
62
256
6
ByLayer
370
18
48
1
60
0
100
AcDbSpline
70
4
71
3
72
11
73
7
40
0
40
0
40
0
40
0
40
0.246395158671303
40
0.499480105374383
40
0.752690674307313
40
1
40
1
40
1
40
1
41
1
10
48.7752262807898
20
-2.69162552399516
30
0
41
1
10
48.7836221246413
20
-2.675925241567
30
0
41
1
10
48.8076527740829
20
-2.65192604156437
30
0
41
1
10
48.8761590278808
20
-2.62920619630825
30
0
41
1
10
48.9447005769136
20
-2.65168954811401
30
0
41
1
10
48.9686496048665
20
-2.67551161674686
30
0
41
1
10
48.976982716154
20
-2.69115913531388
30
0
0
SPLINE
5
1C3
100
AcDbEntity
8
1
62
256
6
ByLayer
370
18
48
1
60
0
100
AcDbSpline
70
4
71
3
72
11
73
7
40
0
40
0
40
0
40
0
40
0.244731105162051
40
0.496455287343084
40
0.749951423406959
40
1
40
1
40
1
40
1
41
1
10
52.1500199174228
20
2.69022366833806
30
0
41
1
10
52.1417250260541
20
2.675289578194
30
0
41
1
10
52.1179482846291
20
2.65258732367792
30
0
41
1
10
52.0495565908236
20
2.63122113271541
30
0
41
1
10
51.981444605905
20
2.65444640027701
30
0
41
1
10
51.9579162492346
20
2.67775355327026
30
0
41
1
10
51.9498636971774
20
2.69306535059636
30
0
0
SPLINE
5
1C4
100
AcDbEntity
8
1
62
256
6
ByLayer
370
18
48
1
60
0
100
AcDbSpline
70
4
71
2
72
6
73
3
40
0
40
0
40
0
40
1
40
1
40
1
41
1
10
48.6843035661619
20
-2.84869575283898
30
0
41
1
10
48.730137155739
20
-2.76946848149507
30
0
41
1
10
48.7759870117102
20
-2.6902812235769
30
0
0
SPLINE
5
1C5
100
AcDbEntity
8
1
62
256
6
ByLayer
370
18
48
1
60
0
100
AcDbSpline
70
4
71
2
72
6
73
3
40
0
40
0
40
0
40
1
40
1
40
1
41
1
10
54.7059680625292
20
-3.1451736172308
30
0
41
1
10
54.8346202513818
20
-3.06795928676362
30
0
41
1
10
54.9631653238271
20
-3.00002818468607
30
0
0
SPLINE
5
1C6
100
AcDbEntity
8
1
62
256
6
ByLayer
370
18
48
1
60
0
100
AcDbSpline
70
4
71
2
72
6
73
3
40
0
40
0
40
0
40
1
40
1
40
1
41
1
10
54.4179018294961
20
-2.68879552803264
30
0
41
1
10
54.5431631529908
20
-2.90503527149335
30
0
41
1
10
54.6682055557365
20
-3.12143238622417
30
0
0
SPLINE
5
1C7
100
AcDbEntity
8
1
62
256
6
ByLayer
370
18
48
1
60
0
100
AcDbSpline
70
4
71
3
72
11
73
7
40
0
40
0
40
0
40
0
40
0.242891796732508
40
0.500963884639264
40
0.758543446905505
40
1
40
1
40
1
40
1
41
1
10
54.2075181633883
20
-2.70162078308925
30
0
41
1
10
54.2172436108795
20
-2.68262865878316
30
0
41
1
10
54.2436853857739
20
-2.65261916458931
30
0
41
1
10
54.3138257956717
20
-2.62720360123086
30
0
41
1
10
54.3840329867349
20
-2.64835807357872
30
0
41
1
10
54.4105448246378
20
-2.67543255707267
30
0
41
1
10
54.4203308616923
20
-2.69292508856662
30
0
0
SPLINE
5
1C8
100
AcDbEntity
8
1
62
256
6
ByLayer
370
18
48
1
60
0
100
AcDbSpline
70
4
71
2
72
6
73
3
40
0
40
0
40
0
40
1
40
1
40
1
41
1
10
48.0691838242302
20
-2.69028374361096
30
0
41
1
10
48.0918478869074
20
-2.72945266122829
30
0
41
1
10
48.1145091673392
20
-2.76863065086934
30
0
0
SPLINE
5
1C9
100
AcDbEntity
8
1
62
256
6
ByLayer
370
18
48
1
60
0
100
AcDbSpline
70
4
71
2
72
6
73
3
40
0
40
0
40
0
40
1
40
1
40
1
41
1
10
52.4531825850427
20
3.21344544684305
30
0
41
1
10
52.3035451681613
20
2.95493216358304
30
0
41
1
10
52.1538309449929
20
2.69664049150393
30
0
0
SPLINE
5
1CA
100
AcDbEntity
8
1
62
256
6
ByLayer
370
18
48
1
60
0
100
AcDbSpline
70
4
71
2
72
6
73
3
40
0
40
0
40
0
40
1
40
1
40
1
41
1
10
47.9814497953983
20
-2.64422854625531
30
0
41
1
10
48.0460087598468
20
-2.63671184439607
30
0
41
1
10
48.066935621489
20
-2.68593487876444
30
0
0
SPLINE
5
1CB
100
AcDbEntity
8
1
62
256
6
ByLayer
370
18
48
1
60
0
100
AcDbSpline
70
4
71
2
72
6
73
3
40
0
40
0
40
0
40
1
40
1
40
1
41
1
10
52.8556884674211
20
2.6959003959972
30
0
41
1
10
52.7056185446438
20
2.9542918664425
30
0
41
1
10
52.5556784970136
20
3.21293568345178
30
0
0
SPLINE
5
1CC
100
AcDbEntity
8
1
62
256
6
ByLayer
370
18
48
1
60
0
100
AcDbSpline
70
4
71
2
72
6
73
3
40
0
40
0
40
0
40
1
40
1
40
1
41
1
10
52.9214384103192
20
2.64944471288385
30
0
41
1
10
52.8716049687008
20
2.65250505188399
30
0
41
1
10
52.8569791793171
20
2.69378777875863
30
0
0
SPLINE
5
1CD
100
AcDbEntity
8
1
62
256
6
ByLayer
370
18
48
1
60
0
100
AcDbSpline
70
4
71
1
72
4
73
2
40
0
40
0
40
1
40
1
41
1
10
53.7454210317356
20
-3.09637784986035
30
0
41
1
10
53.81255307774
20
-3.21208907451452
30
0
0
SPLINE
5
1CE
100
AcDbEntity
8
1
62
256
6
ByLayer
370
18
48
1
60
0
100
AcDbSpline
70
4
71
1
72
4
73
2
40
0
40
0
40
1
40
1
41
1
10
57.3229979880187
20
0.0415115003388848
30
0
41
1
10
57.3398037288857
20
0.0282028834666903
30
0
0
SPLINE
5
1CF
100
AcDbEntity
8
1
62
256
6
ByLayer
370
18
48
1
60
0
100
AcDbSpline
70
4
71
3
72
8
73
4
40
0
40
0
40
0
40
0
40
1
40
1
40
1
40
1
41
1
10
51.3857446333905
20
-0.0764559706229306
30
0
41
1
10
51.4011143407137
20
-0.0886667687107092
30
0
41
1
10
51.4164023572798
20
-0.100868820676908
30
0
41
1
10
51.4316181627482
20
-0.113071763273439
30
0
0
SPLINE
5
1D0
100
AcDbEntity
8
1
62
256
6
ByLayer
370
18
48
1
60
0
100
AcDbSpline
70
4
71
1
72
4
73
2
40
0
40
0
40
1
40
1
41
1
10
51.4316181627482
20
-0.113071763273439
30
0
41
1
10
51.4594484729385
20
-0.134678531015311
30
0
0
LINE
5
82
100
AcDbEntity
8
80
62
256
6
ByLayer
370
18
48
1
60
0
100
AcDbLine
10
0
20
0
30
0
11
-5
21
0
31
0
39
0
210
0
220
0
230
1
0
LINE
5
83
100
AcDbEntity
8
4
62
256
6
ByLayer
370
18
48
0.05
60
0
100
AcDbLine
10
-5
20
0
30
0
11
62.13
21
0
31
0
39
0
210
0
220
0
230
1
0
LINE
5
85
100
AcDbEntity
8
81
62
256
6
ByLayer
370
18
48
1
60
0
100
AcDbLine
10
57.13
20
0
30
0
11
62.13
21
0
31
0
39
0
210
0
220
0
230
1
0
LINE
5
86
100
AcDbEntity
8
SK4
62
256
6
ByLayer
370
18
48
0.05
60
0
100
AcDbLine
10
-27.87
20
0
30
0
11
62.13
21
0
31
0
39
0
210
0
220
0
230
1
0
LINE
5
88
100
AcDbEntity
8
1
62
256
6
ByLayer
370
18
48
1
60
0
100
AcDbLine
10
0
20
3.2385
30
0
11
0
21
-3.2385
31
0
39
0
210
0
220
0
230
1
0
LINE
5
89
100
AcDbEntity
8
1
62
256
6
ByLayer
370
18
48
1
60
0
100
AcDbLine
10
57.13
20
2.634331
30
0
11
57.13
21
2.639898
31
0
39
0
210
0
220
0
230
1
0
LINE
5
8A
100
AcDbEntity
8
1
62
256
6
ByLayer
370
18
48
1
60
0
100
AcDbLine
10
57.33
20
2.44
30
0
11
57.33
21
2.436528
31
0
39
0
210
0
220
0
230
1
0
LINE
5
8B
100
AcDbEntity
8
1
62
256
6
ByLayer
370
18
48
1
60
0
100
AcDbLine
10
49.516825
20
-2.973307
30
0
11
49.523523
21
-2.966252
31
0
39
0
210
0
220
0
230
1
0
LINE
5
8C
100
AcDbEntity
8
1
62
256
6
ByLayer
370
18
48
1
60
0
100
AcDbLine
10
55.327637
20
-2.69355
30
0
11
55.330986
21
-2.698351
31
0
39
0
210
0
220
0
230
1
0
LINE
5
8D
100
AcDbEntity
8
1
62
256
6
ByLayer
370
18
48
1
60
0
100
AcDbLine
10
51.948587
20
2.695162
30
0
11
51.950959
21
2.6911
31
0
39
0
210
0
220
0
230
1
0
LINE
5
8E
100
AcDbEntity
8
1
62
256
6
ByLayer
370
18
48
1
60
0
100
AcDbLine
10
54.418067
20
-2.689099
30
0
11
54.420401
21
-2.693034
31
0
39
0
210
0
220
0
230
1
0
LINE
5
8F
100
AcDbEntity
8
1
62
256
6
ByLayer
370
18
48
1
60
0
100
AcDbLine
10
48.68193
20
-2.851731
30
0
11
48.686649
21
-2.84464
31
0
39
0
210
0
220
0
230
1
0
LINE
5
90
100
AcDbEntity
8
1
62
256
6
ByLayer
370
18
48
1
60
0
100
AcDbLine
10
52.152069
20
2.693906
30
0
11
52.153886
21
2.696719
31
0
39
0
210
0
220
0
230
1
0
LINE
5
91
100
AcDbEntity
8
1
62
256
6
ByLayer
370
18
48
1
60
0
100
AcDbLine
10
47.13
20
2.614742
30
0
11
47.13
21
1.93756
31
0
39
0
210
0
220
0
230
1
0
LINE
5
92
100
AcDbEntity
8
1
62
256
6
ByLayer
370
18
48
1
60
0
100
AcDbLine
10
54.207258
20
-2.701736
30
0
11
54.211092
21
-2.699161
31
0
39
0
210
0
220
0
230
1
0
LINE
5
93
100
AcDbEntity
8
1
62
256
6
ByLayer
370
18
48
1
60
0
100
AcDbLine
10
47.13
20
-1.617212
30
0
11
47.13
21
-2.52057
31
0
39
0
210
0
220
0
230
1
0
LINE
5
94
100
AcDbEntity
8
1
62
256
6
ByLayer
370
13
48
1
60
0
100
AcDbLine
10
46.66804
20
-2.262872
30
0
11
46.66804
21
-1.23303
31
0
39
0
210
0
220
0
230
1
0
LINE
5
95
100
AcDbEntity
8
1
62
256
6
ByLayer
370
13
48
1
60
0
100
AcDbLine
10
46.66804
20
2.125597
30
0
11
46.66804
21
2.5374
31
0
39
0
210
0
220
0
230
1
0
LINE
5
96
100
AcDbEntity
8
1
62
256
6
ByLayer
370
13
48
1
60
0
100
AcDbLine
10
32.226238
20
-2.5374
30
0
11
32.226238
21
2.5374
31
0
39
0
210
0
220
0
230
1
0
LINE
5
97
100
AcDbEntity
8
1
62
256
6
ByLayer
370
18
48
1
60
0
100
AcDbLine
10
57.33
20
0.040899
30
0
11
57.33
21
-1.330946
31
0
39
0
210
0
220
0
230
1
0
LINE
5
98
100
AcDbEntity
8
1
62
256
6
ByLayer
370
13
48
1
60
0
100
AcDbLine
10
32.035225
20
2.554111
30
0
11
32.035225
21
-2.554111
31
0
39
0
210
0
220
0
230
1
0
LINE
5
99
100
AcDbEntity
8
1
62
256
6
ByLayer
370
18
48
1
60
0
100
AcDbLine
10
28.153864
20
3.2385
30
0
11
28.153864
21
-3.2385
31
0
39
0
210
0
220
0
230
1
0
LINE
5
9A
100
AcDbEntity
8
1
62
256
6
ByLayer
370
18
48
1
60
0
100
AcDbLine
10
57.33
20
0.040899
30
0
11
57.33
21
0.039594
31
0
39
0
210
0
220
0
230
1
0
LINE
5
9B
100
AcDbEntity
8
SK1
62
256
6
ByLayer
370
18
48
1
60
0
100
AcDbLine
10
-22.87
20
2.10896
30
0
11
-22.87
21
-2.10896
31
0
39
0
210
0
220
0
230
1
0
LINE
5
9D
100
AcDbEntity
8
SK1
62
256
6
ByLayer
370
18
48
1
60
0
100
AcDbLine
10
-15
20
1.94551
30
0
11
-15
21
-1.94551
31
0
39
0
210
0
220
0
230
1
0
LINE
5
9E
100
AcDbEntity
8
SK1
62
256
6
ByLayer
370
18
48
1
60
0
100
AcDbLine
10
-15
20
2.425
30
0
11
-14.31604
21
3.10896
31
0
39
0
210
0
220
0
230
1
0
LINE
5
9F
100
AcDbEntity
8
SK1
62
256
6
ByLayer
370
18
48
1
60
0
100
AcDbLine
10
-21.87
20
2.425
30
0
11
-15
21
2.425
31
0
39
0
210
0
220
0
230
1
0
LINE
5
A0
100
AcDbEntity
8
SK1
62
256
6
ByLayer
370
18
48
1
60
0
100
AcDbLine
10
-21.87
20
1.94551
30
0
11
-21.87
21
2.425
31
0
39
0
210
0
220
0
230
1
0
LINE
5
A1
100
AcDbEntity
8
SK1
62
256
6
ByLayer
370
18
48
1
60
0
100
AcDbLine
10
-15
20
1.94551
30
0
11
-21.87
21
1.94551
31
0
39
0
210
0
220
0
230
1
0
LINE
5
A2
100
AcDbEntity
8
SK1
62
256
6
ByLayer
370
18
48
1
60
0
100
AcDbLine
10
-21.87
20
-1.94551
30
0
11
-15
21
-1.94551
31
0
39
0
210
0
220
0
230
1
0
LINE
5
A3
100
AcDbEntity
8
SK1
62
256
6
ByLayer
370
18
48
1
60
0
100
AcDbLine
10
-21.87
20
-2.425
30
0
11
-21.87
21
-1.94551
31
0
39
0
210
0
220
0
230
1
0
LINE
5
A4
100
AcDbEntity
8
SK1
62
256
6
ByLayer
370
18
48
1
60
0
100
AcDbLine
10
-15
20
-2.425
30
0
11
-21.87
21
-2.425
31
0
39
0
210
0
220
0
230
1
0
LINE
5
A5
100
AcDbEntity
8
SK1
62
256
6
ByLayer
370
18
48
1
60
0
100
AcDbLine
10
-15
20
-2.425
30
0
11
-14.31604
21
-3.10896
31
0
39
0
210
0
220
0
230
1
0
LINE
5
A6
100
AcDbEntity
8
SK1
62
256
6
ByLayer
370
18
48
1
60
0
100
AcDbLine
10
0
20
3.2385
30
0
11
0
21
-3.2385
31
0
39
0
210
0
220
0
230
1
0
LINE
5
A7
100
AcDbEntity
8
SK1
62
256
6
ByLayer
370
18
48
1
60
0
100
AcDbLine
10
-14.213
20
3.10896
30
0
11
-14.213
21
-3.10896
31
0
39
0
210
0
220
0
230
1
0
LINE
5
A8
100
AcDbEntity
8
SK1
62
256
6
ByLayer
370
18
48
1
60
0
100
AcDbLine
10
-14.08346
20
-3.2385
30
0
11
-14.08346
21
3.2385
31
0
39
0
210
0
220
0
230
1
0
LINE
5
A9
100
AcDbEntity
8
1
62
256
6
ByLayer
370
18
48
1
60
0
100
AcDbLine
10
28.153864
20
3.2385
30
0
11
0
21
3.2385
31
0
39
0
210
0
220
0
230
1
0
LINE
5
AA
100
AcDbEntity
8
1
62
256
6
ByLayer
370
18
48
1
60
0
100
AcDbLine
10
0
20
-3.2385
30
0
11
28.153864
21
-3.2385
31
0
39
0
210
0
220
0
230
1
0
LINE
5
AB
100
AcDbEntity
8
1
62
256
6
ByLayer
370
18
48
1
60
0
100
AcDbLine
10
57.33
20
2.44
30
0
11
57.135725
21
2.634275
31
0
39
0
210
0
220
0
230
1
0
LINE
5
AC
100
AcDbEntity
8
1
62
256
6
ByLayer
370
18
48
1
60
0
100
AcDbLine
10
49.113951
20
-2.917931
30
0
11
49.512199
21
-2.973901
31
0
39
0
210
0
220
0
230
1
0
LINE
5
AD
100
AcDbEntity
8
1
62
256
6
ByLayer
370
18
48
1
60
0
100
AcDbLine
10
51.640015
20
3.217762
30
0
11
51.553914
21
3.217762
31
0
39
0
210
0
220
0
230
1
0
LINE
5
AE
100
AcDbEntity
8
1
62
256
6
ByLayer
370
18
48
1
60
0
100
AcDbLine
10
48.126808
20
-2.779197
30
0
11
48.672163
21
-2.855842
31
0
39
0
210
0
220
0
230
1
0
LINE
5
AF
100
AcDbEntity
8
1
62
256
6
ByLayer
370
18
48
1
60
0
100
AcDbLine
10
52.547174
20
3.217762
30
0
11
52.461302
21
3.217762
31
0
39
0
210
0
220
0
230
1
0
LINE
5
B0
100
AcDbEntity
8
1
62
256
6
ByLayer
370
18
48
1
60
0
100
AcDbLine
10
32.226238
20
-2.5374
30
0
11
37.570285
21
-2.5374
31
0
39
0
210
0
220
0
230
1
0
LINE
5
B1
100
AcDbEntity
8
1
62
256
6
ByLayer
370
18
48
1
60
0
100
AcDbLine
10
41.946159
20
-2.5374
30
0
11
43.667021
21
-2.5374
31
0
39
0
210
0
220
0
230
1
0
LINE
5
B2
100
AcDbEntity
8
1
62
256
6
ByLayer
370
18
48
1
60
0
100
AcDbLine
10
46.66804
20
2.5374
30
0
11
44.98949
21
2.5374
31
0
39
0
210
0
220
0
230
1
0
LINE
5
B3
100
AcDbEntity
8
1
62
256
6
ByLayer
370
18
48
1
60
0
100
AcDbLine
10
40.61879
20
2.5374
30
0
11
38.802258
21
2.5374
31
0
39
0
210
0
220
0
230
1
0
LINE
5
B4
100
AcDbEntity
8
1
62
256
6
ByLayer
370
18
48
1
60
0
100
AcDbLine
10
36.01594
20
2.5374
30
0
11
32.226238
21
2.5374
31
0
39
0
210
0
220
0
230
1
0
LINE
5
B5
100
AcDbEntity
8
1
62
256
6
ByLayer
370
18
48
1
60
0
100
AcDbLine
10
32.035225
20
2.554111
30
0
11
28.153864
21
3.2385
31
0
39
0
210
0
220
0
230
1
0
LINE
5
B6
100
AcDbEntity
8
1
62
256
6
ByLayer
370
18
48
1
60
0
100
AcDbLine
10
28.153864
20
-3.2385
30
0
11
32.035225
21
-2.554111
31
0
39
0
210
0
220
0
230
1
0
LINE
5
B7
100
AcDbEntity
8
SK1
62
256
6
ByLayer
370
18
48
1
60
0
100
AcDbLine
10
-22.87
20
-2.10896
30
0
11
-22.55396
21
-2.425
31
0
39
0
210
0
220
0
230
1
0
LINE
5
B8
100
AcDbEntity
8
SK1
62
256
6
ByLayer
370
18
48
1
60
0
100
AcDbLine
10
-22.55396
20
2.425
30
0
11
-22.87
21
2.10896
31
0
39
0
210
0
220
0
230
1
0
LINE
5
B9
100
AcDbEntity
8
SK1
62
256
6
ByLayer
370
18
48
1
60
0
100
AcDbLine
10
-14.213
20
3.10896
30
0
11
-14.31604
21
3.10896
31
0
39
0
210
0
220
0
230
1
0
LINE
5
BA
100
AcDbEntity
8
SK1
62
256
6
ByLayer
370
18
48
1
60
0
100
AcDbLine
10
-14.31604
20
-3.10896
30
0
11
-14.213
21
-3.10896
31
0
39
0
210
0
220
0
230
1
0
LINE
5
BB
100
AcDbEntity
8
SK1
62
256
6
ByLayer
370
18
48
1
60
0
100
AcDbLine
10
0
20
3.2385
30
0
11
-14.08346
21
3.2385
31
0
39
0
210
0
220
0
230
1
0
LINE
5
BC
100
AcDbEntity
8
SK1
62
256
6
ByLayer
370
18
48
1
60
0
100
AcDbLine
10
-14.08346
20
-3.2385
30
0
11
0
21
-3.2385
31
0
39
0
210
0
220
0
230
1
0
LINE
5
BD
100
AcDbEntity
8
SK1
62
256
6
ByLayer
370
18
48
1
60
0
100
AcDbLine
10
-14.213
20
-3.10896
30
0
11
-14.08346
21
-3.2385
31
0
39
0
210
0
220
0
230
1
0
LINE
5
BE
100
AcDbEntity
8
SK1
62
256
6
ByLayer
370
18
48
1
60
0
100
AcDbLine
10
-14.08346
20
3.2385
30
0
11
-14.213
21
3.10896
31
0
39
0
210
0
220
0
230
1
0
LINE
5
BF
100
AcDbEntity
8
SK2
62
256
6
ByLayer
370
13
48
1
60
0
100
AcDbLine
10
16.88
20
61.788694
30
0
11
16.88
21
-11.9885
31
0
39
0
210
0
220
0
230
1
0
LINE
5
C1
100
AcDbEntity
8
SK2
62
256
6
ByLayer
370
13
48
1
60
0
100
AcDbLine
10
16.7175
20
3.2385
30
0
11
18.88
21
3.2385
31
0
39
0
210
0
220
0
230
1
0
LINE
5
C2
100
AcDbEntity
8
SK2
62
256
6
ByLayer
370
13
48
1
60
0
100
AcDbLine
10
16.7175
20
-3.2385
30
0
11
18.88
21
-3.2385
31
0
39
0
210
0
220
0
230
1
0
LINE
5
C3
100
AcDbEntity
8
1
62
256
6
ByLayer
370
18
48
1
60
1
100
AcDbLine
10
16.88
20
3.2385
30
0
11
16.419216
21
6.738498
31
0
39
0
210
0
220
0
230
1
0
LINE
5
C4
100
AcDbEntity
8
1
62
256
6
ByLayer
370
18
48
1
60
1
100
AcDbLine
10
16.419216
20
6.738498
30
0
11
17.340784
21
6.738502
31
0
39
0
210
0
220
0
230
1
0
LINE
5
C5
100
AcDbEntity
8
1
62
256
6
ByLayer
370
18
48
1
60
1
100
AcDbLine
10
17.340784
20
6.738502
30
0
11
16.88
21
3.2385
31
0
39
0
210
0
220
0
230
1
0
LINE
5
C6
100
AcDbEntity
8
1
62
256
6
ByLayer
370
18
48
1
60
1
100
AcDbLine
10
16.88
20
-3.2385
30
0
11
17.340784
21
-6.738498
31
0
39
0
210
0
220
0
230
1
0
LINE
5
C7
100
AcDbEntity
8
1
62
256
6
ByLayer
370
18
48
1
60
1
100
AcDbLine
10
17.340784
20
-6.738498
30
0
11
16.419216
21
-6.738502
31
0
39
0
210
0
220
0
230
1
0
LINE
5
C8
100
AcDbEntity
8
1
62
256
6
ByLayer
370
18
48
1
60
1
100
AcDbLine
10
16.419216
20
-6.738502
30
0
11
16.88
21
-3.2385
31
0
39
0
210
0
220
0
230
1
0
LINE
5
1D6
100
AcDbEntity
8
1
62
256
6
ByLayer
370
18
48
1
60
1
100
AcDbLine
10
16.88
20
3.2385
30
0
11
16.419216
21
6.738498
31
0
39
0
210
0
220
0
230
1
0
LINE
5
1D7
100
AcDbEntity
8
1
62
256
6
ByLayer
370
18
48
1
60
1
100
AcDbLine
10
16.419216
20
6.738498
30
0
11
17.340784
21
6.738502
31
0
39
0
210
0
220
0
230
1
0
LINE
5
1D8
100
AcDbEntity
8
1
62
256
6
ByLayer
370
18
48
1
60
1
100
AcDbLine
10
17.340784
20
6.738502
30
0
11
16.88
21
3.2385
31
0
39
0
210
0
220
0
230
1
0
LINE
5
1DA
100
AcDbEntity
8
1
62
256
6
ByLayer
370
18
48
1
60
1
100
AcDbLine
10
16.88
20
-3.2385
30
0
11
17.340784
21
-6.738498
31
0
39
0
210
0
220
0
230
1
0
LINE
5
1DB
100
AcDbEntity
8
1
62
256
6
ByLayer
370
18
48
1
60
1
100
AcDbLine
10
17.340784
20
-6.738498
30
0
11
16.419216
21
-6.738502
31
0
39
0
210
0
220
0
230
1
0
LINE
5
1DC
100
AcDbEntity
8
1
62
256
6
ByLayer
370
18
48
1
60
1
100
AcDbLine
10
16.419216
20
-6.738502
30
0
11
16.88
21
-3.2385
31
0
39
0
210
0
220
0
230
1
0
MTEXT
5
1D1
100
AcDbEntity
8
SK2
62
256
6
ByLayer
370
18
48
1
60
0
100
AcDbMText
10
15.315366
20
13.696344
30
0
210
0
220
0
230
1
1
%%c
40
3.5
41
0
44
1.084337
50
90
71
7
72
5
7
iso_b_vert
0
MTEXT
5
1D4
100
AcDbEntity
8
SK2
62
256
6
ByLayer
370
18
48
1
60
0
100
AcDbMText
10
15.315366
20
35.367398
30
0
210
0
220
0
230
1
1
\W0.8220;ASME-B94.9
40
3.5
41
0
44
1.084337
50
90
71
7
72
5
7
iso_b_vert
0
MTEXT
5
1D5
100
AcDbEntity
8
SK2
62
256
6
ByLayer
370
18
48
1
60
0
100
AcDbMText
10
15.315366
20
20.669
30
0
210
0
220
0
230
1
1
\W0.7694;6.477
40
3.5
41
0
44
1.084337
50
90
71
7
72
5
7
iso_b_vert
0
MTEXT
5
1DE
100
AcDbEntity
8
SK6
62
256
6
ByLayer
370
18
48
1
60
0
100
AcDbMText
10
24.705293
20
-68.614886
30
0
210
0
220
0
230
1
1
\W0.7697;T300-PM100AF-1/4 P1PM
40
3
41
0
44
1.084337
50
0
71
7
72
5
7
iso_b_vert
0
HATCH
5
1D9
100
AcDbEntity
8
SK2
62
256
6
ByLayer
370
13
48
1
60
0
100
AcDbHatch
10
0
20
0
30
0
210
0
220
0
230
1
2
ANSI31
70
0
71
0
91
1
92
5
93
3
72
1
10
16.88
20
3.23850000000002
11
16.4192162584472
21
6.73849830744683
72
1
10
16.4192162584472
20
6.73849830744683
11
17.3407837415528
21
6.7385016925532
72
1
10
17.3407837415528
20
6.7385016925532
11
16.88
21
3.23850000000002
97
0
75
0
76
1
52
0
41
0.0062
77
0
78
1
53
45
43
0
44
0
45
-0.0139193969876572
46
0.0139193969876572
79
0
47
0
98
1
10
0
20
0
0
HATCH
5
1DD
100
AcDbEntity
8
SK2
62
256
6
ByLayer
370
13
48
1
60
0
100
AcDbHatch
10
0
20
0
30
0
210
0
220
0
230
1
2
ANSI31
70
0
71
0
91
1
92
5
93
3
72
1
10
16.88
20
-3.23849999999999
11
17.3407837415528
21
-6.7384983074468
72
1
10
17.3407837415528
20
-6.7384983074468
11
16.4192162584472
21
-6.73850169255317
72
1
10
16.4192162584472
20
-6.73850169255317
11
16.88
21
-3.23849999999999
97
0
75
0
76
1
52
0
41
0.0062
77
0
78
1
53
45
43
0
44
0
45
-0.0139193969876572
46
0.0139193969876572
79
0
47
0
98
1
10
0
20
0
0
DIMENSION
5
1E1
100
AcDbEntity
8
SK2
62
256
6
ByLayer
370
18
48
1
60
0
100
AcDbDimension
2
_U0
10
57.13
20
-51.322446
30
0
11
17.13
21
-51.322446
31
0
70
32
71
1
72
1
41
1
210
0
220
0
230
1
3
Standard
100
AcDbAlignedDimension
13
-22.87
23
0
33
0
14
57.13
24
0
34
0
50
0
100
AcDbRotatedDimension
1001
ACAD
1000
DSTYLE
1002
{
1070
   371
1070
    13
1070
   372
1070
    13
1070
     3
1000

1070
   170
1070
     0
1070
   144
1040
1.0
1070
   277
1070
     2
1070
   284
1070
     8
1070
   278
1070
    46
1070
   146
1040
1.0
1070
   345
1005
16
1070
   347
1005
16
1070
   346
1005
16
1070
   344
1005
0
1070
   343
1005
0
1070
   172
1070
     1
1070
    76
1070
     0
1070
    75
1070
     0
1070
   282
1070
     0
1070
   281
1070
     0
1070
    71
1070
     0
1070
    74
1070
     0
1070
   279
1070
     0
1070
   173
1070
     1
1070
   340
1005
1D2
1070
   271
1070
     2
1070
   272
1070
     2
1070
    77
1070
     1
1070
    73
1070
     1
1070
   171
1070
     3
1070
   274
1070
     4
1070
   177
1070
     2
1070
   176
1070
     2
1070
   178
1070
     2
1070
    78
1070
     8
1070
    48
1040
-0.1
1070
    41
1040
3.5
1070
   147
1040
1.75
1070
    42
1040
1.5875
1070
    44
1040
2.0
1070
   140
1040
3.5
1002
}
1001
ACAD_DSTYLE_DIM_LINETYPE
1070
   380
1005
16
1001
ACAD_DSTYLE_DIM_EXT1_LINETYPE
1070
   381
1005
16
1001
ACAD_DSTYLE_DIM_EXT2_LINETYPE
1070
   382
1005
16
0
DIMENSION
5
1FA
100
AcDbEntity
8
SK2
62
256
6
ByLayer
370
18
48
1
60
0
100
AcDbDimension
2
_U1
10
32.13
20
-43.322446
30
0
11
44.63
21
-43.322446
31
0
70
32
71
1
72
1
41
1
210
0
220
0
230
1
3
Standard
100
AcDbAlignedDimension
13
57.13
23
0
33
0
14
32.13
24
0
34
0
50
0
100
AcDbRotatedDimension
1001
ACAD
1000
DSTYLE
1002
{
1070
   371
1070
    13
1070
   372
1070
    13
1070
     3
1000

1070
   170
1070
     0
1070
   144
1040
1.0
1070
   277
1070
     2
1070
   284
1070
     8
1070
   278
1070
    46
1070
   146
1040
1.0
1070
   345
1005
16
1070
   347
1005
16
1070
   346
1005
16
1070
   344
1005
0
1070
   343
1005
0
1070
   172
1070
     1
1070
    76
1070
     0
1070
    75
1070
     0
1070
   282
1070
     0
1070
   281
1070
     0
1070
    71
1070
     0
1070
    74
1070
     0
1070
   279
1070
     0
1070
   173
1070
     1
1070
   340
1005
1D2
1070
   271
1070
     2
1070
   272
1070
     2
1070
    77
1070
     1
1070
    73
1070
     1
1070
   171
1070
     3
1070
   274
1070
     4
1070
   177
1070
     2
1070
   176
1070
     2
1070
   178
1070
     2
1070
    78
1070
     8
1070
    48
1040
-0.1
1070
    41
1040
3.5
1070
   147
1040
1.75
1070
    42
1040
1.5875
1070
    44
1040
2.0
1070
   140
1040
3.5
1002
}
1001
ACAD_DSTYLE_DIM_LINETYPE
1070
   380
1005
16
1001
ACAD_DSTYLE_DIM_EXT1_LINETYPE
1070
   381
1005
16
1001
ACAD_DSTYLE_DIM_EXT2_LINETYPE
1070
   382
1005
16
0
DIMENSION
5
212
100
AcDbEntity
8
2
62
256
6
ByLayer
370
18
48
1
60
0
100
AcDbDimension
2
_U2
10
35.88
20
-35.322446
30
0
11
46.505
21
-35.322446
31
0
70
32
71
1
72
1
41
1
210
0
220
0
230
1
3
Standard
100
AcDbAlignedDimension
13
57.13
23
0
33
0
14
35.88
24
0
34
0
50
0
100
AcDbRotatedDimension
1001
ACAD
1000
DSTYLE
1002
{
1070
   371
1070
    13
1070
   372
1070
    13
1070
     3
1000

1070
   170
1070
     0
1070
   144
1040
1.0
1070
   277
1070
     2
1070
   284
1070
     8
1070
   278
1070
    46
1070
   146
1040
1.0
1070
   345
1005
16
1070
   347
1005
16
1070
   346
1005
16
1070
   344
1005
0
1070
   343
1005
0
1070
   172
1070
     1
1070
    76
1070
     0
1070
    75
1070
     0
1070
   282
1070
     0
1070
   281
1070
     0
1070
    71
1070
     0
1070
    74
1070
     0
1070
   279
1070
     0
1070
   173
1070
     1
1070
   340
1005
1D2
1070
   271
1070
     2
1070
   272
1070
     2
1070
    77
1070
     1
1070
    73
1070
     1
1070
   171
1070
     3
1070
   274
1070
     4
1070
   177
1070
     2
1070
   176
1070
     2
1070
   178
1070
     2
1070
    78
1070
     8
1070
    48
1040
-0.1
1070
    41
1040
3.5
1070
   147
1040
1.75
1070
    42
1040
1.5875
1070
    44
1040
2.0
1070
   140
1040
3.5
1002
}
1001
ACAD_DSTYLE_DIM_LINETYPE
1070
   380
1005
16
1001
ACAD_DSTYLE_DIM_EXT1_LINETYPE
1070
   381
1005
16
1001
ACAD_DSTYLE_DIM_EXT2_LINETYPE
1070
   382
1005
16
0
DIMENSION
5
22B
100
AcDbEntity
8
SK2
62
256
6
ByLayer
370
18
48
1
60
0
100
AcDbDimension
2
_U3
10
47.13
20
-27.322446
30
0
11
52.13
21
-27.322446
31
0
70
32
71
1
72
1
41
1
210
0
220
0
230
1
3
Standard
100
AcDbAlignedDimension
13
57.13
23
0
33
0
14
47.13
24
0
34
0
50
0
100
AcDbRotatedDimension
1001
ACAD
1000
DSTYLE
1002
{
1070
   371
1070
    13
1070
   372
1070
    13
1070
     3
1000

1070
   170
1070
     0
1070
   144
1040
1.0
1070
   277
1070
     2
1070
   284
1070
     8
1070
   278
1070
    46
1070
   146
1040
1.0
1070
   345
1005
16
1070
   347
1005
16
1070
   346
1005
16
1070
   344
1005
0
1070
   343
1005
0
1070
   172
1070
     1
1070
    76
1070
     0
1070
    75
1070
     0
1070
   282
1070
     0
1070
   281
1070
     0
1070
    71
1070
     0
1070
    74
1070
     0
1070
   279
1070
     0
1070
   173
1070
     1
1070
   340
1005
1D2
1070
   271
1070
     2
1070
   272
1070
     2
1070
    77
1070
     1
1070
    73
1070
     1
1070
   171
1070
     3
1070
   274
1070
     4
1070
   177
1070
     2
1070
   176
1070
     2
1070
   178
1070
     2
1070
    78
1070
     8
1070
    48
1040
-0.1
1070
    41
1040
3.5
1070
   147
1040
1.75
1070
    42
1040
1.5875
1070
    44
1040
2.0
1070
   140
1040
3.5
1002
}
1001
ACAD_DSTYLE_DIM_LINETYPE
1070
   380
1005
16
1001
ACAD_DSTYLE_DIM_EXT1_LINETYPE
1070
   381
1005
16
1001
ACAD_DSTYLE_DIM_EXT2_LINETYPE
1070
   382
1005
16
0
DIMENSION
5
244
100
AcDbEntity
8
SK2
62
256
6
ByLayer
370
18
48
1
60
0
100
AcDbDimension
2
_U4
10
54.64
20
6.685524
30
0
11
55.885
21
6.685524
31
0
70
32
71
1
72
1
41
1
210
0
220
0
230
1
3
Standard
100
AcDbAlignedDimension
13
57.13
23
0
33
0
14
54.64
24
0
34
0
50
0
100
AcDbRotatedDimension
1001
ACAD
1000
DSTYLE
1002
{
1070
   371
1070
    13
1070
   372
1070
    13
1070
     3
1000

1070
   170
1070
     0
1070
   144
1040
1.0
1070
   277
1070
     2
1070
   284
1070
     8
1070
   278
1070
    46
1070
   146
1040
1.0
1070
   345
1005
16
1070
   347
1005
16
1070
   346
1005
16
1070
   344
1005
0
1070
   343
1005
0
1070
   172
1070
     1
1070
    76
1070
     0
1070
    75
1070
     0
1070
   282
1070
     0
1070
   281
1070
     0
1070
    71
1070
     0
1070
    74
1070
     0
1070
   279
1070
     0
1070
   173
1070
     1
1070
   340
1005
1D2
1070
   271
1070
     2
1070
   272
1070
     2
1070
    77
1070
     1
1070
    73
1070
     1
1070
   171
1070
     3
1070
   274
1070
     4
1070
   177
1070
     2
1070
   176
1070
     2
1070
   178
1070
     2
1070
    78
1070
     8
1070
    48
1040
-0.1
1070
    41
1040
3.5
1070
   147
1040
1.75
1070
    42
1040
1.5875
1070
    44
1040
2.0
1070
   140
1040
3.5
1002
}
1001
ACAD_DSTYLE_DIM_LINETYPE
1070
   380
1005
16
1001
ACAD_DSTYLE_DIM_EXT1_LINETYPE
1070
   381
1005
16
1001
ACAD_DSTYLE_DIM_EXT2_LINETYPE
1070
   382
1005
16
0
DIMENSION
5
25E
100
AcDbEntity
8
2
62
256
6
ByLayer
370
18
48
1
60
0
100
AcDbDimension
2
_U5
10
73.88
20
3.217762
30
0
11
73.88
21
0
31
0
70
32
71
1
72
1
41
1
210
0
220
0
230
1
3
Standard
100
AcDbAlignedDimension
13
57.13
23
-3.217762
33
0
14
57.13
24
3.217762
34
0
50
90
100
AcDbRotatedDimension
1001
ACAD
1000
DSTYLE
1002
{
1070
   371
1070
    13
1070
   372
1070
    13
1070
     3
1000

1070
   170
1070
     0
1070
   144
1040
1.0
1070
   277
1070
     2
1070
   284
1070
     8
1070
   278
1070
    46
1070
   146
1040
1.0
1070
   345
1005
16
1070
   347
1005
16
1070
   346
1005
16
1070
   344
1005
0
1070
   343
1005
0
1070
   172
1070
     1
1070
    76
1070
     0
1070
    75
1070
     0
1070
   282
1070
     0
1070
   281
1070
     0
1070
    71
1070
     0
1070
    74
1070
     0
1070
   279
1070
     0
1070
   173
1070
     1
1070
   340
1005
1D2
1070
   271
1070
     2
1070
   272
1070
     2
1070
    77
1070
     1
1070
    73
1070
     0
1070
   171
1070
     3
1070
   274
1070
     4
1070
   177
1070
     2
1070
   176
1070
     2
1070
   178
1070
     2
1070
    78
1070
     8
1070
    48
1040
-0.1
1070
    41
1040
3.5
1070
   147
1040
1.75
1070
    42
1040
1.5875
1070
    44
1040
2.0
1070
   140
1040
3.5
1002
}
1001
ACAD_DSTYLE_DIM_LINETYPE
1070
   380
1005
16
1001
ACAD_DSTYLE_DIM_EXT1_LINETYPE
1070
   381
1005
16
1001
ACAD_DSTYLE_DIM_EXT2_LINETYPE
1070
   382
1005
16
0
ENDSEC
0
SECTION
2
OBJECTS
0
DICTIONARY
5
2e9
330
0
100
AcDbDictionary
280
0
281
1
3
ACAD_GROUP
350
2ea
3
ACAD_MLINESTYLE
350
2eb
0
DICTIONARY
5
2ea
330
0
100
AcDbDictionary
280
0
281
1
0
DICTIONARY
5
2eb
330
0
100
AcDbDictionary
280
0
281
1
3
Standard
350
18
0
MLINESTYLE
5
18
330
2eb
100
AcDbMlineStyle
2
Standard
70
0
3

62
256
51
90
52
90
71
2
49
-0.5
62
256
6
ByLayer
49
0.5
62
256
6
ByLayer
0
RASTERVARIABLES
5
2d7
330

100
AcDbRasterVariables
90
0
70
1
71
1
72
1
0
ENDSEC
0
EOF
