0
SECTION
2
HEADER
9
$ACADVER
1
AC1015
9
$DWGCODEPAGE
3
ANSI_1252
9
$HANDSEED
5
2e4
9
$ANGBASE
50
0
9
$ANGDIR
70
0
9
$ATTMODE
70
1
9
$AUNITS
70
0
9
$AUPREC
70
0
9
$CECOLOR
62
256
9
$CELTSCALE
40
1
9
$CELTYPE
6
ByLayer
9
$CELWEIGHT
370
18
9
$CLAYER
8
0
9
$CMLJUST
70
0
9
$CMLSCALE
40
1
9
$CMLSTYLE
2
Standard
9
$DIMSTYLE
2
Standard
9
$TEXTSIZE
40
0.2
9
$TEXTSTYLE
7
Standard
9
$LUNITS
70
2
9
$LUPREC
70
4
9
$EXTNAMES
290
1
9
$INSUNITS
70
4
9
$LTSCALE
40
1
9
$LWDISPLAY
290
1
9
$PDMODE
70
0
9
$PDSIZE
40
0
9
$PLINEGEN
70
0
0
ENDSEC
0
SECTION
2
CLASSES
0
CLASS
1
RASTERVARIABLES
2
AcDbRasterVariables
3
ISM
90
0
280
0
281
0
0
ENDSEC
0
SECTION
2
TABLES
0
TABLE
2
VPORT
5
2da
100
AcDbSymbolTable
0
VPORT
5
1
100
AcDbSymbolTableRecord
100
AcDbViewportTableRecord
2
*Active
70
0
10
0
20
0
11
1
21
1
12
-1
22
1
13
0
23
0
14
0.5
24
0.5
15
10
25
10
16
0
26
0
36
1
17
0
27
0
37
0
0
ENDTAB
0
TABLE
2
LTYPE
5
2db
100
AcDbSymbolTable
0
LTYPE
5
14
100
AcDbSymbolTableRecord
100
AcDbLinetypeTableRecord
70
0
2
ByBlock
3

72
65
73
0
40
0
0
LTYPE
5
15
100
AcDbSymbolTableRecord
100
AcDbLinetypeTableRecord
70
0
2
ByLayer
3

72
65
73
0
40
0
0
LTYPE
5
16
100
AcDbSymbolTableRecord
100
AcDbLinetypeTableRecord
70
0
2
Continuous
3
Solid line
72
65
73
0
40
0
0
LTYPE
5
6E
100
AcDbSymbolTableRecord
100
AcDbLinetypeTableRecord
70
0
2
CENTER
3
____ _ ____ _ ____ _ ____
72
65
73
4
40
47.5
49
22
74
0
49
-8.5
74
0
49
8.5
74
0
49
-8.5
74
0
0
LTYPE
5
6F
100
AcDbSymbolTableRecord
100
AcDbLinetypeTableRecord
70
0
2
DASHED
3
__ __ __ __ __ __ __ __ __
72
65
73
2
40
25.72
49
12.86
74
0
49
-12.86
74
0
0
ENDTAB
0
TABLE
2
LAYER
5
2dc
100
AcDbSymbolTable
0
LAYER
5
10
100
AcDbSymbolTableRecord
100
AcDbLayerTableRecord
2
0
70
0
62
7
6
Continuous
290
1
370
-3
390
0
0
LAYER
5
71
100
AcDbSymbolTableRecord
100
AcDbLayerTableRecord
2
80
70
0
62
-6
6
Continuous
290
1
370
-3
390
0
0
LAYER
5
73
100
AcDbSymbolTableRecord
100
AcDbLayerTableRecord
2
81
70
0
62
-3
6
Continuous
290
1
370
-3
390
0
0
LAYER
5
75
100
AcDbSymbolTableRecord
100
AcDbLayerTableRecord
2
1
70
0
62
4
6
Continuous
290
1
370
-3
390
0
0
LAYER
5
87
100
AcDbSymbolTableRecord
100
AcDbLayerTableRecord
2
4
70
0
62
-2
6
CENTER
290
1
370
-3
390
0
0
LAYER
5
1D3
100
AcDbSymbolTableRecord
100
AcDbLayerTableRecord
2
Defpoints
70
0
62
7
6
Continuous
290
0
370
-3
390
0
0
LAYER
5
210
100
AcDbSymbolTableRecord
100
AcDbLayerTableRecord
2
2
70
0
62
7
6
Continuous
290
1
370
-3
390
0
0
LAYER
5
2c6
100
AcDbSymbolTableRecord
100
AcDbLayerTableRecord
2
SK4
70
0
62
2
6
CENTER
290
1
370
-3
390
0
0
LAYER
5
2c7
100
AcDbSymbolTableRecord
100
AcDbLayerTableRecord
2
SK1
70
0
62
4
6
Continuous
290
1
370
-3
390
0
0
LAYER
5
2c8
100
AcDbSymbolTableRecord
100
AcDbLayerTableRecord
2
SK2
70
0
62
7
6
Continuous
290
1
370
-3
390
0
0
LAYER
5
2c9
100
AcDbSymbolTableRecord
100
AcDbLayerTableRecord
2
SK6
70
0
62
5
6
Continuous
290
1
370
-3
390
0
0
ENDTAB
0
TABLE
2
STYLE
5
2dd
100
AcDbSymbolTable
0
STYLE
5
11
100
AcDbSymbolTableRecord
100
AcDbTextStyleTableRecord
2
Standard
3
txt
70
0
71
0
40
0
41
1
42
0
50
0
0
STYLE
5
1C1
100
AcDbSymbolTableRecord
100
AcDbTextStyleTableRecord
2
iso_b_vert
3
simplex.shx
70
0
71
0
40
0
41
1
42
0
50
0
0
STYLE
5
1C2
100
AcDbSymbolTableRecord
100
AcDbTextStyleTableRecord
2
DWGDirectTextStyle
3
simplex
70
0
71
0
40
0
41
1
42
0
50
0
0
ENDTAB
0
TABLE
2
DIMSTYLE
5
2de
100
AcDbSymbolTable
100
AcDbDimStyleTable
0
DIMSTYLE
105
27
100
AcDbSymbolTableRecord
100
AcDbDimStyleTableRecord
2
Standard
70
0
3
<>
41
0.18
42
0.0625
44
0.18
140
0.18
147
0.09
73
0
74
0
77
1
271
2
275
0
278
52
280
0
340
11
0
ENDTAB
0
TABLE
2
VIEW
5
2df
100
AcDbSymbolTable
0
ENDTAB
0
TABLE
2
UCS
5
2e0
100
AcDbSymbolTable
0
ENDTAB
0
TABLE
2
APPID
5
2e1
100
AcDbSymbolTable
0
APPID
5
12
100
AcDbSymbolTableRecord
100
AcDbRegAppTableRecord
2
ACAD
70
0
0
APPID
5
1CF
100
AcDbSymbolTableRecord
100
AcDbRegAppTableRecord
2
ACAD_DSTYLE_DIMBREAK
70
0
0
APPID
5
285
100
AcDbSymbolTableRecord
100
AcDbRegAppTableRecord
2
ACAD_DSTYLE_DIM_LINETYPE
70
0
0
APPID
5
286
100
AcDbSymbolTableRecord
100
AcDbRegAppTableRecord
2
ACAD_DSTYLE_DIM_EXT1_LINETYPE
70
0
0
APPID
5
287
100
AcDbSymbolTableRecord
100
AcDbRegAppTableRecord
2
ACAD_DSTYLE_DIM_EXT2_LINETYPE
70
0
0
APPID
5
2C2
100
AcDbSymbolTableRecord
100
AcDbRegAppTableRecord
2
ACAD_MLEADERVER
70
0
0
ENDTAB
0
TABLE
2
BLOCK_RECORD
5
2e2
100
AcDbSymbolTable
0
BLOCK_RECORD
5
1F
100
AcDbSymbolTableRecord
100
AcDbBlockTableRecord
2
*Model_Space
340
0
70
0
0
BLOCK_RECORD
5
1B
100
AcDbSymbolTableRecord
100
AcDbBlockTableRecord
2
*Paper_Space
340
0
70
0
0
BLOCK_RECORD
5
23
100
AcDbSymbolTableRecord
100
AcDbBlockTableRecord
2
*Paper_Space0
340
0
70
0
0
BLOCK_RECORD
5
1D4
100
AcDbSymbolTableRecord
100
AcDbBlockTableRecord
2
*D1
340
0
70
0
0
BLOCK_RECORD
5
1E0
100
AcDbSymbolTableRecord
100
AcDbBlockTableRecord
2
_U0
340
0
70
0
0
BLOCK_RECORD
5
1EC
100
AcDbSymbolTableRecord
100
AcDbBlockTableRecord
2
*D3
340
0
70
0
0
BLOCK_RECORD
5
1F8
100
AcDbSymbolTableRecord
100
AcDbBlockTableRecord
2
_U1
340
0
70
0
0
BLOCK_RECORD
5
204
100
AcDbSymbolTableRecord
100
AcDbBlockTableRecord
2
*D5
340
0
70
0
0
BLOCK_RECORD
5
211
100
AcDbSymbolTableRecord
100
AcDbBlockTableRecord
2
_U2
340
0
70
0
0
BLOCK_RECORD
5
21D
100
AcDbSymbolTableRecord
100
AcDbBlockTableRecord
2
*D7
340
0
70
0
0
BLOCK_RECORD
5
22A
100
AcDbSymbolTableRecord
100
AcDbBlockTableRecord
2
_U3
340
0
70
0
0
BLOCK_RECORD
5
236
100
AcDbSymbolTableRecord
100
AcDbBlockTableRecord
2
*D9
340
0
70
0
0
BLOCK_RECORD
5
243
100
AcDbSymbolTableRecord
100
AcDbBlockTableRecord
2
_U4
340
0
70
0
0
BLOCK_RECORD
5
250
100
AcDbSymbolTableRecord
100
AcDbBlockTableRecord
2
*D11
340
0
70
0
0
BLOCK_RECORD
5
25D
100
AcDbSymbolTableRecord
100
AcDbBlockTableRecord
2
_U5
340
0
70
0
0
ENDTAB
0
ENDSEC
0
SECTION
2
BLOCKS
0
BLOCK
5
20
100
AcDbEntity
8
0
100
AcDbBlockBegin
2
*Model_Space
70
0
10
0
20
0
30
0
3
*Model_Space
0
ENDBLK
5
21
100
AcDbEntity
8
0
100
AcDbBlockEnd
0
BLOCK
5
1C
100
AcDbEntity
8
0
100
AcDbBlockBegin
2
*Paper_Space
70
0
10
0
20
0
30
0
3
*Paper_Space
0
ENDBLK
5
1D
100
AcDbEntity
8
0
100
AcDbBlockEnd
0
BLOCK
5
24
100
AcDbEntity
8
0
100
AcDbBlockBegin
2
*Paper_Space0
70
0
10
0
20
0
30
0
3
*Paper_Space0
0
ENDBLK
5
25
100
AcDbEntity
8
0
100
AcDbBlockEnd
0
BLOCK
5
1D5
100
AcDbEntity
8
0
100
AcDbBlockBegin
2
*D1
70
1
10
0
20
0
30
0
3
*D1
0
LINE
5
1D7
100
AcDbEntity
8
0
62
256
6
ByLayer
370
-2
48
1
60
0
100
AcDbLine
10
-28.18
20
-1.5875
30
0
11
-28.18
21
-53.520189
31
0
39
0
210
0
220
0
230
1
0
LINE
5
1D8
100
AcDbEntity
8
0
62
256
6
ByLayer
370
-2
48
1
60
0
100
AcDbLine
10
71.82
20
-1.5875
30
0
11
71.82
21
-53.520189
31
0
39
0
210
0
220
0
230
1
0
LINE
5
1D9
100
AcDbEntity
8
0
62
256
6
ByLayer
370
-2
48
1
60
0
100
AcDbLine
10
-24.68
20
-51.520189
30
0
11
68.32
21
-51.520189
31
0
39
0
210
0
220
0
230
1
0
SOLID
5
1DA
100
AcDbEntity
8
0
62
256
6
ByLayer
370
-1
48
1
60
0
100
AcDbTrace
10
-24.68
20
-50.936856
30
0
11
-24.68
21
-52.103522
31
0
12
-28.18
22
-51.520189
32
0
13
-28.18
23
-51.520189
33
0
39
0
210
0
220
0
230
1
0
SOLID
5
1DB
100
AcDbEntity
8
0
62
256
6
ByLayer
370
-1
48
1
60
0
100
AcDbTrace
10
68.32
20
-52.103522
30
0
11
68.32
21
-50.936856
31
0
12
71.82
22
-51.520189
32
0
13
71.82
23
-51.520189
33
0
39
0
210
0
220
0
230
1
0
MTEXT
5
1DC
100
AcDbEntity
8
0
62
256
6
ByLayer
370
18
48
1
60
0
100
AcDbMText
10
21.82
20
-44.520189
30
0
210
0
220
0
230
1
1
\A1;100
40
3.5
41
0
44
1
50
0
71
5
72
5
7
iso_b_vert
0
POINT
5
1DD
100
AcDbEntity
8
Defpoints
62
0
6
ByLayer
370
-1
48
1
60
0
100
AcDbPoint
10
-28.18
20
0
30
0
39
0
210
0
220
0
230
1
50
360
0
POINT
5
1DE
100
AcDbEntity
8
Defpoints
62
0
6
ByLayer
370
-1
48
1
60
0
100
AcDbPoint
10
71.82
20
0
30
0
39
0
210
0
220
0
230
1
50
360
0
POINT
5
1DF
100
AcDbEntity
8
Defpoints
62
0
6
ByLayer
370
-1
48
1
60
0
100
AcDbPoint
10
71.82
20
-51.520189
30
0
39
0
210
0
220
0
230
1
50
360
0
ENDBLK
5
1D6
100
AcDbEntity
8
0
100
AcDbBlockEnd
0
BLOCK
5
1E7
100
AcDbEntity
8
0
100
AcDbBlockBegin
2
_U0
70
0
10
0
20
0
30
0
3
_U0
0
MTEXT
5
1E1
100
AcDbEntity
8
SK2
62
256
6
ByLayer
370
18
48
1
60
0
100
AcDbMText
10
17.028001
20
-50.487556
30
0
210
0
220
0
230
1
1
\W0.6864;100.0
40
3.5
41
0
44
1.084337
50
0
71
7
72
5
7
iso_b_vert
0
LINE
5
1E2
100
AcDbEntity
8
SK2
62
256
6
ByLayer
370
13
48
1
60
0
100
AcDbLine
10
-28.18
20
-1.5875
30
0
11
-28.18
21
-53.520189
31
0
39
0
210
0
220
0
230
1
0
LINE
5
1E3
100
AcDbEntity
8
SK2
62
256
6
ByLayer
370
13
48
1
60
0
100
AcDbLine
10
71.82
20
-1.5875
30
0
11
71.82
21
-53.520189
31
0
39
0
210
0
220
0
230
1
0
LINE
5
1E4
100
AcDbEntity
8
SK2
62
256
6
ByLayer
370
13
48
1
60
0
100
AcDbLine
10
-28.18
20
-51.520189
30
0
11
71.82
21
-51.520189
31
0
39
0
210
0
220
0
230
1
0
SOLID
5
1E5
100
AcDbEntity
8
SK2
62
256
6
ByLayer
370
18
48
1
60
0
100
AcDbTrace
10
-28.18
20
-51.520189
30
0
11
-24.680002
21
-51.059405
31
0
12
-24.679998
22
-51.980973
32
0
13
-24.679998
23
-51.980973
33
0
39
0
210
0
220
0
230
1
0
SOLID
5
1E6
100
AcDbEntity
8
SK2
62
256
6
ByLayer
370
18
48
1
60
0
100
AcDbTrace
10
71.82
20
-51.520189
30
0
11
68.320002
21
-51.980973
31
0
12
68.319998
22
-51.059405
32
0
13
68.319998
23
-51.059405
33
0
39
0
210
0
220
0
230
1
0
ENDBLK
5
1E8
100
AcDbEntity
8
0
100
AcDbBlockEnd
0
BLOCK
5
1ED
100
AcDbEntity
8
0
100
AcDbBlockBegin
2
*D3
70
1
10
0
20
0
30
0
3
*D3
0
LINE
5
1EF
100
AcDbEntity
8
0
62
256
6
ByLayer
370
-2
48
1
60
0
100
AcDbLine
10
71.82
20
-1.5875
30
0
11
71.82
21
-45.520189
31
0
39
0
210
0
220
0
230
1
0
LINE
5
1F0
100
AcDbEntity
8
0
62
256
6
ByLayer
370
-2
48
1
60
0
100
AcDbLine
10
33.82
20
-1.5875
30
0
11
33.82
21
-45.520189
31
0
39
0
210
0
220
0
230
1
0
LINE
5
1F1
100
AcDbEntity
8
0
62
256
6
ByLayer
370
-2
48
1
60
0
100
AcDbLine
10
68.32
20
-43.520189
30
0
11
37.32
21
-43.520189
31
0
39
0
210
0
220
0
230
1
0
SOLID
5
1F2
100
AcDbEntity
8
0
62
256
6
ByLayer
370
-1
48
1
60
0
100
AcDbTrace
10
68.32
20
-44.103522
30
0
11
68.32
21
-42.936856
31
0
12
71.82
22
-43.520189
32
0
13
71.82
23
-43.520189
33
0
39
0
210
0
220
0
230
1
0
SOLID
5
1F3
100
AcDbEntity
8
0
62
256
6
ByLayer
370
-1
48
1
60
0
100
AcDbTrace
10
37.32
20
-42.936856
30
0
11
37.32
21
-44.103522
31
0
12
33.82
22
-43.520189
32
0
13
33.82
23
-43.520189
33
0
39
0
210
0
220
0
230
1
0
MTEXT
5
1F4
100
AcDbEntity
8
0
62
256
6
ByLayer
370
18
48
1
60
0
100
AcDbMText
10
52.82
20
-36.520189
30
0
210
0
220
0
230
1
1
\A1;38
40
3.5
41
0
44
1
50
0
71
5
72
5
7
iso_b_vert
0
POINT
5
1F5
100
AcDbEntity
8
Defpoints
62
0
6
ByLayer
370
-1
48
1
60
0
100
AcDbPoint
10
71.82
20
0
30
0
39
0
210
0
220
0
230
1
50
360
0
POINT
5
1F6
100
AcDbEntity
8
Defpoints
62
0
6
ByLayer
370
-1
48
1
60
0
100
AcDbPoint
10
33.82
20
0
30
0
39
0
210
0
220
0
230
1
50
360
0
POINT
5
1F7
100
AcDbEntity
8
Defpoints
62
0
6
ByLayer
370
-1
48
1
60
0
100
AcDbPoint
10
33.82
20
-43.520189
30
0
39
0
210
0
220
0
230
1
50
360
0
ENDBLK
5
1EE
100
AcDbEntity
8
0
100
AcDbBlockEnd
0
BLOCK
5
1FF
100
AcDbEntity
8
0
100
AcDbBlockBegin
2
_U1
70
0
10
0
20
0
30
0
3
_U1
0
MTEXT
5
1F9
100
AcDbEntity
8
SK2
62
256
6
ByLayer
370
18
48
1
60
0
100
AcDbMText
10
48.898301
20
-42.487556
30
0
210
0
220
0
230
1
1
\W0.7346;38.0
40
3.5
41
0
44
1.084337
50
0
71
7
72
5
7
iso_b_vert
0
LINE
5
1FA
100
AcDbEntity
8
SK2
62
256
6
ByLayer
370
13
48
1
60
0
100
AcDbLine
10
71.82
20
-1.5875
30
0
11
71.82
21
-45.520189
31
0
39
0
210
0
220
0
230
1
0
LINE
5
1FB
100
AcDbEntity
8
SK2
62
256
6
ByLayer
370
13
48
1
60
0
100
AcDbLine
10
33.82
20
-1.5875
30
0
11
33.82
21
-45.520189
31
0
39
0
210
0
220
0
230
1
0
LINE
5
1FC
100
AcDbEntity
8
SK2
62
256
6
ByLayer
370
13
48
1
60
0
100
AcDbLine
10
71.82
20
-43.520189
30
0
11
33.82
21
-43.520189
31
0
39
0
210
0
220
0
230
1
0
SOLID
5
1FD
100
AcDbEntity
8
SK2
62
256
6
ByLayer
370
18
48
1
60
0
100
AcDbTrace
10
71.82
20
-43.520189
30
0
11
68.320002
21
-43.980973
31
0
12
68.319998
22
-43.059405
32
0
13
68.319998
23
-43.059405
33
0
39
0
210
0
220
0
230
1
0
SOLID
5
1FE
100
AcDbEntity
8
SK2
62
256
6
ByLayer
370
18
48
1
60
0
100
AcDbTrace
10
33.82
20
-43.520189
30
0
11
37.319998
21
-43.059405
31
0
12
37.320002
22
-43.980973
32
0
13
37.320002
23
-43.980973
33
0
39
0
210
0
220
0
230
1
0
ENDBLK
5
200
100
AcDbEntity
8
0
100
AcDbBlockEnd
0
BLOCK
5
205
100
AcDbEntity
8
0
100
AcDbBlockBegin
2
*D5
70
1
10
0
20
0
30
0
3
*D5
0
LINE
5
207
100
AcDbEntity
8
0
62
256
6
ByLayer
370
-2
48
1
60
0
100
AcDbLine
10
71.82
20
-1.5875
30
0
11
71.82
21
-37.520189
31
0
39
0
210
0
220
0
230
1
0
LINE
5
208
100
AcDbEntity
8
0
62
256
6
ByLayer
370
-2
48
1
60
0
100
AcDbLine
10
39.52
20
-1.5875
30
0
11
39.52
21
-37.520189
31
0
39
0
210
0
220
0
230
1
0
LINE
5
209
100
AcDbEntity
8
0
62
256
6
ByLayer
370
-2
48
1
60
0
100
AcDbLine
10
68.32
20
-35.520189
30
0
11
43.02
21
-35.520189
31
0
39
0
210
0
220
0
230
1
0
SOLID
5
20A
100
AcDbEntity
8
0
62
256
6
ByLayer
370
-1
48
1
60
0
100
AcDbTrace
10
68.32
20
-36.103522
30
0
11
68.32
21
-34.936856
31
0
12
71.82
22
-35.520189
32
0
13
71.82
23
-35.520189
33
0
39
0
210
0
220
0
230
1
0
SOLID
5
20B
100
AcDbEntity
8
0
62
256
6
ByLayer
370
-1
48
1
60
0
100
AcDbTrace
10
43.02
20
-34.936856
30
0
11
43.02
21
-36.103522
31
0
12
39.52
22
-35.520189
32
0
13
39.52
23
-35.520189
33
0
39
0
210
0
220
0
230
1
0
MTEXT
5
20C
100
AcDbEntity
8
0
62
256
6
ByLayer
370
18
48
1
60
0
100
AcDbMText
10
55.67
20
-28.520189
30
0
210
0
220
0
230
1
1
\A1;32.3
40
3.5
41
0
44
1
50
0
71
5
72
5
7
iso_b_vert
0
POINT
5
20D
100
AcDbEntity
8
Defpoints
62
0
6
ByLayer
370
-1
48
1
60
0
100
AcDbPoint
10
71.82
20
0
30
0
39
0
210
0
220
0
230
1
50
360
0
POINT
5
20E
100
AcDbEntity
8
Defpoints
62
0
6
ByLayer
370
-1
48
1
60
0
100
AcDbPoint
10
39.52
20
0
30
0
39
0
210
0
220
0
230
1
50
360
0
POINT
5
20F
100
AcDbEntity
8
Defpoints
62
0
6
ByLayer
370
-1
48
1
60
0
100
AcDbPoint
10
39.52
20
-35.520189
30
0
39
0
210
0
220
0
230
1
50
360
0
ENDBLK
5
206
100
AcDbEntity
8
0
100
AcDbBlockEnd
0
BLOCK
5
218
100
AcDbEntity
8
0
100
AcDbBlockBegin
2
_U2
70
0
10
0
20
0
30
0
3
_U2
0
MTEXT
5
212
100
AcDbEntity
8
2
62
256
6
ByLayer
370
18
48
1
60
0
100
AcDbMText
10
51.748301
20
-34.487556
30
0
210
0
220
0
230
1
1
\W0.7346;32.3
40
3.5
41
0
44
1.084337
50
0
71
7
72
5
7
iso_b_vert
0
LINE
5
213
100
AcDbEntity
8
2
62
256
6
ByLayer
370
13
48
1
60
0
100
AcDbLine
10
71.82
20
-1.5875
30
0
11
71.82
21
-37.520189
31
0
39
0
210
0
220
0
230
1
0
LINE
5
214
100
AcDbEntity
8
2
62
256
6
ByLayer
370
13
48
1
60
0
100
AcDbLine
10
39.52
20
-1.5875
30
0
11
39.52
21
-37.520189
31
0
39
0
210
0
220
0
230
1
0
LINE
5
215
100
AcDbEntity
8
2
62
256
6
ByLayer
370
13
48
1
60
0
100
AcDbLine
10
71.82
20
-35.520189
30
0
11
39.52
21
-35.520189
31
0
39
0
210
0
220
0
230
1
0
SOLID
5
216
100
AcDbEntity
8
2
62
256
6
ByLayer
370
18
48
1
60
0
100
AcDbTrace
10
71.82
20
-35.520189
30
0
11
68.320002
21
-35.980973
31
0
12
68.319998
22
-35.059405
32
0
13
68.319998
23
-35.059405
33
0
39
0
210
0
220
0
230
1
0
SOLID
5
217
100
AcDbEntity
8
2
62
256
6
ByLayer
370
18
48
1
60
0
100
AcDbTrace
10
39.52
20
-35.520189
30
0
11
43.019998
21
-35.059405
31
0
12
43.020002
22
-35.980973
32
0
13
43.020002
23
-35.980973
33
0
39
0
210
0
220
0
230
1
0
ENDBLK
5
219
100
AcDbEntity
8
0
100
AcDbBlockEnd
0
BLOCK
5
21E
100
AcDbEntity
8
0
100
AcDbBlockBegin
2
*D7
70
1
10
0
20
0
30
0
3
*D7
0
LINE
5
220
100
AcDbEntity
8
0
62
256
6
ByLayer
370
-2
48
1
60
0
100
AcDbLine
10
71.82
20
-1.5875
30
0
11
71.82
21
-29.520189
31
0
39
0
210
0
220
0
230
1
0
LINE
5
221
100
AcDbEntity
8
0
62
256
6
ByLayer
370
-2
48
1
60
0
100
AcDbLine
10
55.82
20
-1.5875
30
0
11
55.82
21
-29.520189
31
0
39
0
210
0
220
0
230
1
0
LINE
5
222
100
AcDbEntity
8
0
62
256
6
ByLayer
370
-2
48
1
60
0
100
AcDbLine
10
75.32
20
-27.520189
30
0
11
78.82
21
-27.520189
31
0
39
0
210
0
220
0
230
1
0
LINE
5
223
100
AcDbEntity
8
0
62
256
6
ByLayer
370
-2
48
1
60
0
100
AcDbLine
10
52.32
20
-27.520189
30
0
11
48.82
21
-27.520189
31
0
39
0
210
0
220
0
230
1
0
SOLID
5
224
100
AcDbEntity
8
0
62
256
6
ByLayer
370
-1
48
1
60
0
100
AcDbTrace
10
75.32
20
-26.936856
30
0
11
75.32
21
-28.103522
31
0
12
71.82
22
-27.520189
32
0
13
71.82
23
-27.520189
33
0
39
0
210
0
220
0
230
1
0
SOLID
5
225
100
AcDbEntity
8
0
62
256
6
ByLayer
370
-1
48
1
60
0
100
AcDbTrace
10
52.32
20
-28.103522
30
0
11
52.32
21
-26.936856
31
0
12
55.82
22
-27.520189
32
0
13
55.82
23
-27.520189
33
0
39
0
210
0
220
0
230
1
0
MTEXT
5
226
100
AcDbEntity
8
0
62
256
6
ByLayer
370
18
48
1
60
0
100
AcDbMText
10
63.82
20
-20.520189
30
0
210
0
220
0
230
1
1
\A1;16
40
3.5
41
0
44
1
50
0
71
5
72
5
7
iso_b_vert
0
POINT
5
227
100
AcDbEntity
8
Defpoints
62
0
6
ByLayer
370
-1
48
1
60
0
100
AcDbPoint
10
71.82
20
0
30
0
39
0
210
0
220
0
230
1
50
360
0
POINT
5
228
100
AcDbEntity
8
Defpoints
62
0
6
ByLayer
370
-1
48
1
60
0
100
AcDbPoint
10
55.82
20
0
30
0
39
0
210
0
220
0
230
1
50
360
0
POINT
5
229
100
AcDbEntity
8
Defpoints
62
0
6
ByLayer
370
-1
48
1
60
0
100
AcDbPoint
10
55.82
20
-27.520189
30
0
39
0
210
0
220
0
230
1
50
360
0
ENDBLK
5
21F
100
AcDbEntity
8
0
100
AcDbBlockEnd
0
BLOCK
5
231
100
AcDbEntity
8
0
100
AcDbBlockBegin
2
_U3
70
0
10
0
20
0
30
0
3
_U3
0
MTEXT
5
22B
100
AcDbEntity
8
SK2
62
256
6
ByLayer
370
18
48
1
60
0
100
AcDbMText
10
60.335734
20
-26.487556
30
0
210
0
220
0
230
1
1
\W0.6563;16.0
40
3.5
41
0
44
1.084337
50
0
71
7
72
5
7
iso_b_vert
0
LINE
5
22C
100
AcDbEntity
8
SK2
62
256
6
ByLayer
370
13
48
1
60
0
100
AcDbLine
10
71.82
20
-1.5875
30
0
11
71.82
21
-29.520189
31
0
39
0
210
0
220
0
230
1
0
LINE
5
22D
100
AcDbEntity
8
SK2
62
256
6
ByLayer
370
13
48
1
60
0
100
AcDbLine
10
55.82
20
-1.5875
30
0
11
55.82
21
-29.520189
31
0
39
0
210
0
220
0
230
1
0
LINE
5
22E
100
AcDbEntity
8
SK2
62
256
6
ByLayer
370
13
48
1
60
0
100
AcDbLine
10
71.82
20
-27.520189
30
0
11
55.82
21
-27.520189
31
0
39
0
210
0
220
0
230
1
0
SOLID
5
22F
100
AcDbEntity
8
SK2
62
256
6
ByLayer
370
18
48
1
60
0
100
AcDbTrace
10
71.82
20
-27.520189
30
0
11
68.320002
21
-27.980973
31
0
12
68.319998
22
-27.059405
32
0
13
68.319998
23
-27.059405
33
0
39
0
210
0
220
0
230
1
0
SOLID
5
230
100
AcDbEntity
8
SK2
62
256
6
ByLayer
370
18
48
1
60
0
100
AcDbTrace
10
55.82
20
-27.520189
30
0
11
59.319998
21
-27.059405
31
0
12
59.320002
22
-27.980973
32
0
13
59.320002
23
-27.980973
33
0
39
0
210
0
220
0
230
1
0
ENDBLK
5
232
100
AcDbEntity
8
0
100
AcDbBlockEnd
0
BLOCK
5
237
100
AcDbEntity
8
0
100
AcDbBlockBegin
2
*D9
70
1
10
0
20
0
30
0
3
*D9
0
LINE
5
239
100
AcDbEntity
8
0
62
256
6
ByLayer
370
-2
48
1
60
0
100
AcDbLine
10
71.82
20
1.5875
30
0
11
71.82
21
11.895568
31
0
39
0
210
0
220
0
230
1
0
LINE
5
23A
100
AcDbEntity
8
0
62
256
6
ByLayer
370
-2
48
1
60
0
100
AcDbLine
10
67.45
20
1.5875
30
0
11
67.45
21
11.895568
31
0
39
0
210
0
220
0
230
1
0
LINE
5
23B
100
AcDbEntity
8
0
62
256
6
ByLayer
370
-2
48
1
60
0
100
AcDbLine
10
75.32
20
9.895568
30
0
11
78.82
21
9.895568
31
0
39
0
210
0
220
0
230
1
0
LINE
5
23C
100
AcDbEntity
8
0
62
256
6
ByLayer
370
-2
48
1
60
0
100
AcDbLine
10
63.95
20
9.895568
30
0
11
60.45
21
9.895568
31
0
39
0
210
0
220
0
230
1
0
SOLID
5
23D
100
AcDbEntity
8
0
62
256
6
ByLayer
370
-1
48
1
60
0
100
AcDbTrace
10
75.32
20
10.478901
30
0
11
75.32
21
9.312234
31
0
12
71.82
22
9.895568
32
0
13
71.82
23
9.895568
33
0
39
0
210
0
220
0
230
1
0
SOLID
5
23E
100
AcDbEntity
8
0
62
256
6
ByLayer
370
-1
48
1
60
0
100
AcDbTrace
10
63.95
20
9.312234
30
0
11
63.95
21
10.478901
31
0
12
67.45
22
9.895568
32
0
13
67.45
23
9.895568
33
0
39
0
210
0
220
0
230
1
0
MTEXT
5
23F
100
AcDbEntity
8
0
62
256
6
ByLayer
370
18
48
1
60
0
100
AcDbMText
10
69.635
20
16.895568
30
0
210
0
220
0
230
1
1
\A1;4.37
40
3.5
41
0
44
1
50
0
71
5
72
5
7
iso_b_vert
0
POINT
5
240
100
AcDbEntity
8
Defpoints
62
0
6
ByLayer
370
-1
48
1
60
0
100
AcDbPoint
10
71.82
20
0
30
0
39
0
210
0
220
0
230
1
50
360
0
POINT
5
241
100
AcDbEntity
8
Defpoints
62
0
6
ByLayer
370
-1
48
1
60
0
100
AcDbPoint
10
67.45
20
0
30
0
39
0
210
0
220
0
230
1
50
360
0
POINT
5
242
100
AcDbEntity
8
Defpoints
62
0
6
ByLayer
370
-1
48
1
60
0
100
AcDbPoint
10
67.45
20
9.895568
30
0
39
0
210
0
220
0
230
1
50
360
0
ENDBLK
5
238
100
AcDbEntity
8
0
100
AcDbBlockEnd
0
BLOCK
5
24B
100
AcDbEntity
8
0
100
AcDbBlockBegin
2
_U4
70
0
10
0
20
0
30
0
3
_U4
0
MTEXT
5
244
100
AcDbEntity
8
SK2
62
256
6
ByLayer
370
18
48
1
60
0
100
AcDbMText
10
65.529034
20
17.928201
30
0
210
0
220
0
230
1
1
\W0.7640;4.37
40
3.5
41
0
44
1.084337
50
0
71
7
72
5
7
iso_b_vert
0
MTEXT
5
245
100
AcDbEntity
8
SK2
62
256
6
ByLayer
370
18
48
1
60
0
100
AcDbMText
10
65.529034
20
10.928201
30
0
210
0
220
0
230
1
1
\W0.6474;'C'
40
3.5
41
0
44
1.084337
50
0
71
7
72
5
7
iso_b_vert
0
LINE
5
246
100
AcDbEntity
8
SK2
62
256
6
ByLayer
370
13
48
1
60
0
100
AcDbLine
10
71.82
20
1.5875
30
0
11
71.82
21
11.895568
31
0
39
0
210
0
220
0
230
1
0
LINE
5
247
100
AcDbEntity
8
SK2
62
256
6
ByLayer
370
13
48
1
60
0
100
AcDbLine
10
67.45
20
1.5875
30
0
11
67.45
21
11.895568
31
0
39
0
210
0
220
0
230
1
0
LINE
5
248
100
AcDbEntity
8
SK2
62
256
6
ByLayer
370
13
48
1
60
0
100
AcDbLine
10
80.57
20
9.895568
30
0
11
58.7
21
9.895568
31
0
39
0
210
0
220
0
230
1
0
SOLID
5
249
100
AcDbEntity
8
SK2
62
256
6
ByLayer
370
18
48
1
60
0
100
AcDbTrace
10
71.82
20
9.895568
30
0
11
75.319998
21
10.356351
31
0
12
75.320002
22
9.434784
32
0
13
75.320002
23
9.434784
33
0
39
0
210
0
220
0
230
1
0
SOLID
5
24A
100
AcDbEntity
8
SK2
62
256
6
ByLayer
370
18
48
1
60
0
100
AcDbTrace
10
67.45
20
9.895568
30
0
11
63.950002
21
9.434784
31
0
12
63.949998
22
10.356351
32
0
13
63.949998
23
10.356351
33
0
39
0
210
0
220
0
230
1
0
ENDBLK
5
24C
100
AcDbEntity
8
0
100
AcDbBlockEnd
0
BLOCK
5
251
100
AcDbEntity
8
0
100
AcDbBlockBegin
2
*D11
70
1
10
0
20
0
30
0
3
*D11
0
LINE
5
253
100
AcDbEntity
8
0
62
256
6
ByLayer
370
-2
48
1
60
0
100
AcDbLine
10
73.4075
20
-4.822784
30
0
11
90.57
21
-4.822784
31
0
39
0
210
0
220
0
230
1
0
LINE
5
254
100
AcDbEntity
8
0
62
256
6
ByLayer
370
-2
48
1
60
0
100
AcDbLine
10
73.4075
20
4.822784
30
0
11
90.57
21
4.822784
31
0
39
0
210
0
220
0
230
1
0
LINE
5
255
100
AcDbEntity
8
0
62
256
6
ByLayer
370
-2
48
1
60
0
100
AcDbLine
10
88.57
20
-8.322784
30
0
11
88.57
21
-11.822784
31
0
39
0
210
0
220
0
230
1
0
LINE
5
256
100
AcDbEntity
8
0
62
256
6
ByLayer
370
-2
48
1
60
0
100
AcDbLine
10
88.57
20
8.322784
30
0
11
88.57
21
11.822784
31
0
39
0
210
0
220
0
230
1
0
SOLID
5
257
100
AcDbEntity
8
0
62
256
6
ByLayer
370
-1
48
1
60
0
100
AcDbTrace
10
89.153333
20
-8.322784
30
0
11
87.986667
21
-8.322784
31
0
12
88.57
22
-4.822784
32
0
13
88.57
23
-4.822784
33
0
39
0
210
0
220
0
230
1
0
SOLID
5
258
100
AcDbEntity
8
0
62
256
6
ByLayer
370
-1
48
1
60
0
100
AcDbTrace
10
87.986667
20
8.322784
30
0
11
89.153333
21
8.322784
31
0
12
88.57
22
4.822784
32
0
13
88.57
23
4.822784
33
0
39
0
210
0
220
0
230
1
0
MTEXT
5
259
100
AcDbEntity
8
0
62
256
6
ByLayer
370
18
48
1
60
0
100
AcDbMText
10
81.57
20
0
30
0
210
0
220
0
230
1
1
\A1;9.65
40
3.5
41
0
44
1
50
90
71
5
72
5
7
iso_b_vert
0
POINT
5
25A
100
AcDbEntity
8
Defpoints
62
0
6
ByLayer
370
-1
48
1
60
0
100
AcDbPoint
10
71.82
20
-4.822784
30
0
39
0
210
0
220
0
230
1
50
360
0
POINT
5
25B
100
AcDbEntity
8
Defpoints
62
0
6
ByLayer
370
-1
48
1
60
0
100
AcDbPoint
10
71.82
20
4.822784
30
0
39
0
210
0
220
0
230
1
50
360
0
POINT
5
25C
100
AcDbEntity
8
Defpoints
62
0
6
ByLayer
370
-1
48
1
60
0
100
AcDbPoint
10
88.57
20
4.822784
30
0
39
0
210
0
220
0
230
1
50
360
0
ENDBLK
5
252
100
AcDbEntity
8
0
100
AcDbBlockEnd
0
BLOCK
5
265
100
AcDbEntity
8
0
100
AcDbBlockBegin
2
_U5
70
0
10
0
20
0
30
0
3
_U5
0
MTEXT
5
25E
100
AcDbEntity
8
2
62
256
6
ByLayer
370
18
48
1
60
0
100
AcDbMText
10
87.880366
20
-19.242798
30
0
210
0
220
0
230
1
1
\W0.7169;UNC 3/8-16
40
3.5
41
0
44
1.084337
50
90
71
7
72
5
7
iso_b_vert
0
MTEXT
5
25F
100
AcDbEntity
8
2
62
256
6
ByLayer
370
18
48
1
60
0
100
AcDbMText
10
87.880366
20
9.500732
30
0
210
0
220
0
230
1
1
\W0.7601; 3BX
40
3.5
41
0
44
1.084337
50
90
71
7
72
5
7
iso_b_vert
0
LINE
5
260
100
AcDbEntity
8
2
62
256
6
ByLayer
370
13
48
1
60
0
100
AcDbLine
10
73.4075
20
-4.822784
30
0
11
90.57
21
-4.822784
31
0
39
0
210
0
220
0
230
1
0
LINE
5
261
100
AcDbEntity
8
2
62
256
6
ByLayer
370
13
48
1
60
0
100
AcDbLine
10
73.4075
20
4.822784
30
0
11
90.57
21
4.822784
31
0
39
0
210
0
220
0
230
1
0
LINE
5
262
100
AcDbEntity
8
2
62
256
6
ByLayer
370
13
48
1
60
0
100
AcDbLine
10
88.57
20
19.400298
30
0
11
88.57
21
-19.400298
31
0
39
0
210
0
220
0
230
1
0
SOLID
5
263
100
AcDbEntity
8
2
62
256
6
ByLayer
370
18
48
1
60
0
100
AcDbTrace
10
88.57
20
-4.822784
30
0
11
88.109216
21
-1.322785
31
0
12
89.030784
22
-1.322782
32
0
13
89.030784
23
-1.322782
33
0
39
0
210
0
220
0
230
1
0
SOLID
5
264
100
AcDbEntity
8
2
62
256
6
ByLayer
370
18
48
1
60
0
100
AcDbTrace
10
88.57
20
4.822784
30
0
11
89.030784
21
1.322785
31
0
12
88.109216
22
1.322782
32
0
13
88.109216
23
1.322782
33
0
39
0
210
0
220
0
230
1
0
ENDBLK
5
266
100
AcDbEntity
8
0
100
AcDbBlockEnd
0
ENDSEC
0
SECTION
2
ENTITIES
0
ARC
5
C7
100
AcDbEntity
8
SK1
62
256
6
ByLayer
370
18
48
1
60
0
100
AcDbCircle
39
0
10
-20.63
20
0
30
0
40
4.64496000000004
210
0
220
0
230
1
100
AcDbArc
50
321.397403
51
38.602597
0
ARC
5
C8
100
AcDbEntity
8
1
62
256
6
ByLayer
370
18
48
1
60
0
100
AcDbCircle
39
0
10
55.040984
20
4.73075
30
0
40
1.1
210
0
220
0
230
1
100
AcDbArc
50
270
51
295.279426
0
ARC
5
C9
100
AcDbEntity
8
1
62
256
6
ByLayer
370
18
48
1
60
0
100
AcDbCircle
39
0
10
33.916238
20
-4.73075
30
0
40
1.1
210
0
220
0
230
1
100
AcDbArc
50
90
51
100
0
ARC
5
CA
100
AcDbEntity
8
1
62
256
6
ByLayer
370
18
48
1
60
0
100
AcDbCircle
39
0
10
33.916238
20
4.73075
30
0
40
1.1
210
0
220
0
230
1
100
AcDbArc
50
260
51
270
0
POINT
5
70
100
AcDbEntity
8
80
62
256
6
ByLayer
370
18
48
1
60
0
100
AcDbPoint
10
0
20
0
30
0
39
0
210
0
220
0
230
1
50
360
0
POINT
5
72
100
AcDbEntity
8
81
62
256
6
ByLayer
370
18
48
1
60
0
100
AcDbPoint
10
71.82
20
0
30
0
39
0
210
0
220
0
230
1
50
360
0
POINT
5
74
100
AcDbEntity
8
1
62
256
6
ByLayer
370
18
48
1
60
0
100
AcDbPoint
10
-28.18
20
0
30
0
39
0
210
0
220
0
230
1
50
360
0
POINT
5
76
100
AcDbEntity
8
1
62
256
6
ByLayer
370
18
48
1
60
1
100
AcDbPoint
10
-28.18
20
0
30
0
39
0
210
0
220
0
230
1
50
360
0
POINT
5
77
100
AcDbEntity
8
1
62
256
6
ByLayer
370
18
48
1
60
1
100
AcDbPoint
10
71.82
20
0
30
0
39
0
210
0
220
0
230
1
50
360
0
POINT
5
78
100
AcDbEntity
8
1
62
256
6
ByLayer
370
18
48
1
60
1
100
AcDbPoint
10
71.82
20
0
30
0
39
0
210
0
220
0
230
1
50
360
0
POINT
5
79
100
AcDbEntity
8
1
62
256
6
ByLayer
370
18
48
1
60
1
100
AcDbPoint
10
33.82
20
0
30
0
39
0
210
0
220
0
230
1
50
360
0
POINT
5
7A
100
AcDbEntity
8
1
62
256
6
ByLayer
370
18
48
1
60
1
100
AcDbPoint
10
71.82
20
0
30
0
39
0
210
0
220
0
230
1
50
360
0
POINT
5
7B
100
AcDbEntity
8
1
62
256
6
ByLayer
370
18
48
1
60
1
100
AcDbPoint
10
39.52
20
0
30
0
39
0
210
0
220
0
230
1
50
360
0
POINT
5
7C
100
AcDbEntity
8
1
62
256
6
ByLayer
370
18
48
1
60
1
100
AcDbPoint
10
71.82
20
0
30
0
39
0
210
0
220
0
230
1
50
360
0
POINT
5
7D
100
AcDbEntity
8
1
62
256
6
ByLayer
370
18
48
1
60
1
100
AcDbPoint
10
55.82
20
0
30
0
39
0
210
0
220
0
230
1
50
360
0
POINT
5
7E
100
AcDbEntity
8
1
62
256
6
ByLayer
370
18
48
1
60
1
100
AcDbPoint
10
71.82
20
0
30
0
39
0
210
0
220
0
230
1
50
360
0
POINT
5
7F
100
AcDbEntity
8
1
62
256
6
ByLayer
370
18
48
1
60
1
100
AcDbPoint
10
67.45
20
0
30
0
39
0
210
0
220
0
230
1
50
360
0
POINT
5
80
100
AcDbEntity
8
1
62
256
6
ByLayer
370
18
48
1
60
1
100
AcDbPoint
10
71.82
20
-4.822784
30
0
39
0
210
0
220
0
230
1
50
360
0
POINT
5
81
100
AcDbEntity
8
1
62
256
6
ByLayer
370
18
48
1
60
1
100
AcDbPoint
10
71.82
20
4.822784
30
0
39
0
210
0
220
0
230
1
50
360
0
SPLINE
5
CB
100
AcDbEntity
8
1
62
256
6
ByLayer
370
13
48
1
60
0
100
AcDbSpline
70
4
71
3
72
8
73
4
40
0
40
0
40
0
40
0
40
1
40
1
40
1
40
1
41
1
10
60.3717896729438
20
-3.93085945894188
30
0
41
1
10
60.3791901438459
20
-3.92896973348175
30
0
41
1
10
60.3866017950791
20
-3.92207924354955
30
0
41
1
10
60.3940236912895
20
-3.91010221737875
30
0
0
SPLINE
5
CC
100
AcDbEntity
8
1
62
256
6
ByLayer
370
18
48
1
60
0
100
AcDbSpline
70
4
71
3
72
8
73
4
40
0
40
0
40
0
40
0
40
1
40
1
40
1
40
1
41
1
10
62.7663743771804
20
3.92156269020885
30
0
41
1
10
62.7685495653686
20
3.9192014249775
30
0
41
1
10
62.7707216366343
20
3.91641162225747
30
0
41
1
10
62.7728906620826
20
3.91319705342335
30
0
0
SPLINE
5
CD
100
AcDbEntity
8
1
62
256
6
ByLayer
370
18
48
1
60
0
100
AcDbSpline
70
4
71
3
72
8
73
4
40
0
40
0
40
0
40
0
40
1
40
1
40
1
40
1
41
1
10
60.0165375017377
20
-4.48381340058725
30
0
41
1
10
60.0231543982225
20
-4.49560257052906
30
0
41
1
10
60.0298195675504
20
-4.5019876688585
30
0
41
1
10
60.0365454135001
20
-4.50294085314411
30
0
0
SPLINE
5
CE
100
AcDbEntity
8
1
62
256
6
ByLayer
370
18
48
1
60
0
100
AcDbSpline
70
4
71
3
72
13
73
9
40
0
40
0
40
0
40
0
40
0.309634072724905
40
0.309634072724905
40
0.482225554543677
40
0.482225554543677
40
0.65481703636245
40
1
40
1
40
1
40
1
41
1
10
59.4367502022916
20
-4.39955251776351
30
0
41
1
10
59.4331466635943
20
-4.39375572899965
30
0
41
1
10
59.429533801467
20
-4.38684711789338
30
0
41
1
10
59.4238922382937
20
-4.37433214548332
30
0
41
1
10
59.4218698250583
20
-4.36950022004726
30
0
41
1
10
59.4178390140639
20
-4.35918187170179
30
0
41
1
10
59.4118063686154
20
-4.34270679505721
30
0
41
1
10
59.4058143841761
20
-4.32326871102512
30
0
41
1
10
59.401837802791
20
-4.30901204898424
30
0
0
SPLINE
5
CF
100
AcDbEntity
8
1
62
256
6
ByLayer
370
18
48
1
60
0
100
AcDbSpline
70
4
71
3
72
16
73
12
40
0
40
0
40
0
40
0
40
0.161424034446875
40
0.161424034446875
40
0.301186695372396
40
0.301186695372396
40
0.440949356297918
40
0.440949356297918
40
0.720474678148959
40
0.720474678148959
40
1
40
1
40
1
40
1
41
1
10
68.8151244558518
20
-4.09070975512998
30
0
41
1
10
68.8100319873431
20
-4.09273604651037
30
0
41
1
10
68.8048839580941
20
-4.09315324441886
30
0
41
1
10
68.7951874634051
20
-4.09093262205295
30
0
41
1
10
68.7906509563039
20
-4.08869491551147
30
0
41
1
10
68.7815093071294
20
-4.08177908649074
30
0
41
1
10
68.77690109874
20
-4.07709192141388
30
0
41
1
10
68.7630863790729
20
-4.05947096243276
30
0
41
1
10
68.7538562242848
20
-4.0429688601954
30
0
41
1
10
68.7353646024227
20
-4.00055912004311
30
0
41
1
10
68.7261116892751
20
-3.97464728723591
30
0
41
1
10
68.7168067936003
20
-3.94395845794404
30
0
0
SPLINE
5
D0
100
AcDbEntity
8
1
62
256
6
ByLayer
370
13
48
1
60
0
100
AcDbSpline
70
4
71
3
72
9
73
5
40
0
40
0
40
0
40
0
40
0.34305619665892
40
1
40
1
40
1
40
1
41
1.04
10
68.6415142884162
20
-3.81148297447793
30
0
41
1.04
10
68.6455178611955
20
-3.82694855192673
30
0
41
1.04
10
68.6571747560967
20
-3.86775176625669
30
0
41
1.04
10
68.6687910987132
20
-3.89585580871908
30
0
41
1.04
10
68.676410505042
20
-3.90889685627604
30
0
0
SPLINE
5
D1
100
AcDbEntity
8
1
62
256
6
ByLayer
370
13
48
1
60
0
100
AcDbSpline
70
4
71
3
72
8
73
4
40
0
40
0
40
0
40
0
40
1
40
1
40
1
40
1
41
1.04
10
59.1134558006436
20
-3.8002088361548
30
0
41
1.04
10
59.1256922495111
20
-3.84921138421945
30
0
41
1.04
10
59.1378368127885
20
-3.88426235684202
30
0
41
1.04
10
59.1499068096219
20
-3.90582042632034
30
0
0
SPLINE
5
D2
100
AcDbEntity
8
1
62
256
6
ByLayer
370
13
48
1
60
0
100
AcDbSpline
70
4
71
3
72
8
73
4
40
0
40
0
40
0
40
0
40
1
40
1
40
1
40
1
41
1.04
10
63.1215257787681
20
3.90984406008897
30
0
41
1.04
10
63.146810302433
20
3.95072277204538
30
0
41
1.04
10
63.1716299225754
20
3.93275886918982
30
0
41
1.04
10
63.1960898590163
20
3.86143560058634
30
0
0
SPLINE
5
D3
100
AcDbEntity
8
1
62
256
6
ByLayer
370
13
48
1
60
0
100
AcDbSpline
70
4
71
3
72
9
73
5
40
0
40
0
40
0
40
0
40
0.0488301463043234
40
1
40
1
40
1
40
1
41
1
10
58.6902926102247
20
-3.68887231204559
30
0
41
1
10
58.6922379763037
20
-3.69942169887494
30
0
41
1
10
58.7320254175321
20
-3.90831391807026
30
0
41
1
10
58.7707657607414
20
-3.96981553661405
30
0
41
1
10
58.8071650572491
20
-3.9084255567775
30
0
0
SPLINE
5
D4
100
AcDbEntity
8
1
62
256
6
ByLayer
370
13
48
1
60
0
100
AcDbSpline
70
4
71
3
72
9
73
5
40
0
40
0
40
0
40
0
40
0.323235128767296
40
1
40
1
40
1
40
1
41
1
10
68.2182715442586
20
-3.70332205015549
30
0
41
1
10
68.2307020437282
20
-3.76863393219335
30
0
41
1
10
68.2690330427728
20
-3.92889383737568
30
0
41
1
10
68.306927741446
20
-3.95240451692254
30
0
41
1
10
68.3325906734555
20
-3.90805029498529
30
0
0
SPLINE
5
D5
100
AcDbEntity
8
1
62
256
6
ByLayer
370
18
48
1
60
0
100
AcDbSpline
70
4
71
3
72
17
73
13
40
0
40
0
40
0
40
0
40
0.248640882106424
40
0.248640882106424
40
0.497281764212847
40
0.745922646319271
40
0.745922646319271
40
0.870243087372483
40
0.870243087372483
40
0.994563528425695
40
0.994563528425695
40
1
40
1
40
1
40
1
41
1
10
63.7530975534471
20
4.51168741245831
30
0
41
1
10
63.7454456346547
20
4.56295551462227
30
0
41
1
10
63.7378978636136
20
4.60777655262206
30
0
41
1
10
63.723007580155
20
4.684865187952
30
0
41
1
10
63.7083258065429
20
4.74939806009127
30
0
41
1
10
63.6935998823024
20
4.7888830236918
30
0
41
1
10
63.6824199728962
20
4.80890130701073
30
0
41
1
10
63.6786708932306
20
4.81397279289462
30
0
41
1
10
63.6711159047047
20
4.82084669366472
30
0
41
1
10
63.6673382932505
20
4.82262368273135
30
0
41
1
10
63.6633906114519
20
4.82278001408923
30
0
41
1
10
63.6632252044085
20
4.82278345697793
30
0
41
1
10
63.6630597875923
20
4.82278379431162
30
0
0
SPLINE
5
D6
100
AcDbEntity
8
1
62
256
6
ByLayer
370
18
48
1
60
0
100
AcDbSpline
70
4
71
3
72
15
73
11
40
0
40
0
40
0
40
0
40
0.135382758864742
40
0.135382758864742
40
0.423588505909828
40
0.711794252954914
40
0.711794252954914
40
0.855897126477457
40
0.855897126477457
40
1
40
1
40
1
40
1
41
1
10
63.8430333769709
20
4.80464673088318
30
0
41
1
10
63.8465702072806
20
4.79878436458483
30
0
41
1
10
63.8500943754535
20
4.79151185596396
30
0
41
1
10
63.8610816198151
20
4.76438987411231
30
0
41
1
10
63.8759378237394
20
4.71482859177854
30
0
41
1
10
63.8909053233106
20
4.63990054235069
30
0
41
1
10
63.9022505705839
20
4.57393615248449
30
0
41
1
10
63.9060581716927
20
4.550272873354
30
0
41
1
10
63.9136717470386
20
4.4999566811355
30
0
41
1
10
63.9174816336667
20
4.47328602476446
30
0
41
1
10
63.921297606254
20
4.44510924696436
30
0
0
SPLINE
5
D7
100
AcDbEntity
8
1
62
256
6
ByLayer
370
13
48
1
60
0
100
AcDbSpline
70
4
71
3
72
9
73
5
40
0
40
0
40
0
40
0
40
0.0278663233331848
40
1
40
1
40
1
40
1
41
1
10
64.3620285177089
20
3.91142525332833
30
0
41
1
10
64.3628737324371
20
3.91006793303475
30
0
41
1
10
64.3932161473212
20
3.8589604719443
30
0
41
1
10
64.4239679759972
20
3.72153761831387
30
0
41
1
10
64.4544520519397
20
3.50756697922358
30
0
0
SPLINE
5
D8
100
AcDbEntity
8
1
62
256
6
ByLayer
370
18
48
1
60
0
100
AcDbSpline
70
4
71
3
72
21
73
17
40
0
40
0
40
0
40
0
40
0.0997581970306195
40
0.0997581970306195
40
0.199516394061239
40
0.199516394061239
40
0.399032788122478
40
0.399032788122478
40
0.798065576244956
40
0.798065576244956
40
0.897823773275576
40
0.947702871790885
40
0.947702871790885
40
0.997581970306195
40
0.997581970306195
40
1
40
1
40
1
40
1
41
1
10
58.4709432816336
20
-3.91354820977347
30
0
41
1
10
58.4742603975504
20
-3.93820286273621
30
0
41
1
10
58.4775873120588
20
-3.96177659961489
30
0
41
1
10
58.484255274735
20
-4.00672791086518
30
0
41
1
10
58.4876036663338
20
-4.02814697122469
30
0
41
1
10
58.4975732958288
20
-4.08855486745358
30
0
41
1
10
58.5041280993475
20
-4.12382509923998
30
0
41
1
10
58.5236091136653
20
-4.21504514762955
30
0
41
1
10
58.5363511278163
20
-4.2565017194498
30
0
41
1
10
58.5523665591975
20
-4.28398235710381
30
0
41
1
10
58.5571781192263
20
-4.29038934960911
30
0
41
1
10
58.5620118801774
20
-4.29400025398829
30
0
41
1
10
58.565240638744
20
-4.29578005457583
30
0
41
1
10
58.5668581394681
20
-4.29635528905501
30
0
41
1
10
58.568549957248
20
-4.29662683161044
30
0
41
1
10
58.5686281762108
20
-4.29663864789779
30
0
41
1
10
58.5687063906757
20
-4.29664972558666
30
0
0
SPLINE
5
D9
100
AcDbEntity
8
1
62
256
6
ByLayer
370
18
48
1
60
0
100
AcDbSpline
70
4
71
3
72
20
73
16
40
0
40
0
40
0
40
0
40
0.0169375342447113
40
0.0169375342447113
40
0.344625022829809
40
0.344625022829809
40
0.385585958902946
40
0.385585958902946
40
0.426546894976083
40
0.508468767122357
40
0.508468767122357
40
0.672312511414904
40
0.836156255707452
40
0.836156255707452
40
1
40
1
40
1
40
1
41
1
10
57.7044186911036
20
-4.15007230081196
30
0
41
1
10
57.7036360950631
20
-4.14867131556221
30
0
41
1
10
57.7028535503609
20
-4.14722086058026
30
0
41
1
10
57.6869321664292
20
-4.11670348518248
30
0
41
1
10
57.6718085110658
20
-4.06929051097913
30
0
41
1
10
57.6548499342636
20
-3.99451791996293
30
0
41
1
10
57.65296450011
20
-3.98590079885278
30
0
41
1
10
57.6492050556532
20
-3.96810721883739
30
0
41
1
10
57.6435904654525
20
-3.94060575274739
30
0
41
1
10
57.6380214822345
20
-3.91069261494988
30
0
41
1
10
57.626882289107
20
-3.84769365931905
30
0
41
1
10
57.6120139888025
20
-3.75524386292724
30
0
41
1
10
57.5967904281249
20
-3.64612000766985
30
0
41
1
10
57.581434838943
20
-3.52862296072948
30
0
41
1
10
57.5737088725571
20
-3.46568994860274
30
0
41
1
10
57.5660035312577
20
-3.39846978249011
30
0
0
SPLINE
5
DA
100
AcDbEntity
8
1
62
256
6
ByLayer
370
18
48
1
60
0
100
AcDbSpline
70
4
71
3
72
20
73
16
40
0
40
0
40
0
40
0
40
0.174672591570136
40
0.174672591570136
40
0.349345183140273
40
0.349345183140273
40
0.524017774710409
40
0.524017774710409
40
0.611354070495477
40
0.611354070495477
40
0.698690366280545
40
0.698690366280545
40
0.873362957850681
40
0.873362957850681
40
1
40
1
40
1
40
1
41
1
10
67.9275186064677
20
-4.00348346639899
30
0
41
1
10
67.9308006172043
20
-4.06190363301772
30
0
41
1
10
67.9342174574531
20
-4.11493563986016
30
0
41
1
10
67.9412090669353
20
-4.2107323619262
30
0
41
1
10
67.9447837423721
20
-4.2534959491891
30
0
41
1
10
67.9519919849579
20
-4.32890647623321
30
0
41
1
10
67.9556186718521
20
-4.36155761813987
30
0
41
1
10
67.9610645355761
20
-4.40278817277411
30
0
41
1
10
67.9628865567849
20
-4.41523495345317
30
0
41
1
10
67.9665847650278
20
-4.43744845874056
30
0
41
1
10
67.9684644024446
20
-4.44722337895109
30
0
41
1
10
67.9742006798218
20
-4.47213648879912
30
0
41
1
10
67.9781948935652
20
-4.48294407071825
30
0
41
1
10
67.9855766359618
20
-4.49167356244254
30
0
41
1
10
67.988810752667
20
-4.49235319057479
30
0
41
1
10
67.9921711260199
20
-4.49009349623813
30
0
0
SPLINE
5
DB
100
AcDbEntity
8
1
62
256
6
ByLayer
370
18
48
1
60
0
100
AcDbSpline
70
4
71
3
72
25
73
21
40
0
40
0
40
0
40
0
40
0.0434294980311269
40
0.0434294980311269
40
0.2347435984249
40
0.2347435984249
40
0.282572123523343
40
0.282572123523343
40
0.330400648621787
40
0.426057698818675
40
0.426057698818675
40
0.61737179921245
40
0.61737179921245
40
0.808685899606226
40
0.808685899606226
40
0.904342949803113
40
0.904342949803113
40
0.952171474901557
40
0.952171474901557
40
1
40
1
40
1
40
1
41
1
10
67.547195770195
20
-4.69862582618904
30
0
41
1
10
67.5451656628569
20
-4.69546587020261
30
0
41
1
10
67.5431313546752
20
-4.69196759418762
30
0
41
1
10
67.5321109212675
20
-4.67122133151992
30
0
41
1
10
67.523002650272
20
-4.64771893170888
30
0
41
1
10
67.5114163971064
20
-4.61008445180676
30
0
41
1
10
67.50908631827
20
-4.60213297534628
30
0
41
1
10
67.5044263670226
20
-4.58547488979789
30
0
41
1
10
67.4974325008892
20
-4.55934363035851
30
0
41
1
10
67.4904233838718
20
-4.52983357180153
30
0
41
1
10
67.4763790384656
20
-4.46640656825036
30
0
41
1
10
67.4669804370807
20
-4.41825933820684
30
0
41
1
10
67.4481123044495
20
-4.31041385457863
30
0
41
1
10
67.4386448728223
20
-4.25071386912757
30
0
41
1
10
67.4243441912843
20
-4.15235274570674
30
0
41
1
10
67.4195601099966
20
-4.11809442078643
30
0
41
1
10
67.4123468490412
20
-4.06445582860599
30
0
41
1
10
67.4099358987772
20
-4.04620044844586
30
0
41
1
10
67.4051012840681
20
-4.0089324335639
30
0
41
1
10
67.4026783780644
20
-3.98992353711589
30
0
41
1
10
67.4002579721725
20
-3.97059808145372
30
0
0
SPLINE
5
DC
100
AcDbEntity
8
1
62
256
6
ByLayer
370
13
48
1
60
0
100
AcDbSpline
70
4
71
3
72
9
73
5
40
0
40
0
40
0
40
0
40
0.57116832786446
40
1
40
1
40
1
40
1
41
1.04
10
66.9601390355942
20
-3.199832866564
30
0
41
1.04
10
66.9829714249066
20
-3.40619374033732
30
0
41
1.04
10
67.0236210180624
20
-3.70461658314958
30
0
41
1.04
10
67.0660105813081
20
-3.863521726099
30
0
41
1.04
10
67.0843682717242
20
-3.90060140873244
30
0
0
SPLINE
5
DD
100
AcDbEntity
8
1
62
256
6
ByLayer
370
18
48
1
60
0
100
AcDbSpline
70
4
71
3
72
8
73
4
40
0
40
0
40
0
40
0
40
1
40
1
40
1
40
1
41
1.04
10
67.0843681328922
20
-3.90060112831276
30
0
41
1.04
10
67.0867311972169
20
-3.90537417152438
30
0
41
1.04
10
67.0890972391772
20
-3.90963249538773
30
0
41
1.04
10
67.0914659595867
20
-3.91336456716241
30
0
0
SPLINE
5
DE
100
AcDbEntity
8
1
62
256
6
ByLayer
370
13
48
1
60
0
100
AcDbSpline
70
4
71
3
72
10
73
6
40
0
40
0
40
0
40
0
40
0.104213031640865
40
0.641457810694141
40
1
40
1
40
1
40
1
41
1.04
10
57.4321389703487
20
-3.17242645877612
30
0
41
1.04
10
57.4365155896063
20
-3.21260491972368
30
0
41
1.04
10
57.4635497134479
20
-3.45192420420676
30
0
41
1.04
10
57.5066321632216
20
-3.74356657444657
30
0
41
1.04
10
57.5441778647983
20
-3.86950318984825
30
0
41
1.04
10
57.5590587003158
20
-3.89931602952536
30
0
0
SPLINE
5
DF
100
AcDbEntity
8
1
62
256
6
ByLayer
370
13
48
1
60
0
100
AcDbSpline
70
4
71
3
72
10
73
6
40
0
40
0
40
0
40
0
40
0.242737129815472
40
0.67101020636492
40
1
40
1
40
1
40
1
41
1
10
57.0089975954297
20
-2.94251691184726
30
0
41
1
10
57.0216173660544
20
-3.0727380543658
30
0
41
1
10
57.0568461279106
20
-3.40556851913891
30
0
41
1
10
57.1108906752141
20
-3.76680621242815
30
0
41
1
10
57.1506391779369
20
-3.88803699593856
30
0
41
1
10
57.1677171766434
20
-3.91363797444961
30
0
0
SPLINE
5
E0
100
AcDbEntity
8
1
62
256
6
ByLayer
370
18
48
1
60
0
100
AcDbSpline
70
4
71
3
72
25
73
21
40
0
40
0
40
0
40
0
40
0.124999999999999
40
0.124999999999999
40
0.187499999999998
40
0.187499999999998
40
0.218749999999998
40
0.218749999999998
40
0.249999999999998
40
0.249999999999998
40
0.499999999999996
40
0.499999999999996
40
0.624999999999995
40
0.624999999999995
40
0.687499999999995
40
0.718749999999995
40
0.718749999999995
40
0.749999999999996
40
0.749999999999996
40
1
40
1
40
1
40
1
41
1
10
56.4098996026686
20
3.92447195598948
30
0
41
1
10
56.4160537992784
20
3.90584322139171
30
0
41
1
10
56.422226883473
20
3.88308332939735
30
0
41
1
10
56.4315439628954
20
3.84262897153454
30
0
41
1
10
56.4346591819516
20
3.82809051159632
30
0
41
1
10
56.4393495827229
20
3.80467564576583
30
0
41
1
10
56.4409159293938
20
3.79660221774992
30
0
41
1
10
56.4440408144942
20
3.77999245635232
30
0
41
1
10
56.4456011242623
20
3.77144746499636
30
0
41
1
10
56.4596268241957
20
3.69240061185232
30
0
41
1
10
56.4719758060224
20
3.60700049283403
30
0
41
1
10
56.4904584842757
20
3.45681121153009
30
0
41
1
10
56.4966084814963
20
3.40304835339529
30
0
41
1
10
56.5058617611253
20
3.31677817492323
30
0
41
1
10
56.5104959877296
20
3.27223505964957
30
0
41
1
10
56.5151500949964
20
3.22555015007083
30
0
41
1
10
56.5182580943596
20
3.19394645925061
30
0
41
1
10
56.5198146893516
20
3.17790423347432
30
0
41
1
10
56.5337881699614
20
3.03201306744003
30
0
41
1
10
56.5460750870721
20
2.89052870870029
30
0
41
1
10
56.5583635612701
20
2.73767779926007
30
0
0
SPLINE
5
E1
100
AcDbEntity
8
1
62
256
6
ByLayer
370
13
48
1
60
0
100
AcDbSpline
70
4
71
3
72
9
73
5
40
0
40
0
40
0
40
0
40
0.531958931900525
40
1
40
1
40
1
40
1
41
1
10
56.448437821492
20
3.85530161913473
30
0
41
1
10
56.4761163176591
20
3.77074464175365
30
0
41
1
10
56.5282937542226
20
3.48171838975731
30
0
41
1
10
56.5815864073207
20
2.95755862475534
30
0
41
1
10
56.6070706694993
20
2.66604924839115
30
0
0
SPLINE
5
E2
100
AcDbEntity
8
1
62
256
6
ByLayer
370
13
48
1
60
0
100
AcDbSpline
70
4
71
3
72
10
73
6
40
0
40
0
40
0
40
0
40
0.284312095929046
40
0.926823293989815
40
1
40
1
40
1
40
1
41
1.04
10
64.7181413124981
20
3.92299019225579
30
0
41
1.04
10
64.7328791644485
20
3.93886752586379
30
0
41
1.04
10
64.7812258304918
20
3.92565050056365
30
0
41
1.04
10
64.8345253396741
20
3.67191797919457
30
0
41
1.04
10
64.8736739529375
20
3.35987644737257
30
0
41
1.04
10
64.8776865442506
20
3.3266358134196
30
0
0
SPLINE
5
E3
100
AcDbEntity
8
1
62
256
6
ByLayer
370
18
48
1
60
0
100
AcDbSpline
70
4
71
3
72
54
73
50
40
0
40
0
40
0
40
0
40
0.125000000000352
40
0.125000000000352
40
0.187500000000529
40
0.187500000000529
40
0.218750000000616
40
0.218750000000616
40
0.250000000000703
40
0.250000000000703
40
0.265625000000749
40
0.265625000000749
40
0.273437500000774
40
0.273437500000774
40
0.2812500000008
40
0.2812500000008
40
0.285156250000808
40
0.285156250000808
40
0.289062500000816
40
0.289062500000816
40
0.291015625000813
40
0.291015625000813
40
0.292968750000809
40
0.292968750000809
40
0.294921875000806
40
0.294921875000806
40
0.296875000000802
40
0.296875000000802
40
0.300781250000796
40
0.300781250000796
40
0.30468750000079
40
0.30468750000079
40
0.312500000000783
40
0.312500000000783
40
0.328125000000765
40
0.328125000000765
40
0.343750000000747
40
0.343750000000747
40
0.375000000000711
40
0.375000000000711
40
0.43750000000064
40
0.43750000000064
40
0.500000000000568
40
0.500000000000568
40
0.625000000000426
40
0.625000000000426
40
0.750000000000284
40
0.750000000000284
40
1
40
1
40
1
40
1
41
1
10
55.82
20
-3.06186803124209
30
0
41
1
10
55.8101457270905
20
-3.00345741698396
30
0
41
1
10
55.7997341247549
20
-2.94286094228269
30
0
41
1
10
55.7820187719212
20
-2.84835585659789
30
0
41
1
10
55.7757669255562
20
-2.81625288834681
30
0
41
1
10
55.7652789023305
20
-2.7670242073402
30
0
41
1
10
55.7615959457618
20
-2.75043502786511
30
0
41
1
10
55.7535673388038
20
-2.7168122683037
30
0
41
1
10
55.7492645597376
20
-2.69983332883854
30
0
41
1
10
55.7417296317126
20
-2.67404344850752
30
0
41
1
10
55.7390399967574
20
-2.66539199443414
30
0
41
1
10
55.7344178459114
20
-2.65228219501702
30
0
41
1
10
55.7327784447477
20
-2.64789004537727
30
0
41
1
10
55.7291360752249
20
-2.63903499843158
30
0
41
1
10
55.7271514704826
20
-2.63457383930634
30
0
41
1
10
55.7235835366807
20
-2.6279149144801
30
0
41
1
10
55.7222954280842
20
-2.62570061937549
30
0
41
1
10
55.7193363464172
20
-2.62137548257147
30
0
41
1
10
55.7176344618835
20
-2.61918284058231
30
0
41
1
10
55.7145027918584
20
-2.61648913169285
30
0
41
1
10
55.7133346735468
20
-2.61569383007065
30
0
41
1
10
55.710943258484
20
-2.61467394191917
30
0
41
1
10
55.7097323971812
20
-2.61446969156714
30
0
41
1
10
55.7076103295623
20
-2.61459135967181
30
0
41
1
10
55.7066799302771
20
-2.61488633596045
30
0
41
1
10
55.7050216063717
20
-2.61569462755395
30
0
41
1
10
55.7042944751035
20
-2.61620657664273
30
0
41
1
10
55.7022841416753
20
-2.6179221743817
30
0
41
1
10
55.7011848620861
20
-2.61928998003637
30
0
41
1
10
55.6992308657399
20
-2.62215757261251
30
0
41
1
10
55.698374289484
20
-2.62367688479878
30
0
41
1
10
55.6960107191729
20
-2.62837805521261
30
0
41
1
10
55.6947046069595
20
-2.63170856584199
30
0
41
1
10
55.6911977646537
20
-2.64187727014138
30
0
41
1
10
55.6893980087035
20
-2.64891418303824
30
0
41
1
10
55.6862179545693
20
-2.66314587200273
30
0
41
1
10
55.6848620127632
20
-2.67035388874984
30
0
41
1
10
55.6811934614184
20
-2.69208912859653
30
0
41
1
10
55.6792745144797
20
-2.70672655300106
30
0
41
1
10
55.6742724106251
20
-2.75053792861544
30
0
41
1
10
55.6719449661585
20
-2.77965630498352
30
0
41
1
10
55.6680968696122
20
-2.83714251722398
30
0
41
1
10
55.6666188685402
20
-2.86553065230936
30
0
41
1
10
55.6629434804074
20
-2.9493544206529
30
0
41
1
10
55.6614927617696
20
-3.00345022607181
30
0
41
1
10
55.6595164892697
20
-3.10713135887286
30
0
41
1
10
55.6590186590013
20
-3.15679942442694
30
0
41
1
10
55.6584263795427
20
-3.29885506712452
30
0
41
1
10
55.6591970359095
20
-3.38306591704551
30
0
41
1
10
55.6612272621667
20
-3.45727283323225
30
0
0
SPLINE
5
E4
100
AcDbEntity
8
1
62
256
6
ByLayer
370
18
48
1
60
0
100
AcDbSpline
70
4
71
3
72
24
73
20
40
0
40
0
40
0
40
0
40
0.249999999999999
40
0.249999999999999
40
0.374999999999999
40
0.374999999999999
40
0.437499999999999
40
0.437499999999999
40
0.499999999999999
40
0.499999999999999
40
0.75
40
0.75
40
0.875
40
0.875
40
0.937500000000001
40
0.937500000000001
40
0.96875
40
0.96875
40
1
40
1
40
1
40
1
41
1
10
56.925460512299
20
-2.97419028709163
30
0
41
1
10
56.9380706597703
20
-3.12447359436925
30
0
41
1
10
56.9505509040222
20
-3.26071270136646
30
0
41
1
10
56.9690566904287
20
-3.44430780858823
30
0
41
1
10
56.9751733089039
20
-3.50202747489573
30
0
41
1
10
56.9844442435871
20
-3.58328880796481
30
0
41
1
10
56.9875527683917
20
-3.60950442060016
30
0
41
1
10
56.9938136177898
20
-3.66006374791118
30
0
41
1
10
56.9969485960514
20
-3.68426855064717
30
0
41
1
10
57.0126672730742
20
-3.800015736826
30
0
41
1
10
57.0254414950109
20
-3.87583670035443
30
0
41
1
10
57.0443037046225
20
-3.96488740301425
30
0
41
1
10
57.0505565096115
20
-3.99043909059677
30
0
41
1
10
57.0599372056266
20
-4.02246348052358
30
0
41
1
10
57.0630644280143
20
-4.03208650597298
30
0
41
1
10
57.0677629475005
20
-4.04491836257273
30
0
41
1
10
57.0693321818411
20
-4.04893251183665
30
0
41
1
10
57.0724643665547
20
-4.05639783775101
30
0
41
1
10
57.0740269856692
20
-4.05984901370562
30
0
41
1
10
57.0755867478367
20
-4.0630213738159
30
0
0
SPLINE
5
E5
100
AcDbEntity
8
1
62
256
6
ByLayer
370
18
48
1
60
0
100
AcDbSpline
70
4
71
3
72
13
73
9
40
0
40
0
40
0
40
0
40
0.499999999999997
40
0.499999999999997
40
0.624999999999997
40
0.624999999999997
40
0.749999999999998
40
1
40
1
40
1
40
1
41
1
10
55.903086702269
20
-3.6453536167385
30
0
41
1
10
55.8897466578635
20
-3.57349864652932
30
0
41
1
10
55.8760705464305
20
-3.48893230476071
30
0
41
1
10
55.8585489920763
20
-3.36688803243808
30
0
41
1
10
55.8550255139594
20
-3.34163326252414
30
0
41
1
10
55.8479826753751
20
-3.28957257580396
30
0
41
1
10
55.8374408074122
20
-3.20931268313214
30
0
41
1
10
55.8269669551666
20
-3.12258055144272
30
0
41
1
10
55.82
20
-3.06186803124209
30
0
0
SPLINE
5
E6
100
AcDbEntity
8
1
62
256
6
ByLayer
370
13
48
1
60
0
100
AcDbSpline
70
4
71
3
72
9
73
5
40
0
40
0
40
0
40
0
40
0.373268904753634
40
1
40
1
40
1
40
1
41
1.04
10
56.8718210908216
20
3.76587374410518
30
0
41
1.04
10
56.8911211106551
20
3.67964262755029
30
0
41
1.04
10
56.9430211421681
20
3.35984986553696
30
0
41
1.04
10
56.9960169720059
20
2.8083604841991
30
0
41
1.04
10
57.0303556230089
20
2.38396781183734
30
0
0
SPLINE
5
E7
100
AcDbEntity
8
1
62
256
6
ByLayer
370
18
48
1
60
0
100
AcDbSpline
70
4
71
3
72
23
73
19
40
0
40
0
40
0
40
0
40
0.125
40
0.25
40
0.25
40
0.375
40
0.375
40
0.4375
40
0.4375
40
0.499999999999999
40
0.499999999999999
40
0.624999999999999
40
0.75
40
0.875
40
0.875
40
0.9375
40
0.9375
40
1
40
1
40
1
40
1
41
1
10
65.4348348797408
20
3.5823906426825
30
0
41
1
10
65.4272722971505
20
3.67956119427018
30
0
41
1
10
65.4123320997251
20
3.86292432345329
30
0
41
1
10
65.3974407576676
20
4.02489840974661
30
0
41
1
10
65.3824968372234
20
4.17620368530746
30
0
41
1
10
65.3750070915206
20
4.24652257225884
30
0
41
1
10
65.3637067415455
20
4.3438259456222
30
0
41
1
10
65.3599264476844
20
4.3749036274607
30
0
41
1
10
65.3523321021374
20
4.43424273490186
30
0
41
1
10
65.3485452218959
20
4.46229223642052
30
0
41
1
10
65.3371984837977
20
4.54167565376596
30
0
41
1
10
65.322104559689
20
4.6348327553153
30
0
41
1
10
65.2993712858159
20
4.73729233465517
30
0
41
1
10
65.284101983099
20
4.78067485355953
30
0
41
1
10
65.2726258492871
20
4.80360741690214
30
0
41
1
10
65.2687920953503
20
4.80965038174088
30
0
41
1
10
65.2611575819301
20
4.81841098148138
30
0
41
1
10
65.2573515024122
20
4.82114385369752
30
0
41
1
10
65.2535497331566
20
4.82223718602191
30
0
0
SPLINE
5
E8
100
AcDbEntity
8
1
62
256
6
ByLayer
370
18
48
1
60
0
100
AcDbSpline
70
4
71
3
72
22
73
18
40
0
40
0
40
0
40
0
40
0.0764720522079696
40
0.20840461617826
40
0.340337180148551
40
0.340337180148551
40
0.406303462133696
40
0.406303462133696
40
0.472269744118842
40
0.472269744118842
40
0.604202308089131
40
0.736134872059421
40
0.86806743602971
40
0.86806743602971
40
0.934033718014855
40
0.934033718014855
40
1
40
1
40
1
40
1
41
1
10
65.4309524366097
20
4.80327854180283
30
0
41
1
10
65.4353107850413
20
4.79575261878242
30
0
41
1
10
65.4471754812862
20
4.76937121702335
30
0
41
1
10
65.4666108895965
20
4.70056801739654
30
0
41
1
10
65.4818513601629
20
4.62205515117455
30
0
41
1
10
65.4933428688848
20
4.55353123462643
30
0
41
1
10
65.4971829870673
20
4.52908095347431
30
0
41
1
10
65.5048743954571
20
4.4768976918011
30
0
41
1
10
65.5086976008801
20
4.44935677341206
30
0
41
1
10
65.5201105789673
20
4.36250986722325
30
0
41
1
10
65.5351810578917
20
4.23543329677273
30
0
41
1
10
65.5576390901624
20
4.01169275790997
30
0
41
1
10
65.5727093895388
20
3.84039547557438
30
0
41
1
10
65.5841139697312
20
3.70339711824505
30
0
41
1
10
65.5879383488212
20
3.65622925331982
30
0
41
1
10
65.5955780482616
20
3.55964439522839
30
0
41
1
10
65.5993978033057
20
3.51017811999714
30
0
41
1
10
65.6032200860395
20
3.45954291379292
30
0
0
SPLINE
5
E9
100
AcDbEntity
8
1
62
256
6
ByLayer
370
13
48
1
60
0
100
AcDbSpline
70
4
71
3
72
9
73
5
40
0
40
0
40
0
40
0
40
0.225601279536386
40
1
40
1
40
1
40
1
41
1
10
65.9763664565095
20
3.84601065802229
30
0
41
1
10
65.9888766566936
20
3.80564693352892
30
0
41
1
10
66.0437316555571
20
3.5663101917859
30
0
41
1
10
66.0961827527788
20
3.08342367501362
30
0
41
1
10
66.1359764116855
20
2.62173894815928
30
0
0
SPLINE
5
EA
100
AcDbEntity
8
1
62
256
6
ByLayer
370
18
48
1
60
0
100
AcDbSpline
70
4
71
3
72
110
73
106
40
0
40
0
40
0
40
0
40
0.0156250000000029
40
0.0156250000000029
40
0.0312500000000058
40
0.0312500000000058
40
0.062500000000015
40
0.062500000000015
40
0.125000000000037
40
0.125000000000037
40
0.187500000000058
40
0.187500000000058
40
0.203125000000063
40
0.203125000000063
40
0.218750000000067
40
0.218750000000067
40
0.250000000000072
40
0.250000000000072
40
0.281250000000077
40
0.281250000000077
40
0.296875000000077
40
0.296875000000077
40
0.304687500000076
40
0.304687500000076
40
0.312500000000074
40
0.312500000000074
40
0.343750000000067
40
0.343750000000067
40
0.359375000000064
40
0.359375000000064
40
0.37500000000006
40
0.37500000000006
40
0.406250000000053
40
0.406250000000053
40
0.414062500000051
40
0.414062500000051
40
0.42187500000005
40
0.42187500000005
40
0.437500000000042
40
0.437500000000042
40
0.468750000000031
40
0.468750000000031
40
0.50000000000002
40
0.50000000000002
40
0.50781250000002
40
0.50781250000002
40
0.51562500000002
40
0.51562500000002
40
0.53125000000002
40
0.53125000000002
40
0.539062500000021
40
0.539062500000021
40
0.546875000000022
40
0.546875000000022
40
0.554687500000024
40
0.558593750000024
40
0.558593750000024
40
0.562500000000025
40
0.562500000000025
40
0.570312500000026
40
0.570312500000026
40
0.574218750000026
40
0.574218750000026
40
0.578125000000025
40
0.578125000000025
40
0.593750000000027
40
0.593750000000027
40
0.597656250000027
40
0.597656250000027
40
0.601562500000027
40
0.609375000000027
40
0.609375000000027
40
0.613281250000027
40
0.613281250000027
40
0.617187500000028
40
0.617187500000028
40
0.625000000000028
40
0.625000000000028
40
0.640625000000026
40
0.640625000000026
40
0.648437500000025
40
0.648437500000025
40
0.656250000000024
40
0.656250000000024
40
0.671875000000022
40
0.671875000000022
40
0.687500000000019
40
0.687500000000019
40
0.718750000000015
40
0.718750000000015
40
0.734375000000014
40
0.734375000000014
40
0.750000000000012
40
0.750000000000012
40
0.78125000000001
40
0.78125000000001
40
0.812500000000008
40
0.812500000000008
40
0.875000000000006
40
0.875000000000006
40
0.906250000000005
40
0.906250000000005
40
0.937500000000005
40
0.937500000000005
40
1
40
1
40
1
40
1
41
1
10
44.8651722299283
20
3.46825259608457
30
0
41
1
10
44.8236607225886
20
3.47830699531275
30
0
41
1
10
44.7819689971985
20
3.48779478613395
30
0
41
1
10
44.6980858956002
20
3.50564072862875
30
0
41
1
10
44.6558783988233
20
3.51399264047572
30
0
41
1
10
44.528451099405
20
3.53745070854225
30
0
41
1
10
44.4424388559824
20
3.55096216428649
30
0
41
1
10
44.1807588054344
20
3.58586331884567
30
0
41
1
10
44.0014886539604
20
3.60160163820606
30
0
41
1
10
43.6301385515588
20
3.62233009648182
30
0
41
1
10
43.438132366081
20
3.62734064692316
30
0
41
1
10
43.1878681927054
20
3.62996697522598
30
0
41
1
10
43.1372302864504
20
3.63031100099823
30
0
41
1
10
43.0357306334679
20
3.6307149241284
30
0
41
1
10
42.98477526915
20
3.63077632121394
30
0
41
1
10
42.8312611394717
20
3.63066816366936
30
0
41
1
10
42.7280584371807
20
3.63020920673918
30
0
41
1
10
42.5196915516487
20
3.62913924201629
30
0
41
1
10
42.414545321753
20
3.62852795205453
30
0
41
1
10
42.2551145840079
20
3.62786712949
30
0
41
1
10
42.2016808198373
20
3.62768921022334
30
0
41
1
10
42.1210238064955
20
3.62752463170617
30
0
41
1
10
42.0940534905766
20
3.62748674645198
30
0
41
1
10
42.0399278515818
20
3.62745014641285
30
0
41
1
10
42.0127893496484
20
3.62745153349996
30
0
41
1
10
41.8777896313953
20
3.62756759405261
30
0
41
1
10
41.7710813334373
20
3.62800264799859
30
0
41
1
10
41.6118447176562
20
3.62872023862943
30
0
41
1
10
41.5588809393052
20
3.62896614544385
30
0
41
1
10
41.4532347149509
20
3.62945214976227
30
0
41
1
10
41.4005498958601
20
3.62969166011388
30
0
41
1
10
41.2429347274139
20
3.63034349073985
30
0
41
1
10
41.1384410186212
20
3.63069641608146
30
0
41
1
10
41.0086621055269
20
3.63075663708187
30
0
41
1
10
40.9827484163209
20
3.63074905878798
30
0
41
1
10
40.9310087275159
20
3.63068511114355
30
0
41
1
10
40.9051594232834
20
3.63062864553604
30
0
41
1
10
40.8279831748523
20
3.63037072096844
30
0
41
1
10
40.7770017749568
20
3.63008152116314
30
0
41
1
10
40.6255562061608
20
3.62872236214633
30
0
41
1
10
40.5265698436797
20
3.62717706597564
30
0
41
1
10
40.3332924868995
20
3.62176678651485
30
0
41
1
10
40.2389996102669
20
3.61791657375238
30
0
41
1
10
40.1248570261551
20
3.61058401421394
30
0
41
1
10
40.1022094757068
20
3.60898780935113
30
0
41
1
10
40.0575920392093
20
3.6055221212761
30
0
41
1
10
40.0355886246061
20
3.60365068839838
30
0
41
1
10
39.9705478727815
20
3.59756738390629
30
0
41
1
10
39.9284906079039
20
3.5928870071177
30
0
41
1
10
39.8675643322451
20
3.58467932289673
30
0
41
1
10
39.8476066517545
20
3.58174675519058
30
0
41
1
10
39.8084281888814
20
3.57544062453744
30
0
41
1
10
39.7892045738942
20
3.57206520642958
30
0
41
1
10
39.7517832402533
20
3.56487284243926
30
0
41
1
10
39.7244370985203
20
3.55914000784094
30
0
41
1
10
39.6981990811073
20
3.55285214454827
30
0
41
1
10
39.6809568893327
20
3.54853121629026
30
0
41
1
10
39.6724633036686
20
3.54630606713667
30
0
41
1
10
39.6476944905936
20
3.53936801374132
30
0
41
1
10
39.632047877234
20
3.53440836018615
30
0
41
1
10
39.610454256868
20
3.52629134676201
30
0
41
1
10
39.6035468762345
20
3.52346081596957
30
0
41
1
10
39.5906078042789
20
3.5175887007467
30
0
41
1
10
39.5845703104963
20
3.51455863504387
30
0
41
1
10
39.5564280990609
20
3.49892724755412
30
0
41
1
10
39.5405352940528
20
3.4848774125044
30
0
41
1
10
39.5285796932695
20
3.46507381038208
30
0
41
1
10
39.5265915255422
20
3.4610090764937
30
0
41
1
10
39.5234165356341
20
3.45275802391461
30
0
41
1
10
39.5198339461575
20
3.44016267056426
30
0
41
1
10
39.5195478454162
20
3.42691090381601
30
0
41
1
10
39.5212022581885
20
3.41322081040258
30
0
41
1
10
39.5220778419163
20
3.4085843848637
30
0
41
1
10
39.524441648235
20
3.39916521175294
30
0
41
1
10
39.5259342857205
20
3.39437155591668
30
0
41
1
10
39.5312451126623
20
3.37986930314565
30
0
41
1
10
39.5358875356574
20
3.37003900162662
30
0
41
1
10
39.5525830665953
20
3.34005955143536
30
0
41
1
10
39.5673941565824
20
3.31942323759347
30
0
41
1
10
39.5938046106055
20
3.28750635591734
30
0
41
1
10
39.6033133224948
20
3.27670691283041
30
0
41
1
10
39.6235796884351
20
3.25478826043653
30
0
41
1
10
39.634361576721
20
3.24364631697296
30
0
41
1
10
39.6680841225955
20
3.21003038074585
30
0
41
1
10
39.6924405280733
20
3.18729539497193
30
0
41
1
10
39.7440332742936
20
3.1411423374422
30
0
41
1
10
39.7712698172014
20
3.11772309816658
30
0
41
1
10
39.8563963656563
20
3.0463926491521
30
0
41
1
10
39.9176585367301
20
2.99740756606835
30
0
41
1
10
40.0142276896488
20
2.92169486532998
30
0
41
1
10
40.0472218606811
20
2.89607799037546
30
0
41
1
10
40.1140270110617
20
2.84446398200302
30
0
41
1
10
40.1479073120032
20
2.81841831227595
30
0
41
1
10
40.2507310144021
20
2.73952762378013
30
0
41
1
10
40.3208451757551
20
2.68592811258941
30
0
41
1
10
40.463270484279
20
2.57654743906804
30
0
41
1
10
40.5355874117546
20
2.52076676114132
30
0
41
1
10
40.7549455025303
20
2.34993001790917
30
0
41
1
10
40.904366455148
20
2.23139879527335
30
0
41
1
10
41.1312581811434
20
2.04581089602181
30
0
41
1
10
41.2074438092197
20
1.982577679218
30
0
41
1
10
41.3596767479215
20
1.85412642103873
30
0
41
1
10
41.4358200259832
20
1.7888319641927
30
0
41
1
10
41.6641539399646
20
1.5896157868834
30
0
41
1
10
41.8162171652497
20
1.45234571662337
30
0
41
1
10
41.9680331430679
20
1.31042226533995
30
0
0
SPLINE
5
EB
100
AcDbEntity
8
1
62
256
6
ByLayer
370
13
48
1
60
0
100
AcDbSpline
70
4
71
3
72
9
73
5
40
0
40
0
40
0
40
0
40
0.606035080522844
40
1
40
1
40
1
40
1
41
1
10
66.5369223844266
20
-2.97240798271866
30
0
41
1
10
66.5678292735633
20
-3.28729228790533
30
0
41
1
10
66.6198117458055
20
-3.706114653197
30
0
41
1
10
66.6746916979099
20
-3.89181234949149
30
0
41
1
10
66.6965284654318
20
-3.9198583274061
30
0
0
SPLINE
5
EC
100
AcDbEntity
8
1
62
256
6
ByLayer
370
18
48
1
60
0
100
AcDbSpline
70
4
71
3
72
23
73
19
40
0
40
0
40
0
40
0
40
0.125
40
0.25
40
0.375000000000001
40
0.375000000000001
40
0.4375
40
0.4375
40
0.5
40
0.5
40
0.625
40
0.75
40
0.75
40
0.875
40
0.875
40
0.9375
40
0.9375
40
1
40
1
40
1
40
1
41
1
10
65.982516838536
20
-3.10504073242504
30
0
41
1
10
65.9901477688589
20
-3.21621910306547
30
0
41
1
10
66.0051753187519
20
-3.42867466883664
30
0
41
1
10
66.0274709164356
20
-3.71842949621796
30
0
41
1
10
66.0423900763147
20
-3.89236454731474
30
0
41
1
10
66.0536641443797
20
-4.01544744272667
30
0
41
1
10
66.057436136952
20
-4.05524516895875
30
0
41
1
10
66.0650177469956
20
-4.13233126385433
30
0
41
1
10
66.0687995666846
20
-4.16933633236303
30
0
41
1
10
66.080124903028
20
-4.27576501011501
30
0
41
1
10
66.0951776642939
20
-4.40551498847256
30
0
41
1
10
66.110265683413
20
-4.51146488036386
30
0
41
1
10
66.1254503907128
20
-4.60548104854686
30
0
41
1
10
66.1330983299236
20
-4.64652285492457
30
0
41
1
10
66.1447212547019
20
-4.69889137548179
30
0
41
1
10
66.1486255427963
20
-4.71483114671383
30
0
41
1
10
66.1564256733155
20
-4.74339278428434
30
0
41
1
10
66.1603260576468
20
-4.75604040681239
30
0
41
1
10
66.1642200027123
20
-4.76706159739351
30
0
0
SPLINE
5
ED
100
AcDbEntity
8
1
62
256
6
ByLayer
370
18
48
1
60
0
100
AcDbSpline
70
4
71
3
72
26
73
22
40
0
40
0
40
0
40
0
40
0.124999999999999
40
0.124999999999999
40
0.249999999999999
40
0.249999999999999
40
0.374999999999998
40
0.374999999999998
40
0.437499999999998
40
0.437499999999998
40
0.499999999999998
40
0.499999999999998
40
0.624999999999999
40
0.624999999999999
40
0.749999999999999
40
0.749999999999999
40
0.874999999999999
40
0.874999999999999
40
0.9375
40
0.9375
40
1
40
1
40
1
40
1
41
1
10
65.9954563330571
20
-4.73642452243777
30
0
41
1
10
65.9877166437165
20
-4.70905796156455
30
0
41
1
10
65.9800329781327
20
-4.67543839480638
30
0
41
1
10
65.964894398308
20
-4.59602136729126
30
0
41
1
10
65.9574816690539
20
-4.55022238763283
30
0
41
1
10
65.9428307924294
20
-4.44647403373011
30
0
41
1
10
65.9355574874565
20
-4.38852566181046
30
0
41
1
10
65.9244941844518
20
-4.29229831783081
30
0
41
1
10
65.9207802216584
20
-4.25865610865722
30
0
41
1
10
65.9132804075285
20
-4.18825763881435
30
0
41
1
10
65.9095204931077
20
-4.15174680979118
30
0
41
1
10
65.8981860724054
20
-4.03835769781014
30
0
41
1
10
65.8905509054445
20
-3.95763073828229
30
0
41
1
10
65.8751273275299
20
-3.78612316896232
30
0
41
1
10
65.8673368881063
20
-3.69534239351464
30
0
41
1
10
65.8518201745623
20
-3.50368771325256
30
0
41
1
10
65.844107336018
20
-3.40281380383232
30
0
41
1
10
65.8325808945981
20
-3.24372227124729
30
0
41
1
10
65.8287399715059
20
-3.18931255896533
30
0
41
1
10
65.8211141397624
20
-3.07864178229514
30
0
41
1
10
65.8173235701873
20
-3.0223067630908
30
0
41
1
10
65.8135476365619
20
-2.96497704639628
30
0
0
SPLINE
5
EE
100
AcDbEntity
8
1
62
256
6
ByLayer
370
13
48
1
60
0
100
AcDbSpline
70
4
71
3
72
9
73
5
40
0
40
0
40
0
40
0
40
0.444081744974657
40
1
40
1
40
1
40
1
41
1.04
10
65.2787121359441
20
-2.15134993769527
30
0
41
1.04
10
65.3005998964261
20
-2.43694149282095
30
0
41
1.04
10
65.3514715022993
20
-3.04523863999774
30
0
41
1.04
10
65.4068811211141
20
-3.50665010505457
30
0
41
1.04
10
65.438198684563
20
-3.67963613971921
30
0
0
SPLINE
5
EF
100
AcDbEntity
8
1
62
256
6
ByLayer
370
13
48
1
60
0
100
AcDbSpline
70
4
71
3
72
10
73
6
40
0
40
0
40
0
40
0
40
0.316517759221507
40
0.969484039899714
40
1
40
1
40
1
40
1
41
1
10
58.1298547984568
20
3.31190386647606
30
0
41
1
10
58.1469099727121
20
3.16848533960302
30
0
41
1
10
58.1991235084105
20
2.65991890301314
30
0
41
1
10
58.2515746304072
20
1.96946018308867
30
0
41
1
10
58.2871519727494
20
1.45487032094559
30
0
41
1
10
58.2887397671335
20
1.43181677353041
30
0
0
SPLINE
5
F0
100
AcDbEntity
8
1
62
256
6
ByLayer
370
18
48
1
60
0
100
AcDbSpline
70
4
71
3
72
23
73
19
40
0
40
0
40
0
40
0
40
0.124999999999999
40
0.249999999999999
40
0.374999999999998
40
0.374999999999998
40
0.437499999999998
40
0.437499999999998
40
0.499999999999998
40
0.499999999999998
40
0.749999999999999
40
0.749999999999999
40
0.875
40
0.875
40
0.90625
40
0.90625
40
0.9375
40
1
40
1
40
1
40
1
41
1
10
57.9558670346071
20
3.6586911092173
30
0
41
1
10
57.9622431793732
20
3.60218701411605
30
0
41
1
10
57.9748706442545
20
3.48122938956081
30
0
41
1
10
57.9939428059045
20
3.2762529991449
30
0
41
1
10
58.0068909926965
20
3.12377181463359
30
0
41
1
10
58.0166674908782
20
3.00328510013125
30
0
41
1
10
58.0199178370681
20
2.96230840329264
30
0
41
1
10
58.026387975274
20
2.8789706016513
30
0
41
1
10
58.0296109163552
20
2.83657476978712
30
0
41
1
10
58.0456806388311
20
2.62101165465597
30
0
41
1
10
58.0583937561215
20
2.43716415068894
30
0
41
1
10
58.0775438956723
20
2.14438997804467
30
0
41
1
10
58.0839404281541
20
2.04395081364944
30
0
41
1
10
58.0919795911171
20
1.91474121624651
30
0
41
1
10
58.0935910611229
20
1.88869172206609
30
0
41
1
10
58.0968049185188
20
1.83645121037048
30
0
41
1
10
58.1016161260528
20
1.75781365386305
30
0
41
1
10
58.106401313121
20
1.67835399952907
30
0
41
1
10
58.1095818268342
20
1.62502094969972
30
0
0
SPLINE
5
F1
100
AcDbEntity
8
1
62
256
6
ByLayer
370
18
48
1
60
0
100
AcDbSpline
70
4
71
3
72
22
73
18
40
0
40
0
40
0
40
0
40
0.125000000000001
40
0.125000000000001
40
0.187500000000001
40
0.187500000000001
40
0.25
40
0.25
40
0.5
40
0.5
40
0.625
40
0.625
40
0.687500000000001
40
0.687500000000001
40
0.750000000000001
40
0.750000000000001
40
1
40
1
40
1
40
1
41
1
10
57.1324288412209
20
2.37405894838881
30
0
41
1
10
57.1250099682233
20
2.46299899964731
30
0
41
1
10
57.1176018447727
20
2.54943404998562
30
0
41
1
10
57.1064644521118
20
2.67526394222855
30
0
41
1
10
57.1027476552784
20
2.71656933751257
30
0
41
1
10
57.0952971416619
20
2.79788354431025
30
0
41
1
10
57.0915553388298
20
2.83797528415784
30
0
41
1
10
57.0729315183059
20
3.03356761060039
30
0
41
1
10
57.0582342847728
20
3.1753111659325
30
0
41
1
10
57.036120251351
20
3.36652792962602
30
0
41
1
10
57.0287388998906
20
3.42668265655368
30
0
41
1
10
57.0176226099606
20
3.51146874720047
30
0
41
1
10
57.0139101526457
20
3.53882206270308
30
0
41
1
10
57.0064668619467
20
3.59168593428291
30
0
41
1
10
57.0027331502188
20
3.61721334695105
30
0
41
1
10
56.9840237128219
20
3.73997767896796
30
0
41
1
10
56.9692546754776
20
3.82054829736117
30
0
41
1
10
56.9544311473625
20
3.88416543629299
30
0
0
SPLINE
5
F2
100
AcDbEntity
8
1
62
256
6
ByLayer
370
18
48
1
60
0
100
AcDbSpline
70
4
71
3
72
24
73
20
40
0
40
0
40
0
40
0
40
0.125
40
0.25
40
0.375
40
0.375
40
0.4375
40
0.4375
40
0.5
40
0.5
40
0.625
40
0.625
40
0.75
40
0.75
40
0.875
40
0.875
40
0.9375
40
0.9375
40
1
40
1
40
1
40
1
41
1
10
71.9025129623851
20
0.164447780849969
30
0
41
1
10
71.8960037873699
20
0.0744226954017506
30
0
41
1
10
71.8837949324173
20
-0.105525769556834
30
0
41
1
10
71.8674209132358
20
-0.37513221870384
30
0
41
1
10
71.8577339148023
20
-0.554657005829796
30
0
41
1
10
71.8510015287341
20
-0.689221906794302
30
0
41
1
10
71.8488472135616
20
-0.734063778131599
30
0
41
1
10
71.844742683996
20
-0.82372173922883
30
0
41
1
10
71.8427892580663
20
-0.868624391675979
30
0
41
1
10
71.8373283198906
20
-1.00218610170927
30
0
41
1
10
71.8342371727937
20
-1.08994661751865
30
0
41
1
10
71.8291714357323
20
-1.26295365524714
30
0
41
1
10
71.827155344651
20
-1.34821329971871
30
0
41
1
10
71.823902713627
20
-1.51633571325041
30
0
41
1
10
71.8226631572051
20
-1.59919938082953
30
0
41
1
10
71.8212668003712
20
-1.72171391623101
30
0
41
1
10
71.8208850141357
20
-1.76225288832413
30
0
41
1
10
71.8203286884879
20
-1.84271185840154
30
0
41
1
10
71.8201541885461
20
-1.88268270306776
30
0
41
1
10
71.820101628257
20
-1.92219232551051
30
0
0
SPLINE
5
F3
100
AcDbEntity
8
1
62
256
6
ByLayer
370
13
48
1
60
0
100
AcDbSpline
70
4
71
3
72
9
73
5
40
0
40
0
40
0
40
0
40
0.144789344330965
40
1
40
1
40
1
40
1
41
1
10
69.4813993388153
20
0.217068727786113
30
0
41
1
10
69.4822568637417
20
0.2037570060034
30
0
41
1
10
69.4881761519046
20
0.111848357269196
30
0
41
1
10
69.4940726107233
20
0.020184414042177
30
0
41
1
10
69.4990993100512
20
-0.05791942670362
30
0
0
SPLINE
5
F4
100
AcDbEntity
8
1
62
256
6
ByLayer
370
13
48
1
60
0
100
AcDbSpline
70
4
71
3
72
9
73
5
40
0
40
0
40
0
40
0
40
0.314661568843516
40
1
40
1
40
1
40
1
41
1.04
10
68.0809702216904
20
3.07096862636676
30
0
41
1.04
10
68.098254184201
20
2.9030593325281
30
0
41
1.04
10
68.152560992617
20
2.30738796237515
30
0
41
1.04
10
68.2051904160751
20
1.56128530611371
30
0
41
1.04
10
68.2408136156741
20
1.02564401690922
30
0
0
SPLINE
5
F5
100
AcDbEntity
8
1
62
256
6
ByLayer
370
18
48
1
60
0
100
AcDbSpline
70
4
71
3
72
23
73
19
40
0
40
0
40
0
40
0
40
0.0624999999999999
40
0.0624999999999999
40
0.125
40
0.125
40
0.25
40
0.25
40
0.375
40
0.375
40
0.5
40
0.5
40
0.625
40
0.625
40
0.75
40
0.75
40
0.875
40
1
40
1
40
1
40
1
41
1
10
68.477868071859
20
0.807859892544911
30
0
41
1
10
68.4737361009042
20
0.86788144655722
30
0
41
1
10
68.4696137705559
20
0.927423568059538
30
0
41
1
10
68.461500055788
20
1.04565283802967
30
0
41
1
10
68.4574923956006
20
1.1043279934353
30
0
41
1
10
68.445452081166
20
1.27894283257504
30
0
41
1
10
68.4373680342054
20
1.39345105675304
30
0
41
1
10
68.4208189350284
20
1.61854814385117
30
0
41
1
10
68.4123796471101
20
1.72915525152189
30
0
41
1
10
68.3950776925698
20
1.94639244708247
30
0
41
1
10
68.3861987183529
20
2.05305667933595
30
0
41
1
10
68.3679867481844
20
2.26207208560092
30
0
41
1
10
68.3588183969096
20
2.3627729714822
30
0
41
1
10
68.3404665880843
20
2.55697536888815
30
0
41
1
10
68.3312831361958
20
2.65047499884693
30
0
41
1
10
68.3129552923373
20
2.83043330034488
30
0
41
1
10
68.2946565308154
20
3.00335144615605
30
0
41
1
10
68.2761362296456
20
3.16216728634635
30
0
41
1
10
68.2667459814671
20
3.23793263074623
30
0
0
SPLINE
5
F6
100
AcDbEntity
8
1
62
256
6
ByLayer
370
18
48
1
60
0
100
AcDbSpline
70
4
71
3
72
10
73
6
40
0
40
0
40
0
40
0
40
0.5
40
0.5
40
1
40
1
40
1
40
1
41
1
10
69.4813993388151
20
0.217068727784266
30
0
41
1
10
69.4837765822346
20
0.171570898770654
30
0
41
1
10
69.4861272204784
20
0.126038885742531
30
0
41
1
10
69.4906856293459
20
0.0349090066707447
30
0
41
1
10
69.4928925669249
20
-0.010688818831369
30
0
41
1
10
69.4950993633163
20
-0.0563210291604435
30
0
0
SPLINE
5
F7
100
AcDbEntity
8
1
62
256
6
ByLayer
370
18
48
1
60
0
100
AcDbSpline
70
4
71
3
72
72
73
68
40
0
40
0
40
0
40
0
40
0.0312500000000133
40
0.0312500000000133
40
0.0625000000000266
40
0.0625000000000266
40
0.0937500000000399
40
0.0937500000000399
40
0.125000000000053
40
0.125000000000053
40
0.250000000000106
40
0.250000000000106
40
0.375000000000159
40
0.375000000000159
40
0.437500000000186
40
0.437500000000186
40
0.4687500000002
40
0.4687500000002
40
0.500000000000214
40
0.500000000000214
40
0.515625000000221
40
0.515625000000221
40
0.531250000000229
40
0.531250000000229
40
0.546875000000236
40
0.546875000000236
40
0.554687500000239
40
0.554687500000239
40
0.558593750000239
40
0.558593750000239
40
0.560546875000236
40
0.560546875000236
40
0.562500000000233
40
0.562500000000233
40
0.56445312500023
40
0.56445312500023
40
0.566406250000227
40
0.566406250000227
40
0.568359375000224
40
0.568359375000224
40
0.570312500000221
40
0.570312500000221
40
0.574218750000219
40
0.574218750000219
40
0.578125000000217
40
0.578125000000217
40
0.585937500000213
40
0.585937500000213
40
0.593750000000209
40
0.593750000000209
40
0.609375000000201
40
0.609375000000201
40
0.625000000000192
40
0.625000000000192
40
0.656250000000176
40
0.656250000000176
40
0.68750000000016
40
0.68750000000016
40
0.750000000000128
40
0.750000000000128
40
0.875000000000064
40
0.875000000000064
40
0.906250000000048
40
0.906250000000048
40
0.937500000000032
40
0.937500000000032
40
1
40
1
40
1
40
1
41
1
10
69.8419610331541
20
-0.32762032528521
30
0
41
1
10
69.8378936538361
20
-0.283300974113217
30
0
41
1
10
69.8338150873801
20
-0.238952107344858
30
0
41
1
10
69.8258116923149
20
-0.150183572325602
30
0
41
1
10
69.821870528323
20
-0.105764913311958
30
0
41
1
10
69.8139992528572
20
-0.016865402876391
30
0
41
1
10
69.8100634676297
20
0.0276745922267594
30
0
41
1
10
69.8021357402185
20
0.116423530919064
30
0
41
1
10
69.7981377329256
20
0.160644064300072
30
0
41
1
10
69.777891259518
20
0.38097014442144
30
0
41
1
10
69.7609484392785
20
0.554771214416775
30
0
41
1
10
69.7226332298254
20
0.897301749580208
30
0
41
1
10
69.7011815633833
20
1.06600685763598
30
0
41
1
10
69.6634327405662
20
1.31514248493389
30
0
41
1
10
69.6500323989617
20
1.39686451346131
30
0
41
1
10
69.6279148153255
20
1.51741042977562
30
0
41
1
10
69.6202004105457
20
1.55725720268842
30
0
41
1
10
69.6037714076146
20
1.63627947189767
30
0
41
1
10
69.5950732233248
20
1.67545521441815
30
0
41
1
10
69.5807500066472
20
1.73370882529201
30
0
41
1
10
69.5757599843533
20
1.75304164036621
30
0
41
1
10
69.5651307862965
20
1.79153379736775
30
0
41
1
10
69.5595000948479
20
1.81069769908566
30
0
41
1
10
69.5471664839088
20
1.84866058344255
30
0
41
1
10
69.5405336144721
20
1.86748710828706
30
0
41
1
10
69.5285765460438
20
1.89531209861903
30
0
41
1
10
69.5242785951251
20
1.90452122052301
30
0
41
1
10
69.5165180373367
20
1.9181158757591
30
0
41
1
10
69.5136823125442
20
1.92265784087624
30
0
41
1
10
69.5088051799868
20
1.92911252080401
30
0
41
1
10
69.5070747662835
20
1.93120584504251
30
0
41
1
10
69.5032273436527
20
1.9351792266979
30
0
41
1
10
69.5010844180022
20
1.9370910108953
30
0
41
1
10
69.4962553366429
20
1.94016183886617
30
0
41
1
10
69.4934542643057
20
1.94130102793471
30
0
41
1
10
69.4880498352878
20
1.94169517831617
30
0
41
1
10
69.4854961324085
20
1.94095920497782
30
0
41
1
10
69.4813349402388
20
1.93865061395704
30
0
41
1
10
69.4795909182521
20
1.93709245008733
30
0
41
1
10
69.4765512462704
20
1.9337424774053
30
0
41
1
10
69.475241608272
20
1.93192932124091
30
0
41
1
10
69.4716578444153
20
1.92625961821395
30
0
41
1
10
69.4697242260197
20
1.92216521780406
30
0
41
1
10
69.4663339507681
20
1.91385856110463
30
0
41
1
10
69.4648762778481
20
1.90960922455795
30
0
41
1
10
69.4609123412932
20
1.89668546120919
30
0
41
1
10
69.4588091544101
20
1.88783749710063
30
0
41
1
10
69.4551201896803
20
1.86988467058811
30
0
41
1
10
69.4535489831468
20
1.86076378002068
30
0
41
1
10
69.4493609140999
20
1.83323623759222
30
0
41
1
10
69.4472498267862
20
1.81463150577551
30
0
41
1
10
69.4437125891051
20
1.77705967497022
30
0
41
1
10
69.4423042420191
20
1.75808880284794
30
0
41
1
10
69.4387635402527
20
1.70070505525015
30
0
41
1
10
69.4373027658168
20
1.66182394599392
30
0
41
1
10
69.4353454114076
20
1.58298181437942
30
0
41
1
10
69.4348716838608
20
1.54307539178265
30
0
41
1
10
69.4344395573882
20
1.42265882031941
30
0
41
1
10
69.4354431414235
20
1.34118764936394
30
0
41
1
10
69.4406233138189
20
1.09335945942777
30
0
41
1
10
69.4471099336797
20
0.923544919042712
30
0
41
1
10
69.4568603613998
20
0.705713185108721
30
0
41
1
10
69.458898199173
20
0.661868175767211
30
0
41
1
10
69.4631205243952
20
0.573619112708116
30
0
41
1
10
69.4653037986773
20
0.5292449556338
30
0
41
1
10
69.4720035845547
20
0.395978717584512
30
0
41
1
10
69.4767153313646
20
0.306715487733527
30
0
41
1
10
69.4813993388235
20
0.217068727658471
30
0
0
SPLINE
5
F8
100
AcDbEntity
8
1
62
256
6
ByLayer
370
18
48
1
60
0
100
AcDbSpline
70
4
71
3
72
10
73
6
40
0
40
0
40
0
40
0
40
0.576008936412801
40
0.861961568480769
40
1
40
1
40
1
40
1
41
1
10
71.8199999999999
20
0.239693748344564
30
0
41
1
10
71.8199999999999
20
-0.192660125105931
30
0
41
1
10
71.8199999999999
20
-0.851644333850487
30
0
41
1
10
71.8199999999999
20
-1.55421152988572
30
0
41
1
10
71.8199999999999
20
-1.83342369530323
30
0
41
1
10
71.8199999999999
20
-1.92214739878287
30
0
0
SPLINE
5
F9
100
AcDbEntity
8
1
62
256
6
ByLayer
370
13
48
1
60
0
100
AcDbSpline
70
4
71
3
72
10
73
6
40
0
40
0
40
0
40
0
40
0.0722906264510466
40
0.934066326333226
40
1
40
1
40
1
40
1
41
1.04
10
66.3996277627169
20
3.75308422887304
30
0
41
1.04
10
66.4036248915124
20
3.73456870441458
30
0
41
1.04
10
66.455100210729
20
3.47791307778239
30
0
41
1.04
10
66.5079122211531
20
2.96965829222443
30
0
41
1.04
10
66.5558099078942
20
2.379002437624
30
0
41
1.04
10
66.5592088681432
20
2.33645704137798
30
0
0
SPLINE
5
FA
100
AcDbEntity
8
1
62
256
6
ByLayer
370
13
48
1
60
0
100
AcDbSpline
70
4
71
3
72
9
73
5
40
0
40
0
40
0
40
0
40
0.470622397242092
40
1
40
1
40
1
40
1
41
1
10
67.6577637962111
20
3.28666333031734
30
0
41
1
10
67.6836681961996
20
3.06529469976832
30
0
41
1
10
67.7377311638558
20
2.49388390094322
30
0
41
1
10
67.7901472316123
20
1.77615141779202
30
0
41
1
10
67.8175869749595
20
1.37598429979798
30
0
0
SPLINE
5
FB
100
AcDbEntity
8
1
62
256
6
ByLayer
370
18
48
1
60
0
100
AcDbSpline
70
4
71
3
72
23
73
19
40
0
40
0
40
0
40
0
40
0.125
40
0.249999999999999
40
0.249999999999999
40
0.374999999999999
40
0.374999999999999
40
0.437499999999999
40
0.437499999999999
40
0.499999999999999
40
0.499999999999999
40
0.624999999999999
40
0.749999999999999
40
0.874999999999999
40
0.874999999999999
40
0.9375
40
0.9375
40
1
40
1
40
1
40
1
41
1
10
67.1171100106613
20
2.16149267371759
30
0
41
1
10
67.1094371511142
20
2.29132429817705
30
0
41
1
10
67.094147705022
20
2.54341459072219
30
0
41
1
10
67.0789523145597
20
2.78075961641085
30
0
41
1
10
67.0638086788849
20
3.01075196983453
30
0
41
1
10
67.0562759260144
20
3.12207259500278
30
0
41
1
10
67.0449545093999
20
3.28341746894674
30
0
41
1
10
67.0411743355241
20
3.3362651146999
30
0
41
1
10
67.0335859508901
20
3.44001240065043
30
0
41
1
10
67.0298059334442
20
3.49052631918872
30
0
41
1
10
67.0184862696492
20
3.63806841060995
30
0
41
1
10
67.0034442726099
20
3.82414168619209
30
0
41
1
10
66.9808103228483
20
4.07196134146454
30
0
41
1
10
66.9656016002428
20
4.21625270816719
30
0
41
1
10
66.9541381193214
20
4.31640926993902
30
0
41
1
10
66.9503018400623
20
4.34849098166572
30
0
41
1
10
66.9426628666974
20
4.40948523302831
30
0
41
1
10
66.9388550611106
20
4.43844690320361
30
0
41
1
10
66.9350581767219
20
4.46588051564686
30
0
0
SPLINE
5
FC
100
AcDbEntity
8
1
62
256
6
ByLayer
370
18
48
1
60
0
100
AcDbSpline
70
4
71
3
72
26
73
22
40
0
40
0
40
0
40
0
40
0.124999999999999
40
0.124999999999999
40
0.249999999999999
40
0.374999999999998
40
0.374999999999998
40
0.437499999999997
40
0.437499999999997
40
0.468749999999997
40
0.468749999999997
40
0.499999999999997
40
0.624999999999998
40
0.624999999999998
40
0.749999999999999
40
0.749999999999999
40
0.875
40
0.875
40
0.9375
40
0.9375
40
1
40
1
40
1
40
1
41
1
10
67.1029081441999
20
4.39544970363684
30
0
41
1
10
67.1104386951293
20
4.33550864932661
30
0
41
1
10
67.1179273849857
20
4.27001128937636
30
0
41
1
10
67.132921015371
20
4.12825589779931
30
0
41
1
10
67.1479324931524
20
3.97573794481673
30
0
41
1
10
67.163145516129
20
3.80186357060919
30
0
41
1
10
67.1746665426915
20
3.6633177047521
30
0
41
1
10
67.1785251206055
20
3.61577703529736
30
0
41
1
10
67.1843414591407
20
3.54239212844271
30
0
41
1
10
67.1862871943113
20
3.51755570860681
30
0
41
1
10
67.1901767260279
20
3.46732889631795
30
0
41
1
10
67.1998855074552
20
3.3405012564873
30
0
41
1
10
67.2095212091559
20
3.20745738978096
30
0
41
1
10
67.2247707548647
20
2.98683157377053
30
0
41
1
10
67.2322931512709
20
2.87263958143646
30
0
41
1
10
67.2472353400411
20
2.63651421813614
30
0
41
1
10
67.2546589068257
20
2.51458131587896
30
0
41
1
10
67.2658279451456
20
2.32574973779146
30
0
41
1
10
67.2695597934547
20
2.26176131857491
30
0
41
1
10
67.2770396309553
20
2.13199848275104
30
0
41
1
10
67.2807744410747
20
2.06645493190484
30
0
41
1
10
67.2845126675388
20
2.00025311432628
30
0
0
SPLINE
5
FD
100
AcDbEntity
8
1
62
256
6
ByLayer
370
13
48
1
60
0
100
AcDbSpline
70
4
71
3
72
10
73
6
40
0
40
0
40
0
40
0
40
0.159697943632531
40
0.809048620274696
40
1
40
1
40
1
40
1
41
1.04
10
58.5531133835185
20
3.09877597204569
30
0
41
1.04
10
58.5617453479334
20
3.0160094372245
30
0
41
1.04
10
58.6053769618261
20
2.57058997476234
30
0
41
1.04
10
58.6581201445915
20
1.87905724701687
30
0
41
1.04
10
58.7020245033675
20
1.23173621892218
30
0
41
1.04
10
58.7119519187246
20
1.08291372288233
30
0
0
SPLINE
5
FE
100
AcDbEntity
8
1
62
256
6
ByLayer
370
13
48
1
60
0
100
AcDbSpline
70
4
71
3
72
9
73
5
40
0
40
0
40
0
40
0
40
0.603081996363696
40
1
40
1
40
1
40
1
41
1
10
64.8554505438449
20
-1.83329251508317
30
0
41
1
10
64.8851180669521
20
-2.24230671760449
30
0
41
1
10
64.9363213869033
20
-2.88707813623964
30
0
41
1
10
64.9922668355607
20
-3.37691272942627
30
0
41
1
10
65.014874387365
20
-3.53218004573986
30
0
0
SPLINE
5
FF
100
AcDbEntity
8
1
62
256
6
ByLayer
370
18
48
1
60
0
100
AcDbSpline
70
4
71
3
72
27
73
23
40
0
40
0
40
0
40
0
40
0.0625000000000001
40
0.0937500000000002
40
0.0937500000000002
40
0.125
40
0.125
40
0.25
40
0.25
40
0.375
40
0.375
40
0.5
40
0.5
40
0.562499999999999
40
0.593749999999999
40
0.593749999999999
40
0.624999999999998
40
0.624999999999998
40
0.749999999999999
40
0.874999999999999
40
0.874999999999999
40
1
40
1
40
1
40
1
41
1
10
58.9765317523493
20
0.845525586879262
30
0
41
1
10
58.9727372376152
20
0.905574545025445
30
0
41
1
10
58.9670299350566
20
0.995446021472134
30
0
41
1
10
58.9612707888266
20
1.08500764209884
30
0
41
1
10
58.9574177697428
20
1.1446456638308
30
0
41
1
10
58.9554863724686
20
1.17439915330866
30
0
41
1
10
58.945836580291
20
1.32229629990897
30
0
41
1
10
58.9381011689327
20
1.43833884327893
30
0
41
1
10
58.9225995742553
20
1.66600059003824
30
0
41
1
10
58.9148507098527
20
1.77762158558727
30
0
41
1
10
58.8993537925539
20
1.9964724673585
30
0
41
1
10
58.8915965239942
20
2.10370132047004
30
0
41
1
10
58.8799035248127
20
2.26119573126115
30
0
41
1
10
58.8740429005096
20
2.33910463120697
30
0
41
1
10
58.8681539430127
20
2.41573555138731
30
0
41
1
10
58.8642209325618
20
2.46653578129974
30
0
41
1
10
58.8622521817494
20
2.49177538241221
30
0
41
1
10
58.852436203783
20
2.61665459437893
30
0
41
1
10
58.8368349863167
20
2.8089707568592
30
0
41
1
10
58.8213676845042
20
2.98671073889938
30
0
41
1
10
58.805934094229
20
3.15720534070016
30
0
41
1
10
58.7982446272075
20
3.23883149158465
30
0
41
1
10
58.7904887067156
20
3.31676910552102
30
0
0
SPLINE
5
100
100
AcDbEntity
8
1
62
256
6
ByLayer
370
13
48
1
60
0
100
AcDbSpline
70
4
71
3
72
9
73
5
40
0
40
0
40
0
40
0
40
0.780466684439637
40
1
40
1
40
1
40
1
41
1
10
59.8111547311904
20
2.3154652891877
30
0
41
1
10
59.849276229926
20
1.83457259269633
30
0
41
1
10
59.9010837593092
20
1.08388107796452
30
0
41
1
10
59.9577257019544
20
0.198763047042974
30
0
41
1
10
59.9703059924613
20
0.0021559349048061
30
0
0
SPLINE
5
101
100
AcDbEntity
8
1
62
256
6
ByLayer
370
18
48
1
60
0
100
AcDbSpline
70
4
71
3
72
29
73
25
40
0
40
0
40
0
40
0
40
0.0312500000000008
40
0.0312500000000008
40
0.0625000000000015
40
0.0625000000000015
40
0.125000000000003
40
0.125000000000003
40
0.250000000000004
40
0.250000000000004
40
0.375000000000005
40
0.500000000000006
40
0.500000000000006
40
0.531250000000006
40
0.531250000000006
40
0.562500000000006
40
0.562500000000006
40
0.625000000000005
40
0.625000000000005
40
0.750000000000003
40
0.750000000000003
40
0.875000000000002
40
0.875000000000002
40
1
40
1
40
1
40
1
41
1
10
59.5010425964868
20
2.9212392671175
30
0
41
1
10
59.5026863459291
20
2.89761514908122
30
0
41
1
10
59.5043354624747
20
2.87373233049439
30
0
41
1
10
59.5076459002063
20
2.82544471661461
30
0
41
1
10
59.5093092384568
20
2.80100996374955
30
0
41
1
10
59.5143020354597
20
2.72717192856899
30
0
41
1
10
59.5176331660571
20
2.6772554462928
30
0
41
1
10
59.5276424793875
20
2.5254708931873
30
0
41
1
10
59.5343376324324
20
2.42157152406341
30
0
41
1
10
59.5477796049277
20
2.20845946849155
30
0
41
1
10
59.5612723084815
20
1.99003341224625
30
0
41
1
10
59.5748285064949
20
1.76095317196211
30
0
41
1
10
59.5833093347236
20
1.61436623578746
30
0
41
1
10
59.5850059383224
20
1.5848779598449
30
0
41
1
10
59.5883998934633
20
1.5255563415526
30
0
41
1
10
59.5900987189042
20
1.49569661553323
30
0
41
1
10
59.5951729138736
20
1.40600907655337
30
0
41
1
10
59.59853242097
20
1.34596084576012
30
0
41
1
10
59.6085442880229
20
1.1650600639262
30
0
41
1
10
59.6151285990961
20
1.04345266871798
30
0
41
1
10
59.6281622969765
20
0.798263990050486
30
0
41
1
10
59.6346061068202
20
0.674682206763066
30
0
41
1
10
59.6474772429832
20
0.425547371603926
30
0
41
1
10
59.6539314349088
20
0.299996490342295
30
0
41
1
10
59.66050658182
20
0.173445540000358
30
0
0
SPLINE
5
102
100
AcDbEntity
8
1
62
256
6
ByLayer
370
13
48
1
60
0
100
AcDbSpline
70
4
71
3
72
9
73
5
40
0
40
0
40
0
40
0
40
0.618146491917287
40
1
40
1
40
1
40
1
41
1.04
10
61.9159967847055
20
0.643116215833464
30
0
41
1.04
10
61.9489118376408
20
0.137272194625245
30
0
41
1.04
10
62.0017017097089
20
-0.701439715483551
30
0
41
1.04
10
62.0547569788221
20
-1.48259527529537
30
0
41
1.04
10
62.0750807849586
20
-1.76477951307402
30
0
0
SPLINE
5
103
100
AcDbEntity
8
1
62
256
6
ByLayer
370
18
48
1
60
0
100
AcDbSpline
70
4
71
3
72
26
73
22
40
0
40
0
40
0
40
0
40
0.125
40
0.125
40
0.25
40
0.25
40
0.375
40
0.375
40
0.4375
40
0.4375
40
0.5
40
0.5
40
0.625
40
0.625
40
0.75
40
0.75
40
0.875
40
0.875
40
0.9375
40
0.9375
40
1
40
1
40
1
40
1
41
1
10
64.3001789406304
20
-1.54936560396297
30
0
41
1
10
64.3077635330388
20
-1.68692865995146
30
0
41
1
10
64.3153085915252
20
-1.82147514566231
30
0
41
1
10
64.3304187108177
20
-2.08469348307304
30
0
41
1
10
64.3379920308933
20
-2.21336458151697
30
0
41
1
10
64.3532374765085
20
-2.46484671369527
30
0
41
1
10
64.3609048593337
20
-2.58765820303876
30
0
41
1
10
64.3724647283177
20
-2.76738876267879
30
0
41
1
10
64.3763275650733
20
-2.82655005345663
30
0
41
1
10
64.3840694174339
20
-2.9433450659379
30
0
41
1
10
64.3879214990522
20
-3.00057251912912
30
0
41
1
10
64.3994050783614
20
-3.16861768368236
30
0
41
1
10
64.4069684897842
20
-3.27589296838317
30
0
41
1
10
64.4219142762842
20
-3.48113525925808
30
0
41
1
10
64.4292951061105
20
-3.57910193912707
30
0
41
1
10
64.4439297998333
20
-3.76569886663307
30
0
41
1
10
64.451206741198
20
-3.85432871944684
30
0
41
1
10
64.4623327437629
20
-3.98007202413339
30
0
41
1
10
64.4660808495775
20
-4.02084507614026
30
0
41
1
10
64.4736184673729
20
-4.09942124165511
30
0
41
1
10
64.4774118438951
20
-4.13727400884426
30
0
41
1
10
64.4812348683836
20
-4.17369751186644
30
0
0
SPLINE
5
104
100
AcDbEntity
8
1
62
256
6
ByLayer
370
13
48
1
60
0
100
AcDbSpline
70
4
71
3
72
8
73
4
40
0
40
0
40
0
40
0
40
1
40
1
40
1
40
1
41
1
10
63.1740474770046
20
-0.445852175684706
30
0
41
1
10
63.2287445852569
20
-1.29070578551966
30
0
41
1
10
63.2813372855721
20
-2.06749108107107
30
0
41
1
10
63.3333595037789
20
-2.66337914253722
30
0
0
SPLINE
5
105
100
AcDbEntity
8
1
62
256
6
ByLayer
370
18
48
1
60
0
100
AcDbSpline
70
4
71
3
72
26
73
22
40
0
40
0
40
0
40
0
40
0.125000000000002
40
0.250000000000004
40
0.375000000000006
40
0.375000000000006
40
0.437500000000007
40
0.437500000000007
40
0.468750000000007
40
0.468750000000007
40
0.500000000000007
40
0.625000000000006
40
0.625000000000006
40
0.750000000000004
40
0.875000000000003
40
0.875000000000003
40
0.906250000000002
40
0.906250000000002
40
0.937500000000002
40
0.937500000000002
40
1
40
1
40
1
40
1
41
1
10
62.6332260790583
20
-2.86753189623369
30
0
41
1
10
62.6256881976389
20
-2.75065445153797
30
0
41
1
10
62.6106245452775
20
-2.51074709729062
30
0
41
1
10
62.5878179337579
20
-2.13297863995774
30
0
41
1
10
62.5724011220882
20
-1.86926412886041
30
0
41
1
10
62.5607673619575
20
-1.66694374316745
30
0
41
1
10
62.5568779560836
20
-1.5987467117456
30
0
41
1
10
62.5510311825265
20
-1.4952943071595
30
0
41
1
10
62.5490789062804
20
-1.46059425797171
30
0
41
1
10
62.5451908041213
20
-1.39115462586892
30
0
41
1
10
62.5354974362123
20
-1.21725525791768
30
0
41
1
10
62.5259839338236
20
-1.04187180217448
30
0
41
1
10
62.511003002513
20
-0.759402444135958
30
0
41
1
10
62.4962185111583
20
-0.475079219549002
30
0
41
1
10
62.4814804598896
20
-0.187065329908222
30
0
41
1
10
62.4721914733245
20
-0.0058797328339608
30
0
41
1
10
62.4703298504697
20
0.0304163500894674
30
0
41
1
10
62.4665968809649
20
0.103127518526861
30
0
41
1
10
62.4647242970353
20
0.139566568951551
30
0
41
1
10
62.4591086962964
20
0.248681577382939
30
0
41
1
10
62.4553623445569
20
0.321261011377374
30
0
41
1
10
62.4516068997464
20
0.393677102417456
30
0
0
SPLINE
5
106
100
AcDbEntity
8
1
62
256
6
ByLayer
370
18
48
1
60
0
100
AcDbSpline
70
4
71
3
72
27
73
23
40
0
40
0
40
0
40
0
40
0.125
40
0.125
40
0.25
40
0.25
40
0.375
40
0.375
40
0.4375
40
0.4375
40
0.46875
40
0.46875
40
0.5
40
0.625000000000001
40
0.750000000000001
40
0.875000000000001
40
0.875000000000001
40
0.906250000000001
40
0.906250000000001
40
0.9375
40
0.9375
40
1
40
1
40
1
40
1
41
1
10
62.6187847346637
20
0.215904908948204
30
0
41
1
10
62.6264479556138
20
0.0706202183376945
30
0
41
1
10
62.6340993454303
20
-0.0739213815396909
30
0
41
1
10
62.6493499336239
20
-0.361564335077389
30
0
41
1
10
62.6569302980248
20
-0.504666573115202
30
0
41
1
10
62.6720240368554
20
-0.78943984968501
30
0
41
1
10
62.679543797121
20
-0.931110583107426
30
0
41
1
10
62.690850977364
20
-1.14251960354636
30
0
41
1
10
62.6946247983615
20
-1.21280614932255
30
0
41
1
10
62.7003024582115
20
-1.31795570972591
30
0
41
1
10
62.7021998157605
20
-1.35299499658572
30
0
41
1
10
62.7059839700243
20
-1.42264978759647
30
0
41
1
10
62.7154260593019
20
-1.5958806266384
30
0
41
1
10
62.7322982982731
20
-1.89964769668498
30
0
41
1
10
62.7548180828633
20
-2.28790049137439
30
0
41
1
10
62.7699921826611
20
-2.53555316145571
30
0
41
1
10
62.7795530565753
20
-2.68675635544147
30
0
41
1
10
62.7814690024709
20
-2.7168176632569
30
0
41
1
10
62.7853087579624
20
-2.77657806218315
30
0
41
1
10
62.787234167961
20
-2.80630141189243
30
0
41
1
10
62.7930043125168
20
-2.89464573302854
30
0
41
1
10
62.7968463754246
20
-2.95249478513273
30
0
41
1
10
62.8006829851512
20
-3.00930179712515
30
0
0
SPLINE
5
107
100
AcDbEntity
8
1
62
256
6
ByLayer
370
18
48
1
60
0
100
AcDbSpline
70
4
71
3
72
22
73
18
40
0
40
0
40
0
40
0
40
0.125
40
0.25
40
0.375
40
0.375
40
0.4375
40
0.4375
40
0.5
40
0.5
40
0.625
40
0.75
40
0.875
40
0.875
40
0.9375
40
0.9375
40
1
40
1
40
1
40
1
41
1
10
64.3143431582815
20
-4.08155955252815
30
0
41
1
10
64.3067670662015
20
-4.00420134780535
30
0
41
1
10
64.2916440323015
20
-3.83942296412491
30
0
41
1
10
64.2688554840508
20
-3.56287613492708
30
0
41
1
10
64.253610466296
20
-3.35898014153906
30
0
41
1
10
64.2422097574211
20
-3.19857355020147
30
0
41
1
10
64.2384164807596
20
-3.14384728934169
30
0
41
1
10
64.2308248123537
20
-3.03187841784759
30
0
41
1
10
64.2270543515418
20
-2.975051520211
30
0
41
1
10
64.2157870105351
20
-2.80209434110461
30
0
41
1
10
64.2008778985988
20
-2.56489104811328
30
0
41
1
10
64.1784704625191
20
-2.18973264905571
30
0
41
1
10
64.1633322862286
20
-1.92669598287574
30
0
41
1
10
64.1518630359591
20
-1.72443800222896
30
0
41
1
10
64.1480151094423
20
-1.65608253966977
30
0
41
1
10
64.1403306275251
20
-1.5186445826065
30
0
41
1
10
64.1364890004961
20
-1.44947383394111
30
0
41
1
10
64.1326467852261
20
-1.37985353541669
30
0
0
SPLINE
5
108
100
AcDbEntity
8
1
62
256
6
ByLayer
370
13
48
1
60
0
100
AcDbSpline
70
4
71
3
72
9
73
5
40
0
40
0
40
0
40
0
40
0.843010444837932
40
1
40
1
40
1
40
1
41
1.04
10
63.5973408972498
20
-0.809348646137937
30
0
41
1.04
10
63.6432584336817
20
-1.50740930431022
30
0
41
1.04
10
63.6961302939656
20
-2.2636695968264
30
0
41
1.04
10
63.7484291023532
20
-2.83711841579557
30
0
41
1.04
10
63.7566233425334
20
-2.92235487985734
30
0
0
SPLINE
5
109
100
AcDbEntity
8
1
62
256
6
ByLayer
370
13
48
1
60
0
100
AcDbSpline
70
4
71
3
72
9
73
5
40
0
40
0
40
0
40
0
40
0.626222003390828
40
1
40
1
40
1
40
1
41
1.04
10
60.2344114076462
20
2.00771349480708
30
0
41
1.04
10
60.2650601760487
20
1.59788639420947
30
0
41
1.04
10
60.3163993939171
20
0.845018070088098
30
0
41
1.04
10
60.3723392537493
20
-0.0373168198175806
30
0
41
1.04
10
60.393490193084
20
-0.366065957660912
30
0
0
SPLINE
5
10A
100
AcDbEntity
8
1
62
256
6
ByLayer
370
18
48
1
60
0
100
AcDbSpline
70
4
71
3
72
12
73
8
40
0
40
0
40
0
40
0
40
0.5
40
0.5
40
0.75
40
0.75
40
1
40
1
40
1
40
1
41
1
10
66.1642200027123
20
-4.76706159739356
30
0
41
1
10
66.251381308022
20
-4.6331874231515
30
0
41
1
10
66.3394503716931
20
-4.49515894971995
30
0
41
1
10
66.4726340231979
20
-4.28296592508846
30
0
41
1
10
66.5171678327258
20
-4.21144034467494
30
0
41
1
10
66.6065711256529
20
-4.06684455002804
30
0
41
1
10
66.6514255968368
20
-3.99383020126621
30
0
41
1
10
66.6965284654318
20
-3.9198583274061
30
0
0
SPLINE
5
10B
100
AcDbEntity
8
1
62
256
6
ByLayer
370
18
48
1
60
0
100
AcDbSpline
70
4
71
3
72
8
73
4
40
0
40
0
40
0
40
0
40
1
40
1
40
1
40
1
41
1
10
66.1642200027123
20
-4.76706159739351
30
0
41
1
10
66.1079368949356
20
-4.75795125760121
30
0
41
1
10
66.0516890947609
20
-4.74773671875013
30
0
41
1
10
65.9954563330571
20
-4.73642452243777
30
0
0
SPLINE
5
10C
100
AcDbEntity
8
1
62
256
6
ByLayer
370
18
48
1
60
0
100
AcDbSpline
70
4
71
3
72
14
73
10
40
0
40
0
40
0
40
0
40
0.250000000000001
40
0.250000000000001
40
0.5
40
0.5
40
0.75
40
0.75
40
1
40
1
40
1
40
1
41
1
10
65.438198684563
20
-3.67963613971924
30
0
41
1
10
65.4853449471154
20
-3.77127996458739
30
0
41
1
10
65.532359347363
20
-3.86216990317956
30
0
41
1
10
65.6259554451195
20
-4.04215478420417
30
0
41
1
10
65.6725816750327
20
-4.13129732864564
30
0
41
1
10
65.7655312232205
20
-4.30778181488455
30
0
41
1
10
65.8117864697821
20
-4.39499752012014
30
0
41
1
10
65.9039342092284
20
-4.56736982245053
30
0
41
1
10
65.9498071314045
20
-4.65248915415836
30
0
41
1
10
65.9954563330571
20
-4.73642452243777
30
0
0
SPLINE
5
10D
100
AcDbEntity
8
1
62
256
6
ByLayer
370
18
48
1
60
0
100
AcDbSpline
70
4
71
3
72
32
73
28
40
0
40
0
40
0
40
0
40
0.0624999999999871
40
0.0624999999999871
40
0.124999999999974
40
0.124999999999974
40
0.249999999999949
40
0.249999999999949
40
0.312499999999936
40
0.312499999999936
40
0.374999999999924
40
0.374999999999924
40
0.437499999999911
40
0.437499999999911
40
0.499999999999898
40
0.499999999999898
40
0.624999999999924
40
0.624999999999924
40
0.687499999999937
40
0.687499999999937
40
0.749999999999949
40
0.749999999999949
40
0.874999999999974
40
0.874999999999974
40
0.937499999999987
40
0.937499999999987
40
1
40
1
40
1
40
1
41
1
10
65.0148743873636
20
-3.53218004573799
30
0
41
1
10
65.0214887465025
20
-3.52344140261326
30
0
41
1
10
65.0288240668577
20
-3.51593606024923
30
0
41
1
10
65.0446844713941
20
-3.50296615436591
30
0
41
1
10
65.0532458242067
20
-3.49749003911256
30
0
41
1
10
65.0803187787245
20
-3.48393863189517
30
0
41
1
10
65.0994338884952
20
-3.47898102161716
30
0
41
1
10
65.1292215645082
20
-3.47597853660218
30
0
41
1
10
65.1393326204747
20
-3.47575042325951
30
0
41
1
10
65.1594133398203
20
-3.47665108630321
30
0
41
1
10
65.1694471289109
20
-3.47777246325083
30
0
41
1
10
65.1894935454437
20
-3.48121377143212
30
0
41
1
10
65.199506205373
20
-3.48353459775032
30
0
41
1
10
65.2195014418109
20
-3.48930386526567
30
0
41
1
10
65.2295252652599
20
-3.49277067796575
30
0
41
1
10
65.2591717956722
20
-3.50467872280382
30
0
41
1
10
65.2783712713163
20
-3.51458130778428
30
0
41
1
10
65.306310127108
20
-3.53221609172721
30
0
41
1
10
65.3154783726667
20
-3.53856269752441
30
0
41
1
10
65.3335077007688
20
-3.55222335608718
30
0
41
1
10
65.3423110179234
20
-3.55949759868338
30
0
41
1
10
65.3678140772639
20
-3.58244778462949
30
0
41
1
10
65.3837287824276
20
-3.59931055767297
30
0
41
1
10
65.4057454579844
20
-3.62726505859058
30
0
41
1
10
65.4127724292906
20
-3.63703106596549
30
0
41
1
10
65.4261120976378
20
-3.6575989014932
30
0
41
1
10
65.4324259735681
20
-3.66841503147498
30
0
41
1
10
65.4381986845631
20
-3.67963613971978
30
0
0
SPLINE
5
10E
100
AcDbEntity
8
1
62
256
6
ByLayer
370
18
48
1
60
0
100
AcDbSpline
70
4
71
3
72
12
73
8
40
0
40
0
40
0
40
0
40
0.5
40
0.5
40
0.75
40
0.75
40
1
40
1
40
1
40
1
41
1
10
64.4812348683836
20
-4.17369751186658
30
0
41
1
10
64.5685586243901
20
-4.07943085558506
30
0
41
1
10
64.6568203725994
20
-3.97859874335404
30
0
41
1
10
64.7903438045975
20
-3.81798814357225
30
0
41
1
10
64.8349975669855
20
-3.76293863494294
30
0
41
1
10
64.9246524250286
20
-3.64986140706475
30
0
41
1
10
64.9696384643764
20
-3.59194404994901
30
0
41
1
10
65.0148743873649
20
-3.53218004573983
30
0
0
SPLINE
5
10F
100
AcDbEntity
8
1
62
256
6
ByLayer
370
18
48
1
60
0
100
AcDbSpline
70
4
71
3
72
8
73
4
40
0
40
0
40
0
40
0
40
1
40
1
40
1
40
1
41
1
10
64.4812348683836
20
-4.17369751186644
30
0
41
1
10
64.4255247524068
20
-4.14388571259454
30
0
41
1
10
64.3699011610894
20
-4.1131672735678
30
0
41
1
10
64.3143431582815
20
-4.08155955252815
30
0
0
SPLINE
5
110
100
AcDbEntity
8
1
62
256
6
ByLayer
370
18
48
1
60
0
100
AcDbSpline
70
4
71
3
72
14
73
10
40
0
40
0
40
0
40
0
40
0.25
40
0.25
40
0.5
40
0.5
40
0.75
40
0.75
40
1
40
1
40
1
40
1
41
1
10
63.7566233425333
20
-2.92235487985729
30
0
41
1
10
63.8038859733943
20
-3.01882006848646
30
0
41
1
10
63.8509950210499
20
-3.11536076178894
30
0
41
1
10
63.9447296326768
20
-3.30867908872995
30
0
41
1
10
63.9914004115226
20
-3.40545839907648
30
0
41
1
10
64.0844054801107
20
-3.59908303804119
30
0
41
1
10
64.1306731698763
20
-3.69579647936888
30
0
41
1
10
64.2228300661919
20
-3.88898798262048
30
0
41
1
10
64.2686997648032
20
-3.98542552893247
30
0
41
1
10
64.3143431582814
20
-4.08155955252812
30
0
0
SPLINE
5
111
100
AcDbEntity
8
1
62
256
6
ByLayer
370
18
48
1
60
0
100
AcDbSpline
70
4
71
3
72
31
73
27
40
0
40
0
40
0
40
0
40
0.0624999999999927
40
0.0624999999999927
40
0.124999999999985
40
0.124999999999985
40
0.249999999999971
40
0.249999999999971
40
0.312499999999989
40
0.312499999999989
40
0.375000000000007
40
0.437500000000025
40
0.437500000000025
40
0.500000000000043
40
0.500000000000043
40
0.625000000000077
40
0.625000000000077
40
0.687500000000071
40
0.687500000000071
40
0.750000000000064
40
0.750000000000064
40
0.875000000000051
40
0.875000000000051
40
0.937500000000026
40
0.937500000000026
40
1
40
1
40
1
40
1
41
1
10
63.3333595037789
20
-2.66337914253722
30
0
41
1
10
63.3399627657493
20
-2.65794481806614
30
0
41
1
10
63.3472836981713
20
-2.65376637075613
30
0
41
1
10
63.3631110649431
20
-2.6474811418596
30
0
41
1
10
63.3716491911823
20
-2.64537715101031
30
0
41
1
10
63.3986754426238
20
-2.64190866333408
30
0
41
1
10
63.4177603178863
20
-2.64336771258732
30
0
41
1
10
63.447502481239
20
-2.64968025016148
30
0
41
1
10
63.4576079687403
20
-2.65250163121823
30
0
41
1
10
63.477678885614
20
-2.65927228004969
30
0
41
1
10
63.4977377660178
20
-2.66719493417895
30
0
41
1
10
63.5177555897901
20
-2.67718808879539
30
0
41
1
10
63.5377436294851
20
-2.68815889146597
30
0
41
1
10
63.5477632699013
20
-2.69416065082157
30
0
41
1
10
63.577428469192
20
-2.7133930642637
30
0
41
1
10
63.5966384742554
20
-2.72778413380746
30
0
41
1
10
63.6245914308909
20
-2.75162098596061
30
0
41
1
10
63.6337641226977
20
-2.75994548004652
30
0
41
1
10
63.6518019485617
20
-2.7773809775135
30
0
41
1
10
63.6606268538569
20
-2.78645779205635
30
0
41
1
10
63.686169645286
20
-2.81443712526257
30
0
41
1
10
63.7021033669191
20
-2.83420199311644
30
0
41
1
10
63.7241397141892
20
-2.86574124754321
30
0
41
1
10
63.7311717559186
20
-2.87657260890688
30
0
41
1
10
63.7445189060323
20
-2.89896712917076
30
0
41
1
10
63.7508428869564
20
-2.9105567059635
30
0
41
1
10
63.7566233425334
20
-2.92235487985786
30
0
0
SPLINE
5
112
100
AcDbEntity
8
1
62
256
6
ByLayer
370
18
48
1
60
0
100
AcDbSpline
70
4
71
3
72
12
73
8
40
0
40
0
40
0
40
0
40
0.500000000000009
40
0.500000000000009
40
0.750000000000004
40
0.750000000000004
40
1
40
1
40
1
40
1
41
1
10
62.8006829851536
20
-3.00930179711793
30
0
41
1
10
62.887890064774
20
-2.96779606626623
30
0
41
1
10
62.9760078752724
20
-2.91823735056639
30
0
41
1
10
63.1092806138802
20
-2.83173649662811
30
0
41
1
10
63.153846521884
20
-2.80089626258922
30
0
41
1
10
63.243322362145
20
-2.73521860123591
30
0
41
1
10
63.2882170125822
20
-2.70053031807606
30
0
41
1
10
63.3333595037789
20
-2.66337914253719
30
0
0
SPLINE
5
113
100
AcDbEntity
8
1
62
256
6
ByLayer
370
18
48
1
60
0
100
AcDbSpline
70
4
71
3
72
8
73
4
40
0
40
0
40
0
40
0
40
1
40
1
40
1
40
1
41
1
10
62.8006829851576
20
-3.00930179712489
30
0
41
1
10
62.7449157959658
20
-2.96276429518775
30
0
41
1
10
62.6889765100318
20
-2.91539521400895
30
0
41
1
10
62.6332260790583
20
-2.86753189623369
30
0
0
SPLINE
5
114
100
AcDbEntity
8
1
62
256
6
ByLayer
370
18
48
1
60
0
100
AcDbSpline
70
4
71
3
72
14
73
10
40
0
40
0
40
0
40
0
40
0.25
40
0.25
40
0.5
40
0.5
40
0.75
40
0.75
40
1
40
1
40
1
40
1
41
1
10
62.0750807849579
20
-1.76477951306492
30
0
41
1
10
62.1223991530492
20
-1.85287823538698
30
0
41
1
10
62.1695550305168
20
-1.94188333046944
30
0
41
1
10
62.263377052219
20
-2.12209548752418
30
0
41
1
10
62.3100885259982
20
-2.21325803664695
30
0
41
1
10
62.4031649852725
20
-2.39748569920667
30
0
41
1
10
62.4494638453468
20
-2.49042878358063
30
0
41
1
10
62.5416739679676
20
-2.67791502723796
30
0
41
1
10
62.5875649867055
20
-2.77241912960781
30
0
41
1
10
62.6332260790583
20
-2.86753189623369
30
0
0
SPLINE
5
115
100
AcDbEntity
8
1
62
256
6
ByLayer
370
18
48
1
60
0
100
AcDbSpline
70
4
71
3
72
31
73
27
40
0
40
0
40
0
40
0
40
0.0624999999999957
40
0.0624999999999957
40
0.124999999999991
40
0.124999999999991
40
0.250000000000029
40
0.250000000000029
40
0.312500000000024
40
0.312500000000024
40
0.375000000000018
40
0.437500000000012
40
0.437500000000012
40
0.500000000000007
40
0.500000000000007
40
0.624999999999995
40
0.624999999999995
40
0.687499999999989
40
0.687499999999989
40
0.749999999999984
40
0.749999999999984
40
0.874999999999972
40
0.874999999999972
40
0.937499999999986
40
0.937499999999986
40
1
40
1
40
1
40
1
41
1
10
61.6517944092228
20
-1.42845859374128
30
0
41
1
10
61.6583948406082
20
-1.42706705251342
30
0
41
1
10
61.6657115992117
20
-1.42678635458469
30
0
41
1
10
61.6815290871351
20
-1.42805169058943
30
0
41
1
10
61.6900595684422
20
-1.42961149373141
30
0
41
1
10
61.7170733066516
20
-1.43674048914326
30
0
41
1
10
61.7361508571867
20
-1.44445703634361
30
0
41
1
10
61.7658819661837
20
-1.4592997293895
30
0
41
1
10
61.7759873019201
20
-1.46481641930717
30
0
41
1
10
61.796058093659
20
-1.47659641740077
30
0
41
1
10
61.8161168277455
20
-1.4891844153814
30
0
41
1
10
61.8361339458437
20
-1.50323550847031
30
0
41
1
10
61.8561209730235
20
-1.51798290866435
30
0
41
1
10
61.8661395001621
20
-1.52573805270933
30
0
41
1
10
61.8958114337683
20
-1.54977857215545
30
0
41
1
10
61.915024566752
20
-1.5667650856555
30
0
41
1
10
61.9429823584898
20
-1.59365478203517
30
0
41
1
10
61.9521566942884
20
-1.60285526636684
30
0
41
1
10
61.9701979863979
20
-1.62175352541445
30
0
41
1
10
61.9790292443374
20
-1.63141767032803
30
0
41
1
10
62.0045859236287
20
-1.66068336882174
30
0
41
1
10
62.0205278720734
20
-1.68069820746408
30
0
41
1
10
62.0425760700996
20
-1.71157962269442
30
0
41
1
10
62.0496119692521
20
-1.72201766120904
30
0
41
1
10
62.0629666383474
20
-1.74321983055711
30
0
41
1
10
62.0692959480269
20
-1.75400913439381
30
0
41
1
10
62.075080784958
20
-1.76477951306566
30
0
0
SPLINE
5
116
100
AcDbEntity
8
1
62
256
6
ByLayer
370
18
48
1
60
0
100
AcDbSpline
70
4
71
3
72
14
73
10
40
0
40
0
40
0
40
0
40
0.25
40
0.25
40
0.5
40
0.5
40
0.75
40
0.75
40
1
40
1
40
1
40
1
41
1
10
60.3934901930839
20
-0.366065957660908
30
0
41
1
10
60.4294716527912
20
-0.417531889777337
30
0
41
1
10
60.4653740068425
20
-0.469924936194985
30
0
41
1
10
60.5369218908351
20
-0.576955604368067
30
0
41
1
10
60.5725778026666
20
-0.631559902690981
30
0
41
1
10
60.6437090728828
20
-0.742850269555703
30
0
41
1
10
60.6791742105296
20
-0.799527485114396
30
0
41
1
10
60.7498184847165
20
-0.914716888787694
30
0
41
1
10
60.7850142291918
20
-0.973255612870361
30
0
41
1
10
60.8201012540599
20
-1.03272497022402
30
0
0
SPLINE
5
117
100
AcDbEntity
8
1
62
256
6
ByLayer
370
18
48
1
60
0
100
AcDbSpline
70
4
71
3
72
32
73
28
40
0
40
0
40
0
40
0
40
0.0624999999999868
40
0.0624999999999868
40
0.124999999999974
40
0.124999999999974
40
0.249999999999949
40
0.249999999999949
40
0.312499999999936
40
0.312499999999936
40
0.374999999999923
40
0.374999999999923
40
0.437499999999911
40
0.437499999999911
40
0.499999999999898
40
0.499999999999898
40
0.624999999999924
40
0.624999999999924
40
0.687499999999936
40
0.687499999999936
40
0.749999999999949
40
0.749999999999949
40
0.874999999999974
40
0.874999999999974
40
0.937499999999987
40
0.937499999999987
40
1
40
1
40
1
40
1
41
1
10
59.9703059924613
20
0.0021559349048061
30
0
41
1
10
59.9769114471238
20
-0.0006863747990167
30
0
41
1
10
59.984234835992
20
-0.0043459528736491
30
0
41
1
10
60.000069386517
20
-0.0130056309596114
30
0
41
1
10
60.0086126596809
20
-0.0180291032643254
30
0
41
1
10
60.0356560190057
20
-0.0348243350121606
30
0
41
1
10
60.0547559323424
20
-0.0477818022289398
30
0
41
1
10
60.0845210056471
20
-0.0691945337438256
30
0
41
1
10
60.0946320773225
20
-0.07667220625288
30
0
41
1
10
60.1147118295925
20
-0.091890074820185
30
0
41
1
10
60.1247448635033
20
-0.0996761525775582
30
0
41
1
10
60.1447884524429
20
-0.115576259963973
30
0
41
1
10
60.1547990250625
20
-0.123690496795405
30
0
41
1
10
60.1747883394132
20
-0.140239403149479
30
0
41
1
10
60.1848081072183
20
-0.148709949073293
30
0
41
1
10
60.2144561202343
20
-0.174309785411964
30
0
41
1
10
60.233651671987
20
-0.191595093792557
30
0
41
1
10
60.2615825760037
20
-0.217900697186934
30
0
41
1
10
60.2707478412034
20
-0.226732570229729
30
0
41
1
10
60.2887711314183
20
-0.244536414248614
30
0
41
1
10
60.2975789736516
20
-0.253460561634171
30
0
41
1
10
60.3230858706936
20
-0.280013903391449
30
0
41
1
10
60.3390019051111
20
-0.297547232784837
30
0
41
1
10
60.3610226036675
20
-0.323558333689277
30
0
41
1
10
60.3680512378157
20
-0.332179527527558
30
0
41
1
10
60.3813951425841
20
-0.349297689222794
30
0
41
1
10
60.3877142631737
20
-0.357804380197251
30
0
41
1
10
60.3934901930841
20
-0.366065957662329
30
0
0
SPLINE
5
118
100
AcDbEntity
8
1
62
256
6
ByLayer
370
18
48
1
60
0
100
AcDbSpline
70
4
71
3
72
12
73
8
40
0
40
0
40
0
40
0
40
0.5
40
0.5
40
0.75
40
0.75
40
1
40
1
40
1
40
1
41
1
10
59.66050658182
20
0.173445540000358
30
0
41
1
10
59.711643958084
20
0.139131182990951
30
0
41
1
10
59.763069745131
20
0.107611858343773
30
0
41
1
10
59.8405322627718
20
0.0647410079573945
30
0
41
1
10
59.8664045060961
20
0.0511787256416198
30
0
41
1
10
59.9182604445109
20
0.0254873468914809
30
0
41
1
10
59.9442449596243
20
0.0133699285373439
30
0
41
1
10
59.9703059924613
20
0.0021559349048061
30
0
0
SPLINE
5
119
100
AcDbEntity
8
1
62
256
6
ByLayer
370
18
48
1
60
0
100
AcDbSpline
70
4
71
3
72
8
73
4
40
0
40
0
40
0
40
0
40
1
40
1
40
1
40
1
41
1
10
58.9765317523493
20
0.845525586879262
30
0
41
1
10
59.2056035117943
20
0.627742317103866
30
0
41
1
10
59.4330580453704
20
0.403217585613675
30
0
41
1
10
59.66050658182
20
0.173445540000387
30
0
0
SPLINE
5
11A
100
AcDbEntity
8
1
62
256
6
ByLayer
370
18
48
1
60
0
100
AcDbSpline
70
4
71
3
72
10
73
6
40
0
40
0
40
0
40
0
40
0.5
40
0.5
40
1
40
1
40
1
40
1
41
1
10
58.7119519187246
20
1.08291372288235
30
0
41
1
10
58.7563923763303
20
1.04744798323617
30
0
41
1
10
58.8006917451027
20
1.01008865217349
30
0
41
1
10
58.8888917391141
20
0.930916148494902
30
0
41
1
10
58.9328050020341
20
0.889218297537155
30
0
41
1
10
58.9765317523493
20
0.845525586879262
30
0
0
SPLINE
5
11B
100
AcDbEntity
8
1
62
256
6
ByLayer
370
18
48
1
60
0
100
AcDbSpline
70
4
71
3
72
32
73
28
40
0
40
0
40
0
40
0
40
0.0624999999999999
40
0.0624999999999999
40
0.125
40
0.125
40
0.250000000000001
40
0.250000000000001
40
0.312500000000001
40
0.312500000000001
40
0.375000000000001
40
0.375000000000001
40
0.437500000000001
40
0.437500000000001
40
0.500000000000001
40
0.500000000000001
40
0.625000000000002
40
0.625000000000002
40
0.687500000000001
40
0.687500000000001
40
0.750000000000001
40
0.750000000000001
40
0.875
40
0.875
40
0.9375
40
0.9375
40
1
40
1
40
1
40
1
41
1
10
58.2887397671335
20
1.43181677353041
30
0
41
1
10
58.2953411440106
20
1.42512059249449
30
0
41
1
10
58.3026582740096
20
1.41801649860562
30
0
41
1
10
58.3184761211183
20
1.40314441004287
30
0
41
1
10
58.3270065070195
20
1.39535067605917
30
0
41
1
10
58.3540240803451
20
1.37120353857563
30
0
41
1
10
58.3731064780057
20
1.35480555816662
30
0
41
1
10
58.4028450611604
20
1.32982044322884
30
0
41
1
10
58.4129535482298
20
1.32142366607678
30
0
41
1
10
58.4330296535488
20
1.30489112755686
30
0
41
1
10
58.4430612765984
20
1.29670148727968
30
0
41
1
10
58.4631025938611
20
1.28044614625617
30
0
41
1
10
58.4731123121241
20
1.27238058813626
30
0
41
1
10
58.4931002490571
20
1.25635254585174
30
0
41
1
10
58.5031186219123
20
1.24835825249389
30
0
41
1
10
58.5327861092099
20
1.22476375460826
30
0
41
1
10
58.5519930859758
20
1.20959174671316
30
0
41
1
10
58.5799387419322
20
1.18754557225844
30
0
41
1
10
58.5891085266852
20
1.18031704738823
30
0
41
1
10
58.6071400736243
20
1.16609784878503
30
0
41
1
10
58.615964353548
20
1.15913661060023
30
0
41
1
10
58.6415024341572
20
1.1389655413673
30
0
41
1
10
58.6574327518598
20
1.12634501008782
30
0
41
1
10
58.6794670737472
20
1.1088230648559
30
0
41
1
10
58.686499034413
20
1.1032204277337
30
0
41
1
10
58.699846869592
20
1.09257610109586
30
0
41
1
10
58.7061716850461
20
1.08752664258989
30
0
41
1
10
58.7119519187246
20
1.08291372288156
30
0
0
SPLINE
5
11C
100
AcDbEntity
8
1
62
256
6
ByLayer
370
18
48
1
60
0
100
AcDbSpline
70
4
71
3
72
10
73
6
40
0
40
0
40
0
40
0
40
0.5
40
0.5
40
1
40
1
40
1
40
1
41
1
10
58.1095818268342
20
1.62502094969975
30
0
41
1
10
58.1392947998475
20
1.5911985556063
30
0
41
1
10
58.1690749787461
20
1.55818178573594
30
0
41
1
10
58.2287838437856
20
1.49373188693411
30
0
41
1
10
58.2587101816933
20
1.46227762196949
30
0
41
1
10
58.2887397671335
20
1.43181677353041
30
0
0
SPLINE
5
11D
100
AcDbEntity
8
1
62
256
6
ByLayer
370
18
48
1
60
0
100
AcDbSpline
70
4
71
3
72
10
73
6
40
0
40
0
40
0
40
0
40
0.5
40
0.5
40
1
40
1
40
1
40
1
41
1
10
57.1324288412209
20
2.37405894838881
30
0
41
1
10
57.2961807086181
20
2.26164502223816
30
0
41
1
10
57.4591322367523
20
2.14275848494586
30
0
41
1
10
57.784556207018
20
1.8928997294941
30
0
41
1
10
57.9469858641209
20
1.76188710221751
30
0
41
1
10
58.1095818268342
20
1.62502094969972
30
0
0
SPLINE
5
11E
100
AcDbEntity
8
1
62
256
6
ByLayer
370
18
48
1
60
0
100
AcDbSpline
70
4
71
3
72
8
73
4
40
0
40
0
40
0
40
0
40
1
40
1
40
1
40
1
41
1
10
57.0303556230089
20
2.38396781183741
30
0
41
1
10
57.0644659936405
20
2.38193885880116
30
0
41
1
10
57.0985039612601
20
2.37870576017653
30
0
41
1
10
57.1324288412209
20
2.37405894838881
30
0
0
SPLINE
5
11F
100
AcDbEntity
8
1
62
256
6
ByLayer
370
18
48
1
60
0
100
AcDbSpline
70
4
71
3
72
31
73
27
40
0
40
0
40
0
40
0
40
0.0625000000000175
40
0.0625000000000175
40
0.125000000000035
40
0.125000000000035
40
0.250000000000024
40
0.250000000000024
40
0.312500000000018
40
0.312500000000018
40
0.375000000000012
40
0.437500000000006
40
0.437500000000006
40
0.500000000000001
40
0.500000000000001
40
0.62499999999999
40
0.62499999999999
40
0.687499999999985
40
0.687499999999985
40
0.74999999999998
40
0.74999999999998
40
0.874999999999971
40
0.874999999999971
40
0.937499999999985
40
0.937499999999985
40
1
40
1
40
1
40
1
41
1
10
56.6070706694993
20
2.66604924839115
30
0
41
1
10
56.6136730987297
20
2.65643210774439
30
0
41
1
10
56.6209918802091
20
2.64687117842956
30
0
41
1
10
56.6368143152723
20
2.62784814342047
30
0
41
1
10
56.6453479061127
20
2.61835837087924
30
0
41
1
10
56.6723772161449
20
2.59018923251668
30
0
41
1
10
56.6914707130338
20
2.57260131886505
30
0
41
1
10
56.7212255226844
20
2.54745749501745
30
0
41
1
10
56.7313385614464
20
2.53929151003234
30
0
41
1
10
56.7514219672205
20
2.5237053772195
30
0
41
1
10
56.771491070399
20
2.50875534005604
30
0
41
1
10
56.7915133635856
20
2.49491627103106
30
0
41
1
10
56.8115027894746
20
2.48158664243701
30
0
41
1
10
56.8215213114941
20
2.47515202599846
30
0
41
1
10
56.8511841383922
20
2.45677785280498
30
0
41
1
10
56.8703870119942
20
2.44577814909269
30
0
41
1
10
56.8983271822801
20
2.43097237133523
30
0
41
1
10
56.9074952550179
20
2.4263227169676
30
0
41
1
10
56.9255240221476
20
2.41760366543818
30
0
41
1
10
56.9343452504074
20
2.41355511626151
30
0
41
1
10
56.9598790721054
20
2.40249833195136
30
0
41
1
10
56.9758101848178
20
2.3964906093272
30
0
41
1
10
56.9978514684665
20
2.38980867653248
30
0
41
1
10
57.004886839122
20
2.38797479803182
30
0
41
1
10
57.0182421197502
20
2.38522510181261
30
0
41
1
10
57.02457124585
20
2.38431187815391
30
0
41
1
10
57.030355623009
20
2.38396781183675
30
0
0
SPLINE
5
120
100
AcDbEntity
8
1
62
256
6
ByLayer
370
18
48
1
60
0
100
AcDbSpline
70
4
71
3
72
8
73
4
40
0
40
0
40
0
40
0
40
1
40
1
40
1
40
1
41
1
10
56.5583635612701
20
2.73767779926007
30
0
41
1
10
56.5745766840283
20
2.71361797105232
30
0
41
1
10
56.5908108776852
20
2.68973336514662
30
0
41
1
10
56.6070706694993
20
2.66604924839115
30
0
0
SPLINE
5
121
100
AcDbEntity
8
1
62
256
6
ByLayer
370
18
48
1
60
0
100
AcDbSpline
70
4
71
3
72
10
73
6
40
0
40
0
40
0
40
0
40
0.5
40
0.5
40
1
40
1
40
1
40
1
41
1
10
55.82
20
3.11262177558638
30
0
41
1
10
55.9440842928347
20
3.05863220952662
30
0
41
1
10
56.0674465826638
20
3.00023639506949
30
0
41
1
10
56.3133926765308
20
2.87512858087507
30
0
41
1
10
56.4360217110138
20
2.80846122163504
30
0
41
1
10
56.5583635612701
20
2.73767779926007
30
0
0
SPLINE
5
122
100
AcDbEntity
8
1
62
256
6
ByLayer
370
18
48
1
60
0
100
AcDbSpline
70
4
71
3
72
8
73
4
40
0
40
0
40
0
40
0
40
1
40
1
40
1
40
1
41
1
10
55.82
20
3.11262177558638
30
0
41
1
10
55.7440295858341
20
3.12452226382143
30
0
41
1
10
55.6678554693423
20
3.13347061902837
30
0
41
1
10
55.5909844625067
20
3.13897795653511
30
0
0
SPLINE
5
123
100
AcDbEntity
8
1
62
256
6
ByLayer
370
18
48
1
60
0
100
AcDbSpline
70
4
71
3
72
12
73
8
40
0
40
0
40
0
40
0
40
0.249999999999989
40
0.249999999999989
40
0.499999999999979
40
0.499999999999979
40
1
40
1
40
1
40
1
41
1
10
55.5909844625067
20
3.13897795653511
30
0
41
1
10
55.5494390745635
20
3.14195442949512
30
0
41
1
10
55.5066398425261
20
3.14642760242236
30
0
41
1
10
55.4187342495494
20
3.15847358079586
30
0
41
1
10
55.373640493499
20
3.16606686194603
30
0
41
1
10
55.2354783869544
20
3.19420274294279
30
0
41
1
10
55.13957052724
20
3.22005265333382
30
0
41
1
10
55.0409844625067
20
3.25513350512162
30
0
0
SPLINE
5
124
100
AcDbEntity
8
1
62
256
6
ByLayer
370
18
48
1
60
0
100
AcDbSpline
70
4
71
3
72
36
73
32
40
0
40
0
40
0
40
0
40
0.114626309529079
40
0.114626309529079
40
0.171939464293621
40
0.171939464293621
40
0.229252619058162
40
0.286565773822704
40
0.286565773822704
40
0.343878928587246
40
0.343878928587246
40
0.401192083351788
40
0.401192083351788
40
0.429848660734058
40
0.429848660734058
40
0.458505238116329
40
0.458505238116329
40
0.573131547645404
40
0.573131547645404
40
0.687757857174478
40
0.687757857174478
40
0.802384166703552
40
0.802384166703552
40
0.859697321468089
40
0.859697321468089
40
0.888353898850356
40
0.888353898850356
40
0.917010476232622
40
0.974323630997155
40
0.974323630997155
40
1
40
1
40
1
40
1
41
1
10
55.0409844625067
20
3.25513350512162
30
0
41
1
10
54.8269458208612
20
3.33129698608357
30
0
41
1
10
54.614421400182
20
3.39591282474154
30
0
41
1
10
54.2968947127432
20
3.47561361447836
30
0
41
1
10
54.1912659153588
20
3.49930729765512
30
0
41
1
10
53.9802909080805
20
3.54092063407518
30
0
41
1
10
53.7695975045174
20
3.57675363782224
30
0
41
1
10
53.5587465229929
20
3.60083832103908
30
0
41
1
10
53.3474364066059
20
3.61899348281111
30
0
41
1
10
53.2415355389117
20
3.62511128238307
30
0
41
1
10
53.0293521911405
20
3.63140727688872
30
0
41
1
10
52.9231028388384
20
3.63158338121687
30
0
41
1
10
52.7633736982606
20
3.62728918687793
30
0
41
1
10
52.7100649979156
20
3.62509785064134
30
0
41
1
10
52.6032734483509
20
3.61917941425963
30
0
41
1
10
52.5497849082728
20
3.61544941398179
30
0
41
1
10
52.2831440731895
20
3.5930599995832
30
0
41
1
10
52.0713364112293
20
3.56312825383785
30
0
41
1
10
51.6484035553037
20
3.48052979807218
30
0
41
1
10
51.4372917550361
20
3.42790604938631
30
0
41
1
10
51.0152595921913
20
3.30032873135437
30
0
41
1
10
50.8043020984286
20
3.22534378270183
30
0
41
1
10
50.4862034290907
20
3.09669818880889
30
0
41
1
10
50.3799038877888
20
3.05111649494143
30
0
41
1
10
50.2198324637752
20
2.97878369333475
30
0
41
1
10
50.1663061118115
20
2.95398199570189
30
0
41
1
10
50.0593568425575
20
2.90324725812101
30
0
41
1
10
49.8991640351608
20
2.82548488170517
30
0
41
1
10
49.7396380813204
20
2.74282426747305
30
0
41
1
10
49.5860630984729
20
2.65992323930973
30
0
41
1
10
49.5386128196988
20
2.63383779921298
30
0
41
1
10
49.4912164325685
20
2.60732582632784
30
0
0
SPLINE
5
125
100
AcDbEntity
8
1
62
256
6
ByLayer
370
18
48
1
60
0
100
AcDbSpline
70
4
71
3
72
72
73
68
40
0
40
0
40
0
40
0
40
0.004232006190514
40
0.004232006190514
40
0.0494941877272983
40
0.0494941877272983
40
0.0608097331114949
40
0.0608097331114949
40
0.0721252784956917
40
0.0721252784956917
40
0.0947563692640852
40
0.0947563692640852
40
0.140018550800875
40
0.140018550800875
40
0.185280732337665
40
0.185280732337665
40
0.230542913874454
40
0.230542913874454
40
0.275805095411244
40
0.275805095411244
40
0.321067276948034
40
0.321067276948034
40
0.332382822332232
40
0.332382822332232
40
0.34369836771643
40
0.34369836771643
40
0.366329458484829
40
0.366329458484829
40
0.388960549253228
40
0.388960549253228
40
0.411591640021627
40
0.411591640021627
40
0.456853821558426
40
0.456853821558426
40
0.502116003095224
40
0.502116003095224
40
0.547378184632022
40
0.547378184632022
40
0.59264036616882
40
0.59264036616882
40
0.60395591155302
40
0.60395591155302
40
0.615271456937219
40
0.615271456937219
40
0.637902547705619
40
0.637902547705619
40
0.660533638474018
40
0.660533638474018
40
0.683164729242417
40
0.683164729242417
40
0.728426910779215
40
0.728426910779215
40
0.773689092316014
40
0.773689092316014
40
0.818951273852812
40
0.818951273852812
40
0.86421345538961
40
0.86421345538961
40
0.875529000773811
40
0.875529000773811
40
0.886844546158011
40
0.886844546158011
40
0.909475636926409
40
0.909475636926409
40
0.954737818463204
40
0.954737818463204
40
1
40
1
40
1
40
1
41
1
10
46.00952147655
20
3.6307502101516
30
0
41
1
10
46.0222593296511
20
3.63075011171469
30
0
41
1
10
46.0350005741147
20
3.63070735645312
30
0
41
1
10
46.1840517512506
20
3.62970843428602
30
0
41
1
10
46.3207419360069
20
3.62392184561392
30
0
41
1
10
46.4919128839874
20
3.61039828026864
30
0
41
1
10
46.5261642024294
20
3.60737820350687
30
0
41
1
10
46.5947147613701
20
3.60070198997374
30
0
41
1
10
46.6290355852724
20
3.59704298051
30
0
41
1
10
46.7317854143081
20
3.58514292770303
30
0
41
1
10
46.8000800426597
20
3.57597212076001
30
0
41
1
10
47.0045560973689
20
3.54482409628417
30
0
41
1
10
47.1403200546157
20
3.51919724939808
30
0
41
1
10
47.412099585804
20
3.45891603451002
30
0
41
1
10
47.548228335053
20
3.42434185944919
30
0
41
1
10
47.8199984311353
20
3.34612564444981
30
0
41
1
10
47.9554727452153
20
3.30237829908927
30
0
41
1
10
48.2263007159853
20
3.20578892536491
30
0
41
1
10
48.3616775930973
20
3.15295273907287
30
0
41
1
10
48.6334721773258
20
3.03878655722264
30
0
41
1
10
48.7699189880951
20
2.97749110441052
30
0
41
1
10
48.9413292172887
20
2.89567313600554
30
0
41
1
10
48.975653882266
20
2.87904934310564
30
0
41
1
10
49.0443928383698
20
2.84528204973481
30
0
41
1
10
49.0788313858283
20
2.82812607660463
30
0
41
1
10
49.1819954465689
20
2.77602825961509
30
0
41
1
10
49.250638356592
20
2.74043423328288
30
0
41
1
10
49.3876201646079
20
2.66750887506811
30
0
41
1
10
49.4559557863561
20
2.63017507112966
30
0
41
1
10
49.5922109485097
20
2.55367361070256
30
0
41
1
10
49.6601358970511
20
2.51450945603861
30
0
41
1
10
49.8634964265374
20
2.39444554754653
30
0
41
1
10
49.9985030260284
20
2.31095219787264
30
0
41
1
10
50.2688026482112
20
2.13847466251147
30
0
41
1
10
50.404171346443
20
2.04958003126407
30
0
41
1
10
50.6754972947921
20
1.86672129123869
30
0
41
1
10
50.811444933208
20
1.77274855626621
30
0
41
1
10
51.0839188939263
20
1.5796872717037
30
0
41
1
10
51.2204457371071
20
1.480599825311
30
0
41
1
10
51.3914780723377
20
1.35344269994161
30
0
41
1
10
51.4257068712676
20
1.32785033283346
30
0
41
1
10
51.4942238747333
20
1.27635784179549
30
0
41
1
10
51.5285378148352
20
1.25043808847207
30
0
41
1
10
51.6313072765942
20
1.17246029982562
30
0
41
1
10
51.6996399714925
20
1.12014584414104
30
0
41
1
10
51.836095280397
20
1.01504656479747
30
0
41
1
10
51.9042214214566
20
0.962266096643702
30
0
41
1
10
52.0404212654247
20
0.856433436854473
30
0
41
1
10
52.1084844591083
20
0.803368339882297
30
0
41
1
10
52.312564827332
20
0.643732569533483
30
0
41
1
10
52.4484675352653
20
0.536715582128636
30
0
41
1
10
52.7199109831805
20
0.321428292507193
30
0
41
1
10
52.8554913054061
20
0.213207568299481
30
0
41
1
10
53.1263288336099
20
-0.0044491905469215
30
0
41
1
10
53.2614772657905
20
-0.114025089132014
30
0
41
1
10
53.532805022911
20
-0.332694896103902
30
0
41
1
10
53.6691622550324
20
-0.441560222780509
30
0
41
1
10
53.8405740682516
20
-0.57692923982944
30
0
41
1
10
53.8749021062992
20
-0.603970761746581
30
0
41
1
10
53.9436450858945
20
-0.657995180483312
30
0
41
1
10
53.9780791092456
20
-0.684992974479485
30
0
41
1
10
54.0813052275096
20
-0.765757388202843
30
0
41
1
10
54.1500394891438
20
-0.819324937831794
30
0
41
1
10
54.3559686789342
20
-0.979230792166902
30
0
41
1
10
54.49292149934
20
-1.08473259935775
30
0
41
1
10
54.7667865713177
20
-1.29276065002588
30
0
41
1
10
54.903699542974
20
-1.3952851782557
30
0
41
1
10
55.0409844625067
20
-1.49585263220857
30
0
0
SPLINE
5
126
100
AcDbEntity
8
1
62
256
6
ByLayer
370
18
48
1
60
0
100
AcDbSpline
70
4
71
3
72
14
73
10
40
0
40
0
40
0
40
0
40
0.25
40
0.25
40
0.5
40
0.5
40
0.75
40
0.75
40
1
40
1
40
1
40
1
41
1
10
55.0409844625067
20
-1.49585263220857
30
0
41
1
10
55.0878841953001
20
-1.53020882176057
30
0
41
1
10
55.134638265412
20
-1.5651064377486
30
0
41
1
10
55.2276486553965
20
-1.63623417428897
30
0
41
1
10
55.273907410181
20
-1.67246114728167
30
0
41
1
10
55.3657654618897
20
-1.74648013599398
30
0
41
1
10
55.4113637365189
20
-1.78427234326426
30
0
41
1
10
55.5017843539017
20
-1.86165531113241
30
0
41
1
10
55.546622143581
20
-1.9012283317048
30
0
41
1
10
55.5909844625067
20
-1.94189149331166
30
0
0
SPLINE
5
127
100
AcDbEntity
8
1
62
256
6
ByLayer
370
18
48
1
60
0
100
AcDbSpline
70
4
71
3
72
8
73
4
40
0
40
0
40
0
40
0
40
1
40
1
40
1
40
1
41
1
10
55.5909844625067
20
-1.94189149331166
30
0
41
1
10
55.6675634470749
20
-2.01208493000752
30
0
41
1
10
55.7440718097978
20
-2.08252646222815
30
0
41
1
10
55.8200000000003
20
-2.15385740049254
30
0
0
SPLINE
5
128
100
AcDbEntity
8
1
62
256
6
ByLayer
370
18
48
1
60
0
100
AcDbSpline
70
4
71
3
72
12
73
8
40
0
40
0
40
0
40
0
40
0.249999999999995
40
0.249999999999995
40
0.499999999999989
40
0.499999999999989
40
1
40
1
40
1
40
1
41
1
10
56.925460512299
20
-2.97419028709163
30
0
41
1
10
56.8339575641484
20
-2.91037290066853
30
0
41
1
10
56.7425587881329
20
-2.84519054927569
30
0
41
1
10
56.5596605176539
20
-2.7123584311129
30
0
41
1
10
56.4681072039104
20
-2.64474904649299
30
0
41
1
10
56.1923106043787
20
-2.43908901612969
30
0
41
1
10
56.0068978895245
20
-2.29826285814585
30
0
41
1
10
55.8200000000001
20
-2.15385740049237
30
0
0
SPLINE
5
129
100
AcDbEntity
8
1
62
256
6
ByLayer
370
18
48
1
60
0
100
AcDbSpline
70
4
71
3
72
8
73
4
40
0
40
0
40
0
40
0
40
1
40
1
40
1
40
1
41
1
10
57.0089975954297
20
-2.94251691184684
30
0
41
1
10
56.9810830514226
20
-2.95389842480043
30
0
41
1
10
56.9532285330858
20
-2.96450329193783
30
0
41
1
10
56.925460512299
20
-2.97419028709163
30
0
0
SPLINE
5
12A
100
AcDbEntity
8
1
62
256
6
ByLayer
370
18
48
1
60
0
100
AcDbSpline
70
4
71
3
72
32
73
28
40
0
40
0
40
0
40
0
40
0.062500000000016
40
0.062500000000016
40
0.125000000000032
40
0.125000000000032
40
0.187500000000048
40
0.187500000000048
40
0.250000000000064
40
0.250000000000064
40
0.31250000000008
40
0.31250000000008
40
0.375000000000096
40
0.375000000000096
40
0.500000000000077
40
0.500000000000077
40
0.562500000000067
40
0.562500000000067
40
0.625000000000057
40
0.625000000000057
40
0.750000000000038
40
0.750000000000038
40
0.875000000000019
40
0.875000000000019
40
0.93750000000001
40
0.93750000000001
40
1
40
1
40
1
40
1
41
1
10
57.4321389703487
20
-3.17242645877624
30
0
41
1
10
57.4256281655249
20
-3.16159826890626
30
0
41
1
10
57.418441971917
20
-3.15110936110946
30
0
41
1
10
57.4029591541787
20
-3.13069194864124
30
0
41
1
10
57.3946598130775
20
-3.12076481306369
30
0
41
1
10
57.3770721562948
20
-3.10140588955073
30
0
41
1
10
57.3679584600147
20
-3.09216892562341
30
0
41
1
10
57.3493582373434
20
-3.07457667336615
30
0
41
1
10
57.3398441412533
20
-3.06619357748843
30
0
41
1
10
57.3204453685924
20
-3.05014976506226
30
0
41
1
10
57.3105033344535
20
-3.04245000880252
30
0
41
1
10
57.2906236303336
20
-3.02796242292902
30
0
41
1
10
57.2806834521402
20
-3.02116561149546
30
0
41
1
10
57.2508746626631
20
-3.00195971900428
30
0
41
1
10
57.2310168935081
20
-2.99072083335446
30
0
41
1
10
57.201312884834
20
-2.97596473016333
30
0
41
1
10
57.1914480770764
20
-2.9714150130709
30
0
41
1
10
57.1720858272655
20
-2.96314882264679
30
0
41
1
10
57.1625473768931
20
-2.95941153998712
30
0
41
1
10
57.1343715134907
20
-2.94935508073661
30
0
41
1
10
57.1161367716613
20
-2.94416595553659
30
0
41
1
10
57.081147529427
20
-2.93709848775609
30
0
41
1
10
57.0647882055123
20
-2.9352874367199
30
0
41
1
10
57.0421828842391
20
-2.93551023106522
30
0
41
1
10
57.0349725096821
20
-2.93608099848535
30
0
41
1
10
57.0212982021154
20
-2.93838808619296
30
0
41
1
10
57.0148712406496
20
-2.94012206817183
30
0
41
1
10
57.0089975954296
20
-2.94251691184684
30
0
0
SPLINE
5
12B
100
AcDbEntity
8
1
62
256
6
ByLayer
370
18
48
1
60
0
100
AcDbSpline
70
4
71
3
72
8
73
4
40
0
40
0
40
0
40
0
40
1
40
1
40
1
40
1
41
1
10
57.5660035312577
20
-3.39846978249011
30
0
41
1
10
57.5215576601544
20
-3.32239665243134
30
0
41
1
10
57.4769660268606
20
-3.24697882094409
30
0
41
1
10
57.4321389703487
20
-3.17242645877624
30
0
0
SPLINE
5
12C
100
AcDbEntity
8
1
62
256
6
ByLayer
370
18
48
1
60
0
100
AcDbSpline
70
4
71
3
72
10
73
6
40
0
40
0
40
0
40
0
40
0.5
40
0.5
40
1
40
1
40
1
40
1
41
1
10
58.4709432816336
20
-3.91354820977347
30
0
41
1
10
58.3201620962344
20
-3.83763070808689
30
0
41
1
10
58.1697614017031
20
-3.75641716351097
30
0
41
1
10
57.8684838245178
20
-3.58439902184713
30
0
41
1
10
57.7176048690505
20
-3.49359917084752
30
0
41
1
10
57.5660035312577
20
-3.39846978249011
30
0
0
SPLINE
5
12D
100
AcDbEntity
8
1
62
256
6
ByLayer
370
18
48
1
60
0
100
AcDbSpline
70
4
71
3
72
10
73
6
40
0
40
0
40
0
40
0
40
0.5
40
0.5
40
1
40
1
40
1
40
1
41
1
10
58.6902926102247
20
-3.68887231204559
30
0
41
1
10
58.6534501381848
20
-3.72888671625327
30
0
41
1
10
58.6167267013528
20
-3.76773384591161
30
0
41
1
10
58.5436172778396
20
-3.8426506068293
30
0
41
1
10
58.5072184170635
20
-3.87875832448697
30
0
41
1
10
58.4709432816336
20
-3.91354820977347
30
0
0
SPLINE
5
12E
100
AcDbEntity
8
1
62
256
6
ByLayer
370
18
48
1
60
0
100
AcDbSpline
70
4
71
3
72
32
73
28
40
0
40
0
40
0
40
0
40
0.0625000000000161
40
0.0625000000000161
40
0.125000000000032
40
0.125000000000032
40
0.187500000000048
40
0.187500000000048
40
0.250000000000064
40
0.250000000000064
40
0.31250000000008
40
0.31250000000008
40
0.375000000000096
40
0.375000000000096
40
0.500000000000077
40
0.500000000000077
40
0.562500000000067
40
0.562500000000067
40
0.625000000000057
40
0.625000000000057
40
0.750000000000038
40
0.750000000000038
40
0.87500000000002
40
0.87500000000002
40
0.93750000000001
40
0.93750000000001
40
1
40
1
40
1
40
1
41
1
10
59.1134558006437
20
-3.80020883615526
30
0
41
1
10
59.1069474479544
20
-3.78879788689264
30
0
41
1
10
59.0997657064981
20
-3.77811637488546
30
0
41
1
10
59.0842959954788
20
-3.75794801957792
30
0
41
1
10
59.0760052746205
20
-3.74846410007166
30
0
41
1
10
59.0584392943405
20
-3.73056491607665
30
0
41
1
10
59.0493326504261
20
-3.72232549364597
30
0
41
1
10
59.0307523017458
20
-3.70717137639394
30
0
41
1
10
59.0212489603787
20
-3.70022965415285
30
0
41
1
10
59.0018732402777
20
-3.68746274393013
30
0
41
1
10
58.991943914203
20
-3.68161079933103
30
0
41
1
10
58.9720770344025
20
-3.6711121321967
30
0
41
1
10
58.9621431759314
20
-3.66645812106606
30
0
41
1
10
58.9323528083444
20
-3.65408177752371
30
0
41
1
10
58.9125066061602
20
-3.64792539469846
30
0
41
1
10
58.8828176474318
20
-3.64154525216495
30
0
41
1
10
58.8729473704027
20
-3.63990756624105
30
0
41
1
10
58.8535768321645
20
-3.63762351156055
30
0
41
1
10
58.8440339821857
20
-3.63696714979312
30
0
41
1
10
58.8158440724164
20
-3.63642535647296
30
0
41
1
10
58.7976201779709
20
-3.63794592005937
30
0
41
1
10
58.762562387135
20
-3.64508163763702
30
0
41
1
10
58.7461731816545
20
-3.65059629342602
30
0
41
1
10
58.7235315880908
20
-3.6621859206299
30
0
41
1
10
58.7163106124194
20
-3.66660887720866
30
0
41
1
10
58.7026182162194
20
-3.67676431012328
30
0
41
1
10
58.6961761470961
20
-3.68248223533499
30
0
41
1
10
58.6902926102247
20
-3.68887231204559
30
0
0
SPLINE
5
12F
100
AcDbEntity
8
1
62
256
6
ByLayer
370
18
48
1
60
0
100
AcDbSpline
70
4
71
3
72
12
73
8
40
0
40
0
40
0
40
0
40
0.499999999999999
40
0.499999999999999
40
0.749999999999999
40
0.749999999999999
40
1
40
1
40
1
40
1
41
1
10
59.401837802791
20
-4.30901204898422
30
0
41
1
10
59.3542163862037
20
-4.2246162619868
30
0
41
1
10
59.3063719464984
20
-4.13995358312081
30
0
41
1
10
59.2342550127172
20
-4.01266403072282
30
0
41
1
10
59.2101705570296
20
-3.9702072603111
30
0
41
1
10
59.1619005241571
20
-3.8852453666947
30
0
41
1
10
59.1377137657948
20
-3.8427397841177
30
0
41
1
10
59.1134558006437
20
-3.80020883615526
30
0
0
SPLINE
5
130
100
AcDbEntity
8
1
62
256
6
ByLayer
370
18
48
1
60
0
100
AcDbSpline
70
4
71
3
72
10
73
6
40
0
40
0
40
0
40
0
40
0.5
40
0.5
40
1
40
1
40
1
40
1
41
1
10
60.0165375017377
20
-4.48381340058725
30
0
41
1
10
59.9142084763351
20
-4.46097998096843
30
0
41
1
10
59.8120820002527
20
-4.4349259101796
30
0
41
1
10
59.6073681968432
20
-4.37657758217699
30
0
41
1
10
59.5047429052141
20
-4.34429461428115
30
0
41
1
10
59.401837802791
20
-4.30901204898424
30
0
0
SPLINE
5
131
100
AcDbEntity
8
1
62
256
6
ByLayer
370
18
48
1
60
0
100
AcDbSpline
70
4
71
3
72
12
73
8
40
0
40
0
40
0
40
0
40
0.250000000000006
40
0.250000000000006
40
0.500000000000012
40
0.500000000000012
40
1
40
1
40
1
40
1
41
1
10
60.3717896729438
20
-3.93085945894188
30
0
41
1
10
60.3417907318118
20
-3.97932729637489
30
0
41
1
10
60.3118679762122
20
-4.02727762085291
30
0
41
1
10
60.2522421601718
20
-4.12195294420985
30
0
41
1
10
60.2225365442048
20
-4.16868181645421
30
0
41
1
10
60.1336926157796
20
-4.30705426677915
30
0
41
1
10
60.0749300401497
20
-4.39672278254363
30
0
41
1
10
60.0165375017377
20
-4.48381340058725
30
0
0
SPLINE
5
132
100
AcDbEntity
8
1
62
256
6
ByLayer
370
18
48
1
60
0
100
AcDbSpline
70
4
71
3
72
32
73
28
40
0
40
0
40
0
40
0
40
0.0625000000000035
40
0.0625000000000035
40
0.125000000000007
40
0.125000000000007
40
0.18750000000001
40
0.18750000000001
40
0.250000000000014
40
0.250000000000014
40
0.312500000000017
40
0.312500000000017
40
0.375000000000021
40
0.375000000000021
40
0.499999999999976
40
0.499999999999976
40
0.562499999999978
40
0.562499999999978
40
0.624999999999981
40
0.624999999999981
40
0.749999999999987
40
0.749999999999987
40
0.874999999999993
40
0.874999999999993
40
0.937499999999997
40
0.937499999999997
40
1
40
1
40
1
40
1
41
1
10
60.7949101166038
20
-3.90814300432621
30
0
41
1
10
60.7884096038183
20
-3.89773312434798
30
0
41
1
10
60.7812378772301
20
-3.88833768178523
30
0
41
1
10
60.7657914269309
20
-3.87120406002919
30
0
41
1
10
60.7575141304536
20
-3.8634702288069
30
0
41
1
10
60.739978184613
20
-3.84949163658277
30
0
41
1
10
60.7308809521495
20
-3.84338073165097
30
0
41
1
10
60.71232379939
20
-3.83274073231294
30
0
41
1
10
60.7028317754878
20
-3.82818938363678
30
0
41
1
10
60.6834777138693
20
-3.82044182452427
30
0
41
1
10
60.6735592867328
20
-3.81723458389448
30
0
41
1
10
60.653699167445
20
-3.81215893655599
30
0
41
1
10
60.6437677897076
20
-3.81028321064525
30
0
41
1
10
60.613982373094
20
-3.80642667103044
30
0
41
1
10
60.594136141834
20
-3.80619412611003
30
0
41
1
10
60.56444312896
20
-3.80906574584284
30
0
41
1
10
60.5545647632894
20
-3.81057142725499
30
0
41
1
10
60.5351802168603
20
-3.81459573807993
30
0
41
1
10
60.5256306445042
20
-3.81711740524813
30
0
41
1
10
60.4974216591273
20
-3.82618722235844
30
0
41
1
10
60.4791958442515
20
-3.83421619354121
30
0
41
1
10
60.4441005660951
20
-3.85463131829655
30
0
41
1
10
60.4276960076088
20
-3.86674042049373
30
0
41
1
10
60.405041387869
20
-3.88813320328208
30
0
41
1
10
60.3978174148196
20
-3.89580864915084
30
0
41
1
10
60.384120878485
20
-3.91242899072904
30
0
41
1
10
60.3776750584958
20
-3.92135072631996
30
0
41
1
10
60.3717896729438
20
-3.93085945894188
30
0
0
SPLINE
5
133
100
AcDbEntity
8
1
62
256
6
ByLayer
370
18
48
1
60
0
100
AcDbSpline
70
4
71
3
72
12
73
8
40
0
40
0
40
0
40
0
40
0.500000000000011
40
0.500000000000011
40
0.750000000000006
40
0.750000000000006
40
1
40
1
40
1
40
1
41
1
10
61.2387944268379
20
-4.59760931348274
30
0
41
1
10
61.1659733038243
20
-4.48844475978433
30
0
41
1
10
61.092540437854
20
-4.37616113962383
30
0
41
1
10
60.9815453399982
20
-4.20359691068973
30
0
41
1
10
60.9443893160228
20
-4.14536323160024
30
0
41
1
10
60.8698486308255
20
-4.02769726256867
30
0
41
1
10
60.8324668088779
20
-3.96828605332197
30
0
41
1
10
60.7949101166038
20
-3.90814300432621
30
0
0
SPLINE
5
134
100
AcDbEntity
8
1
62
256
6
ByLayer
370
18
48
1
60
0
100
AcDbSpline
70
4
71
3
72
8
73
4
40
0
40
0
40
0
40
0
40
1
40
1
40
1
40
1
41
1
10
61.5633711802088
20
-4.57195569032876
30
0
41
1
10
61.4552112686752
20
-4.58454937409451
30
0
41
1
10
61.347105343538
20
-4.59309220877898
30
0
41
1
10
61.2387944268379
20
-4.59760931348276
30
0
0
SPLINE
5
135
100
AcDbEntity
8
1
62
256
6
ByLayer
370
18
48
1
60
0
100
AcDbSpline
70
4
71
3
72
12
73
8
40
0
40
0
40
0
40
0
40
0.249999999999996
40
0.249999999999996
40
0.499999999999993
40
0.499999999999993
40
1
40
1
40
1
40
1
41
1
10
62.0531856799768
20
-3.63739932322298
30
0
41
1
10
62.0116168700975
20
-3.71735275487777
30
0
41
1
10
61.970208764343
20
-3.79687454131411
30
0
41
1
10
61.8878315875735
20
-3.9549067382712
30
0
41
1
10
61.8468420193411
20
-4.03342988680663
30
0
41
1
10
61.7243374555482
20
-4.26750121317249
30
0
41
1
10
61.6435414571776
20
-4.42104657859588
30
0
41
1
10
61.5633711802088
20
-4.57195569032879
30
0
0
SPLINE
5
136
100
AcDbEntity
8
1
62
256
6
ByLayer
370
18
48
1
60
0
100
AcDbSpline
70
4
71
3
72
32
73
28
40
0
40
0
40
0
40
0
40
0.0624999999999712
40
0.0624999999999712
40
0.124999999999942
40
0.124999999999942
40
0.187499999999914
40
0.187499999999914
40
0.249999999999885
40
0.249999999999885
40
0.312499999999856
40
0.312499999999856
40
0.374999999999827
40
0.374999999999827
40
0.499999999999821
40
0.499999999999821
40
0.562499999999842
40
0.562499999999842
40
0.624999999999864
40
0.624999999999864
40
0.749999999999909
40
0.749999999999909
40
0.874999999999954
40
0.874999999999954
40
0.937499999999977
40
0.937499999999977
40
1
40
1
40
1
40
1
41
1
10
62.4763003498273
20
-3.48299665167042
30
0
41
1
10
62.4697981563277
20
-3.47502277657083
30
0
41
1
10
62.4626254756243
20
-3.46821293584131
30
0
41
1
10
62.4471788652096
20
-3.45649090022715
30
0
41
1
10
62.4389023772042
20
-3.45158392726825
30
0
41
1
10
62.4213701600014
20
-3.44347924411105
30
0
41
1
10
62.4122741671716
20
-3.44036045410721
30
0
41
1
10
62.3937219271677
20
-3.43574219439606
30
0
41
1
10
62.3842330139556
20
-3.43423070844656
30
0
41
1
10
62.3648863767297
20
-3.43261641069367
30
0
41
1
10
62.3549726193694
20
-3.43251982024202
30
0
41
1
10
62.3351176897147
20
-3.43362107915002
30
0
41
1
10
62.3251890800018
20
-3.4348087862094
30
0
41
1
10
62.2954122630343
20
-3.44008074436439
30
0
41
1
10
62.2755721482125
20
-3.44585186661837
30
0
41
1
10
62.2458882006562
20
-3.45764260244573
30
0
41
1
10
62.2360092555147
20
-3.46210635273792
30
0
41
1
10
62.2166237499834
20
-3.47192417960468
30
0
41
1
10
62.2070736587975
20
-3.47729428620576
30
0
41
1
10
62.1788629926784
20
-3.49477427912777
30
0
41
1
10
62.1606358662697
20
-3.50823236899444
30
0
41
1
10
62.1255381777586
20
-3.53914901967656
30
0
41
1
10
62.1091147931825
20
-3.55621156084465
30
0
41
1
10
62.0864505545934
20
-3.58448379690046
30
0
41
1
10
62.0792240773323
20
-3.5943614346111
30
0
41
1
10
62.0655239156044
20
-3.61516945371344
30
0
41
1
10
62.0590735880805
20
-3.62607452322212
30
0
41
1
10
62.0531856799768
20
-3.63739932322298
30
0
0
SPLINE
5
137
100
AcDbEntity
8
1
62
256
6
ByLayer
370
18
48
1
60
0
100
AcDbSpline
70
4
71
3
72
12
73
8
40
0
40
0
40
0
40
0
40
0.499999999999991
40
0.499999999999991
40
0.749999999999996
40
0.749999999999996
40
1
40
1
40
1
40
1
41
1
10
63.0114455805121
20
-4.07106428834408
30
0
41
1
10
62.9240008294927
20
-3.98662176841353
30
0
41
1
10
62.8356240227416
20
-3.89523939289009
30
0
41
1
10
62.7017789146358
20
-3.74801391726464
30
0
41
1
10
62.6569579504035
20
-3.69726300417636
30
0
41
1
10
62.566908405941
20
-3.59254200213058
30
0
41
1
10
62.5217296434719
20
-3.53870823783103
30
0
41
1
10
62.4763003498273
20
-3.48299665167042
30
0
0
SPLINE
5
138
100
AcDbEntity
8
1
62
256
6
ByLayer
370
18
48
1
60
0
100
AcDbSpline
70
4
71
3
72
8
73
4
40
0
40
0
40
0
40
0
40
1
40
1
40
1
40
1
41
1
10
63.0114455805121
20
-4.07106428834393
30
0
41
1
10
63.0674864178994
20
-4.03890111840107
30
0
41
1
10
63.1235026878962
20
-4.00579884760302
30
0
41
1
10
63.1795312978707
20
-3.97177743653182
30
0
0
SPLINE
5
139
100
AcDbEntity
8
1
62
256
6
ByLayer
370
18
48
1
60
0
100
AcDbSpline
70
4
71
3
72
14
73
10
40
0
40
0
40
0
40
0
40
0.25
40
0.25
40
0.5
40
0.5
40
0.75
40
0.75
40
1
40
1
40
1
40
1
41
1
10
63.7346351491377
20
-2.84609925862614
30
0
41
1
10
63.6874050204795
20
-2.93891224640558
30
0
41
1
10
63.6404012135631
20
-3.03201007651862
30
0
41
1
10
63.5469645950598
20
-3.21889680773359
30
0
41
1
10
63.5005001308767
20
-3.31266586667499
30
0
41
1
10
63.4079514600593
20
-3.50075182450581
30
0
41
1
10
63.361949255381
20
-3.59489830874824
30
0
41
1
10
63.2703818841843
20
-3.78334687210568
30
0
41
1
10
63.2248323459574
20
-3.87761837382283
30
0
41
1
10
63.1795312978708
20
-3.97177743653182
30
0
0
SPLINE
5
13A
100
AcDbEntity
8
1
62
256
6
ByLayer
370
18
48
1
60
0
100
AcDbSpline
70
4
71
3
72
22
73
18
40
0
40
0
40
0
40
0
40
0.112451299467488
40
0.112451299467488
40
0.224902598934976
40
0.224902598934976
40
0.449805197869953
40
0.449805197869953
40
0.562256497337397
40
0.562256497337397
40
0.674707796804841
40
0.674707796804841
40
0.787159096272285
40
0.787159096272285
40
0.899610395739729
40
0.899610395739729
40
1
40
1
40
1
40
1
41
1
10
66.6965284654316
20
-3.91985832740605
30
0
41
1
10
66.7031341310677
20
-3.90902457158484
30
0
41
1
10
66.7104586210079
20
-3.89922253079945
30
0
41
1
10
66.7262929733491
20
-3.88132427377013
30
0
41
1
10
66.7348367542875
20
-3.87320681737953
30
0
41
1
10
66.7618663506358
20
-3.85132256364022
30
0
41
1
10
66.7809498119464
20
-3.84052084269504
30
0
41
1
10
66.8106872539706
20
-3.82841226608477
30
0
41
1
10
66.8207874945814
20
-3.82509124089324
30
0
41
1
10
66.8408483580452
20
-3.81984392247466
30
0
41
1
10
66.8508729565796
20
-3.81789040116451
30
0
41
1
10
66.8709026638784
20
-3.815175869401
30
0
41
1
10
66.8809078047453
20
-3.81441577632205
30
0
41
1
10
66.9008897977819
20
-3.81401306132577
30
0
41
1
10
66.910907187419
20
-3.81437560914043
30
0
41
1
10
66.9296191231286
20
-3.81607333252762
30
0
41
1
10
66.9383328920161
20
-3.81729041437504
30
0
41
1
10
66.9469337835853
20
-3.81891179125816
30
0
0
SPLINE
5
13B
100
AcDbEntity
8
1
62
256
6
ByLayer
370
18
48
1
60
0
100
AcDbSpline
70
4
71
3
72
24
73
20
40
0
40
0
40
0
40
0
40
0.0993913056767228
40
0.0993913056767228
40
0.198782611353446
40
0.198782611353446
40
0.397565222706891
40
0.397565222706891
40
0.496956528383655
40
0.496956528383655
40
0.596347834060418
40
0.596347834060418
40
0.695739139737182
40
0.695739139737182
40
0.795130445413945
40
0.795130445413945
40
0.993913056767472
40
0.993913056767472
40
1
40
1
40
1
40
1
41
1
10
57.1677171766433
20
-3.91363797444961
30
0
41
1
10
57.1743187087458
20
-3.90287996685811
30
0
41
1
10
57.1816345226219
20
-3.89316466147128
30
0
41
1
10
57.1974461053132
20
-3.87544860030349
30
0
41
1
10
57.2059703990335
20
-3.86743139633057
30
0
41
1
10
57.2329727305189
20
-3.84583056661589
30
0
41
1
10
57.2520415937895
20
-3.8352255401546
30
0
41
1
10
57.2817557580622
20
-3.82343646095342
30
0
41
1
10
57.2918589172106
20
-3.8202220145352
30
0
41
1
10
57.3119256195395
20
-3.81519413379175
30
0
41
1
10
57.3219526946907
20
-3.81335369807653
30
0
41
1
10
57.3419854542953
20
-3.81087151829425
30
0
41
1
10
57.3519911630421
20
-3.81023068654292
30
0
41
1
10
57.3719718443236
20
-3.81007184802922
30
0
41
1
10
57.3819856935301
20
-3.8105590775827
30
0
41
1
10
57.4116624392069
20
-3.81363143914913
30
0
41
1
10
57.4308774349989
20
-3.81777513248664
30
0
41
1
10
57.4500880235197
20
-3.82406271200634
30
0
41
1
10
57.4506582511156
20
-3.8242513791316
30
0
41
1
10
57.4512279325371
20
-3.82444190441913
30
0
0
SPLINE
5
13C
100
AcDbEntity
8
1
62
256
6
ByLayer
370
18
48
1
60
0
100
AcDbSpline
70
4
71
3
72
8
73
4
40
0
40
0
40
0
40
0
40
1
40
1
40
1
40
1
41
1
10
57.0755867478363
20
-4.06302137381667
30
0
41
1
10
57.1062050043817
20
-4.01361478951949
30
0
41
1
10
57.1369034842679
20
-3.96385267178854
30
0
41
1
10
57.1677171766433
20
-3.91363797444961
30
0
0
SPLINE
5
13D
100
AcDbEntity
8
1
62
256
6
ByLayer
370
18
48
1
60
0
100
AcDbSpline
70
4
71
3
72
14
73
10
40
0
40
0
40
0
40
0
40
0.25
40
0.25
40
0.5
40
0.5
40
0.75
40
0.75
40
1
40
1
40
1
40
1
41
1
10
55.9030867022687
20
-3.64535361673791
30
0
41
1
10
56.0024164840042
20
-3.69153335393818
30
0
41
1
10
56.1011716887278
20
-3.73489876783629
30
0
41
1
10
56.2978844373192
20
-3.81595214339967
30
0
41
1
10
56.3958663404548
20
-3.85363844652642
30
0
41
1
10
56.5911581437572
20
-3.92331737658847
30
0
41
1
10
56.6884506495142
20
-3.9553122904538
30
0
41
1
10
56.8823893660252
20
-4.01353076526462
30
0
41
1
10
56.9790564140949
20
-4.039750059542
30
0
41
1
10
57.0755867478365
20
-4.0630213738159
30
0
0
SPLINE
5
13E
100
AcDbEntity
8
1
62
256
6
ByLayer
370
18
48
1
60
0
100
AcDbSpline
70
4
71
3
72
20
73
16
40
0
40
0
40
0
40
0
40
0.125
40
0.125
40
0.25
40
0.25
40
0.499999999999999
40
0.499999999999999
40
0.624999999999999
40
0.624999999999999
40
0.75
40
0.75
40
0.875
40
0.875
40
1
40
1
40
1
40
1
41
1
10
55.6612272621669
20
-3.45727283323194
30
0
41
1
10
55.6728515410881
20
-3.45984540202167
30
0
41
1
10
55.6844584755301
20
-3.46320214143606
30
0
41
1
10
55.7076218494788
20
-3.47140791834997
30
0
41
1
10
55.7191187236055
20
-3.47624264589982
30
0
41
1
10
55.7528910728942
20
-3.49261973866416
30
0
41
1
10
55.7746470314977
20
-3.50606644228486
30
0
41
1
10
55.8060506570119
20
-3.53007149704888
30
0
41
1
10
55.8162540290794
20
-3.53868534194979
30
0
41
1
10
55.8358209327212
20
-3.55690764225867
30
0
41
1
10
55.8452295366983
20
-3.56654909124211
30
0
41
1
10
55.8632515429721
20
-3.58695609582952
30
0
41
1
10
55.871865778659
20
-3.5977203859473
30
0
41
1
10
55.8882005114327
20
-3.62052280241471
30
0
41
1
10
55.8959548096111
20
-3.63261677543437
30
0
41
1
10
55.9030867022688
20
-3.64535361673788
30
0
0
SPLINE
5
13F
100
AcDbEntity
8
1
62
256
6
ByLayer
370
18
48
1
60
0
100
AcDbSpline
70
4
71
3
72
8
73
4
40
0
40
0
40
0
40
0
40
1
40
1
40
1
40
1
41
1
10
55.6612272621667
20
-3.45727283323225
30
0
41
1
10
55.6378680015641
20
-3.43512756770116
30
0
41
1
10
55.6144615535099
20
-3.41284009842659
30
0
41
1
10
55.5909844625067
20
-3.39041394731268
30
0
0
SPLINE
5
140
100
AcDbEntity
8
1
62
256
6
ByLayer
370
18
48
1
60
0
100
AcDbSpline
70
4
71
3
72
12
73
8
40
0
40
0
40
0
40
0
40
0.25
40
0.25
40
0.5
40
0.5
40
1
40
1
40
1
40
1
41
1
10
55.5909844625067
20
-3.39041394731268
30
0
41
1
10
55.5494390745635
20
-3.35072831726706
30
0
41
1
10
55.5066398425261
20
-3.313303607866
30
0
41
1
10
55.4187342495494
20
-3.24285753134396
30
0
41
1
10
55.3736404934991
20
-3.20983842405576
30
0
41
1
10
55.2354783869544
20
-3.11732451575912
30
0
41
1
10
55.1395705272399
20
-3.0642990310522
30
0
41
1
10
55.0409844625067
20
-3.02034762899146
30
0
0
SPLINE
5
141
100
AcDbEntity
8
1
62
256
6
ByLayer
370
18
48
1
60
0
100
AcDbSpline
70
4
71
3
72
63
73
59
40
0
40
0
40
0
40
0
40
0.0624999999999951
40
0.0624999999999951
40
0.0937499999999939
40
0.0937499999999939
40
0.124999999999993
40
0.156249999999992
40
0.156249999999992
40
0.187499999999991
40
0.187499999999991
40
0.218749999999989
40
0.218749999999989
40
0.234374999999989
40
0.234374999999989
40
0.249999999999988
40
0.249999999999988
40
0.312499999999993
40
0.312499999999993
40
0.374999999999998
40
0.374999999999998
40
0.437500000000003
40
0.437500000000003
40
0.468750000000007
40
0.468750000000007
40
0.484375000000009
40
0.484375000000009
40
0.500000000000011
40
0.531250000000015
40
0.531250000000015
40
0.562500000000018
40
0.562500000000018
40
0.593750000000022
40
0.593750000000022
40
0.625000000000026
40
0.625000000000026
40
0.687500000000031
40
0.687500000000031
40
0.718750000000032
40
0.718750000000032
40
0.734375000000032
40
0.734375000000032
40
0.750000000000031
40
0.750000000000031
40
0.781250000000028
40
0.781250000000028
40
0.812500000000024
40
0.84375000000002
40
0.84375000000002
40
0.875000000000017
40
0.875000000000017
40
0.93750000000001
40
0.93750000000001
40
0.953125000000007
40
0.953125000000007
40
0.968750000000005
40
0.968750000000005
40
1
40
1
40
1
40
1
41
1
10
55.0409844625067
20
-3.02034762899146
30
0
41
1
10
54.8269458208612
20
-2.92492543701181
30
0
41
1
10
54.614421400182
20
-2.82013683655296
30
0
41
1
10
54.2968947127433
20
-2.65009299637259
30
0
41
1
10
54.1912659153588
20
-2.59126257359478
30
0
41
1
10
53.9802909080804
20
-2.46944533275692
30
0
41
1
10
53.7695975045173
20
-2.34346859465822
30
0
41
1
10
53.558746522993
20
-2.20984839562337
30
0
41
1
10
53.3474364066059
20
-2.07279198971693
30
0
41
1
10
53.2415355389117
20
-2.00256703357837
30
0
41
1
10
53.0293521911406
20
-1.85858811701536
30
0
41
1
10
52.9231028388384
20
-1.78479597759943
30
0
41
1
10
52.7633736982606
20
-1.67146855363745
30
0
41
1
10
52.7100649979156
20
-1.63325991749539
30
0
41
1
10
52.6032734483509
20
-1.55601399078483
30
0
41
1
10
52.5497849082729
20
-1.51697152131936
30
0
41
1
10
52.2831440731895
20
-1.32077321129566
30
0
41
1
10
52.0713364112293
20
-1.15987911152578
30
0
41
1
10
51.6484035553037
20
-0.833160320232565
30
0
41
1
10
51.4372917550361
20
-0.667327895866151
30
0
41
1
10
51.0152595921912
20
-0.331376372251299
30
0
41
1
10
50.8043020984285
20
-0.161294677442072
30
0
41
1
10
50.4862034290906
20
0.094840350122837
30
0
41
1
10
50.3799038877887
20
0.180400474092295
30
0
41
1
10
50.2198324637752
20
0.308739106541424
30
0
41
1
10
50.1663061118115
20
0.351569462548952
30
0
41
1
10
50.0593568425575
20
0.43689618793789
30
0
41
1
10
49.8991640351608
20
0.564332703470029
30
0
41
1
10
49.7396380813203
20
0.690110041354188
30
0
41
1
10
49.5275181326731
20
0.856355313444595
30
0
41
1
10
49.4217806699495
20
0.93878737792042
30
0
41
1
10
49.2107096964071
20
1.1019780050344
30
0
41
1
10
49.1053229000697
20
1.18267127153817
30
0
41
1
10
48.8944828870394
20
1.34182948462188
30
0
41
1
10
48.7890557923325
20
1.42032621312708
30
0
41
1
10
48.4724711059304
20
1.65224191011521
30
0
41
1
10
48.2609498042132
20
1.80202386575189
30
0
41
1
10
47.9420157331804
20
2.01826712960607
30
0
41
1
10
47.8354377443781
20
2.08895146412723
30
0
41
1
10
47.6750767157236
20
2.19274332227971
30
0
41
1
10
47.6216779032271
20
2.2268819441552
30
0
41
1
10
47.5151326134753
20
2.29407544529423
30
0
41
1
10
47.461955165573
20
2.32714973112292
30
0
41
1
10
47.3026268279838
20
2.42474075600214
30
0
41
1
10
47.1966585750673
20
2.48760526035983
30
0
41
1
10
46.9849528000652
20
2.60878071428726
30
0
41
1
10
46.7735128898627
20
2.72543798497256
30
0
41
1
10
46.5623983931213
20
2.83298351554612
30
0
41
1
10
46.3513568059018
20
2.93590360742891
30
0
41
1
10
46.2458861463974
20
2.98505950644841
30
0
41
1
10
45.9292420731702
20
3.1252806695579
30
0
41
1
10
45.7178190881986
20
3.20907991784946
30
0
41
1
10
45.4516506658509
20
3.30054011569405
30
0
41
1
10
45.3983250285324
20
3.31816965993008
30
0
41
1
10
45.2914727556784
20
3.35208462452212
30
0
41
1
10
45.2379032889963
20
3.36838100708357
30
0
41
1
10
45.0776380853422
20
3.41500637938734
30
0
41
1
10
44.9711605998845
20
3.44314903460469
30
0
41
1
10
44.8649855649234
20
3.46837395158011
30
0
0
SPLINE
5
142
100
AcDbEntity
8
1
62
256
6
ByLayer
370
18
48
1
60
0
100
AcDbSpline
70
4
71
3
72
30
73
26
40
0
40
0
40
0
40
0
40
0.0331897526517413
40
0.0331897526517413
40
0.177664554115961
40
0.177664554115961
40
0.24990195484807
40
0.24990195484807
40
0.322139355580178
40
0.322139355580178
40
0.394376756312288
40
0.394376756312288
40
0.466614157044396
40
0.466614157044396
40
0.538851557776505
40
0.538851557776505
40
0.611088958508614
40
0.611088958508614
40
0.755563759972832
40
0.755563759972832
40
0.900038561437049
40
0.900038561437049
40
0.972275962169158
40
0.972275962169158
40
1
40
1
40
1
40
1
41
1
10
44.865131658782
20
3.46817132791
30
0
41
1
10
44.8498063106532
20
3.43747399172108
30
0
41
1
10
44.8337392030336
20
3.40632296697478
30
0
41
1
10
44.7425058500243
20
3.23637515567358
30
0
41
1
10
44.6505990196283
20
3.08600745671524
30
0
41
1
10
44.4925524108311
20
2.85603792579249
30
0
41
1
10
44.4363983212143
20
2.77837887010102
30
0
41
1
10
44.3162213646006
20
2.6207885628902
30
0
41
1
10
44.2531877374304
20
2.54216006260503
30
0
41
1
10
44.1225679329441
20
2.3875414907248
30
0
41
1
10
44.0547135165073
20
2.31120996088075
30
0
41
1
10
43.912992239743
20
2.16085724541517
30
0
41
1
10
43.8409049528417
20
2.08870783360092
30
0
41
1
10
43.6973950952887
20
1.95526947893367
30
0
41
1
10
43.6254230615406
20
1.89388699956535
30
0
41
1
10
43.4815310328239
20
1.77390869572884
30
0
41
1
10
43.4106187808258
20
1.71674919280517
30
0
41
1
10
43.2009074855692
20
1.55355207661188
30
0
41
1
10
43.0651367785761
20
1.45580372690932
30
0
41
1
10
42.801392879403
20
1.28165064650523
30
0
41
1
10
42.6745467932297
20
1.20615342972385
30
0
41
1
10
42.4959467069915
20
1.11213098072957
30
0
41
1
10
42.4380471801992
20
1.08370589562611
30
0
41
1
10
42.3599031665124
20
1.04789932921497
30
0
41
1
10
42.3385512200125
20
1.038621812722
30
0
41
1
10
42.3181190486143
20
1.03062220569072
30
0
0
SPLINE
5
143
100
AcDbEntity
8
1
62
256
6
ByLayer
370
18
48
1
60
0
100
AcDbSpline
70
4
71
3
72
92
73
88
40
0
40
0
40
0
40
0
40
0.033327778641217
40
0.033327778641217
40
0.0666555572824339
40
0.0666555572824339
40
0.0999833359236509
40
0.0999833359236509
40
0.133311114564868
40
0.133311114564868
40
0.166638893206085
40
0.166638893206085
40
0.174970837866389
40
0.174970837866389
40
0.183302782526692
40
0.183302782526692
40
0.199966671847302
40
0.199966671847302
40
0.233294450488523
40
0.233294450488523
40
0.266622229129744
40
0.266622229129744
40
0.299950007770965
40
0.299950007770965
40
0.333277786412186
40
0.333277786412186
40
0.366605565053407
40
0.366605565053407
40
0.374937509713712
40
0.374937509713712
40
0.383269454374018
40
0.383269454374018
40
0.399933343694628
40
0.399933343694628
40
0.433261122335847
40
0.433261122335847
40
0.466588900977067
40
0.466588900977067
40
0.499916679618286
40
0.499916679618286
40
0.533244458259505
40
0.533244458259505
40
0.566572236900724
40
0.566572236900724
40
0.574904181561029
40
0.574904181561029
40
0.583236126221334
40
0.583236126221334
40
0.599900015541943
40
0.599900015541943
40
0.616563904862551
40
0.616563904862551
40
0.63322779418316
40
0.63322779418316
40
0.666555572824377
40
0.666555572824377
40
0.699883351465594
40
0.699883351465594
40
0.733211130106811
40
0.733211130106811
40
0.766538908748028
40
0.766538908748028
40
0.774870853408333
40
0.774870853408333
40
0.783202798068637
40
0.783202798068637
40
0.799866687389245
40
0.799866687389245
40
0.816530576709854
40
0.816530576709854
40
0.833194466030463
40
0.833194466030463
40
0.86652224467168
40
0.86652224467168
40
0.899850023312897
40
0.899850023312897
40
0.933177801954114
40
0.933177801954114
40
0.966505580595331
40
0.966505580595331
40
0.974837525255636
40
0.974837525255636
40
0.983169469915941
40
0.983169469915941
40
0.999833359236552
40
0.999833359236552
40
1
40
1
40
1
40
1
41
1
10
41.9680378873106
20
1.31042709262198
30
0
41
1
10
42.1045668239928
20
1.20795851585297
30
0
41
1
10
42.2406895785246
20
1.10421675009493
30
0
41
1
10
42.5125560294558
20
0.894751754305446
30
0
41
1
10
42.6482937327134
20
0.789021789900687
30
0
41
1
10
42.919579774503
20
0.575832220650454
30
0
41
1
10
43.0551097360618
20
0.468350025367585
30
0
41
1
10
43.3260756222653
20
0.251763192145773
30
0
41
1
10
43.4615375097753
20
0.142689387179615
30
0
41
1
10
43.7331799628371
20
-0.0760796610381078
30
0
41
1
10
43.8694073816907
20
-0.185715062433786
30
0
41
1
10
44.0406443855778
20
-0.322512817602927
30
0
41
1
10
44.0749365489728
20
-0.349863722746335
30
0
41
1
10
44.1436147788695
20
-0.40454298260218
30
0
41
1
10
44.1780218871974
20
-0.431887967629393
30
0
41
1
10
44.2810834728852
20
-0.513639886940638
30
0
41
1
10
44.3496586272057
20
-0.567827356030705
30
0
41
1
10
44.5550185404762
20
-0.729428153138485
30
0
41
1
10
44.6914434997511
20
-0.835875597329277
30
0
41
1
10
44.963353839647
20
-1.04621522570972
30
0
41
1
10
45.098779402871
20
-1.15017556288174
30
0
41
1
10
45.3693238078164
20
-1.3547590792669
30
0
41
1
10
45.5044546773944
20
-1.45536562604488
30
0
41
1
10
45.7755203086175
20
-1.65196483494151
30
0
41
1
10
45.9114386729245
20
-1.74798395712941
30
0
41
1
10
46.1840517512506
20
-1.93545462821709
30
0
41
1
10
46.3207419360068
20
-2.02691362241887
30
0
41
1
10
46.4919128839873
20
-2.13850553938798
30
0
41
1
10
46.5261642024294
20
-2.16068511185867
30
0
41
1
10
46.5947147613701
20
-2.20474951517798
30
0
41
1
10
46.6290355852725
20
-2.22664779654738
30
0
41
1
10
46.7317854143081
20
-2.29167894004991
30
0
41
1
10
46.8000800426597
20
-2.33419993163523
30
0
41
1
10
47.0045560973689
20
-2.45908320462212
30
0
41
1
10
47.1403200546157
20
-2.53876503279744
30
0
41
1
10
47.412099585804
20
-2.68997202095
30
0
41
1
10
47.5482283350529
20
-2.76143246163417
30
0
41
1
10
47.8199984311353
20
-2.8970399538714
30
0
41
1
10
47.9554727452153
20
-2.96129388139289
30
0
41
1
10
48.2263007159853
20
-3.08202909334955
30
0
41
1
10
48.3616775930973
20
-3.1384878630725
30
0
41
1
10
48.6334721773258
20
-3.24277522460915
30
0
41
1
10
48.7699189880951
20
-3.29059929013641
30
0
41
1
10
48.9413292172887
20
-3.34484209484043
30
0
41
1
10
48.975653882266
20
-3.35541352022955
30
0
41
1
10
49.0443928383698
20
-3.37599748583511
30
0
41
1
10
49.0788313858283
20
-3.38601659518039
30
0
41
1
10
49.1819954465689
20
-3.41514694444723
30
0
41
1
10
49.250638356592
20
-3.43334903158319
30
0
41
1
10
49.3876201646079
20
-3.46736532983317
30
0
41
1
10
49.4559557863561
20
-3.48318145745634
30
0
41
1
10
49.5922109485097
20
-3.51247099954267
30
0
41
1
10
49.6601358970511
20
-3.52594026552194
30
0
41
1
10
49.8634964265374
20
-3.56274704126011
30
0
41
1
10
49.9985030260284
20
-3.58247324521534
30
0
41
1
10
50.2688026482112
20
-3.61204774141871
30
0
41
1
10
50.404171346443
20
-3.62190698636391
30
0
41
1
10
50.6754972947921
20
-3.63189988078119
30
0
41
1
10
50.811444933208
20
-3.63203681534171
30
0
41
1
10
51.0839188939263
20
-3.62252468809754
30
0
41
1
10
51.2204457371071
20
-3.61287652995208
30
0
41
1
10
51.3914780723378
20
-3.59450657786718
30
0
41
1
10
51.4257068712676
20
-3.59051701088632
30
0
41
1
10
51.4942238747333
20
-3.58190321143272
30
0
41
1
10
51.5285378148352
20
-3.57727499706209
30
0
41
1
10
51.6313072765942
20
-3.56247757782341
30
0
41
1
10
51.6996399714925
20
-3.55139056716536
30
0
41
1
10
51.836095280397
20
-3.52684218596545
30
0
41
1
10
51.9042214214566
20
-3.51338185066351
30
0
41
1
10
52.0404212654247
20
-3.48417665861672
30
0
41
1
10
52.1084844591083
20
-3.46842951043976
30
0
41
1
10
52.312564827332
20
-3.41780536217507
30
0
41
1
10
52.4484675352653
20
-3.37955127796116
30
0
41
1
10
52.7199109831806
20
-3.29409658613642
30
0
41
1
10
52.8554913054061
20
-3.24691525454864
30
0
41
1
10
53.1263288336099
20
-3.14350813098153
30
0
41
1
10
53.2614772657906
20
-3.08718966456905
30
0
41
1
10
53.532805022911
20
-2.96618258408236
30
0
41
1
10
53.6691622550324
20
-2.90164362041261
30
0
41
1
10
53.8405740682516
20
-2.81599770207595
30
0
41
1
10
53.8749021062992
20
-2.79861745544133
30
0
41
1
10
53.9436450858945
20
-2.76334864137462
30
0
41
1
10
53.9780791092456
20
-2.74544990951247
30
0
41
1
10
54.0813052275096
20
-2.69108163799544
30
0
41
1
10
54.1500394891439
20
-2.65392213298867
30
0
41
1
10
54.219368990744
20
-2.61546087137839
30
0
41
1
10
54.2200554207478
20
-2.61507997108288
30
0
41
1
10
54.2207418424579
20
-2.61469897932636
30
0
0
SPLINE
5
144
100
AcDbEntity
8
1
62
256
6
ByLayer
370
18
48
1
60
0
100
AcDbSpline
70
4
71
3
72
16
73
12
40
0
40
0
40
0
40
0
40
0.250000000000005
40
0.250000000000005
40
0.500000000000009
40
0.500000000000009
40
0.750000000000014
40
0.750000000000014
40
0.875000000000007
40
0.875000000000007
40
1
40
1
40
1
40
1
41
1
10
65.2535497331568
20
4.82223718602228
30
0
41
1
10
65.2097800656988
20
4.75016388986919
30
0
41
1
10
65.1658219687301
20
4.67732331797649
30
0
41
1
10
65.0774517118419
20
4.53011324473098
30
0
41
1
10
65.0330144630045
20
4.45570144775411
30
0
41
1
10
64.9437306109403
20
4.30555825149773
30
0
41
1
10
64.8988867647473
20
4.22983185374909
30
0
41
1
10
64.8313196809418
20
4.11537186989213
30
0
41
1
10
64.8087554393496
20
4.07708788021893
30
0
41
1
10
64.7635311714914
20
4.00025506292033
30
0
41
1
10
64.7408697208009
20
3.96170288067282
30
0
41
1
10
64.7181413124981
20
3.92299019225581
30
0
0
SPLINE
5
145
100
AcDbEntity
8
1
62
256
6
ByLayer
370
18
48
1
60
0
100
AcDbSpline
70
4
71
3
72
8
73
4
40
0
40
0
40
0
40
0
40
1
40
1
40
1
40
1
41
1
10
65.2535497331568
20
4.82223718602191
30
0
41
1
10
65.3094744348108
20
4.82134026084458
30
0
41
1
10
65.3654448606727
20
4.81934061507144
30
0
41
1
10
65.4214587932751
20
4.81624034414494
30
0
0
SPLINE
5
146
100
AcDbEntity
8
1
62
256
6
ByLayer
370
18
48
1
60
0
100
AcDbSpline
70
4
71
3
72
12
73
8
40
0
40
0
40
0
40
0
40
0.350392959906668
40
0.350392959906668
40
0.700785919813336
40
0.700785919813336
40
1
40
1
40
1
40
1
41
1
10
65.9763664565095
20
3.84601065802229
30
0
41
1
10
65.9292314156988
20
3.93110967783258
30
0
41
1
10
65.8822973302068
20
4.01528666410334
30
0
41
1
10
65.7889559867598
20
4.18147521509107
30
0
41
1
10
65.7425172006064
20
4.26352868360826
30
0
41
1
10
65.6567446028943
20
4.41372569812353
30
0
41
1
10
65.6174213935555
20
4.48204991367973
30
0
41
1
10
65.5782555153329
20
4.54950942531445
30
0
0
SPLINE
5
147
100
AcDbEntity
8
1
62
256
6
ByLayer
370
18
48
1
60
0
100
AcDbSpline
70
4
71
3
72
34
73
30
40
0
40
0
40
0
40
0
40
0.0624999999999894
40
0.0624999999999894
40
0.124999999999979
40
0.124999999999979
40
0.187499999999968
40
0.187499999999968
40
0.249999999999958
40
0.249999999999958
40
0.312499999999947
40
0.312499999999947
40
0.374999999999936
40
0.374999999999936
40
0.499999999999967
40
0.499999999999967
40
0.562499999999982
40
0.562499999999982
40
0.624999999999998
40
0.624999999999998
40
0.750000000000029
40
0.750000000000029
40
0.812500000000022
40
0.812500000000022
40
0.875000000000015
40
0.875000000000015
40
0.937500000000007
40
0.937500000000007
40
1
40
1
40
1
40
1
41
1
10
66.3996277627169
20
3.75308422887306
30
0
41
1
10
66.3931191633337
20
3.74380174379453
30
0
41
1
10
66.385943134333
20
3.7356343661809
30
0
41
1
10
66.3704978143173
20
3.72111430952117
30
0
41
1
10
66.3622258940054
20
3.71476652638074
30
0
41
1
10
66.344712293858
20
3.70370002527784
30
0
41
1
10
66.3356218435276
20
3.69908296273871
30
0
41
1
10
66.3170912267771
20
3.69147658179659
30
0
41
1
10
66.3076156591629
20
3.68846806789446
30
0
41
1
10
66.2883005485515
20
3.68385138096801
30
0
41
1
10
66.278407304416
20
3.68224092774787
30
0
41
1
10
66.2585702818227
20
3.68034900978748
30
0
41
1
10
66.2486511627574
20
3.68006082091517
30
0
41
1
10
66.2189035971973
20
3.68095687861148
30
0
41
1
10
66.1990839920787
20
3.6838792077269
30
0
41
1
10
66.1694293125152
20
3.69147612930266
30
0
41
1
10
66.1595442342594
20
3.69456039933661
30
0
41
1
10
66.1401436158579
20
3.7016953256493
30
0
41
1
10
66.1305858106193
20
3.7057548434949
30
0
41
1
10
66.1023514111332
20
3.71939072185691
30
0
41
1
10
66.0841075661923
20
3.7304015031921
30
0
41
1
10
66.0577594452704
20
3.75009592209756
30
0
41
1
10
66.0492148591952
20
3.75715050705892
30
0
41
1
10
66.032786793797
20
3.77215467066412
30
0
41
1
10
66.0248783559721
20
3.78012183703206
30
0
41
1
10
66.0097260357883
20
3.79707088617698
30
0
41
1
10
66.0024813930162
20
3.80605142916897
30
0
41
1
10
65.988751260111
20
3.82518833131383
30
0
41
1
10
65.9822738368571
20
3.83534529593536
30
0
41
1
10
65.9763664565095
20
3.84601065802229
30
0
0
SPLINE
5
148
100
AcDbEntity
8
1
62
256
6
ByLayer
370
18
48
1
60
0
100
AcDbSpline
70
4
71
3
72
16
73
12
40
0
40
0
40
0
40
0
40
0.25
40
0.25
40
0.499999999999999
40
0.499999999999999
40
0.749999999999999
40
0.749999999999999
40
0.874999999999999
40
0.874999999999999
40
1
40
1
40
1
40
1
41
1
10
66.9350581767219
20
4.46588051564689
30
0
41
1
10
66.8912904258222
20
4.41206006851661
30
0
41
1
10
66.8473319912303
20
4.35682157376505
30
0
41
1
10
66.7589567452175
20
4.24348582681168
30
0
41
1
10
66.7145141811955
20
4.18535328608431
30
0
41
1
10
66.6252196161885
20
4.06636061651659
30
0
41
1
10
66.5803716410112
20
4.00551032174744
30
0
41
1
10
66.5128022466728
20
3.91229576503517
30
0
41
1
10
66.4902377545009
20
3.88091451659315
30
0
41
1
10
66.4450143870273
20
3.81751885817778
30
0
41
1
10
66.4223540938259
20
3.78549624519042
30
0
41
1
10
66.3996277627169
20
3.75308422887304
30
0
0
SPLINE
5
149
100
AcDbEntity
8
1
62
256
6
ByLayer
370
18
48
1
60
0
100
AcDbSpline
70
4
71
3
72
8
73
4
40
0
40
0
40
0
40
0
40
1
40
1
40
1
40
1
41
1
10
66.9350581767219
20
4.46588051564686
30
0
41
1
10
66.9910292164026
20
4.44339306038523
30
0
41
1
10
67.0469789981369
20
4.41991410016314
30
0
41
1
10
67.1029081441999
20
4.39544970363681
30
0
0
SPLINE
5
14A
100
AcDbEntity
8
1
62
256
6
ByLayer
370
18
48
1
60
0
100
AcDbSpline
70
4
71
3
72
14
73
10
40
0
40
0
40
0
40
0
40
0.25
40
0.25
40
0.5
40
0.5
40
0.75
40
0.75
40
1
40
1
40
1
40
1
41
1
10
67.6577637962118
20
3.2866633303112
30
0
41
1
10
67.6106157856299
20
3.37982982625911
30
0
41
1
10
67.5636744942943
20
3.47287331994033
30
0
41
1
10
67.4703325589609
20
3.65869107689852
30
0
41
1
10
67.4239015917073
20
3.75146366201966
30
0
41
1
10
67.3313910838891
20
3.93667978260987
30
0
41
1
10
67.2853901822639
20
4.02896167892021
30
0
41
1
10
67.1938039151465
20
4.21283752723139
30
0
41
1
10
67.1482336051435
20
4.3044027912328
30
0
41
1
10
67.1029081441999
20
4.39544970363684
30
0
0
SPLINE
5
14B
100
AcDbEntity
8
1
62
256
6
ByLayer
370
18
48
1
60
0
100
AcDbSpline
70
4
71
3
72
34
73
30
40
0
40
0
40
0
40
0
40
0.062499999999971
40
0.062499999999971
40
0.124999999999942
40
0.124999999999942
40
0.187499999999913
40
0.187499999999913
40
0.249999999999884
40
0.249999999999884
40
0.312499999999855
40
0.312499999999855
40
0.374999999999826
40
0.374999999999826
40
0.499999999999819
40
0.499999999999819
40
0.562499999999842
40
0.562499999999842
40
0.624999999999864
40
0.624999999999864
40
0.749999999999908
40
0.749999999999908
40
0.812499999999931
40
0.812499999999931
40
0.874999999999954
40
0.874999999999954
40
0.937499999999977
40
0.937499999999977
40
1
40
1
40
1
40
1
41
1
10
68.0809702216903
20
3.07096862636678
30
0
41
1
10
68.0744690477452
20
3.0647722074176
30
0
41
1
10
68.0673018693874
20
3.05975030703667
30
0
41
1
10
68.0518757823599
20
3.05161643093399
30
0
41
1
10
68.0436144299291
20
3.04851034221116
30
0
41
1
10
68.02612313471
20
3.04401849768948
30
0
41
1
10
68.0170396220493
20
3.04267610368757
30
0
41
1
10
67.9985250573158
20
3.04153284357886
30
0
41
1
10
67.9890569907286
20
3.04172513034612
30
0
41
1
10
67.9697556209489
20
3.04345911067262
30
0
41
1
10
67.9598694640202
20
3.04501464469666
30
0
41
1
10
67.9400361609003
20
3.04932533494437
30
0
41
1
10
67.9301182241157
20
3.05206627716606
30
0
41
1
10
67.9003724329218
20
3.06186213942865
30
0
41
1
10
67.8805516544231
20
3.07046961588603
30
0
41
1
10
67.8508925911131
20
3.08627879442122
30
0
41
1
10
67.8410034654593
20
3.09205149740191
30
0
41
1
10
67.8215944308634
20
3.1043734102777
30
0
41
1
10
67.8120325800026
20
3.1109430723391
30
0
41
1
10
67.7837866421328
20
3.13187010126947
30
0
41
1
10
67.7655359151246
20
3.14742667661562
30
0
41
1
10
67.7391789241789
20
3.17344443809844
30
0
41
1
10
67.7306289683825
20
3.18250978720596
30
0
41
1
10
67.7141940965196
20
3.20128783142565
30
0
41
1
10
67.7062829758574
20
3.21102541314434
30
0
41
1
10
67.6911265765579
20
3.23125977332697
30
0
41
1
10
67.6838805492915
20
3.24175560395105
30
0
41
1
10
67.6701487671978
20
3.26362176388915
30
0
41
1
10
67.6636709257716
20
3.27499058833541
30
0
41
1
10
67.6577637962118
20
3.2866633303112
30
0
0
SPLINE
5
14C
100
AcDbEntity
8
1
62
256
6
ByLayer
370
18
48
1
60
0
100
AcDbSpline
70
4
71
3
72
10
73
6
40
0
40
0
40
0
40
0
40
0.5
40
0.5
40
1
40
1
40
1
40
1
41
1
10
68.2667459814671
20
3.2379326307462
30
0
41
1
10
68.2359702579472
20
3.21186437697656
30
0
41
1
10
68.2050903463521
20
3.18491028986816
30
0
41
1
10
68.1431765247166
20
3.12930919570135
30
0
41
1
10
68.1121363636848
20
3.1006737956877
30
0
41
1
10
68.0809702216903
20
3.07096862636669
30
0
0
SPLINE
5
14D
100
AcDbEntity
8
1
62
256
6
ByLayer
370
18
48
1
60
0
100
AcDbSpline
70
4
71
3
72
26
73
22
40
0
40
0
40
0
40
0
40
0.125000000000002
40
0.125000000000002
40
0.187500000000004
40
0.187500000000004
40
0.250000000000005
40
0.250000000000005
40
0.375000000000007
40
0.375000000000007
40
0.50000000000001
40
0.50000000000001
40
0.625000000000013
40
0.625000000000013
40
0.687500000000011
40
0.687500000000011
40
0.750000000000008
40
0.750000000000008
40
0.875000000000004
40
0.875000000000004
40
1
40
1
40
1
40
1
41
1
10
68.2667459814671
20
3.23793263074623
30
0
41
1
10
68.3997347674051
20
3.10636740255671
30
0
41
1
10
68.5348424916868
20
2.97413648659869
30
0
41
1
10
68.7413626886761
20
2.77591401280543
30
0
41
1
10
68.8108373919812
20
2.70986008379538
30
0
41
1
10
68.9510392723401
20
2.57793842880545
30
0
41
1
10
69.0218001615991
20
2.51204037193051
30
0
41
1
10
69.2356487758464
20
2.31502626697579
30
0
41
1
10
69.3799964703368
20
2.18471310156224
30
0
41
1
10
69.6730205064236
20
1.92768051285253
30
0
41
1
10
69.8217083564176
20
1.80097831036699
30
0
41
1
10
70.1235630655443
20
1.55228894126085
30
0
41
1
10
70.2767606730769
20
1.43036213827526
30
0
41
1
10
70.5081528224844
20
1.24983791201723
30
0
41
1
10
70.5855349358098
20
1.19003751320449
30
0
41
1
10
70.7404062772996
20
1.07080186508063
30
0
41
1
10
70.8179020649701
20
1.01137245931506
30
0
41
1
10
71.0502752979596
20
0.833332133247211
30
0
41
1
10
71.2050050641087
20
0.714936559768518
30
0
41
1
10
71.5133320951812
20
0.477701250911309
30
0
41
1
10
71.667007530788
20
0.358949296229355
30
0
41
1
10
71.8199999999999
20
0.239693748344536
30
0
0
SPLINE
5
14E
100
AcDbEntity
8
1
62
256
6
ByLayer
370
18
48
1
60
0
100
AcDbSpline
70
4
71
3
72
8
73
4
40
0
40
0
40
0
40
0
40
1
40
1
40
1
40
1
41
1
10
71.8199999999999
20
0.239693748344536
30
0
41
1
10
71.8473739579757
20
0.214442248452684
30
0
41
1
10
71.874876413716
20
0.189359966524961
30
0
41
1
10
71.9025129623852
20
0.164447780850026
30
0
0
SPLINE
5
14F
100
AcDbEntity
8
1
62
256
6
ByLayer
370
18
48
1
60
0
100
AcDbSpline
70
4
71
3
72
8
73
4
40
0
40
0
40
0
40
0
40
1
40
1
40
1
40
1
41
1
10
72.02
20
0.0493562548445823
30
0
41
1
10
71.9801766753023
20
0.0860603614543436
30
0
41
1
10
71.9410657276195
20
0.124488838119248
30
0
41
1
10
71.9025129623851
20
0.164447780850026
30
0
0
SPLINE
5
150
100
AcDbEntity
8
1
62
256
6
ByLayer
370
18
48
1
60
0
100
AcDbSpline
70
4
71
3
72
68
73
64
40
0
40
0
40
0
40
0
40
0.0213124034287724
40
0.0213124034287724
40
0.0539353233144803
40
0.0539353233144803
40
0.0702467832573342
40
0.0702467832573342
40
0.0865582432001882
40
0.0865582432001882
40
0.151804082971603
40
0.151804082971603
40
0.184427002857311
40
0.184427002857311
40
0.200738462800165
40
0.200738462800165
40
0.217049922743019
40
0.249672842628726
40
0.249672842628726
40
0.26598430257158
40
0.26598430257158
40
0.282295762514434
40
0.298607222457287
40
0.298607222457287
40
0.314918682400141
40
0.314918682400141
40
0.347541602285849
40
0.347541602285849
40
0.478033281828679
40
0.478033281828679
40
0.60852496137151
40
0.60852496137151
40
0.641147881257217
40
0.641147881257217
40
0.657459341200071
40
0.657459341200071
40
0.673770801142925
40
0.673770801142925
40
0.690082261085779
40
0.690082261085779
40
0.706393721028632
40
0.706393721028632
40
0.73901664091434
40
0.73901664091434
40
0.771639560800047
40
0.771639560800047
40
0.787951020742901
40
0.787951020742901
40
0.804262480685755
40
0.804262480685755
40
0.836885400571463
40
0.836885400571463
40
0.86950832045717
40
0.86950832045717
40
0.902131240342878
40
0.902131240342878
40
0.918442700285732
40
0.918442700285732
40
0.934754160228585
40
0.934754160228585
40
0.967377080114293
40
0.967377080114293
40
1
40
1
40
1
40
1
41
1
10
72.02
20
0.0356971733011449
30
0
41
1
10
72.02
20
0.0357765047990881
30
0
41
1
10
72.02
20
0.0369464692003589
30
0
41
1
10
72.02
20
0.0426399723887982
30
0
41
1
10
72.02
20
0.048620674067223
30
0
41
1
10
72.02
20
0.061561717699874
30
0
41
1
10
72.02
20
0.0665389357372703
30
0
41
1
10
72.02
20
0.0778720425515189
30
0
41
1
10
72.02
20
0.0841941902506562
30
0
41
1
10
72.02
20
0.118905626308333
30
0
41
1
10
72.02
20
0.156566545869424
30
0
41
1
10
72.02
20
0.227523696706015
30
0
41
1
10
72.02
20
0.253581310349858
30
0
41
1
10
72.02
20
0.296374690291316
30
0
41
1
10
72.02
20
0.311306258117469
30
0
41
1
10
72.0200000000001
20
0.342149295806621
30
0
41
1
10
72.02
20
0.389908156406222
30
0
41
1
10
72.02
20
0.442043607048987
30
0
41
1
10
72.0200000000001
20
0.496893378687901
30
0
41
1
10
72.02
20
0.515628359440143
30
0
41
1
10
72.02
20
0.553960741966193
30
0
41
1
10
72.0200000000001
20
0.593153156630365
30
0
41
1
10
72.02
20
0.63308363312234
30
0
41
1
10
72.02
20
0.672907283508835
30
0
41
1
10
72.02
20
0.692767323417172
30
0
41
1
10
72.02
20
0.752309859293547
30
0
41
1
10
72.02
20
0.7919936431895
30
0
41
1
10
72.02
20
0.991119876172547
30
0
41
1
10
72.02
20
1.15203573030314
30
0
41
1
10
72.02
20
1.47608234160444
30
0
41
1
10
72.02
20
1.63929555644296
30
0
41
1
10
72.02
20
1.84489993794824
30
0
41
1
10
72.02
20
1.88606407528334
30
0
41
1
10
72.02
20
1.94796357357214
30
0
41
1
10
72.02
20
1.96863090049038
30
0
41
1
10
72.02
20
2.01009220593139
30
0
41
1
10
72.02
20
2.03084629864273
30
0
41
1
10
72.02
20
2.07302989865363
30
0
41
1
10
72.02
20
2.09454613422102
30
0
41
1
10
72.02
20
2.1384041937541
30
0
41
1
10
72.02
20
2.16075359650407
30
0
41
1
10
72.02
20
2.22895962712329
30
0
41
1
10
72.02
20
2.27594616152163
30
0
41
1
10
72.02
20
2.37273765052365
30
0
41
1
10
72.02
20
2.42256003480531
30
0
41
1
10
72.02
20
2.49948324560387
30
0
41
1
10
72.02
20
2.52549029207711
30
0
41
1
10
72.02
20
2.57825747006566
30
0
41
1
10
72.02
20
2.60508682702735
30
0
41
1
10
72.02
20
2.68592572482362
30
0
41
1
10
72.02
20
2.74043794404952
30
0
41
1
10
72.02
20
2.85066040121202
30
0
41
1
10
72.02
20
2.90637300327953
30
0
41
1
10
72.02
20
3.01901363943483
30
0
41
1
10
72.02
20
3.07593681366157
30
0
41
1
10
72.02
20
3.16224422444387
30
0
41
1
10
72.02
20
3.19122546291729
30
0
41
1
10
72.02
20
3.24895136104018
30
0
41
1
10
72.02
20
3.27774905399159
30
0
41
1
10
72.02
20
3.3639494503783
30
0
41
1
10
72.02
20
3.42116175592193
30
0
41
1
10
72.02
20
3.53508318534816
30
0
41
1
10
72.02
20
3.59179138843885
30
0
41
1
10
72.02
20
3.64823317323547
30
0
0
SPLINE
5
151
100
AcDbEntity
8
1
62
256
6
ByLayer
370
18
48
1
60
0
100
AcDbSpline
70
4
71
3
72
10
73
6
40
0
40
0
40
0
40
0
40
0.5
40
0.5
40
1
40
1
40
1
40
1
41
1
10
71.8201016282572
20
3.84989705627029
30
0
41
1
10
71.8535367695242
20
3.81647808441556
30
0
41
1
10
71.8870165392775
20
3.782868345444
30
0
41
1
10
71.9536968932668
20
3.71561223287395
30
0
41
1
10
71.9869209604904
20
3.68194093499784
30
0
41
1
10
72.02
20
3.64823317326398
30
0
0
SPLINE
5
152
100
AcDbEntity
8
1
62
256
6
ByLayer
370
18
48
1
60
0
100
AcDbSpline
70
4
71
3
72
8
73
4
40
0
40
0
40
0
40
0
40
1
40
1
40
1
40
1
41
1
10
71.8201016282571
20
3.84989705627029
30
0
41
1
10
71.8200677520793
20
3.84991078892472
30
0
41
1
10
71.8200338759935
20
3.84992452164346
30
0
41
1
10
71.8199999999999
20
3.84993825442652
30
0
0
SPLINE
5
153
100
AcDbEntity
8
1
62
256
6
ByLayer
370
18
48
1
60
0
100
AcDbSpline
70
4
71
3
72
22
73
18
40
0
40
0
40
0
40
0
40
0.125
40
0.125
40
0.25
40
0.25
40
0.375
40
0.375
40
0.5
40
0.5
40
0.625
40
0.625
40
0.75
40
0.75
40
0.875
40
0.875
40
1
40
1
40
1
40
1
41
1
10
71.8199999999999
20
3.84993825442652
30
0
41
1
10
71.722881717428
20
3.82974392685173
30
0
41
1
10
71.6247423633185
20
3.80909752876008
30
0
41
1
10
71.4265400705934
20
3.7678267643407
30
0
41
1
10
71.3264852793256
20
3.74721076593994
30
0
41
1
10
71.1249148043199
20
3.70677783632263
30
0
41
1
10
71.0234055954618
20
3.686962932965
30
0
41
1
10
70.8194887443449
20
3.64857828231436
30
0
41
1
10
70.7170797182567
20
3.63000662675461
30
0
41
1
10
70.5119328149526
20
3.59422607128556
30
0
41
1
10
70.4091914340859
20
3.57701003002424
30
0
41
1
10
70.2036477251037
20
3.54388264172249
30
0
41
1
10
70.1008382280302
20
3.52797650098029
30
0
41
1
10
69.8954887153403
20
3.49722438408136
30
0
41
1
10
69.792941498784
20
3.48238902977215
30
0
41
1
10
69.5887356595561
20
3.45300504944242
30
0
41
1
10
69.4870874349828
20
3.43844458116064
30
0
41
1
10
69.386165816526
20
3.42346720656675
30
0
0
SPLINE
5
154
100
AcDbEntity
8
1
62
256
6
ByLayer
370
18
48
1
60
0
100
AcDbSpline
70
4
71
3
72
8
73
4
40
0
40
0
40
0
40
0
40
1
40
1
40
1
40
1
41
1
10
69.3618165859469
20
3.37412047912383
30
0
41
1
10
69.3699368716812
20
3.39058009136815
30
0
41
1
10
69.3780534620177
20
3.40702906837518
30
0
41
1
10
69.386165816526
20
3.42346720656673
30
0
0
SPLINE
5
155
100
AcDbEntity
8
1
62
256
6
ByLayer
370
18
48
1
60
0
100
AcDbSpline
70
4
71
3
72
32
73
28
40
0
40
0
40
0
40
0
40
0.0625000000000135
40
0.0625000000000135
40
0.125000000000027
40
0.125000000000027
40
0.250000000000008
40
0.250000000000008
40
0.312499999999999
40
0.312499999999999
40
0.374999999999989
40
0.374999999999989
40
0.437499999999979
40
0.437499999999979
40
0.49999999999997
40
0.49999999999997
40
0.624999999999953
40
0.624999999999953
40
0.687499999999967
40
0.687499999999967
40
0.749999999999982
40
0.749999999999982
40
0.87500000000001
40
0.87500000000001
40
0.937500000000005
40
0.937500000000005
40
1
40
1
40
1
40
1
41
1
10
68.9385984446749
20
3.16981030354361
30
0
41
1
10
68.9452053322221
20
3.16252197291379
30
0
41
1
10
68.9525310183853
20
3.15650304130898
30
0
41
1
10
68.9683676037802
20
3.14656548139877
30
0
41
1
10
68.9769138230009
20
3.14264102636599
30
0
41
1
10
69.0039428856992
20
3.13378101269711
30
0
41
1
10
69.0230259788457
20
3.13187407520596
30
0
41
1
10
69.0527669412793
20
3.13336707287502
30
0
41
1
10
69.0628660449152
20
3.13462211068665
30
0
41
1
10
69.0829261008002
20
3.13839820398695
30
0
41
1
10
69.0929510739196
20
3.14092143979596
30
0
41
1
10
69.1129835335599
20
3.14710470596492
30
0
41
1
10
69.1229910492542
20
3.15076558518305
30
0
41
1
10
69.1429799069295
20
3.15915999345549
30
0
41
1
10
69.1530024302778
20
3.16391684711863
30
0
41
1
10
69.1826632521733
20
3.17958150713611
30
0
41
1
10
69.2018773239968
20
3.19183001435732
30
0
41
1
10
69.2298401103631
20
3.21277907814158
30
0
41
1
10
69.2390166467471
20
3.22019592112645
30
0
41
1
10
69.2570618980812
20
3.23592825403219
30
0
41
1
10
69.2658813912018
20
3.24420533980944
30
0
41
1
10
69.2914165847034
20
3.27000202908849
30
0
41
1
10
69.3073454287497
20
3.28857401079605
30
0
41
1
10
69.3293703696659
20
3.31876727565813
30
0
41
1
10
69.3363979392636
20
3.32922467618721
30
0
41
1
10
69.3497344927653
20
3.35104469786023
30
0
41
1
10
69.3560466577702
20
3.36242498175167
30
0
41
1
10
69.3618165859476
20
3.37412047912505
30
0
0
SPLINE
5
156
100
AcDbEntity
8
1
62
256
6
ByLayer
370
18
48
1
60
0
100
AcDbSpline
70
4
71
3
72
10
73
6
40
0
40
0
40
0
40
0
40
0.5
40
0.5
40
1
40
1
40
1
40
1
41
1
10
68.7916913695768
20
3.32553798197321
30
0
41
1
10
68.8160648160433
20
3.30065987983841
30
0
41
1
10
68.840486739676
20
3.27527914612193
30
0
41
1
10
68.8894446815371
20
3.22344058130412
30
0
41
1
10
68.9139825991093
20
3.19696505983902
30
0
41
1
10
68.9385984446749
20
3.16981030354364
30
0
0
SPLINE
5
157
100
AcDbEntity
8
1
62
256
6
ByLayer
370
18
48
1
60
0
100
AcDbSpline
70
4
71
3
72
10
73
6
40
0
40
0
40
0
40
0
40
0.753509162137212
40
0.753509162137212
40
1
40
1
40
1
40
1
41
1
10
68.7916913695766
20
3.32553798197318
30
0
41
1
10
68.6641079808088
20
3.30166813987464
30
0
41
1
10
68.538001243713
20
3.27572003425857
30
0
41
1
10
68.3726201398061
20
3.23739799328587
30
0
41
1
10
68.3320110404346
20
3.22763702202406
30
0
41
1
10
68.2915587777419
20
3.21753801076218
30
0
0
SPLINE
5
158
100
AcDbEntity
8
1
62
256
6
ByLayer
370
18
48
1
60
0
100
AcDbSpline
70
4
71
3
72
8
73
4
40
0
40
0
40
0
40
0
40
1
40
1
40
1
40
1
41
1
10
68.2116546144687
20
3.19708992355927
30
0
41
1
10
68.1554395002327
20
3.18234586253701
30
0
41
1
10
68.0995316954299
20
3.16691248647592
30
0
41
1
10
68.0439339504898
20
3.15072683652059
30
0
0
SPLINE
5
159
100
AcDbEntity
8
1
62
256
6
ByLayer
370
18
48
1
60
0
100
AcDbSpline
70
4
71
3
72
8
73
4
40
0
40
0
40
0
40
0
40
1
40
1
40
1
40
1
41
1
10
67.993466716145
20
3.04553681465063
30
0
41
1
10
68.0103188189872
20
3.08055390741367
30
0
41
1
10
68.0271421368043
20
3.11562092487588
30
0
41
1
10
68.0439339504899
20
3.15072683652059
30
0
0
SPLINE
5
15A
100
AcDbEntity
8
1
62
256
6
ByLayer
370
18
48
1
60
0
100
AcDbSpline
70
4
71
3
72
27
73
23
40
0
40
0
40
0
40
0
40
0.125
40
0.125
40
0.250000000000001
40
0.250000000000001
40
0.375000000000001
40
0.375000000000001
40
0.437500000000001
40
0.437500000000001
40
0.500000000000001
40
0.500000000000001
40
0.625
40
0.625
40
0.75
40
0.875
40
0.875
40
0.9375
40
0.9375
40
0.96875
40
0.96875
40
1
40
1
40
1
40
1
41
1
10
60.8201012540599
20
-1.03272497022402
30
0
41
1
10
60.8120416184656
20
-0.900099803145281
30
0
41
1
10
60.8040161342618
20
-0.767137545221658
30
0
41
1
10
60.7881225605077
20
-0.500554874643711
30
0
41
1
10
60.7803042951635
20
-0.366931829668346
30
0
41
1
10
60.7646222648604
20
-0.0990430490074345
30
0
41
1
10
60.75673879449
20
0.0352216499242104
30
0
41
1
10
60.7446821051826
20
0.237097609096111
30
0
41
1
10
60.7406262736632
20
0.304469614288706
30
0
41
1
10
60.7324349852995
20
0.439376024130155
30
0
41
1
10
60.7282897691805
20
0.507065452926781
30
0
41
1
10
60.7158635515282
20
0.70859861102258
30
0
41
1
10
60.707587446185
20
0.841258696709644
30
0
41
1
10
60.6911774201652
20
1.10329447528736
30
0
41
1
10
60.6748938383349
20
1.36204371720564
30
0
41
1
10
60.6588375583496
20
1.61424841441962
30
0
41
1
10
60.6468201300709
20
1.80089630678825
30
0
41
1
10
60.6428179543649
20
1.86269401973487
30
0
41
1
10
60.6368085603247
20
1.95475068169196
30
0
41
1
10
60.6348022163078
20
1.98536219862149
30
0
41
1
10
60.6308034774592
20
2.04609270723177
30
0
41
1
10
60.6288095219678
20
2.07623586644658
30
0
41
1
10
60.6268197989978
20
2.10615895963394
30
0
0
SPLINE
5
15B
100
AcDbEntity
8
1
62
256
6
ByLayer
370
18
48
1
60
0
100
AcDbSpline
70
4
71
3
72
8
73
4
40
0
40
0
40
0
40
0
40
1
40
1
40
1
40
1
41
1
10
60.8201012540598
20
-1.03272497022399
30
0
41
1
10
60.9511207892269
20
-1.17117829257103
30
0
41
1
10
61.0817307473266
20
-1.30934524663326
30
0
41
1
10
61.2121923626545
20
-1.44697441219546
30
0
0
SPLINE
5
15C
100
AcDbEntity
8
1
62
256
6
ByLayer
370
13
48
1
60
0
100
AcDbSpline
70
4
71
3
72
9
73
5
40
0
40
0
40
0
40
0
40
0.776054206626583
40
1
40
1
40
1
40
1
41
1
10
61.4927381980945
20
1.00342415051807
30
0
41
1
10
61.5342394121449
20
0.37876640547222
30
0
41
1
10
61.5869440389389
20
-0.468357566716861
30
0
41
1
10
61.6399136212073
20
-1.25647029349921
30
0
41
1
10
61.651794409224
20
-1.42845859374134
30
0
0
SPLINE
5
15D
100
AcDbEntity
8
1
62
256
6
ByLayer
370
18
48
1
60
0
100
AcDbSpline
70
4
71
3
72
26
73
22
40
0
40
0
40
0
40
0
40
0.124999999999999
40
0.124999999999999
40
0.187499999999999
40
0.218749999999999
40
0.218749999999999
40
0.249999999999999
40
0.249999999999999
40
0.374999999999999
40
0.499999999999999
40
0.624999999999999
40
0.624999999999999
40
0.687499999999999
40
0.687499999999999
40
0.718749999999999
40
0.718749999999999
40
0.749999999999998
40
0.874999999999999
40
0.874999999999999
40
1
40
1
40
1
40
1
41
1
10
61.0480002939133
20
1.75034285822551
30
0
41
1
10
61.0547170884493
20
1.62517996445928
30
0
41
1
10
61.0614243050507
20
1.4976898169626
30
0
41
1
10
61.0715458504845
20
1.3029211689875
30
0
41
1
10
61.0766217590148
20
1.20465222789693
30
0
41
1
10
61.0817338508265
20
1.10503639914057
30
0
41
1
10
61.0851513935152
20
1.03832343167087
30
0
41
1
10
61.0868625997375
20
1.00486075131286
30
0
41
1
10
61.0954049479698
20
0.837586839551705
30
0
41
1
10
61.1090425298844
20
0.569128015723891
30
0
41
1
10
61.1296061976832
20
0.164057763580757
30
0
41
1
10
61.143461600402
20
-0.107564617354626
30
0
41
1
10
61.153914648444
20
-0.311882569186395
30
0
41
1
10
61.1574090231486
20
-0.380088905037383
30
0
41
1
10
61.1626643934925
20
-0.482551730129273
30
0
41
1
10
61.1644203649962
20
-0.516768447221352
30
0
41
1
10
61.1679207028239
20
-0.584946019183434
30
0
41
1
10
61.1766488960605
20
-0.754878752692264
30
0
41
1
10
61.1852609803332
20
-0.922288779111398
30
0
41
1
10
61.1988457870172
20
-1.18699416320101
30
0
41
1
10
61.2055311578088
20
-1.31777143885122
30
0
41
1
10
61.2121923626545
20
-1.44697441219546
30
0
0
SPLINE
5
15E
100
AcDbEntity
8
1
62
256
6
ByLayer
370
18
48
1
60
0
100
AcDbSpline
70
4
71
3
72
12
73
8
40
0
40
0
40
0
40
0
40
0.499999999999988
40
0.499999999999988
40
0.749999999999993
40
0.749999999999993
40
1
40
1
40
1
40
1
41
1
10
61.2121923626545
20
-1.44697441219543
30
0
41
1
10
61.2844008861964
20
-1.45585825859092
30
0
41
1
10
61.3571942183229
20
-1.45890124529927
30
0
41
1
10
61.4671286301755
20
-1.45436025754734
30
0
41
1
10
61.5039204558789
20
-1.45131855845372
30
0
41
1
10
61.5776859073698
20
-1.4422416332055
30
0
41
1
10
61.6146656153009
20
-1.43628630143041
30
0
41
1
10
61.6517944092242
20
-1.42845859374461
30
0
0
SPLINE
5
15F
100
AcDbEntity
8
1
62
256
6
ByLayer
370
18
48
1
60
0
100
AcDbSpline
70
4
71
3
72
12
73
8
40
0
40
0
40
0
40
0
40
0.5
40
0.5
40
0.750000000000001
40
0.750000000000001
40
1
40
1
40
1
40
1
41
1
10
67.2845126675388
20
2.00025311432626
30
0
41
1
10
67.3717674380106
20
1.88294355433433
30
0
41
1
10
67.4599362379513
20
1.77157752653468
30
0
41
1
10
67.5933049746137
20
1.61499888026893
30
0
41
1
10
67.6379061245626
20
1.56460945813416
30
0
41
1
10
67.727456996887
20
1.46744724658615
30
0
41
1
10
67.7723918740809
20
1.42054286995071
30
0
41
1
10
67.8175869749595
20
1.37598429979801
30
0
0
SPLINE
5
160
100
AcDbEntity
8
1
62
256
6
ByLayer
370
18
48
1
60
0
100
AcDbSpline
70
4
71
3
72
8
73
4
40
0
40
0
40
0
40
0
40
1
40
1
40
1
40
1
41
1
10
67.2845126675387
20
2.00025311432631
30
0
41
1
10
67.2287991725911
20
2.05438338330831
30
0
41
1
10
67.1730048275525
20
2.10813658332404
30
0
41
1
10
67.1171100106613
20
2.16149267371759
30
0
0
SPLINE
5
161
100
AcDbEntity
8
1
62
256
6
ByLayer
370
18
48
1
60
0
100
AcDbSpline
70
4
71
3
72
14
73
10
40
0
40
0
40
0
40
0
40
0.25
40
0.25
40
0.5
40
0.5
40
0.75
40
0.75
40
1
40
1
40
1
40
1
41
1
10
66.5592088681432
20
2.33645704137771
30
0
41
1
10
66.606471106935
20
2.33195660006336
30
0
41
1
10
66.6535915731542
20
2.32519725902625
30
0
41
1
10
66.7473485680993
20
2.30617121318076
30
0
41
1
10
66.7940304904996
20
2.29402848280924
30
0
41
1
10
66.8870637663345
20
2.26468064005971
30
0
41
1
10
66.9333475098953
20
2.2474856939244
30
0
41
1
10
67.025544433954
20
2.20815170757521
30
0
41
1
10
67.0714378074438
20
2.18601880402628
30
0
41
1
10
67.1171100106613
20
2.16149267371759
30
0
0
SPLINE
5
162
100
AcDbEntity
8
1
62
256
6
ByLayer
370
18
48
1
60
0
100
AcDbSpline
70
4
71
3
72
31
73
27
40
0
40
0
40
0
40
0
40
0.0625000000000038
40
0.0625000000000038
40
0.125000000000007
40
0.125000000000007
40
0.250000000000014
40
0.250000000000014
40
0.312500000000041
40
0.312500000000041
40
0.375000000000069
40
0.437500000000096
40
0.437500000000096
40
0.500000000000124
40
0.500000000000124
40
0.625000000000128
40
0.625000000000128
40
0.687500000000106
40
0.687500000000106
40
0.750000000000084
40
0.750000000000084
40
0.875000000000042
40
0.875000000000042
40
0.937500000000021
40
0.937500000000021
40
1
40
1
40
1
40
1
41
1
10
66.1359764116855
20
2.62173894815928
30
0
41
1
10
66.1425782103285
20
2.61224788859636
30
0
41
1
10
66.1498985401361
20
2.60279138068157
30
0
41
1
10
66.1657253596293
20
2.58393223108749
30
0
41
1
10
66.1742650242058
20
2.57449787389029
30
0
41
1
10
66.2012897916274
20
2.54645829663909
30
0
41
1
10
66.2203745032788
20
2.5288813894779
30
0
41
1
10
66.2501210832211
20
2.50368389272637
30
0
41
1
10
66.2602257666555
20
2.49549282271747
30
0
41
1
10
66.2802958894007
20
2.47983671342118
30
0
41
1
10
66.3003551023913
20
2.46479653989223
30
0
41
1
10
66.3203762604297
20
2.45083651074185
30
0
41
1
10
66.3403692080666
20
2.43737180597404
30
0
41
1
10
66.3503925951167
20
2.43086209365401
30
0
41
1
10
66.3800584120569
20
2.41225670597794
30
0
41
1
10
66.3992713323499
20
2.40108113229613
30
0
41
1
10
66.4272290394324
20
2.38597602728936
30
0
41
1
10
66.4364033433679
20
2.3812205000248
30
0
41
1
10
66.4544438792906
20
2.37227553530818
30
0
41
1
10
66.4632627731822
20
2.36811115716901
30
0
41
1
10
66.4887954059532
20
2.35668344903212
30
0
41
1
10
66.5047231252879
20
2.35040157568213
30
0
41
1
10
66.5267498621996
20
2.34324191461883
30
0
41
1
10
66.5337786116176
20
2.34123689977784
30
0
41
1
10
66.5471189331824
20
2.33811772654627
30
0
41
1
10
66.5534350379554
20
2.33700684148326
30
0
41
1
10
66.5592088681433
20
2.3364570413768
30
0
0
SPLINE
5
163
100
AcDbEntity
8
1
62
256
6
ByLayer
370
18
48
1
60
0
100
AcDbSpline
70
4
71
3
72
12
73
8
40
0
40
0
40
0
40
0
40
0.50000000000001
40
0.50000000000001
40
0.750000000000005
40
0.750000000000005
40
1
40
1
40
1
40
1
41
1
10
65.6032200860394
20
3.45954291379292
30
0
41
1
10
65.6904379726364
20
3.31167290594996
30
0
41
1
10
65.7785612598714
20
3.16716140182845
30
0
41
1
10
65.9118506829637
20
2.95714133816179
30
0
41
1
10
65.9564232837024
20
2.88833174492964
30
0
41
1
10
66.0459145064897
20
2.75313672175929
30
0
41
1
10
66.0908180405151
20
2.68666076927573
30
0
41
1
10
66.1359764116855
20
2.62173894815928
30
0
0
SPLINE
5
164
100
AcDbEntity
8
1
62
256
6
ByLayer
370
18
48
1
60
0
100
AcDbSpline
70
4
71
3
72
8
73
4
40
0
40
0
40
0
40
0
40
1
40
1
40
1
40
1
41
1
10
65.6032200860393
20
3.45954291379292
30
0
41
1
10
65.5471291613575
20
3.50127336167756
30
0
41
1
10
65.4910077180945
20
3.54222828818007
30
0
41
1
10
65.4348348797408
20
3.58239064268253
30
0
0
SPLINE
5
165
100
AcDbEntity
8
1
62
256
6
ByLayer
370
18
48
1
60
0
100
AcDbSpline
70
4
71
3
72
14
73
10
40
0
40
0
40
0
40
0
40
0.25
40
0.25
40
0.5
40
0.5
40
0.75
40
0.75
40
1
40
1
40
1
40
1
41
1
10
64.8776865442506
20
3.32663581341961
30
0
41
1
10
64.9249148706085
20
3.35765822390854
30
0
41
1
10
64.9719848484631
20
3.38650830867331
30
0
41
1
10
65.0656234164642
20
3.43896989205777
30
0
41
1
10
65.1122381377758
20
3.46270558904013
30
0
41
1
10
65.2051313217941
20
3.50530807741745
30
0
41
1
10
65.2513418576802
20
3.52413606295639
30
0
41
1
10
65.3433971950261
20
3.55692267879979
30
0
41
1
10
65.389222795652
20
3.57087228280307
30
0
41
1
10
65.4348348797408
20
3.5823906426825
30
0
0
SPLINE
5
166
100
AcDbEntity
8
1
62
256
6
ByLayer
370
18
48
1
60
0
100
AcDbSpline
70
4
71
3
72
31
73
27
40
0
40
0
40
0
40
0
40
0.0625000000000021
40
0.0625000000000021
40
0.125000000000004
40
0.125000000000004
40
0.250000000000008
40
0.250000000000008
40
0.31250000000001
40
0.31250000000001
40
0.375000000000012
40
0.437500000000014
40
0.437500000000014
40
0.500000000000016
40
0.500000000000016
40
0.625000000000021
40
0.625000000000021
40
0.687500000000024
40
0.687500000000024
40
0.750000000000026
40
0.750000000000026
40
0.875000000000031
40
0.875000000000031
40
0.937500000000016
40
0.937500000000016
40
1
40
1
40
1
40
1
41
1
10
64.4544520519397
20
3.50756697922358
30
0
41
1
10
64.4610524003406
20
3.49639893655186
30
0
41
1
10
64.468370307914
20
3.4857236990569
30
0
41
1
10
64.484191407689
20
3.46518715460246
30
0
41
1
10
64.4927263018435
20
3.45529692124794
30
0
41
1
10
64.5197445557238
20
3.42691517170002
30
0
41
1
10
64.5388258405711
20
3.41045518243246
30
0
41
1
10
64.5685682909583
20
3.38840585838616
30
0
41
1
10
64.5786745135892
20
3.38151816524524
30
0
41
1
10
64.5987479796923
20
3.36885881092323
30
0
41
1
10
64.6188107455955
20
3.35721770861116
30
0
41
1
10
64.6388352143172
20
3.34738056726957
30
0
41
1
10
64.6588311471134
20
3.33838102286211
30
0
41
1
10
64.6688557245753
20
3.33428610953482
30
0
41
1
10
64.6985303731785
20
3.32333983818086
30
0
41
1
10
64.7177470686886
20
3.31780618747558
30
0
41
1
10
64.7457079290427
20
3.31193605156486
30
0
41
1
10
64.7548828706309
20
3.31038885469314
30
0
41
1
10
64.7729240794648
20
3.30813102463597
30
0
41
1
10
64.7817456122079
20
3.30742918873904
30
0
41
1
10
64.8072813962054
20
3.30663236072869
30
0
41
1
10
64.8232087970688
20
3.30780274294077
30
0
41
1
10
64.8452331784526
20
3.31244227644345
30
0
41
1
10
64.852260829809
20
3.3144747434209
30
0
41
1
10
64.865598632017
20
3.31967018376585
30
0
41
1
10
64.8719138781507
20
3.32284397849327
30
0
41
1
10
64.8776865442507
20
3.32663581341902
30
0
0
SPLINE
5
167
100
AcDbEntity
8
1
62
256
6
ByLayer
370
18
48
1
60
0
100
AcDbSpline
70
4
71
3
72
12
73
8
40
0
40
0
40
0
40
0
40
0.499999999999991
40
0.499999999999991
40
0.749999999999995
40
0.749999999999995
40
1
40
1
40
1
40
1
41
1
10
63.921297606254
20
4.44510924696439
30
0
41
1
10
64.0085828810819
20
4.28679497885989
30
0
41
1
10
64.0967717342592
20
4.12880917973675
30
0
41
1
10
64.2301558910901
20
3.89387966637173
30
0
41
1
10
64.2747600447001
20
3.81598784231358
30
0
41
1
10
64.3643182154378
20
3.66108385706599
30
0
41
1
10
64.4092572315213
20
3.58403834896299
30
0
41
1
10
64.4544520519396
20
3.50756697922358
30
0
0
SPLINE
5
168
100
AcDbEntity
8
1
62
256
6
ByLayer
370
18
48
1
60
0
100
AcDbSpline
70
4
71
3
72
8
73
4
40
0
40
0
40
0
40
0
40
1
40
1
40
1
40
1
41
1
10
63.9212976062539
20
4.44510924696434
30
0
41
1
10
63.8652194577129
20
4.46833964514121
30
0
41
1
10
63.8091591272574
20
4.49053429226115
30
0
41
1
10
63.7530975534471
20
4.51168741245831
30
0
0
SPLINE
5
169
100
AcDbEntity
8
1
62
256
6
ByLayer
370
18
48
1
60
0
100
AcDbSpline
70
4
71
3
72
14
73
10
40
0
40
0
40
0
40
0
40
0.25
40
0.25
40
0.5
40
0.5
40
0.75
40
0.75
40
1
40
1
40
1
40
1
41
1
10
63.1960898586783
20
3.86143560157214
30
0
41
1
10
63.243275107976
20
3.92363847632566
30
0
41
1
10
63.2903012154652
20
3.98406335019013
30
0
41
1
10
63.3838769034722
20
4.10067640368138
30
0
41
1
10
63.4304722713501
20
4.15696644944779
30
0
41
1
10
63.5233503956389
20
4.26550485610019
30
0
41
1
10
63.5695635920016
20
4.31767124875665
30
0
41
1
10
63.6616342890475
20
4.4178484912361
30
0
41
1
10
63.7074724876026
20
4.46583661335262
30
0
41
1
10
63.753097553447
20
4.51168741245834
30
0
0
SPLINE
5
16A
100
AcDbEntity
8
1
62
256
6
ByLayer
370
18
48
1
60
0
100
AcDbSpline
70
4
71
3
72
32
73
28
40
0
40
0
40
0
40
0
40
0.0625000000000257
40
0.0625000000000257
40
0.125000000000051
40
0.125000000000051
40
0.250000000000059
40
0.250000000000059
40
0.312500000000063
40
0.312500000000063
40
0.375000000000067
40
0.375000000000067
40
0.437500000000071
40
0.437500000000071
40
0.500000000000075
40
0.500000000000075
40
0.625000000000033
40
0.625000000000033
40
0.687500000000036
40
0.687500000000036
40
0.750000000000039
40
0.750000000000039
40
0.875
40
0.875
40
0.9375
40
0.9375
40
1
40
1
40
1
40
1
41
1
10
62.7728906609008
20
3.91319705517475
30
0
41
1
10
62.7794945621699
20
3.90188484877371
30
0
41
1
10
62.7868164163509
20
3.89145653726095
30
0
41
1
10
62.802646837561
20
3.87205944351214
30
0
41
1
10
62.8111876998359
20
3.86306710111961
30
0
41
1
10
62.8382207173347
20
3.83823987619078
30
0
41
1
10
62.8573120011911
20
3.82515734369363
30
0
41
1
10
62.8870671569399
20
3.80928578024728
30
0
41
1
10
62.897175542544
20
3.8046509534438
30
0
41
1
10
62.9172520097122
20
3.79673334820785
30
0
41
1
10
62.9272842912942
20
3.79341513050395
30
0
41
1
10
62.9473282391788
20
3.78791696552804
30
0
41
1
10
62.95733994137
20
3.78573789242199
30
0
41
1
10
62.9773334046324
20
3.78244403049536
30
0
41
1
10
62.9873562111247
20
3.7813282883873
30
0
41
1
10
63.0170174055701
20
3.77955288896393
30
0
41
1
10
63.0362236603017
20
3.78042338143618
30
0
41
1
10
63.0641693765861
20
3.78459340738902
30
0
41
1
10
63.0733394034096
20
3.78646598142893
30
0
41
1
10
63.0913713407284
20
3.79120190219285
30
0
41
1
10
63.1001846991969
20
3.79405655650109
30
0
41
1
10
63.1257027940051
20
3.80399028767533
30
0
41
1
10
63.1416219217664
20
3.81244291546702
30
0
41
1
10
63.1636396478209
20
3.82823140583466
30
0
41
1
10
63.1706660339717
20
3.8340180172251
30
0
41
1
10
63.1840031138962
20
3.8468077090634
30
0
41
1
10
63.1903178051215
20
3.85382647944553
30
0
41
1
10
63.1960898586784
20
3.86143560157191
30
0
0
SPLINE
5
16B
100
AcDbEntity
8
1
62
256
6
ByLayer
370
18
48
1
60
0
100
AcDbSpline
70
4
71
3
72
12
73
8
40
0
40
0
40
0
40
0
40
0.499999999999999
40
0.499999999999999
40
0.749999999999999
40
0.749999999999999
40
1
40
1
40
1
40
1
41
1
10
62.2451646796283
20
4.81161152229987
30
0
41
1
10
62.3315617500093
20
4.666143524251
30
0
41
1
10
62.4188126082546
20
4.51806965630695
30
0
41
1
10
62.5508784708797
20
4.29297882212856
30
0
41
1
10
62.5950382261706
20
4.21755513517203
30
0
41
1
10
62.6836919166217
20
4.06595196340618
30
0
41
1
10
62.7281714062225
20
3.98979926626299
30
0
41
1
10
62.7728906609008
20
3.91319705517475
30
0
0
SPLINE
5
16C
100
AcDbEntity
8
1
62
256
6
ByLayer
370
18
48
1
60
0
100
AcDbSpline
70
4
71
3
72
8
73
4
40
0
40
0
40
0
40
0
40
1
40
1
40
1
40
1
41
1
10
62.0488999936087
20
4.78499677601903
30
0
41
1
10
62.1144514801407
20
4.79548248386288
30
0
41
1
10
62.1798603498814
20
4.80435462457658
30
0
41
1
10
62.2451646796283
20
4.81161152229984
30
0
0
SPLINE
5
16D
100
AcDbEntity
8
1
62
256
6
ByLayer
370
18
48
1
60
0
100
AcDbSpline
70
4
71
3
72
14
73
10
40
0
40
0
40
0
40
0
40
0.25
40
0.25
40
0.5
40
0.5
40
0.75
40
0.75
40
1
40
1
40
1
40
1
41
1
10
61.5145060371042
20
3.86799577117549
30
0
41
1
10
61.5597631310161
20
3.94921614730734
30
0
41
1
10
61.6048739813311
20
4.029371845284
30
0
41
1
10
61.6946498240077
20
4.18720593591931
30
0
41
1
10
61.7393466000837
20
4.26493021166181
30
0
41
1
10
61.8284616526557
20
4.41802625683246
30
0
41
1
10
61.8728469596733
20
4.49334025441263
30
0
41
1
10
61.9611556139783
20
4.64117932141716
30
0
41
1
10
62.0051086678479
20
4.71375573793983
30
0
41
1
10
62.0488999936087
20
4.78499677601903
30
0
0
SPLINE
5
16E
100
AcDbEntity
8
1
62
256
6
ByLayer
370
18
48
1
60
0
100
AcDbSpline
70
4
71
3
72
32
73
28
40
0
40
0
40
0
40
0
40
0.0624999999999948
40
0.0624999999999948
40
0.12499999999999
40
0.12499999999999
40
0.249999999999978
40
0.249999999999978
40
0.312499999999973
40
0.312499999999973
40
0.374999999999967
40
0.374999999999967
40
0.437499999999961
40
0.437499999999961
40
0.499999999999956
40
0.499999999999956
40
0.624999999999945
40
0.624999999999945
40
0.687499999999939
40
0.687499999999939
40
0.749999999999934
40
0.749999999999934
40
0.874999999999967
40
0.874999999999967
40
0.937499999999983
40
0.937499999999983
40
1
40
1
40
1
40
1
41
1
10
61.0912479268067
20
3.78383903101218
30
0
41
1
10
61.0978506462046
20
3.77394630064518
30
0
41
1
10
61.1051705653624
20
3.76520699817584
30
0
41
1
10
61.1209967512243
20
3.74962832572012
30
0
41
1
10
61.1295344742321
20
3.74277553943563
30
0
41
1
10
61.1565629266431
20
3.72491981748081
30
0
41
1
10
61.1756519078244
20
3.71701002530253
30
0
41
1
10
61.2054020026222
20
3.70948803327818
30
0
41
1
10
61.2155102789987
20
3.70773732123823
30
0
41
1
10
61.2355863068534
20
3.70563695771713
30
0
41
1
10
61.2456182297425
20
3.70526969730173
30
0
41
1
10
61.2656609650386
20
3.70575288954197
30
0
41
1
10
61.2756717981098
20
3.70660426145031
30
0
41
1
10
61.2956628601559
20
3.70944997393701
30
0
41
1
10
61.3056837241751
20
3.71145624976305
30
0
41
1
10
61.3353480102789
20
3.71906255650845
30
0
41
1
10
61.3545558827113
20
3.72619435931625
30
0
41
1
10
61.3825048208087
20
3.73979314451972
30
0
41
1
10
61.3916760297491
20
3.74481474931477
30
0
41
1
10
61.4097106344329
20
3.75586525819108
30
0
41
1
10
61.4185314106114
20
3.76187298412197
30
0
41
1
10
61.4440653175817
20
3.78113581862934
30
0
41
1
10
61.4599944238201
20
3.79568439800042
30
0
41
1
10
61.4820266090322
20
3.82041067925789
30
0
41
1
10
61.489057722993
20
3.82914166013458
30
0
41
1
10
61.5024039925921
20
3.8477364129634
30
0
41
1
10
61.5087269867571
20
3.8576244326228
30
0
41
1
10
61.5145060371042
20
3.86799577117566
30
0
0
SPLINE
5
16F
100
AcDbEntity
8
1
62
256
6
ByLayer
370
18
48
1
60
0
100
AcDbSpline
70
4
71
3
72
12
73
8
40
0
40
0
40
0
40
0
40
0.5
40
0.5
40
0.75
40
0.75
40
1
40
1
40
1
40
1
41
1
10
60.6946945613689
20
4.35278193314863
30
0
41
1
10
60.7599849185651
20
4.2633907097011
30
0
41
1
10
60.8257589576403
20
4.17109186266612
30
0
41
1
10
60.9248854308676
20
4.02881217103163
30
0
41
1
10
60.9580150361959
20
3.98073222795253
30
0
41
1
10
61.0244692367563
20
3.883299114133
30
0
41
1
10
61.0577895681892
20
3.83396906083453
30
0
41
1
10
61.0912479268067
20
3.78383903101218
30
0
0
SPLINE
5
170
100
AcDbEntity
8
1
62
256
6
ByLayer
370
18
48
1
60
0
100
AcDbSpline
70
4
71
3
72
8
73
4
40
0
40
0
40
0
40
0
40
1
40
1
40
1
40
1
41
1
10
60.205733134694
20
4.09927480694171
30
0
41
1
10
60.3695971436382
20
4.1920089292712
30
0
41
1
10
60.5323644849124
20
4.27659911106079
30
0
41
1
10
60.6946945613689
20
4.35278193314861
30
0
0
SPLINE
5
171
100
AcDbEntity
8
1
62
256
6
ByLayer
370
18
48
1
60
0
100
AcDbSpline
70
4
71
3
72
14
73
10
40
0
40
0
40
0
40
0
40
0.25
40
0.25
40
0.5
40
0.5
40
0.75
40
0.75
40
1
40
1
40
1
40
1
41
1
10
59.8329391374226
20
3.34304524089606
30
0
41
1
10
59.8643675389304
20
3.40670241828255
30
0
41
1
10
59.8957289453715
20
3.47022527124022
30
0
41
1
10
59.9582375952963
20
3.59697834336581
30
0
41
1
10
59.9893887655022
20
3.66020862949921
30
0
41
1
10
60.051529865254
20
3.78636747008773
30
0
41
1
10
60.0825173395477
20
3.84929052100742
30
0
41
1
10
60.1442674901579
20
3.97462826848854
30
0
41
1
10
60.1750424201858
20
4.03706787044442
30
0
41
1
10
60.2057331346939
20
4.09927480694171
30
0
0
SPLINE
5
172
100
AcDbEntity
8
1
62
256
6
ByLayer
370
18
48
1
60
0
100
AcDbSpline
70
4
71
3
72
31
73
27
40
0
40
0
40
0
40
0
40
0.0624999999999822
40
0.0624999999999822
40
0.124999999999964
40
0.124999999999964
40
0.249999999999972
40
0.249999999999972
40
0.312499999999976
40
0.312499999999976
40
0.374999999999979
40
0.437499999999983
40
0.437499999999983
40
0.499999999999986
40
0.499999999999986
40
0.624999999999994
40
0.624999999999994
40
0.687499999999974
40
0.687499999999974
40
0.749999999999953
40
0.749999999999953
40
0.874999999999958
40
0.874999999999958
40
0.937499999999979
40
0.937499999999979
40
1
40
1
40
1
40
1
41
1
10
59.4098049822781
20
3.13515448748649
30
0
41
1
10
59.416399270648
20
3.12804567199308
30
0
41
1
10
59.4237074573562
20
3.12219690112949
30
0
41
1
10
59.4395044941796
20
3.11256901536535
30
0
41
1
10
59.4480212490449
20
3.10878787021031
30
0
41
1
10
59.4750039382728
20
3.1003105188768
30
0
41
1
10
59.4940611926048
20
3.09861271766235
30
0
41
1
10
59.5237637997582
20
3.10038881642896
30
0
41
1
10
59.5338639100036
20
3.10173377740233
30
0
41
1
10
59.5539261979512
20
3.1056820368371
30
0
41
1
10
59.5739777111557
20
3.11089197983662
30
0
41
1
10
59.5939901361678
20
3.11836559409622
30
0
41
1
10
59.6139735313586
20
3.12690578313769
30
0
41
1
10
59.6239900987895
20
3.13173145730849
30
0
41
1
10
59.6536697405782
20
3.14761427668427
30
0
41
1
10
59.6728872509716
20
3.15999492258277
30
0
41
1
10
59.7008489557011
20
3.18111585609876
30
0
41
1
10
59.7100241328853
20
3.18858558530664
30
0
41
1
10
59.7280660057606
20
3.20441380626866
30
0
41
1
10
59.7369024245179
20
3.21275130823682
30
0
41
1
10
59.7624661323094
20
3.2386972739358
30
0
41
1
10
59.778408021737
20
3.25734662939087
30
0
41
1
10
59.8004508768029
20
3.28761675449871
30
0
41
1
10
59.8074841426177
20
3.2980932192383
30
0
41
1
10
59.8208321088699
20
3.31993690269363
30
0
41
1
10
59.827158195942
20
3.3313361370401
30
0
41
1
10
59.8329391374226
20
3.34304524089643
30
0
0
SPLINE
5
173
100
AcDbEntity
8
1
62
256
6
ByLayer
370
18
48
1
60
0
100
AcDbSpline
70
4
71
3
72
12
73
8
40
0
40
0
40
0
40
0
40
0.500000000000018
40
0.500000000000018
40
0.750000000000009
40
0.750000000000009
40
1
40
1
40
1
40
1
41
1
10
59.1440212966041
20
3.40192182039576
30
0
41
1
10
59.1879678842678
20
3.36099689854856
30
0
41
1
10
59.232106220448
20
3.31827906244342
30
0
41
1
10
59.298567099196
20
3.25157997615216
30
0
41
1
10
59.3207560201948
20
3.22892342823386
30
0
41
1
10
59.3652129821766
20
3.182749110152
30
0
41
1
10
59.3874821554189
20
3.15921907922586
30
0
41
1
10
59.409804982278
20
3.13515448748649
30
0
0
SPLINE
5
174
100
AcDbEntity
8
1
62
256
6
ByLayer
370
18
48
1
60
0
100
AcDbSpline
70
4
71
3
72
8
73
4
40
0
40
0
40
0
40
0
40
1
40
1
40
1
40
1
41
1
10
58.9356019518423
20
3.244779786999
30
0
41
1
10
59.0051646547724
20
3.29818865171282
30
0
41
1
10
59.0746224303403
20
3.35058117370752
30
0
41
1
10
59.1440212966041
20
3.40192182039573
30
0
0
SPLINE
5
175
100
AcDbEntity
8
1
62
256
6
ByLayer
370
18
48
1
60
0
100
AcDbSpline
70
4
71
3
72
29
73
25
40
0
40
0
40
0
40
0
40
0.056514826372503
40
0.056514826372503
40
0.15086334373526
40
0.15086334373526
40
0.198037602416638
40
0.198037602416638
40
0.245211861098016
40
0.245211861098016
40
0.339560378460765
40
0.339560378460765
40
0.433908895823514
40
0.528257413186263
40
0.528257413186263
40
0.622605930549012
40
0.622605930549012
40
0.81130296527451
40
0.81130296527451
40
0.858477223955883
40
0.858477223955883
40
0.905651482637255
40
0.905651482637255
40
1
40
1
40
1
40
1
41
1
10
48.2390895267333
20
-3.63075299488355
30
0
41
1
10
48.1755894439998
20
-3.63075528473129
30
0
41
1
10
48.1120076656878
20
-3.62968270868413
30
0
41
1
10
47.9420157331804
20
-3.62393285490498
30
0
41
1
10
47.835437744378
20
-3.61731917110052
30
0
41
1
10
47.6750767157236
20
-3.60277444749633
30
0
41
1
10
47.6216779032271
20
-3.59716583292752
30
0
41
1
10
47.5151326134753
20
-3.58446566369088
30
0
41
1
10
47.461955165573
20
-3.57737142335952
30
0
41
1
10
47.3026268279838
20
-3.55389329844408
30
0
41
1
10
47.1966585750673
20
-3.53531958516436
30
0
41
1
10
46.9849528000652
20
-3.49251336375929
30
0
41
1
10
46.7735128898628
20
-3.44404132479048
30
0
41
1
10
46.5623983931214
20
-3.38443409100782
30
0
41
1
10
46.3513568059018
20
-3.31930164433589
30
0
41
1
10
46.2458861463974
20
-3.28396398257098
30
0
41
1
10
45.9292420731702
20
-3.16977293669962
30
0
41
1
10
45.7178190881987
20
-3.08274277212601
30
0
41
1
10
45.451650665851
20
-2.96097921491554
30
0
41
1
10
45.3983250285325
20
-2.93597649997878
30
0
41
1
10
45.2914727556785
20
-2.88467222192844
30
0
41
1
10
45.2379032889963
20
-2.8583478632506
30
0
41
1
10
45.0776380853421
20
-2.7778185189355
30
0
41
1
10
44.9711605998845
20
-2.72195450896533
30
0
41
1
10
44.8649855649234
20
-2.66399651052049
30
0
0
SPLINE
5
176
100
AcDbEntity
8
1
62
256
6
ByLayer
370
18
48
1
60
0
100
AcDbSpline
70
4
71
3
72
24
73
20
40
0
40
0
40
0
40
0
40
0.14653085908474
40
0.14653085908474
40
0.293061718169481
40
0.293061718169481
40
0.439592577254221
40
0.439592577254221
40
0.586123436338961
40
0.586123436338961
40
0.732654295423701
40
0.732654295423701
40
0.769287010194884
40
0.769287010194884
40
0.805919724966067
40
0.805919724966067
40
0.879185154508432
40
0.879185154508432
40
1
40
1
40
1
40
1
41
1
10
41.9680378873106
20
-3.58759223912441
30
0
41
1
10
42.1045668239928
20
-3.57070146837702
30
0
41
1
10
42.2406895785246
20
-3.54897163713963
30
0
41
1
10
42.5125560294558
20
-3.49618299776498
30
0
41
1
10
42.6482937327134
20
-3.46512590737112
30
0
41
1
10
42.9195797745029
20
-3.39386299226848
30
0
41
1
10
43.0551097360618
20
-3.35365066076767
30
0
41
1
10
43.3260756222654
20
-3.26405042518246
30
0
41
1
10
43.4615375097753
20
-3.21466514522979
30
0
41
1
10
43.7331799628371
20
-3.10701860637693
30
0
41
1
10
43.8694073816907
20
-3.04878756409818
30
0
41
1
10
44.0406443855778
20
-2.97072593905074
30
0
41
1
10
44.0749365489729
20
-2.95484806886756
30
0
41
1
10
44.1436147788695
20
-2.92256204210972
30
0
41
1
10
44.1780218871974
20
-2.9061434202726
30
0
41
1
10
44.2810834728851
20
-2.85624184825116
30
0
41
1
10
44.3496586272057
20
-2.82207734113979
30
0
41
1
10
44.5309915728047
20
-2.72925333525822
30
0
41
1
10
44.6435437876559
20
-2.66909337247648
30
0
41
1
10
44.7557752238195
20
-2.60658367700992
30
0
0
SPLINE
5
177
100
AcDbEntity
8
1
62
256
6
ByLayer
370
18
48
1
60
0
100
AcDbSpline
70
4
71
3
72
8
73
4
40
0
40
0
40
0
40
0
40
1
40
1
40
1
40
1
41
1
10
55.5089742328188
20
3.73526275396623
30
0
41
1
10
55.5364735170648
20
3.74818401708942
30
0
41
1
10
55.5638181409476
20
3.76226092691169
30
0
41
1
10
55.5909844625067
20
3.77762488270886
30
0
0
SPLINE
5
178
100
AcDbEntity
8
1
62
256
6
ByLayer
370
18
48
1
60
0
100
AcDbSpline
70
4
71
3
72
8
73
4
40
0
40
0
40
0
40
0
40
1
40
1
40
1
40
1
41
1
10
55.5909844625067
20
3.77762488270886
30
0
41
1
10
55.6675634470749
20
3.82093424762749
30
0
41
1
10
55.7440718097976
20
3.8629856573771
30
0
41
1
10
55.82
20
3.90336953083875
30
0
0
SPLINE
5
179
100
AcDbEntity
8
1
62
256
6
ByLayer
370
18
48
1
60
0
100
AcDbSpline
70
4
71
3
72
8
73
4
40
0
40
0
40
0
40
0
40
1
40
1
40
1
40
1
41
1
10
56.4098996026686
20
3.92447195598948
30
0
41
1
10
56.2146472973031
20
3.92852441519076
30
0
41
1
10
56.0180046383361
20
3.92130099963177
30
0
41
1
10
55.82
20
3.90336953083872
30
0
0
SPLINE
5
17A
100
AcDbEntity
8
1
62
256
6
ByLayer
370
18
48
1
60
0
100
AcDbSpline
70
4
71
3
72
8
73
4
40
0
40
0
40
0
40
0
40
1
40
1
40
1
40
1
41
1
10
56.448437821492
20
3.85530161913473
30
0
41
1
10
56.4355801819244
20
3.87842645164727
30
0
41
1
10
56.4227333365873
20
3.90148471035769
30
0
41
1
10
56.4098996026687
20
3.92447195598948
30
0
0
SPLINE
5
17B
100
AcDbEntity
8
1
62
256
6
ByLayer
370
18
48
1
60
0
100
AcDbSpline
70
4
71
3
72
32
73
28
40
0
40
0
40
0
40
0
40
0.0625000000000259
40
0.0625000000000259
40
0.125000000000052
40
0.125000000000052
40
0.187500000000077
40
0.187500000000077
40
0.250000000000103
40
0.250000000000103
40
0.312500000000129
40
0.312500000000129
40
0.375000000000155
40
0.375000000000155
40
0.500000000000156
40
0.500000000000156
40
0.562500000000131
40
0.562500000000131
40
0.625000000000106
40
0.625000000000106
40
0.750000000000057
40
0.750000000000057
40
0.875000000000008
40
0.875000000000008
40
0.937500000000004
40
0.937500000000004
40
1
40
1
40
1
40
1
41
1
10
56.8718210908213
20
3.76587374410613
30
0
41
1
10
56.8652873316889
20
3.75642709217328
30
0
41
1
10
56.8580760075706
20
3.74810422382504
30
0
41
1
10
56.8425428427855
20
3.73329080773954
30
0
41
1
10
56.8342180874278
20
3.72680442900972
30
0
41
1
10
56.8165815283588
20
3.71547804509734
30
0
41
1
10
56.8074510422146
20
3.71075784464654
30
0
41
1
10
56.7888179390563
20
3.70295252858941
30
0
41
1
10
56.7792902092817
20
3.69985476924702
30
0
41
1
10
56.7598707937431
20
3.69507797783405
30
0
41
1
10
56.7499220796273
20
3.69339722849656
30
0
41
1
10
56.7300408657954
20
3.69138486115551
30
0
41
1
10
56.7201025722231
20
3.69104197087
30
0
41
1
10
56.6903057536694
20
3.69178653918198
30
0
41
1
10
56.6704643647005
20
3.69462448658646
30
0
41
1
10
56.6407912115672
20
3.70210935431564
30
0
41
1
10
56.6309351132608
20
3.7051491156019
30
0
41
1
10
56.6115889167597
20
3.71219350641982
30
0
41
1
10
56.6020578035819
20
3.71620772822132
30
0
41
1
10
56.573901070409
20
3.72970799858621
30
0
41
1
10
56.5556876781572
20
3.7406420133712
30
0
41
1
10
56.5206798109923
20
3.76669913123001
30
0
41
1
10
56.5043061336081
20
3.78149724879896
30
0
41
1
10
56.4816771278118
20
3.80671487132446
30
0
41
1
10
56.4744586361162
20
3.81562962737345
30
0
41
1
10
56.4607677349717
20
3.834644990876
30
0
41
1
10
56.4543244770214
20
3.84471430079691
30
0
41
1
10
56.448437821492
20
3.85530161913473
30
0
0
SPLINE
5
17C
100
AcDbEntity
8
1
62
256
6
ByLayer
370
18
48
1
60
0
100
AcDbSpline
70
4
71
3
72
8
73
4
40
0
40
0
40
0
40
0
40
1
40
1
40
1
40
1
41
1
10
56.9544311473625
20
3.88416543629299
30
0
41
1
10
56.9269614021977
20
3.8451920395415
30
0
41
1
10
56.8994336684391
20
3.80579661307547
30
0
41
1
10
56.8718210908214
20
3.76587374410602
30
0
0
SPLINE
5
17D
100
AcDbEntity
8
1
62
256
6
ByLayer
370
18
48
1
60
0
100
AcDbSpline
70
4
71
3
72
10
73
6
40
0
40
0
40
0
40
0
40
0.5
40
0.5
40
1
40
1
40
1
40
1
41
1
10
57.955867034607
20
3.6586911092173
30
0
41
1
10
57.7898860290547
20
3.71294966281835
30
0
41
1
10
57.623762859002
20
3.75879382210218
30
0
41
1
10
57.290030726815
20
3.83376670479294
30
0
41
1
10
57.1224379336568
20
3.86294101296613
30
0
41
1
10
56.9544311473625
20
3.88416543629299
30
0
0
SPLINE
5
17E
100
AcDbEntity
8
1
62
256
6
ByLayer
370
18
48
1
60
0
100
AcDbSpline
70
4
71
3
72
10
73
6
40
0
40
0
40
0
40
0
40
0.5
40
0.5
40
1
40
1
40
1
40
1
41
1
10
58.1298547984567
20
3.31190386647671
30
0
41
1
10
58.1006925244926
20
3.36981796700522
30
0
41
1
10
58.0715986088076
20
3.42767635499425
30
0
41
1
10
58.0136011536981
20
3.5432757560786
30
0
41
1
10
57.9846965195216
20
3.60101645294642
30
0
41
1
10
57.955867034607
20
3.65869110921736
30
0
0
SPLINE
5
17F
100
AcDbEntity
8
1
62
256
6
ByLayer
370
18
48
1
60
0
100
AcDbSpline
70
4
71
3
72
32
73
28
40
0
40
0
40
0
40
0
40
0.0625000000000027
40
0.0625000000000027
40
0.125000000000005
40
0.125000000000005
40
0.187500000000008
40
0.187500000000008
40
0.250000000000011
40
0.250000000000011
40
0.312500000000013
40
0.312500000000013
40
0.375000000000016
40
0.375000000000016
40
0.500000000000021
40
0.500000000000021
40
0.562500000000024
40
0.562500000000024
40
0.625000000000027
40
0.625000000000027
40
0.750000000000032
40
0.750000000000032
40
0.875000000000036
40
0.875000000000036
40
0.937500000000018
40
0.937500000000018
40
1
40
1
40
1
40
1
41
1
10
58.5531133835193
20
3.09877597203783
30
0
41
1
10
58.5465898455845
20
3.09235411860581
30
0
41
1
10
58.5393908227998
20
3.08712562095104
30
0
41
1
10
58.5238846608035
20
3.07861283635904
30
0
41
1
10
58.5155746936509
20
3.07533306948608
30
0
41
1
10
58.4979693931143
20
3.070525745151
30
0
41
1
10
58.488849333191
20
3.06904960295816
30
0
41
1
10
58.4702397289394
20
3.06766590250061
30
0
41
1
10
58.4607229076292
20
3.06775385693169
30
0
41
1
10
58.4413227585833
20
3.06930796428307
30
0
41
1
10
58.431382308701
20
3.07078950578858
30
0
41
1
10
58.4115060521531
20
3.07496368475105
30
0
41
1
10
58.4015689009001
20
3.07764716145996
30
0
41
1
10
58.3717722607797
20
3.08729872373741
30
0
41
1
10
58.3519266644807
20
3.09584717818899
30
0
41
1
10
58.3222437555677
20
3.11161413337828
30
0
41
1
10
58.3123807862697
20
3.11736254661781
30
0
41
1
10
58.2930233325643
20
3.12964520249108
30
0
41
1
10
58.2834870627156
20
3.13620086071194
30
0
41
1
10
58.2553166901352
20
3.15710225205234
30
0
41
1
10
58.2370989955232
20
3.17267889426998
30
0
41
1
10
58.2020788398141
20
3.20739295954726
30
0
41
1
10
58.185704258791
20
3.22609722145731
30
0
41
1
10
58.1630789512581
20
3.25645048400776
30
0
41
1
10
58.1558625084383
20
3.26695481875649
30
0
41
1
10
58.1421770268388
20
3.28885933010741
30
0
41
1
10
58.1357374283906
20
3.30022140228388
30
0
41
1
10
58.1298547984567
20
3.31190386647671
30
0
0
SPLINE
5
180
100
AcDbEntity
8
1
62
256
6
ByLayer
370
18
48
1
60
0
100
AcDbSpline
70
4
71
3
72
10
73
6
40
0
40
0
40
0
40
0
40
0.5
40
0.5
40
1
40
1
40
1
40
1
41
1
10
58.7904887067156
20
3.31676910552105
30
0
41
1
10
58.7512032432896
20
3.28321974775008
30
0
41
1
10
58.7117939365932
20
3.24827475191932
30
0
41
1
10
58.6326888989345
20
3.17564869585198
30
0
41
1
10
58.5930039528809
20
3.13804475415
30
0
41
1
10
58.5531133835193
20
3.09877597203786
30
0
0
SPLINE
5
181
100
AcDbEntity
8
1
62
256
6
ByLayer
370
18
48
1
60
0
100
AcDbSpline
70
4
71
3
72
10
73
6
40
0
40
0
40
0
40
0
40
0.5
40
0.5
40
1
40
1
40
1
40
1
41
1
10
59.5010425964868
20
2.9212392671175
30
0
41
1
10
59.3830817131156
20
2.99490402008632
30
0
41
1
10
59.2649005904784
20
3.06462934884749
30
0
41
1
10
59.0280882850773
20
3.19644395457129
30
0
41
1
10
58.9094472308039
20
3.2585223045636
30
0
41
1
10
58.7904887067157
20
3.31676910552102
30
0
0
SPLINE
5
182
100
AcDbEntity
8
1
62
256
6
ByLayer
370
18
48
1
60
0
100
AcDbSpline
70
4
71
3
72
12
73
8
40
0
40
0
40
0
40
0
40
0.25
40
0.25
40
0.499999999999999
40
0.499999999999999
40
1
40
1
40
1
40
1
41
1
10
59.8111547311905
20
2.31546528918767
30
0
41
1
10
59.7850399573037
20
2.36505162897558
30
0
41
1
10
59.7589797266386
20
2.41484530997326
30
0
41
1
10
59.7070063335429
20
2.51492091231023
30
0
41
1
10
59.6810955812818
20
2.56520708368851
30
0
41
1
10
59.6035553234388
20
2.71677905912654
30
0
41
1
10
59.552174890871
20
2.81865149957014
30
0
41
1
10
59.5010425964867
20
2.92123926711761
30
0
0
SPLINE
5
183
100
AcDbEntity
8
1
62
256
6
ByLayer
370
18
48
1
60
0
100
AcDbSpline
70
4
71
3
72
32
73
28
40
0
40
0
40
0
40
0
40
0.0625000000000091
40
0.0625000000000091
40
0.125000000000018
40
0.125000000000018
40
0.187500000000027
40
0.187500000000027
40
0.250000000000036
40
0.250000000000036
40
0.312500000000045
40
0.312500000000045
40
0.375000000000055
40
0.375000000000055
40
0.500000000000073
40
0.500000000000073
40
0.562500000000082
40
0.562500000000082
40
0.625000000000091
40
0.625000000000091
40
0.750000000000061
40
0.750000000000061
40
0.87500000000003
40
0.87500000000003
40
0.937500000000015
40
0.937500000000015
40
1
40
1
40
1
40
1
41
1
10
60.2344114076463
20
2.00771349480698
30
0
41
1
10
60.2278901342735
20
2.00518982173986
30
0
41
1
10
60.220694786259
20
2.00376783553361
30
0
41
1
10
60.2051988878388
20
2.00271623184568
30
0
41
1
10
60.1968955012094
20
2.00309067193911
30
0
41
1
10
60.1793066211491
20
2.00545848794891
30
0
41
1
10
60.1701903433927
20
2.007432249114
30
0
41
1
10
60.1515936047157
20
2.01266522298502
30
0
41
1
10
60.1420837326406
20
2.01593044990989
30
0
41
1
10
60.12269889495
20
2.02361098165048
30
0
41
1
10
60.1127671674872
20
2.02805660343717
30
0
41
1
10
60.0928974823286
20
2.03786163753654
30
0
41
1
10
60.0829640079734
20
2.04321193538871
30
0
41
1
10
60.0531800462163
20
2.06047111243083
30
0
41
1
10
60.0333453420824
20
2.07357243164327
30
0
41
1
10
60.0036797678288
20
2.09547066111983
30
0
41
1
10
59.9938144572312
20
2.10314685820811
30
0
41
1
10
59.9744543100393
20
2.11899403783193
30
0
41
1
10
59.9649167056281
20
2.12719581174122
30
0
41
1
10
59.9367417892753
20
2.15263820939455
30
0
41
1
10
59.9185361079038
20
2.17070318210151
30
0
41
1
10
59.8834729131452
20
2.20933024861049
30
0
41
1
10
59.8670737539982
20
2.22938616595556
30
0
41
1
10
59.8444212965029
20
2.26072107785706
30
0
41
1
10
59.8371967826276
20
2.27137693471906
30
0
41
1
10
59.8234970664361
20
2.29317111973759
30
0
41
1
10
59.8170456148803
20
2.30427976785947
30
0
41
1
10
59.8111547311905
20
2.3154652891877
30
0
0
SPLINE
5
184
100
AcDbEntity
8
1
62
256
6
ByLayer
370
18
48
1
60
0
100
AcDbSpline
70
4
71
3
72
14
73
10
40
0
40
0
40
0
40
0
40
0.249999999999999
40
0.249999999999999
40
0.499999999999999
40
0.499999999999999
40
0.75
40
0.75
40
1
40
1
40
1
40
1
41
1
10
60.6268197989978
20
2.10615895963394
30
0
41
1
10
60.594537790481
20
2.10246438044214
30
0
41
1
10
60.5621508611593
20
2.09763511279573
30
0
41
1
10
60.4971392070801
20
2.08569939734778
30
0
41
1
10
60.4645120752464
20
2.07858987348524
30
0
41
1
10
60.3991057396526
20
2.06215635209873
30
0
41
1
10
60.3663132035865
20
2.05283033654726
30
0
41
1
10
60.3005285972256
20
2.03199861895755
30
0
41
1
10
60.2675416521055
20
2.02053459597391
30
0
41
1
10
60.2344114076462
20
2.00771349480704
30
0
0
SPLINE
5
185
100
AcDbEntity
8
1
62
256
6
ByLayer
370
18
48
1
60
0
100
AcDbSpline
70
4
71
3
72
8
73
4
40
0
40
0
40
0
40
0
40
1
40
1
40
1
40
1
41
1
10
61.0480002939133
20
1.75034285822548
30
0
41
1
10
60.9080733399092
20
1.8731974453224
30
0
41
1
10
60.7677576943413
20
1.99183611328439
30
0
41
1
10
60.6268197989978
20
2.10615895963397
30
0
0
SPLINE
5
186
100
AcDbEntity
8
1
62
256
6
ByLayer
370
18
48
1
60
0
100
AcDbSpline
70
4
71
3
72
12
73
8
40
0
40
0
40
0
40
0
40
0.249999999999999
40
0.249999999999999
40
0.499999999999999
40
0.499999999999999
40
1
40
1
40
1
40
1
41
1
10
61.4927381980945
20
1.00342415051804
30
0
41
1
10
61.4550903847945
20
1.06179507366761
30
0
41
1
10
61.4175676752749
20
1.12105975477491
30
0
41
1
10
61.3428665155613
20
1.24174275165416
30
0
41
1
10
61.3056740223648
20
1.30312425932948
30
0
41
1
10
61.1944613998292
20
1.4902542982887
30
0
41
1
10
61.1209891826528
20
1.61863380745078
30
0
41
1
10
61.0480002939133
20
1.75034285822551
30
0
0
SPLINE
5
187
100
AcDbEntity
8
1
62
256
6
ByLayer
370
18
48
1
60
0
100
AcDbSpline
70
4
71
3
72
32
73
28
40
0
40
0
40
0
40
0
40
0.062499999999991
40
0.062499999999991
40
0.124999999999982
40
0.124999999999982
40
0.187499999999973
40
0.187499999999973
40
0.249999999999964
40
0.249999999999964
40
0.312499999999955
40
0.312499999999955
40
0.374999999999946
40
0.374999999999946
40
0.499999999999928
40
0.499999999999928
40
0.562499999999918
40
0.562499999999918
40
0.624999999999909
40
0.624999999999909
40
0.749999999999939
40
0.749999999999939
40
0.87499999999997
40
0.87499999999997
40
0.937499999999985
40
0.937499999999985
40
1
40
1
40
1
40
1
41
1
10
61.9159967847054
20
0.643116215833459
30
0
41
1
10
61.9094777817027
20
0.644844650372875
30
0
41
1
10
61.9022854809731
20
0.647432684137669
30
0
41
1
10
61.886796624588
20
0.654004858691621
30
0
41
1
10
61.878497336818
20
0.65799253967748
30
0
41
1
10
61.8609176576815
20
0.667234455119115
30
0
41
1
10
61.8518049488771
20
0.672402138362145
30
0
41
1
10
61.8332163236667
20
0.68356190032361
30
0
41
1
10
61.8237104763289
20
0.689570661063129
30
0
41
1
10
61.8043331687082
20
0.702352026256278
30
0
41
1
10
61.7944050363144
20
0.709165967012297
30
0
41
1
10
61.7745386676769
20
0.72328204874745
30
0
41
1
10
61.7646061923707
20
0.730576477436756
30
0
41
1
10
61.7348227110573
20
0.753105328613742
30
0
41
1
10
61.7149847349252
20
0.768976270502293
30
0
41
1
10
61.6853111799854
20
0.79402240518084
30
0
41
1
10
61.6754416489474
20
0.802576370304138
30
0
41
1
10
61.6560735922935
20
0.819819422569651
30
0
41
1
10
61.6465321047199
20
0.828544306879365
30
0
41
1
10
61.6183462637842
20
0.85504324743917
30
0
41
1
10
61.6001343242768
20
0.873137272897026
30
0
41
1
10
61.5650620204015
20
0.910352122545419
30
0
41
1
10
61.5486579492606
20
0.928990270785249
30
0
41
1
10
61.5260034762588
20
0.956978055677837
30
0
41
1
10
61.5187787650549
20
0.966312718467179
30
0
41
1
10
61.5050794492443
20
0.984982874376271
30
0
41
1
10
61.4986283398081
20
0.994291800477924
30
0
41
1
10
61.4927381980945
20
1.00342415051807
30
0
0
SPLINE
5
188
100
AcDbEntity
8
1
62
256
6
ByLayer
370
18
48
1
60
0
100
AcDbSpline
70
4
71
3
72
14
73
10
40
0
40
0
40
0
40
0
40
0.499999999999991
40
0.499999999999991
40
0.749999999999987
40
0.749999999999987
40
0.874999999999994
40
0.874999999999994
40
1
40
1
40
1
40
1
41
1
10
62.4516068997385
20
0.393677102415666
30
0
41
1
10
62.3640477925166
20
0.451947741708039
30
0
41
1
10
62.2755767264557
20
0.502129129311584
30
0
41
1
10
62.1415425910854
20
0.564621497033073
30
0
41
1
10
62.0967021546537
20
0.583304527115956
30
0
41
1
10
62.0291657650349
20
0.608169413624495
30
0
41
1
10
62.006607698725
20
0.615935648033684
30
0
41
1
10
61.96138958586
20
0.630402556750596
30
0
41
1
10
61.9387280615832
20
0.637089293608653
30
0
41
1
10
61.9159967847054
20
0.64311621583343
30
0
0
SPLINE
5
189
100
AcDbEntity
8
1
62
256
6
ByLayer
370
18
48
1
60
0
100
AcDbSpline
70
4
71
3
72
8
73
4
40
0
40
0
40
0
40
0
40
1
40
1
40
1
40
1
41
1
10
62.4516068997406
20
0.393677102416632
30
0
41
1
10
62.5074454796203
20
0.334446620016536
30
0
41
1
10
62.5631643061171
20
0.275182560321838
30
0
41
1
10
62.6187847346729
20
0.215904908948687
30
0
0
SPLINE
5
18A
100
AcDbEntity
8
1
62
256
6
ByLayer
370
18
48
1
60
0
100
AcDbSpline
70
4
71
3
72
14
73
10
40
0
40
0
40
0
40
0
40
0.25
40
0.25
40
0.5
40
0.5
40
0.75
40
0.75
40
1
40
1
40
1
40
1
41
1
10
63.1740474770047
20
-0.445852175684678
30
0
41
1
10
63.1268545865046
20
-0.399140356536378
30
0
41
1
10
63.0798782903177
20
-0.350439351514979
30
0
41
1
10
62.9864649914065
20
-0.248386402001017
30
0
41
1
10
62.9399983018558
20
-0.19513527091226
30
0
41
1
10
62.8474142629432
20
-0.0844033969532063
30
0
41
1
10
62.8013495848426
20
-0.0269906936198652
30
0
41
1
10
62.709738562838
20
0.0916045715938196
30
0
41
1
10
62.6641674140163
20
0.152818497396538
30
0
41
1
10
62.6187847346675
20
0.215904908953064
30
0
0
SPLINE
5
18B
100
AcDbEntity
8
1
62
256
6
ByLayer
370
18
48
1
60
0
100
AcDbSpline
70
4
71
3
72
32
73
28
40
0
40
0
40
0
40
0
40
0.062499999999991
40
0.062499999999991
40
0.124999999999982
40
0.124999999999982
40
0.187499999999973
40
0.187499999999973
40
0.249999999999964
40
0.249999999999964
40
0.312499999999955
40
0.312499999999955
40
0.374999999999946
40
0.374999999999946
40
0.499999999999928
40
0.499999999999928
40
0.562499999999919
40
0.562499999999919
40
0.62499999999991
40
0.62499999999991
40
0.749999999999941
40
0.749999999999941
40
0.874999999999971
40
0.874999999999971
40
0.937499999999986
40
0.937499999999986
40
1
40
1
40
1
40
1
41
1
10
63.5973408972498
20
-0.809348646137948
30
0
41
1
10
63.5908261922883
20
-0.803608899190152
30
0
41
1
10
63.5836397385804
20
-0.797369570234054
30
0
41
1
10
63.5681651186322
20
-0.78408321589518
30
0
41
1
10
63.559874194661
20
-0.77703426380495
30
0
41
1
10
63.5423134715642
20
-0.762198712694726
30
0
41
1
10
63.5332063042416
20
-0.754549555431794
30
0
41
1
10
63.5146320763068
20
-0.739004370133159
30
0
41
1
10
63.5051333354053
20
-0.731081925239891
30
0
41
1
10
63.4857699483705
20
-0.714964532234291
30
0
41
1
10
63.4758492010148
20
-0.706723220994462
30
0
41
1
10
63.4559862341371
20
-0.690236704611749
30
0
41
1
10
63.4460549824515
20
-0.682000485342627
30
0
41
1
10
63.4162741090878
20
-0.657295895555336
30
0
41
1
10
63.3964364660704
20
-0.640832430770928
30
0
41
1
10
63.3667625097908
20
-0.616073562163308
30
0
41
1
10
63.3568866940947
20
-0.607810757886455
30
0
41
1
10
63.3375072485903
20
-0.591528777024649
30
0
41
1
10
63.3279603144086
20
-0.583473539308557
30
0
41
1
10
63.2997589913633
20
-0.559541218348613
30
0
41
1
10
63.2815378892616
20
-0.543892882306523
30
0
41
1
10
63.2464498626653
20
-0.51318124707123
30
0
41
1
10
63.2300142650024
20
-0.498491281121858
30
0
41
1
10
63.2073398452011
20
-0.47766798206402
30
0
41
1
10
63.2001095600411
20
-0.470928034815301
30
0
41
1
10
63.1864013104934
20
-0.457929543640546
30
0
41
1
10
63.1799425792264
20
-0.45168718485499
30
0
41
1
10
63.1740474770047
20
-0.445852175684678
30
0
0
SPLINE
5
18C
100
AcDbEntity
8
1
62
256
6
ByLayer
370
18
48
1
60
0
100
AcDbSpline
70
4
71
3
72
14
73
10
40
0
40
0
40
0
40
0
40
0.5
40
0.5
40
0.750000000000001
40
0.750000000000001
40
0.875
40
0.875
40
1
40
1
40
1
40
1
41
1
10
64.1326467852263
20
-1.37985353541674
30
0
41
1
10
64.0450892977896
20
-1.27085553052603
30
0
41
1
10
63.9565845876621
20
-1.16833470600878
30
0
41
1
10
63.8226798168317
20
-1.02541469231963
30
0
41
1
10
63.7778868270545
20
-0.979608250798833
30
0
41
1
10
63.7104149227003
20
-0.913635642420417
30
0
41
1
10
63.6878776512631
20
-0.892097893887069
30
0
41
1
10
63.6426987973856
20
-0.849954763827157
30
0
41
1
10
63.6200557146461
20
-0.829361417950707
30
0
41
1
10
63.5973408972497
20
-0.809348646137948
30
0
0
SPLINE
5
18D
100
AcDbEntity
8
1
62
256
6
ByLayer
370
18
48
1
60
0
100
AcDbSpline
70
4
71
3
72
8
73
4
40
0
40
0
40
0
40
0
40
1
40
1
40
1
40
1
41
1
10
64.1326467852263
20
-1.37985353541671
30
0
41
1
10
64.1884927121008
20
-1.43662528491168
30
0
41
1
10
64.2444651425217
20
-1.49324281466051
30
0
41
1
10
64.3001789406304
20
-1.54936560396294
30
0
0
SPLINE
5
18E
100
AcDbEntity
8
1
62
256
6
ByLayer
370
18
48
1
60
0
100
AcDbSpline
70
4
71
3
72
14
73
10
40
0
40
0
40
0
40
0
40
0.25
40
0.25
40
0.5
40
0.5
40
0.75
40
0.75
40
1
40
1
40
1
40
1
41
1
10
64.8554505438449
20
-1.83329251508317
30
0
41
1
10
64.8082640799734
20
-1.8193076472042
30
0
41
1
10
64.7612970230985
20
-1.80305894744757
30
0
41
1
10
64.6679082484264
20
-1.7652809607107
30
0
41
1
10
64.6214556188265
20
-1.74386188857821
30
0
41
1
10
64.5288974008941
20
-1.69620724106002
30
0
41
1
10
64.4828697105577
20
-1.67001993911032
30
0
41
1
10
64.3912046261205
20
-1.61306760134076
30
0
41
1
10
64.3455800019196
20
-1.58231473508261
30
0
41
1
10
64.3001789406304
20
-1.54936560396297
30
0
0
SPLINE
5
18F
100
AcDbEntity
8
1
62
256
6
ByLayer
370
18
48
1
60
0
100
AcDbSpline
70
4
71
3
72
32
73
28
40
0
40
0
40
0
40
0
40
0.0624999999999644
40
0.0624999999999644
40
0.124999999999929
40
0.124999999999929
40
0.187499999999893
40
0.187499999999893
40
0.249999999999858
40
0.249999999999858
40
0.312499999999822
40
0.312499999999822
40
0.374999999999786
40
0.374999999999786
40
0.499999999999768
40
0.499999999999768
40
0.562499999999784
40
0.562499999999784
40
0.6249999999998
40
0.6249999999998
40
0.74999999999988
40
0.74999999999988
40
0.87499999999996
40
0.87499999999996
40
0.93749999999998
40
0.93749999999998
40
1
40
1
40
1
40
1
41
1
10
65.2787121359441
20
-2.15134993769524
30
0
41
1
10
65.2722009671289
20
-2.14238730370397
30
0
41
1
10
65.2650196812028
20
-2.13335116154755
30
0
41
1
10
65.2495585266223
20
-2.11516523120312
30
0
41
1
10
65.2412759517704
20
-2.10601508173716
30
0
41
1
10
65.2237353839116
20
-2.08760075390776
30
0
41
1
10
65.2146338522498
20
-2.07850304396024
30
0
41
1
10
65.1960758296667
20
-2.0606694389509
30
0
41
1
10
65.1865855720925
20
-2.05189960775203
30
0
41
1
10
65.1672399464261
20
-2.03461097228689
30
0
41
1
10
65.1573294135017
20
-2.02604721761443
30
0
41
1
10
65.1374737393939
20
-2.00939364530922
30
0
41
1
10
65.1275460971813
20
-2.00131491237244
30
0
41
1
10
65.0977761375051
20
-1.97772809623422
30
0
41
1
10
65.0779459108307
20
-1.96286194592133
30
0
41
1
10
65.0482835885329
20
-1.94167767955676
30
0
41
1
10
65.03840511237
20
-1.93480264135096
30
0
41
1
10
65.0190208598723
20
-1.92164139899325
30
0
41
1
10
65.0094719255372
20
-1.91532381456182
30
0
41
1
10
64.9812652083227
20
-1.89713046174847
30
0
41
1
10
64.9630411525671
20
-1.88600127381335
30
0
41
1
10
64.9279453543722
20
-1.86586495036636
30
0
41
1
10
64.9114761298771
20
-1.85708570742994
30
0
41
1
10
64.8887788526576
20
-1.84620714964271
30
0
41
1
10
64.8815416873224
20
-1.84296281049586
30
0
41
1
10
64.8678211465231
20
-1.83737601187136
30
0
41
1
10
64.86135274856
20
-1.83504177846007
30
0
41
1
10
64.8554505438449
20
-1.83329251508314
30
0
0
SPLINE
5
190
100
AcDbEntity
8
1
62
256
6
ByLayer
370
18
48
1
60
0
100
AcDbSpline
70
4
71
3
72
14
73
10
40
0
40
0
40
0
40
0
40
0.5
40
0.5
40
0.75
40
0.75
40
0.875
40
0.875
40
1
40
1
40
1
40
1
41
1
10
65.813547636562
20
-2.96497704639637
30
0
41
1
10
65.7261437279004
20
-2.81990856804617
30
0
41
1
10
65.6377827933358
20
-2.6790332180887
30
0
41
1
10
65.5040024620564
20
-2.47528496412645
30
0
41
1
10
65.4592086239003
20
-2.40863159890577
30
0
41
1
10
65.3917244072628
20
-2.31059517094846
30
0
41
1
10
65.3691894072368
20
-2.27824906031913
30
0
41
1
10
65.3240288433364
20
-2.2142381688389
30
0
41
1
10
65.3014019134906
20
-2.18258245174391
30
0
41
1
10
65.2787121359441
20
-2.15134993769527
30
0
0
SPLINE
5
191
100
AcDbEntity
8
1
62
256
6
ByLayer
370
18
48
1
60
0
100
AcDbSpline
70
4
71
3
72
8
73
4
40
0
40
0
40
0
40
0
40
1
40
1
40
1
40
1
41
1
10
65.813547636562
20
-2.96497704639631
30
0
41
1
10
65.8698400621664
20
-3.01226649092817
30
0
41
1
10
65.9261528951559
20
-3.05896446914227
30
0
41
1
10
65.982516838536
20
-3.10504073242501
30
0
0
SPLINE
5
192
100
AcDbEntity
8
1
62
256
6
ByLayer
370
18
48
1
60
0
100
AcDbSpline
70
4
71
3
72
14
73
10
40
0
40
0
40
0
40
0
40
0.25
40
0.25
40
0.5
40
0.5
40
0.75
40
0.75
40
1
40
1
40
1
40
1
41
1
10
66.5369223844266
20
-2.97240798271864
30
0
41
1
10
66.4898083617757
20
-2.99319492848471
30
0
41
1
10
66.4429122933655
20
-3.01174422570872
30
0
41
1
10
66.3496626888673
20
-3.04359781915284
30
0
41
1
10
66.3032788034696
20
-3.05700969316376
30
0
41
1
10
66.2108569349693
20
-3.07898631445477
30
0
41
1
10
66.1648999898894
20
-3.0875385002758
30
0
41
1
10
66.0733830760607
20
-3.09986383554221
30
0
41
1
10
66.0278375593168
20
-3.10363139601634
30
0
41
1
10
65.982516838536
20
-3.10504073242504
30
0
0
SPLINE
5
193
100
AcDbEntity
8
1
62
256
6
ByLayer
370
18
48
1
60
0
100
AcDbSpline
70
4
71
3
72
32
73
28
40
0
40
0
40
0
40
0
40
0.0624999999999946
40
0.0624999999999946
40
0.124999999999989
40
0.124999999999989
40
0.187499999999984
40
0.187499999999984
40
0.249999999999978
40
0.249999999999978
40
0.312499999999973
40
0.312499999999973
40
0.374999999999968
40
0.374999999999968
40
0.499999999999904
40
0.499999999999904
40
0.562499999999898
40
0.562499999999898
40
0.624999999999892
40
0.624999999999892
40
0.749999999999928
40
0.749999999999928
40
0.874999999999964
40
0.874999999999964
40
0.937499999999982
40
0.937499999999982
40
1
40
1
40
1
40
1
41
1
10
66.9601390355943
20
-3.19983286656466
30
0
41
1
10
66.9536293314855
20
-3.18889743944442
30
0
41
1
10
66.9464495332504
20
-3.17832351995449
30
0
41
1
10
66.9309907588941
20
-3.15777052867696
30
0
41
1
10
66.9227091930642
20
-3.14779275222079
30
0
41
1
10
66.9051698905422
20
-3.12836189631702
30
0
41
1
10
66.8960691886807
20
-3.11908678084762
30
0
41
1
10
66.8775118152734
20
-3.10145428829483
30
0
41
1
10
66.8680215439531
20
-3.0930621614462
30
0
41
1
10
66.8486749872234
20
-3.07701939014936
30
0
41
1
10
66.8387633042676
20
-3.06933064362681
30
0
41
1
10
66.8189070072116
20
-3.05485417369732
30
0
41
1
10
66.8089787460062
20
-3.04807173822402
30
0
41
1
10
66.7792060024869
20
-3.02893262707445
30
0
41
1
10
66.7593726719703
20
-3.01776945790422
30
0
41
1
10
66.7297041370636
20
-3.0031712588723
30
0
41
1
10
66.7198253467585
20
-2.99866972995494
30
0
41
1
10
66.7004406845349
20
-2.99052015521522
30
0
41
1
10
66.6908914498256
20
-2.98684980434359
30
0
41
1
10
66.6626840787941
20
-2.97701967602581
30
0
41
1
10
66.6444601979797
20
-2.9720211642335
30
0
41
1
10
66.6093671181777
20
-2.96538434366934
30
0
41
1
10
66.5929124968595
20
-2.96382234939452
30
0
41
1
10
66.5702275209268
20
-2.96449424646551
30
0
41
1
10
66.5629943695547
20
-2.96522562141894
30
0
41
1
10
66.5492815988476
20
-2.96788039328999
30
0
41
1
10
66.5428193528763
20
-2.9698062103279
30
0
41
1
10
66.5369223844265
20
-2.97240798271864
30
0
0
SPLINE
5
194
100
AcDbEntity
8
1
62
256
6
ByLayer
370
18
48
1
60
0
100
AcDbSpline
70
4
71
3
72
14
73
10
40
0
40
0
40
0
40
0
40
0.25
40
0.25
40
0.5
40
0.5
40
0.75
40
0.75
40
1
40
1
40
1
40
1
41
1
10
67.4002579721725
20
-3.97059808145374
30
0
41
1
10
67.3641463852316
20
-3.90501154914136
30
0
41
1
10
67.3278982807952
20
-3.83970943495237
30
0
41
1
10
67.2550854387743
20
-3.70970308173742
30
0
41
1
10
67.2185232120412
20
-3.64500583153523
30
0
41
1
10
67.1451497701753
20
-3.51640512516596
30
0
41
1
10
67.1083137561539
20
-3.45245675697024
30
0
41
1
10
67.0344165017657
20
-3.32544796490268
30
0
41
1
10
66.9973614884104
20
-3.26236157957661
30
0
41
1
10
66.9601390355942
20
-3.19983286656458
30
0
0
SPLINE
5
195
100
AcDbEntity
8
1
62
256
6
ByLayer
370
18
48
1
60
0
100
AcDbSpline
70
4
71
3
72
8
73
4
40
0
40
0
40
0
40
0
40
1
40
1
40
1
40
1
41
1
10
67.4002579721725
20
-3.97059808145374
30
0
41
1
10
67.5732770974207
20
-3.99301821755987
30
0
41
1
10
67.7486659239358
20
-4.00350110285368
30
0
41
1
10
67.9275186064677
20
-4.00348346639905
30
0
0
SPLINE
5
196
100
AcDbEntity
8
1
62
256
6
ByLayer
370
18
48
1
60
0
100
AcDbSpline
70
4
71
3
72
10
73
6
40
0
40
0
40
0
40
0
40
0.500000000000001
40
0.500000000000001
40
1
40
1
40
1
40
1
41
1
10
68.2182715442586
20
-3.70332205015561
30
0
41
1
10
68.1692999410342
20
-3.75774656617799
30
0
41
1
10
68.1205616358932
20
-3.81014952057953
30
0
41
1
10
68.0236786202771
20
-3.91020122474563
30
0
41
1
10
67.9754893256779
20
-3.95795918471583
30
0
41
1
10
67.9275186064677
20
-4.00348346639905
30
0
0
SPLINE
5
197
100
AcDbEntity
8
1
62
256
6
ByLayer
370
18
48
1
60
0
100
AcDbSpline
70
4
71
3
72
34
73
30
40
0
40
0
40
0
40
0
40
0.0625000000000221
40
0.0625000000000221
40
0.125000000000044
40
0.125000000000044
40
0.187500000000066
40
0.187500000000066
40
0.250000000000088
40
0.250000000000088
40
0.312500000000109
40
0.312500000000109
40
0.375000000000131
40
0.375000000000131
40
0.500000000000175
40
0.500000000000175
40
0.562500000000171
40
0.562500000000171
40
0.625000000000167
40
0.625000000000167
40
0.750000000000111
40
0.750000000000111
40
0.812500000000083
40
0.812500000000083
40
0.875000000000055
40
0.875000000000055
40
0.937500000000028
40
0.937500000000028
40
1
40
1
40
1
40
1
41
1
10
68.6415142884163
20
-3.81148297447817
30
0
41
1
10
68.6350133078269
20
-3.80006598947651
30
0
41
1
10
68.6278460548021
20
-3.78939146863453
30
0
41
1
10
68.6124196357106
20
-3.76925558197229
30
0
41
1
10
68.6041579301177
20
-3.75979731027115
30
0
41
1
10
68.5866659826636
20
-3.741963797067
30
0
41
1
10
68.5775813946292
20
-3.73374322643528
30
0
41
1
10
68.5590655718597
20
-3.71865005261154
30
0
41
1
10
68.5495970374367
20
-3.71174239335181
30
0
41
1
10
68.5302954266396
20
-3.69904930773004
30
0
41
1
10
68.5204097312549
20
-3.69323871355047
30
0
41
1
10
68.5005762007768
20
-3.6827995757794
30
0
41
1
10
68.4906585170689
20
-3.6781788822928
30
0
41
1
10
68.4609146762047
20
-3.66591247213785
30
0
41
1
10
68.4410968282542
20
-3.65984251332762
30
0
41
1
10
68.4114441881696
20
-3.65361333105679
30
0
41
1
10
68.4015562957128
20
-3.65202447933615
30
0
41
1
10
68.3821490102759
20
-3.64985147403499
30
0
41
1
10
68.3725880769069
20
-3.64925669095871
30
0
41
1
10
68.3443445831383
20
-3.64891750661414
30
0
41
1
10
68.3260950872358
20
-3.65059502224213
30
0
41
1
10
68.2997373330354
20
-3.65622495250707
30
0
41
1
10
68.2911826133524
20
-3.65861754146332
30
0
41
1
10
68.2747405680432
20
-3.66443253710051
30
0
41
1
10
68.2668254806872
20
-3.66785981160899
30
0
41
1
10
68.2516603668604
20
-3.67585049394756
30
0
41
1
10
68.2444095465708
20
-3.68041237747295
30
0
41
1
10
68.2306677289911
20
-3.69086055266888
30
0
41
1
10
68.2241839295523
20
-3.69675132984091
30
0
41
1
10
68.2182715442586
20
-3.70332205015561
30
0
0
SPLINE
5
198
100
AcDbEntity
8
1
62
256
6
ByLayer
370
18
48
1
60
0
100
AcDbSpline
70
4
71
3
72
8
73
4
40
0
40
0
40
0
40
0
40
1
40
1
40
1
40
1
41
1
10
68.7168067936003
20
-3.94395845794406
30
0
41
1
10
68.691776589842
20
-3.89984782533861
30
0
41
1
10
68.6666869098879
20
-3.85569098861367
30
0
41
1
10
68.6415142884163
20
-3.81148297447817
30
0
0
SPLINE
5
199
100
AcDbEntity
8
1
62
256
6
ByLayer
370
18
48
1
60
0
100
AcDbSpline
70
4
71
3
72
24
73
20
40
0
40
0
40
0
40
0
40
0.125000000000004
40
0.125000000000004
40
0.250000000000008
40
0.250000000000008
40
0.375000000000011
40
0.375000000000011
40
0.437500000000013
40
0.437500000000013
40
0.500000000000015
40
0.500000000000015
40
0.625000000000012
40
0.625000000000012
40
0.750000000000008
40
0.750000000000008
40
0.875000000000004
40
0.875000000000004
40
1
40
1
40
1
40
1
41
1
10
68.7168067936003
20
-3.94395845794404
30
0
41
1
10
68.836532022554
20
-3.92734883083708
30
0
41
1
10
68.9577224681701
20
-3.90781473888063
30
0
41
1
10
69.2029397873225
20
-3.86478278410237
30
0
41
1
10
69.3268933210263
20
-3.84131518643596
30
0
41
1
10
69.5779486893305
20
-3.79194923652599
30
0
41
1
10
69.7050833303907
20
-3.76604312376267
30
0
41
1
10
69.8983128757163
20
-3.72675669593977
30
0
41
1
10
69.9631467779265
20
-3.71359099366325
30
0
41
1
10
70.0936243082363
20
-3.68737337942557
30
0
41
1
10
70.1592600662794
20
-3.67432537449733
30
0
41
1
10
70.3570925802666
20
-3.63571881323634
30
0
41
1
10
70.4902313992259
20
-3.61074830501604
30
0
41
1
10
70.7570439832238
20
-3.56327141756023
30
0
41
1
10
70.8906698812718
20
-3.5407282802129
30
0
41
1
10
71.1574109064999
20
-3.49784351547777
30
0
41
1
10
71.2905271508038
20
-3.4774824470318
30
0
41
1
10
71.5559006395522
20
-3.43838038301155
30
0
41
1
10
71.6882123835364
20
-3.41966367176741
30
0
41
1
10
71.8199999999999
20
-3.40142349547733
30
0
0
SPLINE
5
19A
100
AcDbEntity
8
1
62
256
6
ByLayer
370
18
48
1
60
0
100
AcDbSpline
70
4
71
3
72
8
73
4
40
0
40
0
40
0
40
0
40
1
40
1
40
1
40
1
41
1
10
71.8199999999999
20
-3.40142349547733
30
0
41
1
10
71.8473739579757
20
-3.381543247081
30
0
41
1
10
71.874876413716
20
-3.36168200279636
30
0
41
1
10
71.9025129623851
20
-3.34185372055543
30
0
0
SPLINE
5
19B
100
AcDbEntity
8
1
62
256
6
ByLayer
370
18
48
1
60
0
100
AcDbSpline
70
4
71
3
72
8
73
4
40
0
40
0
40
0
40
0
40
1
40
1
40
1
40
1
41
1
10
72.02
20
-3.18538184179974
30
0
41
1
10
71.9801766753023
20
-3.23779519225829
30
0
41
1
10
71.9410657276196
20
-3.28996666511122
30
0
41
1
10
71.9025129623852
20
-3.34185372055541
30
0
0
SPLINE
5
19C
100
AcDbEntity
8
1
62
256
6
ByLayer
370
18
48
1
60
0
100
AcDbSpline
70
4
71
3
72
35
73
31
40
0
40
0
40
0
40
0
40
0.0842317515841691
40
0.0842317515841691
40
0.126347627376254
40
0.126347627376254
40
0.168463503168338
40
0.168463503168338
40
0.336927006336678
40
0.336927006336678
40
0.421158757920848
40
0.421158757920848
40
0.463274633712932
40
0.463274633712932
40
0.505390509505017
40
0.505390509505017
40
0.589622261089187
40
0.589622261089187
40
0.673854012673356
40
0.758085764257526
40
0.758085764257526
40
0.800201640049611
40
0.800201640049611
40
0.842317515841695
40
0.842317515841695
40
0.88443339163378
40
0.88443339163378
40
0.926549267425865
40
0.926549267425865
40
1
40
1
40
1
40
1
41
1
10
72.02
20
-3.1853818417996
30
0
41
1
10
72.02
20
-3.13300486124186
30
0
41
1
10
72.02
20
-3.08158490677405
30
0
41
1
10
72.02
20
-3.00586543886797
30
0
41
1
10
72.02
20
-2.98086112906418
30
0
41
1
10
72.02
20
-2.93132446779799
30
0
41
1
10
72.02
20
-2.90674026289671
30
0
41
1
10
72.02
20
-2.78608476058801
30
0
41
1
10
72.02
20
-2.69617133677667
30
0
41
1
10
72.02
20
-2.57132995429851
30
0
41
1
10
72.02
20
-2.53137350143027
30
0
41
1
10
72.02
20
-2.4739453911466
30
0
41
1
10
72.02
20
-2.45522160415288
30
0
41
1
10
72.0200000000001
20
-2.41862997073582
30
0
41
1
10
72.0200000000001
20
-2.40077665172592
30
0
41
1
10
72.02
20
-2.34902135428695
30
0
41
1
10
72.02
20
-2.31672710382321
30
0
41
1
10
72.02
20
-2.25643269102733
30
0
41
1
10
72.02
20
-2.20044175674212
30
0
41
1
10
72.02
20
-2.15326331579476
30
0
41
1
10
72.02
20
-2.1211526822396
30
0
41
1
10
72.02
20
-2.11099368231353
30
0
41
1
10
72.0200000000001
20
-2.09174732934707
30
0
41
1
10
72.02
20
-2.08274561010697
30
0
41
1
10
72.02
20
-2.06557730403884
30
0
41
1
10
72.02
20
-2.05737493198078
30
0
41
1
10
72.0200000000001
20
-2.04109290593576
30
0
41
1
10
72.02
20
-2.03296253816822
30
0
41
1
10
72.02
20
-2.01044399580201
30
0
41
1
10
72.02
20
-1.99603253639165
30
0
41
1
10
72.02
20
-1.98173984179607
30
0
0
SPLINE
5
19D
100
AcDbEntity
8
1
62
256
6
ByLayer
370
18
48
1
60
0
100
AcDbSpline
70
4
71
3
72
10
73
6
40
0
40
0
40
0
40
0
40
0.5
40
0.5
40
1
40
1
40
1
40
1
41
1
10
71.820101628257
20
-1.92219232551054
30
0
41
1
10
71.8535367695223
20
-1.92243403047658
30
0
41
1
10
71.8870165392739
20
-1.92225025853284
30
0
41
1
10
71.9536968932599
20
-1.92220572292089
30
0
41
1
10
71.9869209604921
20
-1.92226454244559
30
0
41
1
10
72.0200000000001
20
-1.92245800782766
30
0
0
SPLINE
5
19E
100
AcDbEntity
8
1
62
256
6
ByLayer
370
18
48
1
60
0
100
AcDbSpline
70
4
71
3
72
8
73
4
40
0
40
0
40
0
40
0
40
1
40
1
40
1
40
1
41
1
10
71.820101628257
20
-1.92219232551054
30
0
41
1
10
71.8200677520793
20
-1.92217734998096
30
0
41
1
10
71.8200338759936
20
-1.92216237440508
30
0
41
1
10
71.8199999999999
20
-1.92214739878281
30
0
0
SPLINE
5
19F
100
AcDbEntity
8
1
62
256
6
ByLayer
370
18
48
1
60
0
100
AcDbSpline
70
4
71
3
72
20
73
16
40
0
40
0
40
0
40
0
40
0.125
40
0.125
40
0.25
40
0.25
40
0.5
40
0.5
40
0.625
40
0.625
40
0.75
40
0.75
40
0.875
40
0.875
40
1
40
1
40
1
40
1
41
1
10
71.8199999999998
20
-1.92214739878281
30
0
41
1
10
71.7409995584474
20
-1.85176285617229
30
0
41
1
10
71.6613279405489
20
-1.78197819094274
30
0
41
1
10
71.5006820938347
20
-1.6437155425788
30
0
41
1
10
71.4197121924844
20
-1.57523416856503
30
0
41
1
10
71.1751650662577
20
-1.37162692870936
30
0
41
1
10
71.0099560673847
20
-1.23835560756186
30
0
41
1
10
70.7606307920547
20
-1.04078972868354
30
0
41
1
10
70.677272644993
20
-0.975315669254115
30
0
41
1
10
70.5103604218732
20
-0.844878605106004
30
0
41
1
10
70.4267995542597
20
-0.779914899896482
30
0
41
1
10
70.2596166690751
20
-0.650330090930197
30
0
41
1
10
70.1759897699111
20
-0.585711331594808
30
0
41
1
10
70.0088408885589
20
-0.456630562814382
30
0
41
1
10
69.9253102179204
20
-0.392178839160721
30
0
41
1
10
69.8419610331541
20
-0.32762032528521
30
0
0
SPLINE
5
1A0
100
AcDbEntity
8
1
62
256
6
ByLayer
370
18
48
1
60
0
100
AcDbSpline
70
4
71
3
72
27
73
23
40
0
40
0
40
0
40
0
40
0.125000000000008
40
0.125000000000008
40
0.187500000000011
40
0.187500000000011
40
0.250000000000015
40
0.312500000000019
40
0.312500000000019
40
0.375000000000023
40
0.375000000000023
40
0.500000000000031
40
0.500000000000031
40
0.625000000000038
40
0.625000000000038
40
0.750000000000046
40
0.750000000000046
40
0.875000000000054
40
0.875000000000054
40
0.937500000000027
40
0.937500000000027
40
1
40
1
40
1
40
1
41
1
10
69.4990993100513
20
-0.05791942670362
30
0
41
1
10
69.5092308377405
20
-0.0619487881036775
30
0
41
1
10
69.5210357340922
20
-0.0679259234114511
30
0
41
1
10
69.5406763702096
20
-0.0791637666457632
30
0
41
1
10
69.5475943846187
20
-0.0833243034291797
30
0
41
1
10
69.561662747431
20
-0.0921288607453334
30
0
41
1
10
69.5760308712086
20
-0.101451247848985
30
0
41
1
10
69.5909159790593
20
-0.111682606320215
30
0
41
1
10
69.6060319984709
20
-0.122330923789235
30
0
41
1
10
69.6137418755124
20
-0.127890882092828
30
0
41
1
10
69.6368446700156
20
-0.144907144237663
30
0
41
1
10
69.6522387741261
20
-0.156709332060586
30
0
41
1
10
69.6829838668745
20
-0.181108197231851
30
0
41
1
10
69.6983351019502
20
-0.193706523725268
30
0
41
1
10
69.7289596426956
20
-0.219692178109142
30
0
41
1
10
69.7439592662217
20
-0.232848489723892
30
0
41
1
10
69.7732750595541
20
-0.259454231295933
30
0
41
1
10
69.7876024162391
20
-0.272913541927494
30
0
41
1
10
69.8085610969987
20
-0.293374597574427
30
0
41
1
10
69.8154789569197
20
-0.300262158267287
30
0
41
1
10
69.8289648784096
20
-0.313972381810601
30
0
41
1
10
69.835545425196
20
-0.320806349902824
30
0
41
1
10
69.8419610331541
20
-0.32762032528521
30
0
0
SPLINE
5
1A1
100
AcDbEntity
8
1
62
256
6
ByLayer
370
18
48
1
60
0
100
AcDbSpline
70
4
71
3
72
8
73
4
40
0
40
0
40
0
40
0
40
1
40
1
40
1
40
1
41
1
10
69.4950993633163
20
-0.0563210291604435
30
0
41
1
10
69.4964324841004
20
-0.0568563145714904
30
0
41
1
10
69.4977658017637
20
-0.0573890835031534
30
0
41
1
10
69.4990993100513
20
-0.05791942670362
30
0
0
SPLINE
5
1A2
100
AcDbEntity
8
1
62
256
6
ByLayer
370
18
48
1
60
0
100
AcDbSpline
70
4
71
3
72
12
73
8
40
0
40
0
40
0
40
0
40
0.25
40
0.25
40
0.5
40
0.5
40
1
40
1
40
1
40
1
41
1
10
69.4950993633163
20
-0.056321029160415
30
0
41
1
10
69.4080437455738
20
0.0127124871112869
30
0
41
1
10
69.321467305524
20
0.0823071664105726
30
0
41
1
10
69.1494504715891
20
0.22301792117787
30
0
41
1
10
69.0639948782939
20
0.294142126189371
30
0
41
1
10
68.8095398192109
20
0.50988859029016
30
0
41
1
10
68.6424094182688
20
0.656933497290709
30
0
41
1
10
68.477868071859
20
0.807859892544911
30
0
0
SPLINE
5
1A3
100
AcDbEntity
8
1
62
256
6
ByLayer
370
18
48
1
60
0
100
AcDbSpline
70
4
71
3
72
10
73
6
40
0
40
0
40
0
40
0
40
0.5
40
0.5
40
1
40
1
40
1
40
1
41
1
10
68.2408136156741
20
1.02564401690921
30
0
41
1
10
68.2805945250304
20
0.992522871274616
30
0
41
1
10
68.3202799172086
20
0.958002324552922
30
0
41
1
10
68.3992985404744
20
0.885464338948765
30
0
41
1
10
68.4386434874081
20
0.847482320397148
30
0
41
1
10
68.477868071859
20
0.807859892544883
30
0
0
SPLINE
5
1A4
100
AcDbEntity
8
1
62
256
6
ByLayer
370
18
48
1
60
0
100
AcDbSpline
70
4
71
3
72
32
73
28
40
0
40
0
40
0
40
0
40
0.0625000000000106
40
0.0625000000000106
40
0.125000000000021
40
0.125000000000021
40
0.250000000000043
40
0.250000000000043
40
0.312500000000029
40
0.312500000000029
40
0.375000000000015
40
0.375000000000015
40
0.437500000000001
40
0.437500000000001
40
0.499999999999987
40
0.499999999999987
40
0.624999999999958
40
0.624999999999958
40
0.687499999999943
40
0.687499999999943
40
0.749999999999929
40
0.749999999999929
40
0.874999999999945
40
0.874999999999945
40
0.937499999999973
40
0.937499999999973
40
1
40
1
40
1
40
1
41
1
10
67.8175869749595
20
1.37598429979798
30
0
41
1
10
67.8241895396279
20
1.36947472607767
30
0
41
1
10
67.8315102661726
20
1.36253479529111
30
0
41
1
10
67.8473362925666
20
1.34793857441264
30
0
41
1
10
67.855874994524
20
1.34025359663661
30
0
41
1
10
67.8828936093269
20
1.31639100140842
30
0
41
1
10
67.9019720903397
20
1.30009870015789
30
0
41
1
10
67.9317083142572
20
1.27519660949062
30
0
41
1
10
67.9418096573951
20
1.26681959109069
30
0
41
1
10
67.9618740452015
20
1.25030404888315
30
0
41
1
10
67.9719011983622
20
1.24211183747721
30
0
41
1
10
67.9919376724653
20
1.22583361042911
30
0
41
1
10
68.001947024401
20
1.21774772973549
30
0
41
1
10
68.0219389870405
20
1.20166361043255
30
0
41
1
10
68.031962618238
20
1.19363271878447
30
0
41
1
10
68.0616332406454
20
1.16992273320423
30
0
41
1
10
68.0808513121556
20
1.15464660487976
30
0
41
1
10
68.1088173536247
20
1.13239907794531
30
0
41
1
10
68.1179945211823
20
1.12509572093515
30
0
41
1
10
68.1360404268686
20
1.11070903783838
30
0
41
1
10
68.1448632471398
20
1.1036620626808
30
0
41
1
10
68.1704038157052
20
1.08320167791086
30
0
41
1
10
68.1863346000494
20
1.07035397050203
30
0
41
1
10
68.2083618798505
20
1.05241533075133
30
0
41
1
10
68.2153901367567
20
1.04666073695552
30
0
41
1
10
68.2287281364414
20
1.03567977202025
30
0
41
1
10
68.2350420449322
20
1.0304493629441
30
0
41
1
10
68.2408136156742
20
1.0256440169081
30
0
0
SPLINE
5
1A5
100
AcDbEntity
8
1
62
256
6
ByLayer
370
18
48
1
60
0
100
AcDbSpline
70
4
71
3
72
110
73
106
40
0
40
0
40
0
40
0
40
0.0156250000000052
40
0.0156250000000052
40
0.0312500000000104
40
0.0312500000000104
40
0.0625000000000241
40
0.0625000000000241
40
0.125000000000051
40
0.125000000000051
40
0.187500000000079
40
0.187500000000079
40
0.203125000000085
40
0.203125000000085
40
0.218750000000091
40
0.218750000000091
40
0.250000000000106
40
0.250000000000106
40
0.281250000000122
40
0.281250000000122
40
0.296875000000132
40
0.296875000000132
40
0.304687500000134
40
0.304687500000134
40
0.312500000000137
40
0.312500000000137
40
0.343750000000145
40
0.343750000000145
40
0.359375000000149
40
0.359375000000149
40
0.375000000000152
40
0.375000000000152
40
0.40625000000016
40
0.40625000000016
40
0.414062500000162
40
0.414062500000162
40
0.421875000000164
40
0.421875000000164
40
0.437500000000164
40
0.437500000000164
40
0.468750000000167
40
0.468750000000167
40
0.500000000000171
40
0.500000000000171
40
0.507812500000175
40
0.507812500000175
40
0.515625000000178
40
0.515625000000178
40
0.531250000000185
40
0.531250000000185
40
0.539062500000187
40
0.539062500000187
40
0.546875000000189
40
0.546875000000189
40
0.554687500000191
40
0.558593750000192
40
0.558593750000192
40
0.562500000000193
40
0.562500000000193
40
0.570312500000192
40
0.570312500000192
40
0.574218750000191
40
0.574218750000191
40
0.578125000000189
40
0.578125000000189
40
0.593750000000181
40
0.593750000000181
40
0.597656250000179
40
0.597656250000179
40
0.601562500000177
40
0.609375000000174
40
0.609375000000174
40
0.613281250000172
40
0.613281250000172
40
0.617187500000171
40
0.617187500000171
40
0.625000000000168
40
0.625000000000168
40
0.640625000000163
40
0.640625000000163
40
0.648437500000161
40
0.648437500000161
40
0.656250000000158
40
0.656250000000158
40
0.671875000000152
40
0.671875000000152
40
0.687500000000146
40
0.687500000000146
40
0.718750000000133
40
0.718750000000133
40
0.734375000000126
40
0.734375000000126
40
0.750000000000119
40
0.750000000000119
40
0.781250000000104
40
0.781250000000104
40
0.812500000000089
40
0.812500000000089
40
0.875000000000062
40
0.875000000000062
40
0.906250000000047
40
0.906250000000047
40
0.937500000000033
40
0.937500000000033
40
1
40
1
40
1
40
1
41
1
10
44.8651722299283
20
-2.66427527492158
30
0
41
1
10
44.8236607225886
20
-2.6411850462323
30
0
41
1
10
44.7819689971985
20
-2.61799625560289
30
0
41
1
10
44.6980858956002
20
-2.57162771983732
30
0
41
1
10
44.6558783988233
20
-2.54846759136495
30
0
41
1
10
44.528451099405
20
-2.47914373232797
30
0
41
1
10
44.4424388559824
20
-2.433120312867
30
0
41
1
10
44.1807588054344
20
-2.29678182169613
30
0
41
1
10
44.0014886539604
20
-2.20812688543944
30
0
41
1
10
43.6301385515588
20
-2.04270078771791
30
0
41
1
10
43.438132366081
20
-1.96583465487251
30
0
41
1
10
43.1878681927054
20
-1.88244588163832
30
0
41
1
10
43.1372302864505
20
-1.86639019101108
30
0
41
1
10
43.0357306334679
20
-1.83598078070938
30
0
41
1
10
42.98477526915
20
-1.82159357666879
30
0
41
1
10
42.8312611394717
20
-1.78108337118397
30
0
41
1
10
42.7280584371808
20
-1.7575955398963
30
0
41
1
10
42.5196915516488
20
-1.71900431639929
30
0
41
1
10
42.4145453217531
20
-1.70382336146363
30
0
41
1
10
42.255114584008
20
-1.68855788787656
30
0
41
1
10
42.2016808198374
20
-1.684741586863
30
0
41
1
10
42.1210238064955
20
-1.68125099697761
30
0
41
1
10
42.0940534905766
20
-1.68046081952116
30
0
41
1
10
42.0399278515818
20
-1.67969751129203
30
0
41
1
10
42.0127893496484
20
-1.6797260464547
30
0
41
1
10
41.8777896313954
20
-1.68214880878858
30
0
41
1
10
41.7710813334373
20
-1.69114312727493
30
0
41
1
10
41.6118447176564
20
-1.70907200053384
30
0
41
1
10
41.5588809393052
20
-1.71566557783581
30
0
41
1
10
41.4532347149509
20
-1.73035083966221
30
0
41
1
10
41.4005498958601
20
-1.7384295787956
30
0
41
1
10
41.242934727414
20
-1.76497707299643
30
0
41
1
10
41.1384410186213
20
-1.78574652006483
30
0
41
1
10
41.008662105527
20
-1.81599550983023
30
0
41
1
10
40.982748416321
20
-1.82226035996737
30
0
41
1
10
40.9310087275159
20
-1.83523422142488
30
0
41
1
10
40.9051594232835
20
-1.84194969477895
30
0
41
1
10
40.8279831748524
20
-1.86272127485691
30
0
41
1
10
40.777001774957
20
-1.87740664180163
30
0
41
1
10
40.625556206161
20
-1.92407244598951
30
0
41
1
10
40.5265698436798
20
-1.95863148399553
30
0
41
1
10
40.3332924868996
20
-2.03549765519338
30
0
41
1
10
40.2389996102669
20
-2.07780928765979
30
0
41
1
10
40.1248570261552
20
-2.13646941475267
30
0
41
1
10
40.1022094757069
20
-2.14849824940012
30
0
41
1
10
40.0575920392095
20
-2.17301964590615
30
0
41
1
10
40.0355886246062
20
-2.18552892653952
30
0
41
1
10
39.9705478727816
20
-2.22382813839354
30
0
41
1
10
39.9284906079039
20
-2.2504013561967
30
0
41
1
10
39.8675643322452
20
-2.29189083200606
30
0
41
1
10
39.8476066517546
20
-2.30598328352895
30
0
41
1
10
39.8084281888815
20
-2.33470187890072
30
0
41
1
10
39.7892045738943
20
-2.34933266340576
30
0
41
1
10
39.7517832402534
20
-2.37893080508181
30
0
41
1
10
39.7244370985203
20
-2.40141713107232
30
0
41
1
10
39.6981990811074
20
-2.42432318355316
30
0
41
1
10
39.6809568893327
20
-2.43968584591201
30
0
41
1
10
39.6724633036686
20
-2.4474149139424
30
0
41
1
10
39.6476944905937
20
-2.47093612314993
30
0
41
1
10
39.6320478772341
20
-2.48701298906968
30
0
41
1
10
39.6104542568681
20
-2.51201850850967
30
0
41
1
10
39.6035468762346
20
-2.52053552377035
30
0
41
1
10
39.5906078042789
20
-2.53776456436199
30
0
41
1
10
39.5845703104963
20
-2.54644391515157
30
0
41
1
10
39.556428099061
20
-2.59012080329984
30
0
41
1
10
39.5405352940529
20
-2.62597851244402
30
0
41
1
10
39.5285796932696
20
-2.67160126552679
30
0
41
1
10
39.5265915255423
20
-2.68074548265579
30
0
41
1
10
39.5234165356342
20
-2.698871811072
30
0
41
1
10
39.5198339461574
20
-2.7259027302575
30
0
41
1
10
39.5195478454163
20
-2.75245450858645
30
0
41
1
10
39.5212022581885
20
-2.77868274542928
30
0
41
1
10
39.5220778419163
20
-2.78737157172407
30
0
41
1
10
39.524441648235
20
-2.80464073593436
30
0
41
1
10
39.5259342857206
20
-2.81323994901777
30
0
41
1
10
39.5312451126623
20
-2.83870248469697
30
0
41
1
10
39.5358875356575
20
-2.85523688968624
30
0
41
1
10
39.5525830665954
20
-2.9036616881443
30
0
41
1
10
39.5673941565824
20
-2.93437765960888
30
0
41
1
10
39.5938046106055
20
-2.97847083380768
30
0
41
1
10
39.6033133224948
20
-2.9928366647294
30
0
41
1
10
39.6235796884352
20
-3.02094927474661
30
0
41
1
10
39.634361576721
20
-3.03472167006561
30
0
41
1
10
39.6680841225955
20
-3.07482956821724
30
0
41
1
10
39.6924405280734
20
-3.10006100631608
30
0
41
1
10
39.7440332742936
20
-3.14801803631238
30
0
41
1
10
39.7712698172014
20
-3.17074229796776
30
0
41
1
10
39.8563963656563
20
-3.2356715798108
30
0
41
1
10
39.9176585367301
20
-3.27465991529488
30
0
41
1
10
40.0142276896488
20
-3.32791291952498
30
0
41
1
10
40.0472218606812
20
-3.34478363865631
30
0
41
1
10
40.1140270110617
20
-3.37667808352882
30
0
41
1
10
40.1479073120032
20
-3.39173712163634
30
0
41
1
10
40.2507310144021
20
-3.43448598886806
30
0
41
1
10
40.3208451757552
20
-3.45976034048624
30
0
41
1
10
40.463270484279
20
-3.50469794538512
30
0
41
1
10
40.5355874117546
20
-3.52435520033018
30
0
41
1
10
40.7549455025303
20
-3.57562386902987
30
0
41
1
10
40.9043664551481
20
-3.5995915224382
30
0
41
1
10
41.1312581811435
20
-3.62138223134434
30
0
41
1
10
41.2074438092197
20
-3.62626328329063
30
0
41
1
10
41.3596767479215
20
-3.63126594340756
30
0
41
1
10
41.4358200259832
20
-3.63140101245358
30
0
41
1
10
41.6641539399646
20
-3.62476749313493
30
0
41
1
10
41.8162171652497
20
-3.61098609958802
30
0
41
1
10
41.9680331430679
20
-3.58759144339885
30
0
0
SPLINE
5
1A6
100
AcDbEntity
8
1
62
256
6
ByLayer
370
18
48
1
60
0
100
AcDbSpline
70
4
71
3
72
24
73
20
40
0
40
0
40
0
40
0
40
0.137684737563308
40
0.137684737563308
40
0.266366219776929
40
0.266366219776929
40
0.330706960883742
40
0.330706960883742
40
0.395047701990554
40
0.395047701990554
40
0.523729184204177
40
0.523729184204177
40
0.652410666417801
40
0.652410666417801
40
0.781092148631425
40
0.781092148631425
40
0.909773630845049
40
0.909773630845049
40
1
40
1
40
1
40
1
41
1
10
42.7528338959497
20
-1.75993307578418
30
0
41
1
10
42.685103851909
20
-1.80558890221766
30
0
41
1
10
42.6191787084801
20
-1.85592981778512
30
0
41
1
10
42.4959467069915
20
-1.9615290037292
30
0
41
1
10
42.4380471801992
20
-2.01621027939211
30
0
41
1
10
42.3533407096943
20
-2.10304067741924
30
0
41
1
10
42.3256501910178
20
-2.13354309285609
30
0
41
1
10
42.2740067286885
20
-2.19876934747901
30
0
41
1
10
42.2497910438261
20
-2.23335972674005
30
0
41
1
10
42.1817646253503
20
-2.34281946873307
30
0
41
1
10
42.1424289401466
20
-2.42376490265792
30
0
41
1
10
42.0755391003504
20
-2.59774430287371
30
0
41
1
10
42.0486713918881
20
-2.68876129332861
30
0
41
1
10
42.0060970826098
20
-2.87762932868904
30
0
41
1
10
41.9903555020801
20
-2.9762434442483
30
0
41
1
10
41.9696076270398
20
-3.17450320322482
30
0
41
1
10
41.9643559663617
20
-3.27442159171753
30
0
41
1
10
41.9628220101126
20
-3.44553793431567
30
0
41
1
10
41.9643504182002
20
-3.51639887425117
30
0
41
1
10
41.9680331430836
20
-3.58759144370299
30
0
0
SPLINE
5
1A7
100
AcDbEntity
8
SK1
62
256
6
ByLayer
370
18
48
1
60
0
100
AcDbSpline
70
4
71
3
72
26
73
22
40
0
40
0
40
0
40
0
40
0.125012523817809
40
0.125012523817809
40
0.187518785726713
40
0.187518785726713
40
0.250025047635618
40
0.250025047635618
40
0.375037571453427
40
0.375037571453427
40
0.500050095271236
40
0.625062619089045
40
0.625062619089045
40
0.687568880997949
40
0.718822011952402
40
0.718822011952402
40
0.750075142906854
40
0.750075142906854
40
0.875087666724663
40
0.875087666724663
40
1
40
1
40
1
40
1
41
1
10
-26.7800000000001
20
3.62999999999997
30
0
41
1
10
-26.8485564128567
20
3.62999999999997
30
0
41
1
10
-26.9155052805133
20
3.62999999999997
30
0
41
1
10
-27.0129643433846
20
3.62999999999997
30
0
41
1
10
-27.0449836248785
20
3.62999999999997
30
0
41
1
10
-27.1077308279646
20
3.62999999999997
30
0
41
1
10
-27.1384658709924
20
3.62999999999997
30
0
41
1
10
-27.2285697311161
20
3.62999999999997
30
0
41
1
10
-27.2858445831225
20
3.62999999999997
30
0
41
1
10
-27.3936527606067
20
3.62999999999997
30
0
41
1
10
-27.4947210513265
20
3.62999999999997
30
0
41
1
10
-27.5795131085374
20
3.62999999999997
30
0
41
1
10
-27.6357504729908
20
3.62999999999997
30
0
41
1
10
-27.6620267043528
20
3.62999999999997
30
0
41
1
10
-27.6852752648622
20
3.62999999999997
30
0
41
1
10
-27.700070249688
20
3.62999999999997
30
0
41
1
10
-27.7071235148357
20
3.62999999999997
30
0
41
1
10
-27.7404556858505
20
3.62999999999997
30
0
41
1
10
-27.7608031960865
20
3.62999999999997
30
0
41
1
10
-27.7880518922889
20
3.62999999999997
30
0
41
1
10
-27.7949616363056
20
3.62999999999999
30
0
41
1
10
-27.7949598180106
20
3.62999999999993
30
0
0
SPLINE
5
1A8
100
AcDbEntity
8
SK1
62
256
6
ByLayer
370
18
48
1
60
0
100
AcDbSpline
70
4
71
3
72
26
73
22
40
0
40
0
40
0
40
0
40
0.124914522839478
40
0.124914522839478
40
0.24992673386241
40
0.24992673386241
40
0.281179786618143
40
0.281179786618143
40
0.312432839373876
40
0.374938944885342
40
0.374938944885342
40
0.499951155908274
40
0.624963366931206
40
0.624963366931206
40
0.749975577954137
40
0.749975577954137
40
0.812481683465603
40
0.812481683465603
40
0.874987788977069
40
0.874987788977069
40
1
40
1
40
1
40
1
41
1
10
-27.7949599563749
20
-3.63000000000005
30
0
41
1
10
-27.7949619130805
20
-3.63000000000001
30
0
41
1
10
-27.7880521650883
20
-3.63000000000002
30
0
41
1
10
-27.7608031960865
20
-3.63000000000002
30
0
41
1
10
-27.7404556858505
20
-3.63000000000002
30
0
41
1
10
-27.7071235148357
20
-3.63000000000002
30
0
41
1
10
-27.700070249688
20
-3.63000000000002
30
0
41
1
10
-27.6852752648622
20
-3.63000000000002
30
0
41
1
10
-27.6620267043528
20
-3.63000000000002
30
0
41
1
10
-27.6357504729908
20
-3.63000000000002
30
0
41
1
10
-27.5795131085374
20
-3.63000000000002
30
0
41
1
10
-27.4947210513264
20
-3.63000000000002
30
0
41
1
10
-27.3936527606067
20
-3.63000000000002
30
0
41
1
10
-27.2858445831225
20
-3.63000000000002
30
0
41
1
10
-27.2285697311161
20
-3.63000000000002
30
0
41
1
10
-27.1384658709924
20
-3.63000000000002
30
0
41
1
10
-27.1077308279646
20
-3.63000000000002
30
0
41
1
10
-27.0449836248785
20
-3.63000000000002
30
0
41
1
10
-27.0129643433846
20
-3.63000000000002
30
0
41
1
10
-26.9155052805133
20
-3.63000000000002
30
0
41
1
10
-26.8485564128567
20
-3.63000000000002
30
0
41
1
10
-26.78
20
-3.63000000000002
30
0
0
SPLINE
5
1A9
100
AcDbEntity
8
SK1
62
256
6
ByLayer
370
18
48
1
60
0
100
AcDbSpline
70
4
71
3
72
46
73
42
40
0
40
0
40
0
40
0
40
0.0625000000000001
40
0.0625000000000001
40
0.125
40
0.125
40
0.15625
40
0.15625
40
0.1875
40
0.1875
40
0.25
40
0.25
40
0.375
40
0.375
40
0.40625
40
0.40625
40
0.421875
40
0.421875
40
0.4375
40
0.4375
40
0.5
40
0.5
40
0.5625
40
0.5625
40
0.625
40
0.625
40
0.640625
40
0.640625
40
0.65625
40
0.6875
40
0.6875
40
0.75
40
0.8125
40
0.8125
40
0.875
40
0.875
40
0.90625
40
0.90625
40
0.9375
40
0.9375
40
1
40
1
40
1
40
1
41
1
10
-26.7800000000001
20
-2.89806028260293
30
0
41
1
10
-26.84816082797
20
-2.78881330751835
30
0
41
1
10
-26.9147083205531
20
-2.67839705580357
30
0
41
1
10
-27.043851334019
20
-2.45470033195852
30
0
41
1
10
-27.1064491390326
20
-2.34142151526871
30
0
41
1
10
-27.1966766843408
20
-2.16884403806486
30
0
41
1
10
-27.2261390886819
20
-2.11087361423236
30
0
41
1
10
-27.283692034013
20
-1.99393849856261
30
0
41
1
10
-27.3117259456608
20
-1.93508383973759
30
0
41
1
10
-27.3931053675984
20
-1.7578316475045
30
0
41
1
10
-27.4438448562746
20
-1.63852680616571
30
0
41
1
10
-27.5834894508622
20
-1.27654424427399
30
0
41
1
10
-27.659907561872
20
-1.02982659310408
30
0
41
1
10
-27.7263125481157
20
-0.712009064343619
30
0
41
1
10
-27.7381311549964
20
-0.647972429894963
30
0
41
1
10
-27.753495176557
20
-0.551152686800691
30
0
41
1
10
-27.758227661507
20
-0.518712094109958
30
0
41
1
10
-27.766851286772
20
-0.45375715115037
30
0
41
1
10
-27.7707364301822
20
-0.421296305191703
30
0
41
1
10
-27.7880149380267
20
-0.259075743190976
30
0
41
1
10
-27.7949482553841
20
-0.129567748256306
30
0
41
1
10
-27.7949717147143
20
0.128908830770257
30
0
41
1
10
-27.7880628158188
20
0.257877452235533
30
0
41
1
10
-27.7608031960865
20
0.515290923394133
30
0
41
1
10
-27.7404556858505
20
0.643735898191153
30
0
41
1
10
-27.7071235148357
20
0.803984372995416
30
0
41
1
10
-27.700070249688
20
0.835979169879238
30
0
41
1
10
-27.6852752648622
20
0.899610715095861
30
0
41
1
10
-27.6620267043528
20
0.994634183944441
30
0
41
1
10
-27.6357504729908
20
1.08844252589233
30
0
41
1
10
-27.5795131085374
20
1.2745803095259
30
0
41
1
10
-27.4947210513265
20
1.51882731046541
30
0
41
1
10
-27.3936527606067
20
1.75654199988844
30
0
41
1
10
-27.2858445831225
20
1.99155169986119
30
0
41
1
10
-27.2285697311161
20
2.10770372607058
30
0
41
1
10
-27.1384658709924
20
2.28024951376904
30
0
41
1
10
-27.1077308279646
20
2.33748366823122
30
0
41
1
10
-27.0449836248785
20
2.45143941838194
30
0
41
1
10
-27.0129643433846
20
2.50817069379886
30
0
41
1
10
-26.9155052805133
20
2.67707678038104
30
0
41
1
10
-26.8485564128567
20
2.788179271026
30
0
41
1
10
-26.78
20
2.89806028260278
30
0
0
SPLINE
5
1AA
100
AcDbEntity
8
1
62
256
6
ByLayer
370
18
48
1
60
0
100
AcDbSpline
70
4
71
2
72
6
73
3
40
0
40
0
40
0
40
1
40
1
40
1
41
1
10
62.0201071204855
20
4.74258086611846
30
0
41
1
10
61.9620828280862
20
4.64282464349893
30
0
41
1
10
61.9040504540169
20
4.54314524745851
30
0
0
SPLINE
5
1AB
100
AcDbEntity
8
1
62
256
6
ByLayer
370
18
48
1
60
0
100
AcDbSpline
70
4
71
2
72
6
73
3
40
0
40
0
40
0
40
1
40
1
40
1
41
1
10
61.6932604342909
20
4.18138056098957
30
0
41
1
10
61.652144877053
20
4.11087503327528
30
0
41
1
10
61.6110252651671
20
4.04040805016206
30
0
0
SPLINE
5
1AC
100
AcDbEntity
8
1
62
256
6
ByLayer
370
18
48
1
60
0
100
AcDbSpline
70
4
71
3
72
10
73
6
40
0
40
0
40
0
40
0
40
0.466940987851948
40
0.797025092730373
40
1
40
1
40
1
40
1
41
1
10
68.8209469280999
20
-4.09358668739671
30
0
41
1
10
69.0007455360583
20
-4.01214331405279
30
0
41
1
10
69.3133633597783
20
-3.89055208447726
30
0
41
1
10
69.7194735772605
20
-3.76683453737539
30
0
41
1
10
69.9389142623475
20
-3.72148894860425
30
0
41
1
10
70.0230109306764
20
-3.70663745851451
30
0
0
SPLINE
5
1AD
100
AcDbEntity
8
1
62
256
6
ByLayer
370
18
48
1
60
0
100
AcDbSpline
70
4
71
2
72
6
73
3
40
0
40
0
40
0
40
1
40
1
40
1
41
1
10
60.459323412432
20
-3.8453097918769
30
0
41
1
10
60.4729677304553
20
-3.83974658644314
30
0
41
1
10
60.4897720911044
20
-3.83508708276858
30
0
0
SPLINE
5
1AE
100
AcDbEntity
8
1
62
256
6
ByLayer
370
18
48
1
60
0
100
AcDbSpline
70
4
71
2
72
6
73
3
40
0
40
0
40
0
40
1
40
1
40
1
41
1
10
71.8199999999999
20
3.84342150304858
30
0
41
1
10
71.7005489727773
20
3.81718553185399
30
0
41
1
10
71.5793653988967
20
3.801086425732
30
0
0
SPLINE
5
1AF
100
AcDbEntity
8
1
62
256
6
ByLayer
370
18
48
1
60
0
100
AcDbSpline
70
4
71
2
72
6
73
3
40
0
40
0
40
0
40
1
40
1
40
1
41
1
10
60.0477622940445
20
-4.50546469446905
30
0
41
1
10
60.2208402468493
20
-4.20752885271716
30
0
41
1
10
60.3940854858174
20
-3.91000237979432
30
0
0
SPLINE
5
1B0
100
AcDbEntity
8
1
62
256
6
ByLayer
370
18
48
1
60
0
100
AcDbSpline
70
4
71
3
72
11
73
7
40
0
40
0
40
0
40
0
40
0.249203102367235
40
0.500785708075997
40
0.755564708992647
40
1
40
1
40
1
40
1
41
1
10
63.1199166290752
20
3.90716405259153
30
0
41
1
10
63.1129416781295
20
3.88869378630079
30
0
41
1
10
63.0828284270979
20
3.85823390114527
30
0
41
1
10
62.9840315143835
20
3.80567462735226
30
0
41
1
10
62.8459402993819
20
3.82729903925647
30
0
41
1
10
62.7903601778531
20
3.88322107555649
30
0
41
1
10
62.7667783899179
20
3.92111914929549
30
0
0
SPLINE
5
1B1
100
AcDbEntity
8
1
62
256
6
ByLayer
370
18
48
1
60
0
100
AcDbSpline
70
4
71
2
72
6
73
3
40
0
40
0
40
0
40
1
40
1
40
1
41
1
10
68.6790428540966
20
-3.91318737434554
30
0
41
1
10
68.7177886346829
20
-3.97987286119243
30
0
41
1
10
68.7565263229454
20
-4.04658632882177
30
0
0
SPLINE
5
1B2
100
AcDbEntity
8
1
62
256
6
ByLayer
370
18
48
1
60
0
100
AcDbSpline
70
4
71
2
72
6
73
3
40
0
40
0
40
0
40
1
40
1
40
1
41
1
10
59.1544362767173
20
-3.91328320016015
30
0
41
1
10
59.2928365499748
20
-4.15149155728457
30
0
41
1
10
59.4311681952721
20
-4.38993254678539
30
0
0
SPLINE
5
1B3
100
AcDbEntity
8
1
62
256
6
ByLayer
370
18
48
1
60
0
100
AcDbSpline
70
4
71
3
72
11
73
7
40
0
40
0
40
0
40
0
40
0.274334607917204
40
0.536709881558172
40
0.778979998701996
40
1
40
1
40
1
40
1
41
1
10
68.3324601990996
20
-3.90827527976026
30
0
41
1
10
68.3519848018672
20
-3.87540673934373
30
0
41
1
10
68.4014763482944
20
-3.83032938156685
30
0
41
1
10
68.5359388371389
20
-3.80679160486525
30
0
41
1
10
68.6345275399757
20
-3.8554537202624
30
0
41
1
10
68.665036854118
20
-3.88598074111286
30
0
41
1
10
68.6735232554479
20
-3.9036966385182
30
0
0
SPLINE
5
1B4
100
AcDbEntity
8
1
62
256
6
ByLayer
370
18
48
1
60
0
100
AcDbSpline
70
4
71
3
72
11
73
7
40
0
40
0
40
0
40
0
40
0.209946818563102
40
0.448714205298541
40
0.71440090253581
40
1
40
1
40
1
40
1
41
1
10
58.8085844118829
20
-3.90597057808873
30
0
41
1
10
58.8179565861556
20
-3.88727720083224
30
0
41
1
10
58.8493642947824
20
-3.85442220233176
30
0
41
1
10
58.9485663680234
20
-3.80612404232642
30
0
41
1
10
59.0819058273886
20
-3.82980076904858
30
0
41
1
10
59.12989220351
20
-3.87139612556419
30
0
41
1
10
59.148165147817
20
-3.90261695037114
30
0
0
SPLINE
5
1B5
100
AcDbEntity
8
1
62
256
6
ByLayer
370
18
48
1
60
0
100
AcDbSpline
70
4
71
2
72
6
73
3
40
0
40
0
40
0
40
1
40
1
40
1
41
1
10
63.6432613077558
20
4.80862050036984
30
0
41
1
10
63.3825320080489
20
4.35883925730397
30
0
41
1
10
63.1214585326099
20
3.9097352030081
30
0
0
SPLINE
5
1B6
100
AcDbEntity
8
1
62
256
6
ByLayer
370
18
48
1
60
0
100
AcDbSpline
70
4
71
2
72
6
73
3
40
0
40
0
40
0
40
1
40
1
40
1
41
1
10
58.5887938390073
20
-4.28374027306498
30
0
41
1
10
58.6980142126451
20
-4.09587170286204
30
0
41
1
10
58.8073024997755
20
-3.90819317688849
30
0
0
SPLINE
5
1B7
100
AcDbEntity
8
1
62
256
6
ByLayer
370
18
48
1
60
0
100
AcDbSpline
70
4
71
2
72
6
73
3
40
0
40
0
40
0
40
1
40
1
40
1
41
1
10
68.0061863702252
20
-4.46932400436592
30
0
41
1
10
68.1693530264237
20
-4.18839137276666
30
0
41
1
10
68.3326871644505
20
-3.90788324207918
30
0
0
SPLINE
5
1B8
100
AcDbEntity
8
1
62
256
6
ByLayer
370
18
48
1
60
0
100
AcDbSpline
70
4
71
2
72
6
73
3
40
0
40
0
40
0
40
1
40
1
40
1
41
1
10
64.3620761060923
20
3.9113487615995
30
0
41
1
10
64.1004641272545
20
4.36085475755945
30
0
41
1
10
63.8393780954195
20
4.81093977496906
30
0
0
SPLINE
5
1B9
100
AcDbEntity
8
1
62
256
6
ByLayer
370
18
48
1
60
0
100
AcDbSpline
70
4
71
3
72
11
73
7
40
0
40
0
40
0
40
0
40
0.244613602245689
40
0.500953214594857
40
0.752848257033974
40
1
40
1
40
1
40
1
41
1
10
64.7213854826903
20
3.92616156231372
30
0
41
1
10
64.6973163837824
20
3.88708286270813
30
0
41
1
10
64.6407459786163
20
3.82897958386496
30
0
41
1
10
64.5023260298488
20
3.80601588066244
30
0
41
1
10
64.4023128283469
20
3.85790011487592
30
0
41
1
10
64.3713145270339
20
3.88940886577905
30
0
41
1
10
64.363754620696
20
3.90856108200907
30
0
0
SPLINE
5
1BA
100
AcDbEntity
8
1
62
256
6
ByLayer
370
18
48
1
60
0
100
AcDbSpline
70
4
71
2
72
6
73
3
40
0
40
0
40
0
40
1
40
1
40
1
41
1
10
57.5632852252282
20
-3.90723763183524
30
0
41
1
10
57.6361751877484
20
-4.03259489828437
30
0
41
1
10
57.7090418557228
20
-4.15803292114674
30
0
0
SPLINE
5
1BB
100
AcDbEntity
8
1
62
256
6
ByLayer
370
18
48
1
60
0
100
AcDbSpline
70
4
71
2
72
6
73
3
40
0
40
0
40
0
40
1
40
1
40
1
41
1
10
67.0914228148194
20
-3.91329653113664
30
0
41
1
10
67.3166330688541
20
-4.30090866483357
30
0
41
1
10
67.5413369014748
20
-4.68852386829718
30
0
0
SPLINE
5
1BC
100
AcDbEntity
8
1
62
256
6
ByLayer
370
18
48
1
60
0
100
AcDbSpline
70
4
71
2
72
6
73
3
40
0
40
0
40
0
40
1
40
1
40
1
41
1
10
67.5879673603624
20
-4.71712508643935
30
0
41
1
10
67.7895133210502
20
-4.59807604004237
30
0
41
1
10
67.9935061036934
20
-4.48990533487887
30
0
0
SPLINE
5
1BD
100
AcDbEntity
8
1
62
256
6
ByLayer
370
18
48
1
60
0
100
AcDbSpline
70
4
71
2
72
6
73
3
40
0
40
0
40
0
40
1
40
1
40
1
41
1
10
66.9447917960095
20
-3.82960302960322
30
0
41
1
10
67.0485882674702
20
-3.81754587271547
30
0
41
1
10
67.0822644104708
20
-3.89621453070456
30
0
0
SPLINE
5
1BE
100
AcDbEntity
8
1
62
256
6
ByLayer
370
18
48
1
60
0
100
AcDbSpline
70
4
71
2
72
6
73
3
40
0
40
0
40
0
40
1
40
1
40
1
41
1
10
57.4491596784889
20
-3.83147248434736
30
0
41
1
10
57.5361112710369
20
-3.84079641944385
30
0
41
1
10
57.5565179240264
20
-3.89402851085794
30
0
0
SPLINE
5
1BF
100
AcDbEntity
8
1
62
256
6
ByLayer
370
18
48
1
60
0
100
AcDbSpline
70
4
71
1
72
4
73
2
40
0
40
0
40
1
40
1
41
1
10
65.5788541887416
20
4.54856483512043
30
0
41
1
10
65.4276165102338
20
4.80902512331497
30
0
0
LINE
5
82
100
AcDbEntity
8
81
62
256
6
ByLayer
370
18
48
1
60
0
100
AcDbLine
10
71.82
20
0
30
0
11
76.82
21
0
31
0
39
0
210
0
220
0
230
1
0
LINE
5
83
100
AcDbEntity
8
SK4
62
256
6
ByLayer
370
18
48
0.05
60
0
100
AcDbLine
10
-33.18
20
0
30
0
11
76.82
21
0
31
0
39
0
210
0
220
0
230
1
0
LINE
5
85
100
AcDbEntity
8
80
62
256
6
ByLayer
370
18
48
1
60
0
100
AcDbLine
10
0
20
0
30
0
11
-5
21
0
31
0
39
0
210
0
220
0
230
1
0
LINE
5
86
100
AcDbEntity
8
4
62
256
6
ByLayer
370
18
48
0.05
60
0
100
AcDbLine
10
-5
20
0
30
0
11
76.82
21
0
31
0
39
0
210
0
220
0
230
1
0
LINE
5
88
100
AcDbEntity
8
1
62
256
6
ByLayer
370
18
48
1
60
0
100
AcDbLine
10
0
20
4.8385
30
0
11
0
21
-4.8385
31
0
39
0
210
0
220
0
230
1
0
LINE
5
89
100
AcDbEntity
8
1
62
256
6
ByLayer
370
18
48
1
60
0
100
AcDbLine
10
72.02
20
3.65
30
0
11
72.02
21
3.648233
31
0
39
0
210
0
220
0
230
1
0
LINE
5
8A
100
AcDbEntity
8
1
62
256
6
ByLayer
370
18
48
1
60
0
100
AcDbLine
10
62.238918
20
4.812466
30
0
11
62.245165
21
4.811612
31
0
39
0
210
0
220
0
230
1
0
LINE
5
8B
100
AcDbEntity
8
1
62
256
6
ByLayer
370
18
48
1
60
0
100
AcDbLine
10
71.82
20
3.843468
30
0
11
71.82
21
3.849938
31
0
39
0
210
0
220
0
230
1
0
LINE
5
8C
100
AcDbEntity
8
1
62
256
6
ByLayer
370
18
48
1
60
0
100
AcDbLine
10
68.676411
20
-3.908897
30
0
11
68.67912
21
-3.913306
31
0
39
0
210
0
220
0
230
1
0
LINE
5
8D
100
AcDbEntity
8
1
62
256
6
ByLayer
370
18
48
1
60
0
100
AcDbLine
10
59.149907
20
-3.90582
30
0
11
59.154562
21
-3.913473
31
0
39
0
210
0
220
0
230
1
0
LINE
5
8E
100
AcDbEntity
8
1
62
256
6
ByLayer
370
13
48
1
60
0
100
AcDbLine
10
55.590984
20
3.777625
30
0
11
55.590984
21
3.138978
31
0
39
0
210
0
220
0
230
1
0
LINE
5
8F
100
AcDbEntity
8
1
62
256
6
ByLayer
370
18
48
1
60
0
100
AcDbLine
10
57.559059
20
-3.899316
30
0
11
57.563307
21
-3.907276
31
0
39
0
210
0
220
0
230
1
0
LINE
5
90
100
AcDbEntity
8
1
62
256
6
ByLayer
370
18
48
1
60
0
100
AcDbLine
10
55.82
20
3.90337
30
0
11
55.82
21
3.112622
31
0
39
0
210
0
220
0
230
1
0
LINE
5
91
100
AcDbEntity
8
1
62
256
6
ByLayer
370
18
48
1
60
0
100
AcDbLine
10
55.82
20
-2.153857
30
0
11
55.82
21
-3.061868
31
0
39
0
210
0
220
0
230
1
0
LINE
5
92
100
AcDbEntity
8
1
62
256
6
ByLayer
370
13
48
1
60
0
100
AcDbLine
10
55.590984
20
-1.941891
30
0
11
55.590984
21
-3.390414
31
0
39
0
210
0
220
0
230
1
0
LINE
5
93
100
AcDbEntity
8
1
62
256
6
ByLayer
370
13
48
1
60
0
100
AcDbLine
10
55.040984
20
-3.020348
30
0
11
55.040984
21
-1.495853
31
0
39
0
210
0
220
0
230
1
0
LINE
5
94
100
AcDbEntity
8
1
62
256
6
ByLayer
370
13
48
1
60
0
100
AcDbLine
10
55.040984
20
3.255134
30
0
11
55.040984
21
3.63075
31
0
39
0
210
0
220
0
230
1
0
LINE
5
95
100
AcDbEntity
8
1
62
256
6
ByLayer
370
13
48
1
60
0
100
AcDbLine
10
33.916238
20
-3.63075
30
0
11
33.916238
21
3.63075
31
0
39
0
210
0
220
0
230
1
0
LINE
5
96
100
AcDbEntity
8
1
62
256
6
ByLayer
370
18
48
1
60
0
100
AcDbLine
10
72.02
20
0.049356
30
0
11
72.02
21
-1.922458
31
0
39
0
210
0
220
0
230
1
0
LINE
5
97
100
AcDbEntity
8
1
62
256
6
ByLayer
370
13
48
1
60
0
100
AcDbLine
10
33.725225
20
3.647461
30
0
11
33.725225
21
-3.647461
31
0
39
0
210
0
220
0
230
1
0
LINE
5
98
100
AcDbEntity
8
1
62
256
6
ByLayer
370
18
48
1
60
0
100
AcDbLine
10
26.970509
20
4.8385
30
0
11
26.970509
21
-4.8385
31
0
39
0
210
0
220
0
230
1
0
LINE
5
99
100
AcDbEntity
8
SK1
62
256
6
ByLayer
370
18
48
1
60
0
100
AcDbLine
10
-28.18
20
3.24496
30
0
11
-28.18
21
-3.24496
31
0
39
0
210
0
220
0
230
1
0
LINE
5
9B
100
AcDbEntity
8
SK1
62
256
6
ByLayer
370
18
48
1
60
0
100
AcDbLine
10
-17
20
3.63
30
0
11
-15.98504
21
4.64496
31
0
39
0
210
0
220
0
230
1
0
LINE
5
9C
100
AcDbEntity
8
SK1
62
256
6
ByLayer
370
18
48
1
60
0
100
AcDbLine
10
-26.78
20
3.63
30
0
11
-17
21
3.63
31
0
39
0
210
0
220
0
230
1
0
LINE
5
9D
100
AcDbEntity
8
SK1
62
256
6
ByLayer
370
18
48
1
60
0
100
AcDbLine
10
-26.78
20
2.89806
30
0
11
-26.78
21
3.63
31
0
39
0
210
0
220
0
230
1
0
LINE
5
9E
100
AcDbEntity
8
SK1
62
256
6
ByLayer
370
18
48
1
60
0
100
AcDbLine
10
-17
20
2.89806
30
0
11
-26.78
21
2.89806
31
0
39
0
210
0
220
0
230
1
0
LINE
5
9F
100
AcDbEntity
8
SK1
62
256
6
ByLayer
370
18
48
1
60
0
100
AcDbLine
10
-26.78
20
-2.89806
30
0
11
-17
21
-2.89806
31
0
39
0
210
0
220
0
230
1
0
LINE
5
A0
100
AcDbEntity
8
SK1
62
256
6
ByLayer
370
18
48
1
60
0
100
AcDbLine
10
-26.78
20
-3.63
30
0
11
-26.78
21
-2.89806
31
0
39
0
210
0
220
0
230
1
0
LINE
5
A1
100
AcDbEntity
8
SK1
62
256
6
ByLayer
370
18
48
1
60
0
100
AcDbLine
10
-17
20
-3.63
30
0
11
-26.78
21
-3.63
31
0
39
0
210
0
220
0
230
1
0
LINE
5
A2
100
AcDbEntity
8
SK1
62
256
6
ByLayer
370
18
48
1
60
0
100
AcDbLine
10
-17
20
-3.63
30
0
11
-15.98504
21
-4.64496
31
0
39
0
210
0
220
0
230
1
0
LINE
5
A3
100
AcDbEntity
8
SK1
62
256
6
ByLayer
370
18
48
1
60
0
100
AcDbLine
10
-17
20
2.89806
30
0
11
-17
21
-2.89806
31
0
39
0
210
0
220
0
230
1
0
LINE
5
A4
100
AcDbEntity
8
SK1
62
256
6
ByLayer
370
18
48
1
60
0
100
AcDbLine
10
-15.882
20
4.64496
30
0
11
-15.882
21
-4.64496
31
0
39
0
210
0
220
0
230
1
0
LINE
5
A5
100
AcDbEntity
8
SK1
62
256
6
ByLayer
370
18
48
1
60
0
100
AcDbLine
10
0
20
4.8385
30
0
11
0
21
-4.8385
31
0
39
0
210
0
220
0
230
1
0
LINE
5
A6
100
AcDbEntity
8
SK1
62
256
6
ByLayer
370
18
48
1
60
0
100
AcDbLine
10
-15.68846
20
-4.8385
30
0
11
-15.68846
21
4.8385
31
0
39
0
210
0
220
0
230
1
0
LINE
5
A7
100
AcDbEntity
8
1
62
256
6
ByLayer
370
18
48
1
60
0
100
AcDbLine
10
62.238068
20
4.812345
30
0
11
62.126897
21
4.796721
31
0
39
0
210
0
220
0
230
1
0
LINE
5
A8
100
AcDbEntity
8
1
62
256
6
ByLayer
370
18
48
1
60
0
100
AcDbLine
10
26.970509
20
4.8385
30
0
11
0
21
4.8385
31
0
39
0
210
0
220
0
230
1
0
LINE
5
A9
100
AcDbEntity
8
1
62
256
6
ByLayer
370
18
48
1
60
0
100
AcDbLine
10
0
20
-4.8385
30
0
11
26.970509
21
-4.8385
31
0
39
0
210
0
220
0
230
1
0
LINE
5
AA
100
AcDbEntity
8
1
62
256
6
ByLayer
370
18
48
1
60
0
100
AcDbLine
10
72.02
20
3.65
30
0
11
71.825575
21
3.844425
31
0
39
0
210
0
220
0
230
1
0
LINE
5
AB
100
AcDbEntity
8
1
62
256
6
ByLayer
370
18
48
1
60
0
100
AcDbLine
10
59.461278
20
-4.422093
30
0
11
60.03395
21
-4.502576
31
0
39
0
210
0
220
0
230
1
0
LINE
5
AC
100
AcDbEntity
8
1
62
256
6
ByLayer
370
18
48
1
60
0
100
AcDbLine
10
63.821088
20
4.822784
30
0
11
63.662924
21
4.822784
31
0
39
0
210
0
220
0
230
1
0
LINE
5
AD
100
AcDbEntity
8
1
62
256
6
ByLayer
370
18
48
1
60
0
100
AcDbLine
10
57.733281
20
-4.179238
30
0
11
58.568212
21
-4.29658
31
0
39
0
210
0
220
0
230
1
0
LINE
5
AE
100
AcDbEntity
8
1
62
256
6
ByLayer
370
18
48
1
60
0
100
AcDbLine
10
33.916238
20
-3.63075
30
0
11
41.404218
21
-3.63075
31
0
39
0
210
0
220
0
230
1
0
LINE
5
AF
100
AcDbEntity
8
1
62
256
6
ByLayer
370
18
48
1
60
0
100
AcDbLine
10
48.238946
20
-3.63075
30
0
11
50.749347
21
-3.63075
31
0
39
0
210
0
220
0
230
1
0
LINE
5
B0
100
AcDbEntity
8
1
62
256
6
ByLayer
370
18
48
1
60
0
100
AcDbLine
10
55.040984
20
3.63075
30
0
11
52.968258
21
3.63075
31
0
39
0
210
0
220
0
230
1
0
LINE
5
B1
100
AcDbEntity
8
1
62
256
6
ByLayer
370
18
48
1
60
0
100
AcDbLine
10
46.009448
20
3.63075
30
0
11
42.925748
21
3.63075
31
0
39
0
210
0
220
0
230
1
0
LINE
5
B2
100
AcDbEntity
8
1
62
256
6
ByLayer
370
18
48
1
60
0
100
AcDbLine
10
41.037876
20
3.63075
30
0
11
33.916238
21
3.63075
31
0
39
0
210
0
220
0
230
1
0
LINE
5
B3
100
AcDbEntity
8
1
62
256
6
ByLayer
370
18
48
1
60
0
100
AcDbLine
10
33.725225
20
3.647461
30
0
11
26.970509
21
4.8385
31
0
39
0
210
0
220
0
230
1
0
LINE
5
B4
100
AcDbEntity
8
1
62
256
6
ByLayer
370
18
48
1
60
0
100
AcDbLine
10
26.970509
20
-4.8385
30
0
11
33.725225
21
-3.647461
31
0
39
0
210
0
220
0
230
1
0
LINE
5
B5
100
AcDbEntity
8
SK1
62
256
6
ByLayer
370
18
48
1
60
0
100
AcDbLine
10
-28.18
20
-3.24496
30
0
11
-27.79496
21
-3.63
31
0
39
0
210
0
220
0
230
1
0
LINE
5
B6
100
AcDbEntity
8
SK1
62
256
6
ByLayer
370
18
48
1
60
0
100
AcDbLine
10
-27.79496
20
3.63
30
0
11
-28.18
21
3.24496
31
0
39
0
210
0
220
0
230
1
0
LINE
5
B7
100
AcDbEntity
8
SK1
62
256
6
ByLayer
370
18
48
1
60
0
100
AcDbLine
10
-15.882
20
4.64496
30
0
11
-15.98504
21
4.64496
31
0
39
0
210
0
220
0
230
1
0
LINE
5
B8
100
AcDbEntity
8
SK1
62
256
6
ByLayer
370
18
48
1
60
0
100
AcDbLine
10
-15.98504
20
-4.64496
30
0
11
-15.882
21
-4.64496
31
0
39
0
210
0
220
0
230
1
0
LINE
5
B9
100
AcDbEntity
8
SK1
62
256
6
ByLayer
370
18
48
1
60
0
100
AcDbLine
10
-15.882
20
-4.64496
30
0
11
-15.68846
21
-4.8385
31
0
39
0
210
0
220
0
230
1
0
LINE
5
BA
100
AcDbEntity
8
SK1
62
256
6
ByLayer
370
18
48
1
60
0
100
AcDbLine
10
-15.68846
20
4.8385
30
0
11
-15.882
21
4.64496
31
0
39
0
210
0
220
0
230
1
0
LINE
5
BB
100
AcDbEntity
8
SK1
62
256
6
ByLayer
370
18
48
1
60
0
100
AcDbLine
10
0
20
4.8385
30
0
11
-15.68846
21
4.8385
31
0
39
0
210
0
220
0
230
1
0
LINE
5
BC
100
AcDbEntity
8
SK1
62
256
6
ByLayer
370
18
48
1
60
0
100
AcDbLine
10
-15.68846
20
-4.8385
30
0
11
0
21
-4.8385
31
0
39
0
210
0
220
0
230
1
0
LINE
5
BD
100
AcDbEntity
8
SK2
62
256
6
ByLayer
370
13
48
1
60
0
100
AcDbLine
10
21.57
20
-4.8385
30
0
11
21.57
21
59.82016
31
0
39
0
210
0
220
0
230
1
0
LINE
5
BF
100
AcDbEntity
8
SK2
62
256
6
ByLayer
370
13
48
1
60
0
100
AcDbLine
10
21.4075
20
4.8385
30
0
11
23.57
21
4.8385
31
0
39
0
210
0
220
0
230
1
0
LINE
5
C0
100
AcDbEntity
8
SK2
62
256
6
ByLayer
370
13
48
1
60
0
100
AcDbLine
10
21.4075
20
-4.8385
30
0
11
23.57
21
-4.8385
31
0
39
0
210
0
220
0
230
1
0
LINE
5
C1
100
AcDbEntity
8
1
62
256
6
ByLayer
370
18
48
1
60
1
100
AcDbLine
10
21.57
20
4.8385
30
0
11
22.030784
21
1.338502
31
0
39
0
210
0
220
0
230
1
0
LINE
5
C2
100
AcDbEntity
8
1
62
256
6
ByLayer
370
18
48
1
60
1
100
AcDbLine
10
22.030784
20
1.338502
30
0
11
21.109216
21
1.338498
31
0
39
0
210
0
220
0
230
1
0
LINE
5
C3
100
AcDbEntity
8
1
62
256
6
ByLayer
370
18
48
1
60
1
100
AcDbLine
10
21.109216
20
1.338498
30
0
11
21.57
21
4.8385
31
0
39
0
210
0
220
0
230
1
0
LINE
5
C4
100
AcDbEntity
8
1
62
256
6
ByLayer
370
18
48
1
60
1
100
AcDbLine
10
21.57
20
-4.8385
30
0
11
21.109216
21
-1.338502
31
0
39
0
210
0
220
0
230
1
0
LINE
5
C5
100
AcDbEntity
8
1
62
256
6
ByLayer
370
18
48
1
60
1
100
AcDbLine
10
21.109216
20
-1.338502
30
0
11
22.030784
21
-1.338498
31
0
39
0
210
0
220
0
230
1
0
LINE
5
C6
100
AcDbEntity
8
1
62
256
6
ByLayer
370
18
48
1
60
1
100
AcDbLine
10
22.030784
20
-1.338498
30
0
11
21.57
21
-4.8385
31
0
39
0
210
0
220
0
230
1
0
LINE
5
1C5
100
AcDbEntity
8
1
62
256
6
ByLayer
370
18
48
1
60
1
100
AcDbLine
10
21.57
20
4.8385
30
0
11
22.030784
21
1.338502
31
0
39
0
210
0
220
0
230
1
0
LINE
5
1C6
100
AcDbEntity
8
1
62
256
6
ByLayer
370
18
48
1
60
1
100
AcDbLine
10
22.030784
20
1.338502
30
0
11
21.109216
21
1.338498
31
0
39
0
210
0
220
0
230
1
0
LINE
5
1C7
100
AcDbEntity
8
1
62
256
6
ByLayer
370
18
48
1
60
1
100
AcDbLine
10
21.109216
20
1.338498
30
0
11
21.57
21
4.8385
31
0
39
0
210
0
220
0
230
1
0
LINE
5
1C9
100
AcDbEntity
8
1
62
256
6
ByLayer
370
18
48
1
60
1
100
AcDbLine
10
21.57
20
-4.8385
30
0
11
21.109216
21
-1.338502
31
0
39
0
210
0
220
0
230
1
0
LINE
5
1CA
100
AcDbEntity
8
1
62
256
6
ByLayer
370
18
48
1
60
1
100
AcDbLine
10
21.109216
20
-1.338502
30
0
11
22.030784
21
-1.338498
31
0
39
0
210
0
220
0
230
1
0
LINE
5
1CB
100
AcDbEntity
8
1
62
256
6
ByLayer
370
18
48
1
60
1
100
AcDbLine
10
22.030784
20
-1.338498
30
0
11
21.57
21
-4.8385
31
0
39
0
210
0
220
0
230
1
0
MTEXT
5
1C0
100
AcDbEntity
8
SK2
62
256
6
ByLayer
370
18
48
1
60
0
100
AcDbMText
10
20.005366
20
12.096344
30
0
210
0
220
0
230
1
1
%%c
40
3.5
41
0
44
1.084337
50
90
71
7
72
5
7
iso_b_vert
0
MTEXT
5
1C3
100
AcDbEntity
8
SK2
62
256
6
ByLayer
370
18
48
1
60
0
100
AcDbMText
10
20.005366
20
33.398864
30
0
210
0
220
0
230
1
1
\W0.8220;ASME-B94.9
40
3.5
41
0
44
1.084337
50
90
71
7
72
5
7
iso_b_vert
0
MTEXT
5
1C4
100
AcDbEntity
8
SK2
62
256
6
ByLayer
370
18
48
1
60
0
100
AcDbMText
10
20.005366
20
19.069
30
0
210
0
220
0
230
1
1
\W0.7468;9.677
40
3.5
41
0
44
1.084337
50
90
71
7
72
5
7
iso_b_vert
0
MTEXT
5
1CD
100
AcDbEntity
8
SK6
62
256
6
ByLayer
370
18
48
1
60
0
100
AcDbMText
10
30.371061
20
-68.614886
30
0
210
0
220
0
230
1
1
\W0.7754;T300-PM100AE-3/8 P1PM
40
3
41
0
44
1.084337
50
0
71
7
72
5
7
iso_b_vert
0
HATCH
5
1C8
100
AcDbEntity
8
SK2
62
256
6
ByLayer
370
13
48
1
60
0
100
AcDbHatch
10
0
20
0
30
0
210
0
220
0
230
1
2
ANSI31
70
0
71
0
91
1
92
5
93
3
72
1
10
21.57
20
4.83850000000001
11
22.0307837415528
21
1.33850169255319
72
1
10
22.0307837415528
20
1.33850169255319
11
21.1092162584472
21
1.33849830744683
72
1
10
21.1092162584472
20
1.33849830744683
11
21.57
21
4.83850000000001
97
0
75
0
76
1
52
0
41
0.0062
77
0
78
1
53
45
43
0
44
0
45
-0.0139193969876572
46
0.0139193969876572
79
0
47
0
98
1
10
0
20
0
0
HATCH
5
1CC
100
AcDbEntity
8
SK2
62
256
6
ByLayer
370
13
48
1
60
0
100
AcDbHatch
10
0
20
0
30
0
210
0
220
0
230
1
2
ANSI31
70
0
71
0
91
1
92
5
93
3
72
1
10
21.57
20
-4.83849999999998
11
21.1092162584472
21
-1.33850169255317
72
1
10
21.1092162584472
20
-1.33850169255317
11
22.0307837415528
21
-1.3384983074468
72
1
10
22.0307837415528
20
-1.3384983074468
11
21.57
21
-4.83849999999998
97
0
75
0
76
1
52
0
41
0.0062
77
0
78
1
53
45
43
0
44
0
45
-0.0139193969876572
46
0.0139193969876572
79
0
47
0
98
1
10
0
20
0
0
DIMENSION
5
1D0
100
AcDbEntity
8
SK2
62
256
6
ByLayer
370
18
48
1
60
0
100
AcDbDimension
2
_U0
10
71.82
20
-51.520189
30
0
11
21.82
21
-51.520189
31
0
70
32
71
1
72
1
41
1
210
0
220
0
230
1
3
Standard
100
AcDbAlignedDimension
13
-28.18
23
0
33
0
14
71.82
24
0
34
0
50
0
100
AcDbRotatedDimension
1001
ACAD
1000
DSTYLE
1002
{
1070
   371
1070
    13
1070
   372
1070
    13
1070
     3
1000

1070
   170
1070
     0
1070
   144
1040
1.0
1070
   277
1070
     2
1070
   284
1070
     8
1070
   278
1070
    46
1070
   146
1040
1.0
1070
   345
1005
16
1070
   347
1005
16
1070
   346
1005
16
1070
   344
1005
0
1070
   343
1005
0
1070
   172
1070
     1
1070
    76
1070
     0
1070
    75
1070
     0
1070
   282
1070
     0
1070
   281
1070
     0
1070
    71
1070
     0
1070
    74
1070
     0
1070
   279
1070
     0
1070
   173
1070
     1
1070
   340
1005
1C1
1070
   271
1070
     2
1070
   272
1070
     2
1070
    77
1070
     1
1070
    73
1070
     1
1070
   171
1070
     3
1070
   274
1070
     4
1070
   177
1070
     2
1070
   176
1070
     2
1070
   178
1070
     2
1070
    78
1070
     8
1070
    48
1040
-0.1
1070
    41
1040
3.5
1070
   147
1040
1.75
1070
    42
1040
1.5875
1070
    44
1040
2.0
1070
   140
1040
3.5
1002
}
1001
ACAD_DSTYLE_DIM_LINETYPE
1070
   380
1005
16
1001
ACAD_DSTYLE_DIM_EXT1_LINETYPE
1070
   381
1005
16
1001
ACAD_DSTYLE_DIM_EXT2_LINETYPE
1070
   382
1005
16
0
DIMENSION
5
1E9
100
AcDbEntity
8
SK2
62
256
6
ByLayer
370
18
48
1
60
0
100
AcDbDimension
2
_U1
10
33.82
20
-43.520189
30
0
11
52.82
21
-43.520189
31
0
70
32
71
1
72
1
41
1
210
0
220
0
230
1
3
Standard
100
AcDbAlignedDimension
13
71.82
23
0
33
0
14
33.82
24
0
34
0
50
0
100
AcDbRotatedDimension
1001
ACAD
1000
DSTYLE
1002
{
1070
   371
1070
    13
1070
   372
1070
    13
1070
     3
1000

1070
   170
1070
     0
1070
   144
1040
1.0
1070
   277
1070
     2
1070
   284
1070
     8
1070
   278
1070
    46
1070
   146
1040
1.0
1070
   345
1005
16
1070
   347
1005
16
1070
   346
1005
16
1070
   344
1005
0
1070
   343
1005
0
1070
   172
1070
     1
1070
    76
1070
     0
1070
    75
1070
     0
1070
   282
1070
     0
1070
   281
1070
     0
1070
    71
1070
     0
1070
    74
1070
     0
1070
   279
1070
     0
1070
   173
1070
     1
1070
   340
1005
1C1
1070
   271
1070
     2
1070
   272
1070
     2
1070
    77
1070
     1
1070
    73
1070
     1
1070
   171
1070
     3
1070
   274
1070
     4
1070
   177
1070
     2
1070
   176
1070
     2
1070
   178
1070
     2
1070
    78
1070
     8
1070
    48
1040
-0.1
1070
    41
1040
3.5
1070
   147
1040
1.75
1070
    42
1040
1.5875
1070
    44
1040
2.0
1070
   140
1040
3.5
1002
}
1001
ACAD_DSTYLE_DIM_LINETYPE
1070
   380
1005
16
1001
ACAD_DSTYLE_DIM_EXT1_LINETYPE
1070
   381
1005
16
1001
ACAD_DSTYLE_DIM_EXT2_LINETYPE
1070
   382
1005
16
0
DIMENSION
5
201
100
AcDbEntity
8
2
62
256
6
ByLayer
370
18
48
1
60
0
100
AcDbDimension
2
_U2
10
39.52
20
-35.520189
30
0
11
55.67
21
-35.520189
31
0
70
32
71
1
72
1
41
1
210
0
220
0
230
1
3
Standard
100
AcDbAlignedDimension
13
71.82
23
0
33
0
14
39.52
24
0
34
0
50
0
100
AcDbRotatedDimension
1001
ACAD
1000
DSTYLE
1002
{
1070
   371
1070
    13
1070
   372
1070
    13
1070
     3
1000

1070
   170
1070
     0
1070
   144
1040
1.0
1070
   277
1070
     2
1070
   284
1070
     8
1070
   278
1070
    46
1070
   146
1040
1.0
1070
   345
1005
16
1070
   347
1005
16
1070
   346
1005
16
1070
   344
1005
0
1070
   343
1005
0
1070
   172
1070
     1
1070
    76
1070
     0
1070
    75
1070
     0
1070
   282
1070
     0
1070
   281
1070
     0
1070
    71
1070
     0
1070
    74
1070
     0
1070
   279
1070
     0
1070
   173
1070
     1
1070
   340
1005
1C1
1070
   271
1070
     2
1070
   272
1070
     2
1070
    77
1070
     1
1070
    73
1070
     1
1070
   171
1070
     3
1070
   274
1070
     4
1070
   177
1070
     2
1070
   176
1070
     2
1070
   178
1070
     2
1070
    78
1070
     8
1070
    48
1040
-0.1
1070
    41
1040
3.5
1070
   147
1040
1.75
1070
    42
1040
1.5875
1070
    44
1040
2.0
1070
   140
1040
3.5
1002
}
1001
ACAD_DSTYLE_DIM_LINETYPE
1070
   380
1005
16
1001
ACAD_DSTYLE_DIM_EXT1_LINETYPE
1070
   381
1005
16
1001
ACAD_DSTYLE_DIM_EXT2_LINETYPE
1070
   382
1005
16
0
DIMENSION
5
21A
100
AcDbEntity
8
SK2
62
256
6
ByLayer
370
18
48
1
60
0
100
AcDbDimension
2
_U3
10
55.82
20
-27.520189
30
0
11
63.82
21
-27.520189
31
0
70
32
71
1
72
1
41
1
210
0
220
0
230
1
3
Standard
100
AcDbAlignedDimension
13
71.82
23
0
33
0
14
55.82
24
0
34
0
50
0
100
AcDbRotatedDimension
1001
ACAD
1000
DSTYLE
1002
{
1070
   371
1070
    13
1070
   372
1070
    13
1070
     3
1000

1070
   170
1070
     0
1070
   144
1040
1.0
1070
   277
1070
     2
1070
   284
1070
     8
1070
   278
1070
    46
1070
   146
1040
1.0
1070
   345
1005
16
1070
   347
1005
16
1070
   346
1005
16
1070
   344
1005
0
1070
   343
1005
0
1070
   172
1070
     1
1070
    76
1070
     0
1070
    75
1070
     0
1070
   282
1070
     0
1070
   281
1070
     0
1070
    71
1070
     0
1070
    74
1070
     0
1070
   279
1070
     0
1070
   173
1070
     1
1070
   340
1005
1C1
1070
   271
1070
     2
1070
   272
1070
     2
1070
    77
1070
     1
1070
    73
1070
     1
1070
   171
1070
     3
1070
   274
1070
     4
1070
   177
1070
     2
1070
   176
1070
     2
1070
   178
1070
     2
1070
    78
1070
     8
1070
    48
1040
-0.1
1070
    41
1040
3.5
1070
   147
1040
1.75
1070
    42
1040
1.5875
1070
    44
1040
2.0
1070
   140
1040
3.5
1002
}
1001
ACAD_DSTYLE_DIM_LINETYPE
1070
   380
1005
16
1001
ACAD_DSTYLE_DIM_EXT1_LINETYPE
1070
   381
1005
16
1001
ACAD_DSTYLE_DIM_EXT2_LINETYPE
1070
   382
1005
16
0
DIMENSION
5
233
100
AcDbEntity
8
SK2
62
256
6
ByLayer
370
18
48
1
60
0
100
AcDbDimension
2
_U4
10
67.45
20
9.895568
30
0
11
69.635
21
9.895568
31
0
70
32
71
1
72
1
41
1
210
0
220
0
230
1
3
Standard
100
AcDbAlignedDimension
13
71.82
23
0
33
0
14
67.45
24
0
34
0
50
0
100
AcDbRotatedDimension
1001
ACAD
1000
DSTYLE
1002
{
1070
   371
1070
    13
1070
   372
1070
    13
1070
     3
1000

1070
   170
1070
     0
1070
   144
1040
1.0
1070
   277
1070
     2
1070
   284
1070
     8
1070
   278
1070
    46
1070
   146
1040
1.0
1070
   345
1005
16
1070
   347
1005
16
1070
   346
1005
16
1070
   344
1005
0
1070
   343
1005
0
1070
   172
1070
     1
1070
    76
1070
     0
1070
    75
1070
     0
1070
   282
1070
     0
1070
   281
1070
     0
1070
    71
1070
     0
1070
    74
1070
     0
1070
   279
1070
     0
1070
   173
1070
     1
1070
   340
1005
1C1
1070
   271
1070
     2
1070
   272
1070
     2
1070
    77
1070
     1
1070
    73
1070
     1
1070
   171
1070
     3
1070
   274
1070
     4
1070
   177
1070
     2
1070
   176
1070
     2
1070
   178
1070
     2
1070
    78
1070
     8
1070
    48
1040
-0.1
1070
    41
1040
3.5
1070
   147
1040
1.75
1070
    42
1040
1.5875
1070
    44
1040
2.0
1070
   140
1040
3.5
1002
}
1001
ACAD_DSTYLE_DIM_LINETYPE
1070
   380
1005
16
1001
ACAD_DSTYLE_DIM_EXT1_LINETYPE
1070
   381
1005
16
1001
ACAD_DSTYLE_DIM_EXT2_LINETYPE
1070
   382
1005
16
0
DIMENSION
5
24D
100
AcDbEntity
8
2
62
256
6
ByLayer
370
18
48
1
60
0
100
AcDbDimension
2
_U5
10
88.57
20
4.822784
30
0
11
88.57
21
0
31
0
70
32
71
1
72
1
41
1
210
0
220
0
230
1
3
Standard
100
AcDbAlignedDimension
13
71.82
23
-4.822784
33
0
14
71.82
24
4.822784
34
0
50
90
100
AcDbRotatedDimension
1001
ACAD
1000
DSTYLE
1002
{
1070
   371
1070
    13
1070
   372
1070
    13
1070
     3
1000

1070
   170
1070
     0
1070
   144
1040
1.0
1070
   277
1070
     2
1070
   284
1070
     8
1070
   278
1070
    46
1070
   146
1040
1.0
1070
   345
1005
16
1070
   347
1005
16
1070
   346
1005
16
1070
   344
1005
0
1070
   343
1005
0
1070
   172
1070
     1
1070
    76
1070
     0
1070
    75
1070
     0
1070
   282
1070
     0
1070
   281
1070
     0
1070
    71
1070
     0
1070
    74
1070
     0
1070
   279
1070
     0
1070
   173
1070
     1
1070
   340
1005
1C1
1070
   271
1070
     2
1070
   272
1070
     2
1070
    77
1070
     1
1070
    73
1070
     0
1070
   171
1070
     3
1070
   274
1070
     4
1070
   177
1070
     2
1070
   176
1070
     2
1070
   178
1070
     2
1070
    78
1070
     8
1070
    48
1040
-0.1
1070
    41
1040
3.5
1070
   147
1040
1.75
1070
    42
1040
1.5875
1070
    44
1040
2.0
1070
   140
1040
3.5
1002
}
1001
ACAD_DSTYLE_DIM_LINETYPE
1070
   380
1005
16
1001
ACAD_DSTYLE_DIM_EXT1_LINETYPE
1070
   381
1005
16
1001
ACAD_DSTYLE_DIM_EXT2_LINETYPE
1070
   382
1005
16
0
ENDSEC
0
SECTION
2
OBJECTS
0
DICTIONARY
5
2d7
330
0
100
AcDbDictionary
280
0
281
1
3
ACAD_GROUP
350
2d8
3
ACAD_MLINESTYLE
350
2d9
0
DICTIONARY
5
2d8
330
0
100
AcDbDictionary
280
0
281
1
0
DICTIONARY
5
2d9
330
0
100
AcDbDictionary
280
0
281
1
3
Standard
350
18
0
MLINESTYLE
5
18
330
2d9
100
AcDbMlineStyle
2
Standard
70
0
3

62
256
51
90
52
90
71
2
49
-0.5
62
256
6
ByLayer
49
0.5
62
256
6
ByLayer
0
RASTERVARIABLES
5
2c5
330

100
AcDbRasterVariables
90
0
70
1
71
1
72
1
0
ENDSEC
0
EOF
