0
SECTION
2
HEADER
9
$ACADVER
1
AC1015
9
$DWGCODEPAGE
3
ANSI_1252
9
$HANDSEED
5
2da
9
$ANGBASE
50
0
9
$ANGDIR
70
0
9
$ATTMODE
70
1
9
$AUNITS
70
0
9
$AUPREC
70
0
9
$CECOLOR
62
256
9
$CELTSCALE
40
1
9
$CELTYPE
6
ByLayer
9
$CELWEIGHT
370
18
9
$CLAYER
8
0
9
$CMLJUST
70
0
9
$CMLSCALE
40
1
9
$CMLSTYLE
2
Standard
9
$DIMSTYLE
2
Standard
9
$TEXTSIZE
40
0.2
9
$TEXTSTYLE
7
Standard
9
$LUNITS
70
2
9
$LUPREC
70
4
9
$EXTNAMES
290
1
9
$INSUNITS
70
4
9
$LTSCALE
40
1
9
$LWDISPLAY
290
1
9
$PDMODE
70
0
9
$PDSIZE
40
0
9
$PLINEGEN
70
0
0
ENDSEC
0
SECTION
2
CLASSES
0
CLASS
1
RASTERVARIABLES
2
AcDbRasterVariables
3
ISM
90
0
280
0
281
0
0
ENDSEC
0
SECTION
2
TABLES
0
TABLE
2
VPORT
5
2d0
100
AcDbSymbolTable
0
VPORT
5
1
100
AcDbSymbolTableRecord
100
AcDbViewportTableRecord
2
*Active
70
0
10
0
20
0
11
1
21
1
12
-1
22
1
13
0
23
0
14
0.5
24
0.5
15
10
25
10
16
0
26
0
36
1
17
0
27
0
37
0
0
ENDTAB
0
TABLE
2
LTYPE
5
2d1
100
AcDbSymbolTable
0
LTYPE
5
14
100
AcDbSymbolTableRecord
100
AcDbLinetypeTableRecord
70
0
2
ByBlock
3

72
65
73
0
40
0
0
LTYPE
5
15
100
AcDbSymbolTableRecord
100
AcDbLinetypeTableRecord
70
0
2
ByLayer
3

72
65
73
0
40
0
0
LTYPE
5
16
100
AcDbSymbolTableRecord
100
AcDbLinetypeTableRecord
70
0
2
Continuous
3
Solid line
72
65
73
0
40
0
0
LTYPE
5
6E
100
AcDbSymbolTableRecord
100
AcDbLinetypeTableRecord
70
0
2
CENTER
3
____ _ ____ _ ____ _ ____
72
65
73
4
40
47.5
49
22
74
0
49
-8.5
74
0
49
8.5
74
0
49
-8.5
74
0
0
LTYPE
5
6F
100
AcDbSymbolTableRecord
100
AcDbLinetypeTableRecord
70
0
2
DASHED
3
__ __ __ __ __ __ __ __ __
72
65
73
2
40
25.72
49
12.86
74
0
49
-12.86
74
0
0
ENDTAB
0
TABLE
2
LAYER
5
2d2
100
AcDbSymbolTable
0
LAYER
5
10
100
AcDbSymbolTableRecord
100
AcDbLayerTableRecord
2
0
70
0
62
7
6
Continuous
290
1
370
-3
390
0
0
LAYER
5
71
100
AcDbSymbolTableRecord
100
AcDbLayerTableRecord
2
81
70
0
62
-3
6
Continuous
290
1
370
-3
390
0
0
LAYER
5
73
100
AcDbSymbolTableRecord
100
AcDbLayerTableRecord
2
80
70
0
62
-6
6
Continuous
290
1
370
-3
390
0
0
LAYER
5
75
100
AcDbSymbolTableRecord
100
AcDbLayerTableRecord
2
1
70
0
62
4
6
Continuous
290
1
370
-3
390
0
0
LAYER
5
87
100
AcDbSymbolTableRecord
100
AcDbLayerTableRecord
2
4
70
0
62
-2
6
CENTER
290
1
370
-3
390
0
0
LAYER
5
1CA
100
AcDbSymbolTableRecord
100
AcDbLayerTableRecord
2
Defpoints
70
0
62
7
6
Continuous
290
0
370
-3
390
0
0
LAYER
5
207
100
AcDbSymbolTableRecord
100
AcDbLayerTableRecord
2
2
70
0
62
7
6
Continuous
290
1
370
-3
390
0
0
LAYER
5
2bc
100
AcDbSymbolTableRecord
100
AcDbLayerTableRecord
2
SK4
70
0
62
2
6
CENTER
290
1
370
-3
390
0
0
LAYER
5
2bd
100
AcDbSymbolTableRecord
100
AcDbLayerTableRecord
2
SK1
70
0
62
4
6
Continuous
290
1
370
-3
390
0
0
LAYER
5
2be
100
AcDbSymbolTableRecord
100
AcDbLayerTableRecord
2
SK2
70
0
62
7
6
Continuous
290
1
370
-3
390
0
0
LAYER
5
2bf
100
AcDbSymbolTableRecord
100
AcDbLayerTableRecord
2
SK6
70
0
62
5
6
Continuous
290
1
370
-3
390
0
0
ENDTAB
0
TABLE
2
STYLE
5
2d3
100
AcDbSymbolTable
0
STYLE
5
11
100
AcDbSymbolTableRecord
100
AcDbTextStyleTableRecord
2
Standard
3
txt
70
0
71
0
40
0
41
1
42
0
50
0
0
STYLE
5
1B8
100
AcDbSymbolTableRecord
100
AcDbTextStyleTableRecord
2
iso_b_vert
3
simplex.shx
70
0
71
0
40
0
41
1
42
0
50
0
0
STYLE
5
1B9
100
AcDbSymbolTableRecord
100
AcDbTextStyleTableRecord
2
DWGDirectTextStyle
3
simplex
70
0
71
0
40
0
41
1
42
0
50
0
0
ENDTAB
0
TABLE
2
DIMSTYLE
5
2d4
100
AcDbSymbolTable
100
AcDbDimStyleTable
0
DIMSTYLE
105
27
100
AcDbSymbolTableRecord
100
AcDbDimStyleTableRecord
2
Standard
70
0
3
<>
41
0.18
42
0.0625
44
0.18
140
0.18
147
0.09
73
0
74
0
77
1
271
2
275
0
278
52
280
0
340
11
0
ENDTAB
0
TABLE
2
VIEW
5
2d5
100
AcDbSymbolTable
0
ENDTAB
0
TABLE
2
UCS
5
2d6
100
AcDbSymbolTable
0
ENDTAB
0
TABLE
2
APPID
5
2d7
100
AcDbSymbolTable
0
APPID
5
12
100
AcDbSymbolTableRecord
100
AcDbRegAppTableRecord
2
ACAD
70
0
0
APPID
5
1C6
100
AcDbSymbolTableRecord
100
AcDbRegAppTableRecord
2
ACAD_DSTYLE_DIMBREAK
70
0
0
APPID
5
27B
100
AcDbSymbolTableRecord
100
AcDbRegAppTableRecord
2
ACAD_DSTYLE_DIM_LINETYPE
70
0
0
APPID
5
27C
100
AcDbSymbolTableRecord
100
AcDbRegAppTableRecord
2
ACAD_DSTYLE_DIM_EXT1_LINETYPE
70
0
0
APPID
5
27D
100
AcDbSymbolTableRecord
100
AcDbRegAppTableRecord
2
ACAD_DSTYLE_DIM_EXT2_LINETYPE
70
0
0
APPID
5
2B8
100
AcDbSymbolTableRecord
100
AcDbRegAppTableRecord
2
ACAD_MLEADERVER
70
0
0
ENDTAB
0
TABLE
2
BLOCK_RECORD
5
2d8
100
AcDbSymbolTable
0
BLOCK_RECORD
5
1F
100
AcDbSymbolTableRecord
100
AcDbBlockTableRecord
2
*Model_Space
340
0
70
0
0
BLOCK_RECORD
5
1B
100
AcDbSymbolTableRecord
100
AcDbBlockTableRecord
2
*Paper_Space
340
0
70
0
0
BLOCK_RECORD
5
23
100
AcDbSymbolTableRecord
100
AcDbBlockTableRecord
2
*Paper_Space0
340
0
70
0
0
BLOCK_RECORD
5
1CB
100
AcDbSymbolTableRecord
100
AcDbBlockTableRecord
2
*D1
340
0
70
0
0
BLOCK_RECORD
5
1D7
100
AcDbSymbolTableRecord
100
AcDbBlockTableRecord
2
_U0
340
0
70
0
0
BLOCK_RECORD
5
1E3
100
AcDbSymbolTableRecord
100
AcDbBlockTableRecord
2
*D3
340
0
70
0
0
BLOCK_RECORD
5
1EF
100
AcDbSymbolTableRecord
100
AcDbBlockTableRecord
2
_U1
340
0
70
0
0
BLOCK_RECORD
5
1FB
100
AcDbSymbolTableRecord
100
AcDbBlockTableRecord
2
*D5
340
0
70
0
0
BLOCK_RECORD
5
208
100
AcDbSymbolTableRecord
100
AcDbBlockTableRecord
2
_U2
340
0
70
0
0
BLOCK_RECORD
5
214
100
AcDbSymbolTableRecord
100
AcDbBlockTableRecord
2
*D7
340
0
70
0
0
BLOCK_RECORD
5
220
100
AcDbSymbolTableRecord
100
AcDbBlockTableRecord
2
_U3
340
0
70
0
0
BLOCK_RECORD
5
22C
100
AcDbSymbolTableRecord
100
AcDbBlockTableRecord
2
*D9
340
0
70
0
0
BLOCK_RECORD
5
239
100
AcDbSymbolTableRecord
100
AcDbBlockTableRecord
2
_U4
340
0
70
0
0
BLOCK_RECORD
5
246
100
AcDbSymbolTableRecord
100
AcDbBlockTableRecord
2
*D11
340
0
70
0
0
BLOCK_RECORD
5
253
100
AcDbSymbolTableRecord
100
AcDbBlockTableRecord
2
_U5
340
0
70
0
0
ENDTAB
0
ENDSEC
0
SECTION
2
BLOCKS
0
BLOCK
5
20
100
AcDbEntity
8
0
100
AcDbBlockBegin
2
*Model_Space
70
0
10
0
20
0
30
0
3
*Model_Space
0
ENDBLK
5
21
100
AcDbEntity
8
0
100
AcDbBlockEnd
0
BLOCK
5
1C
100
AcDbEntity
8
0
100
AcDbBlockBegin
2
*Paper_Space
70
0
10
0
20
0
30
0
3
*Paper_Space
0
ENDBLK
5
1D
100
AcDbEntity
8
0
100
AcDbBlockEnd
0
BLOCK
5
24
100
AcDbEntity
8
0
100
AcDbBlockBegin
2
*Paper_Space0
70
0
10
0
20
0
30
0
3
*Paper_Space0
0
ENDBLK
5
25
100
AcDbEntity
8
0
100
AcDbBlockEnd
0
BLOCK
5
1CC
100
AcDbEntity
8
0
100
AcDbBlockBegin
2
*D1
70
1
10
0
20
0
30
0
3
*D1
0
LINE
5
1CE
100
AcDbEntity
8
0
62
256
6
ByLayer
370
-2
48
1
60
0
100
AcDbLine
10
-28.18
20
-1.5875
30
0
11
-28.18
21
-53.339096
31
0
39
0
210
0
220
0
230
1
0
LINE
5
1CF
100
AcDbEntity
8
0
62
256
6
ByLayer
370
-2
48
1
60
0
100
AcDbLine
10
81.82
20
-1.5875
30
0
11
81.82
21
-53.339096
31
0
39
0
210
0
220
0
230
1
0
LINE
5
1D0
100
AcDbEntity
8
0
62
256
6
ByLayer
370
-2
48
1
60
0
100
AcDbLine
10
-24.68
20
-51.339096
30
0
11
78.32
21
-51.339096
31
0
39
0
210
0
220
0
230
1
0
SOLID
5
1D1
100
AcDbEntity
8
0
62
256
6
ByLayer
370
-1
48
1
60
0
100
AcDbTrace
10
-24.68
20
-50.755763
30
0
11
-24.68
21
-51.92243
31
0
12
-28.18
22
-51.339096
32
0
13
-28.18
23
-51.339096
33
0
39
0
210
0
220
0
230
1
0
SOLID
5
1D2
100
AcDbEntity
8
0
62
256
6
ByLayer
370
-1
48
1
60
0
100
AcDbTrace
10
78.32
20
-51.92243
30
0
11
78.32
21
-50.755763
31
0
12
81.82
22
-51.339096
32
0
13
81.82
23
-51.339096
33
0
39
0
210
0
220
0
230
1
0
MTEXT
5
1D3
100
AcDbEntity
8
0
62
256
6
ByLayer
370
18
48
1
60
0
100
AcDbMText
10
26.82
20
-44.339096
30
0
210
0
220
0
230
1
1
\A1;110
40
3.5
41
0
44
1
50
0
71
5
72
5
7
iso_b_vert
0
POINT
5
1D4
100
AcDbEntity
8
Defpoints
62
0
6
ByLayer
370
-1
48
1
60
0
100
AcDbPoint
10
-28.18
20
0
30
0
39
0
210
0
220
0
230
1
50
360
0
POINT
5
1D5
100
AcDbEntity
8
Defpoints
62
0
6
ByLayer
370
-1
48
1
60
0
100
AcDbPoint
10
81.82
20
0
30
0
39
0
210
0
220
0
230
1
50
360
0
POINT
5
1D6
100
AcDbEntity
8
Defpoints
62
0
6
ByLayer
370
-1
48
1
60
0
100
AcDbPoint
10
81.82
20
-51.339096
30
0
39
0
210
0
220
0
230
1
50
360
0
ENDBLK
5
1CD
100
AcDbEntity
8
0
100
AcDbBlockEnd
0
BLOCK
5
1DE
100
AcDbEntity
8
0
100
AcDbBlockBegin
2
_U0
70
0
10
0
20
0
30
0
3
_U0
0
MTEXT
5
1D8
100
AcDbEntity
8
SK2
62
256
6
ByLayer
370
18
48
1
60
0
100
AcDbMText
10
22.465434
20
-50.306463
30
0
210
0
220
0
230
1
1
\W0.6261;110.0
40
3.5
41
0
44
1.084337
50
0
71
7
72
5
7
iso_b_vert
0
LINE
5
1D9
100
AcDbEntity
8
SK2
62
256
6
ByLayer
370
13
48
1
60
0
100
AcDbLine
10
-28.18
20
-1.5875
30
0
11
-28.18
21
-53.339096
31
0
39
0
210
0
220
0
230
1
0
LINE
5
1DA
100
AcDbEntity
8
SK2
62
256
6
ByLayer
370
13
48
1
60
0
100
AcDbLine
10
81.82
20
-1.5875
30
0
11
81.82
21
-53.339096
31
0
39
0
210
0
220
0
230
1
0
LINE
5
1DB
100
AcDbEntity
8
SK2
62
256
6
ByLayer
370
13
48
1
60
0
100
AcDbLine
10
-28.18
20
-51.339096
30
0
11
81.82
21
-51.339096
31
0
39
0
210
0
220
0
230
1
0
SOLID
5
1DC
100
AcDbEntity
8
SK2
62
256
6
ByLayer
370
18
48
1
60
0
100
AcDbTrace
10
-28.18
20
-51.339096
30
0
11
-24.680002
21
-50.878313
31
0
12
-24.679998
22
-51.79988
32
0
13
-24.679998
23
-51.79988
33
0
39
0
210
0
220
0
230
1
0
SOLID
5
1DD
100
AcDbEntity
8
SK2
62
256
6
ByLayer
370
18
48
1
60
0
100
AcDbTrace
10
81.82
20
-51.339096
30
0
11
78.320002
21
-51.79988
31
0
12
78.319998
22
-50.878313
32
0
13
78.319998
23
-50.878313
33
0
39
0
210
0
220
0
230
1
0
ENDBLK
5
1DF
100
AcDbEntity
8
0
100
AcDbBlockEnd
0
BLOCK
5
1E4
100
AcDbEntity
8
0
100
AcDbBlockBegin
2
*D3
70
1
10
0
20
0
30
0
3
*D3
0
LINE
5
1E6
100
AcDbEntity
8
0
62
256
6
ByLayer
370
-2
48
1
60
0
100
AcDbLine
10
81.82
20
-1.5875
30
0
11
81.82
21
-45.339096
31
0
39
0
210
0
220
0
230
1
0
LINE
5
1E7
100
AcDbEntity
8
0
62
256
6
ByLayer
370
-2
48
1
60
0
100
AcDbLine
10
26.82
20
-1.5875
30
0
11
26.82
21
-45.339096
31
0
39
0
210
0
220
0
230
1
0
LINE
5
1E8
100
AcDbEntity
8
0
62
256
6
ByLayer
370
-2
48
1
60
0
100
AcDbLine
10
78.32
20
-43.339096
30
0
11
30.32
21
-43.339096
31
0
39
0
210
0
220
0
230
1
0
SOLID
5
1E9
100
AcDbEntity
8
0
62
256
6
ByLayer
370
-1
48
1
60
0
100
AcDbTrace
10
78.32
20
-43.92243
30
0
11
78.32
21
-42.755763
31
0
12
81.82
22
-43.339096
32
0
13
81.82
23
-43.339096
33
0
39
0
210
0
220
0
230
1
0
SOLID
5
1EA
100
AcDbEntity
8
0
62
256
6
ByLayer
370
-1
48
1
60
0
100
AcDbTrace
10
30.32
20
-42.755763
30
0
11
30.32
21
-43.92243
31
0
12
26.82
22
-43.339096
32
0
13
26.82
23
-43.339096
33
0
39
0
210
0
220
0
230
1
0
MTEXT
5
1EB
100
AcDbEntity
8
0
62
256
6
ByLayer
370
18
48
1
60
0
100
AcDbMText
10
54.32
20
-36.339096
30
0
210
0
220
0
230
1
1
\A1;55
40
3.5
41
0
44
1
50
0
71
5
72
5
7
iso_b_vert
0
POINT
5
1EC
100
AcDbEntity
8
Defpoints
62
0
6
ByLayer
370
-1
48
1
60
0
100
AcDbPoint
10
81.82
20
0
30
0
39
0
210
0
220
0
230
1
50
360
0
POINT
5
1ED
100
AcDbEntity
8
Defpoints
62
0
6
ByLayer
370
-1
48
1
60
0
100
AcDbPoint
10
26.82
20
0
30
0
39
0
210
0
220
0
230
1
50
360
0
POINT
5
1EE
100
AcDbEntity
8
Defpoints
62
0
6
ByLayer
370
-1
48
1
60
0
100
AcDbPoint
10
26.82
20
-43.339096
30
0
39
0
210
0
220
0
230
1
50
360
0
ENDBLK
5
1E5
100
AcDbEntity
8
0
100
AcDbBlockEnd
0
BLOCK
5
1F6
100
AcDbEntity
8
0
100
AcDbBlockBegin
2
_U1
70
0
10
0
20
0
30
0
3
_U1
0
MTEXT
5
1F0
100
AcDbEntity
8
SK2
62
256
6
ByLayer
370
18
48
1
60
0
100
AcDbMText
10
50.398301
20
-42.306463
30
0
210
0
220
0
230
1
1
\W0.7346;55.0
40
3.5
41
0
44
1.084337
50
0
71
7
72
5
7
iso_b_vert
0
LINE
5
1F1
100
AcDbEntity
8
SK2
62
256
6
ByLayer
370
13
48
1
60
0
100
AcDbLine
10
81.82
20
-1.5875
30
0
11
81.82
21
-45.339096
31
0
39
0
210
0
220
0
230
1
0
LINE
5
1F2
100
AcDbEntity
8
SK2
62
256
6
ByLayer
370
13
48
1
60
0
100
AcDbLine
10
26.82
20
-1.5875
30
0
11
26.82
21
-45.339096
31
0
39
0
210
0
220
0
230
1
0
LINE
5
1F3
100
AcDbEntity
8
SK2
62
256
6
ByLayer
370
13
48
1
60
0
100
AcDbLine
10
81.82
20
-43.339096
30
0
11
26.82
21
-43.339096
31
0
39
0
210
0
220
0
230
1
0
SOLID
5
1F4
100
AcDbEntity
8
SK2
62
256
6
ByLayer
370
18
48
1
60
0
100
AcDbTrace
10
81.82
20
-43.339096
30
0
11
78.320002
21
-43.79988
31
0
12
78.319998
22
-42.878313
32
0
13
78.319998
23
-42.878313
33
0
39
0
210
0
220
0
230
1
0
SOLID
5
1F5
100
AcDbEntity
8
SK2
62
256
6
ByLayer
370
18
48
1
60
0
100
AcDbTrace
10
26.82
20
-43.339096
30
0
11
30.319998
21
-42.878313
31
0
12
30.320002
22
-43.79988
32
0
13
30.320002
23
-43.79988
33
0
39
0
210
0
220
0
230
1
0
ENDBLK
5
1F7
100
AcDbEntity
8
0
100
AcDbBlockEnd
0
BLOCK
5
1FC
100
AcDbEntity
8
0
100
AcDbBlockBegin
2
*D5
70
1
10
0
20
0
30
0
3
*D5
0
LINE
5
1FE
100
AcDbEntity
8
0
62
256
6
ByLayer
370
-2
48
1
60
0
100
AcDbLine
10
81.82
20
-1.5875
30
0
11
81.82
21
-37.339096
31
0
39
0
210
0
220
0
230
1
0
LINE
5
1FF
100
AcDbEntity
8
0
62
256
6
ByLayer
370
-2
48
1
60
0
100
AcDbLine
10
35.07
20
-1.5875
30
0
11
35.07
21
-37.339096
31
0
39
0
210
0
220
0
230
1
0
LINE
5
200
100
AcDbEntity
8
0
62
256
6
ByLayer
370
-2
48
1
60
0
100
AcDbLine
10
78.32
20
-35.339096
30
0
11
38.57
21
-35.339096
31
0
39
0
210
0
220
0
230
1
0
SOLID
5
201
100
AcDbEntity
8
0
62
256
6
ByLayer
370
-1
48
1
60
0
100
AcDbTrace
10
78.32
20
-35.92243
30
0
11
78.32
21
-34.755763
31
0
12
81.82
22
-35.339096
32
0
13
81.82
23
-35.339096
33
0
39
0
210
0
220
0
230
1
0
SOLID
5
202
100
AcDbEntity
8
0
62
256
6
ByLayer
370
-1
48
1
60
0
100
AcDbTrace
10
38.57
20
-34.755763
30
0
11
38.57
21
-35.92243
31
0
12
35.07
22
-35.339096
32
0
13
35.07
23
-35.339096
33
0
39
0
210
0
220
0
230
1
0
MTEXT
5
203
100
AcDbEntity
8
0
62
256
6
ByLayer
370
18
48
1
60
0
100
AcDbMText
10
58.445
20
-28.339096
30
0
210
0
220
0
230
1
1
\A1;46.75
40
3.5
41
0
44
1
50
0
71
5
72
5
7
iso_b_vert
0
POINT
5
204
100
AcDbEntity
8
Defpoints
62
0
6
ByLayer
370
-1
48
1
60
0
100
AcDbPoint
10
81.82
20
0
30
0
39
0
210
0
220
0
230
1
50
360
0
POINT
5
205
100
AcDbEntity
8
Defpoints
62
0
6
ByLayer
370
-1
48
1
60
0
100
AcDbPoint
10
35.07
20
0
30
0
39
0
210
0
220
0
230
1
50
360
0
POINT
5
206
100
AcDbEntity
8
Defpoints
62
0
6
ByLayer
370
-1
48
1
60
0
100
AcDbPoint
10
35.07
20
-35.339096
30
0
39
0
210
0
220
0
230
1
50
360
0
ENDBLK
5
1FD
100
AcDbEntity
8
0
100
AcDbBlockEnd
0
BLOCK
5
20F
100
AcDbEntity
8
0
100
AcDbBlockBegin
2
_U2
70
0
10
0
20
0
30
0
3
_U2
0
MTEXT
5
209
100
AcDbEntity
8
2
62
256
6
ByLayer
370
18
48
1
60
0
100
AcDbMText
10
54.339034
20
-34.306463
30
0
210
0
220
0
230
1
1
\W0.7640;46.8
40
3.5
41
0
44
1.084337
50
0
71
7
72
5
7
iso_b_vert
0
LINE
5
20A
100
AcDbEntity
8
2
62
256
6
ByLayer
370
13
48
1
60
0
100
AcDbLine
10
81.82
20
-1.5875
30
0
11
81.82
21
-37.339096
31
0
39
0
210
0
220
0
230
1
0
LINE
5
20B
100
AcDbEntity
8
2
62
256
6
ByLayer
370
13
48
1
60
0
100
AcDbLine
10
35.07
20
-1.5875
30
0
11
35.07
21
-37.339096
31
0
39
0
210
0
220
0
230
1
0
LINE
5
20C
100
AcDbEntity
8
2
62
256
6
ByLayer
370
13
48
1
60
0
100
AcDbLine
10
81.82
20
-35.339096
30
0
11
35.07
21
-35.339096
31
0
39
0
210
0
220
0
230
1
0
SOLID
5
20D
100
AcDbEntity
8
2
62
256
6
ByLayer
370
18
48
1
60
0
100
AcDbTrace
10
81.82
20
-35.339096
30
0
11
78.320002
21
-35.79988
31
0
12
78.319998
22
-34.878313
32
0
13
78.319998
23
-34.878313
33
0
39
0
210
0
220
0
230
1
0
SOLID
5
20E
100
AcDbEntity
8
2
62
256
6
ByLayer
370
18
48
1
60
0
100
AcDbTrace
10
35.07
20
-35.339096
30
0
11
38.569998
21
-34.878313
31
0
12
38.570002
22
-35.79988
32
0
13
38.570002
23
-35.79988
33
0
39
0
210
0
220
0
230
1
0
ENDBLK
5
210
100
AcDbEntity
8
0
100
AcDbBlockEnd
0
BLOCK
5
215
100
AcDbEntity
8
0
100
AcDbBlockBegin
2
*D7
70
1
10
0
20
0
30
0
3
*D7
0
LINE
5
217
100
AcDbEntity
8
0
62
256
6
ByLayer
370
-2
48
1
60
0
100
AcDbLine
10
81.82
20
-1.5875
30
0
11
81.82
21
-29.339096
31
0
39
0
210
0
220
0
230
1
0
LINE
5
218
100
AcDbEntity
8
0
62
256
6
ByLayer
370
-2
48
1
60
0
100
AcDbLine
10
63.82
20
-1.5875
30
0
11
63.82
21
-29.339096
31
0
39
0
210
0
220
0
230
1
0
LINE
5
219
100
AcDbEntity
8
0
62
256
6
ByLayer
370
-2
48
1
60
0
100
AcDbLine
10
78.32
20
-27.339096
30
0
11
67.32
21
-27.339096
31
0
39
0
210
0
220
0
230
1
0
SOLID
5
21A
100
AcDbEntity
8
0
62
256
6
ByLayer
370
-1
48
1
60
0
100
AcDbTrace
10
78.32
20
-27.92243
30
0
11
78.32
21
-26.755763
31
0
12
81.82
22
-27.339096
32
0
13
81.82
23
-27.339096
33
0
39
0
210
0
220
0
230
1
0
SOLID
5
21B
100
AcDbEntity
8
0
62
256
6
ByLayer
370
-1
48
1
60
0
100
AcDbTrace
10
67.32
20
-26.755763
30
0
11
67.32
21
-27.92243
31
0
12
63.82
22
-27.339096
32
0
13
63.82
23
-27.339096
33
0
39
0
210
0
220
0
230
1
0
MTEXT
5
21C
100
AcDbEntity
8
0
62
256
6
ByLayer
370
18
48
1
60
0
100
AcDbMText
10
72.82
20
-20.339096
30
0
210
0
220
0
230
1
1
\A1;18
40
3.5
41
0
44
1
50
0
71
5
72
5
7
iso_b_vert
0
POINT
5
21D
100
AcDbEntity
8
Defpoints
62
0
6
ByLayer
370
-1
48
1
60
0
100
AcDbPoint
10
81.82
20
0
30
0
39
0
210
0
220
0
230
1
50
360
0
POINT
5
21E
100
AcDbEntity
8
Defpoints
62
0
6
ByLayer
370
-1
48
1
60
0
100
AcDbPoint
10
63.82
20
0
30
0
39
0
210
0
220
0
230
1
50
360
0
POINT
5
21F
100
AcDbEntity
8
Defpoints
62
0
6
ByLayer
370
-1
48
1
60
0
100
AcDbPoint
10
63.82
20
-27.339096
30
0
39
0
210
0
220
0
230
1
50
360
0
ENDBLK
5
216
100
AcDbEntity
8
0
100
AcDbBlockEnd
0
BLOCK
5
227
100
AcDbEntity
8
0
100
AcDbBlockBegin
2
_U3
70
0
10
0
20
0
30
0
3
_U3
0
MTEXT
5
221
100
AcDbEntity
8
SK2
62
256
6
ByLayer
370
18
48
1
60
0
100
AcDbMText
10
69.335734
20
-26.306463
30
0
210
0
220
0
230
1
1
\W0.6563;18.0
40
3.5
41
0
44
1.084337
50
0
71
7
72
5
7
iso_b_vert
0
LINE
5
222
100
AcDbEntity
8
SK2
62
256
6
ByLayer
370
13
48
1
60
0
100
AcDbLine
10
81.82
20
-1.5875
30
0
11
81.82
21
-29.339096
31
0
39
0
210
0
220
0
230
1
0
LINE
5
223
100
AcDbEntity
8
SK2
62
256
6
ByLayer
370
13
48
1
60
0
100
AcDbLine
10
63.82
20
-1.5875
30
0
11
63.82
21
-29.339096
31
0
39
0
210
0
220
0
230
1
0
LINE
5
224
100
AcDbEntity
8
SK2
62
256
6
ByLayer
370
13
48
1
60
0
100
AcDbLine
10
81.82
20
-27.339096
30
0
11
63.82
21
-27.339096
31
0
39
0
210
0
220
0
230
1
0
SOLID
5
225
100
AcDbEntity
8
SK2
62
256
6
ByLayer
370
18
48
1
60
0
100
AcDbTrace
10
81.82
20
-27.339096
30
0
11
78.320002
21
-27.79988
31
0
12
78.319998
22
-26.878313
32
0
13
78.319998
23
-26.878313
33
0
39
0
210
0
220
0
230
1
0
SOLID
5
226
100
AcDbEntity
8
SK2
62
256
6
ByLayer
370
18
48
1
60
0
100
AcDbTrace
10
63.82
20
-27.339096
30
0
11
67.319998
21
-26.878313
31
0
12
67.320002
22
-27.79988
32
0
13
67.320002
23
-27.79988
33
0
39
0
210
0
220
0
230
1
0
ENDBLK
5
228
100
AcDbEntity
8
0
100
AcDbBlockEnd
0
BLOCK
5
22D
100
AcDbEntity
8
0
100
AcDbBlockBegin
2
*D9
70
1
10
0
20
0
30
0
3
*D9
0
LINE
5
22F
100
AcDbEntity
8
0
62
256
6
ByLayer
370
-2
48
1
60
0
100
AcDbLine
10
81.82
20
1.5875
30
0
11
81.82
21
15.088932
31
0
39
0
210
0
220
0
230
1
0
LINE
5
230
100
AcDbEntity
8
0
62
256
6
ByLayer
370
-2
48
1
60
0
100
AcDbLine
10
76.45
20
1.5875
30
0
11
76.45
21
15.088932
31
0
39
0
210
0
220
0
230
1
0
LINE
5
231
100
AcDbEntity
8
0
62
256
6
ByLayer
370
-2
48
1
60
0
100
AcDbLine
10
85.32
20
13.088932
30
0
11
88.82
21
13.088932
31
0
39
0
210
0
220
0
230
1
0
LINE
5
232
100
AcDbEntity
8
0
62
256
6
ByLayer
370
-2
48
1
60
0
100
AcDbLine
10
72.95
20
13.088932
30
0
11
69.45
21
13.088932
31
0
39
0
210
0
220
0
230
1
0
SOLID
5
233
100
AcDbEntity
8
0
62
256
6
ByLayer
370
-1
48
1
60
0
100
AcDbTrace
10
85.32
20
13.672266
30
0
11
85.32
21
12.505599
31
0
12
81.82
22
13.088932
32
0
13
81.82
23
13.088932
33
0
39
0
210
0
220
0
230
1
0
SOLID
5
234
100
AcDbEntity
8
0
62
256
6
ByLayer
370
-1
48
1
60
0
100
AcDbTrace
10
72.95
20
12.505599
30
0
11
72.95
21
13.672266
31
0
12
76.45
22
13.088932
32
0
13
76.45
23
13.088932
33
0
39
0
210
0
220
0
230
1
0
MTEXT
5
235
100
AcDbEntity
8
0
62
256
6
ByLayer
370
18
48
1
60
0
100
AcDbMText
10
79.135
20
20.088932
30
0
210
0
220
0
230
1
1
\A1;5.37
40
3.5
41
0
44
1
50
0
71
5
72
5
7
iso_b_vert
0
POINT
5
236
100
AcDbEntity
8
Defpoints
62
0
6
ByLayer
370
-1
48
1
60
0
100
AcDbPoint
10
81.82
20
0
30
0
39
0
210
0
220
0
230
1
50
360
0
POINT
5
237
100
AcDbEntity
8
Defpoints
62
0
6
ByLayer
370
-1
48
1
60
0
100
AcDbPoint
10
76.45
20
0
30
0
39
0
210
0
220
0
230
1
50
360
0
POINT
5
238
100
AcDbEntity
8
Defpoints
62
0
6
ByLayer
370
-1
48
1
60
0
100
AcDbPoint
10
76.45
20
13.088932
30
0
39
0
210
0
220
0
230
1
50
360
0
ENDBLK
5
22E
100
AcDbEntity
8
0
100
AcDbBlockEnd
0
BLOCK
5
241
100
AcDbEntity
8
0
100
AcDbBlockBegin
2
_U4
70
0
10
0
20
0
30
0
3
_U4
0
MTEXT
5
23A
100
AcDbEntity
8
SK2
62
256
6
ByLayer
370
18
48
1
60
0
100
AcDbMText
10
75.213301
20
21.121566
30
0
210
0
220
0
230
1
1
\W0.7346;5.37
40
3.5
41
0
44
1.084337
50
0
71
7
72
5
7
iso_b_vert
0
MTEXT
5
23B
100
AcDbEntity
8
SK2
62
256
6
ByLayer
370
18
48
1
60
0
100
AcDbMText
10
75.213301
20
14.121566
30
0
210
0
220
0
230
1
1
\W0.6474;'C'
40
3.5
41
0
44
1.084337
50
0
71
7
72
5
7
iso_b_vert
0
LINE
5
23C
100
AcDbEntity
8
SK2
62
256
6
ByLayer
370
13
48
1
60
0
100
AcDbLine
10
81.82
20
1.5875
30
0
11
81.82
21
15.088932
31
0
39
0
210
0
220
0
230
1
0
LINE
5
23D
100
AcDbEntity
8
SK2
62
256
6
ByLayer
370
13
48
1
60
0
100
AcDbLine
10
76.45
20
1.5875
30
0
11
76.45
21
15.088932
31
0
39
0
210
0
220
0
230
1
0
LINE
5
23E
100
AcDbEntity
8
SK2
62
256
6
ByLayer
370
13
48
1
60
0
100
AcDbLine
10
90.57
20
13.088932
30
0
11
67.7
21
13.088932
31
0
39
0
210
0
220
0
230
1
0
SOLID
5
23F
100
AcDbEntity
8
SK2
62
256
6
ByLayer
370
18
48
1
60
0
100
AcDbTrace
10
81.82
20
13.088932
30
0
11
85.319998
21
13.549716
31
0
12
85.320002
22
12.628149
32
0
13
85.320002
23
12.628149
33
0
39
0
210
0
220
0
230
1
0
SOLID
5
240
100
AcDbEntity
8
SK2
62
256
6
ByLayer
370
18
48
1
60
0
100
AcDbTrace
10
76.45
20
13.088932
30
0
11
72.950002
21
12.628149
31
0
12
72.949998
22
13.549716
32
0
13
72.949998
23
13.549716
33
0
39
0
210
0
220
0
230
1
0
ENDBLK
5
242
100
AcDbEntity
8
0
100
AcDbBlockEnd
0
BLOCK
5
247
100
AcDbEntity
8
0
100
AcDbBlockBegin
2
*D11
70
1
10
0
20
0
30
0
3
*D11
0
LINE
5
249
100
AcDbEntity
8
0
62
256
6
ByLayer
370
-2
48
1
60
0
100
AcDbLine
10
83.4075
20
-6.419466
30
0
11
100.57
21
-6.419466
31
0
39
0
210
0
220
0
230
1
0
LINE
5
24A
100
AcDbEntity
8
0
62
256
6
ByLayer
370
-2
48
1
60
0
100
AcDbLine
10
83.4075
20
6.419466
30
0
11
100.57
21
6.419466
31
0
39
0
210
0
220
0
230
1
0
LINE
5
24B
100
AcDbEntity
8
0
62
256
6
ByLayer
370
-2
48
1
60
0
100
AcDbLine
10
98.57
20
-9.919466
30
0
11
98.57
21
-13.419466
31
0
39
0
210
0
220
0
230
1
0
LINE
5
24C
100
AcDbEntity
8
0
62
256
6
ByLayer
370
-2
48
1
60
0
100
AcDbLine
10
98.57
20
9.919466
30
0
11
98.57
21
13.419466
31
0
39
0
210
0
220
0
230
1
0
SOLID
5
24D
100
AcDbEntity
8
0
62
256
6
ByLayer
370
-1
48
1
60
0
100
AcDbTrace
10
99.153333
20
-9.919466
30
0
11
97.986667
21
-9.919466
31
0
12
98.57
22
-6.419466
32
0
13
98.57
23
-6.419466
33
0
39
0
210
0
220
0
230
1
0
SOLID
5
24E
100
AcDbEntity
8
0
62
256
6
ByLayer
370
-1
48
1
60
0
100
AcDbTrace
10
97.986667
20
9.919466
30
0
11
99.153333
21
9.919466
31
0
12
98.57
22
6.419466
32
0
13
98.57
23
6.419466
33
0
39
0
210
0
220
0
230
1
0
MTEXT
5
24F
100
AcDbEntity
8
0
62
256
6
ByLayer
370
18
48
1
60
0
100
AcDbMText
10
91.57
20
0
30
0
210
0
220
0
230
1
1
\A1;12.84
40
3.5
41
0
44
1
50
90
71
5
72
5
7
iso_b_vert
0
POINT
5
250
100
AcDbEntity
8
Defpoints
62
0
6
ByLayer
370
-1
48
1
60
0
100
AcDbPoint
10
81.82
20
-6.419466
30
0
39
0
210
0
220
0
230
1
50
360
0
POINT
5
251
100
AcDbEntity
8
Defpoints
62
0
6
ByLayer
370
-1
48
1
60
0
100
AcDbPoint
10
81.82
20
6.419466
30
0
39
0
210
0
220
0
230
1
50
360
0
POINT
5
252
100
AcDbEntity
8
Defpoints
62
0
6
ByLayer
370
-1
48
1
60
0
100
AcDbPoint
10
98.57
20
6.419466
30
0
39
0
210
0
220
0
230
1
50
360
0
ENDBLK
5
248
100
AcDbEntity
8
0
100
AcDbBlockEnd
0
BLOCK
5
25B
100
AcDbEntity
8
0
100
AcDbBlockBegin
2
_U5
70
0
10
0
20
0
30
0
3
_U5
0
MTEXT
5
254
100
AcDbEntity
8
2
62
256
6
ByLayer
370
18
48
1
60
0
100
AcDbMText
10
97.880366
20
-18.805364
30
0
210
0
220
0
230
1
1
\W0.6920;UNC 1/2-13
40
3.5
41
0
44
1.084337
50
90
71
7
72
5
7
iso_b_vert
0
MTEXT
5
255
100
AcDbEntity
8
2
62
256
6
ByLayer
370
18
48
1
60
0
100
AcDbMText
10
97.880366
20
9.063299
30
0
210
0
220
0
230
1
1
\W0.7601; 3BX
40
3.5
41
0
44
1.084337
50
90
71
7
72
5
7
iso_b_vert
0
LINE
5
256
100
AcDbEntity
8
2
62
256
6
ByLayer
370
13
48
1
60
0
100
AcDbLine
10
83.4075
20
-6.419466
30
0
11
100.57
21
-6.419466
31
0
39
0
210
0
220
0
230
1
0
LINE
5
257
100
AcDbEntity
8
2
62
256
6
ByLayer
370
13
48
1
60
0
100
AcDbLine
10
83.4075
20
6.419466
30
0
11
100.57
21
6.419466
31
0
39
0
210
0
220
0
230
1
0
LINE
5
258
100
AcDbEntity
8
2
62
256
6
ByLayer
370
13
48
1
60
0
100
AcDbLine
10
98.57
20
18.962864
30
0
11
98.57
21
-18.962864
31
0
39
0
210
0
220
0
230
1
0
SOLID
5
259
100
AcDbEntity
8
2
62
256
6
ByLayer
370
18
48
1
60
0
100
AcDbTrace
10
98.57
20
-6.419466
30
0
11
98.109216
21
-2.919468
31
0
12
99.030784
22
-2.919465
32
0
13
99.030784
23
-2.919465
33
0
39
0
210
0
220
0
230
1
0
SOLID
5
25A
100
AcDbEntity
8
2
62
256
6
ByLayer
370
18
48
1
60
0
100
AcDbTrace
10
98.57
20
6.419466
30
0
11
99.030784
21
2.919468
31
0
12
98.109216
22
2.919465
32
0
13
98.109216
23
2.919465
33
0
39
0
210
0
220
0
230
1
0
ENDBLK
5
25C
100
AcDbEntity
8
0
100
AcDbBlockEnd
0
ENDSEC
0
SECTION
2
ENTITIES
0
ARC
5
C0
100
AcDbEntity
8
SK1
62
256
6
ByLayer
370
18
48
1
60
0
100
AcDbCircle
39
0
10
-20.495
20
0
30
0
40
4.47456000000013
210
0
220
0
230
1
100
AcDbArc
50
321.359785
51
38.640215
0
ARC
5
C1
100
AcDbEntity
8
1
62
256
6
ByLayer
370
18
48
1
60
0
100
AcDbCircle
39
0
10
62.437231
20
-5.711
30
0
40
1.2
210
0
220
0
230
1
100
AcDbArc
50
30
51
40.61717
0
ARC
5
C2
100
AcDbEntity
8
1
62
256
6
ByLayer
370
18
48
1
60
0
100
AcDbCircle
39
0
10
27.400948
20
-5.711
30
0
40
1.2
210
0
220
0
230
1
100
AcDbArc
50
90
51
118.955024
0
ARC
5
C3
100
AcDbEntity
8
1
62
256
6
ByLayer
370
18
48
1
60
0
100
AcDbCircle
39
0
10
27.400948
20
5.711
30
0
40
1.2
210
0
220
0
230
1
100
AcDbArc
50
241.044976
51
270
0
POINT
5
70
100
AcDbEntity
8
81
62
256
6
ByLayer
370
18
48
1
60
0
100
AcDbPoint
10
81.82
20
0
30
0
39
0
210
0
220
0
230
1
50
360
0
POINT
5
72
100
AcDbEntity
8
80
62
256
6
ByLayer
370
18
48
1
60
0
100
AcDbPoint
10
0
20
0
30
0
39
0
210
0
220
0
230
1
50
360
0
POINT
5
74
100
AcDbEntity
8
1
62
256
6
ByLayer
370
18
48
1
60
0
100
AcDbPoint
10
-28.18
20
0
30
0
39
0
210
0
220
0
230
1
50
360
0
POINT
5
76
100
AcDbEntity
8
1
62
256
6
ByLayer
370
18
48
1
60
1
100
AcDbPoint
10
-28.18
20
0
30
0
39
0
210
0
220
0
230
1
50
360
0
POINT
5
77
100
AcDbEntity
8
1
62
256
6
ByLayer
370
18
48
1
60
1
100
AcDbPoint
10
81.82
20
0
30
0
39
0
210
0
220
0
230
1
50
360
0
POINT
5
78
100
AcDbEntity
8
1
62
256
6
ByLayer
370
18
48
1
60
1
100
AcDbPoint
10
81.82
20
0
30
0
39
0
210
0
220
0
230
1
50
360
0
POINT
5
79
100
AcDbEntity
8
1
62
256
6
ByLayer
370
18
48
1
60
1
100
AcDbPoint
10
26.82
20
0
30
0
39
0
210
0
220
0
230
1
50
360
0
POINT
5
7A
100
AcDbEntity
8
1
62
256
6
ByLayer
370
18
48
1
60
1
100
AcDbPoint
10
81.82
20
0
30
0
39
0
210
0
220
0
230
1
50
360
0
POINT
5
7B
100
AcDbEntity
8
1
62
256
6
ByLayer
370
18
48
1
60
1
100
AcDbPoint
10
35.07
20
0
30
0
39
0
210
0
220
0
230
1
50
360
0
POINT
5
7C
100
AcDbEntity
8
1
62
256
6
ByLayer
370
18
48
1
60
1
100
AcDbPoint
10
81.82
20
0
30
0
39
0
210
0
220
0
230
1
50
360
0
POINT
5
7D
100
AcDbEntity
8
1
62
256
6
ByLayer
370
18
48
1
60
1
100
AcDbPoint
10
63.82
20
0
30
0
39
0
210
0
220
0
230
1
50
360
0
POINT
5
7E
100
AcDbEntity
8
1
62
256
6
ByLayer
370
18
48
1
60
1
100
AcDbPoint
10
81.82
20
0
30
0
39
0
210
0
220
0
230
1
50
360
0
POINT
5
7F
100
AcDbEntity
8
1
62
256
6
ByLayer
370
18
48
1
60
1
100
AcDbPoint
10
76.45
20
0
30
0
39
0
210
0
220
0
230
1
50
360
0
POINT
5
80
100
AcDbEntity
8
1
62
256
6
ByLayer
370
18
48
1
60
1
100
AcDbPoint
10
81.82
20
-6.419466
30
0
39
0
210
0
220
0
230
1
50
360
0
POINT
5
81
100
AcDbEntity
8
1
62
256
6
ByLayer
370
18
48
1
60
1
100
AcDbPoint
10
81.82
20
6.419466
30
0
39
0
210
0
220
0
230
1
50
360
0
SPLINE
5
C4
100
AcDbEntity
8
1
62
256
6
ByLayer
370
18
48
1
60
0
100
AcDbSpline
70
4
71
3
72
9
73
5
40
0
40
0
40
0
40
0
40
0.386952071775935
40
1
40
1
40
1
40
1
41
1
10
81.219987193276
20
5.22496183298017
30
0
41
1
10
81.2199873666318
20
5.2242450449927
30
0
41
1
10
81.2199875248257
20
5.22128174253791
30
0
41
1
10
81.2199867997777
20
5.2154361107732
30
0
41
1
10
81.2199860915769
20
5.21077383307255
30
0
0
SPLINE
5
C5
100
AcDbEntity
8
1
62
256
6
ByLayer
370
18
48
1
60
0
100
AcDbSpline
70
4
71
3
72
10
73
6
40
0
40
0
40
0
40
0
40
0.279809236980294
40
0.279809236980294
40
1
40
1
40
1
40
1
41
1
10
66.6808210789038
20
-6.10808838522752
30
0
41
1
10
66.6787778405741
20
-6.10779750243879
30
0
41
1
10
66.6767293107229
20
-6.10717006175844
30
0
41
1
10
66.6693873640595
20
-6.10371505579883
30
0
41
1
10
66.6641031269533
20
-6.09899859420875
30
0
41
1
10
66.6588184703546
20
-6.09209912398481
30
0
0
SPLINE
5
C6
100
AcDbEntity
8
1
62
256
6
ByLayer
370
18
48
1
60
0
100
AcDbSpline
70
4
71
3
72
8
73
4
40
0
40
0
40
0
40
0
40
1
40
1
40
1
40
1
41
1
10
78.0746941258314
20
-5.56376511002139
30
0
41
1
10
78.0692725941765
20
-5.55440931721876
30
0
41
1
10
78.0638514272505
20
-5.54202556413546
30
0
41
1
10
78.0584098377015
20
-5.52660162306481
30
0
0
SPLINE
5
C7
100
AcDbEntity
8
1
62
256
6
ByLayer
370
13
48
1
60
0
100
AcDbSpline
70
4
71
3
72
8
73
4
40
0
40
0
40
0
40
0
40
1
40
1
40
1
40
1
41
1.04
10
69.1319179907892
20
5.30415843408556
30
0
41
1.04
10
69.139994232509
20
5.31643540352345
30
0
41
1.04
10
69.1480714397559
20
5.32339483782748
30
0
41
1.04
10
69.1561514601377
20
5.32498605941307
30
0
0
SPLINE
5
C8
100
AcDbEntity
8
1
62
256
6
ByLayer
370
13
48
1
60
0
100
AcDbSpline
70
4
71
3
72
8
73
4
40
0
40
0
40
0
40
0
40
1
40
1
40
1
40
1
41
1.04
10
66.191021819313
20
-5.28657249593184
30
0
41
1.04
10
66.1930799794902
20
-5.29080680594709
30
0
41
1.04
10
66.1951409521775
20
-5.294700903404
30
0
41
1.04
10
66.1972047188524
20
-5.29825187937613
30
0
0
SPLINE
5
C9
100
AcDbEntity
8
1
62
256
6
ByLayer
370
18
48
1
60
0
100
AcDbSpline
70
4
71
3
72
8
73
4
40
0
40
0
40
0
40
0
40
1
40
1
40
1
40
1
41
1.04
10
66.1972047038785
20
-5.29825185361177
30
0
41
1.04
10
66.2003776211878
20
-5.30371126847872
30
0
41
1.04
10
66.203557142706
20
-5.30835963969905
30
0
41
1.04
10
66.2067432011204
20
-5.31218639600133
30
0
0
SPLINE
5
CA
100
AcDbEntity
8
1
62
256
6
ByLayer
370
18
48
1
60
0
100
AcDbSpline
70
4
71
3
72
10
73
6
40
0
40
0
40
0
40
0
40
0.625002057988064
40
0.625002057988064
40
1
40
1
40
1
40
1
41
1
10
69.8380909129885
20
6.34641770360773
30
0
41
1
10
69.8283282562669
20
6.37701718092256
30
0
41
1
10
69.8186299017266
20
6.39787098676487
30
0
41
1
10
69.803137638544
20
6.41606514830286
30
0
41
1
10
69.7973353165436
20
6.41947386721628
30
0
41
1
10
69.7915224304575
20
6.41946980724148
30
0
0
SPLINE
5
CB
100
AcDbEntity
8
1
62
256
6
ByLayer
370
18
48
1
60
0
100
AcDbSpline
70
4
71
3
72
10
73
6
40
0
40
0
40
0
40
0
40
0.153615200305873
40
0.153615200305873
40
1
40
1
40
1
40
1
41
1
10
70.0137980346098
20
6.40121811770962
30
0
41
1
10
70.0156094511405
20
6.39842942325083
30
0
41
1
10
70.0174209360268
20
6.39531802746083
30
0
41
1
10
70.0291872691491
20
6.37299515957588
30
0
41
1
10
70.039010174412
20
6.34451202390682
30
0
41
1
10
70.0486903476883
20
6.3065396301987
30
0
0
SPLINE
5
CC
100
AcDbEntity
8
1
62
256
6
ByLayer
370
13
48
1
60
0
100
AcDbSpline
70
4
71
3
72
8
73
4
40
0
40
0
40
0
40
0
40
1
40
1
40
1
40
1
41
1.04
10
77.8986407078063
20
-5.24689027403995
30
0
41
1.04
10
77.906119705415
20
-5.2688436620569
30
0
41
1.04
10
77.9135840300232
20
-5.28622038238785
30
0
41
1.04
10
77.9210325994689
20
-5.2990381092535
30
0
0
SPLINE
5
CD
100
AcDbEntity
8
1
62
256
6
ByLayer
370
13
48
1
60
0
100
AcDbSpline
70
4
71
3
72
9
73
5
40
0
40
0
40
0
40
0
40
0.145409949424569
40
1
40
1
40
1
40
1
41
1
10
65.6713285660405
20
-5.20672469055359
30
0
41
1
10
65.6758734368939
20
-5.22304903131706
30
0
41
1
10
65.7072224616192
20
-5.3241370513106
30
0
41
1
10
65.7392491485267
20
-5.34631108118586
30
0
41
1
10
65.7670716089185
20
-5.30109923440625
30
0
0
SPLINE
5
CE
100
AcDbEntity
8
1
62
256
6
ByLayer
370
18
48
1
60
0
100
AcDbSpline
70
4
71
3
72
8
73
4
40
0
40
0
40
0
40
0
40
1
40
1
40
1
40
1
41
1
10
70.647556711086
20
5.30877302307672
30
0
41
1
10
70.6500014773007
20
5.30536121738393
30
0
41
1
10
70.6524469042888
20
5.30144935982284
30
0
41
1
10
70.6548930951071
20
5.29703586832605
30
0
0
SPLINE
5
CF
100
AcDbEntity
8
1
62
256
6
ByLayer
370
13
48
1
60
0
100
AcDbSpline
70
4
71
3
72
9
73
5
40
0
40
0
40
0
40
0
40
0.356655027452326
40
1
40
1
40
1
40
1
41
1
10
70.6548930951071
20
5.29703586832605
30
0
41
1
10
70.6605588220351
20
5.286813592356
30
0
41
1
10
70.6764560450403
20
5.25060689770507
30
0
41
1
10
70.6923955474202
20
5.19309028937991
30
0
41
1
10
70.7026629550415
20
5.14762547344628
30
0
0
SPLINE
5
D0
100
AcDbEntity
8
1
62
256
6
ByLayer
370
13
48
1
60
0
100
AcDbSpline
70
4
71
3
72
10
73
6
40
0
40
0
40
0
40
0
40
0.148230197719142
40
0.973922934859277
40
1
40
1
40
1
40
1
41
1
10
77.3789138933686
20
-5.14232179950457
30
0
41
1
10
77.3844611421939
20
-5.16701410348614
30
0
41
1
10
77.4208471258132
20
-5.31289207655004
30
0
41
1
10
77.4578686722553
20
-5.35192624357313
30
0
41
1
10
77.4890702741415
20
-5.30410543430031
30
0
41
1
10
77.4900252087956
20
-5.30256571054249
30
0
0
SPLINE
5
D1
100
AcDbEntity
8
1
62
256
6
ByLayer
370
18
48
1
60
0
100
AcDbSpline
70
4
71
3
72
18
73
14
40
0
40
0
40
0
40
0
40
0.305065019283641
40
0.305065019283641
40
0.610130038567282
40
0.610130038567282
40
0.762662548209103
40
0.762662548209103
40
0.838928803030013
40
0.838928803030013
40
0.915195057850922
40
0.915195057850922
40
1
40
1
40
1
40
1
41
1
10
65.3048234807379
20
-5.65745978986416
30
0
41
1
10
65.3134893018418
20
-5.7104406812594
30
0
41
1
10
65.3221033883849
20
-5.75564928298218
30
0
41
1
10
65.3392661717336
20
-5.83059497557213
30
0
41
1
10
65.3478020206805
20
-5.86033079283209
30
0
41
1
10
65.3606661284549
20
-5.89311202807718
30
0
41
1
10
65.3649667701778
20
-5.90206605210253
30
0
41
1
10
65.3714545623502
20
-5.91248221559263
30
0
41
1
10
65.3736206051924
20
-5.9154460590629
30
0
41
1
10
65.3779457198203
20
-5.92034224668035
30
0
41
1
10
65.380107136156
20
-5.92227851492939
30
0
41
1
10
65.3846713943167
20
-5.925297349
30
0
41
1
10
65.3870744667977
20
-5.92626132745534
30
0
41
1
10
65.389477995051
20
-5.92660376991651
30
0
0
SPLINE
5
D2
100
AcDbEntity
8
1
62
256
6
ByLayer
370
18
48
1
60
0
100
AcDbSpline
70
4
71
3
72
16
73
12
40
0
40
0
40
0
40
0
40
0.115183470152486
40
0.178384650855879
40
0.178384650855879
40
0.241585831559272
40
0.241585831559272
40
0.494390554372848
40
0.494390554372848
40
0.747195277186424
40
1
40
1
40
1
40
1
41
1
10
64.5213785985795
20
-5.77900993495339
30
0
41
1
10
64.5168401079275
20
-5.77095231986294
30
0
41
1
10
64.5098224015595
20
-5.75596087078139
30
0
41
1
10
64.5027887009682
20
-5.73702100395798
30
0
41
1
10
64.4977966541813
20
-5.72259827772282
30
0
41
1
10
64.4952933779449
20
-5.71487505955125
30
0
41
1
10
64.4827945044097
20
-5.67388353230467
30
0
41
1
10
64.4728510796654
20
-5.63354272581569
30
0
41
1
10
64.452902039103
20
-5.53821959896609
30
0
41
1
10
64.4328955154644
20
-5.42825302989772
30
0
41
1
10
64.4125587341166
20
-5.28919535269358
30
0
41
1
10
64.4022809066113
20
-5.2122686985989
30
0
0
SPLINE
5
D3
100
AcDbEntity
8
1
62
256
6
ByLayer
370
18
48
1
60
0
100
AcDbSpline
70
4
71
3
72
18
73
14
40
0
40
0
40
0
40
0
40
0.241984269477465
40
0.241984269477465
40
0.483968538954929
40
0.483968538954929
40
0.604960673693662
40
0.604960673693662
40
0.725952808432394
40
0.725952808432394
40
0.967937077909858
40
0.967937077909858
40
1
40
1
40
1
40
1
41
1
10
76.8714276781495
20
-5.71442203144895
30
0
41
1
10
76.8836425369705
20
-5.77965982939344
30
0
41
1
10
76.8958268879057
20
-5.83632925007399
30
0
41
1
10
76.9203059533976
20
-5.93271461199836
30
0
41
1
10
76.9325748167817
20
-5.97247339986347
30
0
41
1
10
76.9510003196716
20
-6.01947604130425
30
0
41
1
10
76.9571489530134
20
-6.03303115166264
30
0
41
1
10
76.9694833110209
20
-6.05584498340517
30
0
41
1
10
76.9756714005018
20
-6.06510648729713
30
0
41
1
10
76.9943179349817
20
-6.08625604974338
30
0
41
1
10
77.00668206724
20
-6.09132925968723
30
0
41
1
10
77.020726529566
20
-6.0870014474369
30
0
41
1
10
77.0223700317257
20
-6.08633953566647
30
0
41
1
10
77.0240134551395
20
-6.08552269761208
30
0
0
SPLINE
5
D4
100
AcDbEntity
8
1
62
256
6
ByLayer
370
18
48
1
60
0
100
AcDbSpline
70
4
71
3
72
18
73
14
40
0
40
0
40
0
40
0
40
0.241106015571037
40
0.241106015571037
40
0.494070677047358
40
0.494070677047358
40
0.620553007785519
40
0.620553007785519
40
0.683794173154599
40
0.683794173154599
40
0.74703533852368
40
0.74703533852368
40
1
40
1
40
1
40
1
41
1
10
76.5551279348096
20
-6.31426303151193
30
0
41
1
10
76.5473569919555
20
-6.30087067618538
30
0
41
1
10
76.5396660146579
20
-6.27918439839357
30
0
41
1
10
76.5241655537223
20
-6.21811791932356
30
0
41
1
10
76.5163413567885
20
-6.17793472926633
30
0
41
1
10
76.504607486345
20
-6.10422230912747
30
0
41
1
10
76.5006963022554
20
-6.07740682590736
30
0
41
1
10
76.4948057663163
20
-6.0337612384383
30
0
41
1
10
76.4928382691577
20
-6.01864197371359
30
0
41
1
10
76.4888909850839
20
-5.98724847177755
30
0
41
1
10
76.4869107030314
20
-5.97096900767815
30
0
41
1
10
76.4770090020436
20
-5.88700790952882
30
0
41
1
10
76.4690556188745
20
-5.81140945161511
30
0
41
1
10
76.4610345200822
20
-5.72750939648682
30
0
0
SPLINE
5
D5
100
AcDbEntity
8
1
62
256
6
ByLayer
370
18
48
1
60
0
100
AcDbSpline
70
4
71
3
72
19
73
15
40
0
40
0
40
0
40
0
40
0.145153553721608
40
0.290307107443216
40
0.435460661164825
40
0.435460661164825
40
0.508037438025629
40
0.508037438025629
40
0.580614214886433
40
0.580614214886433
40
0.725767768608041
40
0.870921322329649
40
0.870921322329649
40
1
40
1
40
1
40
1
41
1
10
63.6028613582399
20
-4.4778006577269
30
0
41
1
10
63.6072010992257
20
-4.5660094270504
30
0
41
1
10
63.6158009770088
20
-4.73099683118349
30
0
41
1
10
63.6286536017573
20
-4.94520940843381
30
0
41
1
10
63.6372959222464
20
-5.06601213855484
30
0
41
1
10
63.643834773814
20
-5.14823716871143
30
0
41
1
10
63.6460266680546
20
-5.17427351572348
30
0
41
1
10
63.6503959280126
20
-5.22311607784221
30
0
41
1
10
63.6525773772329
20
-5.24597787643484
30
0
41
1
10
63.6591154982815
20
-5.30996200792799
30
0
41
1
10
63.6678182359175
20
-5.38302284889227
30
0
41
1
10
63.6764836232557
20
-5.43193732093076
30
0
41
1
10
63.6846197997333
20
-5.46662357918754
30
0
41
1
10
63.6884227261434
20
-5.47811864492502
30
0
41
1
10
63.6921952799421
20
-5.48466205297376
30
0
0
SPLINE
5
D6
100
AcDbEntity
8
1
62
256
6
ByLayer
370
13
48
1
60
0
100
AcDbSpline
70
4
71
3
72
9
73
5
40
0
40
0
40
0
40
0
40
0.526242421014321
40
1
40
1
40
1
40
1
41
1.04
10
64.1249325021407
20
-4.71834803364493
30
0
41
1.04
10
64.1460829339094
20
-4.88585622089466
30
0
41
1.04
10
64.1859195665223
20
-5.13994141523644
30
0
41
1.04
10
64.2252818847569
20
-5.26854213158293
30
0
41
1.04
10
64.2438279146083
20
-5.30061667751395
30
0
0
SPLINE
5
D7
100
AcDbEntity
8
1
62
256
6
ByLayer
370
13
48
1
60
0
100
AcDbSpline
70
4
71
3
72
10
73
6
40
0
40
0
40
0
40
0
40
0.466352818769154
40
0.86580978649554
40
1
40
1
40
1
40
1
41
1
10
63.6052740402422
20
-4.47619130549049
30
0
41
1
10
63.636566965409
20
-4.76557258058884
30
0
41
1
10
63.6938152694715
20
-5.16928445607226
30
0
41
1
10
63.75881161386
20
-5.33767946357901
30
0
41
1
10
63.793147577635
20
-5.32636406181382
30
0
41
1
10
63.8017596664796
20
-5.3173551863614
30
0
0
SPLINE
5
D8
100
AcDbEntity
8
1
62
256
6
ByLayer
370
18
48
1
60
0
100
AcDbSpline
70
4
71
3
72
8
73
4
40
0
40
0
40
0
40
0
40
1
40
1
40
1
40
1
41
1
10
63.801759491626
20
-5.31735536927022
30
0
41
1
10
63.8062038818108
20
-5.31270625496185
30
0
41
1
10
63.8106424163334
20
-5.30641565831894
30
0
41
1
10
63.8150751076003
20
-5.29851576379113
30
0
0
SPLINE
5
D9
100
AcDbEntity
8
1
62
256
6
ByLayer
370
13
48
1
60
0
100
AcDbSpline
70
4
71
3
72
9
73
5
40
0
40
0
40
0
40
0
40
0.910372107364391
40
1
40
1
40
1
40
1
41
1.04
10
75.8326478991649
20
-4.58777093782803
30
0
41
1.04
10
75.8733080490873
20
-4.94034069185079
30
0
41
1.04
10
75.9177185438365
20
-5.19813308712893
30
0
41
1.04
10
75.9619139300304
20
-5.29115287405495
30
0
41
1.04
10
75.9658736290374
20
-5.29817386120383
30
0
0
SPLINE
5
DA
100
AcDbEntity
8
1
62
256
6
ByLayer
370
18
48
1
60
0
100
AcDbSpline
70
4
71
3
72
8
73
4
40
0
40
0
40
0
40
0
40
1
40
1
40
1
40
1
41
1.04
10
75.9658736345956
20
-5.29817387105935
30
0
41
1.04
10
75.9676864235449
20
-5.3013881471105
30
0
41
1.04
10
75.9694989106174
20
-5.30432656519229
30
0
41
1.04
10
75.9713111234167
20
-5.30698984151713
30
0
0
SPLINE
5
DB
100
AcDbEntity
8
1
62
256
6
ByLayer
370
13
48
1
60
0
100
AcDbSpline
70
4
71
3
72
9
73
5
40
0
40
0
40
0
40
0
40
0.564173906833797
40
1
40
1
40
1
40
1
41
1.04
10
71.0838635582016
20
5.30162230324067
30
0
41
1.04
10
71.1098205972254
20
5.34449270528438
30
0
41
1.04
10
71.1558107770733
20
5.32258577673721
30
0
41
1.04
10
71.2021572262662
20
5.12099096976361
30
0
41
1.04
10
71.2223882218116
20
5.00169106769071
30
0
0
SPLINE
5
DC
100
AcDbEntity
8
1
62
256
6
ByLayer
370
18
48
1
60
0
100
AcDbSpline
70
4
71
3
72
21
73
17
40
0
40
0
40
0
40
0
40
0.184446613585101
40
0.184446613585101
40
0.368893227170201
40
0.368893227170201
40
0.553339840755302
40
0.553339840755302
40
0.599451494151577
40
0.599451494151577
40
0.645563147547851
40
0.645563147547851
40
0.7377864543404
40
0.7377864543404
40
0.922233067925499
40
1
40
1
40
1
40
1
41
1
10
71.9048129178355
20
5.59460133042202
30
0
41
1
10
71.895145026003
20
5.69440359015357
30
0
41
1
10
71.8854812394707
20
5.78510534573431
30
0
41
1
10
71.8659823048175
20
5.94879846612045
30
0
41
1
10
71.8561474109438
20
6.02178881326492
30
0
41
1
10
71.8362661797575
20
6.15006933622195
30
0
41
1
10
71.826219513549
20
6.20536062264088
30
0
41
1
10
71.8135908076629
20
6.26312134654131
30
0
41
1
10
71.811061908149
20
6.27410458760585
30
0
41
1
10
71.8060008368539
20
6.29492084410668
30
0
41
1
10
71.8034710832005
20
6.30474225436004
30
0
41
1
10
71.7959223490333
20
6.33232999226303
30
0
41
1
10
71.7909341282879
20
6.34827316587376
30
0
41
1
10
71.7761215712137
20
6.38888809542081
30
0
41
1
10
71.7623421233381
20
6.41372780126181
30
0
41
1
10
71.7486859313828
20
6.41945876023502
30
0
41
1
10
71.744638813364
20
6.41946992387264
30
0
0
SPLINE
5
DD
100
AcDbEntity
8
1
62
256
6
ByLayer
370
18
48
1
60
0
100
AcDbSpline
70
4
71
3
72
24
73
20
40
0
40
0
40
0
40
0
40
0.0468556672928464
40
0.0468556672928464
40
0.0970211584879597
40
0.0970211584879597
40
0.197352140878186
40
0.197352140878186
40
0.39801410565864
40
0.39801410565864
40
0.598676070439093
40
0.598676070439093
40
0.69900705282932
40
0.69900705282932
40
0.749172544024433
40
0.749172544024433
40
0.799338035219547
40
0.799338035219547
40
1
40
1
40
1
40
1
41
1
10
71.9678901205355
20
6.40044283551862
30
0
41
1
10
71.9701981801032
20
6.39678989408276
30
0
41
1
10
71.9725081672296
20
6.39260599740828
30
0
41
1
10
71.9772961566004
20
6.38283211822454
30
0
41
1
10
71.9797734945435
20
6.37716371781926
30
0
41
1
10
71.987175300767
20
6.35840726593446
30
0
41
1
10
71.9920826735466
20
6.34354378113517
30
0
41
1
10
72.0067394203629
20
6.29200407193966
30
0
41
1
10
72.0164219609219
20
6.24839379394425
30
0
41
1
10
72.0357219838789
20
6.14296987019344
30
0
41
1
10
72.0453384881602
20
6.08115593703627
30
0
41
1
10
72.0598410113371
20
5.97464062708121
30
0
41
1
10
72.0646887740648
20
5.93683270828646
30
0
41
1
10
72.0720024339212
20
5.87661373333842
30
0
41
1
10
72.0744473063312
20
5.85595597200771
30
0
41
1
10
72.0793538306203
20
5.813458919
30
0
41
1
10
72.0818178893263
20
5.79159718400066
30
0
41
1
10
72.0941408294344
20
5.67971458786121
30
0
41
1
10
72.1040310359211
20
5.58183988017112
30
0
41
1
10
72.1139833910716
20
5.47568428815853
30
0
0
SPLINE
5
DE
100
AcDbEntity
8
1
62
256
6
ByLayer
370
13
48
1
60
0
100
AcDbSpline
70
4
71
3
72
9
73
5
40
0
40
0
40
0
40
0
40
0.564498458650335
40
1
40
1
40
1
40
1
41
1
10
72.609931249083
20
5.29442458715121
30
0
41
1
10
72.6387004605715
20
5.24057667877747
30
0
41
1
10
72.6904784884917
20
5.02279307457556
30
0
41
1
10
72.7446754206567
20
4.57292034846057
30
0
41
1
10
72.7688667864381
20
4.33226834318575
30
0
0
SPLINE
5
DF
100
AcDbEntity
8
1
62
256
6
ByLayer
370
13
48
1
60
0
100
AcDbSpline
70
4
71
3
72
9
73
5
40
0
40
0
40
0
40
0
40
0.738479488360212
40
1
40
1
40
1
40
1
41
1
10
75.31289102604
20
-4.3240424488063
30
0
41
1
10
75.3636254791325
20
-4.82946109915099
30
0
41
1
10
75.4318178819223
20
-5.2755037354666
30
0
41
1
10
75.4995041923479
20
-5.33366864852908
30
0
41
1
10
75.5171967276073
20
-5.32304095637272
30
0
0
SPLINE
5
E0
100
AcDbEntity
8
1
62
256
6
ByLayer
370
18
48
1
60
0
100
AcDbSpline
70
4
71
3
72
8
73
4
40
0
40
0
40
0
40
0
40
1
40
1
40
1
40
1
41
1
10
41.2318395777733
20
3.33390442490287
30
0
41
1
10
41.1929304323435
20
3.3142765422441
30
0
41
1
10
41.1538669737649
20
3.29464394979542
30
0
41
1
10
41.1146370250944
20
3.27503422021104
30
0
0
SPLINE
5
E1
100
AcDbEntity
8
1
62
256
6
ByLayer
370
18
48
1
60
0
100
AcDbSpline
70
4
71
3
72
10
73
6
40
0
40
0
40
0
40
0
40
0.155406065352966
40
0.155406065352966
40
1
40
1
40
1
40
1
41
1
10
36.9729316715999
20
4.51100001629462
30
0
41
1
10
37.0039756966572
20
4.51099770554987
30
0
41
1
10
37.0350487614909
20
4.51063357615325
30
0
41
1
10
37.2351584925131
20
4.50598045700553
30
0
41
1
10
37.4048692759664
20
4.49148835429099
30
0
41
1
10
37.5750409933672
20
4.46650895022489
30
0
0
SPLINE
5
E2
100
AcDbEntity
8
1
62
256
6
ByLayer
370
18
48
1
60
0
100
AcDbSpline
70
4
71
3
72
29
73
25
40
0
40
0
40
0
40
0
40
0.125
40
0.125
40
0.25
40
0.25
40
0.375000000000001
40
0.375000000000001
40
0.406250000000001
40
0.406250000000001
40
0.437500000000001
40
0.437500000000001
40
0.500000000000001
40
0.500000000000001
40
0.625000000000001
40
0.750000000000001
40
0.750000000000001
40
0.8125
40
0.8125
40
0.84375
40
0.84375
40
0.875
40
0.875
40
1
40
1
40
1
40
1
41
1
10
74.6346938029744
20
-4.59343792176296
30
0
41
1
10
74.6446055301041
20
-4.73568148353877
30
0
41
1
10
74.6542814047179
20
-4.87003290878201
30
0
41
1
10
74.6734455172542
20
-5.12337125816327
30
0
41
1
10
74.6829407033127
20
-5.24235700330655
30
0
41
1
10
74.7020255177787
20
-5.46496631720464
30
0
41
1
10
74.7116153392115
20
-5.56859078551386
30
0
41
1
10
74.7237894814487
20
-5.68826598336628
30
0
41
1
10
74.7262334877609
20
-5.71170719329803
30
0
41
1
10
74.7311423646734
20
-5.75759118640656
30
0
41
1
10
74.7336057103769
20
-5.78001779543379
30
0
41
1
10
74.7409905136304
20
-5.84544388433932
30
0
41
1
10
74.7459196495805
20
-5.88671079269648
30
0
41
1
10
74.7607401376629
20
-6.00358758371871
30
0
41
1
10
74.7805951995914
20
-6.14099000855458
30
0
41
1
10
74.8006478995419
20
-6.24211498667137
30
0
41
1
10
74.8156881429428
20
-6.3042102162583
30
0
41
1
10
74.8207008740252
20
-6.32261343776949
30
0
41
1
10
74.8282022156482
20
-6.34672187551772
30
0
41
1
10
74.8306996494397
20
-6.35417503289517
30
0
41
1
10
74.8356850306981
20
-6.367903235634
30
0
41
1
10
74.8381747553567
20
-6.37418262126189
30
0
41
1
10
74.8505604933728
20
-6.40249846788828
30
0
41
1
10
74.8602969190857
20
-6.41540045431168
30
0
41
1
10
74.8699988468017
20
-6.41864860330699
30
0
0
SPLINE
5
E3
100
AcDbEntity
8
1
62
256
6
ByLayer
370
18
48
1
60
0
100
AcDbSpline
70
4
71
3
72
30
73
26
40
0
40
0
40
0
40
0
40
0.0872350205393993
40
0.0872350205393993
40
0.217630017605201
40
0.217630017605201
40
0.348025014671002
40
0.348025014671002
40
0.380623763937452
40
0.380623763937452
40
0.413222513203902
40
0.413222513203902
40
0.478420011736802
40
0.478420011736802
40
0.608815008802602
40
0.608815008802602
40
0.739210005868402
40
0.739210005868402
40
0.804407504401302
40
0.804407504401302
40
0.837006253667752
40
0.837006253667752
40
0.869605002934202
40
0.869605002934202
40
1
40
1
40
1
40
1
41
1
10
74.6496094199073
20
-6.39672360021706
30
0
41
1
10
74.643012821092
20
-6.38532029583212
30
0
41
1
10
74.6364638992669
20
-6.36967260951056
30
0
41
1
10
74.6202431759333
20
-6.32023974785989
30
0
41
1
10
74.6105973413476
20
-6.28131009838188
30
0
41
1
10
74.5911838198972
20
-6.18484178114227
30
0
41
1
10
74.5814169669655
20
-6.12730426320135
30
0
41
1
10
74.5690452377937
20
-6.04344682089643
30
0
41
1
10
74.5665630127112
20
-6.02607725881902
30
0
41
1
10
74.5615816873466
20
-5.99012896110429
30
0
41
1
10
74.5590848266302
20
-5.97156479693473
30
0
41
1
10
74.5516077318238
20
-5.91435589700012
30
0
41
1
10
74.5466284400584
20
-5.87410758823762
30
0
41
1
10
74.5317083775165
20
-5.74714934634616
30
0
41
1
10
74.5217830471102
20
-5.65423985455317
30
0
41
1
10
74.5020508411201
20
-5.45213771274481
30
0
41
1
10
74.4922448395604
20
-5.3429449043941
30
0
41
1
10
74.477732322349
20
-5.16680583881344
30
0
41
1
10
74.4729335611851
20
-5.10603091113185
30
0
41
1
10
74.465747072631
20
-5.0117283792664
30
0
41
1
10
74.4633532673492
20
-4.9797706276286
30
0
41
1
10
74.4585612118952
20
-4.91479728713665
30
0
41
1
10
74.4561608689442
20
-4.88175182138562
30
0
41
1
10
74.4441775966984
20
-4.71451765466108
30
0
41
1
10
74.4346134702698
20
-4.57395603202175
30
0
41
1
10
74.4249138202748
20
-4.42670396697201
30
0
0
SPLINE
5
E4
100
AcDbEntity
8
1
62
256
6
ByLayer
370
13
48
1
60
0
100
AcDbSpline
70
4
71
3
72
9
73
5
40
0
40
0
40
0
40
0
40
0.390202647012495
40
1
40
1
40
1
40
1
41
1.04
10
73.7665928411828
20
-3.33865259360694
30
0
41
1.04
10
73.7945791780576
20
-3.7118708467437
30
0
41
1.04
10
73.8661147287781
20
-4.56444122068338
30
0
41
1.04
10
73.9356486449345
20
-5.04969011206368
30
0
41
1.04
10
73.9773579883792
20
-5.20281638108206
30
0
0
SPLINE
5
E5
100
AcDbEntity
8
1
62
256
6
ByLayer
370
18
48
1
60
0
100
AcDbSpline
70
4
71
3
72
30
73
26
40
0
40
0
40
0
40
0
40
0.0156249999999998
40
0.0156249999999998
40
0.0312499999999996
40
0.0312499999999996
40
0.0468749999999994
40
0.0468749999999994
40
0.0624999999999991
40
0.0624999999999991
40
0.0937499999999961
40
0.0937499999999961
40
0.124999999999993
40
0.124999999999993
40
0.187499999999997
40
0.187499999999997
40
0.250000000000001
40
0.250000000000001
40
0.375
40
0.375
40
0.5
40
0.5
40
0.75
40
0.75
40
1
40
1
40
1
40
1
41
1
10
63.6001994786671
20
3.00005837542457
30
0
41
1
10
63.5983855395563
20
2.99826711595048
30
0
41
1
10
63.596683103568
20
2.99536862436335
30
0
41
1
10
63.5937970494189
20
2.98903881433387
30
0
41
1
10
63.5925914444081
20
2.98565488918194
30
0
41
1
10
63.590436438882
20
2.97885256429799
30
0
41
1
10
63.5894886169495
20
2.97541174121503
30
0
41
1
10
63.5877684459089
20
2.96862904318729
30
0
41
1
10
63.5869900243209
20
2.96525777390289
30
0
41
1
10
63.5848081005575
20
2.95518069966803
30
0
41
1
10
63.5835549948749
20
2.94851087147092
30
0
41
1
10
63.5812582642725
20
2.93521789407723
30
0
41
1
10
63.5802181740798
20
2.9285871839285
30
0
41
1
10
63.5773216169516
20
2.90883801012887
30
0
41
1
10
63.5756779058933
20
2.89582939929827
30
0
41
1
10
63.5726851859681
20
2.86995161495159
30
0
41
1
10
63.5713432003493
20
2.85708683623719
30
0
41
1
10
63.5676115457449
20
2.81860879135948
30
0
41
1
10
63.5655105483437
20
2.79310826567399
30
0
41
1
10
63.5617175763776
20
2.7421809462314
30
0
41
1
10
63.560034303416
20
2.71676040569898
30
0
41
1
10
63.5553963451065
20
2.64051334116391
30
0
41
1
10
63.5528445729805
20
2.58968158979189
30
0
41
1
10
63.5482993227399
20
2.48766456730118
30
0
41
1
10
63.5463173663597
20
2.43648716073551
30
0
41
1
10
63.5445071957932
20
2.38506105724352
30
0
0
SPLINE
5
E6
100
AcDbEntity
8
1
62
256
6
ByLayer
370
13
48
1
60
0
100
AcDbSpline
70
4
71
3
72
9
73
5
40
0
40
0
40
0
40
0
40
0.536695063387369
40
1
40
1
40
1
40
1
41
1.04
10
73.0777212258716
20
5.32344540154659
30
0
41
1.04
10
73.1136253280417
20
5.30311750392831
30
0
41
1.04
10
73.1816411165107
20
5.06542827334851
30
0
41
1.04
10
73.2538881010113
20
4.42137843642257
30
0
41
1.04
10
73.2886301245793
20
4.03360361184602
30
0
0
SPLINE
5
E7
100
AcDbEntity
8
1
62
256
6
ByLayer
370
18
48
1
60
0
100
AcDbSpline
70
4
71
3
72
30
73
26
40
0
40
0
40
0
40
0
40
0.125
40
0.125
40
0.249999999999999
40
0.249999999999999
40
0.374999999999999
40
0.374999999999999
40
0.406249999999999
40
0.406249999999999
40
0.437499999999999
40
0.437499999999999
40
0.499999999999999
40
0.499999999999999
40
0.625
40
0.625
40
0.750000000000001
40
0.750000000000001
40
0.812500000000001
40
0.812500000000001
40
0.843750000000001
40
0.843750000000001
40
0.875000000000001
40
0.875000000000001
40
1
40
1
40
1
40
1
41
1
10
73.9704311441854
20
4.12040999708563
30
0
41
1
10
73.9603620684881
20
4.27651757342701
30
0
41
1
10
73.9504540153948
20
4.42536205197976
30
0
41
1
10
73.9308673553845
20
4.70891039649626
30
0
41
1
10
73.9211876198499
20
4.84361330752739
30
0
41
1
10
73.9018900093967
20
5.0988754258936
30
0
41
1
10
73.8922710644444
20
5.21943540718399
30
0
41
1
10
73.8801563249578
20
5.36105574307311
30
0
41
1
10
73.8777287710913
20
5.38892484454894
30
0
41
1
10
73.8728611004203
20
5.44374302788148
30
0
41
1
10
73.8704241598517
20
5.47065487896578
30
0
41
1
10
73.8631276325918
20
5.54959701410493
30
0
41
1
10
73.8582711467186
20
5.59996008398582
30
0
41
1
10
73.8436913145015
20
5.74437491711279
30
0
41
1
10
73.8339545032965
20
5.83176686358135
30
0
41
1
10
73.8143278185229
20
5.98905586150227
30
0
41
1
10
73.804435234388
20
6.05895280628337
30
0
41
1
10
73.7895223191821
20
6.15053255227954
30
0
41
1
10
73.7845389074919
20
6.17884453944612
30
0
41
1
10
73.7770463472416
20
6.21793820302187
30
0
41
1
10
73.7745458815062
20
6.23040679077164
30
0
41
1
10
73.7695388080597
20
6.25420687773342
30
0
41
1
10
73.7670303695701
20
6.26554519211103
30
0
41
1
10
73.7545228033183
20
6.31914933895331
30
0
41
1
10
73.7445945738308
20
6.35235360901672
30
0
41
1
10
73.7347097209489
20
6.37598698271822
30
0
0
SPLINE
5
E8
100
AcDbEntity
8
1
62
256
6
ByLayer
370
18
48
1
60
0
100
AcDbSpline
70
4
71
3
72
29
73
25
40
0
40
0
40
0
40
0
40
0.125000000000001
40
0.125000000000001
40
0.250000000000002
40
0.250000000000002
40
0.375000000000003
40
0.375000000000003
40
0.406250000000003
40
0.406250000000003
40
0.437500000000003
40
0.437500000000003
40
0.500000000000004
40
0.500000000000004
40
0.625000000000004
40
0.750000000000004
40
0.750000000000004
40
0.812500000000004
40
0.812500000000004
40
0.843750000000004
40
0.843750000000004
40
0.875000000000003
40
0.875000000000003
40
1
40
1
40
1
40
1
41
1
10
73.944104071341
20
6.34420742921941
30
0
41
1
10
73.954011476036
20
6.3131217807275
30
0
41
1
10
73.9640080288662
20
6.27270120863551
30
0
41
1
10
73.9841426965553
20
6.17370348130305
30
0
41
1
10
73.9942817759363
20
6.11512532834192
30
0
41
1
10
74.0144404645147
20
5.97982236863714
30
0
41
1
10
74.0244015792962
20
5.90309742399162
30
0
41
1
10
74.0367077933012
20
5.79554858503019
30
0
41
1
10
74.0391638956066
20
5.77345546236228
30
0
41
1
10
74.0440700148112
20
5.72808986094978
30
0
41
1
10
74.0465186177789
20
5.70482856154703
30
0
41
1
10
74.0538226600958
20
5.63365071625571
30
0
41
1
10
74.0586492335246
20
5.58422391529282
30
0
41
1
10
74.0730543390315
20
5.43012685576954
30
0
41
1
10
74.0920653711355
20
5.20917847973524
30
0
41
1
10
74.1111953358738
20
4.95776552789337
30
0
41
1
10
74.1257353617047
20
4.75766513570088
30
0
41
1
10
74.1306135171853
20
4.68903841711128
30
0
41
1
10
74.1379906974049
20
4.58316415091264
30
0
41
1
10
74.1404597049203
20
4.54738348298449
30
0
41
1
10
74.1454191620884
20
4.47483359133227
30
0
41
1
10
74.1479119328976
20
4.43802939092188
30
0
41
1
10
74.1603851013097
20
4.25221270683917
30
0
41
1
10
74.1704229659897
20
4.09748869266792
30
0
41
1
10
74.1805017323725
20
3.9367553842402
30
0
0
SPLINE
5
E9
100
AcDbEntity
8
1
62
256
6
ByLayer
370
13
48
1
60
0
100
AcDbSpline
70
4
71
3
72
9
73
5
40
0
40
0
40
0
40
0
40
0.0989275834103454
40
1
40
1
40
1
40
1
41
1
10
74.6241916447654
20
5.08216582690812
30
0
41
1
10
74.6314319961969
20
5.04542210344141
30
0
41
1
10
74.7043616181574
20
4.63352585689785
30
0
41
1
10
74.7742807565776
20
3.82375654529216
30
0
41
1
10
74.8351329269497
20
2.95751695431849
30
0
0
SPLINE
5
EA
100
AcDbEntity
8
1
62
256
6
ByLayer
370
18
48
1
60
0
100
AcDbSpline
70
4
71
3
72
10
73
6
40
0
40
0
40
0
40
0
40
0.0499583386101958
40
0.498471676412062
40
1
40
1
40
1
40
1
41
1
10
81.8199999999999
20
-0.0120229472578046
30
0
41
1
10
81.8199999999999
20
-0.0585362458750751
30
0
41
1
10
81.8199999999999
20
-0.523040890274274
30
0
41
1
10
81.8200000000001
20
-1.45917481512927
30
0
41
1
10
81.82
20
-2.27378156094204
30
0
41
1
10
81.82
20
-2.66271936573418
30
0
0
SPLINE
5
EB
100
AcDbEntity
8
1
62
256
6
ByLayer
370
13
48
1
60
0
100
AcDbSpline
70
4
71
3
72
9
73
5
40
0
40
0
40
0
40
0
40
0.921086003405905
40
1
40
1
40
1
40
1
41
1.04
10
63.6001994786672
20
3.0000583754235
30
0
41
1.04
10
63.6142538254603
20
2.80122471999765
30
0
41
1.04
10
63.6295702986943
20
2.57487557865484
30
0
41
1.04
10
63.6448036711557
20
2.34113107889947
30
0
41
1.04
10
63.646005276765
20
2.32264072112433
30
0
0
SPLINE
5
EC
100
AcDbEntity
8
1
62
256
6
ByLayer
370
18
48
1
60
0
100
AcDbSpline
70
4
71
3
72
8
73
4
40
0
40
0
40
0
40
0
40
1
40
1
40
1
40
1
41
1
10
63.82
20
3.21668487140852
30
0
41
1
10
63.7467326036431
20
3.14461761630554
30
0
41
1
10
63.6734657242573
20
3.07240857492329
30
0
41
1
10
63.6001994786671
20
3.00005837542463
30
0
0
SPLINE
5
ED
100
AcDbEntity
8
1
62
256
6
ByLayer
370
18
48
1
60
0
100
AcDbSpline
70
4
71
3
72
16
73
12
40
0
40
0
40
0
40
0
40
0.125
40
0.125
40
0.25
40
0.25
40
0.5
40
0.5
40
0.75
40
0.75
40
1
40
1
40
1
40
1
41
1
10
81.2598841933789
20
-2.61213365280102
30
0
41
1
10
81.2589604216519
20
-2.5400006278343
30
0
41
1
10
81.257890675462
20
-2.4669653238727
30
0
41
1
10
81.2554922433851
20
-2.31907896898039
30
0
41
1
10
81.2541646976693
20
-2.24414176797504
30
0
41
1
10
81.2498916746242
20
-2.01788742666579
30
0
41
1
10
81.2466540255731
20
-1.86478954827882
30
0
41
1
10
81.2396701559701
20
-1.55409508461432
30
0
41
1
10
81.2359214401765
20
-1.39649918009124
30
0
41
1
10
81.2281141618878
20
-1.07668165308598
30
0
41
1
10
81.2240273606862
20
-0.914460403718266
30
0
41
1
10
81.2199525027489
20
-0.749774857410927
30
0
0
SPLINE
5
EE
100
AcDbEntity
8
1
62
256
6
ByLayer
370
18
48
1
60
0
100
AcDbSpline
70
4
71
3
72
26
73
22
40
0
40
0
40
0
40
0
40
0.125
40
0.125
40
0.187500000000001
40
0.187500000000001
40
0.250000000000001
40
0.250000000000001
40
0.375000000000001
40
0.500000000000001
40
0.500000000000001
40
0.625000000000001
40
0.625000000000001
40
0.656250000000001
40
0.656250000000001
40
0.687500000000001
40
0.750000000000001
40
0.750000000000001
40
0.875
40
0.875
40
1
40
1
40
1
40
1
41
1
10
79.4228444576503
20
-1.09582370317398
30
0
41
1
10
79.4134959593051
20
-0.950026493116667
30
0
41
1
10
79.4041191797786
20
-0.803148183899054
30
0
41
1
10
79.3899701526244
20
-0.581212168940823
30
0
41
1
10
79.3852611198181
20
-0.507226334426292
30
0
41
1
10
79.3758855117827
20
-0.359497122256812
30
0
41
1
10
79.3712160932257
20
-0.285711786165365
30
0
41
1
10
79.3572398206922
20
-0.0645911750744119
30
0
41
1
10
79.3386902370174
20
0.22960968455817
30
0
41
1
10
79.3200594026395
20
0.522555179160236
30
0
41
1
10
79.3012524909149
20
0.814853869350543
30
0
41
1
10
79.2917384424453
20
0.960677521557471
30
0
41
1
10
79.2797203021459
20
1.14253707366581
30
0
41
1
10
79.2773129776473
20
1.17887575746411
30
0
41
1
10
79.2725164316068
20
1.25116487833091
30
0
41
1
10
79.2653401554303
20
1.35914566293974
30
0
41
1
10
79.2582369985105
20
1.46578375302184
30
0
41
1
10
79.2441700212659
20
1.67729834723869
30
0
41
1
10
79.2349946090285
20
1.81596334562201
30
0
41
1
10
79.2171240936981
20
2.08864727920792
30
0
41
1
10
79.2083895073645
20
2.22266714259939
30
0
41
1
10
79.1996469259007
20
2.35432286289426
30
0
0
SPLINE
5
EF
100
AcDbEntity
8
1
62
256
6
ByLayer
370
18
48
1
60
0
100
AcDbSpline
70
4
71
3
72
44
73
40
40
0
40
0
40
0
40
0
40
0.0039062499999958
40
0.0039062499999958
40
0.0078124999999917
40
0.0078124999999917
40
0.0097656249999896
40
0.0097656249999896
40
0.0117187499999875
40
0.0117187499999875
40
0.0156249999999833
40
0.0156249999999833
40
0.0195312499999791
40
0.0195312499999791
40
0.023437499999975
40
0.023437499999975
40
0.0312499999999744
40
0.0312499999999744
40
0.0468749999999734
40
0.0468749999999734
40
0.0624999999999723
40
0.0624999999999723
40
0.0937499999999732
40
0.0937499999999732
40
0.124999999999974
40
0.124999999999974
40
0.187499999999976
40
0.187499999999976
40
0.249999999999978
40
0.249999999999978
40
0.312499999999979
40
0.312499999999979
40
0.374999999999981
40
0.374999999999981
40
0.499999999999985
40
0.499999999999985
40
0.749999999999992
40
0.749999999999992
40
1
40
1
40
1
40
1
41
1
10
81.2199525027488
20
-0.749774857413314
30
0
41
1
10
81.2186361457642
20
-0.747543720740339
30
0
41
1
10
81.217224550887
20
-0.745377525400528
30
0
41
1
10
81.2140146520161
20
-0.741308970033913
30
0
41
1
10
81.2122334097154
20
-0.739387397439941
30
0
41
1
10
81.2089785726391
20
-0.737241501566189
30
0
41
1
10
81.2077901908841
20
-0.736665291816621
30
0
41
1
10
81.205280277909
20
-0.736081863292441
30
0
41
1
10
81.2039533065609
20
-0.736097214388394
30
0
41
1
10
81.2002412597969
20
-0.737102486312949
30
0
41
1
10
81.1982212772734
20
-0.738882639338982
30
0
41
1
10
81.1949477737806
20
-0.74276030643108
30
0
41
1
10
81.1936090851537
20
-0.744954659791574
30
0
41
1
10
81.1912532466708
20
-0.74941346054112
30
0
41
1
10
81.1902278790646
20
-0.751714686516948
30
0
41
1
10
81.1874039409157
20
-0.758736599831082
30
0
41
1
10
81.1858535733321
20
-0.763581987618096
30
0
41
1
10
81.1817081151104
20
-0.778142860738257
30
0
41
1
10
81.1795891036734
20
-0.787978525643382
30
0
41
1
10
81.1758338508021
20
-0.80773986598868
30
0
41
1
10
81.1742287975197
20
-0.817671989109726
30
0
41
1
10
81.1698727975064
20
-0.847548484970275
30
0
41
1
10
81.1675753932012
20
-0.86757418959391
30
0
41
1
10
81.1635629364205
20
-0.907578419548599
30
0
41
1
10
81.1618634501166
20
-0.927582799354354
30
0
41
1
10
81.1573191286613
20
-0.987572668770952
30
0
41
1
10
81.1550185329297
20
-1.02753408287921
30
0
41
1
10
81.1511504779345
20
-1.10733428004312
30
0
41
1
10
81.149602121818
20
-1.14717464541266
30
0
41
1
10
81.1469959436834
20
-1.2267132725716
30
0
41
1
10
81.1459434268172
20
-1.2663923246769
30
0
41
1
10
81.1442002377439
20
-1.34536558153184
30
0
41
1
10
81.1435101157652
20
-1.3846883252973
30
0
41
1
10
81.1418574709109
20
-1.50216563029863
30
0
41
1
10
81.1413062691439
20
-1.57982941996264
30
0
41
1
10
81.1407709739221
20
-1.81086697040246
30
0
41
1
10
81.1418869993149
20
-1.96229224233434
30
0
41
1
10
81.1459736138745
20
-2.25991140949657
30
0
41
1
10
81.1489856383708
20
-2.40610409410223
30
0
41
1
10
81.1527229786969
20
-2.54958668771906
30
0
0
SPLINE
5
F0
100
AcDbEntity
8
1
62
256
6
ByLayer
370
18
48
1
60
0
100
AcDbSpline
70
4
71
3
72
9
73
5
40
0
40
0
40
0
40
0
40
0.92619644946728
40
1
40
1
40
1
40
1
41
1
10
81.2199525027488
20
-0.749774857404361
30
0
41
1
10
81.2199523215196
20
-0.344311557571302
30
0
41
1
10
81.2199626041308
20
0.100175888739358
30
0
41
1
10
81.2199633860233
20
0.536296579910811
30
0
41
1
10
81.2199633993426
20
0.568433194689305
30
0
0
SPLINE
5
F1
100
AcDbEntity
8
1
62
256
6
ByLayer
370
13
48
1
60
0
100
AcDbSpline
70
4
71
3
72
10
73
6
40
0
40
0
40
0
40
0
40
0.27911179978573
40
0.931237216884551
40
1
40
1
40
1
40
1
41
1
10
78.7563704342811
20
2.76373108065775
30
0
41
1
10
78.776270476099
20
2.47238636650698
30
0
41
1
10
78.8423566121581
20
1.44851359689983
30
0
41
1
10
78.9126180138576
20
0.227207053988991
30
0
41
1
10
78.9629353814094
20
-0.630049689480785
30
0
41
1
10
78.967731939767
20
-0.711520587682742
30
0
0
SPLINE
5
F2
100
AcDbEntity
8
1
62
256
6
ByLayer
370
18
48
1
60
0
100
AcDbSpline
70
4
71
3
72
10
73
6
40
0
40
0
40
0
40
0
40
0.5
40
0.5
40
1
40
1
40
1
40
1
41
1
10
63.8890350152365
20
2.18117989673436
30
0
41
1
10
63.8771962851611
20
2.36271941639836
30
0
41
1
10
63.8655963954679
20
2.53979834197483
30
0
41
1
10
63.8428455421966
20
2.88504093728707
30
0
41
1
10
63.831563264872
20
3.05319017137688
30
0
41
1
10
63.8199999999999
20
3.21668487140934
30
0
0
SPLINE
5
F3
100
AcDbEntity
8
1
62
256
6
ByLayer
370
13
48
1
60
0
100
AcDbSpline
70
4
71
3
72
11
73
7
40
0
40
0
40
0
40
0
40
0.0058374104961434
40
0.378381880969321
40
0.74701136786794
40
1
40
1
40
1
40
1
41
1
10
64.9825440323804
20
4.02399273019924
30
0
41
1
10
64.9829453799094
20
4.01948557933744
30
0
41
1
10
65.0089665367128
20
3.72658699922954
30
0
41
1
10
65.0610760824281
20
3.05311328434152
30
0
41
1
10
65.1314811036904
20
1.97509064457421
30
0
41
1
10
65.1749870078338
20
1.25402611317438
30
0
41
1
10
65.192633693949
20
0.95677900768203
30
0
0
SPLINE
5
F4
100
AcDbEntity
8
1
62
256
6
ByLayer
370
18
48
1
60
0
100
AcDbSpline
70
4
71
3
72
29
73
25
40
0
40
0
40
0
40
0
40
0.0624999999999997
40
0.0937499999999995
40
0.0937499999999995
40
0.124999999999999
40
0.124999999999999
40
0.249999999999999
40
0.249999999999999
40
0.374999999999999
40
0.374999999999999
40
0.499999999999999
40
0.499999999999999
40
0.562499999999998
40
0.562499999999998
40
0.593749999999998
40
0.593749999999998
40
0.624999999999998
40
0.624999999999998
40
0.749999999999999
40
0.749999999999999
40
0.874999999999999
40
0.874999999999999
40
1
40
1
40
1
40
1
41
1
10
64.6717357619255
20
4.66167897167318
30
0
41
1
10
64.6760509365269
20
4.61005089695374
30
0
41
1
10
64.6825120423558
20
4.5300964522315
30
0
41
1
10
64.6889542745289
20
4.44631277405307
30
0
41
1
10
64.6932449087441
20
4.38959670796157
30
0
41
1
10
64.6953868192304
20
4.36081924446506
30
0
41
1
10
64.7060381804704
20
4.21551370602455
30
0
41
1
10
64.7144301739409
20
4.09417823924949
30
0
41
1
10
64.7312374717377
20
3.84164969235562
30
0
41
1
10
64.7396514028504
20
3.71045579280502
30
0
41
1
10
64.7566021545138
20
3.43827023424544
30
0
41
1
10
64.7651275643137
20
3.29727740923519
30
0
41
1
10
64.778010322473
20
3.07830043321468
30
0
41
1
10
64.7823249106872
20
3.0040588947611
30
0
41
1
10
64.7888403676084
20
2.89078932535642
30
0
41
1
10
64.7910197935391
20
2.85270674829451
30
0
41
1
10
64.7953719806556
20
2.77629075766797
30
0
41
1
10
64.7975474894064
20
2.73790975325127
30
0
41
1
10
64.8084228770545
20
2.54514808869615
30
0
41
1
10
64.8171231757856
20
2.38820343021396
30
0
41
1
10
64.8344317422374
20
2.06896115068633
30
0
41
1
10
64.8430085368849
20
1.9066602968781
30
0
41
1
10
64.8599932450047
20
1.57669455510231
30
0
41
1
10
64.8684262578638
20
1.40903228079873
30
0
41
1
10
64.8768877401631
20
1.23863311596679
30
0
0
SPLINE
5
F5
100
AcDbEntity
8
1
62
256
6
ByLayer
370
13
48
1
60
0
100
AcDbSpline
70
4
71
3
72
9
73
5
40
0
40
0
40
0
40
0
40
0.531931240320055
40
1
40
1
40
1
40
1
41
1
10
73.246797031848
20
-2.94785758807615
30
0
41
1
10
73.2847658184017
20
-3.4884354539717
30
0
41
1
10
73.3561775857288
20
-4.38260721290192
30
0
41
1
10
73.4256100405028
20
-4.91248702896888
30
0
41
1
10
73.4576987088371
20
-5.07808295227451
30
0
0
SPLINE
5
F6
100
AcDbEntity
8
1
62
256
6
ByLayer
370
18
48
1
60
0
100
AcDbSpline
70
4
71
3
72
30
73
26
40
0
40
0
40
0
40
0
40
0.124999999999999
40
0.124999999999999
40
0.249999999999998
40
0.249999999999998
40
0.374999999999998
40
0.374999999999998
40
0.406249999999998
40
0.406249999999998
40
0.437499999999998
40
0.437499999999998
40
0.499999999999997
40
0.499999999999997
40
0.624999999999997
40
0.624999999999997
40
0.749999999999997
40
0.749999999999997
40
0.812499999999998
40
0.812499999999998
40
0.843749999999998
40
0.843749999999998
40
0.874999999999998
40
0.874999999999998
40
1
40
1
40
1
40
1
41
1
10
72.5686153721198
20
-2.71235226873713
30
0
41
1
10
72.578483389358
20
-2.89681708898277
30
0
41
1
10
72.5880390080812
20
-3.07594106222899
30
0
41
1
10
72.6069681656177
20
-3.4237782917485
30
0
41
1
10
72.61635792099
20
-3.59249024660431
30
0
41
1
10
72.6353612462851
20
-3.91949471553556
30
0
41
1
10
72.6449748390359
20
-4.07778788139998
30
0
41
1
10
72.6572595425904
20
-4.26896814055638
30
0
41
1
10
72.6597294488373
20
-4.30686917754829
30
0
41
1
10
72.6646966632345
20
-4.38199392940615
30
0
41
1
10
72.6671924990418
20
-4.419193615539
30
0
41
1
10
72.6746817178712
20
-4.52918358465848
30
0
41
1
10
72.6796900946513
20
-4.60056178654091
30
0
41
1
10
72.6947509398437
20
-4.80895748429506
30
0
41
1
10
72.7048456159361
20
-4.94024858818867
30
0
41
1
10
72.7249310894859
20
-5.18780271800352
30
0
41
1
10
72.7348754829487
20
-5.30406687791907
30
0
41
1
10
72.7495991332813
20
-5.46707288395908
30
0
41
1
10
72.7544856518605
20
-5.51950641730781
30
0
41
1
10
72.7618100924861
20
-5.59525881522541
30
0
41
1
10
72.7642506758253
20
-5.62002642189842
30
0
41
1
10
72.7691343849657
20
-5.6685851089556
30
0
41
1
10
72.7715797721445
20
-5.69239705235168
30
0
41
1
10
72.7837777430731
20
-5.80855503526325
30
0
41
1
10
72.7934703172562
20
-5.892465197646
30
0
41
1
10
72.8032078898993
20
-5.96744843917827
30
0
0
SPLINE
5
F7
100
AcDbEntity
8
1
62
256
6
ByLayer
370
18
48
1
60
0
100
AcDbSpline
70
4
71
3
72
28
73
24
40
0
40
0
40
0
40
0
40
0.125000000000001
40
0.125000000000001
40
0.250000000000002
40
0.250000000000002
40
0.375000000000002
40
0.375000000000002
40
0.406250000000002
40
0.406250000000002
40
0.437500000000003
40
0.437500000000003
40
0.500000000000002
40
0.500000000000002
40
0.625000000000001
40
0.749999999999999
40
0.749999999999999
40
0.812499999999999
40
0.843749999999999
40
0.843749999999999
40
0.874999999999999
40
0.874999999999999
40
1
40
1
40
1
40
1
41
1
10
72.5942341140729
20
-5.87698884720564
30
0
41
1
10
72.5845328960394
20
-5.79508051698372
30
0
41
1
10
72.5747516382283
20
-5.70489184817902
30
0
41
1
10
72.5549431426234
20
-5.50840828405501
30
0
41
1
10
72.5449167170584
20
-5.40211246544663
30
0
41
1
10
72.5247257212604
20
-5.17342254771015
30
0
41
1
10
72.5145610656623
20
-5.05102949803458
30
0
41
1
10
72.5019488074437
20
-4.88770512724406
30
0
41
1
10
72.4994314870179
20
-4.85452245051275
30
0
41
1
10
72.4944134583455
20
-4.78710990528276
30
0
41
1
10
72.4919159314138
20
-4.75290900751702
30
0
41
1
10
72.4844907628853
20
-4.649279549282
30
0
41
1
10
72.4796128624217
20
-4.57865856989025
30
0
41
1
10
72.4650896826173
20
-4.36227730408692
30
0
41
1
10
72.4460061053242
20
-4.06174022254794
30
0
41
1
10
72.4267098486705
20
-3.7375509761971
30
0
41
1
10
72.4120409657612
20
-3.48544860002181
30
0
41
1
10
72.4046600495994
20
-3.35715353377691
30
0
41
1
10
72.3972139457428
20
-3.2254397640157
30
0
41
1
10
72.3922379360473
20
-3.13686232939037
30
0
41
1
10
72.3897417247755
20
-3.09215042403562
30
0
41
1
10
72.3772881770586
20
-2.86754272983219
30
0
41
1
10
72.3674214200935
20
-2.68399159258757
30
0
41
1
10
72.357627276227
20
-2.4966199990715
30
0
0
SPLINE
5
F8
100
AcDbEntity
8
1
62
256
6
ByLayer
370
13
48
1
60
0
100
AcDbSpline
70
4
71
3
72
10
73
6
40
0
40
0
40
0
40
0
40
0.221751652194047
40
0.774471330661042
40
1
40
1
40
1
40
1
41
1.04
10
71.7004899211674
20
-1.65965220124696
30
0
41
1.04
10
71.7156152748559
20
-1.9056400570762
30
0
41
1.04
10
71.7689049427351
20
-2.75158142171332
30
0
41
1.04
10
71.839880121999
20
-3.74190551103766
30
0
41
1.04
10
71.8951438013994
20
-4.3156303048178
30
0
41
1.04
10
71.9111156946098
20
-4.4641049633325
30
0
0
SPLINE
5
F9
100
AcDbEntity
8
1
62
256
6
ByLayer
370
13
48
1
60
0
100
AcDbSpline
70
4
71
3
72
9
73
5
40
0
40
0
40
0
40
0
40
0.880464138725944
40
1
40
1
40
1
40
1
41
1.04
10
75.1438142562977
20
4.91862648223682
30
0
41
1.04
10
75.2083427142323
20
4.49558139902007
30
0
41
1.04
10
75.2789298516648
20
3.66372035383035
30
0
41
1.04
10
75.3468153875455
20
2.66481495929547
30
0
41
1.04
10
75.3548935507365
20
2.54339763879501
30
0
0
SPLINE
5
FA
100
AcDbEntity
8
1
62
256
6
ByLayer
370
18
48
1
60
0
100
AcDbSpline
70
4
71
3
72
24
73
20
40
0
40
0
40
0
40
0
40
0.125000000000002
40
0.125000000000002
40
0.187500000000003
40
0.218750000000003
40
0.218750000000003
40
0.250000000000003
40
0.250000000000003
40
0.500000000000002
40
0.500000000000002
40
0.625000000000002
40
0.625000000000002
40
0.687500000000001
40
0.718750000000001
40
0.718750000000001
40
0.750000000000001
40
0.750000000000001
40
1
40
1
40
1
40
1
41
1
10
78.7340091518068
20
2.80575176288994
30
0
41
1
10
78.7433198625648
20
2.67585434989942
30
0
41
1
10
78.752671301276
20
2.54271135354395
30
0
41
1
10
78.7666639909529
20
2.33816695979655
30
0
41
1
10
78.7736519821214
20
2.23468487685364
30
0
41
1
10
78.7806117741914
20
2.12937314275567
30
0
41
1
10
78.7852437723195
20
2.05875551910367
30
0
41
1
10
78.7875583414803
20
2.02320287900264
30
0
41
1
10
78.8082832964221
20
1.70235861644306
30
0
41
1
10
78.8257985003816
20
1.41154727398444
30
0
41
1
10
78.8522498451841
20
0.967111708894862
30
0
41
1
10
78.8610645739161
20
0.817600300564777
30
0
41
1
10
78.874334680085
20
0.591278219941557
30
0
41
1
10
78.8809819246992
20
0.477602533441654
30
0
41
1
10
78.8876590231064
20
0.363145309687241
30
0
41
1
10
78.8921184913216
20
0.286665130219319
30
0
41
1
10
78.894354342017
20
0.248301540571219
30
0
41
1
10
78.9144631395074
20
-0.0967926901624026
30
0
41
1
10
78.9322541351613
20
-0.402332825655094
30
0
41
1
10
78.9502996644165
20
-0.70662519422217
30
0
0
SPLINE
5
FB
100
AcDbEntity
8
1
62
256
6
ByLayer
370
18
48
1
60
0
100
AcDbSpline
70
4
71
3
72
26
73
22
40
0
40
0
40
0
40
0
40
0.125
40
0.125
40
0.250000000000001
40
0.250000000000001
40
0.312500000000001
40
0.312500000000001
40
0.375000000000001
40
0.375000000000001
40
0.500000000000001
40
0.500000000000001
40
0.625000000000001
40
0.625000000000001
40
0.750000000000001
40
0.750000000000001
40
0.812500000000001
40
0.812500000000001
40
0.875000000000001
40
0.875000000000001
40
1
40
1
40
1
40
1
41
1
10
77.7082985312136
20
0.382003045132535
30
0
41
1
10
77.6999140427864
20
0.554069891388451
30
0
41
1
10
77.6915334848819
20
0.724954927147905
30
0
41
1
10
77.6747654578714
20
1.064393775198
30
0
41
1
10
77.6663860772016
20
1.23295177926568
30
0
41
1
10
77.6538203642996
20
1.48404149026419
30
0
41
1
10
77.6496319066706
20
1.56744625996751
30
0
41
1
10
77.6412493814607
20
1.73366413882536
30
0
41
1
10
77.6370528232289
20
1.81652621911707
30
0
41
1
10
77.624456221058
20
2.0639017115366
30
0
41
1
10
77.6161572149057
20
2.22510954406639
30
0
41
1
10
77.5996471837283
20
2.54028261140024
30
0
41
1
10
77.5914177345201
20
2.6942315240247
30
0
41
1
10
77.5750501477777
20
2.99496025473539
30
0
41
1
10
77.5669349172322
20
3.141746569151
30
0
41
1
10
77.5548368112148
20
3.35651831914842
30
0
41
1
10
77.550812239931
20
3.42720647475539
30
0
41
1
10
77.5427537468463
20
3.5667510241592
30
0
41
1
10
77.5387134569569
20
3.63571154562104
30
0
41
1
10
77.5266160376789
20
3.83845074640527
30
0
41
1
10
77.5185565147307
20
3.96841404608435
30
0
41
1
10
77.5104134931491
20
4.09318306016664
30
0
0
SPLINE
5
FC
100
AcDbEntity
8
1
62
256
6
ByLayer
370
13
48
1
60
0
100
AcDbSpline
70
4
71
3
72
9
73
5
40
0
40
0
40
0
40
0
40
0.379139319782774
40
1
40
1
40
1
40
1
41
1.04
10
77.2099239970755
20
3.87766887628395
30
0
41
1.04
10
77.2365629325793
20
3.56500257737349
30
0
41
1.04
10
77.3068326531372
20
2.62987355583371
30
0
41
1.04
10
77.3770224761455
20
1.47505452443408
30
0
41
1.04
10
77.4212298829937
20
0.724249217396423
30
0
0
SPLINE
5
FD
100
AcDbEntity
8
1
62
256
6
ByLayer
370
13
48
1
60
0
100
AcDbSpline
70
4
71
3
72
9
73
5
40
0
40
0
40
0
40
0
40
0.519486490136326
40
1
40
1
40
1
40
1
41
1
10
76.6903345973752
20
4.19165720559559
30
0
41
1
10
76.7268570918453
20
3.80505964896469
30
0
41
1
10
76.7971927982255
20
2.89609358169827
30
0
41
1
10
76.8674484961204
20
1.7688325748627
30
0
41
1
10
76.9014955664009
20
1.20046029004786
30
0
0
SPLINE
5
FE
100
AcDbEntity
8
1
62
256
6
ByLayer
370
18
48
1
60
0
100
AcDbSpline
70
4
71
3
72
29
73
25
40
0
40
0
40
0
40
0
40
0.125000000000001
40
0.125000000000001
40
0.250000000000001
40
0.250000000000001
40
0.375000000000002
40
0.375000000000002
40
0.406250000000002
40
0.406250000000002
40
0.437500000000002
40
0.437500000000002
40
0.500000000000002
40
0.500000000000002
40
0.625000000000002
40
0.625000000000002
40
0.750000000000002
40
0.750000000000002
40
0.812500000000002
40
0.843750000000002
40
0.843750000000002
40
0.875000000000002
40
0.875000000000002
40
1
40
1
40
1
40
1
41
1
10
76.0370612800319
20
2.11300967702485
30
0
41
1
10
76.0270286070992
20
2.30538244813852
30
0
41
1
10
76.0170393014369
20
2.49324807741962
30
0
41
1
10
75.997180931084
20
2.86021104812039
30
0
41
1
10
75.9873129550928
20
3.0393078881163
30
0
41
1
10
75.9677491708436
20
3.38873881038629
30
0
41
1
10
75.9580789008533
20
3.55907441339957
30
0
41
1
10
75.9460377291497
20
3.76636851505614
30
0
41
1
10
75.9436296603955
20
3.80754536734321
30
0
41
1
10
75.9388074501788
20
3.88932869257718
30
0
41
1
10
75.9363957480192
20
3.92989266929038
30
0
41
1
10
75.9291810102839
20
4.05009172686255
30
0
41
1
10
75.9243862575958
20
4.12843418325866
30
0
41
1
10
75.9099914143065
20
4.35818524628348
30
0
41
1
10
75.9003764450042
20
4.50432895726934
30
0
41
1
10
75.8809343147685
20
4.78278439035833
30
0
41
1
10
75.8711084030638
20
4.91509606813588
30
0
41
1
10
75.8561736760101
20
5.10307585327502
30
0
41
1
10
75.8486586224516
20
5.19443954619163
30
0
41
1
10
75.8410750611361
20
5.28180212735802
30
0
41
1
10
75.8360050795316
20
5.33914484105119
30
0
41
1
10
75.8334608948142
20
5.36738807072911
30
0
41
1
10
75.8207585049691
20
5.50577655473947
30
0
41
1
10
75.8106208942153
20
5.60784598777269
30
0
41
1
10
75.8005650307574
20
5.70137408733873
30
0
0
SPLINE
5
FF
100
AcDbEntity
8
1
62
256
6
ByLayer
370
18
48
1
60
0
100
AcDbSpline
70
4
71
3
72
30
73
26
40
0
40
0
40
0
40
0
40
0.124999999999999
40
0.124999999999999
40
0.249999999999998
40
0.249999999999998
40
0.374999999999997
40
0.374999999999997
40
0.406249999999997
40
0.406249999999997
40
0.437499999999997
40
0.437499999999997
40
0.499999999999997
40
0.499999999999997
40
0.624999999999998
40
0.624999999999998
40
0.749999999999999
40
0.749999999999999
40
0.812499999999999
40
0.812499999999999
40
0.84375
40
0.84375
40
0.875
40
0.875
40
1
40
1
40
1
40
1
41
1
10
76.0120597191354
20
5.58818257291966
30
0
41
1
10
76.0216656247574
20
5.48793603425602
30
0
41
1
10
76.031136464575
20
5.3799604514067
30
0
41
1
10
76.0501158748211
20
5.14898092644944
30
0
41
1
10
76.0596241003674
20
5.02597607178313
30
0
41
1
10
76.0788816111571
20
4.76495596636423
30
0
41
1
10
76.0886308629562
20
4.62694161731906
30
0
41
1
10
76.1010342343045
20
4.4447995683941
30
0
41
1
10
76.1035255081722
20
4.40788890051323
30
0
41
1
10
76.1085299330955
20
4.33309259849798
30
0
41
1
10
76.1110414606495
20
4.29523021981402
30
0
41
1
10
76.1185686893206
20
4.18078767177462
30
0
41
1
10
76.1235901555777
20
4.10316047615356
30
0
41
1
10
76.1386563510916
20
3.86635444257107
30
0
41
1
10
76.1487059612239
20
3.70325996408488
30
0
41
1
10
76.1686949623639
20
3.36678447823309
30
0
41
1
10
76.1786033310571
20
3.1934019908384
30
0
41
1
10
76.1933881384466
20
2.92552960147862
30
0
41
1
10
76.1983074845417
20
2.83493706925043
30
0
41
1
10
76.2056894788668
20
2.69706588026921
30
0
41
1
10
76.2081506303024
20
2.6507782745613
30
0
41
1
10
76.2130765294257
20
2.55753521262841
30
0
41
1
10
76.2155434695919
20
2.5105373585736
30
0
41
1
10
76.2278464275489
20
2.27476546025329
30
0
41
1
10
76.2376150363589
20
2.08316067729024
30
0
41
1
10
76.2473793288598
20
1.8886017688242
30
0
0
SPLINE
5
100
100
AcDbEntity
8
1
62
256
6
ByLayer
370
13
48
1
60
0
100
AcDbSpline
70
4
71
3
72
10
73
6
40
0
40
0
40
0
40
0
40
0.234726918132551
40
0.60390377798835
40
1
40
1
40
1
40
1
41
1.04
10
65.5023236414421
20
3.68936695304315
30
0
41
1.04
10
65.5186002681976
20
3.48769635532586
30
0
41
1.04
10
65.5607838226742
20
2.92577366651238
30
0
41
1.04
10
65.6314972272108
20
1.84581305508853
30
0
41
1.04
10
65.6848324037202
20
0.947142525057633
30
0
41
1.04
10
65.7123283333114
20
0.477951008908607
30
0
0
SPLINE
5
101
100
AcDbEntity
8
1
62
256
6
ByLayer
370
18
48
1
60
0
100
AcDbSpline
70
4
71
3
72
105
73
101
40
0
40
0
40
0
40
0
40
0.0624999999999779
40
0.0624999999999779
40
0.0937499999999668
40
0.0937499999999668
40
0.124999999999956
40
0.124999999999956
40
0.156249999999945
40
0.156249999999945
40
0.171874999999939
40
0.171874999999939
40
0.187499999999934
40
0.187499999999934
40
0.218749999999926
40
0.218749999999926
40
0.249999999999918
40
0.249999999999918
40
0.281249999999911
40
0.281249999999911
40
0.296874999999907
40
0.296874999999907
40
0.312499999999903
40
0.312499999999903
40
0.320312499999903
40
0.320312499999903
40
0.328124999999903
40
0.343749999999902
40
0.343749999999902
40
0.374999999999902
40
0.374999999999902
40
0.406249999999901
40
0.406249999999901
40
0.437499999999901
40
0.437499999999901
40
0.4531249999999
40
0.4531249999999
40
0.460937499999902
40
0.460937499999902
40
0.468749999999903
40
0.468749999999903
40
0.484374999999906
40
0.484374999999906
40
0.499999999999909
40
0.499999999999909
40
0.507812499999911
40
0.507812499999911
40
0.515624999999912
40
0.515624999999912
40
0.531249999999912
40
0.531249999999912
40
0.546874999999913
40
0.546874999999913
40
0.554687499999913
40
0.554687499999913
40
0.558593749999914
40
0.558593749999914
40
0.562499999999915
40
0.593749999999921
40
0.593749999999921
40
0.601562499999923
40
0.601562499999923
40
0.609374999999925
40
0.624999999999928
40
0.624999999999928
40
0.63281249999993
40
0.63281249999993
40
0.640624999999932
40
0.640624999999932
40
0.656249999999935
40
0.656249999999935
40
0.671874999999938
40
0.671874999999938
40
0.687499999999941
40
0.687499999999941
40
0.703124999999945
40
0.703124999999945
40
0.718749999999948
40
0.718749999999948
40
0.734374999999951
40
0.734374999999951
40
0.742187499999953
40
0.742187499999953
40
0.749999999999954
40
0.749999999999954
40
0.781249999999959
40
0.781249999999959
40
0.812499999999963
40
0.812499999999963
40
0.843749999999968
40
0.843749999999968
40
0.874999999999972
40
0.874999999999972
40
0.906249999999977
40
0.906249999999977
40
0.92187499999998
40
0.92187499999998
40
0.937499999999983
40
0.937499999999983
40
1
40
1
40
1
40
1
41
1
10
41.2318395777733
20
0.964711085580916
30
0
41
1
10
41.0353281406465
20
1.10846418602205
30
0
41
1
10
40.8348805211492
20
1.24308023485531
30
0
41
1
10
40.5259517315053
20
1.42846181479942
30
0
41
1
10
40.4216018100457
20
1.4875057347559
30
0
41
1
10
40.2098330226828
20
1.59976240067911
30
0
41
1
10
40.102432110308
20
1.6530045376266
30
0
41
1
10
39.8841706559669
20
1.75322154860172
30
0
41
1
10
39.7733153322989
20
1.80020496092541
30
0
41
1
10
39.6040741327294
20
1.8655473517544
30
0
41
1
10
39.547168115857
20
1.88647400460036
30
0
41
1
10
39.4323056022238
20
1.92653918073779
30
0
41
1
10
39.3745693661437
20
1.94559469274839
30
0
41
1
10
39.2008928826924
20
1.99959947815512
30
0
41
1
10
39.0842908898461
20
2.03148900637984
30
0
41
1
10
38.8492763838501
20
2.08650807879727
30
0
41
1
10
38.7308757145472
20
2.10969274107461
30
0
41
1
10
38.4919182082781
20
2.14593461672962
30
0
41
1
10
38.371299189426
20
2.15870862956075
30
0
41
1
10
38.1891518992024
20
2.17222994243954
30
0
41
1
10
38.128235301458
20
2.17580638853718
30
0
41
1
10
38.0061045362233
20
2.18158503675718
30
0
41
1
10
37.9448760455308
20
2.18372108601469
30
0
41
1
10
37.8527474058166
20
2.18560828631271
30
0
41
1
10
37.8220023953731
20
2.18602381617347
30
0
41
1
10
37.7606444820716
20
2.18641739330741
30
0
41
1
10
37.6687237831392
20
2.18635373190884
30
0
41
1
10
37.5771586437309
20
2.18428873088288
30
0
41
1
10
37.3945253436711
20
2.17735681436588
30
0
41
1
10
37.2734263187599
20
2.16903686231575
30
0
41
1
10
37.0326861726278
20
2.14410314406541
30
0
41
1
10
36.9130468204254
20
2.12748089686218
30
0
41
1
10
36.6754516127911
20
2.08448897994896
30
0
41
1
10
36.5574831212605
20
2.0581946459603
30
0
41
1
10
36.3820677472962
20
2.00962930411592
30
0
41
1
10
36.3238542280413
20
1.99190709133515
30
0
41
1
10
36.2369879322054
20
1.96258969507863
30
0
41
1
10
36.2080946423941
20
1.95235234791582
30
0
41
1
10
36.1509049932943
20
1.93103289532928
30
0
41
1
10
36.1225562331739
20
1.91993584866017
30
0
41
1
10
36.0382733263597
20
1.88527577162196
30
0
41
1
10
35.9831061506212
20
1.86033863432627
30
0
41
1
10
35.8750771348047
20
1.80626226171401
30
0
41
1
10
35.8222111305528
20
1.77713070584164
30
0
41
1
10
35.7449116949932
20
1.72972377221498
30
0
41
1
10
35.7194197962644
20
1.71325843397528
30
0
41
1
10
35.669468458332
20
1.67920075657631
30
0
41
1
10
35.6450419180423
20
1.66163568065383
30
0
41
1
10
35.5734674075663
20
1.60725859879909
30
0
41
1
10
35.528020686842
20
1.56876927667526
30
0
41
1
10
35.4421030767071
20
1.48678677884303
30
0
41
1
10
35.4016063573881
20
1.44331787251645
30
0
41
1
10
35.345007422006
20
1.3738598775999
30
0
41
1
10
35.3268332845171
20
1.34999671953707
30
0
41
1
10
35.3006794878905
20
1.31305387256768
30
0
41
1
10
35.292138404039
20
1.30053420299748
30
0
41
1
10
35.2755726575098
20
1.27530910420822
30
0
41
1
10
35.2031971859659
20
1.1607488829344
30
0
41
1
10
35.1502668560432
20
1.03675690285399
30
0
41
1
10
35.1104918680488
20
0.889271860510377
30
0
41
1
10
35.1034980644169
20
0.859498841257221
30
0
41
1
10
35.0915165298458
20
0.799797226304435
30
0
41
1
10
35.0765037131441
20
0.709826166399324
30
0
41
1
10
35.0702813038046
20
0.618600440217108
30
0
41
1
10
35.0698574429196
20
0.526533394268625
30
0
41
1
10
35.0707265172131
20
0.495699992362461
30
0
41
1
10
35.0748591627246
20
0.43370663872463
30
0
41
1
10
35.0780380421495
20
0.402943239994698
30
0
41
1
10
35.0906191350617
20
0.311297510091123
30
0
41
1
10
35.1030570877671
20
0.251053908208377
30
0
41
1
10
35.1347140857868
20
0.131984628081142
30
0
41
1
10
35.1540061306876
20
0.0731389124180737
30
0
41
1
10
35.1979306743866
20
-0.0433056318685772
30
0
41
1
10
35.2222287730379
20
-0.100146306625675
30
0
41
1
10
35.2743582484706
20
-0.211714880780278
30
0
41
1
10
35.3021987520557
20
-0.266437604356383
30
0
41
1
10
35.3607108477136
20
-0.374172396324752
30
0
41
1
10
35.3913866117997
20
-0.427182095658793
30
0
41
1
10
35.4550846438554
20
-0.53176866918858
30
0
41
1
10
35.4881014645596
20
-0.583348493304669
30
0
41
1
10
35.5390869659853
20
-0.659814420800444
30
0
41
1
10
35.5563273239834
20
-0.685151412608661
30
0
41
1
10
35.591261233332
20
-0.735543350673225
30
0
41
1
10
35.6089559787656
20
-0.760598846445021
30
0
41
1
10
35.6981299295775
20
-0.884740828236858
30
0
41
1
10
35.7719573048872
20
-0.980862663460272
30
0
41
1
10
35.9230615292471
20
-1.16827458953972
30
0
41
1
10
36.0003463326044
20
-1.25955559353363
30
0
41
1
10
36.1574730872459
20
-1.43818522029426
30
0
41
1
10
36.2373205772456
20
-1.52552821978656
30
0
41
1
10
36.3989708240928
20
-1.69687197008662
30
0
41
1
10
36.480776379628
20
-1.78086982406199
30
0
41
1
10
36.6459337432171
20
-1.94590713611967
30
0
41
1
10
36.7292869910197
20
-2.02694507001993
30
0
41
1
10
36.8552701684124
20
-2.14646269736716
30
0
41
1
10
36.8973874292001
20
-2.18592542802236
30
0
41
1
10
36.9816878170118
20
-2.26398191113776
30
0
41
1
10
37.0238941611567
20
-2.30259769848084
30
0
41
1
10
37.2351584925131
20
-2.49367335395965
30
0
41
1
10
37.4048692759665
20
-2.64018303918491
30
0
41
1
10
37.5750409933672
20
-2.78057896585867
30
0
0
SPLINE
5
102
100
AcDbEntity
8
1
62
256
6
ByLayer
370
18
48
1
60
0
100
AcDbSpline
70
4
71
3
72
30
73
26
40
0
40
0
40
0
40
0
40
0.125
40
0.125
40
0.25
40
0.25
40
0.375
40
0.375
40
0.40625
40
0.40625
40
0.4375
40
0.4375
40
0.5
40
0.5
40
0.625
40
0.625
40
0.75
40
0.75
40
0.812500000000001
40
0.812500000000001
40
0.843750000000001
40
0.843750000000001
40
0.875
40
0.875
40
1
40
1
40
1
40
1
41
1
10
70.5012405029474
20
-0.479879043879521
30
0
41
1
10
70.5109656702695
20
-0.682878162405473
30
0
41
1
10
70.5206615289414
20
-0.883748938729411
30
0
41
1
10
70.5401440888828
20
-1.28134365284862
30
0
41
1
10
70.5499294390506
20
-1.47806740402692
30
0
41
1
10
70.5696333125365
20
-1.86736984689043
30
0
41
1
10
70.5795508125913
20
-2.05994882935914
30
0
41
1
10
70.5920143398778
20
-2.29801533880638
30
0
41
1
10
70.5945102497221
20
-2.34549549711787
30
0
41
1
10
70.5995076431711
20
-2.44018668053553
30
0
41
1
10
70.6020080880716
20
-2.48737745796149
30
0
41
1
10
70.6094760570413
20
-2.62778807907168
30
0
41
1
10
70.6144235077094
20
-2.72009886353533
30
0
41
1
10
70.6291610144541
20
-2.99321324046497
30
0
41
1
10
70.6388137403471
20
-3.17020853077312
30
0
41
1
10
70.6581697454132
20
-3.5141829935651
30
0
41
1
10
70.6678841891138
20
-3.68116165233542
30
0
41
1
10
70.6826599244228
20
-3.92403254446094
30
0
41
1
10
70.6876171702063
20
-4.00372134535186
30
0
41
1
10
70.6951020370098
20
-4.12132299578539
30
0
41
1
10
70.6976050381138
20
-4.1602014850418
30
0
41
1
10
70.7026258288049
20
-4.23730775832445
30
0
41
1
10
70.7051460531841
20
-4.27557159936541
30
0
41
1
10
70.7177320694607
20
-4.46455411062948
30
0
41
1
10
70.7277824922037
20
-4.60860986517486
30
0
41
1
10
70.7376608746337
20
-4.74561291319824
30
0
0
SPLINE
5
103
100
AcDbEntity
8
1
62
256
6
ByLayer
370
13
48
1
60
0
100
AcDbSpline
70
4
71
3
72
10
73
6
40
0
40
0
40
0
40
0
40
0.366115506361209
40
0.915044957598869
40
1
40
1
40
1
40
1
41
1
10
71.1806825984265
20
-1.19245061919028
30
0
41
1
10
71.2055379905116
20
-1.60724431018736
30
0
41
1
10
71.2685561987536
20
-2.62962591963114
30
0
41
1
10
71.3400214551204
20
-3.62300987785739
30
0
41
1
10
71.385340572802
20
-4.11962426517701
30
0
41
1
10
71.3914122328512
20
-4.18372490426066
30
0
0
SPLINE
5
104
100
AcDbEntity
8
1
62
256
6
ByLayer
370
18
48
1
60
0
100
AcDbSpline
70
4
71
3
72
29
73
25
40
0
40
0
40
0
40
0
40
0.125000000000001
40
0.125000000000001
40
0.250000000000002
40
0.250000000000002
40
0.375000000000003
40
0.375000000000003
40
0.406250000000003
40
0.406250000000003
40
0.437500000000003
40
0.437500000000003
40
0.500000000000003
40
0.500000000000003
40
0.625000000000001
40
0.75
40
0.75
40
0.8125
40
0.8125
40
0.84375
40
0.84375
40
0.875
40
0.875
40
1
40
1
40
1
40
1
41
1
10
70.5266383279503
20
-4.58284953325838
30
0
41
1
10
70.5166854005916
20
-4.44040062766464
30
0
41
1
10
70.5068687166075
20
-4.29203624504655
30
0
41
1
10
70.4875076098507
20
-3.98379383485422
30
0
41
1
10
70.4779088358816
20
-3.82391696250937
30
0
41
1
10
70.4585544716473
20
-3.49267030974568
30
0
41
1
10
70.4487976271052
20
-3.321301360344
30
0
41
1
10
70.4364628480707
20
-3.0997191603351
30
0
41
1
10
70.4339896521745
20
-3.05503334008091
30
0
41
1
10
70.4290327627743
20
-2.9649147698749
30
0
41
1
10
70.426551977049
20
-2.91952733527933
30
0
41
1
10
70.4191341464993
20
-2.78296061131891
30
0
41
1
10
70.4142088436983
20
-2.69115948225027
30
0
41
1
10
70.3994732681056
20
-2.41352764569058
30
0
41
1
10
70.3799338707676
20
-2.03741911586613
30
0
41
1
10
70.3603895851302
20
-1.64964052620923
30
0
41
1
10
70.3456554736956
20
-1.35438614052833
30
0
41
1
10
70.3407315949458
20
-1.25523005794264
30
0
41
1
10
70.3333197109072
20
-1.10537202519993
30
0
41
1
10
70.3308447554548
20
-1.05523194687635
30
0
41
1
10
70.3258852057496
20
-0.954573126661074
30
0
41
1
10
70.3233984928785
20
-0.904011124669893
30
0
41
1
10
70.3109881075767
20
-0.651247816674896
30
0
41
1
10
70.3011013604693
20
-0.448586455931576
30
0
41
1
10
70.2912551788936
20
-0.245479464727367
30
0
0
SPLINE
5
105
100
AcDbEntity
8
1
62
256
6
ByLayer
370
13
48
1
60
0
100
AcDbSpline
70
4
71
3
72
10
73
6
40
0
40
0
40
0
40
0
40
0.0389472045965179
40
0.785229142494168
40
1
40
1
40
1
40
1
41
1.04
10
69.6344506656564
20
0.232709394474421
30
0
41
1.04
10
69.6370899080086
20
0.187538604053964
30
0
41
1.04
10
69.6903576116091
20
-0.7247136001436
30
0
41
1.04
10
69.7595490741219
20
-1.9177892723304
30
0
41
1.04
10
69.8292141747955
20
-2.93370087222696
30
0
41
1.04
10
69.844863454281
20
-3.14998093923495
30
0
0
SPLINE
5
106
100
AcDbEntity
8
1
62
256
6
ByLayer
370
13
48
1
60
0
100
AcDbSpline
70
4
71
3
72
9
73
5
40
0
40
0
40
0
40
0
40
0.553469669590056
40
1
40
1
40
1
40
1
41
1
10
67.0486141488583
20
2.53200729595787
30
0
41
1
10
67.0879000599859
20
1.93992811307783
30
0
41
1
10
67.1580761493377
20
0.7722961372464
30
0
41
1
10
67.2277578795824
20
-0.432915693156417
30
0
41
1
10
67.2588681607529
20
-0.956904901115934
30
0
0
SPLINE
5
107
100
AcDbEntity
8
1
62
256
6
ByLayer
370
18
48
1
60
0
100
AcDbSpline
70
4
71
3
72
28
73
24
40
0
40
0
40
0
40
0
40
0.125000000000001
40
0.125000000000001
40
0.250000000000003
40
0.250000000000003
40
0.281250000000003
40
0.281250000000003
40
0.312500000000003
40
0.375000000000003
40
0.375000000000003
40
0.500000000000003
40
0.625000000000003
40
0.625000000000003
40
0.687500000000003
40
0.687500000000003
40
0.718750000000003
40
0.718750000000003
40
0.750000000000003
40
0.750000000000003
40
0.875000000000001
40
0.875000000000001
40
1
40
1
40
1
40
1
41
1
10
66.5716732151639
20
3.45746325839951
30
0
41
1
10
66.5803412414037
20
3.3050214711794
30
0
41
1
10
66.5889776797708
20
3.1479661579348
30
0
41
1
10
66.6063375505554
20
2.82462346864659
30
0
41
1
10
66.6150612444701
20
2.65833669961273
30
0
41
1
10
66.6260965372408
20
2.44455562992755
30
0
41
1
10
66.6283108977082
20
2.40148608565173
30
0
41
1
10
66.6327505384672
20
2.31481626780428
30
0
41
1
10
66.6394054686471
20
2.18442290844604
30
0
41
1
10
66.6460527270246
20
2.05287745485376
30
0
41
1
10
66.6593473349756
20
1.78827686697298
30
0
41
1
10
66.6770775158416
20
1.43145680668565
30
0
41
1
10
66.6948337556284
20
1.0667146283991
30
0
41
1
10
66.7081211961497
20
0.79015201706801
30
0
41
1
10
66.7125432985987
20
0.697462540910891
30
0
41
1
10
66.7191648043655
20
0.557664028670899
30
0
41
1
10
66.7213707161463
20
0.510937144479072
30
0
41
1
10
66.7257831137326
20
0.417226333764177
30
0
41
1
10
66.7279924668908
20
0.370181144162473
30
0
41
1
10
66.7390028318531
20
0.135275870827627
30
0
41
1
10
66.7477039067158
20
-0.0517688718706495
30
0
41
1
10
66.7650621330151
20
-0.42414861545052
30
0
41
1
10
66.7737191336796
20
-0.609483481443277
30
0
41
1
10
66.7824132585058
20
-0.793966748765683
30
0
0
SPLINE
5
108
100
AcDbEntity
8
1
62
256
6
ByLayer
370
18
48
1
60
0
100
AcDbSpline
70
4
71
3
72
30
73
26
40
0
40
0
40
0
40
0
40
0.125000000000002
40
0.125000000000002
40
0.187500000000003
40
0.187500000000003
40
0.218750000000003
40
0.218750000000003
40
0.250000000000003
40
0.250000000000003
40
0.375000000000002
40
0.375000000000002
40
0.500000000000001
40
0.500000000000001
40
0.625
40
0.625
40
0.65625
40
0.65625
40
0.6875
40
0.6875
40
0.749999999999999
40
0.749999999999999
40
0.875
40
0.875
40
1
40
1
40
1
40
1
41
1
10
66.1551952512473
20
-0.103425766941825
30
0
41
1
10
66.1449698775507
20
0.0797088651196418
30
0
41
1
10
66.134674457946
20
0.263005829210982
30
0
41
1
10
66.1190643703684
20
0.538195310570131
30
0
41
1
10
66.1138336521518
20
0.629965900496728
30
0
41
1
10
66.1059429005975
20
0.76768383542219
30
0
41
1
10
66.1033041031915
20
0.813619757984753
30
0
41
1
10
66.0980161302584
20
0.905430302511519
30
0
41
1
10
66.0953750186262
20
0.951165030959203
30
0
41
1
10
66.0821839964178
20
1.17899521926657
30
0
41
1
10
66.0716756885885
20
1.35856567856641
30
0
41
1
10
66.0507867258892
20
1.71246782926258
30
0
41
1
10
66.0404066290692
20
1.88679925698511
30
0
41
1
10
66.0198555655621
20
2.23024047911054
30
0
41
1
10
66.0097033548728
20
2.39935222874667
30
0
41
1
10
65.9969178451038
20
2.60737985454554
30
0
41
1
10
65.9943562937823
20
2.64881697155673
30
0
41
1
10
65.9892197908071
20
2.73135064416908
30
0
41
1
10
65.9866414797426
20
2.77250019609571
30
0
41
1
10
65.9789090453847
20
2.89498765552841
30
0
41
1
10
65.9737603320761
20
2.97531461312374
30
0
41
1
10
65.9583084071251
20
3.21237520772394
30
0
41
1
10
65.9479970182096
20
3.36519649383598
30
0
41
1
10
65.9273750215409
20
3.66060533992561
30
0
41
1
10
65.9170412387804
20
3.80318945907169
30
0
41
1
10
65.9065995949852
20
3.94061304905995
30
0
0
SPLINE
5
109
100
AcDbEntity
8
1
62
256
6
ByLayer
370
18
48
1
60
0
100
AcDbSpline
70
4
71
3
72
14
73
10
40
0
40
0
40
0
40
0
40
0.25
40
0.25
40
0.5
40
0.5
40
0.75
40
0.75
40
1
40
1
40
1
40
1
41
1
10
74.8699988468016
20
-6.41864860330728
30
0
41
1
10
74.9234361619515
20
-6.33024141519013
30
0
41
1
10
74.9771128027516
20
-6.24094001485784
30
0
41
1
10
75.0850407999912
20
-6.06054070189657
30
0
41
1
10
75.1393251710905
20
-5.9693870235626
30
0
41
1
10
75.2483926313141
20
-5.78556504328006
30
0
41
1
10
75.3031782142336
20
-5.69289303071116
30
0
41
1
10
75.4132387501864
20
-5.5062103587384
30
0
41
1
10
75.4684773454499
20
-5.41226130849728
30
0
41
1
10
75.5239630432613
20
-5.31771783914894
30
0
0
SPLINE
5
10A
100
AcDbEntity
8
1
62
256
6
ByLayer
370
18
48
1
60
0
100
AcDbSpline
70
4
71
3
72
8
73
4
40
0
40
0
40
0
40
0
40
1
40
1
40
1
40
1
41
1
10
74.8699988468013
20
-6.41864860330699
30
0
41
1
10
74.7997455244477
20
-6.41738961868938
30
0
41
1
10
74.7295666999711
20
-6.41467827012579
30
0
41
1
10
74.6594356182874
20
-6.41052290976194
30
0
0
SPLINE
5
10B
100
AcDbEntity
8
1
62
256
6
ByLayer
370
18
48
1
60
0
100
AcDbSpline
70
4
71
3
72
14
73
10
40
0
40
0
40
0
40
0
40
0.321575855020629
40
0.321575855020629
40
0.643151710041257
40
0.643151710041257
40
0.964727565061886
40
0.964727565061886
40
1
40
1
40
1
40
1
41
1
10
73.9773579883794
20
-5.20281638108264
30
0
41
1
10
74.0351966779697
20
-5.30954896386055
30
0
41
1
10
74.0927237687777
20
-5.414803207777
30
0
41
1
10
74.2073057770562
20
-5.62238288679987
30
0
41
1
10
74.2643763354193
20
-5.72473705269545
30
0
41
1
10
74.3780908605747
20
-5.92635908984846
30
0
41
1
10
74.4346794718856
20
-6.02552633086
30
0
41
1
10
74.4972364573558
20
-6.13375795934667
30
0
41
1
10
74.5034169842831
20
-6.14443588008371
30
0
41
1
10
74.5095946066256
20
-6.15509349249021
30
0
0
SPLINE
5
10C
100
AcDbEntity
8
1
62
256
6
ByLayer
370
18
48
1
60
0
100
AcDbSpline
70
4
71
3
72
32
73
28
40
0
40
0
40
0
40
0
40
0.0625000000000071
40
0.0625000000000071
40
0.125000000000014
40
0.125000000000014
40
0.187500000000021
40
0.187500000000021
40
0.250000000000028
40
0.250000000000028
40
0.312500000000035
40
0.312500000000035
40
0.375000000000042
40
0.375000000000042
40
0.500000000000057
40
0.500000000000057
40
0.625000000000071
40
0.625000000000071
40
0.68750000000006
40
0.68750000000006
40
0.750000000000049
40
0.750000000000049
40
0.875000000000025
40
0.875000000000025
40
0.937500000000013
40
0.937500000000013
40
1
40
1
40
1
40
1
41
1
10
73.4576987088371
20
-5.07808295227451
30
0
41
1
10
73.465936162687
20
-5.0661543614446
30
0
41
1
10
73.4750403177505
20
-5.05576105283168
30
0
41
1
10
73.4946493016919
20
-5.03744000272766
30
0
41
1
10
73.5051915531537
20
-5.02949893873765
30
0
41
1
10
73.5273760324204
20
-5.01588869359926
30
0
41
1
10
73.5387775694753
20
-5.0103540279685
30
0
41
1
10
73.5620763842854
20
-5.00134955231152
30
0
41
1
10
73.5739747659977
20
-4.99788445385838
30
0
41
1
10
73.5981972161977
20
-4.99277338628622
30
0
41
1
10
73.6105501154019
20
-4.99113764792128
30
0
41
1
10
73.6350786543343
20
-4.98955645980442
30
0
41
1
10
73.6473251265643
20
-4.98959268551943
30
0
41
1
10
73.6839966452333
20
-4.99190727952262
30
0
41
1
10
73.7083778082151
20
-4.99637057332521
30
0
41
1
10
73.7567764855503
20
-5.01058203579299
30
0
41
1
10
73.7802607156794
20
-5.02017164293423
30
0
41
1
10
73.8144140764702
20
-5.0380374372167
30
0
41
1
10
73.8256181984861
20
-5.04457917511803
30
0
41
1
10
73.847646627424
20
-5.05886895494899
30
0
41
1
10
73.858512120621
20
-5.06665183464204
30
0
41
1
10
73.8900722984222
20
-5.09159952515174
30
0
41
1
10
73.9098031036737
20
-5.11034163907505
30
0
41
1
10
73.9371322005205
20
-5.14209035612282
30
0
41
1
10
73.9458605412894
20
-5.15328543107819
30
0
41
1
10
73.9624340216689
20
-5.17710152406443
30
0
41
1
10
73.9702170058498
20
-5.18963877428774
30
0
41
1
10
73.9773579883794
20
-5.20281638108264
30
0
0
SPLINE
5
10D
100
AcDbEntity
8
1
62
256
6
ByLayer
370
18
48
1
60
0
100
AcDbSpline
70
4
71
3
72
14
73
10
40
0
40
0
40
0
40
0
40
0.25
40
0.25
40
0.5
40
0.5
40
0.75
40
0.75
40
1
40
1
40
1
40
1
41
1
10
72.8032078898991
20
-5.96744843917864
30
0
41
1
10
72.8566843585131
20
-5.89991373179643
30
0
41
1
10
72.9104029182859
20
-5.83072027519768
30
0
41
1
10
73.0184157877641
20
-5.68896847445077
30
0
41
1
10
73.0727428157419
20
-5.61636516247697
30
0
41
1
10
73.1818970917174
20
-5.46795262326086
30
0
41
1
10
73.2367264469736
20
-5.39214172058712
30
0
41
1
10
73.3468776140737
20
-5.2373928572533
30
0
41
1
10
73.4021624982462
20
-5.15850449325654
30
0
41
1
10
73.4576987088371
20
-5.07808295227451
30
0
0
SPLINE
5
10E
100
AcDbEntity
8
1
62
256
6
ByLayer
370
18
48
1
60
0
100
AcDbSpline
70
4
71
3
72
8
73
4
40
0
40
0
40
0
40
0
40
1
40
1
40
1
40
1
41
1
10
72.8032078898989
20
-5.96744843917827
30
0
41
1
10
72.7334201952095
20
-5.93856390065991
30
0
41
1
10
72.6637708059697
20
-5.90840332403101
30
0
41
1
10
72.5942341140729
20
-5.87698884720564
30
0
0
SPLINE
5
10F
100
AcDbEntity
8
1
62
256
6
ByLayer
370
18
48
1
60
0
100
AcDbSpline
70
4
71
3
72
14
73
10
40
0
40
0
40
0
40
0
40
0.25
40
0.25
40
0.5
40
0.5
40
0.75
40
0.75
40
1
40
1
40
1
40
1
41
1
10
71.9111156946098
20
-4.46410496333246
30
0
41
1
10
71.9690959813221
20
-4.58371743774239
30
0
41
1
10
72.0267662350557
20
-4.70294157045126
30
0
41
1
10
72.1416090104295
20
-4.94058589979238
30
0
41
1
10
72.1987974453895
20
-5.05904232835826
30
0
41
1
10
72.3127003094076
20
-5.29495641843141
30
0
41
1
10
72.3693596478472
20
-5.41229998943362
30
0
41
1
10
72.4822000834985
20
-5.64573534717064
30
0
41
1
10
72.5383567626493
20
-5.76177668756506
30
0
41
1
10
72.5942341140729
20
-5.87698884720564
30
0
0
SPLINE
5
110
100
AcDbEntity
8
1
62
256
6
ByLayer
370
18
48
1
60
0
100
AcDbSpline
70
4
71
3
72
32
73
28
40
0
40
0
40
0
40
0
40
0.0624999999999974
40
0.0624999999999974
40
0.124999999999995
40
0.124999999999995
40
0.187499999999992
40
0.187499999999992
40
0.24999999999999
40
0.24999999999999
40
0.312499999999987
40
0.312499999999987
40
0.374999999999985
40
0.374999999999985
40
0.499999999999979
40
0.499999999999979
40
0.624999999999972
40
0.624999999999972
40
0.687499999999988
40
0.687499999999988
40
0.750000000000003
40
0.750000000000003
40
0.875000000000001
40
0.875000000000001
40
0.937500000000001
40
0.937500000000001
40
1
40
1
40
1
40
1
41
1
10
71.3914122328512
20
-4.18372490426074
30
0
41
1
10
71.3996427014938
20
-4.17543824040609
30
0
41
1
10
71.4087380462483
20
-4.168806731556
30
0
41
1
10
71.428326162343
20
-4.15819836534683
30
0
41
1
10
71.4388532181815
20
-4.1542217064837
30
0
41
1
10
71.461017492144
20
-4.14865343813517
30
0
41
1
10
71.4724088250875
20
-4.14711260443653
30
0
41
1
10
71.4956868322857
20
-4.14605442153876
30
0
41
1
10
71.5075746089468
20
-4.14654169322841
30
0
41
1
10
71.5317751912647
20
-4.14930304529267
30
0
41
1
10
71.5441216719954
20
-4.15159603597729
30
0
41
1
10
71.5686417119044
20
-4.15767899062809
30
0
41
1
10
71.5808842392793
20
-4.16147329088329
30
0
41
1
10
71.6175443551408
20
-4.17487290522416
30
0
41
1
10
71.6419023774427
20
-4.18647417168151
30
0
41
1
10
71.6903174940994
20
-4.21455833509762
30
0
41
1
10
71.7138089320895
20
-4.23071411535142
30
0
41
1
10
71.7479754918754
20
-4.25793662625287
30
0
41
1
10
71.7591843312872
20
-4.26751420139698
30
0
41
1
10
71.7812229032774
20
-4.28770847893833
30
0
41
1
10
71.7920950976163
20
-4.29837148630676
30
0
41
1
10
71.823701283561
20
-4.3316160365454
30
0
41
1
10
71.8434603200166
20
-4.35541730879117
30
0
41
1
10
71.8708275008212
20
-4.393946341743
30
0
41
1
10
71.8795678064254
20
-4.4072652549616
30
0
41
1
10
71.8961632696234
20
-4.43500974673023
30
0
41
1
10
71.9039630764156
20
-4.44934921772935
30
0
41
1
10
71.9111156946099
20
-4.46410496333249
30
0
0
SPLINE
5
111
100
AcDbEntity
8
1
62
256
6
ByLayer
370
18
48
1
60
0
100
AcDbSpline
70
4
71
3
72
14
73
10
40
0
40
0
40
0
40
0
40
0.25
40
0.25
40
0.499999999999999
40
0.499999999999999
40
0.75
40
0.75
40
1
40
1
40
1
40
1
41
1
10
70.7376608746359
20
-4.74561291319174
30
0
41
1
10
70.7911009088756
20
-4.70779273987415
30
0
41
1
10
70.8447751926601
20
-4.66775584740515
30
0
41
1
10
70.9526838146857
20
-4.58315922349226
30
0
41
1
10
71.0069514231913
20
-4.53857095342372
30
0
41
1
10
71.1159755028002
20
-4.44489979167869
30
0
41
1
10
71.1707349154985
20
-4.3958162169819
30
0
41
1
10
71.2807409454762
20
-4.29313386437727
30
0
41
1
10
71.3359507864857
20
-4.23956502502182
30
0
41
1
10
71.3914122328512
20
-4.18372490426071
30
0
0
SPLINE
5
112
100
AcDbEntity
8
1
62
256
6
ByLayer
370
18
48
1
60
0
100
AcDbSpline
70
4
71
3
72
8
73
4
40
0
40
0
40
0
40
0
40
1
40
1
40
1
40
1
41
1
10
70.7376608746394
20
-4.74561291319807
30
0
41
1
10
70.6674498737518
20
-4.6925214529345
30
0
41
1
10
70.5971180499703
20
-4.63826607345462
30
0
41
1
10
70.5266383279504
20
-4.58284953325835
30
0
0
SPLINE
5
113
100
AcDbEntity
8
1
62
256
6
ByLayer
370
18
48
1
60
0
100
AcDbSpline
70
4
71
3
72
14
73
10
40
0
40
0
40
0
40
0
40
0.25
40
0.25
40
0.499999999999999
40
0.499999999999999
40
0.75
40
0.75
40
1
40
1
40
1
40
1
41
1
10
69.844863454281
20
-3.14998093923495
30
0
41
1
10
69.9026619336766
20
-3.26688434767419
30
0
41
1
10
69.9601544873424
20
-3.38453020799238
30
0
41
1
10
70.074672212471
20
-3.62121118196265
30
0
41
1
10
70.1317134837335
20
-3.74028445505945
30
0
41
1
10
70.2453773740129
20
-3.97959140161689
30
0
41
1
10
70.3019454260173
20
-4.09970488573649
30
0
41
1
10
70.4146584101042
20
-4.34079413576774
30
0
41
1
10
70.4707783723967
20
-4.46172047579137
30
0
41
1
10
70.5266383279504
20
-4.58284953325838
30
0
0
SPLINE
5
114
100
AcDbEntity
8
1
62
256
6
ByLayer
370
18
48
1
60
0
100
AcDbSpline
70
4
71
3
72
32
73
28
40
0
40
0
40
0
40
0
40
0.0624999999999995
40
0.0624999999999995
40
0.124999999999999
40
0.124999999999999
40
0.187499999999998
40
0.187499999999998
40
0.249999999999998
40
0.249999999999998
40
0.312499999999997
40
0.312499999999997
40
0.374999999999997
40
0.374999999999997
40
0.499999999999997
40
0.499999999999997
40
0.624999999999998
40
0.624999999999998
40
0.687499999999998
40
0.687499999999998
40
0.749999999999998
40
0.749999999999998
40
0.874999999999999
40
0.874999999999999
40
0.9375
40
0.9375
40
1
40
1
40
1
40
1
41
1
10
69.3251589654356
20
-2.74743334216018
30
0
41
1
10
69.3333983832343
20
-2.74386753124781
30
0
41
1
10
69.3425047632738
20
-2.74187270735786
30
0
41
1
10
69.3621184683202
20
-2.74040045561557
30
0
41
1
10
69.3726629502393
20
-2.74093549951564
30
0
41
1
10
69.3948530235031
20
-2.74421789089175
30
0
41
1
10
69.4062573932925
20
-2.74692067910357
30
0
41
1
10
69.4295616270269
20
-2.75405724663315
30
0
41
1
10
69.4414625956833
20
-2.75849499092365
30
0
41
1
10
69.4656896900865
20
-2.76890393341409
30
0
41
1
10
69.4780449880061
20
-2.77489933073255
30
0
41
1
10
69.5025777422895
20
-2.78800114163269
30
0
41
1
10
69.5148260281032
20
-2.79513550792271
30
0
41
1
10
69.5515018635193
20
-2.81811087689223
30
0
41
1
10
69.5758831178388
20
-2.83552220904423
30
0
41
1
10
69.6242804910126
20
-2.87414163604996
30
0
41
1
10
69.6477618614385
20
-2.89492187664541
30
0
41
1
10
69.6819107417606
20
-2.92820377724436
30
0
41
1
10
69.6931133199138
20
-2.93965316126543
30
0
41
1
10
69.715138829812
20
-2.96328946618442
30
0
41
1
10
69.7260030369469
20
-2.97552706988248
30
0
41
1
10
69.75756216317
20
-3.01293372060263
30
0
41
1
10
69.7772938382575
20
-3.03881942760492
30
0
41
1
10
69.8046268796059
20
-3.07928943274064
30
0
41
1
10
69.8133569620972
20
-3.09305555954836
30
0
41
1
10
69.8299345358379
20
-3.12122757414511
30
0
41
1
10
69.8377201046386
20
-3.13553277503422
30
0
41
1
10
69.844863454281
20
-3.14998093923498
30
0
0
SPLINE
5
115
100
AcDbEntity
8
1
62
256
6
ByLayer
370
18
48
1
60
0
100
AcDbSpline
70
4
71
3
72
32
73
28
40
0
40
0
40
0
40
0
40
0.0624999999999885
40
0.0624999999999885
40
0.124999999999977
40
0.124999999999977
40
0.187499999999965
40
0.187499999999965
40
0.249999999999954
40
0.249999999999954
40
0.312499999999942
40
0.312499999999942
40
0.374999999999931
40
0.374999999999931
40
0.499999999999909
40
0.499999999999909
40
0.624999999999887
40
0.624999999999887
40
0.687499999999894
40
0.687499999999894
40
0.749999999999902
40
0.749999999999902
40
0.874999999999951
40
0.874999999999951
40
0.937499999999976
40
0.937499999999976
40
1
40
1
40
1
40
1
41
1
10
67.2588681607521
20
-0.956904901115536
30
0
41
1
10
67.2671079676961
20
-0.958522661172509
30
0
41
1
10
67.2762143454165
20
-0.961419226306333
30
0
41
1
10
67.2958268478651
20
-0.969258662200758
30
0
41
1
10
67.30636992827
20
-0.974225146966489
30
0
41
1
10
67.3285564692812
20
-0.985900827076819
30
0
41
1
10
67.3399584359617
20
-0.992478081197163
30
0
41
1
10
67.3632565082087
20
-1.00684159200412
30
0
41
1
10
67.3751537073735
20
-1.01463064535514
30
0
41
1
10
67.3993720032685
20
-1.03128458099349
30
0
41
1
10
67.4117228159637
20
-1.04017674347344
30
0
41
1
10
67.4362469471072
20
-1.05854128987846
30
0
41
1
10
67.44849080317
20
-1.06806069112633
30
0
41
1
10
67.4851536103401
20
-1.09753842727792
30
0
41
1
10
67.5095225330149
20
-1.1184212728547
30
0
41
1
10
67.5579155547057
20
-1.16244144780049
30
0
41
1
10
67.5813973136678
20
-1.18508520854124
30
0
41
1
10
67.6155507591936
20
-1.22000667340279
30
0
41
1
10
67.6267554539929
20
-1.23180784773774
30
0
41
1
10
67.6487861035191
20
-1.25574967538185
30
0
41
1
10
67.659653861456
20
-1.26793990814647
30
0
41
1
10
67.6912323760762
20
-1.30459028115115
30
0
41
1
10
67.7109767241766
20
-1.32915962904332
30
0
41
1
10
67.7383266293361
20
-1.3662588263376
30
0
41
1
10
67.747061977643
20
-1.37866614042608
30
0
41
1
10
67.7636490491598
20
-1.40357142069411
30
0
41
1
10
67.7714412340483
20
-1.41598327121184
30
0
41
1
10
67.7785891373085
20
-1.42824126078429
30
0
0
SPLINE
5
116
100
AcDbEntity
8
1
62
256
6
ByLayer
370
18
48
1
60
0
100
AcDbSpline
70
4
71
3
72
12
73
8
40
0
40
0
40
0
40
0
40
0.249999999999994
40
0.249999999999994
40
0.499999999999989
40
0.499999999999989
40
1
40
1
40
1
40
1
41
1
10
66.7824132585058
20
-0.793966748765712
30
0
41
1
10
66.821587028638
20
-0.813040792063731
30
0
41
1
10
66.8608863572006
20
-0.830789497698675
30
0
41
1
10
66.9397731710412
20
-0.863568950463929
30
0
41
1
10
66.9793775349009
20
-0.878605604251447
30
0
41
1
10
67.0985474029769
20
-0.919494271657385
30
0
41
1
10
67.1784272100367
20
-0.941111550872563
30
0
41
1
10
67.2588681607529
20
-0.956904901117383
30
0
0
SPLINE
5
117
100
AcDbEntity
8
1
62
256
6
ByLayer
370
18
48
1
60
0
100
AcDbSpline
70
4
71
3
72
8
73
4
40
0
40
0
40
0
40
0
40
1
40
1
40
1
40
1
41
1
10
66.1551952512473
20
-0.103425766941996
30
0
41
1
10
66.3649414947583
20
-0.331855149404419
30
0
41
1
10
66.5737464577863
20
-0.562277536051909
30
0
41
1
10
66.7824132585058
20
-0.793966748765712
30
0
0
SPLINE
5
118
100
AcDbEntity
8
1
62
256
6
ByLayer
370
18
48
1
60
0
100
AcDbSpline
70
4
71
3
72
12
73
8
40
0
40
0
40
0
40
0
40
0.5
40
0.5
40
0.75
40
0.75
40
1
40
1
40
1
40
1
41
1
10
65.7123283333113
20
0.477951008908604
30
0
41
1
10
65.7870007073801
20
0.389416219297118
30
0
41
1
10
65.8611850229876
20
0.2965760548785
30
0
41
1
10
65.9719208443726
20
0.151066291073732
30
0
41
1
10
66.0087402026263
20
0.101521665440032
30
0
41
1
10
66.0821290769389
20
0.0005082836722181
30
0
41
1
10
66.1187110065823
20
-0.0509765910062754
30
0
41
1
10
66.1551952512473
20
-0.103425766941996
30
0
0
SPLINE
5
119
100
AcDbEntity
8
1
62
256
6
ByLayer
370
18
48
1
60
0
100
AcDbSpline
70
4
71
3
72
32
73
28
40
0
40
0
40
0
40
0
40
0.062499999999996
40
0.062499999999996
40
0.124999999999992
40
0.124999999999992
40
0.187499999999988
40
0.187499999999988
40
0.249999999999984
40
0.249999999999984
40
0.31249999999998
40
0.31249999999998
40
0.374999999999976
40
0.374999999999976
40
0.499999999999968
40
0.499999999999968
40
0.62499999999996
40
0.62499999999996
40
0.687499999999955
40
0.687499999999955
40
0.749999999999951
40
0.749999999999951
40
0.874999999999976
40
0.874999999999976
40
0.937499999999988
40
0.937499999999988
40
1
40
1
40
1
40
1
41
1
10
65.192633693949
20
0.95677900768203
30
0
41
1
10
65.2008662448518
20
0.950189219792094
30
0
41
1
10
65.2099633669373
20
0.942781745519511
30
0
41
1
10
65.2295543009884
20
0.926662628067476
30
0
41
1
10
65.2400822032795
20
0.917921674048358
30
0
41
1
10
65.2622482844065
20
0.899387849876291
30
0
41
1
10
65.2736402386342
20
0.889801050801339
30
0
41
1
10
65.2969189960006
20
0.870099512087535
30
0
41
1
10
65.3088069012051
20
0.85998354219555
30
0
41
1
10
65.3330073141077
20
0.839274067308281
30
0
41
1
10
65.3453537778639
20
0.828650359021339
30
0
41
1
10
65.3698736539454
20
0.807425467502043
30
0
41
1
10
65.3821159195434
20
0.796765652409846
30
0
41
1
10
65.418774897514
20
0.764636433078493
30
0
41
1
10
65.4431310946449
20
0.74301272718921
30
0
41
1
10
65.49154467882
20
0.699306365769644
30
0
41
1
10
65.5150351334117
20
0.67773539854042
30
0
41
1
10
65.5491999166557
20
0.645698636958059
30
0
41
1
10
65.5604081029599
20
0.635073965326143
30
0
41
1
10
65.5824452465476
20
0.613926290108935
30
0
41
1
10
65.5933166746087
20
0.603361101105492
30
0
41
1
10
65.6249212728559
20
0.57220384886682
30
0
41
1
10
65.6446790109914
20
0.552127578964047
30
0
41
1
10
65.6720439648603
20
0.523199017851624
30
0
41
1
10
65.6807834805572
20
0.513756261155777
30
0
41
1
10
65.697377253828
20
0.495342204144038
30
0
41
1
10
65.7051764994306
20
0.486430531836049
30
0
41
1
10
65.7123283333114
20
0.477951008908462
30
0
0
SPLINE
5
11A
100
AcDbEntity
8
1
62
256
6
ByLayer
370
18
48
1
60
0
100
AcDbSpline
70
4
71
3
72
10
73
6
40
0
40
0
40
0
40
0
40
0.5
40
0.5
40
1
40
1
40
1
40
1
41
1
10
64.8768877401631
20
1.23863311596679
30
0
41
1
10
64.9290664227652
20
1.18731087832751
30
0
41
1
10
64.9814813357554
20
1.13807435730365
30
0
41
1
10
65.0867482267325
20
1.04403151710378
30
0
41
1
10
65.1395749545019
20
0.999250149712253
30
0
41
1
10
65.192633693949
20
0.956779007681916
30
0
0
SPLINE
5
11B
100
AcDbEntity
8
1
62
256
6
ByLayer
370
18
48
1
60
0
100
AcDbSpline
70
4
71
3
72
8
73
4
40
0
40
0
40
0
40
0
40
1
40
1
40
1
40
1
41
1
10
63.8890350152366
20
2.18117989673436
30
0
41
1
10
64.221513300342
20
1.88151197539079
30
0
41
1
10
64.5497920454064
20
1.56642668367803
30
0
41
1
10
64.8768877401631
20
1.23863311596679
30
0
0
SPLINE
5
11C
100
AcDbEntity
8
1
62
256
6
ByLayer
370
18
48
1
60
0
100
AcDbSpline
70
4
71
3
72
8
73
4
40
0
40
0
40
0
40
0
40
1
40
1
40
1
40
1
41
1
10
63.646005276765
20
2.32264072112412
30
0
41
1
10
63.7274990996041
20
2.28150432103612
30
0
41
1
10
63.8084597497147
20
2.23428487754938
30
0
41
1
10
63.8890350152366
20
2.18117989673436
30
0
0
SPLINE
5
11D
100
AcDbEntity
8
1
62
256
6
ByLayer
370
18
48
1
60
0
100
AcDbSpline
70
4
71
3
72
12
73
8
40
0
40
0
40
0
40
0
40
0.499999999999932
40
0.499999999999932
40
0.749999999999966
40
0.749999999999966
40
1
40
1
40
1
40
1
41
1
10
63.5445071957932
20
2.38506105724343
30
0
41
1
10
63.5641146331755
20
2.37174150239216
30
0
41
1
10
63.5825483728113
20
2.3597032955951
30
0
41
1
10
63.6081513632453
20
2.34387024821734
30
0
41
1
10
63.6163414242245
20
2.33896720318347
30
0
41
1
10
63.6319256733409
20
2.33003718248907
30
0
41
1
10
63.6392491543567
20
2.32605107229861
30
0
41
1
10
63.646005276765
20
2.32264072112417
30
0
0
SPLINE
5
11E
100
AcDbEntity
8
1
62
256
6
ByLayer
370
18
48
1
60
0
100
AcDbSpline
70
4
71
3
72
8
73
4
40
0
40
0
40
0
40
0
40
1
40
1
40
1
40
1
41
1
10
63.5445071957932
20
2.38506105724352
30
0
41
1
10
63.5218668083417
20
2.39456657045841
30
0
41
1
10
63.4992096055638
20
2.40360323929755
30
0
41
1
10
63.4764615753509
20
2.41194226092091
30
0
0
SPLINE
5
11F
100
AcDbEntity
8
1
62
256
6
ByLayer
370
18
48
1
60
0
100
AcDbSpline
70
4
71
3
72
24
73
20
40
0
40
0
40
0
40
0
40
0.0624999999999988
40
0.0624999999999988
40
0.124999999999998
40
0.124999999999998
40
0.249999999999995
40
0.249999999999995
40
0.374999999999992
40
0.374999999999992
40
0.4375
40
0.4375
40
0.500000000000008
40
0.500000000000008
40
0.750000000000004
40
0.750000000000004
40
0.875000000000002
40
0.875000000000002
40
1
40
1
40
1
40
1
41
1
10
63.4764615753509
20
2.41194226092074
30
0
41
1
10
63.462773236793
20
2.41696016137863
30
0
41
1
10
63.4484347824208
20
2.42235777753874
30
0
41
1
10
63.418451191735
20
2.43360870607333
30
0
41
1
10
63.4028079036101
20
2.43947162600108
30
0
41
1
10
63.3539445521907
20
2.45762688814131
30
0
41
1
10
63.318773041073
20
2.47044074788215
30
0
41
1
10
63.2436297086499
20
2.49803700132045
30
0
41
1
10
63.2036608431555
20
2.51282876267803
30
0
41
1
10
63.1403639912732
20
2.5369721426253
30
0
41
1
10
63.1187461737127
20
2.54533199922608
30
0
41
1
10
63.0748513658802
20
2.56260908024524
30
0
41
1
10
63.0525299182433
20
2.5715431840496
30
0
41
1
10
62.9392116771034
20
2.61782487865415
30
0
41
1
10
62.8431152317143
20
2.65999720319971
30
0
41
1
10
62.6934442814766
20
2.7336932902561
30
0
41
1
10
62.6425121756017
20
2.76006400151527
30
0
41
1
10
62.5402655595007
20
2.81605245851497
30
0
41
1
10
62.4888353296813
20
2.84571996868155
30
0
41
1
10
62.4372310908095
20
2.87720059270743
30
0
0
SPLINE
5
120
100
AcDbEntity
8
1
62
256
6
ByLayer
370
18
48
1
60
0
100
AcDbSpline
70
4
71
3
72
49
73
45
40
0
40
0
40
0
40
0
40
0.0709899574734334
40
0.0709899574734334
40
0.141979914946867
40
0.141979914946867
40
0.2129698724203
40
0.2129698724203
40
0.248464851157018
40
0.248464851157018
40
0.283959829893737
40
0.283959829893737
40
0.319454808630455
40
0.319454808630455
40
0.337202297998814
40
0.337202297998814
40
0.354949787367173
40
0.354949787367173
40
0.425939744840614
40
0.425939744840614
40
0.496929702314056
40
0.496929702314056
40
0.532424681050777
40
0.532424681050777
40
0.567919659787498
40
0.567919659787498
40
0.603414638524219
40
0.603414638524219
40
0.63890961726094
40
0.6566571066293
40
0.6566571066293
40
0.674404595997661
40
0.674404595997661
40
0.709899574734384
40
0.709899574734384
40
0.780889532207832
40
0.780889532207832
40
0.851879489681279
40
0.851879489681279
40
0.922869447154726
40
0.922869447154726
40
0.993859404628173
40
0.993859404628173
40
1
40
1
40
1
40
1
41
1
10
62.4372310908095
20
2.87720059270743
30
0
41
1
10
62.2144387268824
20
3.01311273477108
30
0
41
1
10
61.9931679651811
20
3.1417354316828
30
0
41
1
10
61.551505274746
20
3.38288120139649
30
0
41
1
10
61.331217257451
20
3.49552530035967
30
0
41
1
10
60.8909836321031
20
3.7046389654268
30
0
41
1
10
60.6710268782773
20
3.80110130558367
30
0
41
1
10
60.3408484835884
20
3.93323446781824
30
0
41
1
10
60.2307609124905
20
3.97518990547619
30
0
41
1
10
60.0103517314718
20
4.05476366511706
30
0
41
1
10
59.9000139390017
20
4.09237122582806
30
0
41
1
10
59.6787754428729
20
4.16301960568035
30
0
41
1
10
59.5678624433327
20
4.19605515303863
30
0
41
1
10
59.4009155777756
20
4.24207972303404
30
0
41
1
10
59.3451252310913
20
4.25684760092207
30
0
41
1
10
59.23359864198
20
4.28513922146936
30
0
41
1
10
59.1779097173401
20
4.29865220201185
30
0
41
1
10
58.8998116448867
20
4.36307418279475
30
0
41
1
10
58.6784275954184
20
4.40457122164702
30
0
41
1
10
58.2373485775223
20
4.46773682748633
30
0
41
1
10
58.0177707696615
20
4.48939349489456
30
0
41
1
10
57.6883312484229
20
4.5067766611507
30
0
41
1
10
57.5784995577905
20
4.51005630796837
30
0
41
1
10
57.3585242257543
20
4.51159156763251
30
0
41
1
10
57.2483754048573
20
4.50985057675058
30
0
41
1
10
57.0277603507948
20
4.50135216474948
30
0
41
1
10
56.9172962558645
20
4.49459440358018
30
0
41
1
10
56.6960369507214
20
4.47601371267399
30
0
41
1
10
56.5298309749698
20
4.4582788191735
30
0
41
1
10
56.3630663022518
20
4.43478271781413
30
0
41
1
10
56.2517474078399
20
4.41783006483527
30
0
41
1
10
56.1959605902591
20
4.40869914456155
30
0
41
1
10
56.0289075586271
20
4.37945954664545
30
0
41
1
10
55.9178996270791
20
4.35750306157911
30
0
41
1
10
55.5857464891903
20
4.28439988597023
30
0
41
1
10
55.3654577556361
20
4.22600571539738
30
0
41
1
10
54.9249887844205
20
4.09129036235998
30
0
41
1
10
54.7047125032786
20
4.01507872424023
30
0
41
1
10
54.2647596211449
20
3.84464980360104
30
0
41
1
10
54.0450448230889
20
3.75039569158614
30
0
41
1
10
53.6040041105518
20
3.54498004634487
30
0
41
1
10
53.3825905459306
20
3.43391098502394
30
0
41
1
10
53.14050430869
20
3.30440920052979
30
0
41
1
10
53.1212156874813
20
3.29403510061363
30
0
41
1
10
53.1019219803789
20
3.28360288194443
30
0
0
SPLINE
5
121
100
AcDbEntity
8
1
62
256
6
ByLayer
370
18
48
1
60
0
100
AcDbSpline
70
4
71
3
72
78
73
74
40
0
40
0
40
0
40
0
40
0.0043524222252346
40
0.0043524222252346
40
0.0327994958759424
40
0.0612465695266503
40
0.0612465695266503
40
0.0683583379393272
40
0.0683583379393272
40
0.0754701063520042
40
0.0754701063520042
40
0.0896936431773581
40
0.0896936431773581
40
0.118140716828066
40
0.118140716828066
40
0.146587790478774
40
0.146587790478774
40
0.203481937780188
40
0.203481937780188
40
0.260376085081601
40
0.260376085081601
40
0.288823158732308
40
0.288823158732308
40
0.30304669555766
40
0.30304669555766
40
0.317270232383013
40
0.345717306033721
40
0.345717306033721
40
0.374164379684429
40
0.374164379684429
40
0.402611453335136
40
0.402611453335136
40
0.431058526985844
40
0.431058526985844
40
0.459505600636551
40
0.459505600636551
40
0.487952674287259
40
0.487952674287259
40
0.516399747937967
40
0.516399747937967
40
0.530623284763321
40
0.530623284763321
40
0.544846821588675
40
0.544846821588675
40
0.60174096889009
40
0.60174096889009
40
0.630188042540797
40
0.630188042540797
40
0.658635116191504
40
0.658635116191504
40
0.68708218984221
40
0.68708218984221
40
0.715529263492917
40
0.715529263492917
40
0.743976337143624
40
0.743976337143624
40
0.758199873968978
40
0.758199873968978
40
0.772423410794333
40
0.772423410794333
40
0.800870484445042
40
0.800870484445042
40
0.82931755809575
40
0.82931755809575
40
0.857764631746459
40
0.857764631746459
40
0.886211705397167
40
0.886211705397167
40
0.943105852698583
40
0.943105852698583
40
0.971552926349291
40
0.971552926349291
40
1
40
1
40
1
40
1
41
1
10
48.7773787783923
20
4.51099984428876
30
0
41
1
10
48.7971173437194
20
4.51099869082921
30
0
41
1
10
48.8168620816839
20
4.51091685903651
30
0
41
1
10
48.9657095881107
20
4.50969179507101
30
0
41
1
10
49.2244384541271
20
4.50067517491294
30
0
41
1
10
49.4847633382959
20
4.47783849921561
30
0
41
1
10
49.6481565688515
20
4.45924097689337
30
0
41
1
10
49.6808702394496
20
4.45530537727171
30
0
41
1
10
49.7463700645904
20
4.4470014566956
30
0
41
1
10
49.7791675682821
20
4.44263102790862
30
0
41
1
10
49.8774266500319
20
4.42889575941726
30
0
41
1
10
49.9428205986689
20
4.4189004643564
30
0
41
1
10
50.1384916683056
20
4.38636315674034
30
0
41
1
10
50.2681599134977
20
4.36123239738947
30
0
41
1
10
50.5266047214609
20
4.30426644648233
30
0
41
1
10
50.655405130664
20
4.27243658472432
30
0
41
1
10
51.0419465028811
20
4.16758956875057
30
0
41
1
10
51.2996775289653
20
4.08521995707895
30
0
41
1
10
51.8160054058838
20
3.89645372628974
30
0
41
1
10
52.0745773772694
20
3.79003910173159
30
0
41
1
10
52.4637481560221
20
3.61249344143664
30
0
41
1
10
52.5936631624491
20
3.55029582651687
30
0
41
1
10
52.7890020129389
20
3.45250494405454
30
0
41
1
10
52.8542223049648
20
3.41914811415739
30
0
41
1
10
52.9847667988557
20
3.35102144185078
30
0
41
1
10
53.1802027589128
20
3.24699616230566
30
0
41
1
10
53.3747384282046
20
3.13771821342948
30
0
41
1
10
53.6338163860854
20
2.98789131615055
30
0
41
1
10
53.7632508183529
20
2.91096408868924
30
0
41
1
10
54.0220746548701
20
2.75333004281038
30
0
41
1
10
54.1514340691103
20
2.67259611734741
30
0
41
1
10
54.409799524023
20
2.50705725326824
30
0
41
1
10
54.5387643984895
20
2.42220796259835
30
0
41
1
10
54.7961268872119
20
2.24813757495096
30
0
41
1
10
54.9246073180618
20
2.15899802989173
30
0
41
1
10
55.1822685234357
20
1.977722124808
30
0
41
1
10
55.3115613697718
20
1.88572293510808
30
0
41
1
10
55.571131833586
20
1.69910773706232
30
0
41
1
10
55.7013790231779
20
1.60445829714507
30
0
41
1
10
55.8972228113422
20
1.46016944154124
30
0
41
1
10
55.9625755307634
20
1.41167704376161
30
0
41
1
10
56.0934454092903
20
1.31391311969173
30
0
41
1
10
56.1588506017755
20
1.26472900033176
30
0
41
1
10
56.4849619657715
20
1.01804350064086
30
0
41
1
10
56.7437565251604
20
0.817624814359363
30
0
41
1
10
57.1303502313849
20
0.514373383035093
30
0
41
1
10
57.2589684794014
20
0.412877809500003
30
0
41
1
10
57.516428420588
20
0.209983782179421
30
0
41
1
10
57.6453485383352
20
0.108686276232902
30
0
41
1
10
57.9036824426684
20
-0.0934605677316256
30
0
41
1
10
58.0330670041049
20
-0.194347351467712
30
0
41
1
10
58.2919945589106
20
-0.396104184917107
30
0
41
1
10
58.4214880799255
20
-0.497038065225667
30
0
41
1
10
58.6804453260993
20
-0.699136736868013
30
0
41
1
10
58.8099713845484
20
-0.800221302384756
30
0
41
1
10
59.0047622353771
20
-0.951348149831858
30
0
41
1
10
59.0697769249661
20
-1.00163940523407
30
0
41
1
10
59.2000552444955
20
-1.1019499520628
30
0
41
1
10
59.2653243448156
20
-1.15196726772231
30
0
41
1
10
59.4606527659458
20
-1.30076669011339
30
0
41
1
10
59.590548569051
20
-1.39854211482003
30
0
41
1
10
59.8501520479413
20
-1.59077685830076
30
0
41
1
10
59.9798352316709
20
-1.68527127277642
30
0
41
1
10
60.2387725494183
20
-1.87131521834982
30
0
41
1
10
60.3679774284233
20
-1.96292229951783
30
0
41
1
10
60.6258157432287
20
-2.14334825209983
30
0
41
1
10
60.7544941225046
20
-2.23211216206334
30
0
41
1
10
61.1404158763945
20
-2.49333849283028
30
0
41
1
10
61.3975529724042
20
-2.6607187303934
30
0
41
1
10
61.7853286920445
20
-2.89911770720232
30
0
41
1
10
61.9149618081067
20
-2.97644444656737
30
0
41
1
10
62.1753632132505
20
-3.12643252992916
30
0
41
1
10
62.3060948541852
20
-3.19913456287029
30
0
41
1
10
62.4372310908095
20
-3.26963746954271
30
0
0
SPLINE
5
122
100
AcDbEntity
8
1
62
256
6
ByLayer
370
18
48
1
60
0
100
AcDbSpline
70
4
71
3
72
26
73
22
40
0
40
0
40
0
40
0
40
0.12499999999999
40
0.12499999999999
40
0.24999999999998
40
0.24999999999998
40
0.37499999999997
40
0.37499999999997
40
0.49999999999996
40
0.49999999999996
40
0.562499999999965
40
0.562499999999965
40
0.62499999999997
40
0.62499999999997
40
0.749999999999979
40
0.749999999999979
40
0.812499999999983
40
0.812499999999983
40
0.874999999999989
40
0.874999999999989
40
1
40
1
40
1
40
1
41
1
10
62.4372310908095
20
-3.26963746954269
30
0
41
1
10
62.4868853954263
20
-3.2963331632304
30
0
41
1
10
62.5361182438815
20
-3.3247791016307
30
0
41
1
10
62.6335518482695
20
-3.38522412731965
30
0
41
1
10
62.6817531392689
20
-3.41722200417874
30
0
41
1
10
62.77698466812
20
-3.48488568688901
30
0
41
1
10
62.8240127123169
20
-3.52055101126561
30
0
41
1
10
62.9168054492886
20
-3.59576719421886
30
0
41
1
10
62.9625759606515
20
-3.63531059640636
30
0
41
1
10
63.0302629915322
20
-3.69783952773162
30
0
41
1
10
63.0525921146988
20
-3.71915727866883
30
0
41
1
10
63.0964984028746
20
-3.76250515165455
30
0
41
1
10
63.1181174569138
20
-3.78457358507649
30
0
41
1
10
63.1819501535338
20
-3.85200784689084
30
0
41
1
10
63.2231452263788
20
-3.89859296509394
30
0
41
1
10
63.282720259126
20
-3.97123860158518
30
0
41
1
10
63.3022077018493
20
-3.99591724714554
30
0
41
1
10
63.3403901324463
20
-4.04629081090431
30
0
41
1
10
63.3589502415691
20
-4.07181104722906
30
0
41
1
10
63.4126837531636
20
-4.14902935339097
30
0
41
1
10
63.4460417992018
20
-4.20152499220208
30
0
41
1
10
63.4764615753509
20
-4.25520386367097
30
0
0
SPLINE
5
123
100
AcDbEntity
8
1
62
256
6
ByLayer
370
18
48
1
60
0
100
AcDbSpline
70
4
71
3
72
10
73
6
40
0
40
0
40
0
40
0
40
0.5
40
0.5
40
1
40
1
40
1
40
1
41
1
10
63.4764615753509
20
-4.25520386367097
30
0
41
1
10
63.4974936100414
20
-4.29231708506165
30
0
41
1
10
63.5185841722933
20
-4.32934143287525
30
0
41
1
10
63.56075804158
20
-4.40345783542264
30
0
41
1
10
63.5818313192257
20
-4.44057055113382
30
0
41
1
10
63.6028613582399
20
-4.4778006577269
30
0
0
SPLINE
5
124
100
AcDbEntity
8
1
62
256
6
ByLayer
370
18
48
1
60
0
100
AcDbSpline
70
4
71
3
72
8
73
4
40
0
40
0
40
0
40
0
40
1
40
1
40
1
40
1
41
1
10
63.6052740402422
20
-4.47619130549049
30
0
41
1
10
63.6044697562318
20
-4.47672832212615
30
0
41
1
10
63.6036655294536
20
-4.47726477108031
30
0
41
1
10
63.6028613582399
20
-4.47780065772696
30
0
0
SPLINE
5
125
100
AcDbEntity
8
1
62
256
6
ByLayer
370
18
48
1
60
0
100
AcDbSpline
70
4
71
3
72
32
73
28
40
0
40
0
40
0
40
0
40
0.0624999999999953
40
0.0624999999999953
40
0.12499999999999
40
0.12499999999999
40
0.187499999999986
40
0.187499999999986
40
0.249999999999981
40
0.249999999999981
40
0.312499999999976
40
0.312499999999976
40
0.374999999999972
40
0.374999999999972
40
0.500000000000002
40
0.500000000000002
40
0.562499999999998
40
0.562499999999998
40
0.624999999999993
40
0.624999999999993
40
0.749999999999986
40
0.749999999999986
40
0.812499999999982
40
0.812499999999982
40
0.874999999999978
40
0.874999999999978
40
1
40
1
40
1
40
1
41
1
10
64.1249325021407
20
-4.71834803364504
30
0
41
1
10
64.1167741176974
20
-4.70404341602847
30
0
41
1
10
64.1077864899921
20
-4.69040289843565
30
0
41
1
10
64.0884800329399
20
-4.66418759737431
30
0
41
1
10
64.078157549733
20
-4.65161574816361
30
0
41
1
10
64.0563412357193
20
-4.62740993846526
30
0
41
1
10
64.045092405855
20
-4.61604893367905
30
0
41
1
10
64.0221508363503
20
-4.59464201402346
30
0
41
1
10
64.0104377844191
20
-4.58457749113688
30
0
41
1
10
63.9865953398298
20
-4.56556087984328
30
0
41
1
10
63.9743984424274
20
-4.55656631688819
30
0
41
1
10
63.9500262709629
20
-4.53986851429045
30
0
41
1
10
63.9378501820217
20
-4.53215516531967
30
0
41
1
10
63.9013638889669
20
-4.51070012065665
30
0
41
1
10
63.877094334537
20
-4.49862275809892
30
0
41
1
10
63.8408394106624
20
-4.48350640162059
30
0
41
1
10
63.8287624759748
20
-4.47897215126159
30
0
41
1
10
63.8050621713374
20
-4.47103616030074
30
0
41
1
10
63.7933896292267
20
-4.46761213059813
30
0
41
1
10
63.7589178062811
20
-4.45893346693381
30
0
41
1
10
63.7366566563054
20
-4.45524653790568
30
0
41
1
10
63.7045220976717
20
-4.45312984094983
30
0
41
1
10
63.6940633005661
20
-4.4530083546878
30
0
41
1
10
63.6740104875114
20
-4.45399306513954
30
0
41
1
10
63.6643685592125
20
-4.45509498965166
30
0
41
1
10
63.6366909158595
20
-4.46038022006493
30
0
41
1
10
63.6198564719058
20
-4.46645468473147
30
0
41
1
10
63.6052740402422
20
-4.47619130549015
30
0
0
SPLINE
5
126
100
AcDbEntity
8
1
62
256
6
ByLayer
370
18
48
1
60
0
100
AcDbSpline
70
4
71
3
72
8
73
4
40
0
40
0
40
0
40
0
40
1
40
1
40
1
40
1
41
1
10
64.4022809066112
20
-5.21226869859888
30
0
41
1
10
64.3105122955837
20
-5.04656830919774
30
0
41
1
10
64.2181726665889
20
-4.88183198174738
30
0
41
1
10
64.1249325021407
20
-4.71834803364504
30
0
0
SPLINE
5
127
100
AcDbEntity
8
1
62
256
6
ByLayer
370
18
48
1
60
0
100
AcDbSpline
70
4
71
3
72
10
73
6
40
0
40
0
40
0
40
0
40
0.5
40
0.5
40
1
40
1
40
1
40
1
41
1
10
65.3048234807379
20
-5.65745978986416
30
0
41
1
10
65.1553281240196
20
-5.59314208923666
30
0
41
1
10
65.0054740180209
20
-5.52374711556536
30
0
41
1
10
64.7046727551333
20
-5.37524397959876
30
0
41
1
10
64.553773979733
20
-5.29612543481633
30
0
41
1
10
64.4022809066112
20
-5.2122686985989
30
0
0
SPLINE
5
128
100
AcDbEntity
8
1
62
256
6
ByLayer
370
18
48
1
60
0
100
AcDbSpline
70
4
71
3
72
10
73
6
40
0
40
0
40
0
40
0
40
0.5
40
0.5
40
1
40
1
40
1
40
1
41
1
10
65.6713285660373
20
-5.20672469055239
30
0
41
1
10
65.6096435881484
20
-5.28711671898375
30
0
41
1
10
65.5482572616425
20
-5.36496783566756
30
0
41
1
10
65.426036444211
20
-5.51536841202795
30
0
41
1
10
65.3652795220879
20
-5.58779711210994
30
0
41
1
10
65.3048234807379
20
-5.65745978986416
30
0
0
SPLINE
5
129
100
AcDbEntity
8
1
62
256
6
ByLayer
370
18
48
1
60
0
100
AcDbSpline
70
4
71
3
72
32
73
28
40
0
40
0
40
0
40
0
40
0.0625000000000087
40
0.0625000000000087
40
0.125000000000017
40
0.125000000000017
40
0.187500000000026
40
0.187500000000026
40
0.250000000000035
40
0.250000000000035
40
0.312500000000043
40
0.312500000000043
40
0.375000000000052
40
0.375000000000052
40
0.50000000000007
40
0.50000000000007
40
0.562500000000079
40
0.562500000000079
40
0.625000000000088
40
0.625000000000088
40
0.750000000000068
40
0.750000000000068
40
0.812500000000059
40
0.812500000000059
40
0.875000000000049
40
0.875000000000049
40
1
40
1
40
1
40
1
41
1
10
66.191021819313
20
-5.28657249593184
30
0
41
1
10
66.1828649687214
20
-5.27246399144579
30
0
41
1
10
66.1738807476208
20
-5.25948423861345
30
0
41
1
10
66.1545850601157
20
-5.23533214778075
30
0
41
1
10
66.1442699378533
20
-5.22416487780345
30
0
41
1
10
66.1224727760433
20
-5.20342113079332
30
0
41
1
10
66.1112294142642
20
-5.19407374320451
30
0
41
1
10
66.0883054235527
20
-5.17715164583549
30
0
41
1
10
66.0766021279605
20
-5.16956006792452
30
0
41
1
10
66.0527813074544
20
-5.15589466656289
30
0
41
1
10
66.0405967475105
20
-5.1497958781745
30
0
41
1
10
66.0162375347646
20
-5.1391622403537
30
0
41
1
10
66.0040681300386
20
-5.13461831114819
30
0
41
1
10
65.9676021202705
20
-5.1230427588886
30
0
41
1
10
65.9433464013995
20
-5.11804168930919
30
0
41
1
10
65.9071109414186
20
-5.11423657714428
30
0
41
1
10
65.8950336337782
20
-5.11359663101237
30
0
41
1
10
65.8713277159765
20
-5.11356207868803
30
0
41
1
10
65.8596521052137
20
-5.11415989999483
30
0
41
1
10
65.8251700519376
20
-5.1177644284312
30
0
41
1
10
65.8029006703719
20
-5.12255338659159
30
0
41
1
10
65.7707515536209
20
-5.13364918368785
30
0
41
1
10
65.7602702552095
20
-5.13800762109969
30
0
41
1
10
65.7401816345316
20
-5.14795924043935
30
0
41
1
10
65.7305225378332
20
-5.15356811519089
30
0
41
1
10
65.7027960962072
20
-5.17245111989217
30
0
41
1
10
65.6859325248163
20
-5.18769182535186
30
0
41
1
10
65.6713285660404
20
-5.20672469055347
30
0
0
SPLINE
5
12A
100
AcDbEntity
8
1
62
256
6
ByLayer
370
18
48
1
60
0
100
AcDbSpline
70
4
71
3
72
10
73
6
40
0
40
0
40
0
40
0
40
0.5
40
0.5
40
1
40
1
40
1
40
1
41
1
10
66.6588184703546
20
-6.09209912398481
30
0
41
1
10
66.581878997021
20
-5.96055716135689
30
0
41
1
10
66.5044424735098
20
-5.82752445134767
30
0
41
1
10
66.3484674470504
20
-5.55877542707884
30
0
41
1
10
66.2700556989516
20
-5.42327352200863
30
0
41
1
10
66.191021819313
20
-5.28657249593184
30
0
0
SPLINE
5
12B
100
AcDbEntity
8
1
62
256
6
ByLayer
370
18
48
1
60
0
100
AcDbSpline
70
4
71
3
72
10
73
6
40
0
40
0
40
0
40
0
40
0.5
40
0.5
40
1
40
1
40
1
40
1
41
1
10
67.2044586384486
20
-6.17921246851841
30
0
41
1
10
67.1137257470963
20
-6.16918700248846
30
0
41
1
10
67.0229775269605
20
-6.15688945289784
30
0
41
1
10
66.8411497843373
20
-6.12782080627724
30
0
41
1
10
66.7500525926775
20
-6.11105064237722
30
0
41
1
10
66.6588184703546
20
-6.09209912398481
30
0
0
SPLINE
5
12C
100
AcDbEntity
8
1
62
256
6
ByLayer
370
18
48
1
60
0
100
AcDbSpline
70
4
71
3
72
10
73
6
40
0
40
0
40
0
40
0
40
0.5
40
0.5
40
1
40
1
40
1
40
1
41
1
10
67.7373455357917
20
-5.26734349709974
30
0
41
1
10
67.6472025186921
20
-5.42667408493531
30
0
41
1
10
67.5577089844561
20
-5.58256477479284
30
0
41
1
10
67.3799447764904
20
-5.88698079663632
30
0
41
1
10
67.2918990632022
20
-6.03510447320494
30
0
41
1
10
67.2044586384486
20
-6.17921246851844
30
0
0
SPLINE
5
12D
100
AcDbEntity
8
1
62
256
6
ByLayer
370
18
48
1
60
0
100
AcDbSpline
70
4
71
3
72
32
73
28
40
0
40
0
40
0
40
0
40
0.0625000000000196
40
0.0625000000000196
40
0.125000000000039
40
0.125000000000039
40
0.187500000000059
40
0.187500000000059
40
0.250000000000078
40
0.250000000000078
40
0.312500000000098
40
0.312500000000098
40
0.375000000000118
40
0.375000000000118
40
0.500000000000117
40
0.500000000000117
40
0.562500000000116
40
0.562500000000116
40
0.625000000000116
40
0.625000000000116
40
0.750000000000078
40
0.750000000000078
40
0.812500000000058
40
0.812500000000058
40
0.875000000000039
40
0.875000000000039
40
1
40
1
40
1
40
1
41
1
10
68.2570511406463
20
-5.17479475491734
30
0
41
1
10
68.2489022229279
20
-5.16272910585928
30
0
41
1
10
68.2399287412671
20
-5.15210585808418
30
0
41
1
10
68.2206595845823
20
-5.13316647936719
30
0
41
1
10
68.2103602663795
20
-5.12485686377781
30
0
41
1
10
68.1885998634954
20
-5.11026776749279
30
0
41
1
10
68.1773682158478
20
-5.10414506175533
30
0
41
1
10
68.1544755503498
20
-5.09389455574262
30
0
41
1
10
68.1427884722583
20
-5.08975410827333
30
0
41
1
10
68.119001079731
20
-5.08319510417013
30
0
41
1
10
68.1068347918407
20
-5.08077195293049
30
0
41
1
10
68.082493039087
20
-5.07756271951143
30
0
41
1
10
68.0703318467209
20
-5.07676703844572
30
0
41
1
10
68.0338888165229
20
-5.07653799035506
30
0
41
1
10
68.0096462184342
20
-5.07923528149252
30
0
41
1
10
67.9734263758268
20
-5.08719007353699
30
0
41
1
10
67.9613461031967
20
-5.09051603617129
30
0
41
1
10
67.9376261092373
20
-5.09836804606786
30
0
41
1
10
67.9259432238617
20
-5.10290015255612
30
0
41
1
10
67.8914385851784
20
-5.11828891621016
30
0
41
1
10
67.8691531260459
20
-5.13090993565825
30
0
41
1
10
67.8369790289272
20
-5.15374222903316
30
0
41
1
10
67.8264705005898
20
-5.16201735604443
30
0
41
1
10
67.8063353973036
20
-5.17964571492911
30
0
41
1
10
67.7966546486268
20
-5.18903404257998
30
0
41
1
10
67.7688685014909
20
-5.21906389388036
30
0
41
1
10
67.7519719084626
20
-5.2414909282538
30
0
41
1
10
67.7373455357917
20
-5.26734349709983
30
0
0
SPLINE
5
12E
100
AcDbEntity
8
1
62
256
6
ByLayer
370
18
48
1
60
0
100
AcDbSpline
70
4
71
3
72
12
73
8
40
0
40
0
40
0
40
0
40
0.25
40
0.25
40
0.5
40
0.5
40
1
40
1
40
1
40
1
41
1
10
68.9135762407197
20
-6.09227436661087
30
0
41
1
10
68.8599087544482
20
-6.02212411218807
30
0
41
1
10
68.806003904922
20
-5.95034761885111
30
0
41
1
10
68.6976381617256
20
-5.80355951383646
30
0
41
1
10
68.6431580218289
20
-5.72852195582669
30
0
41
1
10
68.4788951154816
20
-5.49877825643426
30
0
41
1
10
68.3686269494365
20
-5.33999884688981
30
0
41
1
10
68.2570511406463
20
-5.17479475491734
30
0
0
SPLINE
5
12F
100
AcDbEntity
8
1
62
256
6
ByLayer
370
18
48
1
60
0
100
AcDbSpline
70
4
71
3
72
8
73
4
40
0
40
0
40
0
40
0
40
1
40
1
40
1
40
1
41
1
10
68.9135762407197
20
-6.09227436661084
30
0
41
1
10
68.9838906752763
20
-6.0674796705305
30
0
41
1
10
69.0543664590171
20
-6.04122281568553
30
0
41
1
10
69.124511221467
20
-6.01367506325741
30
0
0
SPLINE
5
130
100
AcDbEntity
8
1
62
256
6
ByLayer
370
18
48
1
60
0
100
AcDbSpline
70
4
71
3
72
12
73
8
40
0
40
0
40
0
40
0
40
0.500000000000001
40
0.500000000000001
40
0.75
40
0.75
40
1
40
1
40
1
40
1
41
1
10
69.8034994313274
20
-4.64916928852873
30
0
41
1
10
69.6880774184351
20
-4.88091074931464
30
0
41
1
10
69.5739298773778
20
-5.11084481312173
30
0
41
1
10
69.4041463207995
20
-5.45269018157032
30
0
41
1
10
69.3478484939664
20
-5.56598573917978
30
0
41
1
10
69.2358219225887
20
-5.79096688910076
30
0
41
1
10
69.1800647938767
20
-5.90270507902196
30
0
41
1
10
69.124511221467
20
-6.01367506325741
30
0
0
SPLINE
5
131
100
AcDbEntity
8
1
62
256
6
ByLayer
370
18
48
1
60
0
100
AcDbSpline
70
4
71
3
72
32
73
28
40
0
40
0
40
0
40
0
40
0.0624999999999716
40
0.0624999999999716
40
0.124999999999943
40
0.124999999999943
40
0.187499999999915
40
0.187499999999915
40
0.249999999999886
40
0.249999999999886
40
0.312499999999858
40
0.312499999999858
40
0.374999999999829
40
0.374999999999829
40
0.499999999999813
40
0.499999999999813
40
0.562499999999824
40
0.562499999999824
40
0.624999999999835
40
0.624999999999835
40
0.749999999999893
40
0.749999999999893
40
0.81249999999992
40
0.81249999999992
40
0.874999999999947
40
0.874999999999947
40
1
40
1
40
1
40
1
41
1
10
70.32312545418
20
-4.39488583834239
30
0
41
1
10
70.3149817023916
20
-4.38643585602068
30
0
41
1
10
70.306014944776
20
-4.37955351047313
30
0
41
1
10
70.2867609386808
20
-4.36829512406223
30
0
41
1
10
70.2764700599126
20
-4.36392619008583
30
0
41
1
10
70.2547271268844
20
-4.3573947530158
30
0
41
1
10
70.2434996518312
20
-4.35530307801295
30
0
41
1
10
70.2206175181478
20
-4.35307571013598
30
0
41
1
10
70.2089348966472
20
-4.35293588714319
30
0
41
1
10
70.1851541396748
20
-4.35436294265736
30
0
41
1
10
70.1729903595867
20
-4.35594605798204
30
0
41
1
10
70.1486443652726
20
-4.36062437075404
30
0
41
1
10
70.1364801665806
20
-4.36370570211633
30
0
41
1
10
70.1000260982083
20
-4.37493718980335
30
0
41
1
10
70.0757734403179
20
-4.38504944733407
30
0
41
1
10
70.0395372932022
20
-4.40385149912319
30
0
41
1
10
70.0274509336548
20
-4.41075597350658
30
0
41
1
10
70.003720582928
20
-4.42556606019414
30
0
41
1
10
69.9920333811984
20
-4.43349083586321
30
0
41
1
10
69.9575187573111
20
-4.45880983498753
30
0
41
1
10
69.9352306180907
20
-4.4777248970133
30
0
41
1
10
69.9030588776886
20
-4.50948249249569
30
0
41
1
10
69.8925547127327
20
-4.52064131748949
30
0
41
1
10
69.8724304042326
20
-4.54373326956187
30
0
41
1
10
69.8627561081331
20
-4.55571661247836
30
0
41
1
10
69.8349909740507
20
-4.59308581435161
30
0
41
1
10
69.8181108210887
20
-4.6198329017987
30
0
41
1
10
69.8034994313274
20
-4.64916928852898
30
0
0
SPLINE
5
132
100
AcDbEntity
8
1
62
256
6
ByLayer
370
18
48
1
60
0
100
AcDbSpline
70
4
71
3
72
14
73
10
40
0
40
0
40
0
40
0
40
0.25
40
0.25
40
0.5
40
0.5
40
0.75
40
0.75
40
1
40
1
40
1
40
1
41
1
10
70.9806251768663
20
-4.98379853848959
30
0
41
1
10
70.9269468826133
20
-4.94353360602119
30
0
41
1
10
70.8730123650446
20
-4.90106141382881
30
0
41
1
10
70.7645466976902
20
-4.811674746373
30
0
41
1
10
70.70998541793
20
-4.76473490862358
30
0
41
1
10
70.6003470948216
20
-4.66655384764456
30
0
41
1
10
70.5452729334675
20
-4.61534154180686
30
0
41
1
10
70.4345887946753
20
-4.50850393786899
30
0
41
1
10
70.3790086729662
20
-4.45287044090514
30
0
41
1
10
70.32312545418
20
-4.39488583834239
30
0
0
SPLINE
5
133
100
AcDbEntity
8
1
62
256
6
ByLayer
370
18
48
1
60
0
100
AcDbSpline
70
4
71
3
72
8
73
4
40
0
40
0
40
0
40
0
40
1
40
1
40
1
40
1
41
1
10
70.9806251768663
20
-4.98379853848883
30
0
41
1
10
71.0502978763583
20
-4.93463046901826
30
0
41
1
10
71.1200179729441
20
-4.88427897323803
30
0
41
1
10
71.1897863527658
20
-4.83273021491678
30
0
0
SPLINE
5
134
100
AcDbEntity
8
1
62
256
6
ByLayer
370
18
48
1
60
0
100
AcDbSpline
70
4
71
3
72
10
73
6
40
0
40
0
40
0
40
0
40
0.482987221957998
40
0.482987221957998
40
1
40
1
40
1
40
1
41
1
10
71.5151462475541
20
-4.1503712740334
30
0
41
1
10
71.4622607502271
20
-4.25961966158681
30
0
41
1
10
71.4096540454155
20
-4.36920981303288
30
0
41
1
10
71.3011660598062
20
-4.59672783638047
30
0
41
1
10
71.2453362782088
20
-4.71466379273741
30
0
41
1
10
71.1897863527657
20
-4.83273021491689
30
0
0
SPLINE
5
135
100
AcDbEntity
8
1
62
256
6
ByLayer
370
18
48
1
60
0
100
AcDbSpline
70
4
71
3
72
8
73
4
40
0
40
0
40
0
40
0
40
1
40
1
40
1
40
1
41
1
10
63.7061696459983
20
-5.48593242096004
30
0
41
1
10
63.742372353688
20
-5.42366651192435
30
0
41
1
10
63.7786702054318
20
-5.36119338317414
30
0
41
1
10
63.8150751076003
20
-5.29851576379104
30
0
0
SPLINE
5
136
100
AcDbEntity
8
1
62
256
6
ByLayer
370
18
48
1
60
0
100
AcDbSpline
70
4
71
3
72
20
73
16
40
0
40
0
40
0
40
0
40
0.0907366656828171
40
0.0907366656828171
40
0.242280554735679
40
0.242280554735679
40
0.31805249926212
40
0.31805249926212
40
0.393824443788561
40
0.393824443788561
40
0.69691222189428
40
0.69691222189428
40
0.84845611094714
40
0.84845611094714
40
1
40
1
40
1
40
1
41
1
10
63.3460659126375
20
-4.92740333573119
30
0
41
1
10
63.3253328723532
20
-4.90337339565463
30
0
41
1
10
63.3036973510271
20
-4.88007165246023
30
0
41
1
10
63.24362970865
20
-4.81984446066133
30
0
41
1
10
63.2036608431555
20
-4.7842589185077
30
0
41
1
10
63.1403639912732
20
-4.73419662238953
30
0
41
1
10
63.1187461737127
20
-4.71809773181295
30
0
41
1
10
63.0748513658801
20
-4.68730508560142
30
0
41
1
10
63.0525299182433
20
-4.67257556902834
30
0
41
1
10
62.9392116771034
20
-4.60222594669241
30
0
41
1
10
62.8431152317143
20
-4.55645704916674
30
0
41
1
10
62.6934442814767
20
-4.50345899513627
30
0
41
1
10
62.6425121756017
20
-4.48839454728306
30
0
41
1
10
62.5402655595007
20
-4.46383223781595
30
0
41
1
10
62.4888353296813
20
-4.45427915027565
30
0
41
1
10
62.4372310908095
20
-4.44744198577382
30
0
0
SPLINE
5
137
100
AcDbEntity
8
1
62
256
6
ByLayer
370
18
48
1
60
0
100
AcDbSpline
70
4
71
3
72
107
73
103
40
0
40
0
40
0
40
0
40
0.0312499999999976
40
0.0312499999999976
40
0.0624999999999952
40
0.0624999999999952
40
0.0937499999999928
40
0.0937499999999928
40
0.109374999999992
40
0.109374999999992
40
0.12499999999999
40
0.12499999999999
40
0.140624999999989
40
0.140624999999989
40
0.148437499999989
40
0.148437499999989
40
0.156249999999988
40
0.156249999999988
40
0.187499999999988
40
0.187499999999988
40
0.218749999999988
40
0.218749999999988
40
0.234374999999988
40
0.234374999999988
40
0.249999999999988
40
0.249999999999988
40
0.265624999999988
40
0.265624999999988
40
0.281249999999988
40
0.289062499999988
40
0.289062499999988
40
0.296874999999988
40
0.296874999999988
40
0.31249999999999
40
0.31249999999999
40
0.343749999999992
40
0.343749999999992
40
0.374999999999994
40
0.374999999999994
40
0.406249999999997
40
0.406249999999997
40
0.437499999999999
40
0.437499999999999
40
0.4453125
40
0.4453125
40
0.453125
40
0.46875
40
0.46875
40
0.499999999999999
40
0.499999999999999
40
0.531249999999998
40
0.531249999999998
40
0.562499999999996
40
0.562499999999996
40
0.578124999999996
40
0.578124999999996
40
0.585937499999996
40
0.585937499999996
40
0.593749999999995
40
0.593749999999995
40
0.609374999999995
40
0.609374999999995
40
0.624999999999994
40
0.624999999999994
40
0.656249999999991
40
0.656249999999991
40
0.687499999999989
40
0.687499999999989
40
0.718749999999986
40
0.718749999999986
40
0.734374999999986
40
0.734374999999986
40
0.742187499999985
40
0.742187499999985
40
0.749999999999985
40
0.765624999999986
40
0.765624999999986
40
0.781249999999986
40
0.781249999999986
40
0.812499999999988
40
0.812499999999988
40
0.828124999999988
40
0.828124999999988
40
0.843749999999989
40
0.843749999999989
40
0.859374999999989
40
0.859374999999989
40
0.87499999999999
40
0.87499999999999
40
0.88281249999999
40
0.88281249999999
40
0.89062499999999
40
0.89062499999999
40
0.906249999999992
40
0.906249999999992
40
0.937499999999994
40
0.937499999999994
40
0.953124999999995
40
0.953124999999995
40
0.968749999999997
40
0.968749999999997
40
1
40
1
40
1
40
1
41
1
10
62.4372310908095
20
-4.44744198577382
30
0
41
1
10
62.2144387268823
20
-4.41792371217414
30
0
41
1
10
61.9931679651811
20
-4.37832616969581
30
0
41
1
10
61.5515052747459
20
-4.28022123935145
30
0
41
1
10
61.331217257451
20
-4.22170675932225
30
0
41
1
10
60.8909836321031
20
-4.08640987952649
30
0
41
1
10
60.6710268782772
20
-4.00963457644855
30
0
41
1
10
60.3408484835884
20
-3.88097322627374
30
0
41
1
10
60.2307609124905
20
-3.83582447038862
30
0
41
1
10
60.0103517314717
20
-3.7410685464591
30
0
41
1
10
59.9000139390017
20
-3.6914713849616
30
0
41
1
10
59.6787754428728
20
-3.5880099791535
30
0
41
1
10
59.5678624433326
20
-3.53415653585765
30
0
41
1
10
59.4009155777756
20
-3.45027146695935
30
0
41
1
10
59.3451252310913
20
-3.42176291037072
30
0
41
1
10
59.2335986419801
20
-3.36382964274981
30
0
41
1
10
59.17790971734
20
-3.33443048699658
30
0
41
1
10
58.8998116448866
20
-3.18531198848081
30
0
41
1
10
58.6784275954184
20
-3.05924997280374
30
0
41
1
10
58.2373485775222
20
-2.79428734888623
30
0
41
1
10
58.0177707696614
20
-2.6552497597107
30
0
41
1
10
57.6883312484229
20
-2.43842810292421
30
0
41
1
10
57.5784995577905
20
-2.36478500797341
30
0
41
1
10
57.3585242257543
20
-2.21506940499336
30
0
41
1
10
57.2483754048572
20
-2.13900453896124
30
0
41
1
10
57.0277603507948
20
-1.98445567503015
30
0
41
1
10
56.9172962558646
20
-1.9059691092547
30
0
41
1
10
56.6960369507214
20
-1.74656516168719
30
0
41
1
10
56.5298309749698
20
-1.62520346136401
30
0
41
1
10
56.3630663022518
20
-1.50127957336866
30
0
41
1
10
56.2517474078399
20
-1.41811003513183
30
0
41
1
10
56.1959605902591
20
-1.37620595447174
30
0
41
1
10
56.0289075586271
20
-1.25010210338397
30
0
41
1
10
55.917899627079
20
-1.16547616289515
30
0
41
1
10
55.5857464891902
20
-0.910200493893655
30
0
41
1
10
55.365457755636
20
-0.738170146036083
30
0
41
1
10
54.9249887844204
20
-0.393217998780926
30
0
41
1
10
54.704712503278
20
-0.220421396139983
30
0
41
1
10
54.2647596211443
20
0.126683251298715
30
0
41
1
10
54.0450448230889
20
0.300944891550557
30
0
41
1
10
53.6040041105518
20
0.648157710215628
30
0
41
1
10
53.3825905459306
20
0.820994948880099
30
0
41
1
10
53.104074266508
20
1.03527298015089
30
0
41
1
10
53.0482423086407
20
1.07807650623178
30
0
41
1
10
52.936819364658
20
1.16317435363288
30
0
41
1
10
52.7699219711064
20
1.29015356959908
30
0
41
1
10
52.6036777956517
20
1.41508109131036
30
0
41
1
10
52.2719056498979
20
1.66205227826242
30
0
41
1
10
52.0516964789742
20
1.82287459143401
30
0
41
1
10
51.6118906292734
20
2.13539413084982
30
0
41
1
10
51.3923129130835
20
2.2871120904986
30
0
41
1
10
50.9523968257302
20
2.57989176728608
30
0
41
1
10
50.7320027530712
20
2.72089465812817
30
0
41
1
10
50.3997839461355
20
2.92324759793786
30
0
41
1
10
50.2888097207568
20
2.9892116668255
30
0
41
1
10
50.1220467870168
20
3.08594582220246
30
0
41
1
10
50.0664087419779
20
3.11782144954552
30
0
41
1
10
49.9550373204154
20
3.18083117408238
30
0
41
1
10
49.8992964919561
20
3.21197261810636
30
0
41
1
10
49.7325271907923
20
3.30381935294807
30
0
41
1
10
49.6217096481853
20
3.36305936002114
30
0
41
1
10
49.4004101225711
20
3.47728861805893
30
0
41
1
10
49.2899567690206
20
3.53230527043991
30
0
41
1
10
48.9590097409789
20
3.69101537335379
30
0
41
1
10
48.7389302641436
20
3.78837440234892
30
0
41
1
10
48.2988274978557
20
3.96571072502411
30
0
41
1
10
48.0788469804352
20
4.04572751177568
30
0
41
1
10
47.6385300392867
20
4.18799595112998
30
0
41
1
10
47.4181052604641
20
4.25017514135757
30
0
41
1
10
47.0857606662081
20
4.32912086170862
30
0
41
1
10
46.9746944051845
20
4.35305028322301
30
0
41
1
10
46.8075082169376
20
4.38526702320013
30
0
41
1
10
46.7517179012983
20
4.39538401358857
30
0
41
1
10
46.6403754588646
20
4.41431432988875
30
0
41
1
10
46.4735648564419
20
4.44078500623169
30
0
41
1
10
46.307351471009
20
4.46153543865722
30
0
41
1
10
46.0862256990818
20
4.48416732403561
30
0
41
1
10
45.9759198265729
20
4.49296567232437
30
0
41
1
10
45.6455160896779
20
4.51180843444456
30
0
41
1
10
45.4259153405924
20
4.51429296635851
30
0
41
1
10
45.096311352797
20
4.50295459382721
30
0
41
1
10
44.986406888676
20
4.49666530419265
30
0
41
1
10
44.7663041952543
20
4.47909456473607
30
0
41
1
10
44.6560880195753
20
4.4678173691029
30
0
41
1
10
44.4352601621488
20
4.44028701539227
30
0
41
1
10
44.3246607847325
20
4.4240325025647
30
0
41
1
10
44.1031106957909
20
4.38648462440608
30
0
41
1
10
43.9921711749097
20
4.36518585408291
30
0
41
1
10
43.8253888570954
20
4.32941641274539
30
0
41
1
10
43.769731980722
20
4.31685654746113
30
0
41
1
10
43.6582703777271
20
4.29045774925265
30
0
41
1
10
43.6025828119935
20
4.27664600139428
30
0
41
1
10
43.4358533143399
20
4.23345404380686
30
0
41
1
10
43.3250526397785
20
4.20228965831816
30
0
41
1
10
42.9933648516926
20
4.10192748439641
30
0
41
1
10
42.7731339979253
20
4.02588121350817
30
0
41
1
10
42.4426879867681
20
3.89926392373542
30
0
41
1
10
42.3325639427598
20
3.85494616306101
30
0
41
1
10
42.1124328806941
20
3.76205850239501
30
0
41
1
10
42.0024463189383
20
3.71347261760266
30
0
41
1
10
41.6725436314756
20
3.56137566585383
30
0
41
1
10
41.4526191354198
20
3.45156497310748
30
0
41
1
10
41.2318396853275
20
3.33390521344552
30
0
0
SPLINE
5
138
100
AcDbEntity
8
1
62
256
6
ByLayer
370
18
48
1
60
0
100
AcDbSpline
70
4
71
3
72
10
73
6
40
0
40
0
40
0
40
0
40
0.191964891424479
40
0.191964891424479
40
1
40
1
40
1
40
1
41
1
10
41.2318395781806
20
3.33390442577294
30
0
41
1
10
41.2287695586728
20
3.32734694877874
30
0
41
1
10
41.2256839925003
20
3.32080359868641
30
0
41
1
10
41.2095304683445
20
3.28679372696212
30
0
41
1
10
41.196219733142
20
3.25959106125552
30
0
41
1
10
41.1826458100495
20
3.23267236774029
30
0
0
SPLINE
5
139
100
AcDbEntity
8
1
62
256
6
ByLayer
370
18
48
1
60
0
100
AcDbSpline
70
4
71
3
72
120
73
116
40
0
40
0
40
0
40
0
40
0.0180459808879938
40
0.0180459808879938
40
0.0360919617759877
40
0.0360919617759877
40
0.0541379426639815
40
0.0541379426639815
40
0.0721839235519753
40
0.0721839235519753
40
0.0902299044399691
40
0.0902299044399691
40
0.108275885327963
40
0.126321866215957
40
0.126321866215957
40
0.135344856659954
40
0.135344856659954
40
0.144367847103951
40
0.144367847103951
40
0.162413827991944
40
0.162413827991944
40
0.180459808879938
40
0.180459808879938
40
0.216551770655926
40
0.216551770655926
40
0.23459775154392
40
0.23459775154392
40
0.243620741987916
40
0.243620741987916
40
0.252643732431912
40
0.252643732431912
40
0.270689713319906
40
0.270689713319906
40
0.279712703763902
40
0.279712703763902
40
0.288735694207899
40
0.306781675095891
40
0.306781675095891
40
0.324827655983884
40
0.324827655983884
40
0.342873636871876
40
0.342873636871876
40
0.360919617759869
40
0.360919617759869
40
0.378965598647862
40
0.378965598647862
40
0.397011579535854
40
0.397011579535854
40
0.415057560423847
40
0.415057560423847
40
0.424080550867844
40
0.424080550867844
40
0.433103541311841
40
0.433103541311841
40
0.469195503087829
40
0.469195503087829
40
0.487241483975824
40
0.487241483975824
40
0.505287464863818
40
0.505287464863818
40
0.523333445751813
40
0.523333445751813
40
0.541379426639807
40
0.559425407527801
40
0.559425407527801
40
0.5639369027498
40
0.5639369027498
40
0.568448397971798
40
0.568448397971798
40
0.577471388415796
40
0.577471388415796
40
0.59551736930379
40
0.59551736930379
40
0.613563350191785
40
0.613563350191785
40
0.649655311967773
40
0.649655311967773
40
0.685747273743762
40
0.685747273743762
40
0.703793254631756
40
0.703793254631756
40
0.712816245075754
40
0.712816245075754
40
0.721839235519751
40
0.739885216407746
40
0.739885216407746
40
0.757931197295741
40
0.757931197295741
40
0.775977178183737
40
0.775977178183737
40
0.794023159071732
40
0.794023159071732
40
0.812069139959727
40
0.812069139959727
40
0.830115120847722
40
0.830115120847722
40
0.848161101735717
40
0.848161101735717
40
0.857184092179714
40
0.857184092179714
40
0.866207082623712
40
0.866207082623712
40
0.902299044399701
40
0.902299044399701
40
0.920345025287695
40
0.920345025287695
40
0.93839100617569
40
0.93839100617569
40
0.956436987063684
40
0.956436987063684
40
0.974482967951679
40
0.974482967951679
40
0.992528948839673
40
0.992528948839673
40
1
40
1
40
1
40
1
41
1
10
37.57511384361
20
4.46649163922763
30
0
41
1
10
37.7052269210442
20
4.45220373777292
30
0
41
1
10
37.8347587555174
20
4.4344855124271
30
0
41
1
10
38.0929831088939
20
4.39223934376793
30
0
41
1
10
38.2216916730403
20
4.36771080547894
30
0
41
1
10
38.4789859164619
20
4.31207700859636
30
0
41
1
10
38.6076073442859
20
4.28098422908073
30
0
41
1
10
38.865497121268
20
4.21264076177599
30
0
41
1
10
38.9946971980585
20
4.17537404671947
30
0
41
1
10
39.2532977010686
20
4.09454847262418
30
0
41
1
10
39.3826414145465
20
4.05095436135878
30
0
41
1
10
39.6415568262178
20
3.95739032132929
30
0
41
1
10
39.9007278243887
20
3.85746417698533
30
0
41
1
10
40.1609488496816
20
3.74490164112297
30
0
41
1
10
40.3567427791652
20
3.65579557438858
30
0
41
1
10
40.4219925775207
20
3.6253667159433
30
0
41
1
10
40.5521832772548
20
3.56325283441348
30
0
41
1
10
40.617174519305
20
3.53154496242075
30
0
41
1
10
40.8119184434188
20
3.43455242129463
30
0
41
1
10
40.9414469435156
20
3.36740227164694
30
0
41
1
10
41.2003630140966
20
3.22861846360564
30
0
41
1
10
41.32972898999
20
3.15696956286874
30
0
41
1
10
41.7175864932354
20
2.9353851390263
30
0
41
1
10
41.9758545208552
20
2.77887535356945
30
0
41
1
10
42.3620581626315
20
2.52996052960157
30
0
41
1
10
42.4906457541167
20
2.44466478936207
30
0
41
1
10
42.6840853701196
20
2.31404103345918
30
0
41
1
10
42.7486667314827
20
2.27006380973901
30
0
41
1
10
42.8781494757194
20
2.18137432784266
30
0
41
1
10
42.9430384214111
20
2.13664862173539
30
0
41
1
10
43.1381096051765
20
2.00129020614304
30
0
41
1
10
43.2687009767687
20
1.90948645954089
30
0
41
1
10
43.4651585945957
20
1.76910292444291
30
0
41
1
10
43.5307332464257
20
1.72185031404499
30
0
41
1
10
43.6614345021984
20
1.62686272873089
30
0
41
1
10
43.8570597425148
20
1.48351002553514
30
0
41
1
10
44.0515364057106
20
1.33770993011055
30
0
41
1
10
44.3099932443709
20
1.14135490829764
30
0
41
1
10
44.4387658606276
20
1.04215759155682
30
0
41
1
10
44.6960627120498
20
0.842558481752519
30
0
41
1
10
44.8246263135483
20
0.74220642806057
30
0
41
1
10
45.0822359444573
20
0.541238200170341
30
0
41
1
10
45.2112257013699
20
0.440551550314865
30
0
41
1
10
45.4695705980235
20
0.23877626066934
30
0
41
1
10
45.5989254840823
20
0.137687481780915
30
0
41
1
10
45.8578976024834
20
-0.0650295019014493
30
0
41
1
10
45.9875231889037
20
-0.166647136179307
30
0
41
1
10
46.2471063691035
20
-0.370349362234038
30
0
41
1
10
46.377036860506
20
-0.472470160012421
30
0
41
1
10
46.5724931734004
20
-0.625611415600304
30
0
41
1
10
46.6378075966201
20
-0.67670102768335
30
0
41
1
10
46.7681435224746
20
-0.778319777361901
30
0
41
1
10
46.8332130827133
20
-0.828886286638152
30
0
41
1
10
47.1582947991419
20
-1.08023447771288
30
0
41
1
10
47.4175559950772
20
-1.27652797700065
30
0
41
1
10
47.8055411679003
20
-1.56373015709204
30
0
41
1
10
47.9347038537462
20
-1.65827244927772
30
0
41
1
10
48.1925702678767
20
-1.84511626252163
30
0
41
1
10
48.3212623542703
20
-1.93742757988275
30
0
41
1
10
48.5787215154932
20
-2.11914877657688
30
0
41
1
10
48.7075180601638
20
-2.20852525857657
30
0
41
1
10
48.9657095881108
20
-2.38377688561062
30
0
41
1
10
49.224438454127
20
-2.55559807381258
30
0
41
1
10
49.4847633382959
20
-2.71995863388034
30
0
41
1
10
49.6481565688515
20
-2.82013547968103
30
0
41
1
10
49.6808702394497
20
-2.84004290076774
30
0
41
1
10
49.7463700645905
20
-2.87959889827744
30
0
41
1
10
49.7791675682821
20
-2.89925575862492
30
0
41
1
10
49.8774266500319
20
-2.95772627031786
30
0
41
1
10
49.9428205986689
20
-2.99607912463213
30
0
41
1
10
50.1384916683056
20
-3.10943778835366
30
0
41
1
10
50.2681599134977
20
-3.18283078750474
30
0
41
1
10
50.526604721461
20
-3.3245934009521
30
0
41
1
10
50.655405130664
20
-3.39293842569725
30
0
41
1
10
51.0419465028811
20
-3.58925176663092
30
0
41
1
10
51.2996775289653
20
-3.70868829593076
30
0
41
1
10
51.8160054058838
20
-3.92454156534455
30
0
41
1
10
52.0745773772694
20
-4.0209725911435
30
0
41
1
10
52.4637481560221
20
-4.14762288019634
30
0
41
1
10
52.5936631624492
20
-4.1868481220273
30
0
41
1
10
52.7890020129389
20
-4.24100391713318
30
0
41
1
10
52.8542223049647
20
-4.25828005481691
30
0
41
1
10
52.9847667988557
20
-4.29119879579375
30
0
41
1
10
53.1802027589128
20
-4.3379935579334
30
0
41
1
10
53.3747384282046
20
-4.37700669497014
30
0
41
1
10
53.6338163860854
20
-4.4220898962821
30
0
41
1
10
53.7632508183529
20
-4.44115571401369
30
0
41
1
10
54.0220746548701
20
-4.47245433311588
30
0
41
1
10
54.1514340691103
20
-4.48469884732563
30
0
41
1
10
54.4097995240229
20
-4.50245198329486
30
0
41
1
10
54.5387643984895
20
-4.50796359470172
30
0
41
1
10
54.7961268872118
20
-4.51213755214232
30
0
41
1
10
54.9246073180618
20
-4.51077982328366
30
0
41
1
10
55.1822685234357
20
-4.5011400594739
30
0
41
1
10
55.3115613697719
20
-4.49287998075502
30
0
41
1
10
55.5711318335861
20
-4.46954963627113
30
0
41
1
10
55.7013790231779
20
-4.45448039139146
30
0
41
1
10
55.8972228113422
20
-4.4266673255928
30
0
41
1
10
55.9625755307634
20
-4.41652427567138
30
0
41
1
10
56.0934454092903
20
-4.39447405889834
30
0
41
1
10
56.1588506017755
20
-4.38258511718749
30
0
41
1
10
56.4849619657715
20
-4.31901223269964
30
0
41
1
10
56.7437565251604
20
-4.25480944747329
30
0
41
1
10
57.1303502313849
20
-4.13935291365473
30
0
41
1
10
57.2589684794013
20
-4.09767845961872
30
0
41
1
10
57.516428420588
20
-4.00839123601642
30
0
41
1
10
57.6453485383352
20
-3.96083045017994
30
0
41
1
10
57.9036824426684
20
-3.86005247065273
30
0
41
1
10
58.0330670041049
20
-3.80682142576205
30
0
41
1
10
58.2919945589107
20
-3.69448333169487
30
0
41
1
10
58.4214880799256
20
-3.63533869868624
30
0
41
1
10
58.6804453260993
20
-3.51087744429998
30
0
41
1
10
58.8099713845484
20
-3.44560184103099
30
0
41
1
10
58.9935943350608
20
-3.34922234716356
30
0
41
1
10
59.0474145859765
20
-3.32051006900664
30
0
41
1
10
59.1013154476364
20
-3.29132016182518
30
0
0
SPLINE
5
13A
100
AcDbEntity
8
1
62
256
6
ByLayer
370
18
48
1
60
0
100
AcDbSpline
70
4
71
3
72
18
73
14
40
0
40
0
40
0
40
0
40
0.178955032155022
40
0.178955032155022
40
0.357910064310043
40
0.357910064310043
40
0.536865096465065
40
0.536865096465065
40
0.715820128620086
40
0.715820128620086
40
0.894775160775107
40
0.894775160775107
40
1
40
1
40
1
40
1
41
1
10
73.0777212258716
20
5.32344540154659
30
0
41
1
10
73.0695905863903
20
5.31004398800204
30
0
41
1
10
73.0606418342758
20
5.29791940762132
30
0
41
1
10
73.0414323800972
20
5.27571175185525
30
0
41
1
10
73.0311680558639
20
5.26563443147816
30
0
41
1
10
73.0094864618928
20
5.24727471231873
30
0
41
1
10
72.9982807049006
20
5.2391762864581
30
0
41
1
10
72.9754533275031
20
5.22488145549886
30
0
41
1
10
72.9637990574892
20
5.21866205158091
30
0
41
1
10
72.9400763482653
20
5.20784464632121
30
0
41
1
10
72.9279450505968
20
5.20323042358621
30
0
41
1
10
72.9086412667005
20
5.19717308684091
30
0
41
1
10
72.9014961816166
20
5.19520663339085
30
0
41
1
10
72.8943544990238
20
5.19349850307719
30
0
0
SPLINE
5
13B
100
AcDbEntity
8
1
62
256
6
ByLayer
370
18
48
1
60
0
100
AcDbSpline
70
4
71
3
72
14
73
10
40
0
40
0
40
0
40
0
40
0.25
40
0.25
40
0.5
40
0.5
40
0.75
40
0.75
40
1
40
1
40
1
40
1
41
1
10
73.7347097209417
20
6.37598698270577
30
0
41
1
10
73.6811077431707
20
6.29307754736055
30
0
41
1
10
73.6272538648764
20
6.20893069284773
30
0
41
1
10
73.5189245061261
20
6.03809879498644
30
0
41
1
10
73.4644148254269
20
5.95135773061529
30
0
41
1
10
73.354856759543
20
5.77563422332264
30
0
41
1
10
73.2998111644496
20
5.68666345103858
30
0
41
1
10
73.18916660651
20
5.50659865151974
30
0
41
1
10
73.1335978285222
20
5.41554460989428
30
0
41
1
10
73.0777212258716
20
5.32344540154659
30
0
0
SPLINE
5
13C
100
AcDbEntity
8
1
62
256
6
ByLayer
370
18
48
1
60
0
100
AcDbSpline
70
4
71
3
72
8
73
4
40
0
40
0
40
0
40
0
40
1
40
1
40
1
40
1
41
1
10
73.7347097209418
20
6.37598698271842
30
0
41
1
10
73.8043695793529
20
6.36684478912633
30
0
41
1
10
73.8741278160631
20
6.35625039512786
30
0
41
1
10
73.9441040713537
20
6.34420742921952
30
0
0
SPLINE
5
13D
100
AcDbEntity
8
1
62
256
6
ByLayer
370
18
48
1
60
0
100
AcDbSpline
70
4
71
3
72
14
73
10
40
0
40
0
40
0
40
0
40
0.25
40
0.25
40
0.5
40
0.5
40
0.75
40
0.75
40
1
40
1
40
1
40
1
41
1
10
74.6241916450141
20
5.08216582564563
30
0
41
1
10
74.566404467954
20
5.19169071793343
30
0
41
1
10
74.5088891192948
20
5.30023338790139
30
0
41
1
10
74.3943678582088
20
5.51529140587346
30
0
41
1
10
74.3373652191495
20
5.6218117357522
30
0
41
1
10
74.223911616286
20
5.83260427615556
30
0
41
1
10
74.1675285040353
20
5.9367440773693
30
0
41
1
10
74.055339346742
20
6.14250075687266
30
0
41
1
10
73.9995533685388
20
6.24408023758332
30
0
41
1
10
73.9441040713465
20
6.34420742921057
30
0
0
SPLINE
5
13E
100
AcDbEntity
8
1
62
256
6
ByLayer
370
18
48
1
60
0
100
AcDbSpline
70
4
71
3
72
32
73
28
40
0
40
0
40
0
40
0
40
0.0624999999999858
40
0.0624999999999858
40
0.124999999999972
40
0.124999999999972
40
0.187499999999957
40
0.187499999999957
40
0.249999999999943
40
0.249999999999943
40
0.312499999999929
40
0.312499999999929
40
0.374999999999915
40
0.374999999999915
40
0.499999999999887
40
0.499999999999887
40
0.562499999999893
40
0.562499999999893
40
0.624999999999898
40
0.624999999999898
40
0.749999999999909
40
0.749999999999909
40
0.812499999999931
40
0.812499999999931
40
0.874999999999954
40
0.874999999999954
40
1
40
1
40
1
40
1
41
1
10
75.1438142570029
20
4.918626477614
30
0
41
1
10
75.1356928960144
20
4.90802207870772
30
0
41
1
10
75.1267567286637
20
4.89892545133685
30
0
41
1
10
75.1075782719047
20
4.8831394760069
30
0
41
1
10
75.0973323708124
20
4.87645695303385
30
0
41
1
10
75.0756934089108
20
4.8652067712847
30
0
41
1
10
75.0645021459072
20
4.86075008269626
30
0
41
1
10
75.0417115886594
20
4.85383605153444
30
0
41
1
10
75.0300762794673
20
4.85136440003774
30
0
41
1
10
75.0063922470845
20
4.84814430161182
30
0
41
1
10
74.9942836066962
20
4.84739920481871
30
0
41
1
10
74.9699912057876
20
4.84750255660126
30
0
41
1
10
74.9578516717147
20
4.84834120873336
30
0
41
1
10
74.9214641598702
20
4.8529605805692
30
0
41
1
10
74.8972457004827
20
4.85881778409967
30
0
41
1
10
74.8610435964942
20
4.87143517501931
30
0
41
1
10
74.8489521444955
20
4.87631114685837
30
0
41
1
10
74.8251774511468
20
4.887211387473
30
0
41
1
10
74.8134671334288
20
4.89323995582362
30
0
41
1
10
74.7788809689817
20
4.9130399411205
30
0
41
1
10
74.7565421380078
20
4.92849908953366
30
0
41
1
10
74.7242939838617
20
4.95542737406615
30
0
41
1
10
74.7137269471403
20
4.96507051317309
30
0
41
1
10
74.6934765896509
20
4.98534090789141
30
0
41
1
10
74.6837444038252
20
4.99600304981146
30
0
41
1
10
74.6558216080347
20
5.02969863424164
30
0
41
1
10
74.6388571432521
20
5.05437008969571
30
0
41
1
10
74.6241916450141
20
5.08216582564572
30
0
0
SPLINE
5
13F
100
AcDbEntity
8
1
62
256
6
ByLayer
370
18
48
1
60
0
100
AcDbSpline
70
4
71
3
72
14
73
10
40
0
40
0
40
0
40
0
40
0.25
40
0.25
40
0.5
40
0.5
40
0.75
40
0.75
40
1
40
1
40
1
40
1
41
1
10
75.8005650307504
20
5.70137408732779
30
0
41
1
10
75.7469416483486
20
5.64383419659103
30
0
41
1
10
75.6930705344379
20
5.58437012652306
30
0
41
1
10
75.5847369454172
20
5.4615401697061
30
0
41
1
10
75.5302439743369
20
5.39814052856894
30
0
41
1
10
75.4207415885424
20
5.26760401588353
30
0
41
1
10
75.3657334167926
20
5.20048783124329
30
0
41
1
10
75.2551712047707
20
5.06244786726606
30
0
41
1
10
75.1996469148654
20
4.991529501727
30
0
41
1
10
75.1438142570029
20
4.918626477614
30
0
0
SPLINE
5
140
100
AcDbEntity
8
1
62
256
6
ByLayer
370
18
48
1
60
0
100
AcDbSpline
70
4
71
3
72
8
73
4
40
0
40
0
40
0
40
0
40
1
40
1
40
1
40
1
41
1
10
75.8005650307509
20
5.70137408733919
30
0
41
1
10
75.8710076396389
20
5.66496242370499
30
0
41
1
10
75.9414946092885
20
5.62722891961903
30
0
41
1
10
76.0120597191467
20
5.58818257291995
30
0
0
SPLINE
5
141
100
AcDbEntity
8
1
62
256
6
ByLayer
370
18
48
1
60
0
100
AcDbSpline
70
4
71
3
72
14
73
10
40
0
40
0
40
0
40
0
40
0.25
40
0.25
40
0.5
40
0.5
40
0.75
40
0.75
40
1
40
1
40
1
40
1
41
1
10
76.6903345973752
20
4.19165720559559
30
0
41
1
10
76.6326993350056
20
4.30820721459139
30
0
41
1
10
76.5753616276449
20
4.42479782920754
30
0
41
1
10
76.4612046937787
20
4.65802059785815
30
0
41
1
10
76.4043895894501
20
4.77467932090033
30
0
41
1
10
76.29128451697
20
5.007919383863
30
0
41
1
10
76.2350617487369
20
5.12434239157017
30
0
41
1
10
76.1231362510491
20
5.35674345883041
30
0
41
1
10
76.0674510340365
20
5.47268449455484
30
0
41
1
10
76.0120597191403
20
5.58818257291509
30
0
0
SPLINE
5
142
100
AcDbEntity
8
1
62
256
6
ByLayer
370
18
48
1
60
0
100
AcDbSpline
70
4
71
3
72
32
73
28
40
0
40
0
40
0
40
0
40
0.0624999999999954
40
0.0624999999999954
40
0.124999999999991
40
0.124999999999991
40
0.187499999999986
40
0.187499999999986
40
0.249999999999982
40
0.249999999999982
40
0.312499999999977
40
0.312499999999977
40
0.374999999999972
40
0.374999999999972
40
0.499999999999963
40
0.499999999999963
40
0.562499999999958
40
0.562499999999958
40
0.624999999999953
40
0.624999999999953
40
0.749999999999979
40
0.749999999999979
40
0.812499999999976
40
0.812499999999976
40
0.874999999999973
40
0.874999999999973
40
1
40
1
40
1
40
1
41
1
10
77.2099239970755
20
3.87766887628393
30
0
41
1
10
77.2017982374279
20
3.87122359733357
30
0
41
1
10
77.1928567536694
20
3.86632426617427
30
0
41
1
10
77.1736655229839
20
3.85899390173688
30
0
41
1
10
77.1634121109209
20
3.85656973910454
30
0
41
1
10
77.1417556908825
20
3.85389297625704
30
0
41
1
10
77.1305563023493
20
3.85367113905681
30
0
41
1
10
77.1077474185915
20
3.85507031437388
30
0
41
1
10
77.0961023893416
20
3.85669065420731
30
0
41
1
10
77.0723977771844
20
3.86154552015301
30
0
41
1
10
77.0602771138138
20
3.86480262631528
30
0
41
1
10
77.035968723003
20
3.87271443432451
30
0
41
1
10
77.0238216203065
20
3.87734744969535
30
0
41
1
10
76.987413127857
20
3.89306264254114
30
0
41
1
10
76.9631832005778
20
3.90593748918806
30
0
41
1
10
76.9269679652558
20
3.92858660469088
30
0
41
1
10
76.9148751466833
20
3.93673327176293
30
0
41
1
10
76.8911083237729
20
3.95391081703914
30
0
41
1
10
76.8794024943768
20
3.96295744220979
30
0
41
1
10
76.8448311253872
20
3.99146261582493
30
0
41
1
10
76.8225039334223
20
4.0122656194726
30
0
41
1
10
76.7902745815009
20
4.04647791815711
30
0
41
1
10
76.779723089203
20
4.05842145269443
30
0
41
1
10
76.7595090006058
20
4.08292501971388
30
0
41
1
10
76.749794066599
20
4.09553606323431
30
0
41
1
10
76.7219192024039
20
4.13453353478036
30
0
41
1
10
76.7049814960324
20
4.16203825184988
30
0
41
1
10
76.6903345973751
20
4.19165720559585
30
0
0
SPLINE
5
143
100
AcDbEntity
8
1
62
256
6
ByLayer
370
18
48
1
60
0
100
AcDbSpline
70
4
71
3
72
10
73
6
40
0
40
0
40
0
40
0
40
0.499999999999999
40
0.499999999999999
40
1
40
1
40
1
40
1
41
1
10
77.5104134931491
20
4.09318306016667
30
0
41
1
10
77.4607917701004
20
4.06133681991136
30
0
41
1
10
77.4109304338436
20
4.02750911190014
30
0
41
1
10
77.3107687429444
20
3.95574082658487
30
0
41
1
10
77.2604725294819
20
3.91776351432648
30
0
41
1
10
77.2099239970755
20
3.87766887628396
30
0
0
SPLINE
5
144
100
AcDbEntity
8
1
62
256
6
ByLayer
370
18
48
1
60
0
100
AcDbSpline
70
4
71
3
72
16
73
12
40
0
40
0
40
0
40
0
40
0.124999999999995
40
0.124999999999995
40
0.249999999999989
40
0.249999999999989
40
0.499999999999993
40
0.499999999999993
40
0.749999999999996
40
0.749999999999996
40
1
40
1
40
1
40
1
41
1
10
77.5104134931487
20
4.09318306016664
30
0
41
1
10
77.5593399250349
20
4.03923198869083
30
0
41
1
10
77.6085140174058
20
3.98520399579854
30
0
41
1
10
77.7073810124091
20
3.87703142181851
30
0
41
1
10
77.7570969450287
20
3.82286610300045
30
0
41
1
10
77.9069720527907
20
3.66042742658567
30
0
41
1
10
78.0077299959858
20
3.55234101249329
30
0
41
1
10
78.2114084383285
20
3.33709502404571
30
0
41
1
10
78.3143738635276
20
3.22996822842001
30
0
41
1
10
78.522560391208
20
3.01693462521513
30
0
41
1
10
78.6277749426296
20
2.91102419588515
30
0
41
1
10
78.7340091518068
20
2.80575176288994
30
0
0
SPLINE
5
145
100
AcDbEntity
8
1
62
256
6
ByLayer
370
18
48
1
60
0
100
AcDbSpline
70
4
71
3
72
8
73
4
40
0
40
0
40
0
40
0
40
1
40
1
40
1
40
1
41
1
10
78.7563704342816
20
2.7637310806509
30
0
41
1
10
78.7489112711102
20
2.77771946035512
30
0
41
1
10
78.7414579610756
20
2.79172707548793
30
0
41
1
10
78.7340091518068
20
2.80575176288994
30
0
0
SPLINE
5
146
100
AcDbEntity
8
1
62
256
6
ByLayer
370
18
48
1
60
0
100
AcDbSpline
70
4
71
3
72
28
73
24
40
0
40
0
40
0
40
0
40
0.125000000000145
40
0.125000000000145
40
0.187500000000195
40
0.187500000000195
40
0.250000000000246
40
0.250000000000246
40
0.375000000000299
40
0.375000000000299
40
0.437500000000301
40
0.437500000000301
40
0.500000000000303
40
0.500000000000303
40
0.625000000000262
40
0.625000000000262
40
0.687500000000218
40
0.687500000000218
40
0.750000000000174
40
0.750000000000174
40
0.875000000000087
40
0.875000000000087
40
1
40
1
40
1
40
1
41
1
10
79.1996469259006
20
2.35432286289429
30
0
41
1
10
79.1809231169156
20
2.36120744052124
30
0
41
1
10
79.1614757974981
20
2.370277124632
30
0
41
1
10
79.1314678405035
20
2.38648410683828
30
0
41
1
10
79.1212776173668
20
2.39235658121265
30
0
41
1
10
79.1009187711533
20
2.40476119933709
30
0
41
1
10
79.0907435264324
20
2.41129312255097
30
0
41
1
10
79.060236935641
20
2.43179337190796
30
0
41
1
10
79.0399240971173
20
2.44665713073624
30
0
41
1
10
79.0095280848754
20
2.47062862899253
30
0
41
1
10
78.999408434107
20
2.47890095092919
30
0
41
1
10
78.979201906216
20
2.49601672690807
30
0
41
1
10
78.9691534286944
20
2.50482964538952
30
0
41
1
10
78.9394709891418
20
2.53177400252974
30
0
41
1
10
78.9201794221565
20
2.55050423574591
30
0
41
1
10
78.8920496776261
20
2.57981390486043
30
0
41
1
10
78.8828085097958
20
2.58978745692662
30
0
41
1
10
78.8646187659822
20
2.61017018070757
30
0
41
1
10
78.8556413123528
20
2.62061437672514
30
0
41
1
10
78.829397717343
20
2.6524184942644
30
0
41
1
10
78.8129878284342
20
2.67402000728936
30
0
41
1
10
78.7826394694354
20
2.71813088126288
30
0
41
1
10
78.7686858325785
20
2.7406356658399
30
0
41
1
10
78.7563704342815
20
2.76373108065116
30
0
0
SPLINE
5
147
100
AcDbEntity
8
1
62
256
6
ByLayer
370
18
48
1
60
0
100
AcDbSpline
70
4
71
3
72
14
73
10
40
0
40
0
40
0
40
0
40
0.25
40
0.25
40
0.5
40
0.5
40
0.75
40
0.75
40
1
40
1
40
1
40
1
41
1
10
79.1996469259006
20
2.35432286289429
30
0
41
1
10
79.3626578406934
20
2.19968767341854
30
0
41
1
10
79.5276217459571
20
2.04682547063177
30
0
41
1
10
79.8604901467963
20
1.74425759563829
30
0
41
1
10
80.0283465512435
20
1.59448958318725
30
0
41
1
10
80.3664313370968
20
1.29787054005754
30
0
41
1
10
80.5367512515578
20
1.15112386760583
30
0
41
1
10
80.8782346023415
20
0.859181392130154
30
0
41
1
10
81.0493838099088
20
0.713972056766039
30
0
41
1
10
81.2199633993426
20
0.568433194690215
30
0
0
SPLINE
5
148
100
AcDbEntity
8
1
62
256
6
ByLayer
370
18
48
1
60
0
100
AcDbSpline
70
4
71
3
72
12
73
8
40
0
40
0
40
0
40
0
40
0.250000000000006
40
0.250000000000006
40
0.500000000000013
40
0.500000000000013
40
1
40
1
40
1
40
1
41
1
10
81.2199633993426
20
0.568433194690215
30
0
41
1
10
81.2667095234146
20
0.513707504474752
30
0
41
1
10
81.3140995898666
20
0.460332908863563
30
0
41
1
10
81.4105575407491
20
0.356694844677776
30
0
41
1
10
81.4595857722815
20
0.306504973849798
30
0
41
1
10
81.6094163483124
20
0.161030838417417
30
0
41
1
10
81.7126123547002
20
0.0710301676367067
30
0
41
1
10
81.8199999999999
20
-0.0120229472578046
30
0
0
SPLINE
5
149
100
AcDbEntity
8
1
62
256
6
ByLayer
370
18
48
1
60
0
100
AcDbSpline
70
4
71
3
72
61
73
57
40
0
40
0
40
0
40
0
40
0.0624999999999999
40
0.0624999999999999
40
0.0781249999999998
40
0.0781249999999998
40
0.0937499999999998
40
0.0937499999999998
40
0.125
40
0.125
40
0.15625
40
0.15625
40
0.1875
40
0.1875
40
0.21875
40
0.21875
40
0.234375
40
0.234375
40
0.25
40
0.25
40
0.3125
40
0.3125
40
0.375
40
0.375
40
0.5
40
0.5
40
0.625
40
0.625
40
0.65625
40
0.65625
40
0.6875
40
0.71875
40
0.734375
40
0.734375
40
0.75
40
0.75
40
0.765625
40
0.765625
40
0.78125
40
0.78125
40
0.796875
40
0.796875
40
0.8125
40
0.84375
40
0.84375
40
0.875
40
0.875
40
0.90625
40
0.90625
40
0.921875
40
0.921875
40
0.9375
40
0.9375
40
0.96875
40
0.96875
40
1
40
1
40
1
40
1
41
1
10
81.82
20
-0.0120229472578615
30
0
41
1
10
81.82
20
-0.0067221803418533
30
0
41
1
10
81.82
20
0.0098930459139126
30
0
41
1
10
81.82
20
0.0444551651579275
30
0
41
1
10
81.8200000000001
20
0.0520636080093198
30
0
41
1
10
81.8200000000001
20
0.0686922433351924
30
0
41
1
10
81.82
20
0.0777353465879287
30
0
41
1
10
81.82
20
0.106829838809034
30
0
41
1
10
81.8200000000001
20
0.128822025801384
30
0
41
1
10
81.82
20
0.177952951803775
30
0
41
1
10
81.82
20
0.205104971368001
30
0
41
1
10
81.82
20
0.264545019723499
30
0
41
1
10
81.82
20
0.296825773727676
30
0
41
1
10
81.82
20
0.36674074730459
30
0
41
1
10
81.82
20
0.404559563894622
30
0
41
1
10
81.82
20
0.464412878381097
30
0
41
1
10
81.82
20
0.48477539941976
30
0
41
1
10
81.82
20
0.525977304589702
30
0
41
1
10
81.8200000000001
20
0.546802029189593
30
0
41
1
10
81.82
20
0.651631387005807
30
0
41
1
10
81.8199999999999
20
0.737660490204632
30
0
41
1
10
81.8199999999999
20
0.91440244891001
30
0
41
1
10
81.82
20
1.00514887555769
30
0
41
1
10
81.8199999999999
20
1.28432007620435
30
0
41
1
10
81.82
20
1.47963872670724
30
0
41
1
10
81.8199999999999
20
1.88890895179617
30
0
41
1
10
81.8199999999999
20
2.10287105071123
30
0
41
1
10
81.82
20
2.38213711119707
30
0
41
1
10
81.82
20
2.43863313407331
30
0
41
1
10
81.82
20
2.55250186439506
30
0
41
1
10
81.82
20
2.66726468704201
30
0
41
1
10
81.82
20
2.81294749779264
30
0
41
1
10
81.82
20
2.90136069597992
30
0
41
1
10
81.82
20
2.96052618103741
30
0
41
1
10
81.82
20
2.99019441502702
30
0
41
1
10
81.82
20
3.04992099685163
30
0
41
1
10
81.8200000000001
20
3.08000156649504
30
0
41
1
10
81.82
20
3.14096999997673
30
0
41
1
10
81.82
20
3.17185731882654
30
0
41
1
10
81.82
20
3.23458443303485
30
0
41
1
10
81.82
20
3.26644421718728
30
0
41
1
10
81.82
20
3.33090930404387
30
0
41
1
10
81.8200000000001
20
3.42827462710341
30
0
41
1
10
81.82
20
3.52756667414477
30
0
41
1
10
81.82
20
3.66163830674296
30
0
41
1
10
81.82
20
3.72951595560411
30
0
41
1
10
81.82
20
3.86698500488288
30
0
41
1
10
81.82
20
3.93657155446692
30
0
41
1
10
81.82
20
4.04225062723941
30
0
41
1
10
81.82
20
4.07775924326182
30
0
41
1
10
81.82
20
4.14852135320851
30
0
41
1
10
81.8199999999999
20
4.18384732114342
30
0
41
1
10
81.8199999999999
20
4.28966170311867
30
0
41
1
10
81.8200000000001
20
4.35998796475749
30
0
41
1
10
81.8200000000001
20
4.50021822523919
30
0
41
1
10
81.82
20
4.57012205462442
30
0
41
1
10
81.8199999999999
20
4.63981058378738
30
0
0
SPLINE
5
14A
100
AcDbEntity
8
1
62
256
6
ByLayer
370
18
48
1
60
0
100
AcDbSpline
70
4
71
3
72
14
73
10
40
0
40
0
40
0
40
0
40
0.25
40
0.25
40
0.5
40
0.5
40
0.75
40
0.75
40
1
40
1
40
1
40
1
41
1
10
81.82
20
4.63981058378738
30
0
41
1
10
81.7696756612914
20
4.68729380923742
30
0
41
1
10
81.7194771571935
20
4.7350913072809
30
0
41
1
10
81.6192656114995
20
4.83130932046646
30
0
41
1
10
81.5692608902833
20
4.87972180243264
30
0
41
1
10
81.4693285753698
20
4.97722486125554
30
0
41
1
10
81.4193841403169
20
5.02633167876246
30
0
41
1
10
81.319490909011
20
5.12529584887525
30
0
41
1
10
81.2695475250145
20
5.17515931264543
30
0
41
1
10
81.219987193276
20
5.22496183298017
30
0
0
SPLINE
5
14B
100
AcDbEntity
8
1
62
256
6
ByLayer
370
18
48
1
60
0
100
AcDbSpline
70
4
71
3
72
16
73
12
40
0
40
0
40
0
40
0
40
0.249999999999993
40
0.249999999999993
40
0.374999999999994
40
0.374999999999994
40
0.499999999999995
40
0.499999999999995
40
0.749999999999998
40
0.749999999999998
40
1
40
1
40
1
40
1
41
1
10
81.219987193276
20
5.22496183298017
30
0
41
1
10
81.0267111996332
20
5.19689529009889
30
0
41
1
10
80.8308943817003
20
5.16861622032664
30
0
41
1
10
80.5343651962372
20
5.1280481868105
30
0
41
1
10
80.4350618303935
20
5.11482475982143
30
0
41
1
10
80.2357447861675
20
5.08920876023305
30
0
41
1
10
80.1357184904192
20
5.07682116610206
30
0
41
1
10
79.8350306828006
20
5.04106237361484
30
0
41
1
10
79.6338150005666
20
5.01916582552974
30
0
41
1
10
79.2330998163386
20
4.97780233729432
30
0
41
1
10
79.0335292594345
20
4.95832484880822
30
0
41
1
10
78.8356996312474
20
4.93858809427309
30
0
0
SPLINE
5
14C
100
AcDbEntity
8
1
62
256
6
ByLayer
370
18
48
1
60
0
100
AcDbSpline
70
4
71
3
72
8
73
4
40
0
40
0
40
0
40
0
40
1
40
1
40
1
40
1
41
1
10
78.7987195607895
20
4.86456621146689
30
0
41
1
10
78.8110595292663
20
4.88928019445774
30
0
41
1
10
78.8233859078495
20
4.91395411828853
30
0
41
1
10
78.8356996312474
20
4.93858809427306
30
0
0
SPLINE
5
14D
100
AcDbEntity
8
1
62
256
6
ByLayer
370
18
48
1
60
0
100
AcDbSpline
70
4
71
3
72
32
73
28
40
0
40
0
40
0
40
0
40
0.0624999999999783
40
0.0624999999999783
40
0.124999999999957
40
0.124999999999957
40
0.187499999999935
40
0.187499999999935
40
0.249999999999913
40
0.249999999999913
40
0.312499999999891
40
0.312499999999891
40
0.37499999999987
40
0.37499999999987
40
0.499999999999868
40
0.499999999999868
40
0.624999999999866
40
0.624999999999866
40
0.687499999999884
40
0.687499999999884
40
0.749999999999901
40
0.749999999999901
40
0.874999999999936
40
0.874999999999936
40
0.937499999999968
40
0.937499999999968
40
1
40
1
40
1
40
1
41
1
10
78.2789407423602
20
4.64727324377986
30
0
41
1
10
78.28719015127
20
4.63721744175757
30
0
41
1
10
78.2963084508736
20
4.62880302445691
30
0
41
1
10
78.3159476248412
20
4.61460729626674
30
0
41
1
10
78.3265092352208
20
4.60881866489689
30
0
41
1
10
78.3487182250169
20
4.59963884469863
30
0
41
1
10
78.3601306419382
20
4.59633122604868
30
0
41
1
10
78.3834482000031
20
4.59179975161112
30
0
41
1
10
78.3953545964304
20
4.59058050812365
30
0
41
1
10
78.4195889802757
20
4.58997985616946
30
0
41
1
10
78.4319411874299
20
4.59061355910697
30
0
41
1
10
78.4564627013089
20
4.59348694563971
30
0
41
1
10
78.4687042432115
20
4.59572180401795
30
0
41
1
10
78.5053598669807
20
4.60455744379408
30
0
41
1
10
78.5297342729355
20
4.61327522514017
30
0
41
1
10
78.5781036472293
20
4.63581036949481
30
0
41
1
10
78.6015792410944
20
4.64938342926976
30
0
41
1
10
78.6357250917975
20
4.67299496137821
30
0
41
1
10
78.6469274861423
20
4.68141319482146
30
0
41
1
10
78.668953452879
20
4.69937867849279
30
0
41
1
10
78.6798179412268
20
4.7089673229342
30
0
41
1
10
78.7113779814274
20
4.73914174214605
30
0
41
1
10
78.7311151289025
20
4.76112978461049
30
0
41
1
10
78.7584598806988
20
4.79734497009613
30
0
41
1
10
78.7671944571593
20
4.80996102450308
30
0
41
1
10
78.7837815612241
20
4.83646099163246
30
0
41
1
10
78.7915716351507
20
4.85025063902529
30
0
41
1
10
78.7987195607895
20
4.86456621146687
30
0
0
SPLINE
5
14E
100
AcDbEntity
8
1
62
256
6
ByLayer
370
18
48
1
60
0
100
AcDbSpline
70
4
71
3
72
8
73
4
40
0
40
0
40
0
40
0
40
1
40
1
40
1
40
1
41
1
10
78.1001905669068
20
4.85944705216727
30
0
41
1
10
78.1595246153039
20
4.7909517510015
30
0
41
1
10
78.2190927698278
20
4.72022627226988
30
0
41
1
10
78.2789407423602
20
4.64727324377986
30
0
0
SPLINE
5
14F
100
AcDbEntity
8
1
62
256
6
ByLayer
370
18
48
1
60
0
100
AcDbSpline
70
4
71
3
72
10
73
6
40
0
40
0
40
0
40
0
40
0.5
40
0.5
40
1
40
1
40
1
40
1
41
1
10
78.1001905669068
20
4.8594470521673
30
0
41
1
10
77.941707086942
20
4.84032962251541
30
0
41
1
10
77.7851072670517
20
4.81949439476256
30
0
41
1
10
77.4763037926188
20
4.77205200840564
30
0
41
1
10
77.3240924247974
20
4.7454349124817
30
0
41
1
10
77.1739790243893
20
4.71512099498219
30
0
0
SPLINE
5
150
100
AcDbEntity
8
1
62
256
6
ByLayer
370
18
48
1
60
0
100
AcDbSpline
70
4
71
3
72
10
73
6
40
0
40
0
40
0
40
0
40
0.344249036308954
40
0.344249036308954
40
1
40
1
40
1
40
1
41
1
10
76.8382053116971
20
4.00504043830381
30
0
41
1
10
76.8770393378913
20
4.08628162794019
30
0
41
1
10
76.9157579645008
20
4.16762479832173
30
0
41
1
10
77.027946874524
20
4.40418599144456
30
0
41
1
10
77.101189771057
20
4.55972155445988
30
0
41
1
10
77.1739790243893
20
4.71512099498216
30
0
0
SPLINE
5
151
100
AcDbEntity
8
1
62
256
6
ByLayer
370
18
48
1
60
0
100
AcDbSpline
70
4
71
3
72
14
73
10
40
0
40
0
40
0
40
0
40
0.25
40
0.25
40
0.5
40
0.5
40
0.75
40
0.75
40
1
40
1
40
1
40
1
41
1
10
76.2473793288596
20
1.88860176882392
30
0
41
1
10
76.3008353777003
20
1.82282206854103
30
0
41
1
10
76.3545327454325
20
1.75903239457469
30
0
41
1
10
76.4624994397037
20
1.63554074382148
30
0
41
1
10
76.516801333412
20
1.57580547118823
30
0
41
1
10
76.6258974767728
20
1.46074438937708
30
0
41
1
10
76.6806938050588
20
1.40541380733529
30
0
41
1
10
76.7907676741281
20
1.29938061896274
30
0
41
1
10
76.8460097293266
20
1.24872146338291
30
0
41
1
10
76.9014955664009
20
1.20046029004783
30
0
0
SPLINE
5
152
100
AcDbEntity
8
1
62
256
6
ByLayer
370
18
48
1
60
0
100
AcDbSpline
70
4
71
3
72
8
73
4
40
0
40
0
40
0
40
0
40
1
40
1
40
1
40
1
41
1
10
76.2473793288594
20
1.88860176882414
30
0
41
1
10
76.1773591871409
20
1.96375356077439
30
0
41
1
10
76.107262395621
20
2.03856485578439
30
0
41
1
10
76.037061280032
20
2.11300967702485
30
0
0
SPLINE
5
153
100
AcDbEntity
8
1
62
256
6
ByLayer
370
18
48
1
60
0
100
AcDbSpline
70
4
71
3
72
14
73
10
40
0
40
0
40
0
40
0
40
0.25
40
0.25
40
0.5
40
0.5
40
0.75
40
0.75
40
1
40
1
40
1
40
1
41
1
10
75.3548935463186
20
2.54339770519761
30
0
41
1
10
75.4127336335977
20
2.51952976343338
30
0
41
1
10
75.4702816002226
20
2.49256431801533
30
0
41
1
10
75.5849115531171
20
2.43258608715036
30
0
41
1
10
75.6420090908776
20
2.3995544501104
30
0
41
1
10
75.7557600025297
20
2.32756257301781
30
0
41
1
10
75.8123561482922
20
2.28864086869646
30
0
41
1
10
75.9250948174384
20
2.20505391726292
30
0
41
1
10
75.9812132253726
20
2.16040344014405
30
0
41
1
10
76.0370612800319
20
2.1130096770249
30
0
0
SPLINE
5
154
100
AcDbEntity
8
1
62
256
6
ByLayer
370
18
48
1
60
0
100
AcDbSpline
70
4
71
3
72
32
73
28
40
0
40
0
40
0
40
0
40
0.0624999999999931
40
0.0624999999999931
40
0.124999999999986
40
0.124999999999986
40
0.187499999999979
40
0.187499999999979
40
0.249999999999972
40
0.249999999999972
40
0.312499999999966
40
0.312499999999966
40
0.374999999999958
40
0.374999999999958
40
0.499999999999944
40
0.499999999999944
40
0.624999999999929
40
0.624999999999929
40
0.68749999999994
40
0.68749999999994
40
0.749999999999951
40
0.749999999999951
40
0.874999999999976
40
0.874999999999976
40
0.937499999999988
40
0.937499999999988
40
1
40
1
40
1
40
1
41
1
10
74.8351329269233
20
2.95751695469616
30
0
41
1
10
74.843376822138
20
2.94637102424198
30
0
41
1
10
74.8524875536051
20
2.93504165788949
30
0
41
1
10
74.8721083365802
20
2.91209749107762
30
0
41
1
10
74.8826571896087
20
2.90044484476343
30
0
41
1
10
74.9048464461607
20
2.87704069087647
30
0
41
1
10
74.9162488007879
20
2.86553514039076
30
0
41
1
10
74.93954639528
20
2.84283598999082
30
0
41
1
10
74.9514427393388
20
2.83164307691055
30
0
41
1
10
74.9756585052937
20
2.80952042069504
30
0
41
1
10
74.9880059625361
20
2.79857054435854
30
0
41
1
10
75.0125227981509
20
2.77737032797452
30
0
41
1
10
75.0247630381174
20
2.76705409262504
30
0
41
1
10
75.0614159198104
20
2.73684107042655
30
0
41
1
10
75.0857792665863
20
2.71765780017768
30
0
41
1
10
75.1341687985963
20
2.68100238829632
30
0
41
1
10
75.1576524747468
20
2.66394010363439
30
0
41
1
10
75.191809585856
20
2.6400443655225
30
0
41
1
10
75.2030156363454
20
2.63236546047389
30
0
41
1
10
75.2250493658522
20
2.61758741440266
30
0
41
1
10
75.2359190567871
20
2.61046182281268
30
0
41
1
10
75.2675090807609
20
2.59025964680083
30
0
41
1
10
75.2872606947602
20
2.57830536360677
30
0
41
1
10
75.3146187581616
20
2.56296941872051
30
0
41
1
10
75.3233563754369
20
2.55829487357667
30
0
41
1
10
75.3399468576235
20
2.54996952872113
30
0
41
1
10
75.3477432684315
20
2.54634829576958
30
0
41
1
10
75.3548935463186
20
2.54339770519763
30
0
0
SPLINE
5
155
100
AcDbEntity
8
1
62
256
6
ByLayer
370
18
48
1
60
0
100
AcDbSpline
70
4
71
3
72
14
73
10
40
0
40
0
40
0
40
0
40
0.25
40
0.25
40
0.5
40
0.5
40
0.75
40
0.75
40
1
40
1
40
1
40
1
41
1
10
74.1805017323724
20
3.93675538424012
30
0
41
1
10
74.2340122708656
20
3.84937391603344
30
0
41
1
10
74.2877627068956
20
3.76331580395188
30
0
41
1
10
74.3958290459559
20
3.59393120896021
30
0
41
1
10
74.4501772432861
20
3.51055699552742
30
0
41
1
10
74.5593590026477
20
3.34690900046857
30
0
41
1
10
74.6141942168789
20
3.266630618031
30
0
41
1
10
74.7243401910855
20
3.10943686553966
30
0
41
1
10
74.7796148769022
20
3.03257859829608
30
0
41
1
10
74.8351329269232
20
2.95751695469619
30
0
0
SPLINE
5
156
100
AcDbEntity
8
1
62
256
6
ByLayer
370
18
48
1
60
0
100
AcDbSpline
70
4
71
3
72
8
73
4
40
0
40
0
40
0
40
0
40
1
40
1
40
1
40
1
41
1
10
74.1805017323721
20
3.9367553842402
30
0
41
1
10
74.1104996947075
20
3.99885513047951
30
0
41
1
10
74.0404858829641
20
4.06008075105535
30
0
41
1
10
73.9704311441854
20
4.12040999708563
30
0
0
SPLINE
5
157
100
AcDbEntity
8
1
62
256
6
ByLayer
370
18
48
1
60
0
100
AcDbSpline
70
4
71
3
72
14
73
10
40
0
40
0
40
0
40
0
40
0.25
40
0.25
40
0.5
40
0.5
40
0.75
40
0.75
40
1
40
1
40
1
40
1
41
1
10
73.2886301245793
20
4.0336036118461
30
0
41
1
10
73.3464241933147
20
4.05305754699214
30
0
41
1
10
73.4039278064945
20
4.06941445928013
30
0
41
1
10
73.5184785055506
20
4.09603823169925
30
0
41
1
10
73.5755416008893
20
4.10630180990836
30
0
41
1
10
73.6892309472915
20
4.12072806415094
30
0
41
1
10
73.7457993504119
20
4.12488512441087
30
0
41
1
10
73.8584923876521
20
4.12715627559939
30
0
41
1
10
73.9145928441849
20
4.1252668150407
30
0
41
1
10
73.9704311441854
20
4.12040999708563
30
0
0
SPLINE
5
158
100
AcDbEntity
8
1
62
256
6
ByLayer
370
18
48
1
60
0
100
AcDbSpline
70
4
71
3
72
32
73
28
40
0
40
0
40
0
40
0
40
0.0624999999999928
40
0.0624999999999928
40
0.124999999999986
40
0.124999999999986
40
0.187499999999978
40
0.187499999999978
40
0.249999999999971
40
0.249999999999971
40
0.312499999999964
40
0.312499999999964
40
0.374999999999957
40
0.374999999999957
40
0.499999999999982
40
0.499999999999982
40
0.625000000000007
40
0.625000000000007
40
0.6875
40
0.6875
40
0.749999999999994
40
0.749999999999994
40
0.874999999999982
40
0.874999999999982
40
0.937499999999991
40
0.937499999999991
40
1
40
1
40
1
40
1
41
1
10
72.768866786438
20
4.33226834318575
30
0
41
1
10
72.7771130054979
20
4.31859201711069
30
0
41
1
10
72.7862264645624
20
4.30533123142683
30
0
41
1
10
72.8058532826552
20
4.27948344433384
30
0
41
1
10
72.816405702603
20
4.26685951028739
30
0
41
1
10
72.8386014050911
20
4.24237030548872
30
0
41
1
10
72.85000696992
20
4.23075799206126
30
0
41
1
10
72.8733108014811
20
4.20855385961437
30
0
41
1
10
72.8852101735706
20
4.19796435918533
30
0
41
1
10
72.9094317697125
20
4.17767398637969
30
0
41
1
10
72.9217812904117
20
4.16796068489046
30
0
41
1
10
72.9463013605245
20
4.14973852156191
30
0
41
1
10
72.9585430908653
20
4.14116792572224
30
0
41
1
10
72.9951994696669
20
4.11687934492178
30
0
41
1
10
73.019566985885
20
4.10255595322596
30
0
41
1
10
73.0679488376616
20
4.07728393510445
30
0
41
1
10
73.0914275951492
20
4.0666134807181
30
0
41
1
10
73.1255787113691
20
4.05330267887621
30
0
41
1
10
73.1367830702555
20
4.04932012056588
30
0
41
1
10
73.1588137308023
20
4.04228190865575
30
0
41
1
10
73.1696817406386
20
4.03921731808268
30
0
41
1
10
73.201261311364
20
4.03159714133437
30
0
41
1
10
73.2210078973315
20
4.02855511064294
30
0
41
1
10
73.2483613342854
20
4.02749509583506
30
0
41
1
10
73.2570978915808
20
4.0277319391414
30
0
41
1
10
73.2736871378918
20
4.02958465014291
30
0
41
1
10
73.2814809870316
20
4.03119715628338
30
0
41
1
10
73.2886301245792
20
4.0336036118461
30
0
0
SPLINE
5
159
100
AcDbEntity
8
1
62
256
6
ByLayer
370
18
48
1
60
0
100
AcDbSpline
70
4
71
3
72
14
73
10
40
0
40
0
40
0
40
0
40
0.25
40
0.25
40
0.5
40
0.5
40
0.75
40
0.75
40
1
40
1
40
1
40
1
41
1
10
72.1139833910714
20
5.47568428815862
30
0
41
1
10
72.1675028000796
20
5.37799703926859
30
0
41
1
10
72.2212637994005
20
5.28079824775145
30
0
41
1
10
72.3293570649402
20
5.08743999153339
30
0
41
1
10
72.3837217969026
20
4.99122412754315
30
0
41
1
10
72.4929449153815
20
4.80020910208196
30
0
41
1
10
72.5478048758934
20
4.70540654804725
30
0
41
1
10
72.65800805865
20
4.51746996846447
30
0
41
1
10
72.713314756182
20
4.42440119515007
30
0
41
1
10
72.7688667864381
20
4.33226834318575
30
0
0
SPLINE
5
15A
100
AcDbEntity
8
1
62
256
6
ByLayer
370
18
48
1
60
0
100
AcDbSpline
70
4
71
3
72
8
73
4
40
0
40
0
40
0
40
0
40
1
40
1
40
1
40
1
41
1
10
72.1139833910712
20
5.47568428815853
30
0
41
1
10
72.0442159496107
20
5.51658003643865
30
0
41
1
10
71.9745015602491
20
5.55622174544044
30
0
41
1
10
71.9048129178356
20
5.59460133042202
30
0
0
SPLINE
5
15B
100
AcDbEntity
8
1
62
256
6
ByLayer
370
18
48
1
60
0
100
AcDbSpline
70
4
71
3
72
14
73
10
40
0
40
0
40
0
40
0
40
0.25
40
0.25
40
0.5
40
0.5
40
0.75
40
0.75
40
1
40
1
40
1
40
1
41
1
10
71.22238822181
20
5.00169106769101
30
0
41
1
10
71.2803144266697
20
5.06190011433887
30
0
41
1
10
71.3379357142995
20
5.11940744936922
30
0
41
1
10
71.4526788484293
20
5.2290855000721
30
0
41
1
10
71.5098154432207
20
5.28126274019971
30
0
41
1
10
71.6236036379531
20
5.38019571594236
30
0
41
1
10
71.6801984336913
20
5.42690298473596
30
0
41
1
10
71.7929073038336
20
5.51487122237532
30
0
41
1
10
71.8489976619304
20
5.55611269191334
30
0
41
1
10
71.9048129178356
20
5.59460133042205
30
0
0
SPLINE
5
15C
100
AcDbEntity
8
1
62
256
6
ByLayer
370
18
48
1
60
0
100
AcDbSpline
70
4
71
3
72
32
73
28
40
0
40
0
40
0
40
0
40
0.0625000000000004
40
0.0625000000000004
40
0.125000000000001
40
0.125000000000001
40
0.187500000000001
40
0.187500000000001
40
0.250000000000002
40
0.250000000000002
40
0.312500000000002
40
0.312500000000002
40
0.375000000000002
40
0.375000000000002
40
0.500000000000002
40
0.500000000000002
40
0.625000000000002
40
0.625000000000002
40
0.687500000000002
40
0.687500000000002
40
0.750000000000001
40
0.750000000000001
40
0.875000000000001
40
0.875000000000001
40
0.937500000000001
40
0.937500000000001
40
1
40
1
40
1
40
1
41
1
10
70.7026629550415
20
5.14762547344634
30
0
41
1
10
70.7108983219451
20
5.1331929152465
30
0
41
1
10
70.7199977790914
20
5.11971577982928
30
0
41
1
10
70.7395912831677
20
5.09429898185599
30
0
41
1
10
70.7501200508728
20
5.08233250793808
30
0
41
1
10
70.7722825347476
20
5.05989077494888
30
0
41
1
10
70.7836713766663
20
5.0496523154066
30
0
41
1
10
70.8069418447347
20
5.03076689711199
30
0
41
1
10
70.8188245727972
20
5.02212356372973
30
0
41
1
10
70.8430131720407
20
5.00623161400546
30
0
41
1
10
70.8553529249872
20
4.99897508643821
30
0
41
1
10
70.8798601424897
20
4.98601185580935
30
0
41
1
10
70.8920962802443
20
4.98025667743653
30
0
41
1
10
70.9287384333716
20
4.96491692144636
30
0
41
1
10
70.9530814948616
20
4.95723333798804
30
0
41
1
10
71.0014929507704
20
4.94644266881906
30
0
41
1
10
71.0249859628125
20
4.94346554503699
30
0
41
1
10
71.0591584970889
20
4.942349930017
30
0
41
1
10
71.0703699153026
20
4.9425426493716
30
0
41
1
10
71.0924145083054
20
4.94408432342621
30
0
41
1
10
71.1032903390108
20
4.94544239756465
30
0
41
1
10
71.1349190607208
20
4.95129337236568
30
0
41
1
10
71.1546919932755
20
4.95750258298031
30
0
41
1
10
71.1820761249127
20
4.97078415413037
30
0
41
1
10
71.1908214301059
20
4.97587966446252
30
0
41
1
10
71.2074251944418
20
4.98762935460175
30
0
41
1
10
71.2152316039347
20
4.99425241120287
30
0
41
1
10
71.2223882218116
20
5.00169106769062
30
0
0
SPLINE
5
15D
100
AcDbEntity
8
1
62
256
6
ByLayer
370
18
48
1
60
0
100
AcDbSpline
70
4
71
3
72
14
73
10
40
0
40
0
40
0
40
0
40
0.25
40
0.25
40
0.5
40
0.5
40
0.75
40
0.75
40
1
40
1
40
1
40
1
41
1
10
70.0486903476882
20
6.30653963019893
30
0
41
1
10
70.1021378181747
20
6.21125694871205
30
0
41
1
10
70.1558234795125
20
6.1155646177499
30
0
41
1
10
70.2637637519106
20
5.92338890737054
30
0
41
1
10
70.3180507538235
20
5.82684803323619
30
0
41
1
10
70.4271175663528
20
5.63330759299421
30
0
41
1
10
70.4818998230118
20
5.53630366219898
30
0
41
1
10
70.5919501680928
20
5.34204560193476
30
0
41
1
10
70.6471822589191
20
5.24485591686525
30
0
41
1
10
70.7026629550415
20
5.14762547344634
30
0
0
SPLINE
5
15E
100
AcDbEntity
8
1
62
256
6
ByLayer
370
18
48
1
60
0
100
AcDbSpline
70
4
71
3
72
8
73
4
40
0
40
0
40
0
40
0
40
1
40
1
40
1
40
1
41
1
10
70.0486903476879
20
6.30653963019873
30
0
41
1
10
69.9783793820567
20
6.32128540990092
30
0
41
1
10
69.9081894620503
20
6.33457518554263
30
0
41
1
10
69.8380909129885
20
6.34641770360773
30
0
0
SPLINE
5
15F
100
AcDbEntity
8
1
62
256
6
ByLayer
370
18
48
1
60
0
100
AcDbSpline
70
4
71
3
72
14
73
10
40
0
40
0
40
0
40
0
40
0.25
40
0.25
40
0.5
40
0.5
40
0.75
40
0.75
40
1
40
1
40
1
40
1
41
1
10
69.1561514601374
20
5.32498605941302
30
0
41
1
10
69.214003770527
20
5.41819148590406
30
0
41
1
10
69.271559346036
20
5.50942277220946
30
0
41
1
10
69.3861841447816
20
5.68793466930344
30
0
41
1
10
69.4432699753811
20
5.77523807972548
30
0
41
1
10
69.5569780896391
20
5.94575369547553
30
0
41
1
10
69.6135427715589
20
6.02888107831421
30
0
41
1
10
69.7262068098673
20
6.1909075100038
30
0
41
1
10
69.7822830224183
20
6.26977234706561
30
0
41
1
10
69.8380909129885
20
6.34641770360776
30
0
0
SPLINE
5
160
100
AcDbEntity
8
1
62
256
6
ByLayer
370
18
48
1
60
0
100
AcDbSpline
70
4
71
3
72
32
73
28
40
0
40
0
40
0
40
0
40
0.0624999999999873
40
0.0624999999999873
40
0.124999999999975
40
0.124999999999975
40
0.187499999999962
40
0.187499999999962
40
0.249999999999949
40
0.249999999999949
40
0.312499999999937
40
0.312499999999937
40
0.374999999999924
40
0.374999999999924
40
0.499999999999939
40
0.499999999999939
40
0.624999999999954
40
0.624999999999954
40
0.687499999999961
40
0.687499999999961
40
0.749999999999969
40
0.749999999999969
40
0.874999999999983
40
0.874999999999983
40
0.937499999999992
40
0.937499999999992
40
1
40
1
40
1
40
1
41
1
10
68.6364161728742
20
5.2974662483993
30
0
41
1
10
68.6446570320925
20
5.28414232388153
30
0
41
1
10
68.6537630120671
20
5.27219604422115
30
0
41
1
10
68.6733710754354
20
5.25051528662874
30
0
41
1
10
68.6839095120105
20
5.24076178813363
30
0
41
1
10
68.7060855398106
20
5.22332004504096
30
0
41
1
10
68.717480949359
20
5.21580942743961
30
0
41
1
10
68.7407641028807
20
5.20275198716388
30
0
41
1
10
68.7526529499219
20
5.19720965697076
30
0
41
1
10
68.7768533263263
20
5.18785124744124
30
0
41
1
10
68.7891964187656
20
5.1840391507065
30
0
41
1
10
68.8137075765859
20
5.17811441081747
30
0
41
1
10
68.8259452815909
20
5.17597123822989
30
0
41
1
10
68.8625910972644
20
5.17172219279601
30
0
41
1
10
68.8869416556704
20
5.17177040512848
30
0
41
1
10
68.9353400164518
20
5.17708928818712
30
0
41
1
10
68.9588266602255
20
5.18229910108036
30
0
41
1
10
68.9929900263351
20
5.19367517526459
30
0
41
1
10
69.0041984515614
20
5.19806726047975
30
0
41
1
10
69.0262371927533
20
5.20808416066464
30
0
41
1
10
69.0371099830822
20
5.21373572885128
30
0
41
1
10
69.0687205301729
20
5.23243224147549
30
0
41
1
10
69.0884837334167
20
5.24716328150103
30
0
41
1
10
69.1158562646231
20
5.27316256851393
30
0
41
1
10
69.1245982047062
20
5.28248623046736
30
0
41
1
10
69.1411961695522
20
5.30266518647719
30
0
41
1
10
69.1489979117653
20
5.31346103089672
30
0
41
1
10
69.1561514601378
20
5.32498605941311
30
0
0
SPLINE
5
161
100
AcDbEntity
8
1
62
256
6
ByLayer
370
18
48
1
60
0
100
AcDbSpline
70
4
71
3
72
12
73
8
40
0
40
0
40
0
40
0
40
0.249999999999996
40
0.249999999999996
40
0.499999999999992
40
0.499999999999992
40
1
40
1
40
1
40
1
41
1
10
68.0527191259277
20
6.2151073137932
30
0
41
1
10
68.1005543722786
20
6.14234496805622
30
0
41
1
10
68.1485779274524
20
6.06861759161259
30
0
41
1
10
68.2450638447677
20
5.91922512299229
30
0
41
1
10
68.2935532323162
20
5.8435174084284
30
0
41
1
10
68.4395791836589
20
5.61377218676512
30
0
41
1
10
68.5375608764131
20
5.45729673128338
30
0
41
1
10
68.6364161728742
20
5.29746624839933
30
0
0
SPLINE
5
162
100
AcDbEntity
8
1
62
256
6
ByLayer
370
18
48
1
60
0
100
AcDbSpline
70
4
71
3
72
8
73
4
40
0
40
0
40
0
40
0
40
1
40
1
40
1
40
1
41
1
10
67.6646724941001
20
6.07476689700232
30
0
41
1
10
67.7944417689788
20
6.12641760061013
30
0
41
1
10
67.9237240056311
20
6.17321148424355
30
0
41
1
10
68.0527191259278
20
6.215107313793
30
0
0
SPLINE
5
163
100
AcDbEntity
8
1
62
256
6
ByLayer
370
18
48
1
60
0
100
AcDbSpline
70
4
71
3
72
12
73
8
40
0
40
0
40
0
40
0
40
0.499999999999993
40
0.499999999999993
40
0.749999999999997
40
0.749999999999997
40
1
40
1
40
1
40
1
41
1
10
67.0898248201216
20
4.96120488413521
30
0
41
1
10
67.1870841329476
20
5.15280419286216
30
0
41
1
10
67.2835152418046
20
5.34154506961687
30
0
41
1
10
67.4272871747948
20
5.62030830840777
30
0
41
1
10
67.4750473233001
20
5.71246851130843
30
0
41
1
10
67.5701331261219
20
5.89493571862178
30
0
41
1
10
67.6174833353298
20
5.98529049940726
30
0
41
1
10
67.6646724941001
20
6.07476689700232
30
0
0
SPLINE
5
164
100
AcDbEntity
8
1
62
256
6
ByLayer
370
18
48
1
60
0
100
AcDbSpline
70
4
71
3
72
32
73
28
40
0
40
0
40
0
40
0
40
0.0624999999999915
40
0.0624999999999915
40
0.124999999999983
40
0.124999999999983
40
0.187499999999975
40
0.187499999999975
40
0.249999999999966
40
0.249999999999966
40
0.312499999999958
40
0.312499999999958
40
0.374999999999949
40
0.374999999999949
40
0.499999999999972
40
0.499999999999972
40
0.624999999999995
40
0.624999999999995
40
0.687500000000008
40
0.687500000000008
40
0.75000000000002
40
0.75000000000002
40
0.875000000000011
40
0.875000000000011
40
0.937500000000005
40
0.937500000000005
40
1
40
1
40
1
40
1
41
1
10
66.5700860435145
20
4.765028169131
30
0
41
1
10
66.578322280146
20
4.7545451823423
30
0
41
1
10
66.5874224928367
20
4.74567926364779
30
0
41
1
10
66.6070171728537
20
4.73053993072096
30
0
41
1
10
66.6175467567649
20
4.72425981603587
30
0
41
1
10
66.6397086273867
20
4.71405501461774
30
0
41
1
10
66.6510967608405
20
4.71023061639806
30
0
41
1
10
66.6743651223029
20
4.70465776746957
30
0
41
1
10
66.6862464518843
20
4.70291407659602
30
0
41
1
10
66.7104316659355
20
4.70125527757844
30
0
41
1
10
66.7227691107086
20
4.70135388795515
30
0
41
1
10
66.7472717447357
20
4.70317660034704
30
0
41
1
10
66.7595056439171
20
4.70489225431857
30
0
41
1
10
66.7961415415206
20
4.71218752842805
30
0
41
1
10
66.8204791824297
20
4.71988864163694
30
0
41
1
10
66.8688897811669
20
4.74048114973223
30
0
41
1
10
66.8923843116884
20
4.75312956628864
30
0
41
1
10
66.9265599146642
20
4.77541402857841
30
0
41
1
10
66.9377724941569
20
4.78340006170757
30
0
41
1
10
66.9598194130521
20
4.80052179023212
30
0
41
1
10
66.9706963637124
20
4.80969798305671
30
0
41
1
10
67.002334612948
20
4.8387279401511
30
0
41
1
10
67.0221130924068
20
4.86001667777492
30
0
41
1
10
67.0495033809685
20
4.89528605171301
30
0
41
1
10
67.0582503844206
20
4.90760421188278
30
0
41
1
10
67.0748567443972
20
4.93354771375397
30
0
41
1
10
67.0826664017119
20
4.94710291303309
30
0
41
1
10
67.0898248201216
20
4.96120488413521
30
0
0
SPLINE
5
165
100
AcDbEntity
8
1
62
256
6
ByLayer
370
18
48
1
60
0
100
AcDbSpline
70
4
71
3
72
10
73
6
40
0
40
0
40
0
40
0
40
0.5
40
0.5
40
1
40
1
40
1
40
1
41
1
10
66.1476306194642
20
5.27180785194477
30
0
41
1
10
66.2172514126873
20
5.19355921651348
30
0
41
1
10
66.2873235999571
20
5.11210234619557
30
0
41
1
10
66.4281348449295
20
4.94315281368634
30
0
41
1
10
66.4988894453579
20
4.85564637636185
30
0
41
1
10
66.5700860435145
20
4.765028169131
30
0
0
SPLINE
5
166
100
AcDbEntity
8
1
62
256
6
ByLayer
370
18
48
1
60
0
100
AcDbSpline
70
4
71
3
72
8
73
4
40
0
40
0
40
0
40
0
40
1
40
1
40
1
40
1
41
1
10
65.3991879787295
20
4.7453770991136
30
0
41
1
10
65.650409165403
20
4.93441571421263
30
0
41
1
10
65.8994058579107
20
5.11016063832668
30
0
41
1
10
66.1476306194642
20
5.27180785194474
30
0
0
SPLINE
5
167
100
AcDbEntity
8
1
62
256
6
ByLayer
370
18
48
1
60
0
100
AcDbSpline
70
4
71
3
72
10
73
6
40
0
40
0
40
0
40
0
40
0.5
40
0.5
40
1
40
1
40
1
40
1
41
1
10
65.023582867912
20
3.95621935560666
30
0
41
1
10
65.086756815434
20
4.08751781533877
30
0
41
1
10
65.1496113879299
20
4.21898690770294
30
0
41
1
10
65.2748301150612
20
4.4821951900332
30
0
41
1
10
65.337159163963
20
4.61386143055074
30
0
41
1
10
65.3991879787295
20
4.7453770991136
30
0
0
SPLINE
5
168
100
AcDbEntity
8
1
62
256
6
ByLayer
370
18
48
1
60
0
100
AcDbSpline
70
4
71
3
72
59
73
55
40
0
40
0
40
0
40
0
40
0.0259740696371062
40
0.0259740696371062
40
0.0909091316613073
40
0.0909091316613073
40
0.123376662673408
40
0.123376662673408
40
0.139610428179458
40
0.139610428179458
40
0.155844193685508
40
0.155844193685508
40
0.188311724697609
40
0.188311724697609
40
0.220779255709709
40
0.220779255709709
40
0.285714317733908
40
0.285714317733908
40
0.350649379758107
40
0.350649379758107
40
0.415584441782305
40
0.415584441782305
40
0.448051972794404
40
0.448051972794404
40
0.464285738300453
40
0.464285738300453
40
0.480519503806502
40
0.512987034818597
40
0.512987034818597
40
0.545454565830693
40
0.545454565830693
40
0.610389627854881
40
0.610389627854881
40
0.642857158866976
40
0.642857158866976
40
0.67532468987907
40
0.67532468987907
40
0.707792220891164
40
0.707792220891164
40
0.740259751903258
40
0.740259751903258
40
0.756493517409304
40
0.756493517409304
40
0.77272728291535
40
0.77272728291535
40
0.805194813927444
40
0.805194813927444
40
0.870129875951631
40
0.870129875951631
40
0.902597406963722
40
0.902597406963722
40
0.935064937975814
40
0.935064937975814
40
1
40
1
40
1
40
1
41
1
10
51.4361675740813
20
-4.51099976941103
30
0
41
1
10
51.348260755433
20
-4.51100290275846
30
0
41
1
10
51.2603382387238
20
-4.50939888325536
30
0
41
1
10
50.9523968257303
20
-4.49815868337811
30
0
41
1
10
50.7320027530712
20
-4.48008958888514
30
0
41
1
10
50.3997839461355
20
-4.43794750986567
30
0
41
1
10
50.2888097207569
20
-4.42138880917398
30
0
41
1
10
50.1220467870168
20
-4.39270692396596
30
0
41
1
10
50.066408741978
20
-4.38250507557123
30
0
41
1
10
49.9550373204154
20
-4.36079963673265
30
0
41
1
10
49.8992964919561
20
-4.34929074459072
30
0
41
1
10
49.7325271907923
20
-4.31297003183423
30
0
41
1
10
49.6217096481853
20
-4.28632699843212
30
0
41
1
10
49.4004101225711
20
-4.22841200188032
30
0
41
1
10
49.2899567690206
20
-4.19713064745102
30
0
41
1
10
48.9590097409789
20
-4.09649410151505
30
0
41
1
10
48.7389302641436
20
-4.02035031269682
30
0
41
1
10
48.2988274978556
20
-3.85081116235037
30
0
41
1
10
48.0788469804352
20
-3.75740034285337
30
0
41
1
10
47.6385300392867
20
-3.55347320014585
30
0
41
1
10
47.4181052604641
20
-3.44299782224422
30
0
41
1
10
47.0857606662081
20
-3.26530323965434
30
0
41
1
10
46.9746944051845
20
-3.20407633802003
30
0
41
1
10
46.8075082169376
20
-3.10934886997785
30
0
41
1
10
46.7517179012983
20
-3.07731407117174
30
0
41
1
10
46.6403754588646
20
-3.01254973631958
30
0
41
1
10
46.4735648564419
20
-2.9142710624275
30
0
41
1
10
46.307351471009
20
-2.8126346777203
30
0
41
1
10
46.0862256990819
20
-2.67420120112288
30
0
41
1
10
45.9759198265728
20
-2.60351315221396
30
0
41
1
10
45.6455160896779
20
-2.38732119683573
30
0
41
1
10
45.4259153405924
20
-2.23770454132938
30
0
41
1
10
45.096311352797
20
-2.00641059350386
30
0
41
1
10
44.986406888676
20
-1.92817122269963
30
0
41
1
10
44.7663041952543
20
-1.76966815489538
30
0
41
1
10
44.6560880195754
20
-1.68942641247847
30
0
41
1
10
44.4352601621488
20
-1.52703933583675
30
0
41
1
10
44.3246607847325
20
-1.44487968476272
30
0
41
1
10
44.1031106957909
20
-1.27857806812767
30
0
41
1
10
43.9921711749097
20
-1.19442111647626
30
0
41
1
10
43.8253888570954
20
-1.06680087787632
30
0
41
1
10
43.769731980722
20
-1.02403073761189
30
0
41
1
10
43.6582703777271
20
-0.938052485328171
30
0
41
1
10
43.6025828119935
20
-0.894934657781647
30
0
41
1
10
43.4358533143399
20
-0.765416826889805
30
0
41
1
10
43.3250526397785
20
-0.678765425764368
30
0
41
1
10
42.9933648516926
20
-0.418331291034434
30
0
41
1
10
42.7731339979254
20
-0.244144189736289
30
0
41
1
10
42.4426879867681
20
0.0161487502783473
30
0
41
1
10
42.3325639427598
20
0.102801792319298
30
0
41
1
10
42.1124328806941
20
0.275973384841251
30
0
41
1
10
42.0024463189383
20
0.362518001640325
30
0
41
1
10
41.6725436314755
20
0.621795402749427
30
0
41
1
10
41.4526191354198
20
0.794087665188073
30
0
41
1
10
41.2318396853275
20
0.964709942089542
30
0
0
SPLINE
5
169
100
AcDbEntity
8
1
62
256
6
ByLayer
370
18
48
1
60
0
100
AcDbSpline
70
4
71
3
72
40
73
36
40
0
40
0
40
0
40
0
40
0.0032154148720853
40
0.0032154148720853
40
0.108539564574979
40
0.108539564574979
40
0.161201639426427
40
0.161201639426427
40
0.213863714277874
40
0.213863714277874
40
0.266525789129322
40
0.266525789129322
40
0.31918786398077
40
0.31918786398077
40
0.371849938832218
40
0.371849938832218
40
0.424512013683665
40
0.424512013683665
40
0.529836163386561
40
0.529836163386561
40
0.582498238238009
40
0.582498238238009
40
0.635160313089456
40
0.635160313089456
40
0.740484462792352
40
0.740484462792352
40
0.7931465376438
40
0.7931465376438
40
0.845808612495247
40
0.845808612495247
40
0.898470687346695
40
0.898470687346695
40
0.951132762198143
40
0.951132762198143
40
1
40
1
40
1
40
1
41
1
10
41.2318395781806
20
0.96471108538546
30
0
41
1
10
41.2287695586728
20
0.966184106311204
30
0
41
1
10
41.2256839925003
20
0.967635478029251
30
0
41
1
10
41.1210096716222
20
1.01589208930639
30
0
41
1
10
41.0038052287429
20
1.03931549304011
30
0
41
1
10
40.8009700777814
20
1.03398206818579
30
0
41
1
10
40.7295607731992
20
1.02532864286709
30
0
41
1
10
40.5809257131324
20
0.993600384370012
30
0
41
1
10
40.5033913609922
20
0.970551994911318
30
0
41
1
10
40.3411029810807
20
0.90833121950206
30
0
41
1
10
40.2554427153268
20
0.868664517630663
30
0
41
1
10
40.0825160776768
20
0.772849513286531
30
0
41
1
10
39.9947611872529
20
0.716671401940175
30
0
41
1
10
39.818089173842
20
0.59687279563758
30
0
41
1
10
39.7285585856132
20
0.531966114629284
30
0
41
1
10
39.5504840458164
20
0.39405574607818
30
0
41
1
10
39.4621104781221
20
0.321238025073598
30
0
41
1
10
39.1990279382937
20
0.09092339711205
30
0
41
1
10
39.0244431992165
20
-0.0805499442880659
30
0
41
1
10
38.7799856673992
20
-0.350521523913557
30
0
41
1
10
38.7009950782451
20
-0.442958859698336
30
0
41
1
10
38.5480250316721
20
-0.632747371538329
30
0
41
1
10
38.4737486854745
20
-0.730543312015669
30
0
41
1
10
38.2604476577681
20
-1.02832720390435
30
0
41
1
10
38.1338545718581
20
-1.22824376127002
30
0
41
1
10
37.9630354650714
20
-1.52982184440069
30
0
41
1
10
37.9087294727315
20
-1.63103286981399
30
0
41
1
10
37.8095813860943
20
-1.82987178081936
30
0
41
1
10
37.7660588757081
20
-1.92744084109148
30
0
41
1
10
37.693869690404
20
-2.11803644862189
30
0
41
1
10
37.664345179438
20
-2.21204242093148
30
0
41
1
10
37.6186455231213
20
-2.39184046601159
30
0
41
1
10
37.6022891431837
20
-2.47767082329801
30
0
41
1
10
37.5813004039577
20
-2.63653906603139
30
0
41
1
10
37.5759740650239
20
-2.71018649832044
30
0
41
1
10
37.5750409934224
20
-2.78057896169452
30
0
0
SPLINE
5
16A
100
AcDbEntity
8
1
62
256
6
ByLayer
370
18
48
1
60
0
100
AcDbSpline
70
4
71
3
72
60
73
56
40
0
40
0
40
0
40
0
40
0.040733196084839
40
0.040733196084839
40
0.0814663921696779
40
0.0814663921696779
40
0.122199588254517
40
0.122199588254517
40
0.162932784339356
40
0.162932784339356
40
0.203665980424195
40
0.203665980424195
40
0.244399176509034
40
0.285132372593873
40
0.285132372593873
40
0.305498970636292
40
0.305498970636292
40
0.325865568678712
40
0.325865568678712
40
0.36659876476355
40
0.36659876476355
40
0.407331960848389
40
0.407331960848389
40
0.488798353018067
40
0.488798353018067
40
0.529531549102906
40
0.529531549102906
40
0.549898147145327
40
0.549898147145327
40
0.570264745187748
40
0.570264745187748
40
0.610997941272586
40
0.610997941272586
40
0.631364539315007
40
0.631364539315007
40
0.651731137357428
40
0.692464333442269
40
0.692464333442269
40
0.733197529527111
40
0.733197529527111
40
0.773930725611953
40
0.773930725611953
40
0.814663921696794
40
0.814663921696794
40
0.855397117781636
40
0.855397117781636
40
0.896130313866477
40
0.896130313866477
40
0.936863509951319
40
0.936863509951319
40
0.957230107993738
40
0.957230107993738
40
0.977596706036158
40
0.977596706036158
40
1
40
1
40
1
40
1
41
1
10
37.57511384361
20
-2.78067625129668
30
0
41
1
10
37.7052269210442
20
-2.86096367362074
30
0
41
1
10
37.8347587555174
20
-2.93915646423255
30
0
41
1
10
38.0929831088939
20
-3.09101121953816
30
0
41
1
10
38.2216916730403
20
-3.16465369140761
30
0
41
1
10
38.4789859164618
20
-3.30674804507217
30
0
41
1
10
38.6076073442859
20
-3.37516769791901
30
0
41
1
10
38.865497121268
20
-3.50624417616663
30
0
41
1
10
38.9946971980586
20
-3.56896888516212
30
0
41
1
10
39.2532977010686
20
-3.68907564958258
30
0
41
1
10
39.3826414145465
20
-3.74649629435649
30
0
41
1
10
39.6415568262178
20
-3.85589429807325
30
0
41
1
10
39.9007278243887
20
-3.95982744045338
30
0
41
1
10
40.1609488496816
20
-4.05226368934203
30
0
41
1
10
40.3567427791652
20
-4.11704603348633
30
0
41
1
10
40.4219925775207
20
-4.13784122319359
30
0
41
1
10
40.5521832772547
20
-4.17771570926971
30
0
41
1
10
40.617174519305
20
-4.19681171599737
30
0
41
1
10
40.8119184434188
20
-4.25156141719526
30
0
41
1
10
40.9414469435156
20
-4.2846722222933
30
0
41
1
10
41.2003630140966
20
-4.34407410250509
30
0
41
1
10
41.32972898999
20
-4.37037957436311
30
0
41
1
10
41.7175864932354
20
-4.43925611686626
30
0
41
1
10
41.9758545208553
20
-4.47185726797733
30
0
41
1
10
42.3620581626314
20
-4.500576929836
30
0
41
1
10
42.4906457541168
20
-4.50674651329638
30
0
41
1
10
42.6840853701197
20
-4.51078072313297
30
0
41
1
10
42.7486667314827
20
-4.51125729493356
30
0
41
1
10
42.8781494757194
20
-4.51048170323213
30
0
41
1
10
42.9430384214111
20
-4.50923046789717
30
0
41
1
10
43.1381096051766
20
-4.50289418149566
30
0
41
1
10
43.2687009767688
20
-4.4952342108358
30
0
41
1
10
43.4651585945957
20
-4.47850565883982
30
0
41
1
10
43.5307332464256
20
-4.47205052549123
30
0
41
1
10
43.6614345021984
20
-4.45743891803224
30
0
41
1
10
43.8570597425148
20
-4.43295307913448
30
0
41
1
10
44.0515364057106
20
-4.40081951210101
30
0
41
1
10
44.3099932443709
20
-4.35123852404601
30
0
41
1
10
44.4387658606276
20
-4.32306278376203
30
0
41
1
10
44.6960627120497
20
-4.26018832846006
30
0
41
1
10
44.8246263135483
20
-4.22550552481627
30
0
41
1
10
45.0822359444574
20
-4.15003476069572
30
0
41
1
10
45.2112257013699
20
-4.10922856008384
30
0
41
1
10
45.4695705980235
20
-4.02153592837564
30
0
41
1
10
45.5989254840823
20
-3.97465070305483
30
0
41
1
10
45.8578976024834
20
-3.87470610031718
30
0
41
1
10
45.9875231889036
20
-3.82165020866543
30
0
41
1
10
46.2471063691034
20
-3.70928030778219
30
0
41
1
10
46.377036860506
20
-3.6499411948266
30
0
41
1
10
46.5724931734004
20
-3.55633955950884
30
0
41
1
10
46.63780759662
20
-3.52434096207512
30
0
41
1
10
46.7681435224746
20
-3.45915044078788
30
0
41
1
10
46.8332130827133
20
-3.42593724152795
30
0
41
1
10
46.9697475189102
20
-3.35498814423244
30
0
41
1
10
47.0412047957241
20
-3.31713807044073
30
0
41
1
10
47.11260541091
20
-3.27861191303342
30
0
0
SPLINE
5
16B
100
AcDbEntity
8
1
62
256
6
ByLayer
370
18
48
1
60
0
100
AcDbSpline
70
4
71
3
72
14
73
10
40
0
40
0
40
0
40
0
40
0.0572709085987639
40
0.0572709085987639
40
0.528635454299374
40
0.528635454299374
40
0.764317727149687
40
0.764317727149687
40
1
40
1
40
1
40
1
41
1
10
60.7893459226641
20
4.51099979581338
30
0
41
1
10
60.8206130243053
20
4.51100043125012
30
0
41
1
10
60.8518749815925
20
4.51079888995994
30
0
41
1
10
61.1404158763945
20
4.50706905254989
30
0
41
1
10
61.3975529724045
20
4.49000574721435
30
0
41
1
10
61.7853286920449
20
4.44387869249843
30
0
41
1
10
61.9149618081067
20
4.42509146606284
30
0
41
1
10
62.1753632132505
20
4.38078291611217
30
0
41
1
10
62.3060948541853
20
4.35526112880137
30
0
41
1
10
62.4372310908095
20
4.32627630703996
30
0
0
SPLINE
5
16C
100
AcDbEntity
8
1
62
256
6
ByLayer
370
18
48
1
60
0
100
AcDbSpline
70
4
71
3
72
26
73
22
40
0
40
0
40
0
40
0
40
0.12499999999999
40
0.12499999999999
40
0.24999999999998
40
0.24999999999998
40
0.37499999999997
40
0.37499999999997
40
0.49999999999996
40
0.49999999999996
40
0.562499999999965
40
0.562499999999965
40
0.624999999999969
40
0.624999999999969
40
0.749999999999979
40
0.749999999999979
40
0.812499999999984
40
0.812499999999984
40
0.87499999999999
40
0.87499999999999
40
1
40
1
40
1
40
1
41
1
10
62.4372310908095
20
4.32627630703996
30
0
41
1
10
62.4868853954263
20
4.31530129962741
30
0
41
1
10
62.5361182438815
20
4.30684405791354
30
0
41
1
10
62.6335518482695
20
4.29469385616667
30
0
41
1
10
62.6817531392689
20
4.29099963381955
30
0
41
1
10
62.7769846681201
20
4.28832172421428
30
0
41
1
10
62.8240127123168
20
4.2893328036478
30
0
41
1
10
62.9168054492886
20
4.29630008489119
30
0
41
1
10
62.9625759606515
20
4.30225346999995
30
0
41
1
10
63.0302629915322
20
4.31542362934928
30
0
41
1
10
63.0525921146988
20
4.3205140231828
30
0
41
1
10
63.0964984028745
20
4.33211939578854
30
0
41
1
10
63.1181174569138
20
4.33864199602738
30
0
41
1
10
63.1819501535339
20
4.36053565409486
30
0
41
1
10
63.2231452263788
20
4.37820322314536
30
0
41
1
10
63.2827202591259
20
4.41040071054545
30
0
41
1
10
63.3022077018492
20
4.42208884701736
30
0
41
1
10
63.3403901324462
20
4.4476672928584
30
0
41
1
10
63.3589502415691
20
4.46147366324138
30
0
41
1
10
63.4126837531636
20
4.50608474800558
30
0
41
1
10
63.4460417992018
20
4.54012959231076
30
0
41
1
10
63.4764615753509
20
4.57947281117436
30
0
0
SPLINE
5
16D
100
AcDbEntity
8
1
62
256
6
ByLayer
370
18
48
1
60
0
100
AcDbSpline
70
4
71
3
72
12
73
8
40
0
40
0
40
0
40
0
40
0.250000000000007
40
0.250000000000007
40
0.500000000000014
40
0.500000000000014
40
1
40
1
40
1
40
1
41
1
10
63.4764615753509
20
4.57947281117436
30
0
41
1
10
63.5051931637685
20
4.616632623458
30
0
41
1
10
63.5340361765591
20
4.654108339125
30
0
41
1
10
63.5916118349182
20
4.72825790934735
30
0
41
1
10
63.6203422133415
20
4.76491625081386
30
0
41
1
10
63.7062706907948
20
4.87315083912725
30
0
41
1
10
63.7632451639358
20
4.94315502332614
30
0
41
1
10
63.82
20
5.01118723586171
30
0
0
SPLINE
5
16E
100
AcDbEntity
8
1
62
256
6
ByLayer
370
18
48
1
60
0
100
AcDbSpline
70
4
71
3
72
8
73
4
40
0
40
0
40
0
40
0
40
1
40
1
40
1
40
1
41
1
10
64.6717357619255
20
4.66167897167315
30
0
41
1
10
64.3893648440743
20
4.79756522228172
30
0
41
1
10
64.105729355852
20
4.91407674137878
30
0
41
1
10
63.8199999999999
20
5.01118723586171
30
0
0
SPLINE
5
16F
100
AcDbEntity
8
1
62
256
6
ByLayer
370
18
48
1
60
0
100
AcDbSpline
70
4
71
3
72
8
73
4
40
0
40
0
40
0
40
0
40
1
40
1
40
1
40
1
41
1
10
64.9825440323804
20
4.0239927301993
30
0
41
1
10
64.8781569398259
20
4.23613924740616
30
0
41
1
10
64.7745781118318
20
4.44871218470001
30
0
41
1
10
64.6717357619255
20
4.66167897167318
30
0
0
SPLINE
5
170
100
AcDbEntity
8
1
62
256
6
ByLayer
370
18
48
1
60
0
100
AcDbSpline
70
4
71
3
72
32
73
28
40
0
40
0
40
0
40
0
40
0.0625000000000041
40
0.0625000000000041
40
0.125000000000008
40
0.125000000000008
40
0.187500000000012
40
0.187500000000012
40
0.250000000000016
40
0.250000000000016
40
0.31250000000002
40
0.31250000000002
40
0.375000000000024
40
0.375000000000024
40
0.500000000000072
40
0.500000000000072
40
0.562500000000076
40
0.562500000000076
40
0.625000000000081
40
0.625000000000081
40
0.750000000000053
40
0.750000000000053
40
0.812500000000039
40
0.812500000000039
40
0.875000000000025
40
0.875000000000025
40
1
40
1
40
1
40
1
41
1
10
65.502323641442
20
3.68936695304339
30
0
41
1
10
65.4941558752976
20
3.68345422172638
30
0
41
1
10
65.485161549701
20
3.67911395498265
30
0
41
1
10
65.4658500620428
20
3.6729432667901
30
0
41
1
10
65.4555291997013
20
3.67112005485819
30
0
41
1
10
65.433726374096
20
3.66968067054339
30
0
41
1
10
65.4224856855503
20
3.67008174164457
30
0
41
1
10
65.3995697308004
20
3.67271451036851
30
0
41
1
10
65.3878730162113
20
3.67494875889275
30
0
41
1
10
65.3640696728114
20
3.68102465761228
30
0
41
1
10
65.3518964604727
20
3.68489471694727
30
0
41
1
10
65.3275596168216
20
3.69397908074112
30
0
41
1
10
65.3154018169633
20
3.69918147755791
30
0
41
1
10
65.2789700864722
20
3.71655748566116
30
0
41
1
10
65.254736409889
20
3.73047685113852
30
0
41
1
10
65.2185272545028
20
3.75460017426562
30
0
41
1
10
65.2064535380257
20
3.76321406650789
30
0
41
1
10
65.1827476008207
20
3.78126027015583
30
0
41
1
10
65.1710703978964
20
3.79071984411945
30
0
41
1
10
65.1365797993403
20
3.82040260016055
30
0
41
1
10
65.1142997374819
20
3.84190992359879
30
0
41
1
10
65.0821325393478
20
3.87705379138092
30
0
41
1
10
65.0716306757793
20
3.8892527017168
30
0
41
1
10
65.0515062875922
20
3.91420643132199
30
0
41
1
10
65.0418301763248
20
3.92701686720332
30
0
41
1
10
65.0140561556111
20
3.96653174440243
30
0
41
1
10
64.9971655571466
20
3.9942773173118
30
0
41
1
10
64.9825440323804
20
4.02399273019958
30
0
0
SPLINE
5
171
100
AcDbEntity
8
1
62
256
6
ByLayer
370
18
48
1
60
0
100
AcDbSpline
70
4
71
3
72
10
73
6
40
0
40
0
40
0
40
0
40
0.5
40
0.5
40
1
40
1
40
1
40
1
41
1
10
65.9065995949852
20
3.94061304905998
30
0
41
1
10
65.839973108143
20
3.90587065543519
30
0
41
1
10
65.7729897554104
20
3.86765396232298
30
0
41
1
10
65.6382132127904
20
3.7840924706945
30
0
41
1
10
65.5704964994038
20
3.73871799776129
30
0
41
1
10
65.502323641442
20
3.68936695304319
30
0
0
SPLINE
5
172
100
AcDbEntity
8
1
62
256
6
ByLayer
370
18
48
1
60
0
100
AcDbSpline
70
4
71
3
72
8
73
4
40
0
40
0
40
0
40
0
40
1
40
1
40
1
40
1
41
1
10
66.5716732151639
20
3.45746325839949
30
0
41
1
10
66.3503086081364
20
3.62864150388759
30
0
41
1
10
66.1287283139119
20
3.78970376506561
30
0
41
1
10
65.9065995949852
20
3.94061304905998
30
0
0
SPLINE
5
173
100
AcDbEntity
8
1
62
256
6
ByLayer
370
18
48
1
60
0
100
AcDbSpline
70
4
71
3
72
10
73
6
40
0
40
0
40
0
40
0
40
0.5
40
0.5
40
1
40
1
40
1
40
1
41
1
10
67.0486141488583
20
2.5320072959579
30
0
41
1
10
66.9681719792343
20
2.68187935978347
30
0
41
1
10
66.888213634423
20
2.83398020756755
30
0
41
1
10
66.7291243616068
20
3.14271241418194
30
0
41
1
10
66.6501608842555
20
3.2991397716805
30
0
41
1
10
66.5716732151639
20
3.45746325839951
30
0
0
SPLINE
5
174
100
AcDbEntity
8
1
62
256
6
ByLayer
370
18
48
1
60
0
100
AcDbSpline
70
4
71
3
72
32
73
28
40
0
40
0
40
0
40
0
40
0.0624999999999858
40
0.0624999999999858
40
0.124999999999972
40
0.124999999999972
40
0.187499999999958
40
0.187499999999958
40
0.249999999999943
40
0.249999999999943
40
0.312499999999929
40
0.312499999999929
40
0.374999999999915
40
0.374999999999915
40
0.499999999999886
40
0.499999999999886
40
0.562499999999891
40
0.562499999999891
40
0.624999999999896
40
0.624999999999896
40
0.749999999999907
40
0.749999999999907
40
0.81249999999993
40
0.81249999999993
40
0.874999999999952
40
0.874999999999952
40
1
40
1
40
1
40
1
41
1
10
67.5684086653509
20
2.09523694747634
30
0
41
1
10
67.5602452186577
20
2.09438776635943
30
0
41
1
10
67.5512563782903
20
2.09491837037532
30
0
41
1
10
67.5319571599448
20
2.09818064347749
30
0
41
1
10
67.5216430915196
20
2.1009186938158
30
0
41
1
10
67.4998548139485
20
2.10833173695639
30
0
41
1
10
67.4886147346937
20
2.11292849731276
30
0
41
1
10
67.4657046018156
20
2.12353287683891
30
0
41
1
10
67.4540103073435
20
2.12955131826308
30
0
41
1
10
67.4302114196427
20
2.14284690768511
30
0
41
1
10
67.4180406534879
20
2.15016866071392
30
0
41
1
10
67.393697905112
20
2.16574517936968
30
0
41
1
10
67.3815374574492
20
2.17398606101662
30
0
41
1
10
67.3450992375009
20
2.19992834548671
30
0
41
1
10
67.3208631621163
20
2.21883307952507
30
0
41
1
10
67.2846542662336
20
2.24945916458316
30
0
41
1
10
67.2725783881747
20
2.26008168689506
30
0
41
1
10
67.2488669109641
20
2.2817632082992
30
0
41
1
10
67.2371879532121
20
2.29285682257961
30
0
41
1
10
67.2026939802513
20
2.32690333563031
30
0
41
1
10
67.1804140218383
20
2.35061050129195
30
0
41
1
10
67.1482467783485
20
2.38790062058757
30
0
41
1
10
67.1377396465975
20
2.40062385017041
30
0
41
1
10
67.1176062230332
20
2.42618904440656
30
0
41
1
10
67.1079259609657
20
2.43909117920452
30
0
41
1
10
67.0801399780639
20
2.47818547312167
30
0
41
1
10
67.0632419462882
20
2.50475419972418
30
0
41
1
10
67.0486141488583
20
2.53200729595832
30
0
0
SPLINE
5
175
100
AcDbEntity
8
1
62
256
6
ByLayer
370
18
48
1
60
0
100
AcDbSpline
70
4
71
3
72
32
73
28
40
0
40
0
40
0
40
0
40
0.0624999999999797
40
0.0624999999999797
40
0.12499999999996
40
0.12499999999996
40
0.187499999999939
40
0.187499999999939
40
0.249999999999919
40
0.249999999999919
40
0.312499999999899
40
0.312499999999899
40
0.374999999999879
40
0.374999999999879
40
0.499999999999877
40
0.499999999999877
40
0.562499999999896
40
0.562499999999896
40
0.624999999999915
40
0.624999999999915
40
0.749999999999952
40
0.749999999999952
40
0.812499999999972
40
0.812499999999972
40
0.874999999999991
40
0.874999999999991
40
1
40
1
40
1
40
1
41
1
10
69.6344506656563
20
0.232709394474767
30
0
41
1
10
69.6262968426834
20
0.237065219150651
30
0
41
1
10
69.6173220935948
20
0.24243218604326
30
0
41
1
10
69.5980597460968
20
0.254776397316789
30
0
41
1
10
69.587768468017
20
0.261758359169846
30
0
41
1
10
69.5660346703746
20
0.277137855106133
30
0
41
1
10
69.5548145416649
20
0.285378915591878
30
0
41
1
10
69.5319554163773
20
0.302659341557614
30
0
41
1
10
69.5202879820226
20
0.311719721432326
30
0
41
1
10
69.496544533484
20
0.330581364608975
30
0
41
1
10
69.484404508095
20
0.340436337421693
30
0
41
1
10
69.4600949192232
20
0.360556579018407
30
0
41
1
10
69.4479497287233
20
0.370799123803351
30
0
41
1
10
69.4115527091513
20
0.402027233120663
30
0
41
1
10
69.3873380326691
20
0.423505913574473
30
0
41
1
10
69.3511503815802
20
0.456700368798124
30
0
41
1
10
69.3390711180411
20
0.467968527239918
30
0
41
1
10
69.3153362420187
20
0.490505661153321
30
0
41
1
10
69.3036447722752
20
0.501806311648977
30
0
41
1
10
69.2691111725118
20
0.535824640164918
30
0
41
1
10
69.2468018255915
20
0.558657300667932
30
0
41
1
10
69.214589392735
20
0.593238881823083
30
0
41
1
10
69.2040449331003
20
0.604845225982274
30
0
41
1
10
69.183840169037
20
0.627721239388308
30
0
41
1
10
69.1741272833007
20
0.639045585634506
30
0
41
1
10
69.1462534096828
20
0.67265041647471
30
0
41
1
10
69.1293098855153
20
0.69458436243184
30
0
41
1
10
69.1146539995305
20
0.7158140792192
30
0
0
SPLINE
5
176
100
AcDbEntity
8
1
62
256
6
ByLayer
370
18
48
1
60
0
100
AcDbSpline
70
4
71
3
72
14
73
10
40
0
40
0
40
0
40
0
40
0.25
40
0.25
40
0.5
40
0.5
40
0.75
40
0.75
40
1
40
1
40
1
40
1
41
1
10
70.291255178894
20
-0.245479464727396
30
0
41
1
10
70.237591869445
20
-0.196310157817976
30
0
41
1
10
70.1836851806652
20
-0.149382080957849
30
0
41
1
10
70.0752950441889
20
-0.060105985740563
30
0
41
1
10
70.0207827968193
20
-0.0177320275667796
30
0
41
1
10
69.911262246336
20
0.0622895383304467
30
0
41
1
10
69.8562565790297
20
0.0999749965817216
30
0
41
1
10
69.7457304941545
20
0.170315830221256
30
0
41
1
10
69.6902391598813
20
0.20290682203975
30
0
41
1
10
69.6344506656564
20
0.232709394474824
30
0
0
SPLINE
5
177
100
AcDbEntity
8
1
62
256
6
ByLayer
370
18
48
1
60
0
100
AcDbSpline
70
4
71
3
72
8
73
4
40
0
40
0
40
0
40
0
40
1
40
1
40
1
40
1
41
1
10
70.2912551788939
20
-0.245479464727424
30
0
41
1
10
70.3612294067738
20
-0.32368797373249
30
0
41
1
10
70.4312193758637
20
-0.401825781529539
30
0
41
1
10
70.5012405029474
20
-0.479879043879521
30
0
0
SPLINE
5
178
100
AcDbEntity
8
1
62
256
6
ByLayer
370
18
48
1
60
0
100
AcDbSpline
70
4
71
3
72
14
73
10
40
0
40
0
40
0
40
0
40
0.25
40
0.25
40
0.5
40
0.5
40
0.75
40
0.75
40
1
40
1
40
1
40
1
41
1
10
71.1806825984264
20
-1.19245061919025
30
0
41
1
10
71.1230150688138
20
-1.143413468734
30
0
41
1
10
71.06561891044
20
-1.09181969979494
30
0
41
1
10
70.9513091774631
20
-0.983473472066521
30
0
41
1
10
70.8943988522761
20
-0.926658180847625
30
0
41
1
10
70.7810842417498
20
-0.807663544086068
30
0
41
1
10
70.7247429496742
20
-0.745589194172652
30
0
41
1
10
70.6125707138541
20
-0.616411986822641
30
0
41
1
10
70.5567578637505
20
-0.549329988036163
30
0
41
1
10
70.5012405029474
20
-0.479879043879578
30
0
0
SPLINE
5
179
100
AcDbEntity
8
1
62
256
6
ByLayer
370
18
48
1
60
0
100
AcDbSpline
70
4
71
3
72
32
73
28
40
0
40
0
40
0
40
0
40
0.0625000000000056
40
0.0625000000000056
40
0.125000000000011
40
0.125000000000011
40
0.187500000000017
40
0.187500000000017
40
0.250000000000022
40
0.250000000000022
40
0.312500000000028
40
0.312500000000028
40
0.375000000000034
40
0.375000000000034
40
0.500000000000005
40
0.500000000000005
40
0.56249999999999
40
0.56249999999999
40
0.624999999999975
40
0.624999999999975
40
0.749999999999983
40
0.749999999999983
40
0.812499999999987
40
0.812499999999987
40
0.874999999999992
40
0.874999999999992
40
1
40
1
40
1
40
1
41
1
10
71.7004899211664
20
-1.65965220124374
30
0
41
1
10
71.6923411183647
20
-1.65067706193292
30
0
41
1
10
71.6833731919984
20
-1.64118890937866
30
0
41
1
10
71.6641273149202
20
-1.62139707924226
30
0
41
1
10
71.6538457014603
20
-1.61109096090422
30
0
41
1
10
71.6321336188389
20
-1.5897612519079
30
0
41
1
10
71.6209196342877
20
-1.57895056739275
30
0
41
1
10
71.5980770916981
20
-1.55724164328865
30
0
41
1
10
71.5864178882466
20
-1.54631418047333
30
0
41
1
10
71.5626904780362
20
-1.52432463056348
30
0
41
1
10
71.5505593602835
20
-1.51320601612125
30
0
41
1
10
71.5262545844386
20
-1.49113404302793
30
0
41
1
10
71.5141112114705
20
-1.48020685129575
30
0
41
1
10
71.4777179091027
20
-1.44770129540888
30
0
41
1
10
71.4535033889357
20
-1.42639647554591
30
0
41
1
10
71.4173127506729
20
-1.39486802691962
30
0
41
1
10
71.4052296389604
20
-1.38439498143882
30
0
41
1
10
71.3814813155141
20
-1.36389000586223
30
0
41
1
10
71.3697831370984
20
-1.35382911982501
30
0
41
1
10
71.335230326501
20
-1.32419003207866
30
0
41
1
10
71.3129097647154
20
-1.30514615133492
30
0
41
1
10
71.2806852543001
20
-1.27767592367439
30
0
41
1
10
71.2701323152448
20
-1.26868453315535
30
0
41
1
10
71.2499102703782
20
-1.25145191648068
30
0
41
1
10
71.2401899629797
20
-1.24316702097792
30
0
41
1
10
71.2122967312406
20
-1.21938798079645
30
0
41
1
10
71.195343978861
20
-1.20491781386775
30
0
41
1
10
71.1806825984264
20
-1.19245061918997
30
0
0
SPLINE
5
17A
100
AcDbEntity
8
1
62
256
6
ByLayer
370
18
48
1
60
0
100
AcDbSpline
70
4
71
3
72
14
73
10
40
0
40
0
40
0
40
0
40
0.25
40
0.25
40
0.5
40
0.5
40
0.75
40
0.75
40
1
40
1
40
1
40
1
41
1
10
72.3576272762275
20
-2.49661999907175
30
0
41
1
10
72.3039448636683
20
-2.41952452904357
30
0
41
1
10
72.250019546064
20
-2.34415330976827
30
0
41
1
10
72.1415920417517
20
-2.19694754578859
30
0
41
1
10
72.0870606260122
20
-2.12507404898108
30
0
41
1
10
71.9774934026621
20
-1.98513244059708
30
0
41
1
10
71.9224601362935
20
-1.91703109713086
30
0
41
1
10
71.8118633582799
20
-1.78499786571916
30
0
41
1
10
71.7563284220971
20
-1.72115305443259
30
0
41
1
10
71.7004899211674
20
-1.65965220124608
30
0
0
SPLINE
5
17B
100
AcDbEntity
8
1
62
256
6
ByLayer
370
18
48
1
60
0
100
AcDbSpline
70
4
71
3
72
8
73
4
40
0
40
0
40
0
40
0
40
1
40
1
40
1
40
1
41
1
10
72.3576272762274
20
-2.49661999907153
30
0
41
1
10
72.4279959959183
20
-2.56918538597589
30
0
41
1
10
72.498322642693
20
-2.64109708137738
30
0
41
1
10
72.5686153721338
20
-2.71235226873651
30
0
0
SPLINE
5
17C
100
AcDbEntity
8
1
62
256
6
ByLayer
370
18
48
1
60
0
100
AcDbSpline
70
4
71
3
72
14
73
10
40
0
40
0
40
0
40
0
40
0.25
40
0.25
40
0.5
40
0.5
40
0.75
40
0.75
40
1
40
1
40
1
40
1
41
1
10
73.246797031848
20
-2.94785758807615
30
0
41
1
10
73.1892666484631
20
-2.9397345049918
30
0
41
1
10
73.1320094366242
20
-2.92881180901335
30
0
41
1
10
73.0179660764029
20
-2.90128928932279
30
0
41
1
10
72.9611839567719
20
-2.88462971136514
30
0
41
1
10
72.8480979893853
20
-2.84533337748687
30
0
41
1
10
72.7918589080371
20
-2.82275430354207
30
0
41
1
10
72.67984996319
20
-2.7718328587448
30
0
41
1
10
72.6240952266248
20
-2.74349499136
30
0
41
1
10
72.5686153721258
20
-2.71235226872534
30
0
0
SPLINE
5
17D
100
AcDbEntity
8
1
62
256
6
ByLayer
370
18
48
1
60
0
100
AcDbSpline
70
4
71
3
72
32
73
28
40
0
40
0
40
0
40
0
40
0.0624999999999997
40
0.0624999999999997
40
0.124999999999999
40
0.124999999999999
40
0.187499999999999
40
0.187499999999999
40
0.249999999999999
40
0.249999999999999
40
0.312499999999998
40
0.312499999999998
40
0.374999999999998
40
0.374999999999998
40
0.499999999999998
40
0.499999999999998
40
0.562499999999998
40
0.562499999999998
40
0.624999999999997
40
0.624999999999997
40
0.749999999999998
40
0.749999999999998
40
0.812499999999998
40
0.812499999999998
40
0.874999999999999
40
0.874999999999999
40
1
40
1
40
1
40
1
41
1
10
73.7665928411828
20
-3.33865259360695
30
0
41
1
10
73.7584419774977
20
-3.32621337061383
30
0
41
1
10
73.7494732203008
20
-3.31382348057619
30
0
41
1
10
73.7302277638989
20
-3.28912623345582
30
0
41
1
10
73.7199473804023
20
-3.27681902601586
30
0
41
1
10
73.6982393111169
20
-3.25227641484347
30
0
41
1
10
73.6870265621738
20
-3.24028555239391
30
0
41
1
10
73.6641877736885
20
-3.21693706541404
30
0
41
1
10
73.6525305289164
20
-3.20554663851854
30
0
41
1
10
73.6288066585832
20
-3.18325552965746
30
0
41
1
10
73.6166775417713
20
-3.17230218541479
30
0
41
1
10
73.5923716793049
20
-3.15112265440453
30
0
41
1
10
73.5802273423646
20
-3.140919774503
30
0
41
1
10
73.5438299153924
20
-3.11133089835113
30
0
41
1
10
73.5196107645178
20
-3.09295287611474
30
0
41
1
10
73.4834123943204
20
-3.06716994148289
30
0
41
1
10
73.4713260640724
20
-3.05884963547183
30
0
41
1
10
73.4475712290132
20
-3.04304017449678
30
0
41
1
10
73.435870608837
20
-3.03552615403461
30
0
41
1
10
73.4013130576359
20
-3.01411800949992
30
0
41
1
10
73.3789926266706
20
-3.00133962773933
30
0
41
1
10
73.3467725330826
20
-2.9845577970955
30
0
41
1
10
73.336220906157
20
-2.97935794133917
30
0
41
1
10
73.3160019227178
20
-2.97002749161553
30
0
41
1
10
73.3062837164121
20
-2.96586846603009
30
0
41
1
10
73.2783979234135
20
-2.95503413385782
30
0
41
1
10
73.2614516085293
20
-2.94992676156204
30
0
41
1
10
73.2467970318479
20
-2.94785758807586
30
0
0
SPLINE
5
17E
100
AcDbEntity
8
1
62
256
6
ByLayer
370
18
48
1
60
0
100
AcDbSpline
70
4
71
3
72
14
73
10
40
0
40
0
40
0
40
0
40
0.25
40
0.25
40
0.5
40
0.5
40
0.75
40
0.75
40
1
40
1
40
1
40
1
41
1
10
74.4249138202752
20
-4.42670396697241
30
0
41
1
10
74.3711451054379
20
-4.33164444605447
30
0
41
1
10
74.3171280168541
20
-4.23757340279681
30
0
41
1
10
74.2085106030698
20
-4.05147647270212
30
0
41
1
10
74.1538819095532
20
-3.95940236160982
30
0
41
1
10
74.0441153369676
20
-3.77760254760713
30
0
41
1
10
73.9889815159878
20
-3.68785295584414
30
0
41
1
10
73.8781833282784
20
-3.51102441609356
30
0
41
1
10
73.8225447531957
20
-3.42404211026505
30
0
41
1
10
73.7665928411828
20
-3.33865259360695
30
0
0
SPLINE
5
17F
100
AcDbEntity
8
1
62
256
6
ByLayer
370
18
48
1
60
0
100
AcDbSpline
70
4
71
3
72
8
73
4
40
0
40
0
40
0
40
0
40
1
40
1
40
1
40
1
41
1
10
74.424913820275
20
-4.42670396697196
30
0
41
1
10
74.4949352204171
20
-4.48339495374566
30
0
41
1
10
74.5648633611277
20
-4.53896741354563
30
0
41
1
10
74.6346938029744
20
-4.59343792176296
30
0
0
SPLINE
5
180
100
AcDbEntity
8
1
62
256
6
ByLayer
370
18
48
1
60
0
100
AcDbSpline
70
4
71
3
72
14
73
10
40
0
40
0
40
0
40
0
40
0.25
40
0.25
40
0.5
40
0.5
40
0.75
40
0.75
40
1
40
1
40
1
40
1
41
1
10
75.3128910260399
20
-4.32404244880627
30
0
41
1
10
75.2553707689439
20
-4.35761621104797
30
0
41
1
10
75.198127493536
20
-4.38847084573092
30
0
41
1
10
75.0841054301191
20
-4.44472032015358
30
0
41
1
10
75.0273311730026
20
-4.47006662086775
30
0
41
1
10
74.914244476131
20
-4.5150364536355
30
0
41
1
10
74.8579943488748
20
-4.53466839283405
30
0
41
1
10
74.745957209994
20
-4.56829963629002
30
0
41
1
10
74.6901866547352
20
-4.58228931343626
30
0
41
1
10
74.6346938029743
20
-4.59343792176293
30
0
0
SPLINE
5
181
100
AcDbEntity
8
1
62
256
6
ByLayer
370
18
48
1
60
0
100
AcDbSpline
70
4
71
3
72
32
73
28
40
0
40
0
40
0
40
0
40
0.0625000000000043
40
0.0625000000000043
40
0.125000000000009
40
0.125000000000009
40
0.187500000000013
40
0.187500000000013
40
0.250000000000017
40
0.250000000000017
40
0.312500000000022
40
0.312500000000022
40
0.375000000000026
40
0.375000000000026
40
0.500000000000036
40
0.500000000000036
40
0.562500000000021
40
0.562500000000021
40
0.625000000000006
40
0.625000000000006
40
0.750000000000015
40
0.750000000000015
40
0.812500000000019
40
0.812500000000019
40
0.875000000000023
40
0.875000000000023
40
1
40
1
40
1
40
1
41
1
10
75.8326478991649
20
-4.58777093782803
30
0
41
1
10
75.8245042720976
20
-4.5735216045473
30
0
41
1
10
75.8155428932141
20
-4.55987407962112
30
0
41
1
10
75.7963108697431
20
-4.53354252618826
30
0
41
1
10
75.7860365629696
20
-4.52086119331912
30
0
41
1
10
75.7643387951365
20
-4.49634420552761
30
0
41
1
10
75.7531261445158
20
-4.48475004153408
30
0
41
1
10
75.7302886335788
20
-4.46283083248636
30
0
41
1
10
75.7186309258916
20
-4.45247237834067
30
0
41
1
10
75.6949046293352
20
-4.43280104029273
30
0
41
1
10
75.6827739377061
20
-4.42344609964263
30
0
41
1
10
75.6584596452951
20
-4.40592631158253
30
0
41
1
10
75.6463111660717
20
-4.39777897837871
30
0
41
1
10
75.6099027737377
20
-4.37496099258738
30
0
41
1
10
75.5856785869719
20
-4.36189446379404
30
0
41
1
10
75.5494785086764
20
-4.34518580272461
30
0
41
1
10
75.5373923338286
20
-4.34009010399268
30
0
41
1
10
75.5136387309095
20
-4.33100876844696
30
0
41
1
10
75.5019393125962
20
-4.32700500474067
30
0
41
1
10
75.4673861804768
20
-4.31656515939392
30
0
41
1
10
75.445069746262
20
-4.31167557195118
30
0
41
1
10
75.412854102402
20
-4.30769894610279
30
0
41
1
10
75.4023046265731
20
-4.30694446197569
30
0
41
1
10
75.3820899516583
20
-4.30668421308832
30
0
41
1
10
75.3723735395704
20
-4.30716860149948
30
0
41
1
10
75.3444918063161
20
-4.31061726893796
30
0
41
1
10
75.3275462857431
20
-4.31548838055772
30
0
41
1
10
75.3128910260399
20
-4.32404244880607
30
0
0
SPLINE
5
182
100
AcDbEntity
8
1
62
256
6
ByLayer
370
18
48
1
60
0
100
AcDbSpline
70
4
71
3
72
14
73
10
40
0
40
0
40
0
40
0
40
0.25
40
0.25
40
0.5
40
0.5
40
0.75
40
0.75
40
1
40
1
40
1
40
1
41
1
10
76.4610345200822
20
-5.72750939648682
30
0
41
1
10
76.4096931945512
20
-5.63165512644613
30
0
41
1
10
76.3581171333887
20
-5.53592060218082
30
0
41
1
10
76.2544112889092
20
-5.34473611030916
30
0
41
1
10
76.202253938924
20
-5.24923506180315
30
0
41
1
10
76.0974917992435
20
-5.05889843780957
30
0
41
1
10
76.0448667734151
20
-4.96401146595559
30
0
41
1
10
75.9391270402245
20
-4.77512333218672
30
0
41
1
10
75.8860289310405
20
-4.68117454137848
30
0
41
1
10
75.8326478991649
20
-4.58777093782803
30
0
0
SPLINE
5
183
100
AcDbEntity
8
1
62
256
6
ByLayer
370
18
48
1
60
0
100
AcDbSpline
70
4
71
3
72
8
73
4
40
0
40
0
40
0
40
0
40
1
40
1
40
1
40
1
41
1
10
76.4610345200822
20
-5.72750939648679
30
0
41
1
10
76.5958311744442
20
-5.7289356007212
30
0
41
1
10
76.7325238307172
20
-5.72440630609174
30
0
41
1
10
76.8714276781494
20
-5.714422031449
30
0
0
SPLINE
5
184
100
AcDbEntity
8
1
62
256
6
ByLayer
370
18
48
1
60
0
100
AcDbSpline
70
4
71
3
72
14
73
10
40
0
40
0
40
0
40
0
40
0.25
40
0.25
40
0.5
40
0.5
40
0.75
40
0.75
40
1
40
1
40
1
40
1
41
1
10
77.3789138933686
20
-5.14232179950457
30
0
41
1
10
77.3360528348487
20
-5.1950820175376
30
0
41
1
10
77.2933464776598
20
-5.24659903123313
30
0
41
1
10
77.2081930212175
20
-5.347188857796
30
0
41
1
10
77.1657541496407
20
-5.39623863763069
30
0
41
1
10
77.081149566342
20
-5.49173308272404
30
0
41
1
10
77.0389693609678
20
-5.53818725726634
30
0
41
1
10
76.9549579387715
20
-5.62834736535606
30
0
41
1
10
76.9131205345419
20
-5.67206263087053
30
0
41
1
10
76.8714276781494
20
-5.71442203144895
30
0
0
SPLINE
5
185
100
AcDbEntity
8
1
62
256
6
ByLayer
370
18
48
1
60
0
100
AcDbSpline
70
4
71
3
72
32
73
28
40
0
40
0
40
0
40
0
40
0.062499999999971
40
0.062499999999971
40
0.124999999999942
40
0.124999999999942
40
0.187499999999913
40
0.187499999999913
40
0.249999999999884
40
0.249999999999884
40
0.312499999999855
40
0.312499999999855
40
0.374999999999826
40
0.374999999999826
40
0.499999999999807
40
0.499999999999807
40
0.562499999999817
40
0.562499999999817
40
0.624999999999827
40
0.624999999999827
40
0.749999999999885
40
0.749999999999885
40
0.812499999999914
40
0.812499999999914
40
0.874999999999943
40
0.874999999999943
40
1
40
1
40
1
40
1
41
1
10
77.8986407078063
20
-5.24689027403997
30
0
41
1
10
77.8905084777146
20
-5.23265831645841
30
0
41
1
10
77.8815640252258
20
-5.2194988186782
30
0
41
1
10
77.8623762406339
20
-5.19489077357255
30
0
41
1
10
77.8521292362656
20
-5.18344711103501
30
0
41
1
10
77.830496353586
20
-5.1620604486157
30
0
41
1
10
77.8193076510271
20
-5.1523181195314
30
0
41
1
10
77.796530032561
20
-5.13457204082567
30
0
41
1
10
77.7849036521353
20
-5.12653561963003
30
0
41
1
10
77.7612417232208
20
-5.11192151980663
30
0
41
1
10
77.7491487854273
20
-5.1053189907162
30
0
41
1
10
77.724872197732
20
-5.09359545558314
30
0
41
1
10
77.7127411925792
20
-5.08849116170904
30
0
41
1
10
77.6763801125617
20
-5.07519451124097
30
0
41
1
10
77.652180553943
20
-5.06899316397596
30
0
41
1
10
77.6160040703932
20
-5.06332195861216
30
0
41
1
10
77.6039178987031
20
-5.06204369509467
30
0
41
1
10
77.5801353581769
20
-5.06073936510978
30
0
41
1
10
77.5684205178605
20
-5.06070497230786
30
0
41
1
10
77.5338192934118
20
-5.06241945187932
30
0
41
1
10
77.51146855056
20
-5.06595765004818
30
0
41
1
10
77.4792038757749
20
-5.07517851683903
30
0
41
1
10
77.4686210362156
20
-5.07893396656951
30
0
41
1
10
77.4483261459141
20
-5.08773269864966
30
0
41
1
10
77.4385733576603
20
-5.09278104927296
30
0
41
1
10
77.4105944011954
20
-5.11003015843292
30
0
41
1
10
77.393599248927
20
-5.12424472469792
30
0
41
1
10
77.3789138933685
20
-5.14232179950452
30
0
0
SPLINE
5
186
100
AcDbEntity
8
1
62
256
6
ByLayer
370
18
48
1
60
0
100
AcDbSpline
70
4
71
3
72
8
73
4
40
0
40
0
40
0
40
0
40
1
40
1
40
1
40
1
41
1
10
78.0584098377015
20
-5.52660162306481
30
0
41
1
10
78.0054209982964
20
-5.43383190108258
30
0
41
1
10
77.9521860142853
20
-5.34059821416349
30
0
41
1
10
77.8986407078063
20
-5.24689027403997
30
0
0
SPLINE
5
187
100
AcDbEntity
8
1
62
256
6
ByLayer
370
18
48
1
60
0
100
AcDbSpline
70
4
71
3
72
20
73
16
40
0
40
0
40
0
40
0
40
0.125000000000001
40
0.125000000000001
40
0.250000000000002
40
0.250000000000002
40
0.375000000000003
40
0.375000000000003
40
0.500000000000004
40
0.500000000000004
40
0.750000000000005
40
0.750000000000005
40
0.875000000000003
40
0.875000000000003
40
1
40
1
40
1
40
1
41
1
10
78.0584098377014
20
-5.52660162306481
30
0
41
1
10
78.1800977002503
20
-5.49913793804618
30
0
41
1
10
78.3033603338287
20
-5.46938841864124
30
0
41
1
10
78.5531653739748
20
-5.4065731053841
30
0
41
1
10
78.6796789408829
20
-5.37353071128712
30
0
41
1
10
78.9355585981739
20
-5.30554405535818
30
0
41
1
10
79.0648931132858
20
-5.27060445134916
30
0
41
1
10
79.3262017250304
20
-5.19996064714834
30
0
41
1
10
79.4581083466428
20
-5.16428464441378
30
0
41
1
10
79.8568936689958
20
-5.0577729463065
30
0
41
1
10
80.1266428487889
20
-4.98752969002368
30
0
41
1
10
80.5353054150503
20
-4.88745288469781
30
0
41
1
10
80.6721413489217
20
-4.85495425922403
30
0
41
1
10
80.9460971534535
20
-4.79169574643296
30
0
41
1
10
81.0832137075049
20
-4.76093602030835
30
0
41
1
10
81.2199633993426
20
-4.73075259327234
30
0
0
SPLINE
5
188
100
AcDbEntity
8
1
62
256
6
ByLayer
370
18
48
1
60
0
100
AcDbSpline
70
4
71
3
72
12
73
8
40
0
40
0
40
0
40
0
40
0.25
40
0.25
40
0.5
40
0.5
40
1
40
1
40
1
40
1
41
1
10
81.2199633993426
20
-4.73075259327234
30
0
41
1
10
81.2667095234147
20
-4.66796693974973
30
0
41
1
10
81.3140995898666
20
-4.60500321020302
30
0
41
1
10
81.4105575407491
20
-4.47885691951603
30
0
41
1
10
81.4595857722815
20
-4.41574047432803
30
0
41
1
10
81.6094163483125
20
-4.22663310254293
30
0
41
1
10
81.7126123547002
20
-4.10122878162446
30
0
41
1
10
81.8199999999999
20
-3.97761630122355
30
0
0
SPLINE
5
189
100
AcDbEntity
8
1
62
256
6
ByLayer
370
18
48
1
60
0
100
AcDbSpline
70
4
71
3
72
30
73
26
40
0
40
0
40
0
40
0
40
0.0478789924418685
40
0.0478789924418685
40
0.0957579848837365
40
0.0957579848837365
40
0.191515969767472
40
0.191515969767472
40
0.383031939534942
40
0.383031939534942
40
0.43091093197681
40
0.43091093197681
40
0.478789924418678
40
0.478789924418678
40
0.574547909302414
40
0.574547909302414
40
0.67030589418615
40
0.67030589418615
40
0.718184886628018
40
0.718184886628018
40
0.766063879069886
40
0.766063879069886
40
0.957579848837358
40
0.957579848837358
40
1
40
1
40
1
40
1
41
1
10
81.8200000000001
20
-3.97761630122352
30
0
41
1
10
81.8200000000001
20
-3.94748645397885
30
0
41
1
10
81.82
20
-3.91760956500679
30
0
41
1
10
81.82
20
-3.85868487076428
30
0
41
1
10
81.82
20
-3.82973850734166
30
0
41
1
10
81.82
20
-3.74440262954641
30
0
41
1
10
81.82
20
-3.68951194895328
30
0
41
1
10
81.82
20
-3.53065352359178
30
0
41
1
10
81.82
20
-3.4324309136951
30
0
41
1
10
81.8199999999999
20
-3.31967277670296
30
0
41
1
10
81.82
20
-3.29762927083726
30
0
41
1
10
81.82
20
-3.25457899938041
30
0
41
1
10
81.82
20
-3.23362761210441
30
0
41
1
10
81.82
20
-3.17289877437912
30
0
41
1
10
81.82
20
-3.13506312237891
30
0
41
1
10
81.8200000000001
20
-3.06473836480598
30
0
41
1
10
81.82
20
-3.03240974542487
30
0
41
1
10
81.82
20
-2.9867794615088
30
0
41
1
10
81.82
20
-2.97203998418814
30
0
41
1
10
81.82
20
-2.94310974751309
30
0
41
1
10
81.82
20
-2.9288991350013
30
0
41
1
10
81.82
20
-2.85871146764146
30
0
41
1
10
81.82
20
-2.80521883193944
30
0
41
1
10
81.82
20
-2.74353122948108
30
0
41
1
10
81.8200000000001
20
-2.7324941764611
30
0
41
1
10
81.8200000000001
20
-2.72161330123103
30
0
0
SPLINE
5
18A
100
AcDbEntity
8
1
62
256
6
ByLayer
370
18
48
1
60
0
100
AcDbSpline
70
4
71
3
72
12
73
8
40
0
40
0
40
0
40
0
40
0.500000000000017
40
0.500000000000017
40
0.750000000000008
40
0.750000000000008
40
1
40
1
40
1
40
1
41
1
10
81.82
20
-2.66271936573418
30
0
41
1
10
81.7260901219009
20
-2.65108550064929
30
0
41
1
10
81.6326305951829
20
-2.6407031037237
30
0
41
1
10
81.4927386259432
20
-2.6276974068129
30
0
41
1
10
81.4461456590861
20
-2.62382298241781
30
0
41
1
10
81.3529288299055
20
-2.61736692162532
30
0
41
1
10
81.3062975844349
20
-2.61481630834905
30
0
41
1
10
81.2598841933788
20
-2.61213365280105
30
0
0
SPLINE
5
18B
100
AcDbEntity
8
1
62
256
6
ByLayer
370
18
48
1
60
0
100
AcDbSpline
70
4
71
3
72
12
73
8
40
0
40
0
40
0
40
0
40
0.249999999999947
40
0.249999999999947
40
0.499999999999894
40
0.499999999999894
40
1
40
1
40
1
40
1
41
1
10
81.1527229786973
20
-2.54958668771772
30
0
41
1
10
81.161495439517
20
-2.55344815434128
30
0
41
1
10
81.1704029837718
20
-2.55773030272996
30
0
41
1
10
81.1883554243455
20
-2.56702509267086
30
0
41
1
10
81.1973224550418
20
-2.57199573084367
30
0
41
1
10
81.2241925318874
20
-2.58777666455248
30
0
41
1
10
81.2420649049873
20
-2.59944835573077
30
0
41
1
10
81.2598841933791
20
-2.61213365280074
30
0
0
SPLINE
5
18C
100
AcDbEntity
8
1
62
256
6
ByLayer
370
18
48
1
60
0
100
AcDbSpline
70
4
71
3
72
14
73
10
40
0
40
0
40
0
40
0
40
0.25
40
0.25
40
0.5
40
0.5
40
0.75
40
0.75
40
1
40
1
40
1
40
1
41
1
10
81.1527229786969
20
-2.54958668771906
30
0
41
1
10
81.0120936957713
20
-2.42421618782919
30
0
41
1
10
80.8701640643688
20
-2.30008487267122
30
0
41
1
10
80.5842158875229
20
-2.05422892125685
30
0
41
1
10
80.4402039611053
20
-1.93249904050839
30
0
41
1
10
80.1507431630858
20
-1.6910986921649
30
0
41
1
10
80.0052591255903
20
-1.57147037895456
30
0
41
1
10
79.7139574621122
20
-1.33325573549811
30
0
41
1
10
79.5681751715155
20
-1.21462992075487
30
0
41
1
10
79.4228444576504
20
-1.09582370317409
30
0
0
SPLINE
5
18D
100
AcDbEntity
8
1
62
256
6
ByLayer
370
18
48
1
60
0
100
AcDbSpline
70
4
71
3
72
33
73
29
40
0
40
0
40
0
40
0
40
0.0625000000000253
40
0.0625000000000253
40
0.125000000000051
40
0.125000000000051
40
0.156250000000063
40
0.156250000000063
40
0.187500000000076
40
0.250000000000055
40
0.250000000000055
40
0.312500000000034
40
0.312500000000034
40
0.375000000000014
40
0.375000000000014
40
0.499999999999973
40
0.499999999999973
40
0.562499999999977
40
0.562499999999977
40
0.62499999999998
40
0.62499999999998
40
0.749999999999987
40
0.749999999999987
40
0.81249999999999
40
0.81249999999999
40
0.874999999999993
40
0.874999999999993
40
1
40
1
40
1
40
1
41
1
10
78.9677319397669
20
-0.711520587682742
30
0
41
1
10
78.9746668355837
20
-0.713431897503312
30
0
41
1
10
78.9822173346837
20
-0.716221194983291
30
0
41
1
10
78.9983399438799
20
-0.723243458938072
30
0
41
1
10
79.0069139193719
20
-0.727479314592784
30
0
41
1
10
79.0204556403969
20
-0.734794157667778
30
0
41
1
10
79.0251014817148
20
-0.737404227063024
30
0
41
1
10
79.0344880818292
20
-0.742860672214704
30
0
41
1
10
79.0487286499437
20
-0.751407899422617
30
0
41
1
10
79.0634034118929
20
-0.760941144822965
30
0
41
1
10
79.0832985473191
20
-0.774416136561399
30
0
41
1
10
79.0934106780216
20
-0.781536722781112
30
0
41
1
10
79.1139261893062
20
-0.796482257928062
30
0
41
1
10
79.1242941656389
20
-0.80428381078795
30
0
41
1
10
79.1552147969355
20
-0.828222558149037
30
0
41
1
10
79.1757756240028
20
-0.845024154814013
30
0
41
1
10
79.2065084383516
20
-0.871339441944684
30
0
41
1
10
79.2167345322195
20
-0.880298788057672
30
0
41
1
10
79.2371438389344
20
-0.898588471254243
30
0
41
1
10
79.2473474341059
20
-0.907939170437317
30
0
41
1
10
79.2774911405354
20
-0.936185057346592
30
0
41
1
10
79.2970896217983
20
-0.955378030735034
30
0
41
1
10
79.3257258656504
20
-0.984735368696761
30
0
41
1
10
79.3351435777684
20
-0.994616346656585
30
0
41
1
10
79.3537115660776
20
-1.01457930959933
30
0
41
1
10
79.362885742125
20
-1.02468843355138
30
0
41
1
10
79.3898088610659
20
-1.05514721433332
30
0
41
1
10
79.406833737998
20
-1.07547149357609
30
0
41
1
10
79.4228444576503
20
-1.09582370317398
30
0
0
SPLINE
5
18E
100
AcDbEntity
8
1
62
256
6
ByLayer
370
18
48
1
60
0
100
AcDbSpline
70
4
71
3
72
8
73
4
40
0
40
0
40
0
40
0
40
1
40
1
40
1
40
1
41
1
10
78.9502996644165
20
-0.70662519422217
30
0
41
1
10
78.9561074930831
20
-0.708286511785872
30
0
41
1
10
78.9619182409984
20
-0.70991828826223
30
0
41
1
10
78.967731939767
20
-0.711520587682998
30
0
0
SPLINE
5
18F
100
AcDbEntity
8
1
62
256
6
ByLayer
370
18
48
1
60
0
100
AcDbSpline
70
4
71
3
72
12
73
8
40
0
40
0
40
0
40
0
40
0.499999999999991
40
0.499999999999991
40
0.749999999999996
40
0.749999999999996
40
1
40
1
40
1
40
1
41
1
10
78.9502996644165
20
-0.70662519422217
30
0
41
1
10
78.7386362492526
20
-0.530472802561263
30
0
41
1
10
78.5287963032543
20
-0.352595665518038
30
0
41
1
10
78.2177920086387
20
-0.0809578140139706
30
0
41
1
10
78.1147147313265
20
0.0103962924393102
30
0
41
1
10
77.910234611146
20
0.194794516176216
30
0
41
1
10
77.808814419492
20
0.287878357627619
30
0
41
1
10
77.7082985312136
20
0.382003045132507
30
0
0
SPLINE
5
190
100
AcDbEntity
8
1
62
256
6
ByLayer
370
18
48
1
60
0
100
AcDbSpline
70
4
71
3
72
8
73
4
40
0
40
0
40
0
40
0
40
1
40
1
40
1
40
1
41
1
10
77.4212298829937
20
0.724249217396391
30
0
41
1
10
77.51763781437
20
0.617422660089858
30
0
41
1
10
77.6132487354723
20
0.503272548404539
30
0
41
1
10
77.7082985312136
20
0.382003045132478
30
0
0
SPLINE
5
191
100
AcDbEntity
8
1
62
256
6
ByLayer
370
18
48
1
60
0
100
AcDbSpline
70
4
71
3
72
32
73
28
40
0
40
0
40
0
40
0
40
0.0624999999999996
40
0.0624999999999996
40
0.124999999999999
40
0.124999999999999
40
0.187499999999999
40
0.187499999999999
40
0.249999999999999
40
0.249999999999999
40
0.312499999999998
40
0.312499999999998
40
0.374999999999998
40
0.374999999999998
40
0.499999999999997
40
0.499999999999997
40
0.624999999999995
40
0.624999999999995
40
0.687499999999995
40
0.687499999999995
40
0.749999999999995
40
0.749999999999995
40
0.874999999999996
40
0.874999999999996
40
0.937499999999998
40
0.937499999999998
40
1
40
1
40
1
40
1
41
1
10
76.9014955664009
20
1.20046029004786
30
0
41
1
10
76.9097376386719
20
1.19329139615553
30
0
41
1
10
76.9188462073721
20
1.18536353681449
30
0
41
1
10
76.9384619716261
20
1.16829866817611
30
0
41
1
10
76.9490072628866
20
1.15912814215227
30
0
41
1
10
76.9711917468412
20
1.13983955775598
30
0
41
1
10
76.98259167195
20
1.12992920613911
30
0
41
1
10
77.0058842386759
20
1.10966890179631
30
0
41
1
10
77.0177780185528
20
1.09931796711891
30
0
41
1
10
77.0419883751418
20
1.07821708068164
30
0
41
1
10
77.0543335581184
20
1.06744123365135
30
0
41
1
10
77.0788455435671
20
1.04599166749628
30
0
41
1
10
77.0910831038737
20
1.03525654862185
30
0
41
1
10
77.1277284033006
20
1.00300293507149
30
0
41
1
10
77.152086248121
20
0.981422730956382
30
0
41
1
10
77.2004739001894
20
0.938091178158317
30
0
41
1
10
77.22395817738
20
0.916827338674409
30
0
41
1
10
77.258117256521
20
0.885414295545161
30
0
41
1
10
77.2693241033576
20
0.875024914522328
30
0
41
1
10
77.2913593009775
20
0.854403761886942
30
0
41
1
10
77.3022298361596
20
0.844131573516137
30
0
41
1
10
77.3338242374292
20
0.813941725128529
30
0
41
1
10
77.3535796219411
20
0.794611346670564
30
0
41
1
10
77.3809443669228
20
0.766973336755484
30
0
41
1
10
77.3896843737922
20
0.757989662884796
30
0
41
1
10
77.406279766441
20
0.740560517736071
30
0
41
1
10
77.4140778714724
20
0.732174133508124
30
0
41
1
10
77.4212298829938
20
0.724249217396419
30
0
0
SPLINE
5
192
100
AcDbEntity
8
1
62
256
6
ByLayer
370
18
48
1
60
0
100
AcDbSpline
70
4
71
3
72
12
73
8
40
0
40
0
40
0
40
0
40
0.250000000000001
40
0.250000000000001
40
0.500000000000001
40
0.500000000000001
40
1
40
1
40
1
40
1
41
1
10
68.1637304669183
20
2.05233347525535
30
0
41
1
10
68.1149705986893
20
2.06422042958496
30
0
41
1
10
68.0660202680225
20
2.07408952812409
30
0
41
1
10
67.9676722483654
20
2.08972429159636
30
0
41
1
10
67.9182611701026
20
2.09549400050187
30
0
41
1
10
67.769351071453
20
2.10656916434149
30
0
41
1
10
67.6694217396001
20
2.10574456741153
30
0
41
1
10
67.5684086653509
20
2.09523694747631
30
0
0
SPLINE
5
193
100
AcDbEntity
8
1
62
256
6
ByLayer
370
13
48
1
60
0
100
AcDbSpline
70
4
71
3
72
9
73
5
40
0
40
0
40
0
40
0
40
0.412027165885774
40
1
40
1
40
1
40
1
41
1.04
10
67.5684086653509
20
2.09523694747636
30
0
41
1.04
10
67.5975555057883
20
1.63611130776059
30
0
41
1.04
10
67.6677949345436
20
0.462512656715493
30
0
41
1.04
10
67.7375381168072
20
-0.750856177633325
30
0
41
1.04
10
67.7785891373084
20
-1.42824126078278
30
0
0
SPLINE
5
194
100
AcDbEntity
8
1
62
256
6
ByLayer
370
18
48
1
60
0
100
AcDbSpline
70
4
71
3
72
12
73
8
40
0
40
0
40
0
40
0
40
0.499999999999994
40
0.499999999999994
40
0.749999999999997
40
0.749999999999997
40
1
40
1
40
1
40
1
41
1
10
67.7785891373073
20
-1.42824126078278
30
0
41
1
10
67.8870783844582
20
-1.6142902337314
30
0
41
1
10
67.9944916511026
20
-1.80651859811337
30
0
41
1
10
68.1546021316679
20
-2.10363321455992
30
0
41
1
10
68.207772448538
20
-2.2040821868685
30
0
41
1
10
68.3135902552591
20
-2.40731565221762
30
0
41
1
10
68.3662686613583
20
-2.51015853503463
30
0
41
1
10
68.4187588265126
20
-2.61419449831877
30
0
0
SPLINE
5
195
100
AcDbEntity
8
1
62
256
6
ByLayer
370
13
48
1
60
0
100
AcDbSpline
70
4
71
3
72
10
73
6
40
0
40
0
40
0
40
0
40
0.184552709318586
40
0.922845921557915
40
1
40
1
40
1
40
1
41
1
10
69.1146539995306
20
0.715814079218859
30
0
41
1
10
69.127178559274
20
0.503216679081902
30
0
41
1
10
69.1902217118087
20
-0.575421174744434
30
0
41
1
10
69.2601618687405
20
-1.78002107024111
30
0
41
1
10
69.3195251113637
20
-2.66479467179642
30
0
41
1
10
69.3251589654356
20
-2.74743334216021
30
0
0
SPLINE
5
196
100
AcDbEntity
8
1
62
256
6
ByLayer
370
18
48
1
60
0
100
AcDbSpline
70
4
71
3
72
10
73
6
40
0
40
0
40
0
40
0
40
0.5
40
0.5
40
1
40
1
40
1
40
1
41
1
10
69.1146539995305
20
0.715814079218831
30
0
41
1
10
69.0056632900054
20
0.87369207431837
30
0
41
1
10
68.8976037015422
20
1.03847958156177
30
0
41
1
10
68.6832099960035
20
1.38289610712596
30
0
41
1
10
68.5771962357678
20
1.56187079124319
30
0
41
1
10
68.4720587555607
20
1.74719296412292
30
0
0
SPLINE
5
197
100
AcDbEntity
8
1
62
256
6
ByLayer
370
18
48
1
60
0
100
AcDbSpline
70
4
71
3
72
12
73
8
40
0
40
0
40
0
40
0
40
0.25
40
0.25
40
0.5
40
0.5
40
1
40
1
40
1
40
1
41
1
10
68.6880317771282
20
-2.90811508060781
30
0
41
1
10
68.7401556640102
20
-2.90441204522679
30
0
41
1
10
68.792500645586
20
-2.89836287204272
30
0
41
1
10
68.8977176341467
20
-2.88146344422603
30
0
41
1
10
68.9506238616352
20
-2.87060398522755
30
0
41
1
10
69.1100279093085
20
-2.83064721670689
30
0
41
1
10
69.2170477711796
20
-2.79422112324426
30
0
41
1
10
69.3251589654356
20
-2.74743334216015
30
0
0
SPLINE
5
198
100
AcDbEntity
8
1
62
256
6
ByLayer
370
18
48
1
60
0
100
AcDbSpline
70
4
71
3
72
29
73
25
40
0
40
0
40
0
40
0
40
0.125
40
0.125
40
0.250000000000001
40
0.250000000000001
40
0.375000000000001
40
0.375000000000001
40
0.437500000000001
40
0.437500000000001
40
0.468750000000001
40
0.468750000000001
40
0.500000000000001
40
0.500000000000001
40
0.625
40
0.625
40
0.75
40
0.75
40
0.874999999999999
40
0.874999999999999
40
0.906249999999999
40
0.906249999999999
40
0.9375
40
1
40
1
40
1
40
1
41
1
10
68.4720587555529
20
1.7471929641242
30
0
41
1
10
68.4810022148469
20
1.55405272424326
30
0
41
1
10
68.4899343564551
20
1.35978426180563
30
0
41
1
10
68.5079195868412
20
0.969075579104867
30
0
41
1
10
68.5169708925079
20
0.772635055813993
30
0
41
1
10
68.5351476486285
20
0.377595318972567
30
0
41
1
10
68.5442692731586
20
0.178995940695359
30
0
41
1
10
68.5578716334443
20
-0.120561443988379
30
0
41
1
10
68.5623968081735
20
-0.220690474955603
30
0
41
1
10
68.5691923304388
20
-0.371305749388711
30
0
41
1
10
68.5714582004297
20
-0.421568581921718
30
0
41
1
10
68.5759714729175
20
-0.521699435706836
30
0
41
1
10
68.5782218937886
20
-0.571634352181519
30
0
41
1
10
68.5894502711518
20
-0.820662751245095
30
0
41
1
10
68.5983598046375
20
-1.01782200215405
30
0
41
1
10
68.6161722184567
20
-1.40810539688294
30
0
41
1
10
68.6250741808891
20
-1.60122937614921
30
0
41
1
10
68.6429549268679
20
-1.9834274989432
30
0
41
1
10
68.6519328641239
20
-2.17250194819175
30
0
41
1
10
68.663237862621
20
-2.40623754700741
30
0
41
1
10
68.6655059767468
20
-2.4529156745381
30
0
41
1
10
68.6700338066092
20
-2.54565183337755
30
0
41
1
10
68.6768117852147
20
-2.68380391287394
30
0
41
1
10
68.6835519832019
20
-2.81913165586997
30
0
41
1
10
68.6880317771283
20
-2.90811508060776
30
0
0
SPLINE
5
199
100
AcDbEntity
8
1
62
256
6
ByLayer
370
18
48
1
60
0
100
AcDbSpline
70
4
71
3
72
8
73
4
40
0
40
0
40
0
40
0
40
1
40
1
40
1
40
1
41
1
10
68.4720587555604
20
1.74719296412962
30
0
41
1
10
68.3693357881202
20
1.85033131204219
30
0
41
1
10
68.2665762309367
20
1.95205582295674
30
0
41
1
10
68.1637304669183
20
2.05233347525541
30
0
0
SPLINE
5
19A
100
AcDbEntity
8
1
62
256
6
ByLayer
370
18
48
1
60
0
100
AcDbSpline
70
4
71
3
72
34
73
30
40
0
40
0
40
0
40
0
40
0.0625000000000006
40
0.0625000000000006
40
0.0937500000000008
40
0.0937500000000008
40
0.125000000000001
40
0.125000000000001
40
0.250000000000001
40
0.250000000000001
40
0.375000000000001
40
0.375000000000001
40
0.500000000000001
40
0.500000000000001
40
0.531250000000001
40
0.531250000000001
40
0.562500000000001
40
0.562500000000001
40
0.625000000000001
40
0.625000000000001
40
0.750000000000001
40
0.750000000000001
40
0.875
40
0.875
40
0.9375
40
0.9375
40
0.96875
40
0.96875
40
1
40
1
40
1
40
1
41
1
10
68.4187588265126
20
-2.61419449831877
30
0
41
1
10
68.413447163292
20
-2.52313628400324
30
0
41
1
10
68.4081286816055
20
-2.43092616329309
30
0
41
1
10
68.4001401593451
20
-2.29085358832671
30
0
41
1
10
68.3974757841528
20
-2.24386970766773
30
0
41
1
10
68.3921404822429
20
-2.14930931044867
30
0
41
1
10
68.389475711484
20
-2.10184257988925
30
0
41
1
10
68.3761902828186
20
-1.86417313638373
30
0
41
1
10
68.3656487523308
20
-1.67237820602588
30
0
41
1
10
68.3445485132395
20
-1.2855685772073
30
0
41
1
10
68.333990000021
20
-1.09055367511897
30
0
41
1
10
68.3127364019711
20
-0.69731384623168
30
0
41
1
10
68.302041390424
20
-0.499089093395753
30
0
41
1
10
68.2885543800803
20
-0.249253201781812
30
0
41
1
10
68.2858512271644
20
-0.199183049883373
30
0
41
1
10
68.2804332413016
20
-0.0988346427147633
30
0
41
1
10
68.2777157113111
20
-0.0485064461064439
30
0
41
1
10
68.2695872450351
20
0.102025220923423
30
0
41
1
10
68.2641890495862
20
0.201984396982141
30
0
41
1
10
68.248062934633
20
0.500699013135403
30
0
41
1
10
68.2374055615711
20
0.698294270448088
30
0
41
1
10
68.2163318784167
20
1.09044741396485
30
0
41
1
10
68.2058924920114
20
1.28500344708496
30
0
41
1
10
68.1901691659861
20
1.5745202314163
30
0
41
1
10
68.1849179202538
20
1.67063903432862
30
0
41
1
10
68.177004384236
20
1.81422698466392
30
0
41
1
10
68.1743604597154
20
1.86199121926882
30
0
41
1
10
68.1690572496194
20
1.95732068086744
30
0
41
1
10
68.1663952028785
20
2.00493496390584
30
0
41
1
10
68.1637304669184
20
2.05233347525544
30
0
0
SPLINE
5
19B
100
AcDbEntity
8
1
62
256
6
ByLayer
370
18
48
1
60
0
100
AcDbSpline
70
4
71
3
72
8
73
4
40
0
40
0
40
0
40
0
40
1
40
1
40
1
40
1
41
1
10
68.4187588265126
20
-2.61419449831877
30
0
41
1
10
68.5086264743176
20
-2.71280946377385
30
0
41
1
10
68.5983641436213
20
-2.81080058526689
30
0
41
1
10
68.6880317771283
20
-2.90811508060773
30
0
0
SPLINE
5
19C
100
AcDbEntity
8
SK1
62
256
6
ByLayer
370
18
48
1
60
0
100
AcDbSpline
70
4
71
3
72
25
73
21
40
0
40
0
40
0
40
0
40
0.12501174130361
40
0.12501174130361
40
0.187517611955416
40
0.187517611955416
40
0.250023482607221
40
0.250023482607221
40
0.375035223910832
40
0.375035223910832
40
0.500046965214443
40
0.625058706518054
40
0.625058706518054
40
0.687564577169859
40
0.687564577169859
40
0.750070447821664
40
0.750070447821664
40
0.875082189125275
40
0.875082189125275
40
1
40
1
40
1
40
1
41
1
10
-26.7800000000001
20
3.49499999999998
30
0
41
1
10
-26.8461325038066
20
3.49499999999998
30
0
41
1
10
-26.9107161308256
20
3.49499999999998
30
0
41
1
10
-27.0047352913317
20
3.49499999999998
30
0
41
1
10
-27.0356253065222
20
3.49499999999998
30
0
41
1
10
-27.0961876157174
20
3.49499999999998
30
0
41
1
10
-27.1258524642689
20
3.49499999999998
30
0
41
1
10
-27.2128189283611
20
3.49499999999998
30
0
41
1
10
-27.2680995040984
20
3.49499999999998
30
0
41
1
10
-27.3721538610289
20
3.49499999999998
30
0
41
1
10
-27.4697030033843
20
3.49499999999998
30
0
41
1
10
-27.5515432030615
20
3.49499999999998
30
0
41
1
10
-27.6058239035108
20
3.49499999999998
30
0
41
1
10
-27.6227321255518
20
3.49499999999998
30
0
41
1
10
-27.6539517789931
20
3.49499999999998
30
0
41
1
10
-27.6682736149905
20
3.49499999999998
30
0
41
1
10
-27.7069162929609
20
3.49499999999998
30
0
41
1
10
-27.7265707541406
20
3.49499999999998
30
0
41
1
10
-27.752889550375
20
3.49499999999998
30
0
41
1
10
-27.7595615636759
20
3.49499999999998
30
0
41
1
10
-27.7595597817029
20
3.49499999999998
30
0
0
SPLINE
5
19D
100
AcDbEntity
8
SK1
62
256
6
ByLayer
370
18
48
1
60
0
100
AcDbSpline
70
4
71
3
72
25
73
21
40
0
40
0
40
0
40
0
40
0.12491842517212
40
0.12491842517212
40
0.24993007871896
40
0.24993007871896
40
0.31243590549238
40
0.31243590549238
40
0.3749417322658
40
0.3749417322658
40
0.49995338581264
40
0.62496503935948
40
0.62496503935948
40
0.74997669290632
40
0.74997669290632
40
0.81248251967974
40
0.81248251967974
40
0.87498834645316
40
0.87498834645316
40
1
40
1
40
1
40
1
41
1
10
-27.7595598191862
20
-3.49500000000003
30
0
41
1
10
-27.7595616386527
20
-3.49500000000003
30
0
41
1
10
-27.7528896242978
20
-3.49500000000003
30
0
41
1
10
-27.7265707541405
20
-3.49500000000003
30
0
41
1
10
-27.7069162929609
20
-3.49500000000003
30
0
41
1
10
-27.6682736149904
20
-3.49500000000003
30
0
41
1
10
-27.6539517789931
20
-3.49500000000003
30
0
41
1
10
-27.6227321255518
20
-3.49500000000003
30
0
41
1
10
-27.6058239035108
20
-3.49500000000003
30
0
41
1
10
-27.5515432030615
20
-3.49500000000003
30
0
41
1
10
-27.4697030033843
20
-3.49500000000003
30
0
41
1
10
-27.3721538610289
20
-3.49500000000003
30
0
41
1
10
-27.2680995040984
20
-3.49500000000003
30
0
41
1
10
-27.2128189283611
20
-3.49500000000003
30
0
41
1
10
-27.1258524642689
20
-3.49500000000003
30
0
41
1
10
-27.0961876157174
20
-3.49500000000003
30
0
41
1
10
-27.0356253065222
20
-3.49500000000003
30
0
41
1
10
-27.0047352913317
20
-3.49500000000003
30
0
41
1
10
-26.9107161308256
20
-3.49500000000003
30
0
41
1
10
-26.8461325038066
20
-3.49500000000003
30
0
41
1
10
-26.7800000000001
20
-3.49500000000003
30
0
0
SPLINE
5
19E
100
AcDbEntity
8
SK1
62
256
6
ByLayer
370
18
48
1
60
0
100
AcDbSpline
70
4
71
3
72
45
73
41
40
0
40
0
40
0
40
0
40
0.0625
40
0.0625
40
0.125
40
0.125
40
0.15625
40
0.15625
40
0.1875
40
0.1875
40
0.25
40
0.25
40
0.375
40
0.375
40
0.40625
40
0.40625
40
0.421875
40
0.421875
40
0.4375
40
0.4375
40
0.5
40
0.5
40
0.5625
40
0.5625
40
0.625
40
0.625
40
0.65625
40
0.65625
40
0.6875
40
0.6875
40
0.75
40
0.8125
40
0.8125
40
0.875
40
0.875
40
0.90625
40
0.90625
40
0.9375
40
0.9375
40
1
40
1
40
1
40
1
41
1
10
-26.7800000000001
20
-2.7940404781607
30
0
41
1
10
-26.8457681640087
20
-2.68871501911789
30
0
41
1
10
-26.9099831676993
20
-2.58226046044192
30
0
41
1
10
-27.0346072499699
20
-2.36658455295483
30
0
41
1
10
-27.0950185450509
20
-2.25736481547162
30
0
41
1
10
-27.1821004193531
20
-2.09096532364245
30
0
41
1
10
-27.210536677869
20
-2.03506916366908
30
0
41
1
10
-27.2660871196636
20
-1.9223157358135
30
0
41
1
10
-27.2931265139423
20
-1.86560669091099
30
0
41
1
10
-27.3716475494041
20
-1.69476144098309
30
0
41
1
10
-27.4206114438143
20
-1.57976189736769
30
0
41
1
10
-27.5553865230224
20
-1.23081432245399
30
0
41
1
10
-27.6291668215694
20
-0.992945283520129
30
0
41
1
10
-27.6932897766313
20
-0.686450075547782
30
0
41
1
10
-27.7047028224752
20
-0.624690994745208
30
0
41
1
10
-27.71953961254
20
-0.53130838905588
30
0
41
1
10
-27.7241105424864
20
-0.500010964572539
30
0
41
1
10
-27.7324321267716
20
-0.437404101498061
30
0
41
1
10
-27.7361813784008
20
-0.406115762583965
30
0
41
1
10
-27.7528561464768
20
-0.249750036765022
30
0
41
1
10
-27.759549382399
20
-0.124901209280836
30
0
41
1
10
-27.7595705922846
20
0.12430629500858
30
0
41
1
10
-27.7528994417055
20
0.248665003919882
30
0
41
1
10
-27.7265707541406
20
0.496906165748868
30
0
41
1
10
-27.7069162929609
20
0.62078873146703
30
0
41
1
10
-27.6682736149905
20
0.806276614791983
30
0
41
1
10
-27.6539517789931
20
0.867644756430877
30
0
41
1
10
-27.6227321255518
20
0.989242928606501
30
0
41
1
10
-27.6058239035108
20
1.04952352630681
30
0
41
1
10
-27.5515432030615
20
1.22894528771579
30
0
41
1
10
-27.4697030033843
20
1.46439427079503
30
0
41
1
10
-27.3721538610289
20
1.69357019956598
30
0
41
1
10
-27.2680995040984
20
1.92014840007778
30
0
41
1
10
-27.2128189283611
20
2.03213832073948
30
0
41
1
10
-27.1258524642689
20
2.1985076715159
30
0
41
1
10
-27.0961876157174
20
2.25369416374207
30
0
41
1
10
-27.0356253065222
20
2.36357492903272
30
0
41
1
10
-27.0047352913317
20
2.41825299271559
30
0
41
1
10
-26.9107161308256
20
2.58104716912413
30
0
41
1
10
-26.8461325038066
20
2.68813154142691
30
0
41
1
10
-26.78
20
2.79404047816058
30
0
0
SPLINE
5
19F
100
AcDbEntity
8
1
62
256
6
ByLayer
370
18
48
1
60
0
100
AcDbSpline
70
4
71
3
72
9
73
5
40
0
40
0
40
0
40
0
40
0.0013373039892098
40
1
40
1
40
1
40
1
41
1
10
65.6965446077413
20
0.510962783984354
30
0
41
1
10
65.6965255983365
20
0.510977505713129
30
0
41
1
10
65.6823111812585
20
0.52198613123403
30
0
41
1
10
65.6683250520363
20
0.533078705058216
30
0
41
1
10
65.6544738803681
20
0.544128461209169
30
0
0
SPLINE
5
1A0
100
AcDbEntity
8
1
62
256
6
ByLayer
370
18
48
1
60
0
100
AcDbSpline
70
4
71
2
72
6
73
3
40
0
40
0
40
0
40
1
40
1
40
1
41
1
10
69.0386987927313
20
5.2138542374056
30
0
41
1
10
69.0211002433507
20
5.20791924050985
30
0
41
1
10
68.9997139007594
20
5.20331815802197
30
0
0
SPLINE
5
1A1
100
AcDbEntity
8
1
62
256
6
ByLayer
370
18
48
1
60
0
100
AcDbSpline
70
4
71
2
72
6
73
3
40
0
40
0
40
0
40
1
40
1
40
1
41
1
10
67.2285852589148
20
-6.14878451171853
30
0
41
1
10
67.3667931511789
20
-5.91045850110996
30
0
41
1
10
67.5052770854201
20
-5.67224102570353
30
0
0
SPLINE
5
1A2
100
AcDbEntity
8
1
62
256
6
ByLayer
370
18
48
1
60
0
100
AcDbSpline
70
4
71
1
72
4
73
2
40
0
40
0
40
1
40
1
41
1
10
81.2199860919917
20
5.21077656373137
30
0
41
1
10
80.9796916679454
20
5.19282181948213
30
0
0
SPLINE
5
1A3
100
AcDbEntity
8
1
62
256
6
ByLayer
370
18
48
1
60
0
100
AcDbSpline
70
4
71
1
72
4
73
2
40
0
40
0
40
1
40
1
41
1
10
81.82
20
4.64828796827425
30
0
41
1
10
81.3886682150251
20
5.0590587889873
30
0
0
SPLINE
5
1A4
100
AcDbEntity
8
1
62
256
6
ByLayer
370
18
48
1
60
0
100
AcDbSpline
70
4
71
1
72
4
73
2
40
0
40
0
40
1
40
1
41
1
10
66.1971859690082
20
-5.29821960828511
30
0
41
1
10
66.4145867694539
20
-5.67271558374296
30
0
0
SPLINE
5
1A5
100
AcDbEntity
8
1
62
256
6
ByLayer
370
18
48
1
60
0
100
AcDbSpline
70
4
71
1
72
4
73
2
40
0
40
0
40
1
40
1
41
1
10
78.1121478894464
20
-5.58688044817671
30
0
41
1
10
78.9817097594862
20
-5.30132429566089
30
0
0
SPLINE
5
1A6
100
AcDbEntity
8
1
62
256
6
ByLayer
370
18
48
1
60
0
100
AcDbSpline
70
4
71
1
72
4
73
2
40
0
40
0
40
1
40
1
41
1
10
74.5093029155772
20
-6.1546601174195
30
0
41
1
10
74.654442169393
20
-6.4050647187465
30
0
0
SPLINE
5
1A7
100
AcDbEntity
8
1
62
256
6
ByLayer
370
18
48
1
60
0
100
AcDbSpline
70
4
71
2
72
6
73
3
40
0
40
0
40
0
40
1
40
1
40
1
41
1
10
77.9210084618838
20
-5.29899655669269
30
0
41
1
10
77.9991220503756
20
-5.43352027341729
30
0
41
1
10
78.0771926680537
20
-5.56806821667359
30
0
0
SPLINE
5
1A8
100
AcDbEntity
8
1
62
256
6
ByLayer
370
18
48
1
60
0
100
AcDbSpline
70
4
71
2
72
6
73
3
40
0
40
0
40
0
40
1
40
1
40
1
41
1
10
69.7719492554857
20
6.40778716339
30
0
41
1
10
69.4520991786943
20
5.85570651623661
30
0
41
1
10
69.1318670203396
20
5.30408088155397
30
0
0
SPLINE
5
1A9
100
AcDbEntity
8
1
62
256
6
ByLayer
370
18
48
1
60
0
100
AcDbSpline
70
4
71
3
72
14
73
10
40
0
40
0
40
0
40
0
40
0.261537669333442
40
0.456867536266161
40
0.588756184008167
40
0.636501383080417
40
0.723207181868543
40
0.846167833128568
40
1
40
1
40
1
40
1
41
1
10
65.7685795693521
20
-5.29858667142207
30
0
41
1
10
65.7760383405308
20
-5.27842974474342
30
0
41
1
10
65.8082021853554
20
-5.24562528828187
30
0
41
1
10
65.8817271198177
20
-5.19795155959801
30
0
41
1
10
65.9599353031067
20
-5.18160141854048
30
0
41
1
10
66.0258203889743
20
-5.18547579463265
30
0
41
1
10
66.0845698893386
20
-5.20008784578869
30
0
41
1
10
66.1569165509381
20
-5.24288677007064
30
0
41
1
10
66.191847678748
20
-5.28423177262206
30
0
41
1
10
66.2059361028697
20
-5.31119925230686
30
0
0
SPLINE
5
1AA
100
AcDbEntity
8
1
62
256
6
ByLayer
370
18
48
1
60
0
100
AcDbSpline
70
4
71
2
72
6
73
3
40
0
40
0
40
0
40
1
40
1
40
1
41
1
10
70.6477007205089
20
5.30857147270612
30
0
41
1
10
70.3280900048807
20
5.85894999795906
30
0
41
1
10
70.0086927804371
20
6.41002357384775
30
0
0
SPLINE
5
1AB
100
AcDbEntity
8
1
62
256
6
ByLayer
370
18
48
1
60
0
100
AcDbSpline
70
4
71
3
72
13
73
9
40
0
40
0
40
0
40
0
40
0.225406888726243
40
0.410916252213764
40
0.555014053616177
40
0.606758605061886
40
0.700076025899746
40
1
40
1
40
1
40
1
41
1
10
77.4918445585742
20
-5.29954008683779
30
0
41
1
10
77.5022130099505
20
-5.27767944264647
30
0
41
1
10
77.5346266315515
20
-5.24241425003731
30
0
41
1
10
77.6131617783507
20
-5.19614694849523
30
0
41
1
10
77.6836475700478
20
-5.18270290865817
30
0
41
1
10
77.7454005001777
20
-5.18528137530384
30
0
41
1
10
77.8405984205428
20
-5.20815789873998
30
0
41
1
10
77.8957014852857
20
-5.25312109255529
30
0
41
1
10
77.9241272057995
20
-5.30410255253386
30
0
0
SPLINE
5
1AC
100
AcDbEntity
8
1
62
256
6
ByLayer
370
18
48
1
60
0
100
AcDbSpline
70
4
71
2
72
6
73
3
40
0
40
0
40
0
40
1
40
1
40
1
41
1
10
65.4050461751569
20
-5.9242530828314
30
0
41
1
10
65.5859747317909
20
-5.6125670408818
30
0
41
1
10
65.7670659184829
20
-5.30110848055108
30
0
0
SPLINE
5
1AD
100
AcDbEntity
8
1
62
256
6
ByLayer
370
18
48
1
60
0
100
AcDbSpline
70
4
71
3
72
15
73
11
40
0
40
0
40
0
40
0
40
0.188288988076813
40
0.331254963768508
40
0.426579449083656
40
0.455965373696065
40
0.515570696956926
40
0.586629126274386
40
0.761163313765742
40
1
40
1
40
1
40
1
41
1
10
71.0825138422012
20
5.29934337605334
30
0
41
1
10
71.0708920189021
20
5.27656115706105
30
0
41
1
10
71.0387804591475
20
5.24153569066021
30
0
41
1
10
70.9698781670728
20
5.20109920725082
30
0
41
1
10
70.9158855390714
20
5.18799078201224
30
0
41
1
10
70.8755043444312
20
5.1840685328379
30
0
41
1
10
70.8267669981939
20
5.18604566642125
30
0
41
1
10
70.7628852042373
20
5.20275294460762
30
0
41
1
10
70.6939381692453
20
5.24534251290999
30
0
41
1
10
70.6632748699454
20
5.27536428727822
30
0
41
1
10
70.6567894633244
20
5.29351416002314
30
0
0
SPLINE
5
1AE
100
AcDbEntity
8
1
62
256
6
ByLayer
370
18
48
1
60
0
100
AcDbSpline
70
4
71
2
72
6
73
3
40
0
40
0
40
0
40
1
40
1
40
1
41
1
10
77.0597589948167
20
-6.04357564308305
30
0
41
1
10
77.2748897738175
20
-5.67273825519598
30
0
41
1
10
77.4901566854269
20
-5.30235323806639
30
0
0
SPLINE
5
1AF
100
AcDbEntity
8
1
62
256
6
ByLayer
370
18
48
1
60
0
100
AcDbSpline
70
4
71
2
72
6
73
3
40
0
40
0
40
0
40
1
40
1
40
1
41
1
10
64.243817918869
20
-5.30059938754445
30
0
41
1
10
64.3780802789797
20
-5.53187909532193
30
0
41
1
10
64.5122658759554
20
-5.76330835578372
30
0
0
SPLINE
5
1B0
100
AcDbEntity
8
1
62
256
6
ByLayer
370
18
48
1
60
0
100
AcDbSpline
70
4
71
2
72
6
73
3
40
0
40
0
40
0
40
1
40
1
40
1
41
1
10
76.5834612135431
20
-6.32771526883414
30
0
41
1
10
76.8042809376807
20
-6.19940854424377
30
0
41
1
10
77.0331607802211
20
-6.08256643005632
30
0
0
SPLINE
5
1B1
100
AcDbEntity
8
1
62
256
6
ByLayer
370
18
48
1
60
0
100
AcDbSpline
70
4
71
2
72
6
73
3
40
0
40
0
40
0
40
1
40
1
40
1
41
1
10
75.9658037250001
20
-5.29804977709503
30
0
41
1
10
76.2560518233952
20
-5.79797714470888
30
0
41
1
10
76.5456423312139
20
-6.29791269693925
30
0
0
SPLINE
5
1B2
100
AcDbEntity
8
1
62
256
6
ByLayer
370
18
48
1
60
0
100
AcDbSpline
70
4
71
3
72
15
73
11
40
0
40
0
40
0
40
0
40
0.154001488562576
40
0.277443088512839
40
0.364316836342781
40
0.429379862295737
40
0.480711744556635
40
0.542927881005255
40
0.737915002667017
40
1
40
1
40
1
40
1
41
1
10
63.8024284882111
20
-5.31664311490457
30
0
41
1
10
63.8168322602284
20
-5.28892449931664
30
0
41
1
10
63.8522509381451
20
-5.24638901304942
30
0
41
1
10
63.9252241115979
20
-5.20276183408021
30
0
41
1
10
63.9879866643655
20
-5.18661979796497
30
0
41
1
10
64.039885775687
20
-5.1845837431247
30
0
41
1
10
64.0796138476719
20
-5.1896034390453
30
0
41
1
10
64.1371281259602
20
-5.20475899368708
30
0
41
1
10
64.2041365316346
20
-5.24719505165484
30
0
41
1
10
64.2361913398255
20
-5.28009737366463
30
0
41
1
10
64.2437844216446
20
-5.30054140577366
30
0
0
SPLINE
5
1B3
100
AcDbEntity
8
1
62
256
6
ByLayer
370
18
48
1
60
0
100
AcDbSpline
70
4
71
3
72
11
73
7
40
0
40
0
40
0
40
0
40
0.205854432592478
40
0.450147805755116
40
0.720400512634384
40
1
40
1
40
1
40
1
41
1
10
75.5175450860033
20
-5.32282836210427
30
0
41
1
10
75.5368737905191
20
-5.28707652594792
30
0
41
1
10
75.5897864728499
20
-5.22491306508937
30
0
41
1
10
75.7305669127234
20
-5.16740096220454
30
0
41
1
10
75.8889502491685
20
-5.20731344734068
30
0
41
1
10
75.9485388222999
20
-5.26470863592098
30
0
41
1
10
75.9703599285767
20
-5.30556670779492
30
0
0
SPLINE
5
1B4
100
AcDbEntity
8
1
62
256
6
ByLayer
370
18
48
1
60
0
100
AcDbSpline
70
4
71
2
72
6
73
3
40
0
40
0
40
0
40
1
40
1
40
1
41
1
10
71.7209912650095
20
6.40000806461208
30
0
41
1
10
71.4010356800485
20
5.84768195678024
30
0
41
1
10
71.0807195470443
20
5.29615983177189
30
0
0
SPLINE
5
1B5
100
AcDbEntity
8
1
62
256
6
ByLayer
370
18
48
1
60
0
100
AcDbSpline
70
4
71
2
72
6
73
3
40
0
40
0
40
0
40
1
40
1
40
1
41
1
10
72.606973972697
20
5.2997193736187
30
0
41
1
10
72.2842778311381
20
5.85488777827402
30
0
41
1
10
71.9630133652007
20
6.40883841221105
30
0
0
SPLINE
5
1B6
100
AcDbEntity
8
1
62
256
6
ByLayer
370
18
48
1
60
0
100
AcDbSpline
70
4
71
3
72
10
73
6
40
0
40
0
40
0
40
0
40
0.274024908719641
40
0.660106926225207
40
1
40
1
40
1
40
1
41
1
10
72.8941627612978
20
5.19832349942129
30
0
41
1
10
72.8744201816127
20
5.18756285950215
30
0
41
1
10
72.8226315340652
20
5.17449372808025
30
0
41
1
10
72.6989809223309
20
5.19403290015867
30
0
41
1
10
72.6375118244169
20
5.25599265122526
30
0
41
1
10
72.6100360202849
20
5.29422818316337
30
0
0
LINE
5
82
100
AcDbEntity
8
81
62
256
6
ByLayer
370
18
48
1
60
0
100
AcDbLine
10
81.82
20
0
30
0
11
86.82
21
0
31
0
39
0
210
0
220
0
230
1
0
LINE
5
83
100
AcDbEntity
8
SK4
62
256
6
ByLayer
370
18
48
0.05
60
0
100
AcDbLine
10
-33.18
20
0
30
0
11
86.82
21
0
31
0
39
0
210
0
220
0
230
1
0
LINE
5
85
100
AcDbEntity
8
80
62
256
6
ByLayer
370
18
48
1
60
0
100
AcDbLine
10
0
20
0
30
0
11
-5
21
0
31
0
39
0
210
0
220
0
230
1
0
LINE
5
86
100
AcDbEntity
8
4
62
256
6
ByLayer
370
18
48
0.05
60
0
100
AcDbLine
10
-5
20
0
30
0
11
86.82
21
0
31
0
39
0
210
0
220
0
230
1
0
LINE
5
88
100
AcDbEntity
8
1
62
256
6
ByLayer
370
18
48
1
60
0
100
AcDbLine
10
0
20
4.661
30
0
11
0
21
-4.661
31
0
39
0
210
0
220
0
230
1
0
LINE
5
89
100
AcDbEntity
8
1
62
256
6
ByLayer
370
18
48
1
60
0
100
AcDbLine
10
64.243828
20
-5.300617
30
0
11
64.246443
21
-5.30495
31
0
39
0
210
0
220
0
230
1
0
LINE
5
8A
100
AcDbEntity
8
1
62
256
6
ByLayer
370
18
48
1
60
0
100
AcDbLine
10
71.080723
20
5.296166
30
0
11
71.083863
21
5.301622
31
0
39
0
210
0
220
0
230
1
0
LINE
5
8B
100
AcDbEntity
8
1
62
256
6
ByLayer
370
13
48
1
60
0
100
AcDbLine
10
63.476462
20
-5.111
30
0
11
63.476462
21
-4.255204
31
0
39
0
210
0
220
0
230
1
0
LINE
5
8C
100
AcDbEntity
8
1
62
256
6
ByLayer
370
18
48
1
60
0
100
AcDbLine
10
72.60691
20
5.299828
30
0
11
72.609931
21
5.294424
31
0
39
0
210
0
220
0
230
1
0
LINE
5
8D
100
AcDbEntity
8
1
62
256
6
ByLayer
370
18
48
1
60
0
100
AcDbLine
10
75.517197
20
-5.323041
30
0
11
75.523963
21
-5.317718
31
0
39
0
210
0
220
0
230
1
0
LINE
5
8E
100
AcDbEntity
8
1
62
256
6
ByLayer
370
13
48
1
60
0
100
AcDbLine
10
62.437231
20
-4.447442
30
0
11
62.437231
21
-3.269637
31
0
39
0
210
0
220
0
230
1
0
LINE
5
8F
100
AcDbEntity
8
1
62
256
6
ByLayer
370
13
48
1
60
0
100
AcDbLine
10
62.437231
20
2.877201
30
0
11
62.437231
21
4.326276
31
0
39
0
210
0
220
0
230
1
0
LINE
5
90
100
AcDbEntity
8
1
62
256
6
ByLayer
370
13
48
1
60
0
100
AcDbLine
10
27.400948
20
-4.511
30
0
11
27.400948
21
4.511
31
0
39
0
210
0
220
0
230
1
0
LINE
5
91
100
AcDbEntity
8
1
62
256
6
ByLayer
370
18
48
1
60
0
100
AcDbLine
10
26.82
20
4.661
30
0
11
26.82
21
-4.661
31
0
39
0
210
0
220
0
230
1
0
LINE
5
92
100
AcDbEntity
8
1
62
256
6
ByLayer
370
13
48
1
60
0
100
AcDbLine
10
63.476462
20
4.579473
30
0
11
63.476462
21
2.411942
31
0
39
0
210
0
220
0
230
1
0
LINE
5
93
100
AcDbEntity
8
1
62
256
6
ByLayer
370
18
48
1
60
0
100
AcDbLine
10
63.82
20
5.011187
30
0
11
63.82
21
3.216685
31
0
39
0
210
0
220
0
230
1
0
LINE
5
94
100
AcDbEntity
8
SK1
62
256
6
ByLayer
370
18
48
1
60
0
100
AcDbLine
10
-28.18
20
3.07456
30
0
11
-28.18
21
-3.07456
31
0
39
0
210
0
220
0
230
1
0
LINE
5
96
100
AcDbEntity
8
SK1
62
256
6
ByLayer
370
18
48
1
60
0
100
AcDbLine
10
-16.02044
20
4.47456
30
0
11
-17
21
3.495
31
0
39
0
210
0
220
0
230
1
0
LINE
5
97
100
AcDbEntity
8
SK1
62
256
6
ByLayer
370
18
48
1
60
0
100
AcDbLine
10
-26.78
20
3.495
30
0
11
-17
21
3.495
31
0
39
0
210
0
220
0
230
1
0
LINE
5
98
100
AcDbEntity
8
SK1
62
256
6
ByLayer
370
18
48
1
60
0
100
AcDbLine
10
-26.78
20
2.79404
30
0
11
-26.78
21
3.495
31
0
39
0
210
0
220
0
230
1
0
LINE
5
99
100
AcDbEntity
8
SK1
62
256
6
ByLayer
370
18
48
1
60
0
100
AcDbLine
10
-17
20
2.79404
30
0
11
-26.78
21
2.79404
31
0
39
0
210
0
220
0
230
1
0
LINE
5
9A
100
AcDbEntity
8
SK1
62
256
6
ByLayer
370
18
48
1
60
0
100
AcDbLine
10
-26.78
20
-2.79404
30
0
11
-17
21
-2.79404
31
0
39
0
210
0
220
0
230
1
0
LINE
5
9B
100
AcDbEntity
8
SK1
62
256
6
ByLayer
370
18
48
1
60
0
100
AcDbLine
10
-26.78
20
-3.495
30
0
11
-26.78
21
-2.79404
31
0
39
0
210
0
220
0
230
1
0
LINE
5
9C
100
AcDbEntity
8
SK1
62
256
6
ByLayer
370
18
48
1
60
0
100
AcDbLine
10
-17
20
-3.495
30
0
11
-26.78
21
-3.495
31
0
39
0
210
0
220
0
230
1
0
LINE
5
9D
100
AcDbEntity
8
SK1
62
256
6
ByLayer
370
18
48
1
60
0
100
AcDbLine
10
-17
20
-3.495
30
0
11
-16.02044
21
-4.47456
31
0
39
0
210
0
220
0
230
1
0
LINE
5
9E
100
AcDbEntity
8
SK1
62
256
6
ByLayer
370
18
48
1
60
0
100
AcDbLine
10
-17
20
2.79404
30
0
11
-17
21
-2.79404
31
0
39
0
210
0
220
0
230
1
0
LINE
5
9F
100
AcDbEntity
8
SK1
62
256
6
ByLayer
370
18
48
1
60
0
100
AcDbLine
10
-14.764
20
4.47456
30
0
11
-14.764
21
-4.47456
31
0
39
0
210
0
220
0
230
1
0
LINE
5
A0
100
AcDbEntity
8
SK1
62
256
6
ByLayer
370
18
48
1
60
0
100
AcDbLine
10
0
20
4.661
30
0
11
0
21
-4.661
31
0
39
0
210
0
220
0
230
1
0
LINE
5
A1
100
AcDbEntity
8
SK1
62
256
6
ByLayer
370
18
48
1
60
0
100
AcDbLine
10
-14.57756
20
-4.661
30
0
11
-14.57756
21
4.661
31
0
39
0
210
0
220
0
230
1
0
LINE
5
A2
100
AcDbEntity
8
1
62
256
6
ByLayer
370
18
48
1
60
0
100
AcDbLine
10
66.679634
20
-6.107921
30
0
11
67.036948
21
-6.158139
31
0
39
0
210
0
220
0
230
1
0
LINE
5
A3
100
AcDbEntity
8
1
62
256
6
ByLayer
370
18
48
1
60
0
100
AcDbLine
10
26.82
20
4.661
30
0
11
0
21
4.661
31
0
39
0
210
0
220
0
230
1
0
LINE
5
A4
100
AcDbEntity
8
1
62
256
6
ByLayer
370
18
48
1
60
0
100
AcDbLine
10
0
20
-4.661
30
0
11
26.82
21
-4.661
31
0
39
0
210
0
220
0
230
1
0
LINE
5
A5
100
AcDbEntity
8
1
62
256
6
ByLayer
370
18
48
1
60
0
100
AcDbLine
10
69.989964
20
6.419466
30
0
11
69.791526
21
6.419466
31
0
39
0
210
0
220
0
230
1
0
LINE
5
A6
100
AcDbEntity
8
1
62
256
6
ByLayer
370
18
48
1
60
0
100
AcDbLine
10
64.55297
20
-5.809038
30
0
11
65.386896
21
-5.926239
31
0
39
0
210
0
220
0
230
1
0
LINE
5
A7
100
AcDbEntity
8
1
62
256
6
ByLayer
370
18
48
1
60
0
100
AcDbLine
10
63.476462
20
-5.111
30
0
11
63.687144
21
-5.475913
31
0
39
0
210
0
220
0
230
1
0
LINE
5
A8
100
AcDbEntity
8
1
62
256
6
ByLayer
370
18
48
1
60
0
100
AcDbLine
10
71.943768
20
6.419466
30
0
11
71.744629
21
6.419466
31
0
39
0
210
0
220
0
230
1
0
LINE
5
A9
100
AcDbEntity
8
1
62
256
6
ByLayer
370
18
48
1
60
0
100
AcDbLine
10
27.400948
20
-4.511
30
0
11
42.770632
21
-4.511
31
0
39
0
210
0
220
0
230
1
0
LINE
5
AA
100
AcDbEntity
8
1
62
256
6
ByLayer
370
18
48
1
60
0
100
AcDbLine
10
51.435902
20
-4.511
30
0
11
54.783856
21
-4.511
31
0
39
0
210
0
220
0
230
1
0
LINE
5
AB
100
AcDbEntity
8
1
62
256
6
ByLayer
370
18
48
1
60
0
100
AcDbLine
10
60.789454
20
4.511
30
0
11
57.417334
21
4.511
31
0
39
0
210
0
220
0
230
1
0
LINE
5
AC
100
AcDbEntity
8
1
62
256
6
ByLayer
370
18
48
1
60
0
100
AcDbLine
10
48.777264
20
4.511
30
0
11
45.454088
21
4.511
31
0
39
0
210
0
220
0
230
1
0
LINE
5
AD
100
AcDbEntity
8
1
62
256
6
ByLayer
370
18
48
1
60
0
100
AcDbLine
10
36.973954
20
4.511
30
0
11
27.400948
21
4.511
31
0
39
0
210
0
220
0
230
1
0
LINE
5
AE
100
AcDbEntity
8
SK1
62
256
6
ByLayer
370
18
48
1
60
0
100
AcDbLine
10
-28.18
20
-3.07456
30
0
11
-27.75956
21
-3.495
31
0
39
0
210
0
220
0
230
1
0
LINE
5
AF
100
AcDbEntity
8
SK1
62
256
6
ByLayer
370
18
48
1
60
0
100
AcDbLine
10
-27.75956
20
3.495
30
0
11
-28.18
21
3.07456
31
0
39
0
210
0
220
0
230
1
0
LINE
5
B0
100
AcDbEntity
8
SK1
62
256
6
ByLayer
370
18
48
1
60
0
100
AcDbLine
10
-14.764
20
4.47456
30
0
11
-16.02044
21
4.47456
31
0
39
0
210
0
220
0
230
1
0
LINE
5
B1
100
AcDbEntity
8
SK1
62
256
6
ByLayer
370
18
48
1
60
0
100
AcDbLine
10
-16.02044
20
-4.47456
30
0
11
-14.764
21
-4.47456
31
0
39
0
210
0
220
0
230
1
0
LINE
5
B2
100
AcDbEntity
8
SK1
62
256
6
ByLayer
370
18
48
1
60
0
100
AcDbLine
10
-14.764
20
-4.47456
30
0
11
-14.57756
21
-4.661
31
0
39
0
210
0
220
0
230
1
0
LINE
5
B3
100
AcDbEntity
8
SK1
62
256
6
ByLayer
370
18
48
1
60
0
100
AcDbLine
10
-14.57756
20
4.661
30
0
11
-14.764
21
4.47456
31
0
39
0
210
0
220
0
230
1
0
LINE
5
B4
100
AcDbEntity
8
SK1
62
256
6
ByLayer
370
18
48
1
60
0
100
AcDbLine
10
0
20
4.661
30
0
11
-14.57756
21
4.661
31
0
39
0
210
0
220
0
230
1
0
LINE
5
B5
100
AcDbEntity
8
SK1
62
256
6
ByLayer
370
18
48
1
60
0
100
AcDbLine
10
-14.57756
20
-4.661
30
0
11
0
21
-4.661
31
0
39
0
210
0
220
0
230
1
0
LINE
5
B6
100
AcDbEntity
8
SK2
62
256
6
ByLayer
370
13
48
1
60
0
100
AcDbLine
10
26.57
20
-4.661
30
0
11
26.57
21
59.99766
31
0
39
0
210
0
220
0
230
1
0
LINE
5
B8
100
AcDbEntity
8
SK2
62
256
6
ByLayer
370
13
48
1
60
0
100
AcDbLine
10
26.4075
20
4.661
30
0
11
28.57
21
4.661
31
0
39
0
210
0
220
0
230
1
0
LINE
5
B9
100
AcDbEntity
8
SK2
62
256
6
ByLayer
370
13
48
1
60
0
100
AcDbLine
10
26.4075
20
-4.661
30
0
11
28.57
21
-4.661
31
0
39
0
210
0
220
0
230
1
0
LINE
5
BA
100
AcDbEntity
8
1
62
256
6
ByLayer
370
18
48
1
60
1
100
AcDbLine
10
26.57
20
4.661
30
0
11
27.030784
21
1.161002
31
0
39
0
210
0
220
0
230
1
0
LINE
5
BB
100
AcDbEntity
8
1
62
256
6
ByLayer
370
18
48
1
60
1
100
AcDbLine
10
27.030784
20
1.161002
30
0
11
26.109216
21
1.160998
31
0
39
0
210
0
220
0
230
1
0
LINE
5
BC
100
AcDbEntity
8
1
62
256
6
ByLayer
370
18
48
1
60
1
100
AcDbLine
10
26.109216
20
1.160998
30
0
11
26.57
21
4.661
31
0
39
0
210
0
220
0
230
1
0
LINE
5
BD
100
AcDbEntity
8
1
62
256
6
ByLayer
370
18
48
1
60
1
100
AcDbLine
10
26.57
20
-4.661
30
0
11
26.109216
21
-1.161002
31
0
39
0
210
0
220
0
230
1
0
LINE
5
BE
100
AcDbEntity
8
1
62
256
6
ByLayer
370
18
48
1
60
1
100
AcDbLine
10
26.109216
20
-1.161002
30
0
11
27.030784
21
-1.160998
31
0
39
0
210
0
220
0
230
1
0
LINE
5
BF
100
AcDbEntity
8
1
62
256
6
ByLayer
370
18
48
1
60
1
100
AcDbLine
10
27.030784
20
-1.160998
30
0
11
26.57
21
-4.661
31
0
39
0
210
0
220
0
230
1
0
LINE
5
1BC
100
AcDbEntity
8
1
62
256
6
ByLayer
370
18
48
1
60
1
100
AcDbLine
10
26.57
20
4.661
30
0
11
27.030784
21
1.161002
31
0
39
0
210
0
220
0
230
1
0
LINE
5
1BD
100
AcDbEntity
8
1
62
256
6
ByLayer
370
18
48
1
60
1
100
AcDbLine
10
27.030784
20
1.161002
30
0
11
26.109216
21
1.160998
31
0
39
0
210
0
220
0
230
1
0
LINE
5
1BE
100
AcDbEntity
8
1
62
256
6
ByLayer
370
18
48
1
60
1
100
AcDbLine
10
26.109216
20
1.160998
30
0
11
26.57
21
4.661
31
0
39
0
210
0
220
0
230
1
0
LINE
5
1C0
100
AcDbEntity
8
1
62
256
6
ByLayer
370
18
48
1
60
1
100
AcDbLine
10
26.57
20
-4.661
30
0
11
26.109216
21
-1.161002
31
0
39
0
210
0
220
0
230
1
0
LINE
5
1C1
100
AcDbEntity
8
1
62
256
6
ByLayer
370
18
48
1
60
1
100
AcDbLine
10
26.109216
20
-1.161002
30
0
11
27.030784
21
-1.160998
31
0
39
0
210
0
220
0
230
1
0
LINE
5
1C2
100
AcDbEntity
8
1
62
256
6
ByLayer
370
18
48
1
60
1
100
AcDbLine
10
27.030784
20
-1.160998
30
0
11
26.57
21
-4.661
31
0
39
0
210
0
220
0
230
1
0
MTEXT
5
1B7
100
AcDbEntity
8
SK2
62
256
6
ByLayer
370
18
48
1
60
0
100
AcDbMText
10
25.005366
20
12.273844
30
0
210
0
220
0
230
1
1
%%c
40
3.5
41
0
44
1.084337
50
90
71
7
72
5
7
iso_b_vert
0
MTEXT
5
1BA
100
AcDbEntity
8
SK2
62
256
6
ByLayer
370
18
48
1
60
0
100
AcDbMText
10
25.005366
20
33.576364
30
0
210
0
220
0
230
1
1
\W0.8220;ASME-B94.9
40
3.5
41
0
44
1.084337
50
90
71
7
72
5
7
iso_b_vert
0
MTEXT
5
1BB
100
AcDbEntity
8
SK2
62
256
6
ByLayer
370
18
48
1
60
0
100
AcDbMText
10
25.005366
20
19.2465
30
0
210
0
220
0
230
1
1
\W0.7468;9.322
40
3.5
41
0
44
1.084337
50
90
71
7
72
5
7
iso_b_vert
0
MTEXT
5
1C4
100
AcDbEntity
8
SK6
62
256
6
ByLayer
370
18
48
1
60
0
100
AcDbMText
10
35.912502
20
-68.614886
30
0
210
0
220
0
230
1
1
\W0.7513;T300-PM101AE-1/2 P1PM
40
3
41
0
44
1.084337
50
0
71
7
72
5
7
iso_b_vert
0
HATCH
5
1BF
100
AcDbEntity
8
SK2
62
256
6
ByLayer
370
13
48
1
60
0
100
AcDbHatch
10
0
20
0
30
0
210
0
220
0
230
1
2
ANSI31
70
0
71
0
91
1
92
5
93
3
72
1
10
26.57
20
4.66100000000003
11
27.0307837415528
21
1.16100169255321
72
1
10
27.0307837415528
20
1.16100169255321
11
26.1092162584472
21
1.16099830744685
72
1
10
26.1092162584472
20
1.16099830744685
11
26.57
21
4.66100000000003
97
0
75
0
76
1
52
0
41
0.0062
77
0
78
1
53
45
43
0
44
0
45
-0.0139193969876572
46
0.0139193969876572
79
0
47
0
98
1
10
0
20
0
0
HATCH
5
1C3
100
AcDbEntity
8
SK2
62
256
6
ByLayer
370
13
48
1
60
0
100
AcDbHatch
10
0
20
0
30
0
210
0
220
0
230
1
2
ANSI31
70
0
71
0
91
1
92
5
93
3
72
1
10
26.57
20
-4.66099999999997
11
26.1092162584472
21
-1.16100169255316
72
1
10
26.1092162584472
20
-1.16100169255316
11
27.0307837415528
21
-1.16099830744679
72
1
10
27.0307837415528
20
-1.16099830744679
11
26.57
21
-4.66099999999997
97
0
75
0
76
1
52
0
41
0.0062
77
0
78
1
53
45
43
0
44
0
45
-0.0139193969876572
46
0.0139193969876572
79
0
47
0
98
1
10
0
20
0
0
DIMENSION
5
1C7
100
AcDbEntity
8
SK2
62
256
6
ByLayer
370
18
48
1
60
0
100
AcDbDimension
2
_U0
10
81.82
20
-51.339096
30
0
11
26.82
21
-51.339096
31
0
70
32
71
1
72
1
41
1
210
0
220
0
230
1
3
Standard
100
AcDbAlignedDimension
13
-28.18
23
0
33
0
14
81.82
24
0
34
0
50
0
100
AcDbRotatedDimension
1001
ACAD
1000
DSTYLE
1002
{
1070
   371
1070
    13
1070
   372
1070
    13
1070
     3
1000

1070
   170
1070
     0
1070
   144
1040
1.0
1070
   277
1070
     2
1070
   284
1070
     8
1070
   278
1070
    46
1070
   146
1040
1.0
1070
   345
1005
16
1070
   347
1005
16
1070
   346
1005
16
1070
   344
1005
0
1070
   343
1005
0
1070
   172
1070
     1
1070
    76
1070
     0
1070
    75
1070
     0
1070
   282
1070
     0
1070
   281
1070
     0
1070
    71
1070
     0
1070
    74
1070
     0
1070
   279
1070
     0
1070
   173
1070
     1
1070
   340
1005
1B8
1070
   271
1070
     2
1070
   272
1070
     2
1070
    77
1070
     1
1070
    73
1070
     1
1070
   171
1070
     3
1070
   274
1070
     4
1070
   177
1070
     2
1070
   176
1070
     2
1070
   178
1070
     2
1070
    78
1070
     8
1070
    48
1040
-0.1
1070
    41
1040
3.5
1070
   147
1040
1.75
1070
    42
1040
1.5875
1070
    44
1040
2.0
1070
   140
1040
3.5
1002
}
1001
ACAD_DSTYLE_DIM_LINETYPE
1070
   380
1005
16
1001
ACAD_DSTYLE_DIM_EXT1_LINETYPE
1070
   381
1005
16
1001
ACAD_DSTYLE_DIM_EXT2_LINETYPE
1070
   382
1005
16
0
DIMENSION
5
1E0
100
AcDbEntity
8
SK2
62
256
6
ByLayer
370
18
48
1
60
0
100
AcDbDimension
2
_U1
10
26.82
20
-43.339096
30
0
11
54.32
21
-43.339096
31
0
70
32
71
1
72
1
41
1
210
0
220
0
230
1
3
Standard
100
AcDbAlignedDimension
13
81.82
23
0
33
0
14
26.82
24
0
34
0
50
0
100
AcDbRotatedDimension
1001
ACAD
1000
DSTYLE
1002
{
1070
   371
1070
    13
1070
   372
1070
    13
1070
     3
1000

1070
   170
1070
     0
1070
   144
1040
1.0
1070
   277
1070
     2
1070
   284
1070
     8
1070
   278
1070
    46
1070
   146
1040
1.0
1070
   345
1005
16
1070
   347
1005
16
1070
   346
1005
16
1070
   344
1005
0
1070
   343
1005
0
1070
   172
1070
     1
1070
    76
1070
     0
1070
    75
1070
     0
1070
   282
1070
     0
1070
   281
1070
     0
1070
    71
1070
     0
1070
    74
1070
     0
1070
   279
1070
     0
1070
   173
1070
     1
1070
   340
1005
1B8
1070
   271
1070
     2
1070
   272
1070
     2
1070
    77
1070
     1
1070
    73
1070
     1
1070
   171
1070
     3
1070
   274
1070
     4
1070
   177
1070
     2
1070
   176
1070
     2
1070
   178
1070
     2
1070
    78
1070
     8
1070
    48
1040
-0.1
1070
    41
1040
3.5
1070
   147
1040
1.75
1070
    42
1040
1.5875
1070
    44
1040
2.0
1070
   140
1040
3.5
1002
}
1001
ACAD_DSTYLE_DIM_LINETYPE
1070
   380
1005
16
1001
ACAD_DSTYLE_DIM_EXT1_LINETYPE
1070
   381
1005
16
1001
ACAD_DSTYLE_DIM_EXT2_LINETYPE
1070
   382
1005
16
0
DIMENSION
5
1F8
100
AcDbEntity
8
2
62
256
6
ByLayer
370
18
48
1
60
0
100
AcDbDimension
2
_U2
10
35.07
20
-35.339096
30
0
11
58.445
21
-35.339096
31
0
70
32
71
1
72
1
41
1
210
0
220
0
230
1
3
Standard
100
AcDbAlignedDimension
13
81.82
23
0
33
0
14
35.07
24
0
34
0
50
0
100
AcDbRotatedDimension
1001
ACAD
1000
DSTYLE
1002
{
1070
   371
1070
    13
1070
   372
1070
    13
1070
     3
1000

1070
   170
1070
     0
1070
   144
1040
1.0
1070
   277
1070
     2
1070
   284
1070
     8
1070
   278
1070
    46
1070
   146
1040
1.0
1070
   345
1005
16
1070
   347
1005
16
1070
   346
1005
16
1070
   344
1005
0
1070
   343
1005
0
1070
   172
1070
     1
1070
    76
1070
     0
1070
    75
1070
     0
1070
   282
1070
     0
1070
   281
1070
     0
1070
    71
1070
     0
1070
    74
1070
     0
1070
   279
1070
     0
1070
   173
1070
     1
1070
   340
1005
1B8
1070
   271
1070
     2
1070
   272
1070
     2
1070
    77
1070
     1
1070
    73
1070
     1
1070
   171
1070
     3
1070
   274
1070
     4
1070
   177
1070
     2
1070
   176
1070
     2
1070
   178
1070
     2
1070
    78
1070
     8
1070
    48
1040
-0.1
1070
    41
1040
3.5
1070
   147
1040
1.75
1070
    42
1040
1.5875
1070
    44
1040
2.0
1070
   140
1040
3.5
1002
}
1001
ACAD_DSTYLE_DIM_LINETYPE
1070
   380
1005
16
1001
ACAD_DSTYLE_DIM_EXT1_LINETYPE
1070
   381
1005
16
1001
ACAD_DSTYLE_DIM_EXT2_LINETYPE
1070
   382
1005
16
0
DIMENSION
5
211
100
AcDbEntity
8
SK2
62
256
6
ByLayer
370
18
48
1
60
0
100
AcDbDimension
2
_U3
10
63.82
20
-27.339096
30
0
11
72.82
21
-27.339096
31
0
70
32
71
1
72
1
41
1
210
0
220
0
230
1
3
Standard
100
AcDbAlignedDimension
13
81.82
23
0
33
0
14
63.82
24
0
34
0
50
0
100
AcDbRotatedDimension
1001
ACAD
1000
DSTYLE
1002
{
1070
   371
1070
    13
1070
   372
1070
    13
1070
     3
1000

1070
   170
1070
     0
1070
   144
1040
1.0
1070
   277
1070
     2
1070
   284
1070
     8
1070
   278
1070
    46
1070
   146
1040
1.0
1070
   345
1005
16
1070
   347
1005
16
1070
   346
1005
16
1070
   344
1005
0
1070
   343
1005
0
1070
   172
1070
     1
1070
    76
1070
     0
1070
    75
1070
     0
1070
   282
1070
     0
1070
   281
1070
     0
1070
    71
1070
     0
1070
    74
1070
     0
1070
   279
1070
     0
1070
   173
1070
     1
1070
   340
1005
1B8
1070
   271
1070
     2
1070
   272
1070
     2
1070
    77
1070
     1
1070
    73
1070
     1
1070
   171
1070
     3
1070
   274
1070
     4
1070
   177
1070
     2
1070
   176
1070
     2
1070
   178
1070
     2
1070
    78
1070
     8
1070
    48
1040
-0.1
1070
    41
1040
3.5
1070
   147
1040
1.75
1070
    42
1040
1.5875
1070
    44
1040
2.0
1070
   140
1040
3.5
1002
}
1001
ACAD_DSTYLE_DIM_LINETYPE
1070
   380
1005
16
1001
ACAD_DSTYLE_DIM_EXT1_LINETYPE
1070
   381
1005
16
1001
ACAD_DSTYLE_DIM_EXT2_LINETYPE
1070
   382
1005
16
0
DIMENSION
5
229
100
AcDbEntity
8
SK2
62
256
6
ByLayer
370
18
48
1
60
0
100
AcDbDimension
2
_U4
10
76.45
20
13.088932
30
0
11
79.135
21
13.088932
31
0
70
32
71
1
72
1
41
1
210
0
220
0
230
1
3
Standard
100
AcDbAlignedDimension
13
81.82
23
0
33
0
14
76.45
24
0
34
0
50
0
100
AcDbRotatedDimension
1001
ACAD
1000
DSTYLE
1002
{
1070
   371
1070
    13
1070
   372
1070
    13
1070
     3
1000

1070
   170
1070
     0
1070
   144
1040
1.0
1070
   277
1070
     2
1070
   284
1070
     8
1070
   278
1070
    46
1070
   146
1040
1.0
1070
   345
1005
16
1070
   347
1005
16
1070
   346
1005
16
1070
   344
1005
0
1070
   343
1005
0
1070
   172
1070
     1
1070
    76
1070
     0
1070
    75
1070
     0
1070
   282
1070
     0
1070
   281
1070
     0
1070
    71
1070
     0
1070
    74
1070
     0
1070
   279
1070
     0
1070
   173
1070
     1
1070
   340
1005
1B8
1070
   271
1070
     2
1070
   272
1070
     2
1070
    77
1070
     1
1070
    73
1070
     1
1070
   171
1070
     3
1070
   274
1070
     4
1070
   177
1070
     2
1070
   176
1070
     2
1070
   178
1070
     2
1070
    78
1070
     8
1070
    48
1040
-0.1
1070
    41
1040
3.5
1070
   147
1040
1.75
1070
    42
1040
1.5875
1070
    44
1040
2.0
1070
   140
1040
3.5
1002
}
1001
ACAD_DSTYLE_DIM_LINETYPE
1070
   380
1005
16
1001
ACAD_DSTYLE_DIM_EXT1_LINETYPE
1070
   381
1005
16
1001
ACAD_DSTYLE_DIM_EXT2_LINETYPE
1070
   382
1005
16
0
DIMENSION
5
243
100
AcDbEntity
8
2
62
256
6
ByLayer
370
18
48
1
60
0
100
AcDbDimension
2
_U5
10
98.57
20
6.419466
30
0
11
98.57
21
0
31
0
70
32
71
1
72
1
41
1
210
0
220
0
230
1
3
Standard
100
AcDbAlignedDimension
13
81.82
23
-6.419466
33
0
14
81.82
24
6.419466
34
0
50
90
100
AcDbRotatedDimension
1001
ACAD
1000
DSTYLE
1002
{
1070
   371
1070
    13
1070
   372
1070
    13
1070
     3
1000

1070
   170
1070
     0
1070
   144
1040
1.0
1070
   277
1070
     2
1070
   284
1070
     8
1070
   278
1070
    46
1070
   146
1040
1.0
1070
   345
1005
16
1070
   347
1005
16
1070
   346
1005
16
1070
   344
1005
0
1070
   343
1005
0
1070
   172
1070
     1
1070
    76
1070
     0
1070
    75
1070
     0
1070
   282
1070
     0
1070
   281
1070
     0
1070
    71
1070
     0
1070
    74
1070
     0
1070
   279
1070
     0
1070
   173
1070
     1
1070
   340
1005
1B8
1070
   271
1070
     2
1070
   272
1070
     2
1070
    77
1070
     1
1070
    73
1070
     0
1070
   171
1070
     3
1070
   274
1070
     4
1070
   177
1070
     2
1070
   176
1070
     2
1070
   178
1070
     2
1070
    78
1070
     8
1070
    48
1040
-0.1
1070
    41
1040
3.5
1070
   147
1040
1.75
1070
    42
1040
1.5875
1070
    44
1040
2.0
1070
   140
1040
3.5
1002
}
1001
ACAD_DSTYLE_DIM_LINETYPE
1070
   380
1005
16
1001
ACAD_DSTYLE_DIM_EXT1_LINETYPE
1070
   381
1005
16
1001
ACAD_DSTYLE_DIM_EXT2_LINETYPE
1070
   382
1005
16
0
ENDSEC
0
SECTION
2
OBJECTS
0
DICTIONARY
5
2cd
330
0
100
AcDbDictionary
280
0
281
1
3
ACAD_GROUP
350
2ce
3
ACAD_MLINESTYLE
350
2cf
0
DICTIONARY
5
2ce
330
0
100
AcDbDictionary
280
0
281
1
0
DICTIONARY
5
2cf
330
0
100
AcDbDictionary
280
0
281
1
3
Standard
350
18
0
MLINESTYLE
5
18
330
2cf
100
AcDbMlineStyle
2
Standard
70
0
3

62
256
51
90
52
90
71
2
49
-0.5
62
256
6
ByLayer
49
0.5
62
256
6
ByLayer
0
RASTERVARIABLES
5
2bb
330

100
AcDbRasterVariables
90
0
70
1
71
1
72
1
0
ENDSEC
0
EOF
