0
SECTION
2
HEADER
9
$ACADVER
1
AC1015
9
$DWGCODEPAGE
3
ANSI_1252
9
$HANDSEED
5
2db
9
$ANGBASE
50
0
9
$ANGDIR
70
0
9
$ATTMODE
70
1
9
$AUNITS
70
0
9
$AUPREC
70
0
9
$CECOLOR
62
256
9
$CELTSCALE
40
1
9
$CELTYPE
6
ByLayer
9
$CELWEIGHT
370
18
9
$CLAYER
8
0
9
$CMLJUST
70
0
9
$CMLSCALE
40
1
9
$CMLSTYLE
2
Standard
9
$DIMSTYLE
2
Standard
9
$TEXTSIZE
40
0.2
9
$TEXTSTYLE
7
Standard
9
$LUNITS
70
2
9
$LUPREC
70
4
9
$EXTNAMES
290
1
9
$INSUNITS
70
4
9
$LTSCALE
40
1
9
$LWDISPLAY
290
1
9
$PDMODE
70
0
9
$PDSIZE
40
0
9
$PLINEGEN
70
0
0
ENDSEC
0
SECTION
2
CLASSES
0
CLASS
1
RASTERVARIABLES
2
AcDbRasterVariables
3
ISM
90
0
280
0
281
0
0
ENDSEC
0
SECTION
2
TABLES
0
TABLE
2
VPORT
5
2d1
100
AcDbSymbolTable
0
VPORT
5
1
100
AcDbSymbolTableRecord
100
AcDbViewportTableRecord
2
*Active
70
0
10
0
20
0
11
1
21
1
12
-1
22
1
13
0
23
0
14
0.5
24
0.5
15
10
25
10
16
0
26
0
36
1
17
0
27
0
37
0
0
ENDTAB
0
TABLE
2
LTYPE
5
2d2
100
AcDbSymbolTable
0
LTYPE
5
14
100
AcDbSymbolTableRecord
100
AcDbLinetypeTableRecord
70
0
2
ByBlock
3

72
65
73
0
40
0
0
LTYPE
5
15
100
AcDbSymbolTableRecord
100
AcDbLinetypeTableRecord
70
0
2
ByLayer
3

72
65
73
0
40
0
0
LTYPE
5
16
100
AcDbSymbolTableRecord
100
AcDbLinetypeTableRecord
70
0
2
Continuous
3
Solid line
72
65
73
0
40
0
0
LTYPE
5
6E
100
AcDbSymbolTableRecord
100
AcDbLinetypeTableRecord
70
0
2
CENTER
3
____ _ ____ _ ____ _ ____
72
65
73
4
40
47.5
49
22
74
0
49
-8.5
74
0
49
8.5
74
0
49
-8.5
74
0
0
LTYPE
5
6F
100
AcDbSymbolTableRecord
100
AcDbLinetypeTableRecord
70
0
2
DASHED
3
__ __ __ __ __ __ __ __ __
72
65
73
2
40
25.72
49
12.86
74
0
49
-12.86
74
0
0
ENDTAB
0
TABLE
2
LAYER
5
2d3
100
AcDbSymbolTable
0
LAYER
5
10
100
AcDbSymbolTableRecord
100
AcDbLayerTableRecord
2
0
70
0
62
7
6
Continuous
290
1
370
-3
390
0
0
LAYER
5
71
100
AcDbSymbolTableRecord
100
AcDbLayerTableRecord
2
80
70
0
62
-6
6
Continuous
290
1
370
-3
390
0
0
LAYER
5
73
100
AcDbSymbolTableRecord
100
AcDbLayerTableRecord
2
81
70
0
62
-3
6
Continuous
290
1
370
-3
390
0
0
LAYER
5
75
100
AcDbSymbolTableRecord
100
AcDbLayerTableRecord
2
1
70
0
62
4
6
Continuous
290
1
370
-3
390
0
0
LAYER
5
83
100
AcDbSymbolTableRecord
100
AcDbLayerTableRecord
2
4
70
0
62
-2
6
CENTER
290
1
370
-3
390
0
0
LAYER
5
1CA
100
AcDbSymbolTableRecord
100
AcDbLayerTableRecord
2
Defpoints
70
0
62
7
6
Continuous
290
0
370
-3
390
0
0
LAYER
5
207
100
AcDbSymbolTableRecord
100
AcDbLayerTableRecord
2
2
70
0
62
7
6
Continuous
290
1
370
-3
390
0
0
LAYER
5
2bd
100
AcDbSymbolTableRecord
100
AcDbLayerTableRecord
2
SK4
70
0
62
2
6
CENTER
290
1
370
-3
390
0
0
LAYER
5
2be
100
AcDbSymbolTableRecord
100
AcDbLayerTableRecord
2
SK1
70
0
62
4
6
Continuous
290
1
370
-3
390
0
0
LAYER
5
2bf
100
AcDbSymbolTableRecord
100
AcDbLayerTableRecord
2
SK2
70
0
62
7
6
Continuous
290
1
370
-3
390
0
0
LAYER
5
2c0
100
AcDbSymbolTableRecord
100
AcDbLayerTableRecord
2
SK6
70
0
62
5
6
Continuous
290
1
370
-3
390
0
0
ENDTAB
0
TABLE
2
STYLE
5
2d4
100
AcDbSymbolTable
0
STYLE
5
11
100
AcDbSymbolTableRecord
100
AcDbTextStyleTableRecord
2
Standard
3
txt
70
0
71
0
40
0
41
1
42
0
50
0
0
STYLE
5
1B8
100
AcDbSymbolTableRecord
100
AcDbTextStyleTableRecord
2
iso_b_vert
3
simplex.shx
70
0
71
0
40
0
41
1
42
0
50
0
0
STYLE
5
1B9
100
AcDbSymbolTableRecord
100
AcDbTextStyleTableRecord
2
DWGDirectTextStyle
3
simplex
70
0
71
0
40
0
41
1
42
0
50
0
0
ENDTAB
0
TABLE
2
DIMSTYLE
5
2d5
100
AcDbSymbolTable
100
AcDbDimStyleTable
0
DIMSTYLE
105
27
100
AcDbSymbolTableRecord
100
AcDbDimStyleTableRecord
2
Standard
70
0
3
<>
41
0.18
42
0.0625
44
0.18
140
0.18
147
0.09
73
0
74
0
77
1
271
2
275
0
278
52
280
0
340
11
0
ENDTAB
0
TABLE
2
VIEW
5
2d6
100
AcDbSymbolTable
0
ENDTAB
0
TABLE
2
UCS
5
2d7
100
AcDbSymbolTable
0
ENDTAB
0
TABLE
2
APPID
5
2d8
100
AcDbSymbolTable
0
APPID
5
12
100
AcDbSymbolTableRecord
100
AcDbRegAppTableRecord
2
ACAD
70
0
0
APPID
5
1C6
100
AcDbSymbolTableRecord
100
AcDbRegAppTableRecord
2
ACAD_DSTYLE_DIMBREAK
70
0
0
APPID
5
27C
100
AcDbSymbolTableRecord
100
AcDbRegAppTableRecord
2
ACAD_DSTYLE_DIM_LINETYPE
70
0
0
APPID
5
27D
100
AcDbSymbolTableRecord
100
AcDbRegAppTableRecord
2
ACAD_DSTYLE_DIM_EXT1_LINETYPE
70
0
0
APPID
5
27E
100
AcDbSymbolTableRecord
100
AcDbRegAppTableRecord
2
ACAD_DSTYLE_DIM_EXT2_LINETYPE
70
0
0
APPID
5
2B9
100
AcDbSymbolTableRecord
100
AcDbRegAppTableRecord
2
ACAD_MLEADERVER
70
0
0
ENDTAB
0
TABLE
2
BLOCK_RECORD
5
2d9
100
AcDbSymbolTable
0
BLOCK_RECORD
5
1F
100
AcDbSymbolTableRecord
100
AcDbBlockTableRecord
2
*Model_Space
340
0
70
0
0
BLOCK_RECORD
5
1B
100
AcDbSymbolTableRecord
100
AcDbBlockTableRecord
2
*Paper_Space
340
0
70
0
0
BLOCK_RECORD
5
23
100
AcDbSymbolTableRecord
100
AcDbBlockTableRecord
2
*Paper_Space0
340
0
70
0
0
BLOCK_RECORD
5
1CB
100
AcDbSymbolTableRecord
100
AcDbBlockTableRecord
2
*D1
340
0
70
0
0
BLOCK_RECORD
5
1D7
100
AcDbSymbolTableRecord
100
AcDbBlockTableRecord
2
_U0
340
0
70
0
0
BLOCK_RECORD
5
1E3
100
AcDbSymbolTableRecord
100
AcDbBlockTableRecord
2
*D3
340
0
70
0
0
BLOCK_RECORD
5
1EF
100
AcDbSymbolTableRecord
100
AcDbBlockTableRecord
2
_U1
340
0
70
0
0
BLOCK_RECORD
5
1FB
100
AcDbSymbolTableRecord
100
AcDbBlockTableRecord
2
*D5
340
0
70
0
0
BLOCK_RECORD
5
208
100
AcDbSymbolTableRecord
100
AcDbBlockTableRecord
2
_U2
340
0
70
0
0
BLOCK_RECORD
5
214
100
AcDbSymbolTableRecord
100
AcDbBlockTableRecord
2
*D7
340
0
70
0
0
BLOCK_RECORD
5
221
100
AcDbSymbolTableRecord
100
AcDbBlockTableRecord
2
_U3
340
0
70
0
0
BLOCK_RECORD
5
22D
100
AcDbSymbolTableRecord
100
AcDbBlockTableRecord
2
*D9
340
0
70
0
0
BLOCK_RECORD
5
23A
100
AcDbSymbolTableRecord
100
AcDbBlockTableRecord
2
_U4
340
0
70
0
0
BLOCK_RECORD
5
247
100
AcDbSymbolTableRecord
100
AcDbBlockTableRecord
2
*D11
340
0
70
0
0
BLOCK_RECORD
5
254
100
AcDbSymbolTableRecord
100
AcDbBlockTableRecord
2
_U5
340
0
70
0
0
ENDTAB
0
ENDSEC
0
SECTION
2
BLOCKS
0
BLOCK
5
20
100
AcDbEntity
8
0
100
AcDbBlockBegin
2
*Model_Space
70
0
10
0
20
0
30
0
3
*Model_Space
0
ENDBLK
5
21
100
AcDbEntity
8
0
100
AcDbBlockEnd
0
BLOCK
5
1C
100
AcDbEntity
8
0
100
AcDbBlockBegin
2
*Paper_Space
70
0
10
0
20
0
30
0
3
*Paper_Space
0
ENDBLK
5
1D
100
AcDbEntity
8
0
100
AcDbBlockEnd
0
BLOCK
5
24
100
AcDbEntity
8
0
100
AcDbBlockBegin
2
*Paper_Space0
70
0
10
0
20
0
30
0
3
*Paper_Space0
0
ENDBLK
5
25
100
AcDbEntity
8
0
100
AcDbBlockEnd
0
BLOCK
5
1CC
100
AcDbEntity
8
0
100
AcDbBlockBegin
2
*D1
70
1
10
0
20
0
30
0
3
*D1
0
LINE
5
1CE
100
AcDbEntity
8
0
62
256
6
ByLayer
370
-2
48
1
60
0
100
AcDbLine
10
-27
20
-1.5875
30
0
11
-27
21
-53.364192
31
0
39
0
210
0
220
0
230
1
0
LINE
5
1CF
100
AcDbEntity
8
0
62
256
6
ByLayer
370
-2
48
1
60
0
100
AcDbLine
10
83
20
-1.5875
30
0
11
83
21
-53.364192
31
0
39
0
210
0
220
0
230
1
0
LINE
5
1D0
100
AcDbEntity
8
0
62
256
6
ByLayer
370
-2
48
1
60
0
100
AcDbLine
10
-23.5
20
-51.364192
30
0
11
79.5
21
-51.364192
31
0
39
0
210
0
220
0
230
1
0
SOLID
5
1D1
100
AcDbEntity
8
0
62
256
6
ByLayer
370
-1
48
1
60
0
100
AcDbTrace
10
-23.5
20
-50.780858
30
0
11
-23.5
21
-51.947525
31
0
12
-27
22
-51.364192
32
0
13
-27
23
-51.364192
33
0
39
0
210
0
220
0
230
1
0
SOLID
5
1D2
100
AcDbEntity
8
0
62
256
6
ByLayer
370
-1
48
1
60
0
100
AcDbTrace
10
79.5
20
-51.947525
30
0
11
79.5
21
-50.780858
31
0
12
83
22
-51.364192
32
0
13
83
23
-51.364192
33
0
39
0
210
0
220
0
230
1
0
MTEXT
5
1D3
100
AcDbEntity
8
0
62
256
6
ByLayer
370
18
48
1
60
0
100
AcDbMText
10
28
20
-44.364192
30
0
210
0
220
0
230
1
1
\A1;110
40
3.5
41
0
44
1
50
0
71
5
72
5
7
iso_b_vert
0
POINT
5
1D4
100
AcDbEntity
8
Defpoints
62
0
6
ByLayer
370
-1
48
1
60
0
100
AcDbPoint
10
-27
20
0
30
0
39
0
210
0
220
0
230
1
50
360
0
POINT
5
1D5
100
AcDbEntity
8
Defpoints
62
0
6
ByLayer
370
-1
48
1
60
0
100
AcDbPoint
10
83
20
0
30
0
39
0
210
0
220
0
230
1
50
360
0
POINT
5
1D6
100
AcDbEntity
8
Defpoints
62
0
6
ByLayer
370
-1
48
1
60
0
100
AcDbPoint
10
83
20
-51.364192
30
0
39
0
210
0
220
0
230
1
50
360
0
ENDBLK
5
1CD
100
AcDbEntity
8
0
100
AcDbBlockEnd
0
BLOCK
5
1DE
100
AcDbEntity
8
0
100
AcDbBlockBegin
2
_U0
70
0
10
0
20
0
30
0
3
_U0
0
MTEXT
5
1D8
100
AcDbEntity
8
SK2
62
256
6
ByLayer
370
18
48
1
60
0
100
AcDbMText
10
23.645434
20
-50.331558
30
0
210
0
220
0
230
1
1
\W0.6261;110.0
40
3.5
41
0
44
1.084337
50
0
71
7
72
5
7
iso_b_vert
0
LINE
5
1D9
100
AcDbEntity
8
SK2
62
256
6
ByLayer
370
13
48
1
60
0
100
AcDbLine
10
-27
20
-1.5875
30
0
11
-27
21
-53.364192
31
0
39
0
210
0
220
0
230
1
0
LINE
5
1DA
100
AcDbEntity
8
SK2
62
256
6
ByLayer
370
13
48
1
60
0
100
AcDbLine
10
83
20
-1.5875
30
0
11
83
21
-53.364192
31
0
39
0
210
0
220
0
230
1
0
LINE
5
1DB
100
AcDbEntity
8
SK2
62
256
6
ByLayer
370
13
48
1
60
0
100
AcDbLine
10
-27
20
-51.364192
30
0
11
83
21
-51.364192
31
0
39
0
210
0
220
0
230
1
0
SOLID
5
1DC
100
AcDbEntity
8
SK2
62
256
6
ByLayer
370
18
48
1
60
0
100
AcDbTrace
10
-27
20
-51.364192
30
0
11
-23.500002
21
-50.903408
31
0
12
-23.499998
22
-51.824976
32
0
13
-23.499998
23
-51.824976
33
0
39
0
210
0
220
0
230
1
0
SOLID
5
1DD
100
AcDbEntity
8
SK2
62
256
6
ByLayer
370
18
48
1
60
0
100
AcDbTrace
10
83
20
-51.364192
30
0
11
79.500002
21
-51.824976
31
0
12
79.499998
22
-50.903408
32
0
13
79.499998
23
-50.903408
33
0
39
0
210
0
220
0
230
1
0
ENDBLK
5
1DF
100
AcDbEntity
8
0
100
AcDbBlockEnd
0
BLOCK
5
1E4
100
AcDbEntity
8
0
100
AcDbBlockBegin
2
*D3
70
1
10
0
20
0
30
0
3
*D3
0
LINE
5
1E6
100
AcDbEntity
8
0
62
256
6
ByLayer
370
-2
48
1
60
0
100
AcDbLine
10
83
20
-1.5875
30
0
11
83
21
-45.364192
31
0
39
0
210
0
220
0
230
1
0
LINE
5
1E7
100
AcDbEntity
8
0
62
256
6
ByLayer
370
-2
48
1
60
0
100
AcDbLine
10
28
20
-1.5875
30
0
11
28
21
-45.364192
31
0
39
0
210
0
220
0
230
1
0
LINE
5
1E8
100
AcDbEntity
8
0
62
256
6
ByLayer
370
-2
48
1
60
0
100
AcDbLine
10
79.5
20
-43.364192
30
0
11
31.5
21
-43.364192
31
0
39
0
210
0
220
0
230
1
0
SOLID
5
1E9
100
AcDbEntity
8
0
62
256
6
ByLayer
370
-1
48
1
60
0
100
AcDbTrace
10
79.5
20
-43.947525
30
0
11
79.5
21
-42.780858
31
0
12
83
22
-43.364192
32
0
13
83
23
-43.364192
33
0
39
0
210
0
220
0
230
1
0
SOLID
5
1EA
100
AcDbEntity
8
0
62
256
6
ByLayer
370
-1
48
1
60
0
100
AcDbTrace
10
31.5
20
-42.780858
30
0
11
31.5
21
-43.947525
31
0
12
28
22
-43.364192
32
0
13
28
23
-43.364192
33
0
39
0
210
0
220
0
230
1
0
MTEXT
5
1EB
100
AcDbEntity
8
0
62
256
6
ByLayer
370
18
48
1
60
0
100
AcDbMText
10
55.5
20
-36.364192
30
0
210
0
220
0
230
1
1
\A1;55
40
3.5
41
0
44
1
50
0
71
5
72
5
7
iso_b_vert
0
POINT
5
1EC
100
AcDbEntity
8
Defpoints
62
0
6
ByLayer
370
-1
48
1
60
0
100
AcDbPoint
10
83
20
0
30
0
39
0
210
0
220
0
230
1
50
360
0
POINT
5
1ED
100
AcDbEntity
8
Defpoints
62
0
6
ByLayer
370
-1
48
1
60
0
100
AcDbPoint
10
28
20
0
30
0
39
0
210
0
220
0
230
1
50
360
0
POINT
5
1EE
100
AcDbEntity
8
Defpoints
62
0
6
ByLayer
370
-1
48
1
60
0
100
AcDbPoint
10
28
20
-43.364192
30
0
39
0
210
0
220
0
230
1
50
360
0
ENDBLK
5
1E5
100
AcDbEntity
8
0
100
AcDbBlockEnd
0
BLOCK
5
1F6
100
AcDbEntity
8
0
100
AcDbBlockBegin
2
_U1
70
0
10
0
20
0
30
0
3
_U1
0
MTEXT
5
1F0
100
AcDbEntity
8
SK2
62
256
6
ByLayer
370
18
48
1
60
0
100
AcDbMText
10
51.578301
20
-42.331558
30
0
210
0
220
0
230
1
1
\W0.7346;55.0
40
3.5
41
0
44
1.084337
50
0
71
7
72
5
7
iso_b_vert
0
LINE
5
1F1
100
AcDbEntity
8
SK2
62
256
6
ByLayer
370
13
48
1
60
0
100
AcDbLine
10
83
20
-1.5875
30
0
11
83
21
-45.364192
31
0
39
0
210
0
220
0
230
1
0
LINE
5
1F2
100
AcDbEntity
8
SK2
62
256
6
ByLayer
370
13
48
1
60
0
100
AcDbLine
10
28
20
-1.5875
30
0
11
28
21
-45.364192
31
0
39
0
210
0
220
0
230
1
0
LINE
5
1F3
100
AcDbEntity
8
SK2
62
256
6
ByLayer
370
13
48
1
60
0
100
AcDbLine
10
83
20
-43.364192
30
0
11
28
21
-43.364192
31
0
39
0
210
0
220
0
230
1
0
SOLID
5
1F4
100
AcDbEntity
8
SK2
62
256
6
ByLayer
370
18
48
1
60
0
100
AcDbTrace
10
83
20
-43.364192
30
0
11
79.500002
21
-43.824976
31
0
12
79.499998
22
-42.903408
32
0
13
79.499998
23
-42.903408
33
0
39
0
210
0
220
0
230
1
0
SOLID
5
1F5
100
AcDbEntity
8
SK2
62
256
6
ByLayer
370
18
48
1
60
0
100
AcDbTrace
10
28
20
-43.364192
30
0
11
31.499998
21
-42.903408
31
0
12
31.500002
22
-43.824976
32
0
13
31.500002
23
-43.824976
33
0
39
0
210
0
220
0
230
1
0
ENDBLK
5
1F7
100
AcDbEntity
8
0
100
AcDbBlockEnd
0
BLOCK
5
1FC
100
AcDbEntity
8
0
100
AcDbBlockBegin
2
*D5
70
1
10
0
20
0
30
0
3
*D5
0
LINE
5
1FE
100
AcDbEntity
8
0
62
256
6
ByLayer
370
-2
48
1
60
0
100
AcDbLine
10
83
20
-1.5875
30
0
11
83
21
-37.364192
31
0
39
0
210
0
220
0
230
1
0
LINE
5
1FF
100
AcDbEntity
8
0
62
256
6
ByLayer
370
-2
48
1
60
0
100
AcDbLine
10
36.25
20
-1.5875
30
0
11
36.25
21
-37.364192
31
0
39
0
210
0
220
0
230
1
0
LINE
5
200
100
AcDbEntity
8
0
62
256
6
ByLayer
370
-2
48
1
60
0
100
AcDbLine
10
79.5
20
-35.364192
30
0
11
39.75
21
-35.364192
31
0
39
0
210
0
220
0
230
1
0
SOLID
5
201
100
AcDbEntity
8
0
62
256
6
ByLayer
370
-1
48
1
60
0
100
AcDbTrace
10
79.5
20
-35.947525
30
0
11
79.5
21
-34.780858
31
0
12
83
22
-35.364192
32
0
13
83
23
-35.364192
33
0
39
0
210
0
220
0
230
1
0
SOLID
5
202
100
AcDbEntity
8
0
62
256
6
ByLayer
370
-1
48
1
60
0
100
AcDbTrace
10
39.75
20
-34.780858
30
0
11
39.75
21
-35.947525
31
0
12
36.25
22
-35.364192
32
0
13
36.25
23
-35.364192
33
0
39
0
210
0
220
0
230
1
0
MTEXT
5
203
100
AcDbEntity
8
0
62
256
6
ByLayer
370
18
48
1
60
0
100
AcDbMText
10
59.625
20
-28.364192
30
0
210
0
220
0
230
1
1
\A1;46.75
40
3.5
41
0
44
1
50
0
71
5
72
5
7
iso_b_vert
0
POINT
5
204
100
AcDbEntity
8
Defpoints
62
0
6
ByLayer
370
-1
48
1
60
0
100
AcDbPoint
10
83
20
0
30
0
39
0
210
0
220
0
230
1
50
360
0
POINT
5
205
100
AcDbEntity
8
Defpoints
62
0
6
ByLayer
370
-1
48
1
60
0
100
AcDbPoint
10
36.25
20
0
30
0
39
0
210
0
220
0
230
1
50
360
0
POINT
5
206
100
AcDbEntity
8
Defpoints
62
0
6
ByLayer
370
-1
48
1
60
0
100
AcDbPoint
10
36.25
20
-35.364192
30
0
39
0
210
0
220
0
230
1
50
360
0
ENDBLK
5
1FD
100
AcDbEntity
8
0
100
AcDbBlockEnd
0
BLOCK
5
20F
100
AcDbEntity
8
0
100
AcDbBlockBegin
2
_U2
70
0
10
0
20
0
30
0
3
_U2
0
MTEXT
5
209
100
AcDbEntity
8
2
62
256
6
ByLayer
370
18
48
1
60
0
100
AcDbMText
10
55.519034
20
-34.331558
30
0
210
0
220
0
230
1
1
\W0.7640;46.8
40
3.5
41
0
44
1.084337
50
0
71
7
72
5
7
iso_b_vert
0
LINE
5
20A
100
AcDbEntity
8
2
62
256
6
ByLayer
370
13
48
1
60
0
100
AcDbLine
10
83
20
-1.5875
30
0
11
83
21
-37.364192
31
0
39
0
210
0
220
0
230
1
0
LINE
5
20B
100
AcDbEntity
8
2
62
256
6
ByLayer
370
13
48
1
60
0
100
AcDbLine
10
36.25
20
-1.5875
30
0
11
36.25
21
-37.364192
31
0
39
0
210
0
220
0
230
1
0
LINE
5
20C
100
AcDbEntity
8
2
62
256
6
ByLayer
370
13
48
1
60
0
100
AcDbLine
10
83
20
-35.364192
30
0
11
36.25
21
-35.364192
31
0
39
0
210
0
220
0
230
1
0
SOLID
5
20D
100
AcDbEntity
8
2
62
256
6
ByLayer
370
18
48
1
60
0
100
AcDbTrace
10
83
20
-35.364192
30
0
11
79.500002
21
-35.824976
31
0
12
79.499998
22
-34.903408
32
0
13
79.499998
23
-34.903408
33
0
39
0
210
0
220
0
230
1
0
SOLID
5
20E
100
AcDbEntity
8
2
62
256
6
ByLayer
370
18
48
1
60
0
100
AcDbTrace
10
36.25
20
-35.364192
30
0
11
39.749998
21
-34.903408
31
0
12
39.750002
22
-35.824976
32
0
13
39.750002
23
-35.824976
33
0
39
0
210
0
220
0
230
1
0
ENDBLK
5
210
100
AcDbEntity
8
0
100
AcDbBlockEnd
0
BLOCK
5
215
100
AcDbEntity
8
0
100
AcDbBlockBegin
2
*D7
70
1
10
0
20
0
30
0
3
*D7
0
LINE
5
217
100
AcDbEntity
8
0
62
256
6
ByLayer
370
-2
48
1
60
0
100
AcDbLine
10
83
20
-1.5875
30
0
11
83
21
-29.364192
31
0
39
0
210
0
220
0
230
1
0
LINE
5
218
100
AcDbEntity
8
0
62
256
6
ByLayer
370
-2
48
1
60
0
100
AcDbLine
10
67
20
-1.5875
30
0
11
67
21
-29.364192
31
0
39
0
210
0
220
0
230
1
0
LINE
5
219
100
AcDbEntity
8
0
62
256
6
ByLayer
370
-2
48
1
60
0
100
AcDbLine
10
86.5
20
-27.364192
30
0
11
90
21
-27.364192
31
0
39
0
210
0
220
0
230
1
0
LINE
5
21A
100
AcDbEntity
8
0
62
256
6
ByLayer
370
-2
48
1
60
0
100
AcDbLine
10
63.5
20
-27.364192
30
0
11
60
21
-27.364192
31
0
39
0
210
0
220
0
230
1
0
SOLID
5
21B
100
AcDbEntity
8
0
62
256
6
ByLayer
370
-1
48
1
60
0
100
AcDbTrace
10
86.5
20
-26.780858
30
0
11
86.5
21
-27.947525
31
0
12
83
22
-27.364192
32
0
13
83
23
-27.364192
33
0
39
0
210
0
220
0
230
1
0
SOLID
5
21C
100
AcDbEntity
8
0
62
256
6
ByLayer
370
-1
48
1
60
0
100
AcDbTrace
10
63.5
20
-27.947525
30
0
11
63.5
21
-26.780858
31
0
12
67
22
-27.364192
32
0
13
67
23
-27.364192
33
0
39
0
210
0
220
0
230
1
0
MTEXT
5
21D
100
AcDbEntity
8
0
62
256
6
ByLayer
370
18
48
1
60
0
100
AcDbMText
10
75
20
-20.364192
30
0
210
0
220
0
230
1
1
\A1;16
40
3.5
41
0
44
1
50
0
71
5
72
5
7
iso_b_vert
0
POINT
5
21E
100
AcDbEntity
8
Defpoints
62
0
6
ByLayer
370
-1
48
1
60
0
100
AcDbPoint
10
83
20
0
30
0
39
0
210
0
220
0
230
1
50
360
0
POINT
5
21F
100
AcDbEntity
8
Defpoints
62
0
6
ByLayer
370
-1
48
1
60
0
100
AcDbPoint
10
67
20
0
30
0
39
0
210
0
220
0
230
1
50
360
0
POINT
5
220
100
AcDbEntity
8
Defpoints
62
0
6
ByLayer
370
-1
48
1
60
0
100
AcDbPoint
10
67
20
-27.364192
30
0
39
0
210
0
220
0
230
1
50
360
0
ENDBLK
5
216
100
AcDbEntity
8
0
100
AcDbBlockEnd
0
BLOCK
5
228
100
AcDbEntity
8
0
100
AcDbBlockBegin
2
_U3
70
0
10
0
20
0
30
0
3
_U3
0
MTEXT
5
222
100
AcDbEntity
8
SK2
62
256
6
ByLayer
370
18
48
1
60
0
100
AcDbMText
10
71.515734
20
-26.331558
30
0
210
0
220
0
230
1
1
\W0.6563;16.0
40
3.5
41
0
44
1.084337
50
0
71
7
72
5
7
iso_b_vert
0
LINE
5
223
100
AcDbEntity
8
SK2
62
256
6
ByLayer
370
13
48
1
60
0
100
AcDbLine
10
83
20
-1.5875
30
0
11
83
21
-29.364192
31
0
39
0
210
0
220
0
230
1
0
LINE
5
224
100
AcDbEntity
8
SK2
62
256
6
ByLayer
370
13
48
1
60
0
100
AcDbLine
10
67
20
-1.5875
30
0
11
67
21
-29.364192
31
0
39
0
210
0
220
0
230
1
0
LINE
5
225
100
AcDbEntity
8
SK2
62
256
6
ByLayer
370
13
48
1
60
0
100
AcDbLine
10
83
20
-27.364192
30
0
11
67
21
-27.364192
31
0
39
0
210
0
220
0
230
1
0
SOLID
5
226
100
AcDbEntity
8
SK2
62
256
6
ByLayer
370
18
48
1
60
0
100
AcDbTrace
10
83
20
-27.364192
30
0
11
79.500002
21
-27.824976
31
0
12
79.499998
22
-26.903408
32
0
13
79.499998
23
-26.903408
33
0
39
0
210
0
220
0
230
1
0
SOLID
5
227
100
AcDbEntity
8
SK2
62
256
6
ByLayer
370
18
48
1
60
0
100
AcDbTrace
10
67
20
-27.364192
30
0
11
70.499998
21
-26.903408
31
0
12
70.500002
22
-27.824976
32
0
13
70.500002
23
-27.824976
33
0
39
0
210
0
220
0
230
1
0
ENDBLK
5
229
100
AcDbEntity
8
0
100
AcDbBlockEnd
0
BLOCK
5
22E
100
AcDbEntity
8
0
100
AcDbBlockBegin
2
*D9
70
1
10
0
20
0
30
0
3
*D9
0
LINE
5
230
100
AcDbEntity
8
0
62
256
6
ByLayer
370
-2
48
1
60
0
100
AcDbLine
10
83
20
1.5875
30
0
11
83
21
14.421946
31
0
39
0
210
0
220
0
230
1
0
LINE
5
231
100
AcDbEntity
8
0
62
256
6
ByLayer
370
-2
48
1
60
0
100
AcDbLine
10
78.19
20
1.5875
30
0
11
78.19
21
14.421946
31
0
39
0
210
0
220
0
230
1
0
LINE
5
232
100
AcDbEntity
8
0
62
256
6
ByLayer
370
-2
48
1
60
0
100
AcDbLine
10
86.5
20
12.421946
30
0
11
90
21
12.421946
31
0
39
0
210
0
220
0
230
1
0
LINE
5
233
100
AcDbEntity
8
0
62
256
6
ByLayer
370
-2
48
1
60
0
100
AcDbLine
10
74.69
20
12.421946
30
0
11
71.19
21
12.421946
31
0
39
0
210
0
220
0
230
1
0
SOLID
5
234
100
AcDbEntity
8
0
62
256
6
ByLayer
370
-1
48
1
60
0
100
AcDbTrace
10
86.5
20
13.005279
30
0
11
86.5
21
11.838613
31
0
12
83
22
12.421946
32
0
13
83
23
12.421946
33
0
39
0
210
0
220
0
230
1
0
SOLID
5
235
100
AcDbEntity
8
0
62
256
6
ByLayer
370
-1
48
1
60
0
100
AcDbTrace
10
74.69
20
11.838613
30
0
11
74.69
21
13.005279
31
0
12
78.19
22
12.421946
32
0
13
78.19
23
12.421946
33
0
39
0
210
0
220
0
230
1
0
MTEXT
5
236
100
AcDbEntity
8
0
62
256
6
ByLayer
370
18
48
1
60
0
100
AcDbMText
10
80.595
20
19.421946
30
0
210
0
220
0
230
1
1
\A1;4.81
40
3.5
41
0
44
1
50
0
71
5
72
5
7
iso_b_vert
0
POINT
5
237
100
AcDbEntity
8
Defpoints
62
0
6
ByLayer
370
-1
48
1
60
0
100
AcDbPoint
10
83
20
0
30
0
39
0
210
0
220
0
230
1
50
360
0
POINT
5
238
100
AcDbEntity
8
Defpoints
62
0
6
ByLayer
370
-1
48
1
60
0
100
AcDbPoint
10
78.19
20
0
30
0
39
0
210
0
220
0
230
1
50
360
0
POINT
5
239
100
AcDbEntity
8
Defpoints
62
0
6
ByLayer
370
-1
48
1
60
0
100
AcDbPoint
10
78.19
20
12.421946
30
0
39
0
210
0
220
0
230
1
50
360
0
ENDBLK
5
22F
100
AcDbEntity
8
0
100
AcDbBlockEnd
0
BLOCK
5
242
100
AcDbEntity
8
0
100
AcDbBlockBegin
2
_U4
70
0
10
0
20
0
30
0
3
_U4
0
MTEXT
5
23B
100
AcDbEntity
8
SK2
62
256
6
ByLayer
370
18
48
1
60
0
100
AcDbMText
10
76.926467
20
20.45458
30
0
210
0
220
0
230
1
1
\W0.7531;4.81
40
3.5
41
0
44
1.084337
50
0
71
7
72
5
7
iso_b_vert
0
MTEXT
5
23C
100
AcDbEntity
8
SK2
62
256
6
ByLayer
370
18
48
1
60
0
100
AcDbMText
10
76.926467
20
13.45458
30
0
210
0
220
0
230
1
1
\W0.6474;'C'
40
3.5
41
0
44
1.084337
50
0
71
7
72
5
7
iso_b_vert
0
LINE
5
23D
100
AcDbEntity
8
SK2
62
256
6
ByLayer
370
13
48
1
60
0
100
AcDbLine
10
83
20
1.5875
30
0
11
83
21
14.421946
31
0
39
0
210
0
220
0
230
1
0
LINE
5
23E
100
AcDbEntity
8
SK2
62
256
6
ByLayer
370
13
48
1
60
0
100
AcDbLine
10
78.19
20
1.5875
30
0
11
78.19
21
14.421946
31
0
39
0
210
0
220
0
230
1
0
LINE
5
23F
100
AcDbEntity
8
SK2
62
256
6
ByLayer
370
13
48
1
60
0
100
AcDbLine
10
91.75
20
12.421946
30
0
11
69.44
21
12.421946
31
0
39
0
210
0
220
0
230
1
0
SOLID
5
240
100
AcDbEntity
8
SK2
62
256
6
ByLayer
370
18
48
1
60
0
100
AcDbTrace
10
83
20
12.421946
30
0
11
86.499998
21
12.88273
31
0
12
86.500002
22
11.961162
32
0
13
86.500002
23
11.961162
33
0
39
0
210
0
220
0
230
1
0
SOLID
5
241
100
AcDbEntity
8
SK2
62
256
6
ByLayer
370
18
48
1
60
0
100
AcDbTrace
10
78.19
20
12.421946
30
0
11
74.690002
21
11.961162
31
0
12
74.689998
22
12.88273
32
0
13
74.689998
23
12.88273
33
0
39
0
210
0
220
0
230
1
0
ENDBLK
5
243
100
AcDbEntity
8
0
100
AcDbBlockEnd
0
BLOCK
5
248
100
AcDbEntity
8
0
100
AcDbBlockBegin
2
*D11
70
1
10
0
20
0
30
0
3
*D11
0
LINE
5
24A
100
AcDbEntity
8
0
62
256
6
ByLayer
370
-2
48
1
60
0
100
AcDbLine
10
84.5875
20
-6.085973
30
0
11
101.75
21
-6.085973
31
0
39
0
210
0
220
0
230
1
0
LINE
5
24B
100
AcDbEntity
8
0
62
256
6
ByLayer
370
-2
48
1
60
0
100
AcDbLine
10
84.5875
20
6.085973
30
0
11
101.75
21
6.085973
31
0
39
0
210
0
220
0
230
1
0
LINE
5
24C
100
AcDbEntity
8
0
62
256
6
ByLayer
370
-2
48
1
60
0
100
AcDbLine
10
99.75
20
-9.585973
30
0
11
99.75
21
-13.085973
31
0
39
0
210
0
220
0
230
1
0
LINE
5
24D
100
AcDbEntity
8
0
62
256
6
ByLayer
370
-2
48
1
60
0
100
AcDbLine
10
99.75
20
9.585973
30
0
11
99.75
21
13.085973
31
0
39
0
210
0
220
0
230
1
0
SOLID
5
24E
100
AcDbEntity
8
0
62
256
6
ByLayer
370
-1
48
1
60
0
100
AcDbTrace
10
100.333333
20
-9.585973
30
0
11
99.166667
21
-9.585973
31
0
12
99.75
22
-6.085973
32
0
13
99.75
23
-6.085973
33
0
39
0
210
0
220
0
230
1
0
SOLID
5
24F
100
AcDbEntity
8
0
62
256
6
ByLayer
370
-1
48
1
60
0
100
AcDbTrace
10
99.166667
20
9.585973
30
0
11
100.333333
21
9.585973
31
0
12
99.75
22
6.085973
32
0
13
99.75
23
6.085973
33
0
39
0
210
0
220
0
230
1
0
MTEXT
5
250
100
AcDbEntity
8
0
62
256
6
ByLayer
370
18
48
1
60
0
100
AcDbMText
10
92.75
20
0
30
0
210
0
220
0
230
1
1
\A1;12.17
40
3.5
41
0
44
1
50
90
71
5
72
5
7
iso_b_vert
0
POINT
5
251
100
AcDbEntity
8
Defpoints
62
0
6
ByLayer
370
-1
48
1
60
0
100
AcDbPoint
10
83
20
-6.085973
30
0
39
0
210
0
220
0
230
1
50
360
0
POINT
5
252
100
AcDbEntity
8
Defpoints
62
0
6
ByLayer
370
-1
48
1
60
0
100
AcDbPoint
10
83
20
6.085973
30
0
39
0
210
0
220
0
230
1
50
360
0
POINT
5
253
100
AcDbEntity
8
Defpoints
62
0
6
ByLayer
370
-1
48
1
60
0
100
AcDbPoint
10
99.75
20
6.085973
30
0
39
0
210
0
220
0
230
1
50
360
0
ENDBLK
5
249
100
AcDbEntity
8
0
100
AcDbBlockEnd
0
BLOCK
5
25C
100
AcDbEntity
8
0
100
AcDbBlockBegin
2
_U5
70
0
10
0
20
0
30
0
3
_U5
0
MTEXT
5
255
100
AcDbEntity
8
2
62
256
6
ByLayer
370
18
48
1
60
0
100
AcDbMText
10
99.060366
20
-9.973299
30
0
210
0
220
0
230
1
1
\W0.6563;M12
40
3.5
41
0
44
1.084337
50
90
71
7
72
5
7
iso_b_vert
0
MTEXT
5
256
100
AcDbEntity
8
2
62
256
6
ByLayer
370
18
48
1
60
0
100
AcDbMText
10
99.060366
20
0.231233
30
0
210
0
220
0
230
1
1
\W0.7506; 6HX
40
3.5
41
0
44
1.084337
50
90
71
7
72
5
7
iso_b_vert
0
LINE
5
257
100
AcDbEntity
8
2
62
256
6
ByLayer
370
13
48
1
60
0
100
AcDbLine
10
84.5875
20
-6.085973
30
0
11
101.75
21
-6.085973
31
0
39
0
210
0
220
0
230
1
0
LINE
5
258
100
AcDbEntity
8
2
62
256
6
ByLayer
370
13
48
1
60
0
100
AcDbLine
10
84.5875
20
6.085973
30
0
11
101.75
21
6.085973
31
0
39
0
210
0
220
0
230
1
0
LINE
5
259
100
AcDbEntity
8
2
62
256
6
ByLayer
370
13
48
1
60
0
100
AcDbLine
10
99.75
20
10.130799
30
0
11
99.75
21
-10.130799
31
0
39
0
210
0
220
0
230
1
0
SOLID
5
25A
100
AcDbEntity
8
2
62
256
6
ByLayer
370
18
48
1
60
0
100
AcDbTrace
10
99.75
20
-6.085973
30
0
11
99.289216
21
-2.585975
31
0
12
100.210784
22
-2.585971
32
0
13
100.210784
23
-2.585971
33
0
39
0
210
0
220
0
230
1
0
SOLID
5
25B
100
AcDbEntity
8
2
62
256
6
ByLayer
370
18
48
1
60
0
100
AcDbTrace
10
99.75
20
6.085973
30
0
11
100.210784
21
2.585975
31
0
12
99.289216
22
2.585971
32
0
13
99.289216
23
2.585971
33
0
39
0
210
0
220
0
230
1
0
ENDBLK
5
25D
100
AcDbEntity
8
0
100
AcDbBlockEnd
0
ENDSEC
0
SECTION
2
ENTITIES
0
ARC
5
C0
100
AcDbEntity
8
SK1
62
256
6
ByLayer
370
18
48
1
60
0
100
AcDbCircle
39
0
10
-20.5
20
0
30
0
40
4.3200000000001
210
0
220
0
230
1
100
AcDbArc
50
324.114028
51
35.885972
0
ARC
5
C1
100
AcDbEntity
8
1
62
256
6
ByLayer
370
18
48
1
60
0
100
AcDbCircle
39
0
10
65.676867
20
-5.55
30
0
40
1.2
210
0
220
0
230
1
100
AcDbArc
50
30
51
90
0
ARC
5
C2
100
AcDbEntity
8
1
62
256
6
ByLayer
370
18
48
1
60
0
100
AcDbCircle
39
0
10
28.580948
20
-5.55
30
0
40
1.2
210
0
220
0
230
1
100
AcDbArc
50
90
51
118.955024
0
ARC
5
C3
100
AcDbEntity
8
1
62
256
6
ByLayer
370
18
48
1
60
0
100
AcDbCircle
39
0
10
28.580948
20
5.55
30
0
40
1.2
210
0
220
0
230
1
100
AcDbArc
50
241.044976
51
270
0
POINT
5
70
100
AcDbEntity
8
80
62
256
6
ByLayer
370
18
48
1
60
0
100
AcDbPoint
10
0
20
0
30
0
39
0
210
0
220
0
230
1
50
360
0
POINT
5
72
100
AcDbEntity
8
81
62
256
6
ByLayer
370
18
48
1
60
0
100
AcDbPoint
10
83
20
0
30
0
39
0
210
0
220
0
230
1
50
360
0
POINT
5
74
100
AcDbEntity
8
1
62
256
6
ByLayer
370
18
48
1
60
0
100
AcDbPoint
10
-27
20
0
30
0
39
0
210
0
220
0
230
1
50
360
0
POINT
5
76
100
AcDbEntity
8
1
62
256
6
ByLayer
370
18
48
1
60
1
100
AcDbPoint
10
-27
20
0
30
0
39
0
210
0
220
0
230
1
50
360
0
POINT
5
77
100
AcDbEntity
8
1
62
256
6
ByLayer
370
18
48
1
60
1
100
AcDbPoint
10
83
20
0
30
0
39
0
210
0
220
0
230
1
50
360
0
POINT
5
78
100
AcDbEntity
8
1
62
256
6
ByLayer
370
18
48
1
60
1
100
AcDbPoint
10
83
20
0
30
0
39
0
210
0
220
0
230
1
50
360
0
POINT
5
79
100
AcDbEntity
8
1
62
256
6
ByLayer
370
18
48
1
60
1
100
AcDbPoint
10
28
20
0
30
0
39
0
210
0
220
0
230
1
50
360
0
POINT
5
7A
100
AcDbEntity
8
1
62
256
6
ByLayer
370
18
48
1
60
1
100
AcDbPoint
10
83
20
0
30
0
39
0
210
0
220
0
230
1
50
360
0
POINT
5
7B
100
AcDbEntity
8
1
62
256
6
ByLayer
370
18
48
1
60
1
100
AcDbPoint
10
36.25
20
0
30
0
39
0
210
0
220
0
230
1
50
360
0
POINT
5
7C
100
AcDbEntity
8
1
62
256
6
ByLayer
370
18
48
1
60
1
100
AcDbPoint
10
83
20
0
30
0
39
0
210
0
220
0
230
1
50
360
0
POINT
5
7D
100
AcDbEntity
8
1
62
256
6
ByLayer
370
18
48
1
60
1
100
AcDbPoint
10
67
20
0
30
0
39
0
210
0
220
0
230
1
50
360
0
POINT
5
7E
100
AcDbEntity
8
1
62
256
6
ByLayer
370
18
48
1
60
1
100
AcDbPoint
10
83
20
0
30
0
39
0
210
0
220
0
230
1
50
360
0
POINT
5
7F
100
AcDbEntity
8
1
62
256
6
ByLayer
370
18
48
1
60
1
100
AcDbPoint
10
78.19
20
0
30
0
39
0
210
0
220
0
230
1
50
360
0
POINT
5
80
100
AcDbEntity
8
1
62
256
6
ByLayer
370
18
48
1
60
1
100
AcDbPoint
10
83
20
-6.085973
30
0
39
0
210
0
220
0
230
1
50
360
0
POINT
5
81
100
AcDbEntity
8
1
62
256
6
ByLayer
370
18
48
1
60
1
100
AcDbPoint
10
83
20
6.085973
30
0
39
0
210
0
220
0
230
1
50
360
0
SPLINE
5
C4
100
AcDbEntity
8
1
62
256
6
ByLayer
370
13
48
1
60
0
100
AcDbSpline
70
4
71
3
72
8
73
4
40
0
40
0
40
0
40
0
40
1
40
1
40
1
40
1
41
1.04
10
69.8461757730361
20
5.05720752568005
30
0
41
1.04
10
69.8490164513762
20
5.06324660163643
30
0
41
1.04
10
69.8518563865097
20
5.06849646557624
30
0
41
1.04
10
69.8546957485402
20
5.07295795481296
30
0
0
SPLINE
5
C5
100
AcDbEntity
8
1
62
256
6
ByLayer
370
18
48
1
60
0
100
AcDbSpline
70
4
71
3
72
9
73
5
40
0
40
0
40
0
40
0
40
0.4028333037364
40
1
40
1
40
1
40
1
41
1
10
82.3999803762429
20
4.98494905403973
30
0
41
1
10
82.3999805493375
20
4.98425896032853
30
0
41
1
10
82.3999805823846
20
4.98153151246126
30
0
41
1
10
82.3999794665907
20
4.97627626475693
30
0
41
1
10
82.3999784700871
20
4.97224005425647
30
0
0
SPLINE
5
C6
100
AcDbEntity
8
1
62
256
6
ByLayer
370
18
48
1
60
0
100
AcDbSpline
70
4
71
3
72
8
73
4
40
0
40
0
40
0
40
0
40
1
40
1
40
1
40
1
41
1
10
68.2757220223474
20
-5.61268100349776
30
0
41
1
10
68.2784536730847
20
-5.60982814567222
30
0
41
1
10
68.2811920468165
20
-5.60603342243246
30
0
41
1
10
68.2839377506036
20
-5.60128657033971
30
0
0
SPLINE
5
C7
100
AcDbEntity
8
1
62
256
6
ByLayer
370
18
48
1
60
0
100
AcDbSpline
70
4
71
3
72
8
73
4
40
0
40
0
40
0
40
0
40
1
40
1
40
1
40
1
41
1
10
67.4943089041002
20
-5.51120385388282
30
0
41
1
10
67.4861292637429
20
-5.51005845835075
30
0
41
1
10
67.4779750440632
20
-5.50278969423979
30
0
41
1
10
67.4697996857021
20
-5.48933452800105
30
0
0
SPLINE
5
C8
100
AcDbEntity
8
1
62
256
6
ByLayer
370
18
48
1
60
0
100
AcDbSpline
70
4
71
3
72
8
73
4
40
0
40
0
40
0
40
0
40
1
40
1
40
1
40
1
41
1
10
70.3631749309408
20
5.910589610898
30
0
41
1
10
70.359544569242
20
5.91261212220832
30
0
41
1
10
70.3559059102928
20
5.91337362050967
30
0
41
1
10
70.3522577896243
20
5.91286500570374
30
0
0
SPLINE
5
C9
100
AcDbEntity
8
1
62
256
6
ByLayer
370
18
48
1
60
0
100
AcDbSpline
70
4
71
3
72
8
73
4
40
0
40
0
40
0
40
0
40
1
40
1
40
1
40
1
41
1
10
70.711346672462
20
5.94358131654707
30
0
41
1
10
70.7128803563352
20
5.94093015509216
30
0
41
1
10
70.7144128874535
20
5.9379651778921
30
0
41
1
10
70.7159444156838
20
5.93468539156851
30
0
0
SPLINE
5
CA
100
AcDbEntity
8
1
62
256
6
ByLayer
370
18
48
1
60
0
100
AcDbSpline
70
4
71
3
72
8
73
4
40
0
40
0
40
0
40
0
40
1
40
1
40
1
40
1
41
1.04
10
79.4840993402823
20
-5.08159415492373
30
0
41
1.04
10
79.4872090053672
20
-5.08565832056715
30
0
41
1.04
10
79.4903187104348
20
-5.08877804964524
30
0
41
1.04
10
79.4934280303647
20
-5.09095442368841
30
0
0
SPLINE
5
CB
100
AcDbEntity
8
1
62
256
6
ByLayer
370
18
48
1
60
0
100
AcDbSpline
70
4
71
3
72
8
73
4
40
0
40
0
40
0
40
0
40
1
40
1
40
1
40
1
41
1
10
66.7997563579594
20
-5.08653286739809
30
0
41
1
10
66.8024579278597
20
-5.09679687057903
30
0
41
1
10
66.8051391024708
20
-5.10421727778683
30
0
41
1
10
66.8078014935111
20
-5.10884646037189
30
0
0
SPLINE
5
CC
100
AcDbEntity
8
1
62
256
6
ByLayer
370
18
48
1
60
0
100
AcDbSpline
70
4
71
3
72
9
73
5
40
0
40
0
40
0
40
0
40
0.847671570891393
40
1
40
1
40
1
40
1
41
1.04
10
67.2280138890728
20
-5.07275161600384
30
0
41
1.04
10
67.2307788279579
20
-5.0775097588462
30
0
41
1.04
10
67.2340434819477
20
-5.08224504335125
30
0
41
1.04
10
67.2373115392531
20
-5.08593258789925
30
0
41
1.04
10
67.2378094368263
20
-5.08646995703672
30
0
0
SPLINE
5
CD
100
AcDbEntity
8
1
62
256
6
ByLayer
370
18
48
1
60
0
100
AcDbSpline
70
4
71
3
72
8
73
4
40
0
40
0
40
0
40
0
40
1
40
1
40
1
40
1
41
1
10
66.7829994325793
20
-4.97891786494421
30
0
41
1
10
66.7881503438497
20
-5.02762800165308
30
0
41
1
10
66.793714216505
20
-5.0635771189265
30
0
41
1
10
66.7997563579594
20
-5.08653286739812
30
0
0
SPLINE
5
CE
100
AcDbEntity
8
1
62
256
6
ByLayer
370
13
48
1
60
0
100
AcDbSpline
70
4
71
3
72
8
73
4
40
0
40
0
40
0
40
0
40
1
40
1
40
1
40
1
41
1
10
66.7997563579594
20
-5.08653286739812
30
0
41
1
10
66.8130586049516
20
-5.10073091379704
30
0
41
1
10
66.8264173746671
20
-5.09755688132728
30
0
41
1
10
66.8398434921137
20
-5.07630766050511
30
0
0
SPLINE
5
CF
100
AcDbEntity
8
1
62
256
6
ByLayer
370
13
48
1
60
0
100
AcDbSpline
70
4
71
3
72
8
73
4
40
0
40
0
40
0
40
0
40
1
40
1
40
1
40
1
41
1
10
71.2173569602118
20
5.07095563404371
30
0
41
1
10
71.2226797918869
20
5.06180033756078
30
0
41
1
10
71.2279879511699
20
5.04986366050764
30
0
41
1
10
71.2332825153469
20
5.03521642822585
30
0
0
SPLINE
5
D0
100
AcDbEntity
8
1
62
256
6
ByLayer
370
13
48
1
60
0
100
AcDbSpline
70
4
71
3
72
9
73
5
40
0
40
0
40
0
40
0
40
0.220421090118882
40
1
40
1
40
1
40
1
41
1
10
79.0234747612022
20
-5.03597230485849
30
0
41
1
10
79.0282391110958
20
-5.04913794637156
30
0
41
1
10
79.0498523363406
20
-5.09884726080642
30
0
41
1
10
79.0714879647285
20
-5.10282175876645
30
0
41
1
10
79.0883005556184
20
-5.07832681989657
30
0
0
SPLINE
5
D1
100
AcDbEntity
8
1
62
256
6
ByLayer
370
18
48
1
60
0
100
AcDbSpline
70
4
71
3
72
8
73
4
40
0
40
0
40
0
40
0
40
1
40
1
40
1
40
1
41
1
10
79.0883004031293
20
-5.07832704206351
30
0
41
1
10
79.0900732055096
20
-5.07574419272237
30
0
41
1
10
79.0918454064998
20
-5.07285454281509
30
0
41
1
10
79.0936169267235
20
-5.06965832876099
30
0
0
SPLINE
5
D2
100
AcDbEntity
8
1
62
256
6
ByLayer
370
18
48
1
60
0
100
AcDbSpline
70
4
71
3
72
14
73
10
40
0
40
0
40
0
40
0
40
0.328488245500646
40
0.328488245500646
40
0.656976491001293
40
0.656976491001293
40
0.985464736501939
40
0.985464736501939
40
1
40
1
40
1
40
1
41
1
10
78.555293137329
20
-5.66173676334483
30
0
41
1
10
78.5652694367319
20
-5.70251605558826
30
0
41
1
10
78.5752204051158
20
-5.73566344173693
30
0
41
1
10
78.5951115504296
20
-5.7870550032747
30
0
41
1
10
78.6050312361705
20
-5.80533069445815
30
0
41
1
10
78.6248500954196
20
-5.82705990283947
30
0
41
1
10
78.6347678752272
20
-5.83050521474775
30
0
41
1
10
78.6452569044425
20
-5.82603994730565
30
0
41
1
10
78.6457016938365
20
-5.82583543486876
30
0
41
1
10
78.6461467790123
20
-5.82561563961266
30
0
0
SPLINE
5
D3
100
AcDbEntity
8
1
62
256
6
ByLayer
370
18
48
1
60
0
100
AcDbSpline
70
4
71
3
72
16
73
12
40
0
40
0
40
0
40
0
40
0.209614658134711
40
0.473076438756474
40
0.473076438756474
40
0.736538219378236
40
0.736538219378236
40
0.802403664533677
40
0.802403664533677
40
0.868269109689118
40
1
40
1
40
1
40
1
41
1
10
78.2872512917572
20
-6.01058047704876
30
0
41
1
10
78.2814885583311
20
-6.0141300514849
30
0
41
1
10
78.2684794065354
20
-6.01077425468804
30
0
41
1
10
78.2556072919243
20
-5.98236581549062
30
0
41
1
10
78.24143324208
20
-5.93511664379338
30
0
41
1
10
78.2344279501751
20
-5.90368963522545
30
0
41
1
10
78.2256219394638
20
-5.85436612395947
30
0
41
1
10
78.2238567468422
20
-5.84398919399194
30
0
41
1
10
78.2203240323255
20
-5.82225933426832
30
0
41
1
10
78.2150251315225
20
-5.78822658668412
30
0
41
1
10
78.2097193847122
20
-5.74990808063276
30
0
41
1
10
78.206174165773
20
-5.72246946972206
30
0
0
SPLINE
5
D4
100
AcDbEntity
8
1
62
256
6
ByLayer
370
13
48
1
60
0
100
AcDbSpline
70
4
71
3
72
9
73
5
40
0
40
0
40
0
40
0
40
0.368515616816413
40
1
40
1
40
1
40
1
41
1.04
10
71.6046763559578
20
5.07272460570313
30
0
41
1.04
10
71.615820585528
20
5.09100203548203
30
0
41
1.04
10
71.6458704934593
20
5.10750632311158
30
0
41
1.04
10
71.6754292585008
20
5.03513482644662
30
0
41
1.04
10
71.6939463988505
20
4.95705175220053
30
0
0
SPLINE
5
D5
100
AcDbEntity
8
1
62
256
6
ByLayer
370
13
48
1
60
0
100
AcDbSpline
70
4
71
3
72
9
73
5
40
0
40
0
40
0
40
0
40
0.828321910404453
40
1
40
1
40
1
40
1
41
1.04
10
77.6450048727872
20
-4.70970404662661
30
0
41
1.04
10
77.6681014902635
20
-4.87101586344964
30
0
41
1.04
10
77.6962173705557
20
-5.00929372915186
30
0
41
1.04
10
77.724497624497
20
-5.06820753321997
30
0
41
1.04
10
77.7293583148585
20
-5.07597700805823
30
0
0
SPLINE
5
D6
100
AcDbEntity
8
1
62
256
6
ByLayer
370
18
48
1
60
0
100
AcDbSpline
70
4
71
3
72
19
73
15
40
0
40
0
40
0
40
0
40
0.236154859459634
40
0.236154859459634
40
0.472309718919267
40
0.708464578378901
40
0.708464578378901
40
0.826542008108718
40
0.826542008108718
40
0.885580722973626
40
0.885580722973626
40
0.944619437838534
40
0.944619437838534
40
1
40
1
40
1
40
1
41
1
10
72.3077514288588
20
5.64976492295685
30
0
41
1
10
72.2993015119547
20
5.71799422011838
30
0
41
1
10
72.2909026826796
20
5.77807432364838
30
0
41
1
10
72.2741395119565
20
5.88238424342629
30
0
41
1
10
72.2574114850041
20
5.97084134657499
30
0
41
1
10
72.24070630127
20
6.0277093349174
30
0
41
1
10
72.2281858194886
20
6.05826845502574
30
0
41
1
10
72.224013866598
20
6.0664364744371
30
0
41
1
10
72.2177588395194
20
6.07560097702066
30
0
41
1
10
72.2156789613725
20
6.07813338531668
30
0
41
1
10
72.2115392658995
20
6.08214996995687
30
0
41
1
10
72.2094780851828
20
6.08363645991582
30
0
41
1
10
72.2054988905956
20
6.085515449658
30
0
41
1
10
72.2035792940028
20
6.08597090115398
30
0
41
1
10
72.201664381335
20
6.08597465527484
30
0
0
SPLINE
5
D7
100
AcDbEntity
8
1
62
256
6
ByLayer
370
18
48
1
60
0
100
AcDbSpline
70
4
71
3
72
18
73
14
40
0
40
0
40
0
40
0
40
0.177830329930366
40
0.177830329930366
40
0.451886886620245
40
0.451886886620245
40
0.725943443310123
40
0.725943443310123
40
0.794457582482593
40
0.794457582482593
40
0.862971721655062
40
0.862971721655062
40
1
40
1
40
1
40
1
41
1
10
72.3904120623961
20
6.06504455415407
30
0
41
1
10
72.395865678156
20
6.05523681998906
30
0
41
1
10
72.401307659155
20
6.04201262681869
30
0
41
1
10
72.415061511388
20
5.99985455082145
30
0
41
1
10
72.4233159076942
20
5.96629099677429
30
0
41
1
10
72.439873763535
20
5.88315081097312
30
0
41
1
10
72.4481792093848
20
5.83357513777389
30
0
41
1
10
72.4586794628374
20
5.76133991538026
30
0
41
1
10
72.4607851578219
20
5.74637857836987
30
0
41
1
10
72.4650087457915
20
5.71541666892833
30
0
41
1
10
72.4671259714617
20
5.69941997663631
30
0
41
1
10
72.4734736769867
20
5.65003720063109
30
0
41
1
10
72.4777075965328
20
5.61520603489191
30
0
41
1
10
72.4819411306796
20
5.57847269044404
30
0
0
SPLINE
5
D8
100
AcDbEntity
8
1
62
256
6
ByLayer
370
13
48
1
60
0
100
AcDbSpline
70
4
71
3
72
10
73
6
40
0
40
0
40
0
40
0
40
0.119870973290208
40
0.773672287832178
40
1
40
1
40
1
40
1
41
1
10
72.9670543565182
20
5.07236800899608
30
0
41
1
10
72.9714069999744
20
5.06488708991034
30
0
41
1
10
72.9994014117661
20
5.00465979443689
30
0
41
1
10
73.0346953557547
20
4.82851938780081
30
0
41
1
10
73.0648303844345
20
4.59765110564319
30
0
41
1
10
73.0725220610074
20
4.53363733582464
30
0
0
SPLINE
5
D9
100
AcDbEntity
8
1
62
256
6
ByLayer
370
13
48
1
60
0
100
AcDbSpline
70
4
71
3
72
9
73
5
40
0
40
0
40
0
40
0
40
0.657576148526131
40
1
40
1
40
1
40
1
41
1
10
77.1844662983544
20
-4.53922776821187
30
0
41
1
10
77.2152314662036
20
-4.79464179538104
30
0
41
1
10
77.2626165758706
20
-5.06207812599871
30
0
41
1
10
77.3104701088683
20
-5.10330141446087
30
0
41
1
10
77.3269396929137
20
-5.09068978007752
30
0
0
SPLINE
5
DA
100
AcDbEntity
8
1
62
256
6
ByLayer
370
18
48
1
60
0
100
AcDbSpline
70
4
71
3
72
8
73
4
40
0
40
0
40
0
40
0
40
1
40
1
40
1
40
1
41
1
10
77.3269395401937
20
-5.09068989702254
30
0
41
1
10
77.3308505082743
20
-5.08769510038837
30
0
41
1
10
77.3347661788927
20
-5.08319313745386
30
0
41
1
10
77.3386869332622
20
-5.07718128900905
30
0
0
SPLINE
5
DB
100
AcDbEntity
8
1
62
256
6
ByLayer
370
18
48
1
60
0
100
AcDbSpline
70
4
71
3
72
24
73
20
40
0
40
0
40
0
40
0
40
0.147879526309974
40
0.147879526309974
40
0.295759052619948
40
0.295759052619948
40
0.443638578929922
40
0.443638578929922
40
0.517578342084909
40
0.517578342084909
40
0.554548223662402
40
0.554548223662402
40
0.591518105239895
40
0.591518105239895
40
0.73939763154987
40
0.73939763154987
40
0.887277157859845
40
0.887277157859845
40
1
40
1
40
1
40
1
41
1
10
76.5735558214369
20
-4.99476240975554
30
0
41
1
10
76.5820266857105
20
-5.09976191281203
30
0
41
1
10
76.5904158077467
20
-5.19723443686183
30
0
41
1
10
76.6070332469947
20
-5.37754271839856
30
0
41
1
10
76.6152500326931
20
-5.46037763949278
30
0
41
1
10
76.6317383734333
20
-5.61145876862145
30
0
41
1
10
76.6400122561217
20
-5.67970548523181
30
0
41
1
10
76.6525696848794
20
-5.77090805817204
30
0
41
1
10
76.6567790425842
20
-5.79944488232996
30
0
41
1
10
76.6631334031322
20
-5.83939892433762
30
0
41
1
10
76.6652539130851
20
-5.85221372202165
30
0
41
1
10
76.6694884947202
20
-5.87677705202023
30
0
41
1
10
76.6716043032131
20
-5.88853657814656
30
0
41
1
10
76.6821750233111
20
-5.94474796026242
30
0
41
1
10
76.6906086732767
20
-5.98145719958174
30
0
41
1
10
76.7073446558142
20
-6.03871642016048
30
0
41
1
10
76.7156167181399
20
-6.05926581297604
30
0
41
1
10
76.7301541679969
20
-6.08120653448771
30
0
41
1
10
76.736436126075
20
-6.08599154871754
30
0
41
1
10
76.7427505197544
20
-6.08597471974184
30
0
0
SPLINE
5
DC
100
AcDbEntity
8
1
62
256
6
ByLayer
370
18
48
1
60
0
100
AcDbSpline
70
4
71
3
72
24
73
20
40
0
40
0
40
0
40
0
40
0.006230652817939
40
0.006230652817939
40
0.171858877348283
40
0.171858877348283
40
0.254672989613455
40
0.254672989613455
40
0.337487101878627
40
0.337487101878627
40
0.50311532640897
40
0.50311532640897
40
0.668743550939313
40
0.668743550939313
40
0.834371775469656
40
0.834371775469656
40
0.917185887734828
40
0.917185887734828
40
1
40
1
40
1
40
1
41
1
10
76.5497933116658
20
-6.05887401391612
30
0
41
1
10
76.549477335398
20
-6.05822912179934
30
0
41
1
10
76.5491615366358
20
-6.05757273337872
30
0
41
1
10
76.5404560150522
20
-6.03915064009368
30
0
41
1
10
76.5321629408402
20
-6.01327402130292
30
0
41
1
10
76.5196857596343
20
-5.96202065420215
30
0
41
1
10
76.5155210253893
20
-5.94286001391418
30
0
41
1
10
76.5071576522956
20
-5.90030394069265
30
0
41
1
10
76.5029859391469
20
-5.87704341516516
30
0
41
1
10
76.4905013566622
20
-5.80155204858502
30
0
41
1
10
76.4822086154771
20
-5.74357096807989
30
0
41
1
10
76.4656330925271
20
-5.61263201212208
30
0
41
1
10
76.4573484091538
20
-5.53967356653737
30
0
41
1
10
76.4407099700725
20
-5.37874310990765
30
0
41
1
10
76.4323559871981
20
-5.29077200204461
30
0
41
1
10
76.4197177147781
20
-5.14725174631167
30
0
41
1
10
76.415480284531
20
-5.0973944962798
30
0
41
1
10
76.4070177301162
20
-4.99443389900827
30
0
41
1
10
76.4027879771616
20
-4.94128369676397
30
0
41
1
10
76.3985566086711
20
-4.88647052398167
30
0
0
SPLINE
5
DD
100
AcDbEntity
8
1
62
256
6
ByLayer
370
13
48
1
60
0
100
AcDbSpline
70
4
71
3
72
9
73
5
40
0
40
0
40
0
40
0
40
0.686828787798528
40
1
40
1
40
1
40
1
41
1.04
10
75.805887951759
20
-3.85977280477014
30
0
41
1.04
10
75.8411375726601
20
-4.28061588380727
30
0
41
1.04
10
75.8926756708
20
-4.76052099034349
30
0
41
1.04
10
75.9454976571509
20
-4.99208552527905
30
0
41
1.04
10
75.9621405671836
20
-5.03769215341999
30
0
0
SPLINE
5
DE
100
AcDbEntity
8
1
62
256
6
ByLayer
370
18
48
1
60
0
100
AcDbSpline
70
4
71
3
72
8
73
4
40
0
40
0
40
0
40
0
40
1
40
1
40
1
40
1
41
1.04
10
75.9621404235626
20
-5.037691759854
30
0
41
1.04
10
75.9666557334309
20
-5.05006512268343
30
0
41
1.04
10
75.971178446988
20
-5.06045753302189
30
0
41
1.04
10
75.9757080583105
20
-5.06881793960318
30
0
0
SPLINE
5
DF
100
AcDbEntity
8
1
62
256
6
ByLayer
370
18
48
1
60
0
100
AcDbSpline
70
4
71
3
72
8
73
4
40
0
40
0
40
0
40
0
40
1
40
1
40
1
40
1
41
1.04
10
73.3537645211515
20
5.07412657489099
30
0
41
1.04
10
73.3579470066387
20
5.08102188904583
30
0
41
1.04
10
73.3621202986411
20
5.08619811243984
30
0
41
1.04
10
73.3662833411127
20
5.08967549447759
30
0
0
SPLINE
5
E0
100
AcDbEntity
8
1
62
256
6
ByLayer
370
13
48
1
60
0
100
AcDbSpline
70
4
71
3
72
10
73
6
40
0
40
0
40
0
40
0
40
0.294004497329316
40
0.708466231295042
40
1
40
1
40
1
40
1
41
1.04
10
73.3662838230424
20
5.08967589702498
30
0
41
1.04
10
73.3834224490755
20
5.10399122409928
30
0
41
1.04
10
73.4243030036623
20
5.06910480659668
30
0
41
1.04
10
73.4799781722875
20
4.79545252552383
30
0
41
1.04
10
73.517798403391
20
4.48051355352053
30
0
41
1.04
10
73.5331938971348
20
4.3327968246797
30
0
0
SPLINE
5
E1
100
AcDbEntity
8
1
62
256
6
ByLayer
370
13
48
1
60
0
100
AcDbSpline
70
4
71
3
72
9
73
5
40
0
40
0
40
0
40
0
40
0.28479693137591
40
1
40
1
40
1
40
1
41
1
10
74.7320755795612
20
5.03776252149797
30
0
41
1
10
74.7486662302214
20
4.99328952783588
30
0
41
1
10
74.8075027897782
20
4.74258529242837
30
0
41
1
10
74.8679951983516
20
4.14230737089298
30
0
41
1
10
74.9118893063984
20
3.57074572404181
30
0
0
SPLINE
5
E2
100
AcDbEntity
8
1
62
256
6
ByLayer
370
18
48
1
60
0
100
AcDbSpline
70
4
71
3
72
28
73
24
40
0
40
0
40
0
40
0
40
0.128238198335022
40
0.128238198335022
40
0.256476396670044
40
0.256476396670044
40
0.384714595005066
40
0.384714595005066
40
0.448833694172577
40
0.448833694172577
40
0.480893243756332
40
0.480893243756332
40
0.512952793340087
40
0.512952793340087
40
0.641190991675108
40
0.641190991675108
40
0.769429190010129
40
0.769429190010129
40
0.89766738834515
40
0.89766738834515
40
0.96178648751266
40
0.96178648751266
40
1
40
1
40
1
40
1
41
1
10
74.1473110517164
20
4.64844980534227
30
0
41
1
10
74.1388725550239
20
4.76696672145764
30
0
41
1
10
74.1304718924148
20
4.87835115673712
30
0
41
1
10
74.1137183547908
20
5.08724818806908
30
0
41
1
10
74.1053664005078
20
5.18475991006358
30
0
41
1
10
74.0886800304734
20
5.36595925352276
30
0
41
1
10
74.0803465712138
20
5.449647351019
30
0
41
1
10
74.0678128654018
20
5.56459591975866
30
0
41
1
10
74.0636290405644
20
5.60114551281367
30
0
41
1
10
74.0573343215185
20
5.6532673850237
30
0
41
1
10
74.0552376297142
20
5.6701514058326
30
0
41
1
10
74.0510538840986
20
5.70286756126751
30
0
41
1
10
74.0489652356918
20
5.71871265787422
30
0
41
1
10
74.0385309295604
20
5.79539703670869
30
0
41
1
10
74.0302056951108
20
5.84862867236075
30
0
41
1
10
74.0135273397001
20
5.93921209461257
30
0
41
1
10
74.0051758295565
20
5.97656335401018
30
0
41
1
10
73.9885090942645
20
6.03534967811032
30
0
41
1
10
73.9802306737603
20
6.05678576809277
30
0
41
1
10
73.9677363082236
20
6.07668166121189
30
0
41
1
10
73.9635482736519
20
6.08126733397407
30
0
41
1
10
73.9568597956177
20
6.08523333900337
30
0
41
1
10
73.9543598071293
20
6.08597301257112
30
0
41
1
10
73.9518557871372
20
6.08597321838181
30
0
0
SPLINE
5
E3
100
AcDbEntity
8
1
62
256
6
ByLayer
370
18
48
1
60
0
100
AcDbSpline
70
4
71
3
72
29
73
25
40
0
40
0
40
0
40
0
40
0.0338489877323186
40
0.0338489877323186
40
0.171870560913418
40
0.309892134094517
40
0.309892134094517
40
0.378902920685066
40
0.378902920685066
40
0.41340831398034
40
0.41340831398034
40
0.447913707275615
40
0.447913707275615
40
0.585935280456711
40
0.585935280456711
40
0.723956853637808
40
0.723956853637808
40
0.861978426818904
40
0.861978426818904
40
0.896483820114178
40
0.896483820114178
40
0.930989213409452
40
0.930989213409452
40
1
40
1
40
1
40
1
41
1
10
74.1390683447833
20
6.06662843579778
30
0
41
1
10
74.1411269174954
20
6.0630661527801
30
0
41
1
10
74.1431890505827
20
6.05901603002502
30
0
41
1
10
74.1536798041366
20
6.03599160016711
30
0
41
1
10
74.1706594465344
20
5.98290091267285
30
0
41
1
10
74.1877727035389
20
5.89771867522697
30
0
41
1
10
74.2005425858698
20
5.82154957322177
30
0
41
1
10
74.2047877169982
20
5.79410968230482
30
0
41
1
10
74.2111184183125
20
5.74981353965256
30
0
41
1
10
74.2132180065129
20
5.73454997574751
30
0
41
1
10
74.2173873285992
20
5.70312598150187
30
0
41
1
10
74.2194593738016
20
5.68695205396671
30
0
41
1
10
74.229772027647
20
5.60379457053844
30
0
41
1
10
74.2378752619049
20
5.52996164252355
30
0
41
1
10
74.2540942102511
20
5.36800709573507
30
0
41
1
10
74.2622090150011
20
5.27988494808224
30
0
41
1
10
74.278635914697
20
5.08932696145098
30
0
41
1
10
74.2869475302371
20
4.98689199295859
30
0
41
1
10
74.2975144728783
20
4.84966699955436
30
0
41
1
10
74.2996365078355
20
4.82176202449625
30
0
41
1
10
74.3038983540522
20
4.76502243969216
30
0
41
1
10
74.3060358051194
20
4.73621871940836
30
0
41
1
10
74.3124530539883
20
4.64870365479061
30
0
41
1
10
74.3167437167371
20
4.58881193164689
30
0
41
1
10
74.3210444050675
20
4.5273774500285
30
0
0
SPLINE
5
E4
100
AcDbEntity
8
1
62
256
6
ByLayer
370
18
48
1
60
0
100
AcDbSpline
70
4
71
3
72
8
73
4
40
0
40
0
40
0
40
0
40
1
40
1
40
1
40
1
41
1
10
42.4866098959971
20
3.32383966402213
30
0
41
1
10
42.3424543881944
20
3.25711450984585
30
0
41
1
10
42.1963593079981
20
3.19026563097125
30
0
41
1
10
42.0477830927189
20
3.12465223182875
30
0
0
SPLINE
5
E5
100
AcDbEntity
8
1
62
256
6
ByLayer
370
18
48
1
60
0
100
AcDbSpline
70
4
71
3
72
10
73
6
40
0
40
0
40
0
40
0
40
0.467801999593157
40
0.467801999593157
40
1
40
1
40
1
40
1
41
1
10
37.9546796053698
20
4.35000136984991
30
0
41
1
10
38.1070004965297
20
4.34990631797447
30
0
41
1
10
38.2605281175044
20
4.34146010441526
30
0
41
1
10
38.5902715103496
20
4.30626582925603
30
0
41
1
10
38.7667107592586
20
4.27713150992727
30
0
41
1
10
38.9440651401288
20
4.23751497769311
30
0
0
SPLINE
5
E6
100
AcDbEntity
8
1
62
256
6
ByLayer
370
13
48
1
60
0
100
AcDbSpline
70
4
71
3
72
9
73
5
40
0
40
0
40
0
40
0
40
0.72856348503596
40
1
40
1
40
1
40
1
41
1
10
75.3453673322189
20
-3.58179611840785
30
0
41
1
10
75.3883966908873
20
-4.14171196515684
30
0
41
1
10
75.4475527605344
20
-4.73416135249528
30
0
41
1
10
75.5084132446527
20
-4.99641209164278
30
0
41
1
10
75.5250333487692
20
-5.04072466599854
30
0
0
SPLINE
5
E7
100
AcDbEntity
8
1
62
256
6
ByLayer
370
18
48
1
60
0
100
AcDbSpline
70
4
71
3
72
8
73
4
40
0
40
0
40
0
40
0
40
1
40
1
40
1
40
1
41
1
10
82.3999947946078
20
-2.48959432252781
30
0
41
1
10
82.4007284357943
20
-2.37896808171968
30
0
41
1
10
82.4005751511408
20
-2.266579836483
30
0
41
1
10
82.3999761936497
20
-2.15224552829164
30
0
0
SPLINE
5
E8
100
AcDbEntity
8
1
62
256
6
ByLayer
370
18
48
1
60
0
100
AcDbSpline
70
4
71
3
72
10
73
6
40
0
40
0
40
0
40
0
40
0.0086954758729823
40
0.478213937546284
40
1
40
1
40
1
40
1
41
1
10
83.0000000000001
20
-0.128605603588881
30
0
41
1
10
83.0000000000001
20
-0.135951337904572
30
0
41
1
10
83.0000000000001
20
-0.539970649429762
30
0
41
1
10
82.9999999999997
20
-1.38835917476254
30
0
41
1
10
83.0000000000001
20
-2.15856345449305
30
0
41
1
10
83.0000000000001
20
-2.52538489881206
30
0
0
SPLINE
5
E9
100
AcDbEntity
8
1
62
256
6
ByLayer
370
18
48
1
60
0
100
AcDbSpline
70
4
71
3
72
27
73
23
40
0
40
0
40
0
40
0
40
0.124999999999999
40
0.124999999999999
40
0.249999999999999
40
0.249999999999999
40
0.374999999999998
40
0.374999999999998
40
0.437499999999998
40
0.437499999999998
40
0.468749999999998
40
0.468749999999998
40
0.499999999999998
40
0.499999999999998
40
0.624999999999998
40
0.749999999999999
40
0.749999999999999
40
0.874999999999999
40
0.874999999999999
40
0.9375
40
0.9375
40
1
40
1
40
1
40
1
41
1
10
74.7342034047929
20
-3.6456241510127
30
0
41
1
10
74.742661057944
20
-3.79273312693314
30
0
41
1
10
74.7510642587819
20
-3.93387455350026
30
0
41
1
10
74.7677672814906
20
-4.20455299207913
30
0
41
1
10
74.7760556502826
20
-4.33408958997296
30
0
41
1
10
74.7926147608223
20
-4.58159703524478
30
0
41
1
10
74.8008888595136
20
-4.69956816614697
30
0
41
1
10
74.8133765191537
20
-4.86766943783923
30
0
41
1
10
74.8175516881033
20
-4.92222507381715
30
0
41
1
10
74.8238429131008
20
-5.00179734951345
30
0
41
1
10
74.8259404575959
20
-5.02788961531468
30
0
41
1
10
74.8301268619736
20
-5.07908047701835
30
0
41
1
10
74.8322174287737
20
-5.10420072373026
30
0
41
1
10
74.8426604221145
20
-5.22744817153935
30
0
41
1
10
74.8593083884833
20
-5.40960962802185
30
0
41
1
10
74.8759725123041
20
-5.56235195419833
30
0
41
1
10
74.8927006174526
20
-5.70035151242485
30
0
41
1
10
74.9010947161236
20
-5.76198079630436
30
0
41
1
10
74.9137806897626
20
-5.84307149312829
30
0
41
1
10
74.9180338176906
20
-5.8682411198798
30
0
41
1
10
74.9265311903588
20
-5.91442648127253
30
0
41
1
10
74.9307791193847
20
-5.93547307050582
30
0
41
1
10
74.9350266061999
20
-5.95448088387167
30
0
0
SPLINE
5
EA
100
AcDbEntity
8
1
62
256
6
ByLayer
370
18
48
1
60
0
100
AcDbSpline
70
4
71
3
72
26
73
22
40
0
40
0
40
0
40
0
40
0.125
40
0.125
40
0.250000000000001
40
0.375000000000001
40
0.375000000000001
40
0.437500000000001
40
0.437500000000001
40
0.468750000000001
40
0.468750000000001
40
0.500000000000001
40
0.625000000000001
40
0.625000000000001
40
0.750000000000001
40
0.750000000000001
40
0.875
40
0.875
40
0.9375
40
0.9375
40
1
40
1
40
1
40
1
41
1
10
74.7593140643163
20
-5.91314296698602
30
0
41
1
10
74.7508233342396
20
-5.86967865759394
30
0
41
1
10
74.7425020714875
20
-5.81844252172795
30
0
41
1
10
74.7260247749548
20
-5.70085426559501
30
0
41
1
10
74.7096824965413
20
-5.56814796049832
30
0
41
1
10
74.693234555077
20
-5.40532058487932
30
0
41
1
10
74.6807702339472
20
-5.27167146499664
30
0
41
1
10
74.6765945552764
20
-5.22519742375073
30
0
41
1
10
74.6702924164472
20
-5.1525427787831
30
0
41
1
10
74.6681905895392
20
-5.12789432136822
30
0
41
1
10
74.6639921329977
20
-5.07784035143891
30
0
41
1
10
74.6535028287667
20
-4.95073484605564
30
0
41
1
10
74.6430364383218
20
-4.81390152404097
30
0
41
1
10
74.6263069583627
20
-4.58278663996893
30
0
41
1
10
74.6179522880583
20
-4.46113789273309
30
0
41
1
10
74.6012668332262
20
-4.20562799903718
30
0
41
1
10
74.5929267430233
20
-4.0717678145611
30
0
41
1
10
74.5803284849522
20
-3.8615745653544
30
0
41
1
10
74.5761079084116
20
-3.78981823589245
30
0
41
1
10
74.5676828965999
20
-3.64406936013452
30
0
41
1
10
74.5634741141432
20
-3.57000824447778
30
0
41
1
10
74.5592651973088
20
-3.49476548676108
30
0
0
SPLINE
5
EB
100
AcDbEntity
8
1
62
256
6
ByLayer
370
13
48
1
60
0
100
AcDbSpline
70
4
71
3
72
9
73
5
40
0
40
0
40
0
40
0
40
0.403897534661092
40
1
40
1
40
1
40
1
41
1.04
10
73.9667875131607
20
-2.61638484978978
30
0
41
1.04
10
73.9920022147426
20
-3.01224086553952
30
0
41
1.04
10
74.0530148211663
20
-3.89265552545205
30
0
41
1.04
10
74.1118822407608
20
-4.48155802713661
30
0
41
1.04
10
74.14636726775
20
-4.71979919708416
30
0
0
SPLINE
5
EC
100
AcDbEntity
8
1
62
256
6
ByLayer
370
13
48
1
60
0
100
AcDbSpline
70
4
71
3
72
9
73
5
40
0
40
0
40
0
40
0
40
0.150968311974708
40
1
40
1
40
1
40
1
41
1.04
10
75.1927981161365
20
4.96147711125437
30
0
41
1.04
10
75.201609505934
20
4.92515616830125
30
0
41
1.04
10
75.260252231235
20
4.6338897599921
30
0
41
1.04
10
75.3205274885862
20
3.99765366282392
30
0
41
1.04
10
75.3725241406052
20
3.2679467753061
30
0
0
SPLINE
5
ED
100
AcDbEntity
8
1
62
256
6
ByLayer
370
13
48
1
60
0
100
AcDbSpline
70
4
71
3
72
9
73
5
40
0
40
0
40
0
40
0
40
0.641904655775894
40
1
40
1
40
1
40
1
41
1
10
76.5713251323437
20
4.54393391544733
30
0
41
1
10
76.6112469606823
20
4.2134317308747
30
0
41
1
10
76.672251322048
20
3.48707844851984
30
0
41
1
10
76.7306390566673
20
2.58194816442159
30
0
41
1
10
76.7512773699367
20
2.243379832996
30
0
0
SPLINE
5
EE
100
AcDbEntity
8
1
62
256
6
ByLayer
370
18
48
1
60
0
100
AcDbSpline
70
4
71
3
72
27
73
23
40
0
40
0
40
0
40
0
40
0.125000000000001
40
0.125000000000001
40
0.250000000000001
40
0.250000000000001
40
0.375000000000002
40
0.375000000000002
40
0.437500000000002
40
0.437500000000002
40
0.468750000000002
40
0.468750000000002
40
0.500000000000002
40
0.500000000000002
40
0.625000000000002
40
0.750000000000001
40
0.750000000000001
40
0.875
40
0.875
40
0.9375
40
0.9375
40
1
40
1
40
1
40
1
41
1
10
75.986786556935
20
3.17316130591462
30
0
41
1
10
75.978213390262
20
3.32988917668666
30
0
41
1
10
75.9696144023056
20
3.48123462396734
30
0
41
1
10
75.9525873807175
20
3.77346536449542
30
0
41
1
10
75.9442239249594
20
3.91435224768074
30
0
41
1
10
75.9277219343517
20
4.18570130160219
30
0
41
1
10
75.9195542192808
20
4.31616275533457
30
0
41
1
10
75.907241126358
20
4.50386536897045
30
0
41
1
10
75.9031267816283
20
4.56509932818099
30
0
41
1
10
75.8969199024779
20
4.65490957931371
30
0
41
1
10
75.8948502501077
20
4.68443050286325
30
0
41
1
10
75.890714829539
20
4.74253153096495
30
0
41
1
10
75.8886477639999
20
4.77113043569139
30
0
41
1
10
75.8783092240502
20
4.91188773997479
30
0
41
1
10
75.8617398994422
20
5.1228092383829
30
0
41
1
10
75.8449022215511
20
5.3057614808794
30
0
41
1
10
75.8279228215544
20
5.4746964929721
30
0
41
1
10
75.8193615338092
20
5.55215626708383
30
0
41
1
10
75.8064916650331
20
5.65755148961023
30
0
41
1
10
75.8021910454814
20
5.69092861199823
30
0
41
1
10
75.79366459604
20
5.75359971285076
30
0
41
1
10
75.789438036247
20
5.78293656754533
30
0
41
1
10
75.7852512602151
20
5.8102828413613
30
0
0
SPLINE
5
EF
100
AcDbEntity
8
1
62
256
6
ByLayer
370
18
48
1
60
0
100
AcDbSpline
70
4
71
3
72
26
73
22
40
0
40
0
40
0
40
0
40
0.125000000000001
40
0.125000000000001
40
0.250000000000001
40
0.375000000000002
40
0.375000000000002
40
0.437500000000002
40
0.437500000000002
40
0.468750000000003
40
0.468750000000003
40
0.500000000000003
40
0.625000000000002
40
0.625000000000002
40
0.750000000000001
40
0.750000000000001
40
0.875000000000001
40
0.875000000000001
40
0.9375
40
0.9375
40
1
40
1
40
1
40
1
41
1
10
75.960923684668
20
5.75242420437544
30
0
41
1
10
75.9694063372183
20
5.69245111193879
30
0
41
1
10
75.9778061925426
20
5.62503989156639
30
0
41
1
10
75.994261416429
20
5.47574800755885
30
0
41
1
10
76.0104536006044
20
5.31198526717361
30
0
41
1
10
76.0266626507633
20
5.11939932805092
30
0
41
1
10
76.0389873784816
20
4.963932344037
30
0
41
1
10
76.0431231345725
20
4.91026932814663
30
0
41
1
10
76.0493831967419
20
4.82695977481237
30
0
41
1
10
76.0514748401326
20
4.79877870513394
30
0
41
1
10
76.0556592164864
20
4.74174225312015
30
0
41
1
10
76.066129797195
20
4.59735407927019
30
0
41
1
10
76.0766779903535
20
4.44409605222984
30
0
41
1
10
76.0936567674503
20
4.18777902596753
30
0
41
1
10
76.1021979022914
20
4.05406807001862
30
0
41
1
10
76.1192443848827
20
3.77551208237443
30
0
41
1
10
76.1277187323622
20
3.63066651221828
30
0
41
1
10
76.1403885493036
20
3.40482257854273
30
0
41
1
10
76.1446142134142
20
3.32797834275971
30
0
41
1
10
76.1530194990124
20
3.17235882933176
30
0
41
1
10
76.1572029966901
20
3.09352010749939
30
0
41
1
10
76.1613762865249
20
3.01365636653213
30
0
0
SPLINE
5
F0
100
AcDbEntity
8
1
62
256
6
ByLayer
370
18
48
1
60
0
100
AcDbSpline
70
4
71
3
72
29
73
25
40
0
40
0
40
0
40
0
40
0.124999999999998
40
0.124999999999998
40
0.156249999999997
40
0.156249999999997
40
0.187499999999997
40
0.249999999999997
40
0.249999999999997
40
0.374999999999996
40
0.374999999999996
40
0.499999999999996
40
0.499999999999996
40
0.624999999999996
40
0.624999999999996
40
0.656249999999996
40
0.656249999999996
40
0.687499999999996
40
0.687499999999996
40
0.749999999999996
40
0.749999999999996
40
0.874999999999998
40
0.874999999999998
40
1
40
1
40
1
40
1
41
1
10
80.8804935173496
20
-1.32059893708058
30
0
41
1
10
80.8725719915235
20
-1.18726404665586
30
0
41
1
10
80.8646022170677
20
-1.05272901083973
30
0
41
1
10
80.8545401980472
20
-0.883067668652785
30
0
41
1
10
80.8525223007956
20
-0.849040952526508
30
0
41
1
10
80.8484896258113
20
-0.781025386813411
30
0
41
1
10
80.8424421773566
20
-0.679004906486
30
0
41
1
10
80.8364029361932
20
-0.57699272831141
30
0
41
1
10
80.8243519578617
20
-0.372978301289891
30
0
41
1
10
80.8163592909711
20
-0.236981629405193
30
0
41
1
10
80.8005652825455
20
0.0349924311746292
30
0
41
1
10
80.7927523018177
20
0.170969148757479
30
0
41
1
10
80.7771711812092
20
0.44289441826092
30
0
41
1
10
80.7693953556458
20
0.578842498275264
30
0
41
1
10
80.7595933023573
20
0.748752951858904
30
0
41
1
10
80.7576296978308
20
0.782733865943015
30
0
41
1
10
80.75369589736
20
0.850693317258873
30
0
41
1
10
80.7517253479525
20
0.884677768070247
30
0
41
1
10
80.7458289054646
20
0.986184625293419
30
0
41
1
10
80.7419097453634
20
1.05340876507211
30
0
41
1
10
80.7301785067751
20
1.25376421758648
30
0
41
1
10
80.7223934032567
20
1.38558163211331
30
0
41
1
10
80.7068199843265
20
1.64576301499088
30
0
41
1
10
80.6990307578972
20
1.77412698697447
30
0
41
1
10
80.6911953380495
20
1.90074097782937
30
0
0
SPLINE
5
F1
100
AcDbEntity
8
1
62
256
6
ByLayer
370
18
48
1
60
0
100
AcDbSpline
70
4
71
3
72
8
73
4
40
0
40
0
40
0
40
0
40
1
40
1
40
1
40
1
41
1
10
82.3999761936494
20
-2.15224552825845
30
0
41
1
10
82.3987378648179
20
-2.26681679683497
30
0
41
1
10
82.398933115119
20
-2.37927099501499
30
0
41
1
10
82.3999600020995
20
-2.4895776402746
30
0
0
SPLINE
5
F2
100
AcDbEntity
8
1
62
256
6
ByLayer
370
18
48
1
60
0
100
AcDbSpline
70
4
71
3
72
9
73
5
40
0
40
0
40
0
40
0
40
0.502826079990823
40
1
40
1
40
1
40
1
41
1
10
82.3999761936494
20
-2.15224552829173
30
0
41
1
10
82.3999650913715
20
-1.75370168766443
30
0
41
1
10
82.3999071951553
20
-0.90991719094248
30
0
41
1
10
82.3999404990217
20
-0.0263764071033279
30
0
41
1
10
82.3999437600541
20
0.40494316986721
30
0
0
SPLINE
5
F3
100
AcDbEntity
8
1
62
256
6
ByLayer
370
18
48
1
60
0
100
AcDbSpline
70
4
71
3
72
8
73
4
40
0
40
0
40
0
40
0
40
1
40
1
40
1
40
1
41
1
10
67
20
0.325462309935546
30
0
41
1
10
66.9808398681971
20
0.323359696144763
30
0
41
1
10
66.9616797625835
20
0.321245291427289
30
0
41
1
10
66.942519684468
20
0.319119060719515
30
0
0
SPLINE
5
F4
100
AcDbEntity
8
1
62
256
6
ByLayer
370
13
48
1
60
0
100
AcDbSpline
70
4
71
3
72
10
73
6
40
0
40
0
40
0
40
0
40
0.11611983776353
40
0.804553795016271
40
1
40
1
40
1
40
1
41
1
10
80.2495509934591
20
2.27104986575424
30
0
41
1
10
80.2558910124324
20
2.16723103357282
30
0
41
1
10
80.3002900261798
20
1.42778257687138
30
0
41
1
10
80.3597728566083
20
0.336192376502453
30
0
41
1
10
80.4169851573758
20
-0.706910751164571
30
0
41
1
10
80.4298324380728
20
-0.938111129080369
30
0
0
SPLINE
5
F5
100
AcDbEntity
8
1
62
256
6
ByLayer
370
13
48
1
60
0
100
AcDbSpline
70
4
71
3
72
9
73
5
40
0
40
0
40
0
40
0
40
0.534145032682294
40
1
40
1
40
1
40
1
41
1
10
73.5063096642736
20
-2.25983340699051
30
0
41
1
10
73.5397683564992
20
-2.80773289094853
30
0
41
1
10
73.6003589600168
20
-3.71101611140088
30
0
41
1
10
73.6588523076467
20
-4.32848871720341
30
0
41
1
10
73.6857186829382
20
-4.54993003261612
30
0
0
SPLINE
5
F6
100
AcDbEntity
8
1
62
256
6
ByLayer
370
18
48
1
60
0
100
AcDbSpline
70
4
71
3
72
28
73
24
40
0
40
0
40
0
40
0
40
0.125
40
0.125
40
0.250000000000001
40
0.250000000000001
40
0.312500000000001
40
0.343750000000001
40
0.343750000000001
40
0.375000000000001
40
0.375000000000001
40
0.5
40
0.5
40
0.625
40
0.625
40
0.749999999999999
40
0.749999999999999
40
0.874999999999999
40
0.874999999999999
40
0.906249999999999
40
0.906249999999999
40
0.9375
40
1
40
1
40
1
40
1
41
1
10
80.185739384903
20
2.38511490168054
30
0
41
1
10
80.1934374420549
20
2.25909264155166
30
0
41
1
10
80.2010824733456
20
2.13079089023273
30
0
41
1
10
80.2163200260456
20
1.8696964639434
30
0
41
1
10
80.2239194079337
20
1.73690325250061
30
0
41
1
10
80.2353916950216
20
1.53429188602286
30
0
41
1
10
80.2411457297129
20
1.43212930856026
30
0
41
1
10
80.2469445540147
20
1.32865702195011
30
0
41
1
10
80.2508224982174
20
1.25938065199881
30
0
41
1
10
80.2527697467013
20
1.22455482436649
30
0
41
1
10
80.2625111299967
20
1.05022550787371
30
0
41
1
10
80.2703273807779
20
0.910359616279663
30
0
41
1
10
80.2859320148537
20
0.629851132194403
30
0
41
1
10
80.2937099724667
20
0.489209011619579
30
0
41
1
10
80.3091202160741
20
0.207160263236176
30
0
41
1
10
80.3167514217343
20
0.0657535850630779
30
0
41
1
10
80.3318423962326
20
-0.217831419992791
30
0
41
1
10
80.3392798034027
20
-0.360010462685125
30
0
41
1
10
80.3486123871577
20
-0.53822893880735
30
0
41
1
10
80.3504813420876
20
-0.573889787881825
30
0
41
1
10
80.3542195581117
20
-0.645051636834467
30
0
41
1
10
80.359831925808
20
-0.751631647031445
30
0
41
1
10
80.3654776430253
20
-0.857722170064676
30
0
41
1
10
80.3692627882143
20
-0.928231489224032
30
0
0
SPLINE
5
F7
100
AcDbEntity
8
1
62
256
6
ByLayer
370
18
48
1
60
0
100
AcDbSpline
70
4
71
3
72
24
73
20
40
0
40
0
40
0
40
0
40
0.125
40
0.125
40
0.25
40
0.374999999999999
40
0.374999999999999
40
0.4375
40
0.4375
40
0.5
40
0.5
40
0.625
40
0.625
40
0.75
40
0.875
40
0.875
40
0.9375
40
0.9375
40
1
40
1
40
1
40
1
41
1
10
79.3323425562968
20
-0.0797431330591678
30
0
41
1
10
79.3249686843259
20
0.0783427445685163
30
0
41
1
10
79.3175985077741
20
0.235838770336784
30
0
41
1
10
79.3028641817749
20
0.549671545624705
30
0
41
1
10
79.2881572753473
20
0.862349012054324
30
0
41
1
10
79.273658265968
20
1.1727196889849
30
0
41
1
10
79.2627511861184
20
1.40460581242993
30
0
41
1
10
79.259103632558
20
1.48188407434091
30
0
41
1
10
79.2518446861053
20
1.63473234751103
30
0
41
1
10
79.2482263647667
20
1.71045093813203
30
0
41
1
10
79.2373758484082
20
1.93551464957469
30
0
41
1
10
79.2301340551852
20
2.08276166129667
30
0
41
1
10
79.2155954834396
20
2.37176469517254
30
0
41
1
10
79.2010298117979
20
2.65529682428888
30
0
41
1
10
79.1864759106314
20
2.92790790829071
30
0
41
1
10
79.1755479152755
20
3.12814888321191
30
0
41
1
10
79.1719008269034
20
3.19423463497481
30
0
41
1
10
79.1646323433397
20
3.32414934864755
30
0
41
1
10
79.1610044137356
20
3.38807902363473
30
0
41
1
10
79.1573740741019
20
3.45097830313026
30
0
0
SPLINE
5
F8
100
AcDbEntity
8
1
62
256
6
ByLayer
370
13
48
1
60
0
100
AcDbSpline
70
4
71
3
72
10
73
6
40
0
40
0
40
0
40
0
40
0.15723349003964
40
0.841061320474074
40
1
40
1
40
1
40
1
41
1.04
10
78.8709609302252
20
3.28978837329086
30
0
41
1.04
10
78.8808256373982
20
3.15195153915331
30
0
41
1.04
10
78.9331807924295
20
2.38731876069195
30
0
41
1.04
10
78.9930410433598
20
1.33948388698535
30
0
41
1.04
10
79.0419460115479
20
0.448306174033665
30
0
41
1.04
10
79.0511132101927
20
0.280798712380285
30
0
0
SPLINE
5
F9
100
AcDbEntity
8
1
62
256
6
ByLayer
370
18
48
1
60
0
100
AcDbSpline
70
4
71
3
72
8
73
4
40
0
40
0
40
0
40
0
40
1
40
1
40
1
40
1
41
1
10
67.0046548046782
20
0.242558024152345
30
0
41
1
10
67.0031022813415
20
0.270196031174152
30
0
41
1
10
67.0015504650867
20
0.297830782844756
30
0
41
1
10
67
20
0.325462309935233
30
0
0
SPLINE
5
FA
100
AcDbEntity
8
1
62
256
6
ByLayer
370
13
48
1
60
0
100
AcDbSpline
70
4
71
3
72
10
73
6
40
0
40
0
40
0
40
0
40
0.125436855284864
40
0.440700403555972
40
1
40
1
40
1
40
1
41
1
10
67.9888016578622
20
2.44552913749536
30
0
41
1
10
67.9966852076877
20
2.31911710149078
30
0
41
1
10
68.0241944777409
20
1.86727966776829
30
0
41
1
10
68.08519796746
20
0.794376861696861
30
0
41
1
10
68.1360909279062
20
-0.146445828412624
30
0
41
1
10
68.16794407525
20
-0.723000649316248
30
0
0
SPLINE
5
FB
100
AcDbEntity
8
1
62
256
6
ByLayer
370
18
48
1
60
0
100
AcDbSpline
70
4
71
3
72
27
73
23
40
0
40
0
40
0
40
0
40
0.125
40
0.125
40
0.25
40
0.25
40
0.374999999999999
40
0.374999999999999
40
0.406249999999999
40
0.406249999999999
40
0.437499999999998
40
0.499999999999999
40
0.499999999999999
40
0.624999999999999
40
0.749999999999999
40
0.749999999999999
40
0.875
40
0.875
40
0.90625
40
0.90625
40
0.9375
40
1
40
1
40
1
40
1
41
1
10
67.7118804742248
20
2.96514224120517
30
0
41
1
10
67.719301900453
20
2.83294032682917
30
0
41
1
10
67.7266986400371
20
2.69768232764611
30
0
41
1
10
67.7414354831197
20
2.42113900637111
30
0
41
1
10
67.7487712944659
20
2.27985316490657
30
0
41
1
10
67.7633568740881
20
1.99120558327695
30
0
41
1
10
67.7706236499955
20
1.84384600501855
30
0
41
1
10
67.7797704766016
20
1.65574955721198
30
0
41
1
10
67.7816048511452
20
1.61789398214876
30
0
41
1
10
67.7852656455372
20
1.54211652875986
30
0
41
1
10
67.7907485215022
20
1.42827529790736
30
0
41
1
10
67.7962135645994
20
1.31391463689553
30
0
41
1
10
67.8071298810805
20
1.08451162724961
30
0
41
1
10
67.8216456463203
20
0.776825382835
30
0
41
1
10
67.8361088514524
20
0.465557808144496
30
0
41
1
10
67.8505919747494
20
0.152488090075309
30
0
41
1
10
67.8578437861206
20
-0.0049477025623617
30
0
41
1
10
67.8669662303442
20
-0.202899748698684
30
0
41
1
10
67.8687948361538
20
-0.242573716831799
30
0
41
1
10
67.8724419863044
20
-0.321665110870981
30
0
41
1
10
67.8779035758191
20
-0.440046776962959
30
0
41
1
10
67.8833436463168
20
-0.55766962458128
30
0
41
1
10
67.8869658109854
20
-0.635752397482406
30
0
0
SPLINE
5
FC
100
AcDbEntity
8
1
62
256
6
ByLayer
370
13
48
1
60
0
100
AcDbSpline
70
4
71
3
72
9
73
5
40
0
40
0
40
0
40
0
40
0.509700468315518
40
1
40
1
40
1
40
1
41
1.04
10
77.0320132672177
20
4.34349755606556
30
0
41
1.04
10
77.0637690446087
20
4.03949605853201
30
0
41
1.04
10
77.1250309291123
20
3.28680627096619
30
0
41
1.04
10
77.1836250142948
20
2.35052619557184
30
0
41
1.04
10
77.2118853533745
20
1.86972476303473
30
0
0
SPLINE
5
FD
100
AcDbEntity
8
1
62
256
6
ByLayer
370
13
48
1
60
0
100
AcDbSpline
70
4
71
3
72
9
73
5
40
0
40
0
40
0
40
0
40
0.311030108191152
40
1
40
1
40
1
40
1
41
1.04
10
68.4493841207965
20
2.07978729881592
30
0
41
1.04
10
68.4689189489983
20
1.7531932116049
30
0
41
1.04
10
68.5306992170325
20
0.66798869994254
30
0
41
1.04
10
68.5891827771176
20
-0.422050751277981
30
0
41
1.04
10
68.6285163387389
20
-1.12451964359863
30
0
0
SPLINE
5
FE
100
AcDbEntity
8
1
62
256
6
ByLayer
370
18
48
1
60
0
100
AcDbSpline
70
4
71
3
72
28
73
24
40
0
40
0
40
0
40
0
40
0.125
40
0.125
40
0.15625
40
0.15625
40
0.1875
40
0.1875
40
0.25
40
0.25
40
0.374999999999999
40
0.499999999999999
40
0.499999999999999
40
0.624999999999998
40
0.624999999999998
40
0.656249999999998
40
0.656249999999998
40
0.687499999999998
40
0.687499999999998
40
0.749999999999999
40
0.749999999999999
40
0.874999999999999
40
1
40
1
40
1
40
1
41
1
10
69.0197153859875
20
-1.79125280081539
30
0
41
1
10
69.0111014988548
20
-1.6340163031345
30
0
41
1
10
69.0024424966878
20
-1.47426918967503
30
0
41
1
10
68.991498786937
20
-1.27137104750759
30
0
41
1
10
68.9893041414387
20
-1.23063041223079
30
0
41
1
10
68.9849017996744
20
-1.14882401375263
30
0
41
1
10
68.9826916735836
20
-1.1077129594639
30
0
41
1
10
68.976069657575
20
-0.984438695580138
30
0
41
1
10
68.9716597480369
20
-0.902217398834523
30
0
41
1
10
68.9584348841557
20
-0.655440686199768
30
0
41
1
10
68.9408130389569
20
-0.326104725195364
30
0
41
1
10
68.9231548827393
20
0.0038177482499577
30
0
41
1
10
68.9054550085678
20
0.334033381070441
30
0
41
1
10
68.8965849779658
20
0.499287798947677
30
0
41
1
10
68.8854483629618
20
0.706042816375884
30
0
41
1
10
68.883218518029
20
0.747403183775049
30
0
41
1
10
68.8787528579427
20
0.83014279618024
30
0
41
1
10
68.8765217136092
20
0.871435409393001
30
0
41
1
10
68.8698477454813
20
0.994787744893188
30
0
41
1
10
68.8654178028467
20
1.07644563596821
30
0
41
1
10
68.852170020151
20
1.31971572959767
30
0
41
1
10
68.8346123018537
20
1.63953880080353
30
0
41
1
10
68.8170440203868
20
1.95041367576368
30
0
41
1
10
68.8082658038932
20
2.10360066796619
30
0
0
SPLINE
5
FF
100
AcDbEntity
8
1
62
256
6
ByLayer
370
13
48
1
60
0
100
AcDbSpline
70
4
71
3
72
10
73
6
40
0
40
0
40
0
40
0
40
0.186573243788837
40
0.571035913971361
40
1
40
1
40
1
40
1
41
1
10
69.8278582664519
20
0.915541841041914
30
0
41
1
10
69.8387641517468
20
0.719595345645018
30
0
41
1
10
69.8723954800423
20
0.10877277176931
30
0
41
1
10
69.9328665763786
20
-1.00708153860018
30
0
41
1
10
69.9816034326459
20
-1.85727818278537
30
0
41
1
10
70.0071358500942
20
-2.27477213811258
30
0
0
SPLINE
5
100
100
AcDbEntity
8
1
62
256
6
ByLayer
370
18
48
1
60
0
100
AcDbSpline
70
4
71
3
72
26
73
22
40
0
40
0
40
0
40
0
40
0.125
40
0.125
40
0.15625
40
0.15625
40
0.1875
40
0.25
40
0.25
40
0.375
40
0.375
40
0.499999999999999
40
0.499999999999999
40
0.562499999999999
40
0.562499999999999
40
0.624999999999999
40
0.624999999999999
40
0.75
40
0.75
40
0.875
40
1
40
1
40
1
40
1
41
1
10
69.4047429098307
20
1.58036611361769
30
0
41
1
10
69.4122547850087
20
1.41930275938157
30
0
41
1
10
69.4197833522336
20
1.25570738912799
30
0
41
1
10
69.4292365090107
20
1.04795328718623
30
0
41
1
10
69.4311307900519
20
1.00620603078789
30
0
41
1
10
69.4349062947418
20
0.922782390972344
30
0
41
1
10
69.4405559737279
20
0.797622233420469
30
0
41
1
10
69.4461685566129
20
0.672388887638675
30
0
41
1
10
69.4573558000194
20
0.421826562423831
30
0
41
1
10
69.4647488208397
20
0.254656985382468
30
0
41
1
10
69.4795998444537
20
-0.0799259056054495
30
0
41
1
10
69.4870784344551
20
-0.247338246445594
30
0
41
1
10
69.4984379908396
20
-0.4986370318544
30
0
41
1
10
69.5022460612757
20
-0.582433480038873
30
0
41
1
10
69.5098908057085
20
-0.750088290925731
30
0
41
1
10
69.5137292207773
20
-0.833983756141436
30
0
41
1
10
69.5252291889859
20
-1.08553908430216
30
0
41
1
10
69.5327283122152
20
-1.25087194631129
30
0
41
1
10
69.5474594910285
20
-1.57694752309359
30
0
41
1
10
69.5619752679207
20
-1.89843218736757
30
0
41
1
10
69.5764763723204
20
-2.2108222395143
30
0
41
1
10
69.5838034142149
20
-2.36471421918338
30
0
0
SPLINE
5
101
100
AcDbEntity
8
1
62
256
6
ByLayer
370
13
48
1
60
0
100
AcDbSpline
70
4
71
3
72
9
73
5
40
0
40
0
40
0
40
0
40
0.628617306550093
40
1
40
1
40
1
40
1
41
1.04
10
72.1275306266464
20
-1.10844371593123
30
0
41
1.04
10
72.1638599667541
20
-1.75620736529871
30
0
41
1.04
10
72.2225862631343
20
-2.75624851489124
30
0
41
1.04
10
72.2839187677919
20
-3.59724553609244
30
0
41
1.04
10
72.3070707023733
20
-3.87343802384141
30
0
0
SPLINE
5
102
100
AcDbEntity
8
1
62
256
6
ByLayer
370
18
48
1
60
0
100
AcDbSpline
70
4
71
3
72
26
73
22
40
0
40
0
40
0
40
0
40
0.125
40
0.125
40
0.25
40
0.375
40
0.375
40
0.4375
40
0.4375
40
0.46875
40
0.46875
40
0.5
40
0.625
40
0.625
40
0.75
40
0.75
40
0.875
40
0.875
40
0.9375
40
0.9375
40
1
40
1
40
1
40
1
41
1
10
77.8257062980301
20
1.3749172760408
30
0
41
1
10
77.8173742794145
20
1.55385393612701
30
0
41
1
10
77.8090578956014
20
1.72970949074275
30
0
41
1
10
77.7923766512886
20
2.07542507082496
30
0
41
1
10
77.7756484912807
20
2.41514444395256
30
0
41
1
10
77.758775845914
20
2.74291302186794
30
0
41
1
10
77.7460735853529
20
2.98416544688715
30
0
41
1
10
77.7418316428851
20
3.06381941195818
30
0
41
1
10
77.7354586287459
20
3.18213244735392
30
0
41
1
10
77.7333376877965
20
3.22128082648507
30
0
41
1
10
77.7291119299445
20
3.29883662561482
30
0
41
1
10
77.7185804711487
20
3.49100449517079
30
0
41
1
10
77.7082179722208
20
3.67467337571787
30
0
41
1
10
77.6918558577315
20
3.95789991395139
30
0
41
1
10
77.6837956841779
20
4.09419120341943
30
0
41
1
10
77.6675846319483
20
4.35609286578978
30
0
41
1
10
77.6594320310287
20
4.48170386793086
30
0
41
1
10
77.6469799185452
20
4.66189022497394
30
0
41
1
10
77.6427859902253
20
4.7206699182376
30
0
41
1
10
77.6343675891411
20
4.83468249842269
30
0
41
1
10
77.6301390751205
20
4.88998093637156
30
0
41
1
10
77.6258893735589
20
4.94357878245523
30
0
0
SPLINE
5
103
100
AcDbEntity
8
1
62
256
6
ByLayer
370
18
48
1
60
0
100
AcDbSpline
70
4
71
3
72
24
73
20
40
0
40
0
40
0
40
0
40
0.125
40
0.125
40
0.250000000000001
40
0.375000000000001
40
0.375000000000001
40
0.437500000000001
40
0.437500000000001
40
0.500000000000002
40
0.500000000000002
40
0.625000000000001
40
0.625000000000001
40
0.750000000000001
40
0.875000000000001
40
0.875000000000001
40
0.9375
40
0.9375
40
1
40
1
40
1
40
1
41
1
10
72.9202789149859
20
-5.15798353297521
30
0
41
1
10
72.9118175839959
20
-5.06056864204371
30
0
41
1
10
72.9035147725187
20
-4.95678228281443
30
0
41
1
10
72.8870743256154
20
-4.73681791312259
30
0
41
1
10
72.8707767190012
20
-4.50446090446317
30
0
41
1
10
72.8543917391961
20
-4.24741476573371
30
0
41
1
10
72.84197163216
20
-4.04518259047066
30
0
41
1
10
72.8378102969666
20
-3.97619482705787
30
0
41
1
10
72.8294361529411
20
-3.8350029405529
30
0
41
1
10
72.8252501464732
20
-3.76324999785035
30
0
41
1
10
72.8127175352346
20
-3.54499379131968
30
0
41
1
10
72.8043937357771
20
-3.39532131812635
30
0
41
1
10
72.7877882622146
20
-3.08781989890119
30
0
41
1
10
72.7712139514267
20
-2.77216175143849
30
0
41
1
10
72.7545364847685
20
-2.44015794408796
30
0
41
1
10
72.7419190894695
20
-2.18486359898077
30
0
41
1
10
72.7376881154666
20
-2.09857079392316
30
0
41
1
10
72.7292338603483
20
-1.9249848413954
30
0
41
1
10
72.7250062871265
20
-1.8376074205853
30
0
41
1
10
72.7207737204189
20
-1.74964816233597
30
0
0
SPLINE
5
104
100
AcDbEntity
8
1
62
256
6
ByLayer
370
18
48
1
60
0
100
AcDbSpline
70
4
71
3
72
26
73
22
40
0
40
0
40
0
40
0
40
0.125
40
0.125
40
0.25
40
0.375000000000001
40
0.375000000000001
40
0.437500000000001
40
0.437500000000001
40
0.468750000000001
40
0.468750000000001
40
0.500000000000001
40
0.625000000000001
40
0.625000000000001
40
0.75
40
0.75
40
0.875
40
0.875
40
0.9375
40
0.9375
40
1
40
1
40
1
40
1
41
1
10
72.8948944349622
20
-1.92630229087359
30
0
41
1
10
72.9034131319458
20
-2.10043201998457
30
0
41
1
10
72.9118572811504
20
-2.27076576992161
30
0
41
1
10
72.9286328814836
20
-2.60404930921132
30
0
41
1
10
72.9452965359858
20
-2.92994763223246
30
0
41
1
10
72.9618934886971
20
-3.24112388050398
30
0
41
1
10
72.9743904231993
20
-3.46886812857127
30
0
41
1
10
72.9785643844576
20
-3.54384180406802
30
0
41
1
10
72.9848474796237
20
-3.65486246674755
30
0
41
1
10
72.986941111262
20
-3.69155051758898
30
0
41
1
10
72.9911178582234
20
-3.76410959727591
30
0
41
1
10
73.0015411969845
20
-3.94360708097125
30
0
41
1
10
73.0118945874756
20
-4.11372328106958
30
0
41
1
10
73.0284346735862
20
-4.37416114351544
30
0
41
1
10
73.0366846858882
20
-4.49850581231726
30
0
41
1
10
73.0532164131745
20
-4.73541859888712
30
0
41
1
10
73.0615043374938
20
-4.84798719308992
30
0
41
1
10
73.0740593583891
20
-5.00776921855342
30
0
41
1
10
73.0782719393096
20
-5.05959605954845
30
0
41
1
10
73.0866988269202
20
-5.15953525668499
30
0
41
1
10
73.090916721483
20
-5.20769943031937
30
0
41
1
10
73.0951442479467
20
-5.2540645458424
30
0
0
SPLINE
5
105
100
AcDbEntity
8
1
62
256
6
ByLayer
370
18
48
1
60
0
100
AcDbSpline
70
4
71
3
72
26
73
22
40
0
40
0
40
0
40
0
40
0.125000000000001
40
0.125000000000001
40
0.250000000000002
40
0.375000000000003
40
0.375000000000003
40
0.437500000000003
40
0.437500000000003
40
0.468750000000003
40
0.468750000000003
40
0.500000000000003
40
0.500000000000003
40
0.625000000000002
40
0.750000000000002
40
0.750000000000002
40
0.875000000000001
40
0.875000000000001
40
0.9375
40
0.9375
40
1
40
1
40
1
40
1
41
1
10
77.7994961171023
20
4.83423900244009
30
0
41
1
10
77.8080011315225
20
4.72260448950539
30
0
41
1
10
77.8164312566897
20
4.60512694451938
30
0
41
1
10
77.8331602585748
20
4.35880939341862
30
0
41
1
10
77.8497842726033
20
4.10112824112403
30
0
41
1
10
77.86641972889
20
3.8208126843931
30
0
41
1
10
77.8789623896311
20
3.60191477729671
30
0
41
1
10
77.8831540095683
20
3.5275030812476
30
0
41
1
10
77.8894617796475
20
3.41367420473517
30
0
41
1
10
77.891563133543
20
3.37544416386291
30
0
41
1
10
77.8957536282689
20
3.29860190863752
30
0
41
1
10
77.8978444776807
20
3.25996066100456
30
0
41
1
10
77.9082810749781
20
3.06566424991897
30
0
41
1
10
77.9248666168748
20
2.74782666324683
30
0
41
1
10
77.9414475658596
20
2.41637238075742
30
0
41
1
10
77.9581188332943
20
2.07809830534273
30
0
41
1
10
77.9665002997897
20
1.90555181096798
30
0
41
1
10
77.9791837960142
20
1.64148203408934
30
0
41
1
10
77.9834368387028
20
1.55243406246893
30
0
41
1
10
77.9919270221307
20
1.37369155966607
30
0
41
1
10
77.9961681193618
20
1.28391679485756
30
0
41
1
10
78.0004034043615
20
1.19373985218516
30
0
0
SPLINE
5
106
100
AcDbEntity
8
1
62
256
6
ByLayer
370
13
48
1
60
0
100
AcDbSpline
70
4
71
3
72
10
73
6
40
0
40
0
40
0
40
0
40
0.284628346966343
40
0.976211655858599
40
1
40
1
40
1
40
1
41
1
10
78.4103964013389
20
3.59053995092086
30
0
41
1
10
78.4282792002484
20
3.35841406448142
30
0
41
1
10
78.488706355073
20
2.49757258852151
30
0
41
1
10
78.5478953282361
20
1.45980467509537
30
0
41
1
10
78.5891502900193
20
0.712458913055201
30
0
41
1
10
78.5905209411733
20
0.687604596791999
30
0
0
SPLINE
5
107
100
AcDbEntity
8
1
62
256
6
ByLayer
370
18
48
1
60
0
100
AcDbSpline
70
4
71
3
72
28
73
24
40
0
40
0
40
0
40
0
40
0.0723811841381643
40
0.0723811841381643
40
0.144762368276329
40
0.144762368276329
40
0.28952473655261
40
0.28952473655261
40
0.361905920690751
40
0.361905920690751
40
0.434287104828892
40
0.434287104828892
40
0.506668288967032
40
0.506668288967032
40
0.579049473105173
40
0.579049473105173
40
0.723811841381402
40
0.723811841381402
40
0.796193025519516
40
0.796193025519516
40
0.86857420965763
40
0.86857420965763
40
1
40
1
40
1
40
1
41
1
10
75.5250333487692
20
-5.04072466599851
30
0
41
1
10
75.5322451248135
20
-5.02918085050393
30
0
41
1
10
75.5402271696594
20
-5.01882195589945
30
0
41
1
10
75.5574613291226
20
-5.00005010113506
30
0
41
1
10
75.5667409243619
20
-4.99162314940682
30
0
41
1
10
75.5961394366198
20
-4.96908985353372
30
0
41
1
10
75.6168840536066
20
-4.95829657892864
30
0
41
1
10
75.6491885898639
20
-4.94671227015957
30
0
41
1
10
75.6601760989904
20
-4.94364837916834
30
0
41
1
10
75.6819969310638
20
-4.93906544494337
30
0
41
1
10
75.6928984895898
20
-4.9375194876215
30
0
41
1
10
75.7146762358078
20
-4.93575594496627
30
0
41
1
10
75.725552451925
20
-4.93553936382133
30
0
41
1
10
75.747271103807
20
-4.93635239934233
30
0
41
1
10
75.7581540043678
20
-4.93738930558536
30
0
41
1
10
75.7904333438584
20
-4.94228096688292
30
0
41
1
10
75.8113322514551
20
-4.947850250073
30
0
41
1
10
75.8417474828459
20
-4.95944922095651
30
0
41
1
10
75.8517289197475
20
-4.96386222020709
30
0
41
1
10
75.8713600940714
20
-4.97381533724177
30
0
41
1
10
75.8809908675408
20
-4.9793528736374
30
0
41
1
10
75.9071331167614
20
-4.99629654698421
30
0
41
1
10
75.9230047887511
20
-5.00884932759368
30
0
41
1
10
75.9377741261108
20
-5.02323433110345
30
0
0
SPLINE
5
108
100
AcDbEntity
8
1
62
256
6
ByLayer
370
18
48
1
60
0
100
AcDbSpline
70
4
71
3
72
14
73
10
40
0
40
0
40
0
40
0
40
0.500000000000001
40
0.500000000000001
40
0.749999999999993
40
0.749999999999993
40
0.874999999999996
40
0.874999999999996
40
1
40
1
40
1
40
1
41
1
10
74.9350266061999
20
-5.95448088387172
30
0
41
1
10
75.0318199190774
20
-5.81017317073429
30
0
41
1
10
75.1295091164822
20
-5.66140589406129
30
0
41
1
10
75.2770957856086
20
-5.43263267139093
30
0
41
1
10
75.3264361569825
20
-5.35548715463534
30
0
41
1
10
75.4007023971574
20
-5.23845759722477
30
0
41
1
10
75.4255003435354
20
-5.19922942479221
30
0
41
1
10
75.4751880827161
20
-5.120337010573
30
0
41
1
10
75.5000785526381
20
-5.08066955065317
30
0
41
1
10
75.5250333487692
20
-5.04072466599851
30
0
0
SPLINE
5
109
100
AcDbEntity
8
1
62
256
6
ByLayer
370
18
48
1
60
0
100
AcDbSpline
70
4
71
3
72
8
73
4
40
0
40
0
40
0
40
0
40
1
40
1
40
1
40
1
41
1
10
74.9350266061998
20
-5.95448088387167
30
0
41
1
10
74.8764969414374
20
-5.94163977452646
30
0
41
1
10
74.8179311434042
20
-5.92786076894754
30
0
41
1
10
74.7593140643162
20
-5.91314296698602
30
0
0
SPLINE
5
10A
100
AcDbEntity
8
1
62
256
6
ByLayer
370
18
48
1
60
0
100
AcDbSpline
70
4
71
3
72
16
73
12
40
0
40
0
40
0
40
0
40
0.125000000000004
40
0.125000000000004
40
0.250000000000008
40
0.250000000000008
40
0.500000000000006
40
0.500000000000006
40
0.750000000000003
40
0.750000000000003
40
1
40
1
40
1
40
1
41
1
10
74.14636726775
20
-4.71979919708417
30
0
41
1
10
74.1722800149555
20
-4.7710646037651
30
0
41
1
10
74.1981633266774
20
-4.82217042866205
30
0
41
1
10
74.2498216030267
20
-4.92401815047137
30
0
41
1
10
74.2755958443784
20
-4.97475917881317
30
0
41
1
10
74.3527713677075
20
-5.12642966548009
30
0
41
1
10
74.4040367801237
20
-5.22682855803095
30
0
41
1
10
74.5062214600381
20
-5.42603496285957
30
0
41
1
10
74.5570932658609
20
-5.52475005024769
30
0
41
1
10
74.6584937386902
20
-5.72039228747016
30
0
41
1
10
74.7090030759827
20
-5.8172794143141
30
0
41
1
10
74.7593140643162
20
-5.91314296698604
30
0
0
SPLINE
5
10B
100
AcDbEntity
8
1
62
256
6
ByLayer
370
18
48
1
60
0
100
AcDbSpline
70
4
71
3
72
32
73
28
40
0
40
0
40
0
40
0
40
0.0624999999999835
40
0.0624999999999835
40
0.124999999999967
40
0.124999999999967
40
0.249999999999931
40
0.249999999999931
40
0.312499999999936
40
0.312499999999936
40
0.374999999999941
40
0.374999999999941
40
0.437499999999946
40
0.437499999999946
40
0.49999999999995
40
0.49999999999995
40
0.625000000000005
40
0.625000000000005
40
0.687500000000011
40
0.687500000000011
40
0.750000000000016
40
0.750000000000016
40
0.875000000000026
40
0.875000000000026
40
0.937500000000013
40
0.937500000000013
40
1
40
1
40
1
40
1
41
1
10
73.6857186829382
20
-4.54993003261612
30
0
41
1
10
73.6929343353271
20
-4.54058498439127
30
0
41
1
10
73.7009196149462
20
-4.5325980343483
30
0
41
1
10
73.7181581056358
20
-4.51885004189262
30
0
41
1
10
73.7274383929545
20
-4.51308293822268
30
0
41
1
10
73.7568379511968
20
-4.49886282114926
30
0
41
1
10
73.7775823038986
20
-4.49379596571578
30
0
41
1
10
73.8098842336574
20
-4.49102906728962
30
0
41
1
10
73.820872058456
20
-4.49094694304489
30
0
41
1
10
73.8426934533059
20
-4.4922634772179
30
0
41
1
10
73.8535949300579
20
-4.49365375986528
30
0
41
1
10
73.8753716966472
20
-4.49774238591934
30
0
41
1
10
73.886247016236
20
-4.50044169627037
30
0
41
1
10
73.9079630844807
20
-4.50707119187626
30
0
41
1
10
73.9188435213721
20
-4.51101909046122
30
0
41
1
10
73.9511236422903
20
-4.52454996134546
30
0
41
1
10
73.9720213815579
20
-4.53571504058758
30
0
41
1
10
74.002433903161
20
-4.55549816407611
30
0
41
1
10
74.0124142804867
20
-4.56260384060815
30
0
41
1
10
74.0320433328237
20
-4.57787218655312
30
0
41
1
10
74.0416766155554
20
-4.58603026145343
30
0
41
1
10
74.0695344049468
20
-4.61169634213098
30
0
41
1
10
74.0869094608753
20
-4.63050391913811
30
0
41
1
10
74.1109417825369
20
-4.66160855575944
30
0
41
1
10
74.1186106906935
20
-4.67246394676738
30
0
41
1
10
74.1331620089877
20
-4.69530093986458
30
0
41
1
10
74.1400640966719
20
-4.70732909400672
30
0
41
1
10
74.1463672677502
20
-4.71979919708545
30
0
0
SPLINE
5
10C
100
AcDbEntity
8
1
62
256
6
ByLayer
370
18
48
1
60
0
100
AcDbSpline
70
4
71
3
72
12
73
8
40
0
40
0
40
0
40
0
40
0.5
40
0.5
40
0.749999999999999
40
0.875
40
1
40
1
40
1
40
1
41
1
10
73.0951442479492
20
-5.25406454583532
30
0
41
1
10
73.192021513674
20
-5.14895130826821
30
0
41
1
10
73.2897992009057
20
-5.03738478243682
30
0
41
1
10
73.437529810974
20
-4.86110309660438
30
0
41
1
10
73.5116149232391
20
-4.77079008681176
30
0
41
1
10
73.610908843216
20
-4.64607331459561
30
0
41
1
10
73.6607396318217
20
-4.58228059840192
30
0
41
1
10
73.6857186829382
20
-4.54993003261612
30
0
0
SPLINE
5
10D
100
AcDbEntity
8
1
62
256
6
ByLayer
370
18
48
1
60
0
100
AcDbSpline
70
4
71
3
72
8
73
4
40
0
40
0
40
0
40
0
40
1
40
1
40
1
40
1
41
1
10
73.0951442479534
20
-5.25406454584225
30
0
41
1
10
73.0368291271416
20
-5.22283169249738
30
0
41
1
10
72.978545728842
20
-5.19080150601491
30
0
41
1
10
72.9202789149859
20
-5.15798353297521
30
0
0
SPLINE
5
10E
100
AcDbEntity
8
1
62
256
6
ByLayer
370
18
48
1
60
0
100
AcDbSpline
70
4
71
3
72
16
73
12
40
0
40
0
40
0
40
0
40
0.124999999999996
40
0.124999999999996
40
0.249999999999992
40
0.249999999999992
40
0.499999999999995
40
0.499999999999995
40
0.749999999999997
40
0.749999999999997
40
1
40
1
40
1
40
1
41
1
10
72.3070707023726
20
-3.87343802383387
30
0
41
1
10
72.3329699798275
20
-3.92696785202204
30
0
41
1
10
72.3588420754227
20
-3.98050398346109
30
0
41
1
10
72.4104823514604
20
-4.08761012519068
30
0
41
1
10
72.4362514286244
20
-4.14117973343338
30
0
41
1
10
72.5134235642922
20
-4.30192972140426
30
0
41
1
10
72.5647032790275
20
-4.40917519830631
30
0
41
1
10
72.6669423692848
20
-4.6236301202697
30
0
41
1
10
72.7178537009139
20
-4.7307388888716
30
0
41
1
10
72.8193478290285
20
-4.94468621450301
30
0
41
1
10
72.8699113609066
20
-5.05148029312991
30
0
41
1
10
72.9202789149859
20
-5.15798353297521
30
0
0
SPLINE
5
10F
100
AcDbEntity
8
1
62
256
6
ByLayer
370
18
48
1
60
0
100
AcDbSpline
70
4
71
3
72
31
73
27
40
0
40
0
40
0
40
0
40
0.0625000000000113
40
0.0625000000000113
40
0.125000000000023
40
0.125000000000023
40
0.250000000000047
40
0.250000000000047
40
0.312500000000036
40
0.312500000000036
40
0.375000000000025
40
0.437500000000014
40
0.437500000000014
40
0.500000000000003
40
0.500000000000003
40
0.624999999999983
40
0.624999999999983
40
0.687499999999973
40
0.687499999999973
40
0.749999999999963
40
0.749999999999963
40
0.874999999999981
40
0.874999999999981
40
0.937499999999991
40
0.937499999999991
40
1
40
1
40
1
40
1
41
1
10
71.8464339300953
20
-3.59412970322245
30
0
41
1
10
71.8536432871667
20
-3.58792304584134
30
0
41
1
10
71.861623374203
20
-3.58310516524543
30
0
41
1
10
71.8788561206329
20
-3.57574812264477
30
0
41
1
10
71.8881375877079
20
-3.57321072463574
30
0
41
1
10
71.9175386890395
20
-3.56870976457944
30
0
41
1
10
71.9382933506504
20
-3.56986721492223
30
0
41
1
10
71.9706244501138
20
-3.5761914585963
30
0
41
1
10
71.981619459246
20
-3.57909973755056
30
0
41
1
10
72.0034540431521
20
-3.58618628420163
30
0
41
1
10
72.0252711830476
20
-3.59456570380573
30
0
41
1
10
72.0470368942188
20
-3.60526464688013
30
0
41
1
10
72.0687681851233
20
-3.61705928145167
30
0
41
1
10
72.0796591296959
20
-3.62353262819641
30
0
41
1
10
72.1119343861631
20
-3.64435425102411
30
0
41
1
10
72.1328289017553
20
-3.66000156828548
30
0
41
1
10
72.1632374197268
20
-3.68599340308958
30
0
41
1
10
72.1732166186579
20
-3.69508187054018
30
0
41
1
10
72.1928439478977
20
-3.71413907393048
30
0
41
1
10
72.2024594973751
20
-3.72408204116911
30
0
41
1
10
72.2302821769417
20
-3.75474425613319
30
0
41
1
10
72.2476435354507
20
-3.77643301487328
30
0
41
1
10
72.2716647143034
20
-3.81109346651985
30
0
41
1
10
72.2793315096449
20
-3.82300513640317
30
0
41
1
10
72.2938814652986
20
-3.84765564380837
30
0
41
1
10
72.3007758997815
20
-3.86042763380445
30
0
41
1
10
72.3070707023726
20
-3.87343802383444
30
0
0
SPLINE
5
110
100
AcDbEntity
8
1
62
256
6
ByLayer
370
18
48
1
60
0
100
AcDbSpline
70
4
71
3
72
31
73
27
40
0
40
0
40
0
40
0
40
0.0624999999999964
40
0.0624999999999964
40
0.124999999999993
40
0.124999999999993
40
0.249999999999986
40
0.249999999999986
40
0.312499999999983
40
0.312499999999983
40
0.374999999999979
40
0.437499999999976
40
0.437499999999976
40
0.499999999999973
40
0.499999999999973
40
0.624999999999969
40
0.624999999999969
40
0.687499999999966
40
0.687499999999966
40
0.749999999999964
40
0.749999999999964
40
0.874999999999998
40
0.874999999999998
40
0.937499999999999
40
0.937499999999999
40
1
40
1
40
1
40
1
41
1
10
70.0071358500942
20
-2.27477213811258
30
0
41
1
10
70.0143397154576
20
-2.27236454653894
30
0
41
1
10
70.0223095712138
20
-2.27122946600923
30
0
41
1
10
70.0395110485998
20
-2.27103897905863
30
0
41
1
10
70.0487647722096
20
-2.27199256467253
30
0
41
1
10
70.078108115218
20
-2.27764164132611
30
0
41
1
10
70.098815731611
20
-2.28484469871444
30
0
41
1
10
70.1310709936087
20
-2.2994539444056
30
0
41
1
10
70.1420527449895
20
-2.30499693168821
30
0
41
1
10
70.1638683773359
20
-2.3170049252065
30
0
41
1
10
70.1856675575932
20
-2.32998997035443
30
0
41
1
10
70.2074167342008
20
-2.34473784910057
30
0
41
1
10
70.229131936111
20
-2.36032345301533
30
0
41
1
10
70.240008398098
20
-2.36856395940757
30
0
41
1
10
70.2723172502706
20
-2.39432679533988
30
0
41
1
10
70.2932305868276
20
-2.41270245167399
30
0
41
1
10
70.3236626396707
20
-2.44200564626021
30
0
41
1
10
70.3336489021322
20
-2.45206623082638
30
0
41
1
10
70.3532889446441
20
-2.47279774857918
30
0
41
1
10
70.3629395744301
20
-2.48347130205244
30
0
41
1
10
70.3908392421486
20
-2.51585471398158
30
0
41
1
10
70.4082359936241
20
-2.53810571954273
30
0
41
1
10
70.4322862425607
20
-2.57260712009193
30
0
41
1
10
70.4399588383777
20
-2.58429686612999
30
0
41
1
10
70.4545133671783
20
-2.6081100178767
30
0
41
1
10
70.4614184749716
20
-2.62028284147644
30
0
41
1
10
70.4677248457253
20
-2.63248339658958
30
0
0
SPLINE
5
111
100
AcDbEntity
8
1
62
256
6
ByLayer
370
18
48
1
60
0
100
AcDbSpline
70
4
71
3
72
12
73
8
40
0
40
0
40
0
40
0
40
0.499999999999988
40
0.499999999999988
40
0.749999999999994
40
0.749999999999994
40
1
40
1
40
1
40
1
41
1
10
69.5838034142149
20
-2.36471421918335
30
0
41
1
10
69.6536276332028
20
-2.35824322110162
30
0
41
1
10
69.7238799489517
20
-2.34752514836475
30
0
41
1
10
69.8297038910415
20
-2.3250782431459
30
0
41
1
10
69.86505940783
20
-2.31653408472616
30
0
41
1
10
69.9359517302891
20
-2.29730944264321
30
0
41
1
10
69.971482405454
20
-2.28668781512172
30
0
41
1
10
70.0071358500942
20
-2.27477213811258
30
0
0
SPLINE
5
112
100
AcDbEntity
8
1
62
256
6
ByLayer
370
18
48
1
60
0
100
AcDbSpline
70
4
71
3
72
8
73
4
40
0
40
0
40
0
40
0
40
1
40
1
40
1
40
1
41
1
10
69.0197153859876
20
-1.79125280081541
30
0
41
1
10
69.208315315114
20
-1.98394801202761
30
0
41
1
10
69.396165077034
20
-2.17527645387983
30
0
41
1
10
69.5838034142149
20
-2.36471421918338
30
0
0
SPLINE
5
113
100
AcDbEntity
8
1
62
256
6
ByLayer
370
18
48
1
60
0
100
AcDbSpline
70
4
71
3
72
12
73
8
40
0
40
0
40
0
40
0
40
0.250000000000005
40
0.250000000000005
40
0.50000000000001
40
0.50000000000001
40
1
40
1
40
1
40
1
41
1
10
68.6285163387389
20
-1.12451964359866
30
0
41
1
10
68.6614416639197
20
-1.1776046093413
30
0
41
1
10
68.6943021202965
20
-1.23126163908961
30
0
41
1
10
68.7598301161877
20
-1.33991902453039
30
0
41
1
10
68.792506908635
20
-1.39489602385757
30
0
41
1
10
68.8903160405945
20
-1.56172659735944
30
0
41
1
10
68.9551781136612
20
-1.67539537752467
30
0
41
1
10
69.0197153859876
20
-1.79125280081539
30
0
0
SPLINE
5
114
100
AcDbEntity
8
1
62
256
6
ByLayer
370
18
48
1
60
0
100
AcDbSpline
70
4
71
3
72
32
73
28
40
0
40
0
40
0
40
0
40
0.0624999999999903
40
0.0624999999999903
40
0.124999999999981
40
0.124999999999981
40
0.249999999999961
40
0.249999999999961
40
0.312499999999951
40
0.312499999999951
40
0.37499999999994
40
0.37499999999994
40
0.43749999999993
40
0.43749999999993
40
0.499999999999919
40
0.499999999999919
40
0.624999999999899
40
0.624999999999899
40
0.68749999999991
40
0.68749999999991
40
0.749999999999921
40
0.749999999999921
40
0.874999999999943
40
0.874999999999943
40
0.937499999999971
40
0.937499999999971
40
1
40
1
40
1
40
1
41
1
10
68.16794407525
20
-0.723000649316248
30
0
41
1
10
68.1751486738562
20
-0.724612679530907
30
0
41
1
10
68.1831199170074
20
-0.727257264336203
30
0
41
1
10
68.2003258643571
20
-0.734231994647303
30
0
41
1
10
68.2095834379873
20
-0.738576850257829
30
0
41
1
10
68.2389363690267
20
-0.753827791479353
30
0
41
1
10
68.2596518439124
20
-0.766396961732426
30
0
41
1
10
68.2919236219667
20
-0.787932305817804
30
0
41
1
10
68.3029100840491
20
-0.795592541110523
30
0
41
1
10
68.3247336135816
20
-0.811397202326901
30
0
41
1
10
68.3356368980076
20
-0.819584473172824
30
0
41
1
10
68.3574172710397
20
-0.836479689772801
30
0
41
1
10
68.3682943965876
20
-0.845187955749481
30
0
41
1
10
68.3900132301345
20
-0.863105315890664
30
0
41
1
10
68.4008920091624
20
-0.87234716413505
30
0
41
1
10
68.4331937666445
20
-0.900592999802086
30
0
41
1
10
68.454100293004
20
-0.919940194399089
30
0
41
1
10
68.4845212476787
20
-0.94974726963099
30
0
41
1
10
68.4945036811845
20
-0.959815125259411
30
0
41
1
10
68.5141363733387
20
-0.980230418108619
30
0
41
1
10
68.5237792089309
20
-0.990573932898542
30
0
41
1
10
68.5516602972073
20
-1.02147512170936
30
0
41
1
10
68.5690485051516
20
-1.04208947001013
30
0
41
1
10
68.5930892326307
20
-1.07303467792715
30
0
41
1
10
68.600759318529
20
-1.08335344844917
30
0
41
1
10
68.6153101171575
20
-1.10399502249811
30
0
41
1
10
68.6222126566582
20
-1.11435631960836
30
0
41
1
10
68.6285163387389
20
-1.12451964359897
30
0
0
SPLINE
5
115
100
AcDbEntity
8
1
62
256
6
ByLayer
370
18
48
1
60
0
100
AcDbSpline
70
4
71
3
72
12
73
8
40
0
40
0
40
0
40
0
40
0.5
40
0.5
40
0.75
40
0.75
40
1
40
1
40
1
40
1
41
1
10
67.8869658109854
20
-0.635752397482463
30
0
41
1
10
67.9334773047036
20
-0.654086768527264
30
0
41
1
10
67.9801585394387
20
-0.670558844945504
30
0
41
1
10
68.0504126971471
20
-0.692410103969848
30
0
41
1
10
68.0738650600238
20
-0.699216166506346
30
0
41
1
10
68.120844029111
20
-0.711868257627771
30
0
41
1
10
68.1443695435467
20
-0.717725843670593
30
0
41
1
10
68.16794407525
20
-0.723000649316191
30
0
0
SPLINE
5
116
100
AcDbEntity
8
1
62
256
6
ByLayer
370
18
48
1
60
0
100
AcDbSpline
70
4
71
3
72
8
73
4
40
0
40
0
40
0
40
0
40
1
40
1
40
1
40
1
41
1
10
67.0046548046781
20
0.242558024152373
30
0
41
1
10
67.3013316900612
20
-0.0464008258772992
30
0
41
1
10
67.594640092696
20
-0.339962342580378
30
0
41
1
10
67.8869658109854
20
-0.635752397482435
30
0
0
SPLINE
5
117
100
AcDbEntity
8
1
62
256
6
ByLayer
370
18
48
1
60
0
100
AcDbSpline
70
4
71
3
72
8
73
4
40
0
40
0
40
0
40
0
40
1
40
1
40
1
40
1
41
1
10
66.942519684468
20
0.319119060719004
30
0
41
1
10
66.9632630891664
20
0.293940269237709
30
0
41
1
10
66.9839738838429
20
0.268418443663109
30
0
41
1
10
67.0046548046782
20
0.242558024152316
30
0
0
SPLINE
5
118
100
AcDbEntity
8
1
62
256
6
ByLayer
370
18
48
1
60
0
100
AcDbSpline
70
4
71
3
72
12
73
8
40
0
40
0
40
0
40
0
40
0.500000000000016
40
0.500000000000016
40
0.750000000000008
40
0.750000000000008
40
1
40
1
40
1
40
1
41
1
10
66.942519684468
20
0.319119060719032
30
0
41
1
10
66.9049185344251
20
0.365554076610891
30
0
41
1
10
66.8672381381131
20
0.41072009569254
30
0
41
1
10
66.8105959912203
20
0.476603867308569
30
0
41
1
10
66.7916989951375
20
0.498266742898949
30
0
41
1
10
66.7539002368011
20
0.541083601859697
30
0
41
1
10
66.7350128823893
20
0.562280543143146
30
0
41
1
10
66.716097694043
20
0.583145825460832
30
0
0
SPLINE
5
119
100
AcDbEntity
8
1
62
256
6
ByLayer
370
18
48
1
60
0
100
AcDbSpline
70
4
71
3
72
22
73
18
40
0
40
0
40
0
40
0
40
0.124999999999986
40
0.124999999999986
40
0.249999999999971
40
0.249999999999971
40
0.374999999999957
40
0.374999999999957
40
0.43749999999995
40
0.43749999999995
40
0.499999999999943
40
0.499999999999943
40
0.749999999999972
40
0.749999999999972
40
0.874999999999986
40
0.874999999999986
40
1
40
1
40
1
40
1
41
1
10
66.7160976940431
20
0.583145825460832
30
0
41
1
10
66.6887969458213
20
0.613261191414608
30
0
41
1
10
66.6589733794
20
0.644146775110471
30
0
41
1
10
66.5942525772741
20
0.705826374500418
30
0
41
1
10
66.5593264510763
20
0.736618028896828
30
0
41
1
10
66.4846498387309
20
0.798520581571495
30
0
41
1
10
66.4449011699919
20
0.829639924992136
30
0
41
1
10
66.3818619696233
20
0.876992015548609
30
0
41
1
10
66.360295348997
20
0.892875331498544
30
0
41
1
10
66.3164915022261
20
0.924635562671142
30
0
41
1
10
66.294204671468
20
0.940550062469669
30
0
41
1
10
66.1810020509867
20
1.0204753532484
30
0
41
1
10
66.0848193974623
20
1.0855589622615
30
0
41
1
10
65.9346229700708
20
1.1881850263911
30
0
41
1
10
65.8834331322493
20
1.22331673018667
30
0
41
1
10
65.7805883962129
20
1.29491826035218
30
0
41
1
10
65.7288261338407
20
1.33146118344058
30
0
41
1
10
65.6768672095017
20
1.36893550908579
30
0
0
SPLINE
5
11A
100
AcDbEntity
8
1
62
256
6
ByLayer
370
18
48
1
60
0
100
AcDbSpline
70
4
71
3
72
54
73
50
40
0
40
0
40
0
40
0
40
0.0626193660171761
40
0.0626193660171761
40
0.093929049025763
40
0.093929049025763
40
0.12523873203435
40
0.12523873203435
40
0.156548415042937
40
0.156548415042937
40
0.187858098051524
40
0.187858098051524
40
0.2504774640687
40
0.2504774640687
40
0.266132305572993
40
0.266132305572993
40
0.281787147077287
40
0.281787147077287
40
0.313096830085871
40
0.313096830085871
40
0.375716196103038
40
0.375716196103038
40
0.438335562120206
40
0.438335562120206
40
0.500954928137372
40
0.500954928137372
40
0.532264611145956
40
0.532264611145956
40
0.547919452650249
40
0.547919452650249
40
0.563574294154542
40
0.563574294154542
40
0.626193660171713
40
0.626193660171713
40
0.688813026188885
40
0.688813026188885
40
0.751432392206056
40
0.751432392206056
40
0.814051758223228
40
0.814051758223228
40
0.829706599727521
40
0.829706599727521
40
0.845361441231815
40
0.845361441231815
40
0.876671124240402
40
0.876671124240402
40
0.939290490257576
40
0.939290490257576
40
1
40
1
40
1
40
1
41
1
10
65.6768672095018
20
1.36893550908579
30
0
41
1
10
65.4331200746786
20
1.54473321124513
30
0
41
1
10
65.1911634250291
20
1.71593661822911
30
0
41
1
10
64.829233710578
20
1.96401583162191
30
0
41
1
10
64.70875729003
20
2.04525522428187
30
0
41
1
10
64.4678592161343
20
2.20454140722063
30
0
41
1
10
64.347426806261
20
2.28257845209313
30
0
41
1
10
64.1066786233452
20
2.43556063407578
30
0
41
1
10
63.9863765815919
20
2.51052042226345
30
0
41
1
10
63.7459073555947
20
2.65734443173017
30
0
41
1
10
63.625710305582
20
2.72917432848999
30
0
41
1
10
63.2647857842931
20
2.93940219169906
30
0
41
1
10
63.0237322148392
20
3.07254071755699
30
0
41
1
10
62.720508372403
20
3.22870876538687
30
0
41
1
10
62.659767629295
20
3.25942948714569
30
0
41
1
10
62.5380581204702
20
3.31980806948377
30
0
41
1
10
62.4770243363622
20
3.3494975524878
30
0
41
1
10
62.2941614752725
20
3.43669657714483
30
0
41
1
10
62.1725929441524
20
3.49233573975238
30
0
41
1
10
61.8089298001074
20
3.65191925304776
30
0
41
1
10
61.5679483085037
20
3.74856536558434
30
0
41
1
10
61.0869658920192
20
3.92124344130863
30
0
41
1
10
60.846970250422
20
3.9972743576354
30
0
41
1
10
60.3658745288261
20
4.1277218373742
30
0
41
1
10
60.1247357143641
20
4.18216974779648
30
0
41
1
10
59.762008623742
20
4.2474151187792
30
0
41
1
10
59.6409368490121
20
4.26641799711172
30
0
41
1
10
59.4588955653196
20
4.29067258774927
30
0
41
1
10
59.3981426487109
20
4.29804919920906
30
0
41
1
10
59.2764615016807
20
4.31136512950212
30
0
41
1
10
59.2155014630078
20
4.31730567104387
30
0
41
1
10
58.9114844263386
20
4.34326879160173
30
0
41
1
10
58.6698120597371
20
4.35218032843451
30
0
41
1
10
58.1872895197892
20
4.34692093899224
30
0
41
1
10
57.9463198333627
20
4.33282207046611
30
0
41
1
10
57.4652883086413
20
4.28190442240643
30
0
41
1
10
57.2251421826254
20
4.24503774749178
30
0
41
1
10
56.7436102091707
20
4.14868843022401
30
0
41
1
10
56.5022344782967
20
4.08919537062857
30
0
41
1
10
56.1983504467453
20
4.00104671734434
30
0
41
1
10
56.1374680895284
20
3.98272772526948
30
0
41
1
10
56.0154991937438
20
3.94469753333587
30
0
41
1
10
55.954482183539
20
3.92500665675712
30
0
41
1
10
55.7718864962494
20
3.86408561167548
30
0
41
1
10
55.6505699204811
20
3.8209287198371
30
0
41
1
10
55.287681497343
20
3.68400578971071
30
0
41
1
10
55.0470609716469
20
3.58284285797933
30
0
41
1
10
54.573407594819
20
3.36616342693264
30
0
41
1
10
54.3403949715016
20
3.2511838193121
30
0
41
1
10
54.1070947336072
20
3.12829885390869
30
0
0
SPLINE
5
11B
100
AcDbEntity
8
1
62
256
6
ByLayer
370
18
48
1
60
0
100
AcDbSpline
70
4
71
3
72
92
73
88
40
0
40
0
40
0
40
0
40
0.0071848727504003
40
0.0071848727504003
40
0.0333115866253946
40
0.0333115866253946
40
0.059438300500389
40
0.059438300500389
40
0.0855650143753835
40
0.0855650143753835
40
0.111691728250378
40
0.111691728250378
40
0.124755085187874
40
0.124755085187874
40
0.137818442125371
40
0.137818442125371
40
0.163945156000361
40
0.163945156000361
40
0.190071869875352
40
0.190071869875352
40
0.216198583750344
40
0.216198583750344
40
0.268452011500327
40
0.268452011500327
40
0.294578725375319
40
0.294578725375319
40
0.307642082312814
40
0.307642082312814
40
0.32070543925031
40
0.32070543925031
40
0.346832153125298
40
0.346832153125298
40
0.372958867000287
40
0.372958867000287
40
0.399085580875276
40
0.399085580875276
40
0.425212294750265
40
0.425212294750265
40
0.451339008625253
40
0.451339008625253
40
0.477465722500242
40
0.477465722500242
40
0.503592436375231
40
0.503592436375231
40
0.516655793312724
40
0.516655793312724
40
0.529719150250218
40
0.529719150250218
40
0.555845864125206
40
0.555845864125206
40
0.581972578000195
40
0.581972578000195
40
0.608099291875184
40
0.608099291875184
40
0.634226005750173
40
0.634226005750173
40
0.660352719625161
40
0.660352719625161
40
0.68647943350015
40
0.68647943350015
40
0.712606147375139
40
0.712606147375139
40
0.725669504312633
40
0.725669504312633
40
0.738732861250127
40
0.738732861250127
40
0.764859575125114
40
0.764859575125114
40
0.790986289000101
40
0.790986289000101
40
0.817113002875088
40
0.817113002875088
40
0.843239716750075
40
0.843239716750075
40
0.869366430625062
40
0.869366430625062
40
0.895493144500049
40
0.895493144500049
40
0.921619858375036
40
0.921619858375036
40
0.934683215312529
40
0.934683215312529
40
0.947746572250023
40
0.947746572250023
40
0.973873286125011
40
0.973873286125011
40
1
40
1
40
1
40
1
41
1
10
49.6842000285164
20
4.349999489807
30
0
41
1
10
49.72224291184
20
4.34999901274125
30
0
41
1
10
49.760275959018
20
4.34971084851961
30
0
41
1
10
49.9365923339409
20
4.34703867050163
30
0
41
1
10
50.0748357441207
20
4.34112965166224
30
0
41
1
10
50.3519697019458
20
4.32178007858198
30
0
41
1
10
50.4908346419704
20
4.30834666080693
30
0
41
1
10
50.7692563790945
20
4.27400635223304
30
0
41
1
10
50.9088129149699
20
4.25310165228257
30
0
41
1
10
51.1885900851496
20
4.20373177849459
30
0
41
1
10
51.3288100004126
20
4.17526895071416
30
0
41
1
10
51.5395349034396
20
4.126686843898
30
0
41
1
10
51.6096197926147
20
4.10955689528464
30
0
41
1
10
51.7493472273223
20
4.07345361037855
30
0
41
1
10
51.819022275664
20
4.05447951938567
30
0
41
1
10
52.0277158036814
20
3.99491067971175
30
0
41
1
10
52.1664284030912
20
3.9516727570699
30
0
41
1
10
52.444303077415
20
3.85905750047033
30
0
41
1
10
52.5833598947559
20
3.80964124026676
30
0
41
1
10
52.8612383746803
20
3.7044288346161
30
0
41
1
10
52.9999894566246
20
3.64857575451896
30
0
41
1
10
53.4159706658286
20
3.47144354986509
30
0
41
1
10
53.6929777559955
20
3.3406226499429
30
0
41
1
10
54.1098847754814
20
3.12642508543195
30
0
41
1
10
54.2490835515175
20
3.05202724346052
30
0
41
1
10
54.4585462091192
20
2.93616387288853
30
0
41
1
10
54.5284787506725
20
2.89683274403782
30
0
41
1
10
54.66863077218
20
2.81680361852077
30
0
41
1
10
54.738929584151
20
2.77605823783364
30
0
41
1
10
54.9494444782037
20
2.65241124223516
30
0
41
1
10
55.0894961484519
20
2.56804873417721
30
0
41
1
10
55.3689816070847
20
2.39550964344247
30
0
41
1
10
55.5084092273309
20
2.30732752924408
30
0
41
1
10
55.7863515738204
20
2.12682803112725
30
0
41
1
10
55.9247548917648
20
2.03437391566453
30
0
41
1
10
56.2012232229794
20
1.84596878671243
30
0
41
1
10
56.3393728109681
20
1.75011841305718
30
0
41
1
10
56.6164691531587
20
1.55634718755837
30
0
41
1
10
56.7553211390689
20
1.45831589760709
30
0
41
1
10
57.0334847626785
20
1.25979767456158
30
0
41
1
10
57.1727683408113
20
1.15927408225707
30
0
41
1
10
57.4517163384716
20
0.955625856047959
30
0
41
1
10
57.5914034738989
20
0.852531187598856
30
0
41
1
10
57.8012642341137
20
0.695929371424938
30
0
41
1
10
57.8712630502176
20
0.643388172084883
30
0
41
1
10
58.0114173926114
20
0.537699523226735
30
0
41
1
10
58.0813690672168
20
0.484718184998485
30
0
41
1
10
58.2908033529228
20
0.325802003718451
30
0
41
1
10
58.4300151735856
20
0.219884844920614
30
0
41
1
10
58.708441679445
20
0.0091960131848055
30
0
41
1
10
58.8475784039479
20
-0.0956836551599451
30
0
41
1
10
59.1256712441206
20
-0.304577176569353
30
0
41
1
10
59.2646203499429
20
-0.40860060114494
30
0
41
1
10
59.5422114419163
20
-0.615956096709425
30
0
41
1
10
59.6808738836009
20
-0.719260654104176
30
0
41
1
10
59.957947087799
20
-0.925091478695919
30
0
41
1
10
60.096307966492
20
-1.02768192931552
30
0
41
1
10
60.3733270436845
20
-1.23134302851366
30
0
41
1
10
60.5119955333157
20
-1.33239966139101
30
0
41
1
10
60.7905427823704
20
-1.53180517800115
30
0
41
1
10
60.9304056627145
20
-1.63017667197195
30
0
41
1
10
61.1410909361042
20
-1.77572466328647
30
0
41
1
10
61.2115429392547
20
-1.82395742648623
30
0
41
1
10
61.3521132643646
20
-1.91934538159401
30
0
41
1
10
61.422282004216
20
-1.96653636473272
30
0
41
1
10
61.6324113449616
20
-2.10665070677675
30
0
41
1
10
61.7719929046297
20
-2.19811938395804
30
0
41
1
10
62.0502198119607
20
-2.37711038253923
30
0
41
1
10
62.1888011117337
20
-2.46470040105078
30
0
41
1
10
62.4655478135535
20
-2.63532952358796
30
0
41
1
10
62.6037535756151
20
-2.71832187746094
30
0
41
1
10
62.8807476272794
20
-2.87876456844702
30
0
41
1
10
63.0194757022234
20
-2.95628669934902
30
0
41
1
10
63.2973570012517
20
-3.10602578388952
30
0
41
1
10
63.4365041531652
20
-3.17824939611924
30
0
41
1
10
63.7151029196714
20
-3.31746978950716
30
0
41
1
10
63.8545685716857
20
-3.3844551276234
30
0
41
1
10
64.1336455902091
20
-3.51319702796164
30
0
41
1
10
64.2732047742132
20
-3.57498396831005
30
0
41
1
10
64.483343117785
20
-3.66304363996929
30
0
41
1
10
64.5533663809258
20
-3.69155710748402
30
0
41
1
10
64.6934658964826
20
-3.74677613826574
30
0
41
1
10
64.7635486942217
20
-3.7734903499518
30
0
41
1
10
64.9739125182655
20
-3.8509659549093
30
0
41
1
10
65.11431358741
20
-3.89906137628265
30
0
41
1
10
65.395411027568
20
-3.98823513500034
30
0
41
1
10
65.5361072882689
20
-4.0293156720148
30
0
41
1
10
65.6768672095017
20
-4.0669058965521
30
0
0
SPLINE
5
11C
100
AcDbEntity
8
1
62
256
6
ByLayer
370
18
48
1
60
0
100
AcDbSpline
70
4
71
3
72
26
73
22
40
0
40
0
40
0
40
0
40
0.124999999999988
40
0.124999999999988
40
0.249999999999976
40
0.249999999999976
40
0.374999999999963
40
0.374999999999963
40
0.437499999999968
40
0.437499999999968
40
0.499999999999972
40
0.499999999999972
40
0.624999999999979
40
0.624999999999979
40
0.749999999999986
40
0.749999999999986
40
0.812499999999989
40
0.812499999999989
40
0.874999999999993
40
0.874999999999993
40
1
40
1
40
1
40
1
41
1
10
65.6768672095017
20
-4.0669058965521
30
0
41
1
10
65.7264449286414
20
-4.08014572773544
30
0
41
1
10
65.7756655161277
20
-4.09575966266286
30
0
41
1
10
65.8732152792305
20
-4.13168501031021
30
0
41
1
10
65.9215475770733
20
-4.15199327603318
30
0
41
1
10
66.0172249603102
20
-4.19740755011333
30
0
41
1
10
66.0645705699833
20
-4.2225103899261
30
0
41
1
10
66.1347944221296
20
-4.26402066466582
30
0
41
1
10
66.1581159871458
20
-4.27853415481738
30
0
41
1
10
66.204136402782
20
-4.30869019373773
30
0
41
1
10
66.2268605846716
20
-4.32434456457585
30
0
41
1
10
66.2941642609261
20
-4.37309564145338
30
0
41
1
10
66.3378778398788
20
-4.40796677028425
30
0
41
1
10
66.4228769557893
20
-4.48303783564151
30
0
41
1
10
66.4641643657201
20
-4.52322682788849
30
0
41
1
10
66.5240977702703
20
-4.58835460314214
30
0
41
1
10
66.5435785061092
20
-4.61070425798158
30
0
41
1
10
66.5813609649605
20
-4.65659860792559
30
0
41
1
10
66.5996866943025
20
-4.68016928744035
30
0
41
1
10
66.652858183741
20
-4.7528963620403
30
0
41
1
10
66.6859203503872
20
-4.80405294789284
30
0
41
1
10
66.7160976940431
20
-4.85842770685161
30
0
0
SPLINE
5
11D
100
AcDbEntity
8
1
62
256
6
ByLayer
370
18
48
1
60
0
100
AcDbSpline
70
4
71
3
72
8
73
4
40
0
40
0
40
0
40
0
40
1
40
1
40
1
40
1
41
1
10
66.7160976940431
20
-4.85842770685161
30
0
41
1
10
66.7383980079779
20
-4.89860931490639
30
0
41
1
10
66.7607213681847
20
-4.93878286845032
30
0
41
1
10
66.7829994325793
20
-4.97891786494421
30
0
0
SPLINE
5
11E
100
AcDbEntity
8
1
62
256
6
ByLayer
370
18
48
1
60
0
100
AcDbSpline
70
4
71
3
72
33
73
29
40
0
40
0
40
0
40
0
40
0.0624999999999933
40
0.0624999999999933
40
0.124999999999987
40
0.124999999999987
40
0.156249999999983
40
0.156249999999983
40
0.18749999999998
40
0.249999999999971
40
0.249999999999971
40
0.312499999999961
40
0.312499999999961
40
0.374999999999952
40
0.374999999999952
40
0.499999999999933
40
0.499999999999933
40
0.562499999999924
40
0.562499999999924
40
0.624999999999914
40
0.624999999999914
40
0.749999999999942
40
0.749999999999942
40
0.812499999999957
40
0.812499999999957
40
0.874999999999972
40
0.874999999999972
40
1
40
1
40
1
40
1
41
1
10
67.2233309744514
20
-5.06397818169387
30
0
41
1
10
67.2166369421973
20
-5.05240761939373
30
0
41
1
10
67.209298990957
20
-5.04168138158875
30
0
41
1
10
67.1935612640424
20
-5.0216187046008
30
0
41
1
10
67.1851592929129
20
-5.01228519193572
30
0
41
1
10
67.1718462719422
20
-4.99921470669284
30
0
41
1
10
67.1672842781439
20
-4.99501133180121
30
0
41
1
10
67.1580816290945
20
-4.98702658807477
30
0
41
1
10
67.144105246036
20
-4.97562836436055
30
0
41
1
10
67.1296613154962
20
-4.96580830301028
30
0
41
1
10
67.1100431734862
20
-4.95394313489143
30
0
41
1
10
67.1000449893404
20
-4.94862163929292
30
0
41
1
10
67.0797575890153
20
-4.93913164806028
30
0
41
1
10
67.0696137286146
20
-4.93502933307667
30
0
41
1
10
67.0391909563184
20
-4.92442130848994
30
0
41
1
10
67.0189203090412
20
-4.91959459278789
30
0
41
1
10
66.988573453885
20
-4.91534589736068
30
0
41
1
10
66.9784350466275
20
-4.91443315277925
30
0
41
1
10
66.9583433741344
20
-4.91361946872567
30
0
41
1
10
66.9484333651843
20
-4.91371654583267
30
0
41
1
10
66.9191106329
20
-4.91546424391103
30
0
41
1
10
66.900100484951
20
-4.91855352563991
30
0
41
1
10
66.8724769019768
20
-4.92617725895246
30
0
41
1
10
66.8633830775331
20
-4.92923640208994
30
0
41
1
10
66.8457136257679
20
-4.93636048706591
30
0
41
1
10
66.8371554500133
20
-4.94041266317222
30
0
41
1
10
66.8123526194388
20
-4.95410490982596
30
0
41
1
10
66.7969587735691
20
-4.96524171415496
30
0
41
1
10
66.7829994325793
20
-4.97891786494421
30
0
0
SPLINE
5
11F
100
AcDbEntity
8
1
62
256
6
ByLayer
370
18
48
1
60
0
100
AcDbSpline
70
4
71
3
72
8
73
4
40
0
40
0
40
0
40
0
40
1
40
1
40
1
40
1
41
1
10
67.4697996857021
20
-5.48933452800102
30
0
41
1
10
67.3881510980827
20
-5.34874791512271
30
0
41
1
10
67.3060670548134
20
-5.20698660112828
30
0
41
1
10
67.2233309744514
20
-5.06397818169387
30
0
0
SPLINE
5
120
100
AcDbEntity
8
1
62
256
6
ByLayer
370
18
48
1
60
0
100
AcDbSpline
70
4
71
3
72
12
73
8
40
0
40
0
40
0
40
0
40
0.250000000000007
40
0.250000000000007
40
0.500000000000013
40
0.500000000000013
40
1
40
1
40
1
40
1
41
1
10
68.2757220223474
20
-5.61268100349776
30
0
41
1
10
68.2089767753782
20
-5.60679349381189
30
0
41
1
10
68.142150986696
20
-5.59978781743118
30
0
41
1
10
68.0082421694441
20
-5.5835642965192
30
0
41
1
10
67.9411631406181
20
-5.57434798873629
30
0
41
1
10
67.7396214562172
20
-5.54344753308189
30
0
41
1
10
67.6048617191142
20
-5.51851792774247
30
0
41
1
10
67.4697996857021
20
-5.48933452800105
30
0
0
SPLINE
5
121
100
AcDbEntity
8
1
62
256
6
ByLayer
370
18
48
1
60
0
100
AcDbSpline
70
4
71
3
72
10
73
6
40
0
40
0
40
0
40
0
40
0.5
40
0.5
40
1
40
1
40
1
40
1
41
1
10
68.6019180950643
20
-5.04921636053953
30
0
41
1
10
68.547109916531
20
-5.14571086542495
30
0
41
1
10
68.4925399042333
20
-5.24094677787059
30
0
41
1
10
68.3837742564514
20
-5.42888875258183
30
0
41
1
10
68.3296355076125
20
-5.52149720322197
30
0
41
1
10
68.2757220223474
20
-5.61268100349776
30
0
0
SPLINE
5
122
100
AcDbEntity
8
1
62
256
6
ByLayer
370
18
48
1
60
0
100
AcDbSpline
70
4
71
3
72
32
73
28
40
0
40
0
40
0
40
0
40
0.0625000000000169
40
0.0625000000000169
40
0.125000000000034
40
0.125000000000034
40
0.187500000000051
40
0.187500000000051
40
0.250000000000068
40
0.250000000000068
40
0.312500000000085
40
0.312500000000085
40
0.375000000000101
40
0.375000000000101
40
0.500000000000088
40
0.500000000000088
40
0.562500000000082
40
0.562500000000082
40
0.625000000000076
40
0.625000000000076
40
0.750000000000061
40
0.750000000000061
40
0.875000000000047
40
0.875000000000047
40
0.937500000000024
40
0.937500000000024
40
1
40
1
40
1
40
1
41
1
10
69.0625415492202
20
-4.980442594999
30
0
41
1
10
69.0554224595395
20
-4.96955607415603
30
0
41
1
10
69.0475739815467
20
-4.95986409556335
30
0
41
1
10
69.0306839682528
20
-4.94242889228883
30
0
41
1
10
69.0216396245042
20
-4.93469037246538
30
0
41
1
10
69.0024864886671
20
-4.92095364136435
30
0
41
1
10
68.9925713028762
20
-4.91509842282767
30
0
41
1
10
68.9723377690044
20
-4.90515945039778
30
0
41
1
10
68.9619913662501
20
-4.90105946898498
30
0
41
1
10
68.9408991785993
20
-4.89439439670565
30
0
41
1
10
68.9300912116194
20
-4.89182308197206
30
0
41
1
10
68.9084787044805
20
-4.8881690454474
30
0
41
1
10
68.8976724883101
20
-4.88707444460161
30
0
41
1
10
68.8652658191214
20
-4.88575339723548
30
0
41
1
10
68.8436765439062
20
-4.88746470174721
30
0
41
1
10
68.8113715145726
20
-4.89361815223532
30
0
41
1
10
68.8006392963117
20
-4.89627581896491
30
0
41
1
10
68.7795723843508
20
-4.90268615468739
30
0
41
1
10
68.7691924352458
20
-4.90644659924041
30
0
41
1
10
68.7385236733916
20
-4.91937352085205
30
0
41
1
10
68.7186675649617
20
-4.93018086394591
30
0
41
1
10
68.6805336629362
20
-4.95650559572843
30
0
41
1
10
68.6626981788183
20
-4.9717012062473
30
0
41
1
10
68.6380555004997
20
-4.99796227042151
30
0
41
1
10
68.6301963442714
20
-5.00730001538963
30
0
41
1
10
68.6152981589241
20
-5.02733145326613
30
0
41
1
10
68.6083060442622
20
-5.03796982742034
30
0
41
1
10
68.6019180950643
20
-5.04921636053953
30
0
0
SPLINE
5
123
100
AcDbEntity
8
1
62
256
6
ByLayer
370
18
48
1
60
0
100
AcDbSpline
70
4
71
3
72
10
73
6
40
0
40
0
40
0
40
0
40
0.5
40
0.5
40
1
40
1
40
1
40
1
41
1
10
69.4781705609581
20
-5.59678628613455
30
0
41
1
10
69.4096407426648
20
-5.4984646475275
30
0
41
1
10
69.3407161191008
20
-5.39784797233196
30
0
41
1
10
69.2022004794821
20
-5.19243068567275
30
0
41
1
10
69.1326048974951
20
-5.08758355480322
30
0
41
1
10
69.0625415492202
20
-4.980442594999
30
0
0
SPLINE
5
124
100
AcDbEntity
8
1
62
256
6
ByLayer
370
18
48
1
60
0
100
AcDbSpline
70
4
71
3
72
8
73
4
40
0
40
0
40
0
40
0
40
1
40
1
40
1
40
1
41
1
10
69.9688392086298
20
-5.51939146247969
30
0
41
1
10
69.8054177683246
20
-5.55217143938899
30
0
41
1
10
69.6418599559943
20
-5.57789792908181
30
0
41
1
10
69.4781705609581
20
-5.59678628613455
30
0
0
SPLINE
5
125
100
AcDbEntity
8
1
62
256
6
ByLayer
370
18
48
1
60
0
100
AcDbSpline
70
4
71
3
72
12
73
8
40
0
40
0
40
0
40
0
40
0.25
40
0.25
40
0.5
40
0.5
40
1
40
1
40
1
40
1
41
1
10
70.4407882293692
20
-4.58924899697513
30
0
41
1
10
70.4009949171655
20
-4.66786014275422
30
0
41
1
10
70.3613276659511
20
-4.74622146180428
30
0
41
1
10
70.28219420153
20
-4.90244499967906
30
0
41
1
10
70.2427350284939
20
-4.98030445911087
30
0
41
1
10
70.1246678376106
20
-5.21309457124099
30
0
41
1
10
70.0465221090685
20
-5.36695938778738
30
0
41
1
10
69.9688392086298
20
-5.51939146247969
30
0
0
SPLINE
5
126
100
AcDbEntity
8
1
62
256
6
ByLayer
370
18
48
1
60
0
100
AcDbSpline
70
4
71
3
72
32
73
28
40
0
40
0
40
0
40
0
40
0.0624999999999991
40
0.0624999999999991
40
0.124999999999998
40
0.124999999999998
40
0.187499999999997
40
0.187499999999997
40
0.249999999999996
40
0.249999999999996
40
0.312499999999996
40
0.312499999999996
40
0.374999999999995
40
0.374999999999995
40
0.499999999999995
40
0.499999999999995
40
0.562499999999995
40
0.562499999999995
40
0.624999999999995
40
0.624999999999995
40
0.749999999999997
40
0.749999999999997
40
0.874999999999999
40
0.874999999999999
40
0.937499999999999
40
0.937499999999999
40
1
40
1
40
1
40
1
41
1
10
70.9014550450294
20
-4.39718427541382
30
0
41
1
10
70.8943297530773
20
-4.38890014069364
30
0
41
1
10
70.8864783080301
20
-4.38193321049633
30
0
41
1
10
70.8695912108205
20
-4.37014055333995
30
0
41
1
10
70.8605527079842
20
-4.36532014070016
30
0
41
1
10
70.8414218412131
20
-4.3575868606311
30
0
41
1
10
70.831515124967
20
-4.35475364737582
30
0
41
1
10
70.8113100554002
20
-4.35085125955439
30
0
41
1
10
70.8009810038256
20
-4.34977327247626
30
0
41
1
10
70.7799294802845
20
-4.34915817132216
30
0
41
1
10
70.7691459927028
20
-4.34963121690924
30
0
41
1
10
70.7475625879154
20
-4.35197381582543
30
0
41
1
10
70.736771583077
20
-4.35383208501372
30
0
41
1
10
70.7044115382785
20
-4.36125045102298
30
0
41
1
10
70.6828546315231
20
-4.36863026729981
30
0
41
1
10
70.6505969002143
20
-4.38308508905044
30
0
41
1
10
70.6398598520465
20
-4.3884797651572
30
0
41
1
10
70.6187863576278
20
-4.40021297900171
30
0
41
1
10
70.6084026451669
20
-4.4065713038755
30
0
41
1
10
70.5777209984309
20
-4.42710946870901
30
0
41
1
10
70.5578854264274
20
-4.44272912200177
30
0
41
1
10
70.5196608704651
20
-4.4782653696885
30
0
41
1
10
70.5017471468786
20
-4.49774093334639
30
0
41
1
10
70.477035329888
20
-4.5297720573239
30
0
41
1
10
70.4691560012059
20
-4.54092838176797
30
0
41
1
10
70.4542240288069
20
-4.56435129691471
30
0
41
1
10
70.4471980115143
20
-4.57658655972841
30
0
41
1
10
70.4407882293692
20
-4.58924899697513
30
0
0
SPLINE
5
127
100
AcDbEntity
8
1
62
256
6
ByLayer
370
18
48
1
60
0
100
AcDbSpline
70
4
71
3
72
10
73
6
40
0
40
0
40
0
40
0
40
0.5
40
0.5
40
1
40
1
40
1
40
1
41
1
10
71.4851002046804
20
-5.00897434891169
30
0
41
1
10
71.3893629821164
20
-4.91977512139752
30
0
41
1
10
71.2929071038963
20
-4.8241587965602
30
0
41
1
10
71.0982514645379
20
-4.62017218600727
30
0
41
1
10
71.0003389148766
20
-4.51215041364162
30
0
41
1
10
70.9014550450293
20
-4.39718427541385
30
0
0
SPLINE
5
128
100
AcDbEntity
8
1
62
256
6
ByLayer
370
18
48
1
60
0
100
AcDbSpline
70
4
71
3
72
8
73
4
40
0
40
0
40
0
40
0
40
1
40
1
40
1
40
1
41
1
10
71.5840044690144
20
-4.96186424430238
30
0
41
1
10
71.5510377072225
20
-4.97784187579583
30
0
41
1
10
71.5180701228279
20
-4.99354513414534
30
0
41
1
10
71.4851002046804
20
-5.00897434891172
30
0
0
SPLINE
5
129
100
AcDbEntity
8
1
62
256
6
ByLayer
370
18
48
1
60
0
100
AcDbSpline
70
4
71
3
72
8
73
4
40
0
40
0
40
0
40
0
40
1
40
1
40
1
40
1
41
1
10
71.5840044690143
20
-4.96186424430039
30
0
41
1
10
71.6123169937807
20
-4.94452889156105
30
0
41
1
10
71.6406460821365
20
-4.92700727561615
30
0
41
1
10
71.6689926512757
20
-4.90929944556706
30
0
0
SPLINE
5
12A
100
AcDbEntity
8
1
62
256
6
ByLayer
370
18
48
1
60
0
100
AcDbSpline
70
4
71
3
72
14
73
10
40
0
40
0
40
0
40
0
40
0.182338409590553
40
0.182338409590553
40
0.454892273060369
40
0.454892273060369
40
0.727446136530184
40
0.727446136530184
40
1
40
1
40
1
40
1
41
1
10
72.2286659178862
20
-3.76238903266389
30
0
41
1
10
72.1941448855253
20
-3.83150681675448
30
0
41
1
10
72.1597162660542
20
-3.90075846456813
30
0
41
1
10
72.0740305807633
20
-4.07384620483498
30
0
41
1
10
72.0228876357685
20
-4.17785119040357
30
0
41
1
10
71.9209732693905
20
-4.38646269444286
30
0
41
1
10
71.870259730716
20
-4.49093431184164
30
0
41
1
10
71.7693092017587
20
-4.69999696388751
30
0
41
1
10
71.7190584982026
20
-4.80461454595053
30
0
41
1
10
71.6689926512757
20
-4.90929944556706
30
0
0
SPLINE
5
12B
100
AcDbEntity
8
1
62
256
6
ByLayer
370
18
48
1
60
0
100
AcDbSpline
70
4
71
3
72
105
73
101
40
0
40
0
40
0
40
0
40
0.01296309986091
40
0.01296309986091
40
0.0294137148632287
40
0.0294137148632287
40
0.0458643298655473
40
0.0458643298655473
40
0.0787655598701847
40
0.0787655598701847
40
0.0869908673713437
40
0.0869908673713437
40
0.0952161748725027
40
0.0952161748725027
40
0.111666789874821
40
0.111666789874821
40
0.144568019879457
40
0.144568019879457
40
0.177469249884093
40
0.177469249884093
40
0.210370479888729
40
0.210370479888729
40
0.226821094891047
40
0.226821094891047
40
0.235046402392207
40
0.235046402392207
40
0.243271709893367
40
0.243271709893367
40
0.276172939898005
40
0.276172939898005
40
0.309074169902644
40
0.309074169902644
40
0.341975399907282
40
0.341975399907282
40
0.374876629911921
40
0.374876629911921
40
0.38310193741308
40
0.38310193741308
40
0.391327244914239
40
0.391327244914239
40
0.407777859916557
40
0.407777859916557
40
0.440679089921193
40
0.440679089921193
40
0.47358031992583
40
0.47358031992583
40
0.506481549930466
40
0.506481549930466
40
0.522932164932784
40
0.522932164932784
40
0.531157472433944
40
0.531157472433944
40
0.539382779935103
40
0.539382779935103
40
0.555833394937421
40
0.555833394937421
40
0.572284009939738
40
0.572284009939738
40
0.588734624942056
40
0.588734624942056
40
0.605185239944374
40
0.605185239944374
40
0.638086469949007
40
0.638086469949007
40
0.654537084951324
40
0.654537084951324
40
0.670987699953641
40
0.670987699953641
40
0.6792130074548
40
0.6792130074548
40
0.687438314955959
40
0.687438314955959
40
0.703888929958277
40
0.703888929958277
40
0.736790159962914
40
0.736790159962914
40
0.76969138996755
40
0.76969138996755
40
0.802592619972186
40
0.802592619972186
40
0.819043234974504
40
0.819043234974504
40
0.827268542475664
40
0.827268542475664
40
0.835493849976824
40
0.835493849976824
40
0.851944464979142
40
0.851944464979142
40
0.86839507998146
40
0.86839507998146
40
0.901296309986095
40
0.901296309986095
40
0.93419753999073
40
0.93419753999073
40
0.967098769995365
40
0.967098769995365
40
0.975324077496524
40
0.975324077496524
40
0.983549384997683
40
1
40
1
40
1
40
1
41
1
10
64.5117056393958
20
-4.35000032024527
30
0
41
1
10
64.4167987185139
20
-4.34999454209705
30
0
41
1
10
64.3219076103808
20
-4.34820843061104
30
0
41
1
10
64.1066786233452
20
-4.34013916216404
30
0
41
1
10
63.9863765815918
20
-4.3327731992363
30
0
41
1
10
63.7459073555947
20
-4.31229605496884
30
0
41
1
10
63.625710305582
20
-4.29918537036417
30
0
41
1
10
63.2647857842931
20
-4.25123936412405
30
0
41
1
10
63.0237322148391
20
-4.20777941723813
30
0
41
1
10
62.720508372403
20
-4.13923980082356
30
0
41
1
10
62.659767629295
20
-4.12482220052047
30
0
41
1
10
62.5380581204702
20
-4.09457597246052
30
0
41
1
10
62.4770243363622
20
-4.0787291461377
30
0
41
1
10
62.2941614752725
20
-4.02921403871582
30
0
41
1
10
62.1725929441525
20
-3.99358654811491
30
0
41
1
10
61.8089298001074
20
-3.87895230687022
30
0
41
1
10
61.5679483085037
20
-3.79213598367551
30
0
41
1
10
61.0869658920192
20
-3.59917456211187
30
0
41
1
10
60.8469702504219
20
-3.49302187909999
30
0
41
1
10
60.3658745288262
20
-3.26314056707744
30
0
41
1
10
60.1247357143641
20
-3.13948832018255
30
0
41
1
10
59.7620086237419
20
-2.94087906250516
30
0
41
1
10
59.6409368490121
20
-2.87247170759073
30
0
41
1
10
59.4588955653196
20
-2.76667808422448
30
0
41
1
10
59.398142648711
20
-2.73088341823291
30
0
41
1
10
59.2764615016806
20
-2.65825386717165
30
0
41
1
10
59.2155014630078
20
-2.62139811772511
30
0
41
1
10
58.9114844263386
20
-2.43537172510591
30
0
41
1
10
58.6698120597371
20
-2.28037046900667
30
0
41
1
10
58.1872895197891
20
-1.96088494647088
30
0
41
1
10
57.9463198333627
20
-1.79656701174807
30
0
41
1
10
57.4652883086414
20
-1.45848183786936
30
0
41
1
10
57.2251421826254
20
-1.2847954615161
30
0
41
1
10
56.7436102091707
20
-0.930522613937001
30
0
41
1
10
56.5022344782967
20
-0.749920469001893
30
0
41
1
10
56.1983504467453
20
-0.521610008303782
30
0
41
1
10
56.1374680895284
20
-0.475816854961067
30
0
41
1
10
56.0154991937436
20
-0.383955282495407
30
0
41
1
10
55.954482183539
20
-0.337939022155382
30
0
41
1
10
55.7718864962494
20
-0.200027997526235
30
0
41
1
10
55.650569920481
20
-0.108081599466203
30
0
41
1
10
55.2876814973429
20
0.167542902821879
30
0
41
1
10
55.0470609716468
20
0.350852085721499
30
0
41
1
10
54.5660726550636
20
0.713496858295713
30
0
41
1
10
54.3257344605287
20
0.89287893118609
30
0
41
1
10
53.8444170153557
20
1.24653072537979
30
0
41
1
10
53.6034403586675
20
1.42080229686818
30
0
41
1
10
53.2405354785238
20
1.67708321733721
30
0
41
1
10
53.1193267927919
20
1.76165490081019
30
0
41
1
10
52.937031561661
20
1.88706222504553
30
0
41
1
10
52.8761655102909
20
1.92863686529597
30
0
41
1
10
52.7543381205494
20
2.01121542174076
30
0
41
1
10
52.6935339123312
20
2.05211654115541
30
0
41
1
10
52.5113941217367
20
2.17359954796348
30
0
41
1
10
52.3903265943734
20
2.25295387950308
30
0
41
1
10
52.1485259505791
20
2.40801683899031
30
0
41
1
10
52.0277584166889
20
2.48368924014321
30
0
41
1
10
51.7864359577686
20
2.63132991605048
30
0
41
1
10
51.6658985243033
20
2.70331846514765
30
0
41
1
10
51.4251611869403
20
2.84374253914535
30
0
41
1
10
51.3049569262101
20
2.91217037765679
30
0
41
1
10
50.9444726570035
20
3.11171138988544
30
0
41
1
10
50.704322024975
20
3.23707705460814
30
0
41
1
10
50.3428342894279
20
3.41210819214487
30
0
41
1
10
50.2221275654305
20
3.46828330086066
30
0
41
1
10
49.9800405727897
20
3.57605960050895
30
0
41
1
10
49.8586559058795
20
3.62765927979925
30
0
41
1
10
49.6760237497062
20
3.70155577439894
30
0
41
1
10
49.6149887733134
20
3.72562843328169
30
0
41
1
10
49.4930889305218
20
3.77245060871002
30
0
41
1
10
49.4322398140103
20
3.7951957661094
30
0
41
1
10
49.2499804959523
20
3.86143954418861
30
0
41
1
10
49.1288725404169
20
3.90295547941378
30
0
41
1
10
48.7664417855261
20
4.01945663617607
30
0
41
1
10
48.5259386017173
20
4.08633896725257
30
0
41
1
10
48.0450055033717
20
4.19786866031436
30
0
41
1
10
47.8046358942931
20
4.24257162243197
30
0
41
1
10
47.323107346453
20
4.30956746065146
30
0
41
1
10
47.0819344458592
20
4.33186098868441
30
0
41
1
10
46.7188849363953
20
4.34795994234133
30
0
41
1
10
46.5976574879808
20
4.35042837570299
30
0
41
1
10
46.4152077185533
20
4.34969469791005
30
0
41
1
10
46.3542485454619
20
4.34870864560608
30
0
41
1
10
46.2325885363965
20
4.34526910378696
30
0
41
1
10
46.1718299211896
20
4.34281657542621
30
0
41
1
10
45.9897126706766
20
4.3332928981018
30
0
41
1
10
45.8685275583376
20
4.32405782251808
30
0
41
1
10
45.6266273370672
20
4.29991461507538
30
0
41
1
10
45.5059250414463
20
4.2850018030029
30
0
41
1
10
45.1443484458921
20
4.2318466235225
30
0
41
1
10
44.9039749885206
20
4.18520418813713
30
0
41
1
10
44.4234250933272
20
4.06987889624583
30
0
41
1
10
44.1833077653514
20
4.00112885231914
30
0
41
1
10
43.7006412572136
20
3.84264574267732
30
0
41
1
10
43.4579862883915
20
3.75306400181768
30
0
41
1
10
43.1532813666013
20
3.62760031792484
30
0
41
1
10
43.0923200730956
20
3.6018565654075
30
0
41
1
10
42.9707168938611
20
3.54926536385176
30
0
41
1
10
42.788619740439
20
3.46865247686145
30
0
41
1
10
42.6072810012586
20
3.38302139306947
30
0
41
1
10
42.4865954593428
20
3.32383832733493
30
0
0
SPLINE
5
12C
100
AcDbEntity
8
1
62
256
6
ByLayer
370
18
48
1
60
0
100
AcDbSpline
70
4
71
3
72
8
73
4
40
0
40
0
40
0
40
0
40
1
40
1
40
1
40
1
41
1
10
42.4866098976668
20
3.32383966772832
30
0
41
1
10
42.4322030201561
20
3.20307157823626
30
0
41
1
10
42.3727581239448
20
3.08753130211849
30
0
41
1
10
42.3078805967862
20
2.9776283176449
30
0
0
SPLINE
5
12D
100
AcDbEntity
8
1
62
256
6
ByLayer
370
18
48
1
60
0
100
AcDbSpline
70
4
71
3
72
120
73
116
40
0
40
0
40
0
40
0
40
0.0197195874471117
40
0.0197195874471117
40
0.0394391748942234
40
0.0394391748942234
40
0.059158762341335
40
0.059158762341335
40
0.0690185560648909
40
0.0690185560648909
40
0.0788783497884467
40
0.0788783497884467
40
0.118317524682666
40
0.118317524682666
40
0.128177318406222
40
0.128177318406222
40
0.138037112129777
40
0.138037112129777
40
0.157756699576887
40
0.157756699576887
40
0.177476287023998
40
0.177476287023998
40
0.197195874471108
40
0.197195874471108
40
0.207055668194663
40
0.207055668194663
40
0.216915461918218
40
0.216915461918218
40
0.236635049365329
40
0.236635049365329
40
0.256354636812439
40
0.256354636812439
40
0.27607422425955
40
0.27607422425955
40
0.285934017983105
40
0.285934017983105
40
0.29579381170666
40
0.29579381170666
40
0.31551339915377
40
0.31551339915377
40
0.335232986600881
40
0.335232986600881
40
0.345092780324436
40
0.345092780324436
40
0.354952574047991
40
0.354952574047991
40
0.374672161495102
40
0.374672161495102
40
0.394391748942212
40
0.394391748942212
40
0.433830923836432
40
0.433830923836432
40
0.443690717559986
40
0.443690717559986
40
0.45355051128354
40
0.45355051128354
40
0.473270098730647
40
0.473270098730647
40
0.492989686177755
40
0.492989686177755
40
0.512709273624862
40
0.512709273624862
40
0.532428861071969
40
0.532428861071969
40
0.552148448519076
40
0.552148448519076
40
0.571868035966184
40
0.571868035966184
40
0.591587623413291
40
0.591587623413291
40
0.601447417136845
40
0.601447417136845
40
0.6113072108604
40
0.6113072108604
40
0.631026798307507
40
0.631026798307507
40
0.650746385754614
40
0.650746385754614
40
0.670465973201721
40
0.670465973201721
40
0.709905148095937
40
0.709905148095937
40
0.729624735543045
40
0.729624735543045
40
0.739484529266598
40
0.739484529266598
40
0.749344322990152
40
0.749344322990152
40
0.76906391043726
40
0.76906391043726
40
0.788783497884368
40
0.788783497884368
40
0.808503085331475
40
0.808503085331475
40
0.828222672778583
40
0.828222672778583
40
0.847942260225691
40
0.847942260225691
40
0.867661847672799
40
0.867661847672799
40
0.887381435119907
40
0.887381435119907
40
0.897241228843462
40
0.897241228843462
40
0.907101022567016
40
0.907101022567016
40
0.926820610014124
40
0.926820610014124
40
0.946540197461232
40
0.946540197461232
40
0.96625978490834
40
0.96625978490834
40
0.985979372355448
40
0.985979372355448
40
1
40
1
40
1
40
1
41
1
10
38.9442475917558
20
4.23751621974199
30
0
41
1
10
39.0839379674272
20
4.21368216825525
30
0
41
1
10
39.2230466067189
20
4.18611684249871
30
0
41
1
10
39.500272903446
20
4.12356110856933
30
0
41
1
10
39.6384456682653
20
4.08857603255709
30
0
41
1
10
39.915217604055
20
4.01186684580773
30
0
41
1
10
40.0539345832149
20
3.97022488799232
30
0
41
1
10
40.2622399209065
20
3.90281567363519
30
0
41
1
10
40.3317078531026
20
3.87951689349546
30
0
41
1
10
40.4706183381387
20
3.83120464083982
30
0
41
1
10
40.5400567603107
20
3.80618768591603
30
0
41
1
10
40.8872543091792
20
3.67682269818025
30
0
41
1
10
41.1649874704457
20
3.55958869230517
30
0
41
1
10
41.5140892918709
20
3.39669768024862
30
0
41
1
10
41.5840058018172
20
3.36330245609184
30
0
41
1
10
41.7240820998496
20
3.29490377840878
30
0
41
1
10
41.7943151423734
20
3.25986179736469
30
0
41
1
10
42.0045171913847
20
3.15287121747511
30
0
41
1
10
42.144220179684
20
3.07896041190227
30
0
41
1
10
42.4232794470054
20
2.92658367792234
30
0
41
1
10
42.5626114966256
20
2.84809808611538
30
0
41
1
10
42.8409039789858
20
2.68663527894483
30
0
41
1
10
42.9798636006971
20
2.60365838131435
30
0
41
1
10
43.1879263140933
20
2.47572435425278
30
0
41
1
10
43.2572166422879
20
2.43249967596844
30
0
41
1
10
43.3956416144381
20
2.34485142931644
30
0
41
1
10
43.4647662508205
20
2.30041600577295
30
0
41
1
10
43.6720521659583
20
2.16545989673392
30
0
41
1
10
43.8101192424342
20
2.07327451025248
30
0
41
1
10
44.0873499770479
20
1.88606361801797
30
0
41
1
10
44.2265467875109
20
1.79109229423054
30
0
41
1
10
44.5058118600412
20
1.59810160296243
30
0
41
1
10
44.6458601091488
20
1.50005856988722
30
0
41
1
10
44.8562481340657
20
1.3502112110215
30
0
41
1
10
44.9264441017104
20
1.29981493361839
30
0
41
1
10
45.0670132467509
20
1.19816780401462
30
0
41
1
10
45.1371628938746
20
1.14707853823262
30
0
41
1
10
45.3471072377038
20
0.993224451422634
30
0
41
1
10
45.4864695344374
20
0.889819801033497
30
0
41
1
10
45.7643683021255
20
0.68184215872364
30
0
41
1
10
45.9028693541192
20
0.577221754919805
30
0
41
1
10
46.1105522642432
20
0.420151849521801
30
0
41
1
10
46.1797730080788
20
0.367778097071437
30
0
41
1
10
46.3183364107364
20
0.263178127775944
30
0
41
1
10
46.3876767213497
20
0.210948779789049
30
0
41
1
10
46.5958237928338
20
0.0544064412056571
30
0
41
1
10
46.7347666264003
20
-0.0497474610493498
30
0
41
1
10
47.0125067916352
20
-0.258311617841002
30
0
41
1
10
47.1512561250855
20
-0.362786277509201
30
0
41
1
10
47.5677498609087
20
-0.675975202945381
30
0
41
1
10
47.8457969045766
20
-0.884378429662888
30
0
41
1
10
48.1962027348188
20
-1.14122762625843
30
0
41
1
10
48.2664989483038
20
-1.19247537284843
30
0
41
1
10
48.4068084396868
20
-1.29408431801963
30
0
41
1
10
48.4768750624381
20
-1.34447786632356
30
0
41
1
10
48.68684653321
20
-1.49440121077362
30
0
41
1
10
48.8265274781731
20
-1.59267049889053
30
0
41
1
10
49.1052788991044
20
-1.78593923746902
30
0
41
1
10
49.2443278688922
20
-1.88096611628953
30
0
41
1
10
49.5216788310621
20
-2.06791512140009
30
0
41
1
10
49.6600178476583
20
-2.15978713770161
30
0
41
1
10
49.936592333941
20
-2.33963854147766
30
0
41
1
10
50.0748357441207
20
-2.42760740295049
30
0
41
1
10
50.3519697019457
20
-2.59882678145473
30
0
41
1
10
50.4908346419703
20
-2.6821108389411
30
0
41
1
10
50.7692563790945
20
-2.84393917109003
30
0
41
1
10
50.9088129149699
20
-2.92248490314898
30
0
41
1
10
51.1885900851496
20
-3.07482305905728
30
0
41
1
10
51.3288100004125
20
-3.14861755448879
30
0
41
1
10
51.5395349034396
20
-3.2557496320448
30
0
41
1
10
51.6096197926148
20
-3.29076021856429
30
0
41
1
10
51.7493472273222
20
-3.35930992462184
30
0
41
1
10
51.819022275664
20
-3.39284874565499
30
0
41
1
10
52.0277158036813
20
-3.49106024924762
30
0
41
1
10
52.1664284030912
20
-3.55329565855786
30
0
41
1
10
52.444303077415
20
-3.67048319260417
30
0
41
1
10
52.5833598947559
20
-3.7255403200501
30
0
41
1
10
52.8612383746803
20
-3.82906804549333
30
0
41
1
10
52.9999894566246
20
-3.87757563271561
30
0
41
1
10
53.4159706658286
20
-4.01310235276543
30
0
41
1
10
53.6929777559955
20
-4.09009072798583
30
0
41
1
10
54.1098847754813
20
-4.18414633059487
30
0
41
1
10
54.2490835515174
20
-4.21192653476976
30
0
41
1
10
54.4585462091192
20
-4.24804286387575
30
0
41
1
10
54.5284787506725
20
-4.259155897265
30
0
41
1
10
54.6686307721799
20
-4.27949910297826
30
0
41
1
10
54.738929584151
20
-4.28873718348726
30
0
41
1
10
54.9494444782037
20
-4.31348499783104
30
0
41
1
10
55.0894961484519
20
-4.32606229355955
30
0
41
1
10
55.3689816070847
20
-4.34359344330531
30
0
41
1
10
55.5084092273309
20
-4.34855143666218
30
0
41
1
10
55.7863515738204
20
-4.35090232381179
30
0
41
1
10
55.9247548917648
20
-4.34827919056866
30
0
41
1
10
56.2012232229794
20
-4.33538571990198
30
0
41
1
10
56.3393728109681
20
-4.32511976056588
30
0
41
1
10
56.6164691531587
20
-4.29718499545859
30
0
41
1
10
56.755321139069
20
-4.27951703291134
30
0
41
1
10
57.0334847626785
20
-4.23680137732728
30
0
41
1
10
57.1727683408112
20
-4.21174416971388
30
0
41
1
10
57.4517163384715
20
-4.15411867011136
30
0
41
1
10
57.5914034738989
20
-4.12155878994869
30
0
41
1
10
57.8012642341137
20
-4.06693533647191
30
0
41
1
10
57.8712630502176
20
-4.04775735193277
30
0
41
1
10
58.0114173926114
20
-4.00745486692239
30
0
41
1
10
58.0813690672168
20
-3.98639256966288
30
0
41
1
10
58.2908033529228
20
-3.92066185905537
30
0
41
1
10
58.4300151735856
20
-3.87344369791268
30
0
41
1
10
58.708441679445
20
-3.77290537650097
30
0
41
1
10
58.8475784039479
20
-3.71954555331771
30
0
41
1
10
59.1256712441206
20
-3.60676697884657
30
0
41
1
10
59.2646203499428
20
-3.54734391852597
30
0
41
1
10
59.5422114419163
20
-3.4223702933329
30
0
41
1
10
59.6808738836008
20
-3.35683453319936
30
0
41
1
10
59.9179100166045
20
-3.23943852371252
30
0
41
1
10
60.0163207156248
20
-3.18907353939875
30
0
41
1
10
60.1147591743959
20
-3.13721408664753
30
0
0
SPLINE
5
12E
100
AcDbEntity
8
1
62
256
6
ByLayer
370
18
48
1
60
0
100
AcDbSpline
70
4
71
3
72
14
73
10
40
0
40
0
40
0
40
0
40
0.25
40
0.25
40
0.5
40
0.5
40
0.75
40
0.75
40
1
40
1
40
1
40
1
41
1
10
73.9467571512873
20
6.08495470260729
30
0
41
1
10
73.8981581244615
20
6.00321187559663
30
0
41
1
10
73.8493678945497
20
5.92078860155971
30
0
41
1
10
73.7513528493834
20
5.75461294008704
30
0
41
1
10
73.702108666757
20
5.67082760400382
30
0
41
1
10
73.6032364552536
20
5.50213195757161
30
0
41
1
10
73.5536173470603
20
5.41723718345162
30
0
41
1
10
73.4539796317337
20
5.24640966753896
30
0
41
1
10
73.4039828050645
20
5.16051364233803
30
0
41
1
10
73.3537645211516
20
5.07412657489098
30
0
0
SPLINE
5
12F
100
AcDbEntity
8
1
62
256
6
ByLayer
370
18
48
1
60
0
100
AcDbSpline
70
4
71
3
72
8
73
4
40
0
40
0
40
0
40
0
40
1
40
1
40
1
40
1
41
1
10
74.0525272384829
20
6.08597310611228
30
0
41
1
10
74.0750657750971
20
6.08597312976749
30
0
41
1
10
74.0976076645218
20
6.08583436499788
30
0
41
1
10
74.1201515272953
20
6.08555651826018
30
0
0
SPLINE
5
130
100
AcDbEntity
8
1
62
256
6
ByLayer
370
18
48
1
60
0
100
AcDbSpline
70
4
71
3
72
10
73
6
40
0
40
0
40
0
40
0
40
0.583303199489834
40
0.583303199489834
40
1
40
1
40
1
40
1
41
1
10
74.7320755795612
20
5.03776252149797
30
0
41
1
10
74.6802864391932
20
5.12959178553044
30
0
41
1
10
74.628716346196
20
5.22033855243185
30
0
41
1
10
74.540611326185
20
5.37407715978458
30
0
41
1
10
74.5039925890556
20
5.43758835166827
30
0
41
1
10
74.4674692435156
20
5.50052240835262
30
0
0
SPLINE
5
131
100
AcDbEntity
8
1
62
256
6
ByLayer
370
18
48
1
60
0
100
AcDbSpline
70
4
71
3
72
34
73
30
40
0
40
0
40
0
40
0
40
0.0624999999999852
40
0.0624999999999852
40
0.12499999999997
40
0.12499999999997
40
0.187499999999956
40
0.187499999999956
40
0.249999999999941
40
0.249999999999941
40
0.312499999999926
40
0.312499999999926
40
0.374999999999911
40
0.374999999999911
40
0.499999999999928
40
0.499999999999928
40
0.562499999999937
40
0.562499999999937
40
0.624999999999945
40
0.624999999999945
40
0.749999999999963
40
0.749999999999963
40
0.812499999999972
40
0.812499999999972
40
0.874999999999982
40
0.874999999999982
40
0.937499999999991
40
0.937499999999991
40
1
40
1
40
1
40
1
41
1
10
75.1927981161366
20
4.96147711125437
30
0
41
1
10
75.1856758373857
20
4.95077216150611
30
0
41
1
10
75.1778306086433
20
4.94127451734525
30
0
41
1
10
75.1609622723112
20
4.92424130645398
30
0
41
1
10
75.1519363150809
20
4.91671060494613
30
0
41
1
10
75.1328370874348
20
4.90339548332253
30
0
41
1
10
75.1229394770353
20
4.89773946692776
30
0
41
1
10
75.1027614534415
20
4.88819882775047
30
0
41
1
10
75.0924468473609
20
4.88429411842768
30
0
41
1
10
75.0714257112293
20
4.87800987135049
30
0
41
1
10
75.060659755404
20
4.87562462717298
30
0
41
1
10
75.0390887397207
20
4.87232112802226
30
0
41
1
10
75.0283036245727
20
4.87139559586132
30
0
41
1
10
74.9959602941814
20
4.87056391577761
30
0
41
1
10
74.9744132648976
20
4.87257779547997
30
0
41
1
10
74.9421681299117
20
4.8791503496162
30
0
41
1
10
74.9314230084751
20
4.8819494063124
30
0
41
1
10
74.9103329250164
20
4.88863448003451
30
0
41
1
10
74.8999411509756
20
4.89252808685282
30
0
41
1
10
74.8692358852363
20
4.90584222908225
30
0
41
1
10
74.8493853105182
20
4.9168698807386
30
0
41
1
10
74.8206952279821
20
4.93698486507759
30
0
41
1
10
74.8113978688467
20
4.94423778828107
30
0
41
1
10
74.7935104356087
20
4.95977738989032
30
0
41
1
10
74.7848970241581
20
4.9680793625526
30
0
41
1
10
74.7683914490365
20
4.98584574169666
30
0
41
1
10
74.7604985161977
20
4.99530874505879
30
0
41
1
10
74.7455433749345
20
5.01557858864516
30
0
41
1
10
74.7384985190288
20
5.02637376702083
30
0
41
1
10
74.7320755795612
20
5.037762521498
30
0
0
SPLINE
5
132
100
AcDbEntity
8
1
62
256
6
ByLayer
370
18
48
1
60
0
100
AcDbSpline
70
4
71
3
72
14
73
10
40
0
40
0
40
0
40
0
40
0.25
40
0.25
40
0.5
40
0.5
40
0.75
40
0.75
40
1
40
1
40
1
40
1
41
1
10
75.7852512602071
20
5.81028284134777
30
0
41
1
10
75.7366991925517
20
5.74441677244596
30
0
41
1
10
75.6879614927074
20
5.67729870212935
30
0
41
1
10
75.5900510280984
20
5.54056847880332
30
0
41
1
10
75.5408582915729
20
5.47092874088983
30
0
41
1
10
75.4420822691321
20
5.32932513662138
30
0
41
1
10
75.3925072595168
20
5.25738260856599
30
0
41
1
10
75.2929464252438
20
5.11116468882861
30
0
41
1
10
75.2429836019512
20
5.03690705755832
30
0
41
1
10
75.1927981161365
20
4.96147711125437
30
0
0
SPLINE
5
133
100
AcDbEntity
8
1
62
256
6
ByLayer
370
18
48
1
60
0
100
AcDbSpline
70
4
71
3
72
8
73
4
40
0
40
0
40
0
40
0
40
1
40
1
40
1
40
1
41
1
10
75.7852512602087
20
5.8102828413613
30
0
41
1
10
75.8438286382827
20
5.79188043569718
30
0
41
1
10
75.9023860122679
20
5.77259318104643
30
0
41
1
10
75.960923684668
20
5.75242420437542
30
0
0
SPLINE
5
134
100
AcDbEntity
8
1
62
256
6
ByLayer
370
18
48
1
60
0
100
AcDbSpline
70
4
71
3
72
14
73
10
40
0
40
0
40
0
40
0
40
0.25
40
0.25
40
0.5
40
0.5
40
0.75
40
0.75
40
1
40
1
40
1
40
1
41
1
10
76.5713251323437
20
4.54393391544733
30
0
41
1
10
76.5196966065118
20
4.64638780632993
30
0
41
1
10
76.468273572207
20
4.74846880057197
30
0
41
1
10
76.3657579636662
20
4.95185912155441
30
0
41
1
10
76.3146737365311
20
5.05317484868516
30
0
41
1
10
76.2128641793498
20
5.25492310887495
30
0
41
1
10
76.1621897989513
20
5.35524303575573
30
0
41
1
10
76.0612323114125
20
5.55476873296126
30
0
41
1
10
76.0109645707648
20
5.65394362633009
30
0
41
1
10
75.960923684668
20
5.75242420437544
30
0
0
SPLINE
5
135
100
AcDbEntity
8
1
62
256
6
ByLayer
370
18
48
1
60
0
100
AcDbSpline
70
4
71
3
72
32
73
28
40
0
40
0
40
0
40
0
40
0.0624999999999842
40
0.0624999999999842
40
0.124999999999968
40
0.124999999999968
40
0.187499999999953
40
0.187499999999953
40
0.249999999999937
40
0.249999999999937
40
0.312499999999921
40
0.312499999999921
40
0.374999999999905
40
0.374999999999905
40
0.49999999999992
40
0.49999999999992
40
0.562499999999951
40
0.562499999999951
40
0.624999999999983
40
0.624999999999983
40
0.750000000000001
40
0.750000000000001
40
0.87500000000002
40
0.87500000000002
40
0.93750000000001
40
0.93750000000001
40
1
40
1
40
1
40
1
41
1
10
77.0320132672177
20
4.34349755606556
30
0
41
1
10
77.0248962369213
20
4.33545536270219
30
0
41
1
10
77.0170555841273
20
4.32872856570313
30
0
41
1
10
77.0001935406658
20
4.31741456900804
30
0
41
1
10
76.991169314015
20
4.31283261460396
30
0
41
1
10
76.9720698206727
20
4.3055755441641
30
0
41
1
10
76.9621736412572
20
4.30297403373871
30
0
41
1
10
76.9419939965542
20
4.29952604966803
30
0
41
1
10
76.9316774443133
20
4.29867047652789
30
0
41
1
10
76.910649799867
20
4.29849193441254
30
0
41
1
10
76.8998784022866
20
4.29917999098009
30
0
41
1
10
76.8783047758834
20
4.3019412060336
30
0
41
1
10
76.8675175717704
20
4.30400250472556
30
0
41
1
10
76.8351654759741
20
4.31201394745747
30
0
41
1
10
76.8136092444801
20
4.31976793853576
30
0
41
1
10
76.7813451287842
20
4.33475904004604
30
0
41
1
10
76.7705995733188
20
4.3403307911654
30
0
41
1
10
76.7495087294594
20
4.35240510426684
30
0
41
1
10
76.7391159802328
20
4.35892813816912
30
0
41
1
10
76.7084064675539
20
4.37994384217535
30
0
41
1
10
76.688551268299
20
4.39586003650521
30
0
41
1
10
76.6502880818207
20
4.43194424403862
30
0
41
1
10
76.6323395752502
20
4.45168306924657
30
0
41
1
10
76.6076004860833
20
4.48403937221616
30
0
41
1
10
76.5997134965104
20
4.49529482055854
30
0
41
1
10
76.5847694711311
20
4.51889400758608
30
0
41
1
10
76.5777377966076
20
4.53120834573224
30
0
41
1
10
76.5713251323437
20
4.54393391544733
30
0
0
SPLINE
5
136
100
AcDbEntity
8
1
62
256
6
ByLayer
370
18
48
1
60
0
100
AcDbSpline
70
4
71
3
72
14
73
10
40
0
40
0
40
0
40
0
40
0.25
40
0.25
40
0.5
40
0.5
40
0.75
40
0.75
40
1
40
1
40
1
40
1
41
1
10
77.6258893735515
20
4.94357878244449
30
0
41
1
10
77.5772501811599
20
4.90037095188689
30
0
41
1
10
77.5284161561464
20
4.85546192645555
30
0
41
1
10
77.4302962742336
20
4.76222094292336
30
0
41
1
10
77.3809902275915
20
4.7138707265915
30
0
41
1
10
77.2819724995999
20
4.61384956247133
30
0
41
1
10
77.2322701419176
20
4.56220573341272
30
0
41
1
10
77.132442311862
20
4.45547012134276
30
0
41
1
10
77.0823401873977
20
4.40036661613937
30
0
41
1
10
77.0320132672177
20
4.34349755606556
30
0
0
SPLINE
5
137
100
AcDbEntity
8
1
62
256
6
ByLayer
370
18
48
1
60
0
100
AcDbSpline
70
4
71
3
72
8
73
4
40
0
40
0
40
0
40
0
40
1
40
1
40
1
40
1
41
1
10
77.6258893735539
20
4.94357878245467
30
0
41
1
10
77.6838458702454
20
4.90781323145231
30
0
41
1
10
77.7417108617073
20
4.87136218767921
30
0
41
1
10
77.7994961171023
20
4.83423900244009
30
0
0
SPLINE
5
138
100
AcDbEntity
8
1
62
256
6
ByLayer
370
18
48
1
60
0
100
AcDbSpline
70
4
71
3
72
14
73
10
40
0
40
0
40
0
40
0
40
0.25
40
0.25
40
0.5
40
0.5
40
0.75
40
0.75
40
1
40
1
40
1
40
1
41
1
10
78.4103964013393
20
3.590539950915
30
0
41
1
10
78.3586868684827
20
3.69293725534749
30
0
41
1
10
78.3071943059968
20
3.79570116646104
30
0
41
1
10
78.2045629914671
20
4.00191482973025
30
0
41
1
10
78.1534324171286
20
4.10538789439178
30
0
41
1
10
78.0515499378526
20
4.31301176039955
30
0
41
1
10
78.0008513812544
20
4.41703692831368
30
0
41
1
10
77.8998476675615
20
4.62546558491451
30
0
41
1
10
77.8495584954146
20
4.72983574124763
30
0
41
1
10
77.7994961171023
20
4.83423900244009
30
0
0
SPLINE
5
139
100
AcDbEntity
8
1
62
256
6
ByLayer
370
18
48
1
60
0
100
AcDbSpline
70
4
71
3
72
34
73
30
40
0
40
0
40
0
40
0
40
0.0624999999999946
40
0.0624999999999946
40
0.124999999999989
40
0.124999999999989
40
0.187499999999984
40
0.187499999999984
40
0.249999999999978
40
0.249999999999978
40
0.312499999999973
40
0.312499999999973
40
0.374999999999968
40
0.374999999999968
40
0.49999999999991
40
0.49999999999991
40
0.562499999999905
40
0.562499999999905
40
0.624999999999899
40
0.624999999999899
40
0.749999999999933
40
0.749999999999933
40
0.81249999999995
40
0.81249999999995
40
0.874999999999966
40
0.874999999999966
40
0.937499999999983
40
0.937499999999983
40
1
40
1
40
1
40
1
41
1
10
78.8709609302252
20
3.28978837329089
30
0
41
1
10
78.8638580748608
20
3.28523629624712
30
0
41
1
10
78.856035739745
20
3.28196349605582
30
0
41
1
10
78.83921673267
20
3.27749537164445
30
0
41
1
10
78.8302172164857
20
3.27630509413592
30
0
41
1
10
78.811172554305
20
3.27577475053991
30
0
41
1
10
78.8012935347496
20
3.27644519319233
30
0
41
1
10
78.7811562320925
20
3.27933181015504
30
0
41
1
10
78.7708604537368
20
3.28154963308634
30
0
41
1
10
78.7498731718265
20
3.28735441189528
30
0
41
1
10
78.7391236502671
20
3.29096630051404
30
0
41
1
10
78.7175641121746
20
3.29935211605925
30
0
41
1
10
78.7067826620643
20
3.30410729971663
30
0
41
1
10
78.6744447077714
20
3.31988769000813
30
0
41
1
10
78.6528937643224
20
3.33240786709956
30
0
41
1
10
78.6206340765226
20
3.35399771628076
30
0
41
1
10
78.609878634107
20
3.36168325952301
30
0
41
1
10
78.5887676260234
20
3.37773659366496
30
0
41
1
10
78.5783654886282
20
3.38613380315078
30
0
41
1
10
78.5476301005308
20
3.41243511836689
30
0
41
1
10
78.5277607599072
20
3.43143145463614
30
0
41
1
10
78.4990467707215
20
3.46239450891557
30
0
41
1
10
78.4897386574438
20
3.47304916457952
30
0
41
1
10
78.4718374849518
20
3.49487857737427
30
0
41
1
10
78.4632191254605
20
3.50607974986872
30
0
41
1
10
78.4467071897665
20
3.52910708840884
30
0
41
1
10
78.4388127691034
20
3.54093252875143
30
0
41
1
10
78.423857808939
20
3.56530310759203
30
0
41
1
10
78.4168154492738
20
3.57782869306374
30
0
41
1
10
78.4103964013393
20
3.590539950915
30
0
0
SPLINE
5
13A
100
AcDbEntity
8
1
62
256
6
ByLayer
370
18
48
1
60
0
100
AcDbSpline
70
4
71
3
72
10
73
6
40
0
40
0
40
0
40
0
40
0.5
40
0.5
40
1
40
1
40
1
40
1
41
1
10
79.1573740741019
20
3.45097830313023
30
0
41
1
10
79.1100249562849
20
3.4279528092215
30
0
41
1
10
79.0624858047193
20
3.40309899239085
30
0
41
1
10
78.967013117658
20
3.3494593298386
30
0
41
1
10
78.9190942643328
20
3.32063605834051
30
0
41
1
10
78.8709609302252
20
3.28978837329089
30
0
0
SPLINE
5
13B
100
AcDbEntity
8
1
62
256
6
ByLayer
370
18
48
1
60
0
100
AcDbSpline
70
4
71
3
72
12
73
8
40
0
40
0
40
0
40
0
40
0.25
40
0.25
40
0.5
40
0.5
40
1
40
1
40
1
40
1
41
1
10
79.1573740741019
20
3.45097830313023
30
0
41
1
10
79.2400564390692
20
3.36108518700385
30
0
41
1
10
79.3234543053972
20
3.2712792220569
30
0
41
1
10
79.4918255916179
20
3.09203780324708
30
0
41
1
10
79.576842551824
20
3.00255637613256
30
0
41
1
10
79.8341742246052
20
2.73531156151992
30
0
41
1
10
80.0085811475711
20
2.55912237137866
30
0
41
1
10
80.1857393849031
20
2.38511490168057
30
0
0
SPLINE
5
13C
100
AcDbEntity
8
1
62
256
6
ByLayer
370
18
48
1
60
0
100
AcDbSpline
70
4
71
3
72
8
73
4
40
0
40
0
40
0
40
0
40
1
40
1
40
1
40
1
41
1
10
80.2495509934591
20
2.27104986575432
30
0
41
1
10
80.2282421430342
20
2.3088859400026
30
0
41
1
10
80.2069759489031
20
2.3469155619365
30
0
41
1
10
80.1857393849031
20
2.38511490168057
30
0
0
SPLINE
5
13D
100
AcDbEntity
8
1
62
256
6
ByLayer
370
18
48
1
60
0
100
AcDbSpline
70
4
71
3
72
32
73
28
40
0
40
0
40
0
40
0
40
0.062499999999943
40
0.062499999999943
40
0.0937499999999146
40
0.0937499999999146
40
0.124999999999886
40
0.124999999999886
40
0.24999999999986
40
0.24999999999986
40
0.312499999999871
40
0.312499999999871
40
0.374999999999882
40
0.374999999999882
40
0.499999999999905
40
0.499999999999905
40
0.624999999999929
40
0.624999999999929
40
0.687499999999941
40
0.687499999999941
40
0.749999999999953
40
0.749999999999953
40
0.874999999999977
40
0.874999999999977
40
0.937499999999988
40
0.937499999999988
40
1
40
1
40
1
40
1
41
1
10
80.6911953380499
20
1.90074097782173
30
0
41
1
10
80.6834356413392
20
1.9017603518331
30
0
41
1
10
80.6751300979882
20
1.90362382719945
30
0
41
1
10
80.6619511837059
20
1.90753093162218
30
0
41
1
10
80.6574188321981
20
1.90902688084896
30
0
41
1
10
80.6482314743723
20
1.91233712401456
30
0
41
1
10
80.6435781164544
20
1.91414928042818
30
0
41
1
10
80.6200406737858
20
1.9239259475992
30
0
41
1
10
80.6003610588486
20
1.93399319641648
30
0
41
1
10
80.5698433043763
20
1.95181568711848
30
0
41
1
10
80.5595806102231
20
1.9581747439062
30
0
41
1
10
80.5391296480254
20
1.97150232015972
30
0
41
1
10
80.5289035447326
20
1.97849322212275
30
0
41
1
10
80.4982338454473
20
2.00038229968772
30
0
41
1
10
80.4777929310777
20
2.01618988425545
30
0
41
1
10
80.4370226152157
20
2.05019081855846
30
0
41
1
10
80.4171874300906
20
2.06797304124564
30
0
41
1
10
80.3882890474555
20
2.09583464553074
30
0
41
1
10
80.3787998468327
20
2.10532159946604
30
0
41
1
10
80.3601285751788
20
2.12471904704762
30
0
41
1
10
80.3509273830044
20
2.13465085220736
30
0
41
1
10
80.3239557460694
20
2.16500447020925
30
0
41
1
10
80.3071182585676
20
2.18562150085333
30
0
41
1
10
80.2838275776363
20
2.2172082824269
30
0
41
1
10
80.2763943755097
20
2.22784803218696
30
0
41
1
10
80.2622873420826
20
2.24938032968245
30
0
41
1
10
80.2556392331027
20
2.26023956474768
30
0
41
1
10
80.249550993459
20
2.27104986575432
30
0
0
SPLINE
5
13E
100
AcDbEntity
8
1
62
256
6
ByLayer
370
18
48
1
60
0
100
AcDbSpline
70
4
71
3
72
16
73
12
40
0
40
0
40
0
40
0
40
0.125
40
0.125
40
0.25
40
0.25
40
0.5
40
0.5
40
0.75
40
0.75
40
1
40
1
40
1
40
1
41
1
10
80.6911953380497
20
1.90074097782966
30
0
41
1
10
80.7602183638635
20
1.8361092283811
30
0
41
1
10
80.8295411731537
20
1.77173873664876
30
0
41
1
10
80.9687039699669
20
1.6434661434773
30
0
41
1
10
81.0385572626734
20
1.57957662190074
30
0
41
1
10
81.2489592318843
20
1.3888592802204
30
0
41
1
10
81.3904120960814
20
1.26299581081037
30
0
41
1
10
81.6761316875807
20
1.01449431473026
30
0
41
1
10
81.8202813349938
20
0.891734991000732
30
0
41
1
10
82.1096459998728
20
0.647641602202327
30
0
41
1
10
82.2548212483992
20
0.526261259788441
30
0
41
1
10
82.3999437600541
20
0.404943169868062
30
0
0
SPLINE
5
13F
100
AcDbEntity
8
1
62
256
6
ByLayer
370
18
48
1
60
0
100
AcDbSpline
70
4
71
3
72
14
73
10
40
0
40
0
40
0
40
0
40
0.25
40
0.25
40
0.5
40
0.5
40
0.75
40
0.75
40
1
40
1
40
1
40
1
41
1
10
82.3999437600541
20
0.404943169868034
30
0
41
1
10
82.4466472351497
20
0.353641568213419
30
0
41
1
10
82.4939858123079
20
0.303759155143069
30
0
41
1
10
82.5903865267697
20
0.207378835710699
30
0
41
1
10
82.639409049051
20
0.160966813655477
30
0
41
1
10
82.7393049059693
20
0.0717934771223838
30
0
41
1
10
82.790115520093
20
0.029068703701995
30
0
41
1
10
82.8935754212819
20
-0.0525880973237918
30
0
41
1
10
82.9462436845054
20
-0.0915371738635713
30
0
41
1
10
83.0000000000001
20
-0.128605603588881
30
0
0
SPLINE
5
140
100
AcDbEntity
8
1
62
256
6
ByLayer
370
18
48
1
60
0
100
AcDbSpline
70
4
71
3
72
55
73
51
40
0
40
0
40
0
40
0
40
0.0624999999999997
40
0.0624999999999997
40
0.0781249999999996
40
0.0781249999999996
40
0.0937499999999995
40
0.0937499999999995
40
0.124999999999999
40
0.124999999999999
40
0.187499999999999
40
0.187499999999999
40
0.218749999999999
40
0.218749999999999
40
0.249999999999999
40
0.249999999999999
40
0.374999999999998
40
0.374999999999998
40
0.499999999999998
40
0.499999999999998
40
0.624999999999997
40
0.624999999999997
40
0.656249999999997
40
0.656249999999997
40
0.687499999999997
40
0.687499999999997
40
0.749999999999997
40
0.749999999999997
40
0.765624999999997
40
0.765624999999997
40
0.781249999999997
40
0.781249999999997
40
0.796874999999997
40
0.796874999999997
40
0.812499999999997
40
0.812499999999997
40
0.828124999999997
40
0.828124999999997
40
0.843749999999997
40
0.843749999999997
40
0.874999999999998
40
0.874999999999998
40
0.906249999999998
40
0.921874999999998
40
0.921874999999998
40
0.937499999999998
40
0.937499999999998
40
0.968749999999999
40
0.968749999999999
40
1
40
1
40
1
40
1
41
1
10
82.9999999999999
20
-0.128605603588767
30
0
41
1
10
82.9999999999999
20
-0.117580652506149
30
0
41
1
10
82.9999999999999
20
-0.0957473436674547
30
0
41
1
10
82.9999999999999
20
-0.0553242146367836
30
0
41
1
10
83
20
-0.0465752432451438
30
0
41
1
10
83
20
-0.0277257435359672
30
0
41
1
10
83
20
-0.0176008711693214
30
0
41
1
10
83
20
0.0145936885386106
30
0
41
1
10
82.9999999999999
20
0.0385045496583416
30
0
41
1
10
82.9999999999999
20
0.117604141428956
30
0
41
1
10
83
20
0.180241623305534
30
0
41
1
10
82.9999999999999
20
0.28837767282073
30
0
41
1
10
83
20
0.327040792870463
30
0
41
1
10
83.0000000000001
20
0.405979532777138
30
0
41
1
10
83
20
0.445855032897043
30
0
41
1
10
83
20
0.647819471789234
30
0
41
1
10
83
20
0.818890020244339
30
0
41
1
10
83
20
1.17870106495664
30
0
41
1
10
83
20
1.36740506362233
30
0
41
1
10
83
20
1.76267405100288
30
0
41
1
10
83
20
1.96926838096385
30
0
41
1
10
83
20
2.23883039462831
30
0
41
1
10
83
20
2.29331090432464
30
0
41
1
10
83
20
2.40342116804064
30
0
41
1
10
83
20
2.45906671112425
30
0
41
1
10
83
20
2.62709295137432
30
0
41
1
10
83
20
2.74077003091176
30
0
41
1
10
83
20
2.88495124352053
30
0
41
1
10
83
20
2.91387019826436
30
0
41
1
10
83
20
2.97191131802543
30
0
41
1
10
83
20
3.00106272838639
30
0
41
1
10
83
20
3.05998637931108
30
0
41
1
10
83
20
3.08978737830995
30
0
41
1
10
83
20
3.15026817928947
30
0
41
1
10
83
20
3.1809213565401
30
0
41
1
10
83
20
3.24303403161909
30
0
41
1
10
83
20
3.27451477933354
30
0
41
1
10
83.0000000000001
20
3.33768596891832
30
0
41
1
10
83
20
3.3694479540701
30
0
41
1
10
83.0000000000001
20
3.46525367609007
30
0
41
1
10
83.0000000000001
20
3.52981510517691
30
0
41
1
10
83
20
3.66032363344485
30
0
41
1
10
82.9999999999999
20
3.75925318014404
30
0
41
1
10
83.0000000000001
20
3.85975569847179
30
0
41
1
10
83.0000000000001
20
3.92711158486418
30
0
41
1
10
83
20
3.96100569894796
30
0
41
1
10
83.0000000000001
20
4.06297947075777
30
0
41
1
10
83.0000000000001
20
4.13070329458213
30
0
41
1
10
83
20
4.26565596622876
30
0
41
1
10
83
20
4.33288562191467
30
0
41
1
10
83
20
4.39986793918052
30
0
0
SPLINE
5
141
100
AcDbEntity
8
1
62
256
6
ByLayer
370
18
48
1
60
0
100
AcDbSpline
70
4
71
3
72
12
73
8
40
0
40
0
40
0
40
0
40
0.5
40
0.5
40
0.75
40
0.75
40
1
40
1
40
1
40
1
41
1
10
83.0000000000001
20
4.3998679391805
30
0
41
1
10
82.8994551103947
20
4.49472503741103
30
0
41
1
10
82.7993503852514
20
4.59086879518611
30
0
41
1
10
82.649412819748
20
4.73713288445057
30
0
41
1
10
82.5994733054804
20
4.78622977444996
30
0
41
1
10
82.499631183984
20
4.88513261645295
30
0
41
1
10
82.4496700680952
20
4.93500647803117
30
0
41
1
10
82.3999803762429
20
4.9849490540397
30
0
0
SPLINE
5
142
100
AcDbEntity
8
1
62
256
6
ByLayer
370
18
48
1
60
0
100
AcDbSpline
70
4
71
3
72
8
73
4
40
0
40
0
40
0
40
0
40
1
40
1
40
1
40
1
41
1
10
82.3999803762429
20
4.98494905403973
30
0
41
1
10
82.2450200052211
20
4.97454724842521
30
0
41
1
10
82.088922962931
20
4.96453393914513
30
0
41
1
10
81.9320812563338
20
4.95538063796906
30
0
0
SPLINE
5
143
100
AcDbEntity
8
1
62
256
6
ByLayer
370
18
48
1
60
0
100
AcDbSpline
70
4
71
3
72
12
73
8
40
0
40
0
40
0
40
0
40
0.50000000000011
40
0.50000000000011
40
0.750000000000055
40
0.750000000000055
40
1
40
1
40
1
40
1
41
1
10
81.8248111219804
20
4.94926041726941
30
0
41
1
10
81.8428759476414
20
4.94679249017116
30
0
41
1
10
81.8609131471073
20
4.94618801898284
30
0
41
1
10
81.8878998218437
20
4.94779536117946
30
0
41
1
10
81.8969051765655
20
4.94875965936407
30
0
41
1
10
81.9146517658864
20
4.95148267819425
30
0
41
1
10
81.9234190307478
20
4.95324102506027
30
0
41
1
10
81.9320812563339
20
4.95538063796889
30
0
0
SPLINE
5
144
100
AcDbEntity
8
1
62
256
6
ByLayer
370
18
48
1
60
0
100
AcDbSpline
70
4
71
3
72
14
73
10
40
0
40
0
40
0
40
0
40
0.25
40
0.25
40
0.5
40
0.5
40
0.75
40
0.75
40
1
40
1
40
1
40
1
41
1
10
81.8248111219795
20
4.94926041727228
30
0
41
1
10
81.7015976756954
20
4.94239471188112
30
0
41
1
10
81.5779925138258
20
4.93609269007092
30
0
41
1
10
81.3304091758052
20
4.92474881099059
30
0
41
1
10
81.2064122279588
20
4.91972148438154
30
0
41
1
10
80.9587932284821
20
4.91065448183147
30
0
41
1
10
80.8351949277803
20
4.90659855581055
30
0
41
1
10
80.5891301253198
20
4.8987743255274
30
0
41
1
10
80.4666434031238
20
4.89501078427693
30
0
41
1
10
80.3448526042857
20
4.89105095592697
30
0
0
SPLINE
5
145
100
AcDbEntity
8
1
62
256
6
ByLayer
370
18
48
1
60
0
100
AcDbSpline
70
4
71
3
72
8
73
4
40
0
40
0
40
0
40
0
40
1
40
1
40
1
40
1
41
1
10
80.2773527350012
20
4.75868003164109
30
0
41
1
10
80.2998756861264
20
4.80293447396284
30
0
41
1
10
80.322381344954
20
4.84706338904294
30
0
41
1
10
80.3448526042855
20
4.89105095592714
30
0
0
SPLINE
5
146
100
AcDbEntity
8
1
62
256
6
ByLayer
370
18
48
1
60
0
100
AcDbSpline
70
4
71
3
72
32
73
28
40
0
40
0
40
0
40
0
40
0.0624999999999549
40
0.0624999999999549
40
0.12499999999991
40
0.12499999999991
40
0.249999999999859
40
0.249999999999859
40
0.312499999999856
40
0.312499999999856
40
0.374999999999854
40
0.374999999999854
40
0.437499999999851
40
0.437499999999851
40
0.499999999999848
40
0.499999999999848
40
0.624999999999887
40
0.624999999999887
40
0.687499999999906
40
0.687499999999906
40
0.749999999999926
40
0.749999999999926
40
0.874999999999964
40
0.874999999999964
40
0.937499999999982
40
0.937499999999982
40
1
40
1
40
1
40
1
41
1
10
79.8167448294161
20
4.5975791556489
30
0
41
1
10
79.8239585056296
20
4.58802709248604
30
0
41
1
10
79.8319436670254
20
4.57982291816128
30
0
41
1
10
79.8491863365468
20
4.56562749002524
30
0
41
1
10
79.8584733458426
20
4.55962795131146
30
0
41
1
10
79.8878810144877
20
4.5447197238087
30
0
41
1
10
79.9086239979511
20
4.53921830472979
30
0
41
1
10
79.94092520785
20
4.53580145567338
30
0
41
1
10
79.951908026412
20
4.53550346568844
30
0
41
1
10
79.9737200980752
20
4.53639620791364
30
0
41
1
10
79.9846179725998
20
4.53757748748782
30
0
41
1
10
80.0063905160319
20
4.54125318574327
30
0
41
1
10
80.0172652088764
20
4.54374859027868
30
0
41
1
10
80.03898331739
20
4.54997566276566
30
0
41
1
10
80.0498681741735
20
4.55372517162283
30
0
41
1
10
80.0821450255443
20
4.56666626653271
30
0
41
1
10
80.1030470223627
20
4.57745798450102
30
0
41
1
10
80.1334694252353
20
4.59671331021204
30
0
41
1
10
80.1434536523243
20
4.60364845268322
30
0
41
1
10
80.1630901621093
20
4.61858707486843
30
0
41
1
10
80.1727196919654
20
4.62658026690275
30
0
41
1
10
80.2005691647435
20
4.65177852851596
30
0
41
1
10
80.2179362287466
20
4.67030363524802
30
0
41
1
10
80.2419520719013
20
4.70102893917809
30
0
41
1
10
80.2496155485486
20
4.71176544868086
30
0
41
1
10
80.2641594493876
20
4.73438422171981
30
0
41
1
10
80.2710553242001
20
4.7463065020126
30
0
41
1
10
80.2773527350013
20
4.75868003164129
30
0
0
SPLINE
5
147
100
AcDbEntity
8
1
62
256
6
ByLayer
370
18
48
1
60
0
100
AcDbSpline
70
4
71
3
72
10
73
6
40
0
40
0
40
0
40
0
40
0.5
40
0.5
40
1
40
1
40
1
40
1
41
1
10
79.6120534750806
20
4.86133184970359
30
0
41
1
10
79.6460003973132
20
4.81872084426041
30
0
41
1
10
79.6800239550005
20
4.77544789252261
30
0
41
1
10
79.7482403086975
20
4.68758590261271
30
0
41
1
10
79.7824296090067
20
4.64301800584059
30
0
41
1
10
79.8167448294161
20
4.5975791556489
30
0
0
SPLINE
5
148
100
AcDbEntity
8
1
62
256
6
ByLayer
370
18
48
1
60
0
100
AcDbSpline
70
4
71
3
72
12
73
8
40
0
40
0
40
0
40
0
40
0.25
40
0.25
40
0.5
40
0.5
40
1
40
1
40
1
40
1
41
1
10
79.6120534750806
20
4.86133184970356
30
0
41
1
10
79.5473229995939
20
4.8578701634525
30
0
41
1
10
79.4828574070025
20
4.85410784795337
30
0
41
1
10
79.3544815071058
20
4.84583564436264
30
0
41
1
10
79.2905525710804
20
4.84132417187232
30
0
41
1
10
79.0997662425949
20
4.82646818799952
30
0
41
1
10
78.9739544688538
20
4.81480097884057
30
0
41
1
10
78.8495390404183
20
4.80088203846185
30
0
0
SPLINE
5
149
100
AcDbEntity
8
1
62
256
6
ByLayer
370
18
48
1
60
0
100
AcDbSpline
70
4
71
3
72
12
73
8
40
0
40
0
40
0
40
0
40
0.25
40
0.25
40
0.5
40
0.5
40
1
40
1
40
1
40
1
41
1
10
78.438061802927
20
3.94339658651703
30
0
41
1
10
78.4726865072481
20
4.01487417292998
30
0
41
1
10
78.5072625379967
20
4.08634210969927
30
0
41
1
10
78.5762029312658
20
4.22929687945452
30
0
41
1
10
78.6105739899204
20
4.300781282017
30
0
41
1
10
78.7134318628877
20
4.51523698917984
30
0
41
1
10
78.7816837722762
20
4.65825330019237
30
0
41
1
10
78.8495390404183
20
4.80088203846188
30
0
0
SPLINE
5
14A
100
AcDbEntity
8
1
62
256
6
ByLayer
370
18
48
1
60
0
100
AcDbSpline
70
4
71
3
72
14
73
10
40
0
40
0
40
0
40
0
40
0.183840157539721
40
0.183840157539721
40
0.591920078769807
40
0.591920078769807
40
0.795960039384904
40
0.795960039384904
40
1
40
1
40
1
40
1
41
1
10
78.3168370346654
20
3.77851060891848
30
0
41
1
10
78.3256503969183
20
3.78704620719742
30
0
41
1
10
78.3343011621533
20
3.7959253612097
30
0
41
1
10
78.361245235538
20
3.82526067830017
30
0
41
1
10
78.3786196787123
20
3.84677331982002
30
0
41
1
10
78.402646176743
20
3.88123095800816
30
0
41
1
10
78.4103132612376
20
3.89308507931384
30
0
41
1
10
78.4248621603315
20
3.91764275610117
30
0
41
1
10
78.4317614317217
20
3.93039040101732
30
0
41
1
10
78.4380618029272
20
3.94339658651711
30
0
0
SPLINE
5
14B
100
AcDbEntity
8
1
62
256
6
ByLayer
370
18
48
1
60
0
100
AcDbSpline
70
4
71
3
72
14
73
10
40
0
40
0
40
0
40
0
40
0.500000000000009
40
0.500000000000009
40
0.750000000000013
40
0.750000000000013
40
0.875000000000006
40
0.875000000000006
40
1
40
1
40
1
40
1
41
1
10
78.0004034043615
20
1.1937398521851
30
0
41
1
10
78.0972204323199
20
1.09447209962042
30
0
41
1
10
78.194923102406
20
1.00227910249237
30
0
41
1
10
78.3425313083976
20
0.875451204594953
30
0
41
1
10
78.3918790408453
20
0.835107554280086
30
0
41
1
10
78.4661580048732
20
0.77751360508438
30
0
41
1
10
78.4909601651489
20
0.758799134294492
30
0
41
1
10
78.5406586588713
20
0.722365723398298
30
0
41
1
10
78.5655564397845
20
0.704661116615398
30
0
41
1
10
78.5905209411733
20
0.687604596791999
30
0
0
SPLINE
5
14C
100
AcDbEntity
8
1
62
256
6
ByLayer
370
18
48
1
60
0
100
AcDbSpline
70
4
71
3
72
8
73
4
40
0
40
0
40
0
40
0
40
1
40
1
40
1
40
1
41
1
10
78.0004034043615
20
1.19373985218513
30
0
41
1
10
77.9421777821946
20
1.25431770642913
30
0
41
1
10
77.8839502190555
20
1.31471471430783
30
0
41
1
10
77.8257062980301
20
1.3749172760408
30
0
0
SPLINE
5
14D
100
AcDbEntity
8
1
62
256
6
ByLayer
370
18
48
1
60
0
100
AcDbSpline
70
4
71
3
72
16
73
12
40
0
40
0
40
0
40
0
40
0.125
40
0.125
40
0.25
40
0.25
40
0.5
40
0.5
40
0.75
40
0.75
40
1
40
1
40
1
40
1
41
1
10
77.2118853533745
20
1.86972476303475
30
0
41
1
10
77.2378360588015
20
1.85374493579224
30
0
41
1
10
77.2637595720314
20
1.83726487708225
30
0
41
1
10
77.3155023006289
20
1.80310765836052
30
0
41
1
10
77.3413186568492
20
1.78541920993902
30
0
41
1
10
77.418616230433
20
1.73053115549357
30
0
41
1
10
77.469960151178
20
1.69150949366644
30
0
41
1
10
77.5722944453794
20
1.60878521540232
30
0
41
1
10
77.6232385259477
20
1.56512115814124
30
0
41
1
10
77.7247713887853
20
1.47330758685806
30
0
41
1
10
77.7753396729487
20
1.42517616786304
30
0
41
1
10
77.8257062980301
20
1.3749172760408
30
0
0
SPLINE
5
14E
100
AcDbEntity
8
1
62
256
6
ByLayer
370
18
48
1
60
0
100
AcDbSpline
70
4
71
3
72
32
73
28
40
0
40
0
40
0
40
0
40
0.0625000000000273
40
0.0625000000000273
40
0.125000000000055
40
0.125000000000055
40
0.250000000000071
40
0.250000000000071
40
0.312500000000079
40
0.312500000000079
40
0.375000000000087
40
0.375000000000087
40
0.437500000000096
40
0.437500000000096
40
0.500000000000104
40
0.500000000000104
40
0.625000000000077
40
0.625000000000077
40
0.687500000000064
40
0.687500000000064
40
0.750000000000051
40
0.750000000000051
40
0.875000000000026
40
0.875000000000026
40
0.937500000000013
40
0.937500000000013
40
1
40
1
40
1
40
1
41
1
10
76.7512773699367
20
2.24337983299603
30
0
41
1
10
76.7584837307043
20
2.23505618697163
30
0
41
1
10
76.7664609622613
20
2.22639723800171
30
0
41
1
10
76.7836883455812
20
2.20853459081275
30
0
41
1
10
76.7929660752588
20
2.19930618732585
30
0
41
1
10
76.8223640077916
20
2.17102170985638
30
0
41
1
10
76.8431122903558
20
2.15222188024251
30
0
41
1
10
76.8754301428737
20
2.12401378914814
30
0
41
1
10
76.8864218539696
20
2.11460126851361
30
0
41
1
10
76.9082513701113
20
2.09620044130861
30
0
41
1
10
76.9191578519712
20
2.08715182834033
30
0
41
1
10
76.9409463634615
20
2.06931413803903
30
0
41
1
10
76.9518284209096
20
2.06052530949623
30
0
41
1
10
76.9735593665175
20
2.04317956801123
30
0
41
1
10
76.9844501927845
20
2.03459014783365
30
0
41
1
10
77.016735417682
20
2.0093949359063
30
0
41
1
10
77.0376376247606
20
1.99343590805214
30
0
41
1
10
77.068055946643
20
1.97060995204058
30
0
41
1
10
77.078038097845
20
1.96318896049718
30
0
41
1
10
77.0976698427432
20
1.94872499580973
30
0
41
1
10
77.1072912354909
20
1.94170335085997
30
0
41
1
10
77.1351225370474
20
1.92158637227544
30
0
41
1
10
77.1524807293132
20
1.90929573951945
30
0
41
1
10
77.1764922113823
20
1.89278890797851
30
0
41
1
10
77.1841556177643
20
1.88761286168383
30
0
41
1
10
77.1986991117117
20
1.87802189816969
30
0
41
1
10
77.2055916759281
20
1.87360025992936
30
0
41
1
10
77.2118853533745
20
1.86972476303401
30
0
0
SPLINE
5
14F
100
AcDbEntity
8
1
62
256
6
ByLayer
370
18
48
1
60
0
100
AcDbSpline
70
4
71
3
72
14
73
10
40
0
40
0
40
0
40
0
40
0.500000000000001
40
0.500000000000001
40
0.75
40
0.75
40
0.875
40
0.875
40
1
40
1
40
1
40
1
41
1
10
76.1613762865249
20
3.0136563665321
30
0
41
1
10
76.2581298373248
20
2.8735513629712
30
0
41
1
10
76.3557742160523
20
2.73876539708121
30
0
41
1
10
76.5033226604276
20
2.54578444737857
30
0
41
1
10
76.552655242631
20
2.48302981178577
30
0
41
1
10
76.6269212256865
20
2.39129851433239
30
0
41
1
10
76.6517208318668
20
2.36111981850203
30
0
41
1
10
76.7014163297056
20
2.3015732643594
30
0
41
1
10
76.7263133110958
20
2.27221435791429
30
0
41
1
10
76.7512773699367
20
2.243379832996
30
0
0
SPLINE
5
150
100
AcDbEntity
8
1
62
256
6
ByLayer
370
18
48
1
60
0
100
AcDbSpline
70
4
71
3
72
8
73
4
40
0
40
0
40
0
40
0
40
1
40
1
40
1
40
1
41
1
10
76.1613762865249
20
3.01365636653213
30
0
41
1
10
76.1031197930295
20
3.06735360454786
30
0
41
1
10
76.0449280119427
20
3.12052472974858
30
0
41
1
10
75.986786556935
20
3.17316130591467
30
0
0
SPLINE
5
151
100
AcDbEntity
8
1
62
256
6
ByLayer
370
18
48
1
60
0
100
AcDbSpline
70
4
71
3
72
16
73
12
40
0
40
0
40
0
40
0
40
0.125000000000004
40
0.125000000000004
40
0.250000000000008
40
0.250000000000008
40
0.500000000000006
40
0.500000000000006
40
0.750000000000003
40
0.750000000000003
40
1
40
1
40
1
40
1
41
1
10
75.3725241406052
20
3.26794677530606
30
0
41
1
10
75.3985020549644
20
3.26891125700627
30
0
41
1
10
75.424451361502
20
3.26933970312877
30
0
41
1
10
75.4762442927995
20
3.26892270830282
30
0
41
1
10
75.5020865129663
20
3.26806951577663
30
0
41
1
10
75.5794655849948
20
3.26359754757013
30
0
41
1
10
75.630865322578
20
3.25807096820321
30
0
41
1
10
75.7332907760787
20
3.24208316275047
30
0
41
1
10
75.7842705924831
20
3.23163023239221
30
0
41
1
10
75.8858470004823
20
3.20594190614318
30
0
41
1
10
75.93642344841
20
3.190711437658
30
0
41
1
10
75.986786556935
20
3.17316130591465
30
0
0
SPLINE
5
152
100
AcDbEntity
8
1
62
256
6
ByLayer
370
18
48
1
60
0
100
AcDbSpline
70
4
71
3
72
32
73
28
40
0
40
0
40
0
40
0
40
0.0625000000000099
40
0.0625000000000099
40
0.12500000000002
40
0.12500000000002
40
0.249999999999999
40
0.249999999999999
40
0.312499999999989
40
0.312499999999989
40
0.374999999999978
40
0.374999999999978
40
0.437499999999967
40
0.437499999999967
40
0.499999999999957
40
0.499999999999957
40
0.624999999999935
40
0.624999999999935
40
0.687499999999946
40
0.687499999999946
40
0.749999999999957
40
0.749999999999957
40
0.874999999999978
40
0.874999999999978
40
0.937499999999989
40
0.937499999999989
40
1
40
1
40
1
40
1
41
1
10
74.9118893063984
20
3.57074572404181
30
0
41
1
10
74.9190991294608
20
3.55985972572933
30
0
41
1
10
74.9270791302094
20
3.54908148116166
30
0
41
1
10
74.9443091898
20
3.52770766191995
30
0
41
1
10
74.9535859498783
20
3.51708696385907
30
0
41
1
10
74.9829809893407
20
3.48562509031186
30
0
41
1
10
75.003725359668
20
3.46610473733781
30
0
41
1
10
75.0360307197201
20
3.43834548303269
30
0
41
1
10
75.0470199692057
20
3.42934657662937
30
0
41
1
10
75.0688446957985
20
3.41221943441354
30
0
41
1
10
75.0797482095196
20
3.40403156170541
30
0
41
1
10
75.1015296037424
20
3.38831569926225
30
0
41
1
10
75.1124075133276
20
3.38078825455275
30
0
41
1
10
75.1341290821184
20
3.36634251853303
30
0
41
1
10
75.1450128304782
20
3.35940025345062
30
0
41
1
10
75.1772983943325
20
3.33963416122325
30
0
41
1
10
75.198199696983
20
3.32793113404961
30
0
41
1
10
75.2286160287102
20
3.31239433639883
30
0
41
1
10
75.2385974316807
20
3.30755554974689
30
0
41
1
10
75.2582278544677
20
3.29857216458572
30
0
41
1
10
75.26785938713
20
3.29443844989206
30
0
41
1
10
75.2957124000228
20
3.28332612510252
30
0
41
1
10
75.3130828506827
20
3.27752756016355
30
0
41
1
10
75.337108731654
20
3.27159341702418
30
0
41
1
10
75.3447756918981
20
3.27008102308304
30
0
41
1
10
75.3593236927522
20
3.26813877863918
30
0
41
1
10
75.3662233709053
20
3.26771284670821
30
0
41
1
10
75.3725241406052
20
3.26794677530575
30
0
0
SPLINE
5
153
100
AcDbEntity
8
1
62
256
6
ByLayer
370
18
48
1
60
0
100
AcDbSpline
70
4
71
3
72
14
73
10
40
0
40
0
40
0
40
0
40
0.5
40
0.5
40
0.75
40
0.75
40
0.875
40
0.875
40
1
40
1
40
1
40
1
41
1
10
74.3210444050701
20
4.52737745002878
30
0
41
1
10
74.4179805485976
20
4.36059548477846
30
0
41
1
10
74.5158068138989
20
4.19689380231546
30
0
41
1
10
74.6636047965327
20
3.95731088668882
30
0
41
1
10
74.7130150025846
20
3.87849326810564
30
0
41
1
10
74.7873856997604
20
3.76185722355638
30
0
41
1
10
74.8122184368037
20
3.72324338487402
30
0
41
1
10
74.8619755350319
20
3.64655127802459
30
0
41
1
10
74.8869004062678
20
3.60847607086129
30
0
41
1
10
74.9118893063983
20
3.57074572404178
30
0
0
SPLINE
5
154
100
AcDbEntity
8
1
62
256
6
ByLayer
370
18
48
1
60
0
100
AcDbSpline
70
4
71
3
72
8
73
4
40
0
40
0
40
0
40
0
40
1
40
1
40
1
40
1
41
1
10
74.3210444050744
20
4.52737745002872
30
0
41
1
10
74.2632240526626
20
4.56837079815352
30
0
41
1
10
74.2053175221726
20
4.60873298231621
30
0
41
1
10
74.1473110517164
20
4.64844980534227
30
0
0
SPLINE
5
155
100
AcDbEntity
8
1
62
256
6
ByLayer
370
18
48
1
60
0
100
AcDbSpline
70
4
71
3
72
16
73
12
40
0
40
0
40
0
40
0
40
0.124999999999995
40
0.124999999999995
40
0.249999999999991
40
0.249999999999991
40
0.499999999999994
40
0.499999999999994
40
0.749999999999997
40
0.749999999999997
40
1
40
1
40
1
40
1
41
1
10
73.5331938971349
20
4.33279682467969
30
0
41
1
10
73.5591541614774
20
4.35063100324186
30
0
41
1
10
73.5850836926554
20
4.36795311637698
30
0
41
1
10
73.6368332077987
20
4.40139021687878
30
0
41
1
10
73.6626528853024
20
4.4175032156667
30
0
41
1
10
73.7399665820961
20
4.46404776124641
30
0
41
1
10
73.7913270755304
20
4.49269205618199
30
0
41
1
10
73.8937082668023
20
4.54526480330568
30
0
41
1
10
73.9446827565908
20
4.56917061060477
30
0
41
1
10
74.0462884124519
20
4.61231482651246
30
0
41
1
10
74.0968992660785
20
4.6315445312776
30
0
41
1
10
74.1473110517164
20
4.64844980534227
30
0
0
SPLINE
5
156
100
AcDbEntity
8
1
62
256
6
ByLayer
370
18
48
1
60
0
100
AcDbSpline
70
4
71
3
72
31
73
27
40
0
40
0
40
0
40
0
40
0.0624999999999835
40
0.0624999999999835
40
0.124999999999967
40
0.124999999999967
40
0.249999999999936
40
0.249999999999936
40
0.312499999999944
40
0.312499999999944
40
0.374999999999952
40
0.437499999999959
40
0.437499999999959
40
0.499999999999967
40
0.499999999999967
40
0.625000000000029
40
0.625000000000029
40
0.687500000000038
40
0.687500000000038
40
0.750000000000047
40
0.750000000000047
40
0.875000000000024
40
0.875000000000024
40
0.937500000000012
40
0.937500000000012
40
1
40
1
40
1
40
1
41
1
10
73.0725220610074
20
4.53363733582466
30
0
41
1
10
73.0797324391893
20
4.52129974485726
30
0
41
1
10
73.0877127328786
20
4.50950182608841
30
0
41
1
10
73.1049429410557
20
4.48679637063836
30
0
41
1
10
73.1142193558655
20
4.47586574012394
30
0
41
1
10
73.1436143848761
20
4.44443077550437
30
0
41
1
10
73.1643611719411
20
4.42617052328333
30
0
41
1
10
73.1966730371439
20
4.40167566698219
30
0
41
1
10
73.2076653328094
20
4.39400484676077
30
0
41
1
10
73.2294959175271
20
4.37989415313379
30
0
41
1
10
73.2513085307733
20
4.36690673365371
30
0
41
1
10
73.2730689396659
20
4.35591065013116
30
0
41
1
10
73.2947944817404
20
4.34584025202892
30
0
41
1
10
73.3056801408731
20
4.34125339531747
30
0
41
1
10
73.3379679991484
20
4.32895346836901
30
0
41
1
10
73.3588691147766
20
4.32271670236255
30
0
41
1
10
73.3892843912409
20
4.31608120092045
30
0
41
1
10
73.3992653134604
20
4.31432770538766
30
0
41
1
10
73.4188949023425
20
4.31176068204121
30
0
41
1
10
73.4285242043799
20
4.31095446637977
30
0
41
1
10
73.4563732684153
20
4.31002542561976
30
0
41
1
10
73.4737441402355
20
4.31133694712187
30
0
41
1
10
73.4977729297312
20
4.31660978828941
30
0
41
1
10
73.5054411132782
20
4.31892397590352
30
0
41
1
10
73.5199921327395
20
4.32484416012863
30
0
41
1
10
73.5268924784006
20
4.3284678769684
30
0
41
1
10
73.5331938971349
20
4.33279682467943
30
0
0
SPLINE
5
157
100
AcDbEntity
8
1
62
256
6
ByLayer
370
18
48
1
60
0
100
AcDbSpline
70
4
71
3
72
13
73
9
40
0
40
0
40
0
40
0
40
0.499999999999993
40
0.499999999999993
40
0.749999999999996
40
0.874999999999998
40
0.874999999999998
40
1
40
1
40
1
40
1
41
1
10
72.4819411306796
20
5.57847269044407
30
0
41
1
10
72.5788200114028
20
5.4021889792642
30
0
41
1
10
72.6765896409777
20
5.22638792169039
30
0
41
1
10
72.8243161624462
20
4.96475475496729
30
0
41
1
10
72.898400273263
20
4.83453587479679
30
0
41
1
10
72.9728762399805
20
4.70524950985444
30
0
41
1
10
73.0226204314278
20
4.61926984476139
30
0
41
1
10
73.0475391108257
20
4.57638535995338
30
0
41
1
10
73.0725220610074
20
4.53363733582466
30
0
0
SPLINE
5
158
100
AcDbEntity
8
1
62
256
6
ByLayer
370
18
48
1
60
0
100
AcDbSpline
70
4
71
3
72
8
73
4
40
0
40
0
40
0
40
0
40
1
40
1
40
1
40
1
41
1
10
72.4819411306796
20
5.57847269044407
30
0
41
1
10
72.4239012267113
20
5.60308844996493
30
0
41
1
10
72.3658422973041
20
5.62685481241337
30
0
41
1
10
72.3077514288588
20
5.64976492295685
30
0
0
SPLINE
5
159
100
AcDbEntity
8
1
62
256
6
ByLayer
370
18
48
1
60
0
100
AcDbSpline
70
4
71
3
72
16
73
12
40
0
40
0
40
0
40
0
40
0.124999999999995
40
0.124999999999995
40
0.249999999999991
40
0.249999999999991
40
0.499999999999994
40
0.499999999999994
40
0.749999999999997
40
0.749999999999997
40
1
40
1
40
1
40
1
41
1
10
71.6939463988505
20
4.95705175220053
30
0
41
1
10
71.7198910181528
20
4.98989940288897
30
0
41
1
10
71.7458050601751
20
5.02231031000548
30
0
41
1
10
71.7975230042006
20
5.08610993080546
30
0
41
1
10
71.8233285257213
20
5.11750227438623
30
0
41
1
10
71.9006025644559
20
5.21017073332112
30
0
41
1
10
71.9519400108273
20
5.26995161416707
30
0
41
1
10
72.054275505185
20
5.38549350138609
30
0
41
1
10
72.1052266368375
20
5.44120241324759
30
0
41
1
10
72.2067824576335
20
5.54856582170956
30
0
41
1
10
72.257367055107
20
5.60019893533655
30
0
41
1
10
72.3077514288588
20
5.64976492295685
30
0
0
SPLINE
5
15A
100
AcDbEntity
8
1
62
256
6
ByLayer
370
18
48
1
60
0
100
AcDbSpline
70
4
71
3
72
32
73
28
40
0
40
0
40
0
40
0
40
0.0624999999999859
40
0.0624999999999859
40
0.124999999999972
40
0.124999999999972
40
0.249999999999944
40
0.249999999999944
40
0.31249999999993
40
0.31249999999993
40
0.374999999999916
40
0.374999999999916
40
0.437499999999901
40
0.437499999999901
40
0.499999999999887
40
0.499999999999887
40
0.624999999999904
40
0.624999999999904
40
0.687499999999913
40
0.687499999999913
40
0.749999999999922
40
0.749999999999922
40
0.874999999999979
40
0.874999999999979
40
0.93749999999999
40
0.93749999999999
40
1
40
1
40
1
40
1
41
1
10
71.2332825153469
20
5.03521642822585
30
0
41
1
10
71.2404943824443
20
5.0226948701347
30
0
41
1
10
71.2484756467729
20
5.01109173709972
30
0
41
1
10
71.2657064026741
20
4.98939498460228
30
0
41
1
10
71.2749825647911
20
4.97928233553316
30
0
41
1
10
71.3043733544427
20
4.95112374611878
30
0
41
1
10
71.3251152022833
20
4.93601278762995
30
0
41
1
10
71.3574198415248
20
4.91731591768425
30
0
41
1
10
71.3684099671795
20
4.91176688149994
30
0
41
1
10
71.3902361711038
20
4.90213239381504
30
0
41
1
10
71.4011401032843
20
4.89800527928381
30
0
41
1
10
71.4229212613496
20
4.89097697458561
30
0
41
1
10
71.4337985200561
20
4.88807672020647
30
0
41
1
10
71.455517624398
20
4.88342215069167
30
0
41
1
10
71.4663991782229
20
4.88166446504022
30
0
41
1
10
71.4986809670703
20
4.87809775252072
30
0
41
1
10
71.5195781267059
20
4.87796780762821
30
0
41
1
10
71.5499894465844
20
4.88091182319997
30
0
41
1
10
71.5599693867892
20
4.88242208110066
30
0
41
1
10
71.5795980718842
20
4.88653093408527
30
0
41
1
10
71.5892306145173
20
4.88913251350675
30
0
41
1
10
71.617089056428
20
4.89847571660678
30
0
41
1
10
71.63446871292
20
4.90675874798464
30
0
41
1
10
71.6585081811941
20
4.92269166093257
30
0
41
1
10
71.6661796034251
20
4.92859337828614
30
0
41
1
10
71.6807360903049
20
4.94176599489487
30
0
41
1
10
71.6876407969381
20
4.94906843178288
30
0
41
1
10
71.6939463988505
20
4.95705175220044
30
0
0
SPLINE
5
15B
100
AcDbEntity
8
1
62
256
6
ByLayer
370
18
48
1
60
0
100
AcDbSpline
70
4
71
3
72
12
73
8
40
0
40
0
40
0
40
0
40
0.500000000000001
40
0.500000000000001
40
0.750000000000001
40
0.750000000000001
40
1
40
1
40
1
40
1
41
1
10
70.7159444156838
20
5.93468539156851
30
0
41
1
10
70.8009757753339
20
5.78708590382286
30
0
41
1
10
70.8866602541349
20
5.63801038740186
30
0
41
1
10
71.0160580819357
20
5.41287086940625
30
0
41
1
10
71.0593291770427
20
5.33758140359322
30
0
41
1
10
71.1461015753904
20
5.18667650172165
30
0
41
1
10
71.1896054528755
20
5.11105044840414
30
0
41
1
10
71.2332825153469
20
5.03521642822585
30
0
0
SPLINE
5
15C
100
AcDbEntity
8
1
62
256
6
ByLayer
370
18
48
1
60
0
100
AcDbSpline
70
4
71
3
72
8
73
4
40
0
40
0
40
0
40
0
40
1
40
1
40
1
40
1
41
1
10
70.3631749309408
20
5.910589610898
30
0
41
1
10
70.4810982314841
20
5.92266389918811
30
0
41
1
10
70.5986471731912
20
5.93069812044794
30
0
41
1
10
70.7159444156838
20
5.93468539156851
30
0
0
SPLINE
5
15D
100
AcDbEntity
8
1
62
256
6
ByLayer
370
18
48
1
60
0
100
AcDbSpline
70
4
71
3
72
14
73
10
40
0
40
0
40
0
40
0
40
0.25
40
0.25
40
0.5
40
0.5
40
0.75
40
0.75
40
1
40
1
40
1
40
1
41
1
10
69.8546957485401
20
5.07295795481295
30
0
41
1
10
69.8976044411932
20
5.1466101330434
30
0
41
1
10
69.9404035287073
20
5.21939516179225
30
0
41
1
10
70.0256826295295
20
5.36297593229364
30
0
41
1
10
70.0681814346593
20
5.43380397759884
30
0
41
1
10
70.1529504115391
20
5.57354475444473
30
0
41
1
10
70.1952078921593
20
5.64243586637556
30
0
41
1
10
70.2793975413874
20
5.77807472036795
30
0
41
1
10
70.3213468373471
20
5.84485076577752
30
0
41
1
10
70.3631749309408
20
5.91058961089794
30
0
0
SPLINE
5
15E
100
AcDbEntity
8
1
62
256
6
ByLayer
370
18
48
1
60
0
100
AcDbSpline
70
4
71
3
72
32
73
28
40
0
40
0
40
0
40
0
40
0.0624999999999904
40
0.0624999999999904
40
0.124999999999981
40
0.124999999999981
40
0.249999999999961
40
0.249999999999961
40
0.312499999999952
40
0.312499999999952
40
0.374999999999942
40
0.374999999999942
40
0.437499999999933
40
0.437499999999933
40
0.499999999999923
40
0.499999999999923
40
0.62499999999995
40
0.62499999999995
40
0.687499999999964
40
0.687499999999964
40
0.749999999999978
40
0.749999999999978
40
0.875000000000006
40
0.875000000000006
40
0.937500000000003
40
0.937500000000003
40
1
40
1
40
1
40
1
41
1
10
69.3940744487801
20
5.02165083231978
30
0
41
1
10
69.4012727423495
20
5.01022079962746
30
0
41
1
10
69.4092379963565
20
4.99998593940472
30
0
41
1
10
69.4264337135857
20
4.9814787902726
30
0
41
1
10
69.4356872090677
20
4.97319614295466
30
0
41
1
10
69.4650299321706
20
4.9510946781273
30
0
41
1
10
69.485743022909
20
4.94059694174641
30
0
41
1
10
69.518013415538
20
4.92947622267829
30
0
41
1
10
69.5289989637623
20
4.92656869362267
30
0
41
1
10
69.5508208608962
20
4.92230293748872
30
0
41
1
10
69.5617237844415
20
4.92091868377608
30
0
41
1
10
69.5835047187474
20
4.91948504166788
30
0
41
1
10
69.5943827619582
20
4.91943664258793
30
0
41
1
10
69.6161050124456
20
4.92059247228431
30
0
41
1
10
69.6269872554619
20
4.92180406910464
30
0
41
1
10
69.6592925921771
20
4.92723020374766
30
0
41
1
10
69.6802046504271
20
4.93316188141574
30
0
41
1
10
69.7106378754075
20
4.94531250503499
30
0
41
1
10
69.7206250464009
20
4.94991078468974
30
0
41
1
10
69.7402682070179
20
4.96023792361393
30
0
41
1
10
69.7499131246318
20
4.96596851032623
30
0
41
1
10
69.7778018243928
20
4.98459508664106
30
0
41
1
10
69.7951968174085
20
4.99898691855105
30
0
41
1
10
69.8192504437819
20
5.02393883513602
30
0
41
1
10
69.8269251982443
20
5.03282261121518
30
0
41
1
10
69.8414856547494
20
5.05190049216083
30
0
41
1
10
69.8483910698428
20
5.06213606091714
30
0
41
1
10
69.8546957485401
20
5.07295795481286
30
0
0
SPLINE
5
15F
100
AcDbEntity
8
1
62
256
6
ByLayer
370
18
48
1
60
0
100
AcDbSpline
70
4
71
3
72
12
73
8
40
0
40
0
40
0
40
0
40
0.499999999999987
40
0.499999999999987
40
0.749999999999993
40
0.749999999999993
40
1
40
1
40
1
40
1
41
1
10
69.0186942499333
20
5.60486893324614
30
0
41
1
10
69.0807024501287
20
5.51076939500433
30
0
41
1
10
69.1430317804704
20
5.41497862463075
30
0
41
1
10
69.2368764492237
20
5.26912583076711
30
0
41
1
10
69.2682186060556
20
5.22014397006237
30
0
41
1
10
69.3310376633723
20
5.12145767886847
30
0
41
1
10
69.3625104173314
20
5.0717707541996
30
0
41
1
10
69.3940744487801
20
5.02165083231978
30
0
0
SPLINE
5
160
100
AcDbEntity
8
1
62
256
6
ByLayer
370
18
48
1
60
0
100
AcDbSpline
70
4
71
3
72
8
73
4
40
0
40
0
40
0
40
0
40
1
40
1
40
1
40
1
41
1
10
68.3479061028732
20
5.33421222275209
30
0
41
1
10
68.5728226271604
20
5.43713622727563
30
0
41
1
10
68.7961121662359
20
5.52747125014153
30
0
41
1
10
69.0186942499305
20
5.60486893326009
30
0
0
SPLINE
5
161
100
AcDbEntity
8
1
62
256
6
ByLayer
370
18
48
1
60
0
100
AcDbSpline
70
4
71
3
72
12
73
8
40
0
40
0
40
0
40
0
40
0.249999999999994
40
0.249999999999994
40
0.499999999999988
40
0.499999999999988
40
1
40
1
40
1
40
1
41
1
10
68.0154216060396
20
4.67789480743355
30
0
41
1
10
68.0433395676462
20
4.73336064967793
30
0
41
1
10
68.0712212181912
20
4.78865294765328
30
0
41
1
10
68.1268604067786
20
4.89885081638749
30
0
41
1
10
68.1546231467183
20
4.9537594415828
30
0
41
1
10
68.2377585240394
20
5.1179117359134
30
0
41
1
10
68.2929526986351
20
5.22653107691997
30
0
41
1
10
68.3479061028732
20
5.33421222275206
30
0
0
SPLINE
5
162
100
AcDbEntity
8
1
62
256
6
ByLayer
370
18
48
1
60
0
100
AcDbSpline
70
4
71
3
72
32
73
28
40
0
40
0
40
0
40
0
40
0.0624999999999822
40
0.0624999999999822
40
0.124999999999964
40
0.124999999999964
40
0.249999999999929
40
0.249999999999929
40
0.312499999999911
40
0.312499999999911
40
0.374999999999893
40
0.374999999999893
40
0.437499999999875
40
0.437499999999875
40
0.499999999999858
40
0.499999999999858
40
0.624999999999868
40
0.624999999999868
40
0.687499999999871
40
0.687499999999871
40
0.749999999999875
40
0.749999999999875
40
0.874999999999922
40
0.874999999999922
40
0.937499999999961
40
0.937499999999961
40
1
40
1
40
1
40
1
41
1
10
67.5547881231498
20
4.5004254895789
30
0
41
1
10
67.5619886314303
20
4.49130072954625
30
0
41
1
10
67.5699540323515
20
4.48353565431978
30
0
41
1
10
67.5871445920397
20
4.47023175762627
30
0
41
1
10
67.5963926701456
20
4.46468926782194
30
0
41
1
10
67.625710534673
20
4.45112492597983
30
0
41
1
10
67.6463954739624
20
4.44646688650616
30
0
41
1
10
67.6786138229477
20
4.44427128325981
30
0
41
1
10
67.6895817905927
20
4.44437356224327
30
0
41
1
10
67.7113687670357
20
4.4460450472337
30
0
41
1
10
67.7222535092536
20
4.44760661290132
30
0
41
1
10
67.7439965825485
20
4.45202713209099
30
0
41
1
10
67.7548549508713
20
4.45488702405117
30
0
41
1
10
67.7765364234264
20
4.46182708513325
30
0
41
1
10
67.787394602254
20
4.46592326686576
30
0
41
1
10
67.8196539975384
20
4.47989944753351
30
0
41
1
10
67.8405366298908
20
4.49133611487045
30
0
41
1
10
67.8709304323289
20
4.51148540164891
30
0
41
1
10
67.8809052647447
20
4.51870622021991
30
0
41
1
10
67.9005260551041
20
4.53419007095039
30
0
41
1
10
67.910172348312
20
4.54246048514213
30
0
41
1
10
67.9381223640221
20
4.56849301840433
30
0
41
1
10
67.9556144916388
20
4.58757108106727
30
0
41
1
10
67.9798681030276
20
4.61918143869718
30
0
41
1
10
67.9876458045612
20
4.63026654801433
30
0
41
1
10
68.0022887355262
20
4.65339765174224
30
0
41
1
10
68.0091306098765
20
4.66539620865697
30
0
41
1
10
68.0154216060416
20
4.67789480743599
30
0
0
SPLINE
5
163
100
AcDbEntity
8
1
62
256
6
ByLayer
370
18
48
1
60
0
100
AcDbSpline
70
4
71
3
72
10
73
6
40
0
40
0
40
0
40
0
40
0.5
40
0.5
40
1
40
1
40
1
40
1
41
1
10
67.321866279567
20
4.78607886170889
30
0
41
1
10
67.3604834986882
20
4.74027031416281
30
0
41
1
10
67.3991935577376
20
4.69356421225243
30
0
41
1
10
67.4768237495855
20
4.59836204897886
30
0
41
1
10
67.5157371534442
20
4.54991237491049
30
0
41
1
10
67.5547881231498
20
4.5004254895789
30
0
0
SPLINE
5
164
100
AcDbEntity
8
1
62
256
6
ByLayer
370
18
48
1
60
0
100
AcDbSpline
70
4
71
3
72
8
73
4
40
0
40
0
40
0
40
0
40
1
40
1
40
1
40
1
41
1
10
67
20
4.58427292799442
30
0
41
1
10
67.107610309651
20
4.65389919064066
30
0
41
1
10
67.2148663578701
20
4.72118785850296
30
0
41
1
10
67.321866279567
20
4.78607886170883
30
0
0
SPLINE
5
165
100
AcDbEntity
8
1
62
256
6
ByLayer
370
18
48
1
60
0
100
AcDbSpline
70
4
71
3
72
12
73
8
40
0
40
0
40
0
40
0
40
0.500000000000002
40
0.500000000000002
40
0.750000000000001
40
0.750000000000001
40
1
40
1
40
1
40
1
41
1
10
67
20
4.58427292799445
30
0
41
1
10
66.9528985554967
20
4.48125403530923
30
0
41
1
10
66.9056950498111
20
4.37816798056886
30
0
41
1
10
66.834681907768
20
4.22345953044822
30
0
41
1
10
66.8109750822617
20
4.1718771843185
30
0
41
1
10
66.7635418729346
20
4.06867225577469
30
0
41
1
10
66.7398367604093
20
4.01704337706789
30
0
41
1
10
66.716097694043
20
3.96540144820804
30
0
0
SPLINE
5
166
100
AcDbEntity
8
1
62
256
6
ByLayer
370
18
48
1
60
0
100
AcDbSpline
70
4
71
3
72
18
73
14
40
0
40
0
40
0
40
0
40
0.197131709335534
40
0.197131709335534
40
0.394263418671067
40
0.394263418671067
40
0.5913951280066
40
0.5913951280066
40
0.689960982674367
40
0.689960982674367
40
0.788526837342134
40
0.788526837342134
40
1
40
1
40
1
40
1
41
1
10
66.7160976940431
20
3.96540144820798
30
0
41
1
10
66.6887969458213
20
3.90601144205792
30
0
41
1
10
66.6589733794001
20
3.84842855589412
30
0
41
1
10
66.5942525772742
20
3.73672832080698
30
0
41
1
10
66.5593264510763
20
3.68263051605939
30
0
41
1
10
66.4846498387309
20
3.57777195657116
30
0
41
1
10
66.4449011699919
20
3.52701082593316
30
0
41
1
10
66.3818619696233
20
3.45327813147597
30
0
41
1
10
66.360295348997
20
3.42912721371764
30
0
41
1
10
66.3164915022261
20
3.38205810193639
30
0
41
1
10
66.2942046714681
20
3.35908075155808
30
0
41
1
10
66.2229888750221
20
3.28847458242728
30
0
41
1
10
66.1727965769765
20
3.24274414564312
30
0
41
1
10
66.1212453068165
20
3.19924167654918
30
0
0
SPLINE
5
167
100
AcDbEntity
8
1
62
256
6
ByLayer
370
18
48
1
60
0
100
AcDbSpline
70
4
71
3
72
53
73
49
40
0
40
0
40
0
40
0
40
0.0238258829968174
40
0.0238258829968174
40
0.0599804799228557
40
0.0599804799228557
40
0.0961350768488938
40
0.0961350768488938
40
0.132289673774932
40
0.132289673774932
40
0.204598867627011
40
0.204598867627011
40
0.240753464553051
40
0.240753464553051
40
0.276908061479091
40
0.276908061479091
40
0.294985359942112
40
0.294985359942112
40
0.313062658405133
40
0.313062658405133
40
0.349217255331175
40
0.349217255331175
40
0.42152644918326
40
0.42152644918326
40
0.493835643035344
40
0.493835643035344
40
0.566144836887429
40
0.566144836887429
40
0.602299433813471
40
0.602299433813471
40
0.620376732276493
40
0.620376732276493
40
0.638454030739516
40
0.638454030739516
40
0.674608627665563
40
0.674608627665563
40
0.71076322459161
40
0.71076322459161
40
0.783072418443708
40
0.783072418443708
40
0.855381612295806
40
0.855381612295806
40
0.927690806147903
40
0.927690806147903
40
0.945768104610927
40
0.945768104610927
40
0.963845403073951
40
1
40
1
40
1
40
1
41
1
10
52.5087189775885
20
-4.349999646116
30
0
41
1
10
52.4288455351434
20
-4.35000128417218
30
0
41
1
10
52.3490995967202
20
-4.34873014317287
30
0
41
1
10
52.1485259505792
20
-4.34236618038378
30
0
41
1
10
52.027758416689
20
-4.33564276869458
30
0
41
1
10
51.7864359577686
20
-4.31653121967349
30
0
41
1
10
51.6658985243033
20
-4.30414240291623
30
0
41
1
10
51.4251611869403
20
-4.27370422268419
30
0
41
1
10
51.3049569262101
20
-4.25565125358298
30
0
41
1
10
50.9444726570035
20
-4.19305187625932
30
0
41
1
10
50.7043220249749
20
-4.14005636425279
30
0
41
1
10
50.3428342894279
20
-4.04406773752359
30
0
41
1
10
50.2221275654305
20
-4.00932454455301
30
0
41
1
10
49.9800405727897
20
-3.93443313914165
30
0
41
1
10
49.8586559058795
20
-3.89429023253822
30
0
41
1
10
49.6760237497062
20
-3.83000309623324
30
0
41
1
10
49.6149887733134
20
-3.80787017503761
30
0
41
1
10
49.4930889305218
20
-3.7623743928032
30
0
41
1
10
49.4322398140103
20
-3.73901913615634
30
0
41
1
10
49.2499804959523
20
-3.66715293225749
30
0
41
1
10
49.1288725404169
20
-3.61683113185202
30
0
41
1
10
48.7664417855261
20
-3.45891545859141
30
0
41
1
10
48.5259386017173
20
-3.34441812320728
30
0
41
1
10
48.0450055033717
20
-3.09908265492678
30
0
41
1
10
47.8046358942931
20
-2.96821302317972
30
0
41
1
10
47.323107346453
20
-2.6910368492295
30
0
41
1
10
47.0819344458592
20
-2.54474748555233
30
0
41
1
10
46.7188849363953
20
-2.3141807657305
30
0
41
1
10
46.5976574879808
20
-2.23545926428477
30
0
41
1
10
46.4152077185533
20
-2.11486221903499
30
0
41
1
10
46.3542485454619
20
-2.07421616270517
30
0
41
1
10
46.2325885363965
20
-1.99248148880468
30
0
41
1
10
46.1718299211896
20
-1.95135791922755
30
0
41
1
10
45.9897126706767
20
-1.82729327532621
30
0
41
1
10
45.8685275583376
20
-1.74364068771172
30
0
41
1
10
45.6266273370672
20
-1.57445190160413
30
0
41
1
10
45.5059250414463
20
-1.48889909994117
30
0
41
1
10
45.1443484458921
20
-1.22964839309302
30
0
41
1
10
44.9039749885206
20
-1.05339771630111
30
0
41
1
10
44.4234250933272
20
-0.695551289861385
30
0
41
1
10
44.1833077653514
20
-0.513868382999334
30
0
41
1
10
43.7006412572136
20
-0.148586436724997
30
0
41
1
10
43.4579862883915
20
0.0348494170150104
30
0
41
1
10
43.1532813666013
20
0.265589958608075
30
0
41
1
10
43.0923200730956
20
0.311758570984011
30
0
41
1
10
42.9707168938612
20
0.403786541454593
30
0
41
1
10
42.788619740439
20
0.541495685366669
30
0
41
1
10
42.6072810012587
20
0.677996058315358
30
0
41
1
10
42.4865954593428
20
0.768296686890864
30
0
0
SPLINE
5
168
100
AcDbEntity
8
1
62
256
6
ByLayer
370
18
48
1
60
0
100
AcDbSpline
70
4
71
3
72
56
73
52
40
0
40
0
40
0
40
0
40
0.0456391782055277
40
0.0456391782055277
40
0.0912783564110554
40
0.0912783564110554
40
0.136917534616583
40
0.136917534616583
40
0.159737123719347
40
0.159737123719347
40
0.182556712822111
40
0.182556712822111
40
0.273835069233157
40
0.273835069233157
40
0.29665465833592
40
0.29665465833592
40
0.319474247438682
40
0.319474247438682
40
0.365113425644207
40
0.365113425644207
40
0.410752603849732
40
0.410752603849732
40
0.456391782055257
40
0.456391782055257
40
0.479211371158019
40
0.479211371158019
40
0.502030960260782
40
0.502030960260782
40
0.547670138466306
40
0.547670138466306
40
0.593309316671831
40
0.593309316671831
40
0.638948494877356
40
0.638948494877356
40
0.66176808398012
40
0.66176808398012
40
0.684587673082884
40
0.684587673082884
40
0.730226851288411
40
0.730226851288411
40
0.775866029493939
40
0.775866029493939
40
0.798685618596703
40
0.798685618596703
40
0.821505207699467
40
0.821505207699467
40
0.867144385904994
40
0.867144385904994
40
0.912783564110522
40
0.912783564110522
40
1
40
1
40
1
40
1
41
1
10
38.9442475917559
20
-2.9699145088764
30
0
41
1
10
39.0839379674272
20
-3.04699156801149
30
0
41
1
10
39.2230466067189
20
-3.12143535700079
30
0
41
1
10
39.500272903446
20
-3.26486933911929
30
0
41
1
10
39.6384456682653
20
-3.33379376170876
30
0
41
1
10
39.915217604055
20
-3.46499437318292
30
0
41
1
10
40.0539345832149
20
-3.52719402340912
30
0
41
1
10
40.2622399209065
20
-3.61572032973865
30
0
41
1
10
40.3317078531027
20
-3.64443638436975
30
0
41
1
10
40.4706183381387
20
-3.70034841334413
30
0
41
1
10
40.5400567603108
20
-3.72754652632901
30
0
41
1
10
40.8872543091793
20
-3.85965454113543
30
0
41
1
10
41.1649874704457
20
-3.95292990914649
30
0
41
1
10
41.5140892918709
20
-4.05224169753709
30
0
41
1
10
41.5840058018172
20
-4.07124109739516
30
0
41
1
10
41.7240820998496
20
-4.10747203553089
30
0
41
1
10
41.7943151423734
20
-4.1247189948991
30
0
41
1
10
42.0045171913847
20
-4.173529120409
30
0
41
1
10
42.144220179684
20
-4.20222189194783
30
0
41
1
10
42.4232794470054
20
-4.251933476386
30
0
41
1
10
42.5626114966256
20
-4.27296805188138
30
0
41
1
10
42.8409039789859
20
-4.30753418155976
30
0
41
1
10
42.9798636006972
20
-4.3210680672417
30
0
41
1
10
43.1879263140934
20
-4.33576763420939
30
0
41
1
10
43.2572166422879
20
-4.33973286968512
30
0
41
1
10
43.3956416144382
20
-4.34578215309023
30
0
41
1
10
43.4647662508205
20
-4.34786581055471
30
0
41
1
10
43.6720521659583
20
-4.35125649642265
30
0
41
1
10
43.8101192424342
20
-4.34968911819445
30
0
41
1
10
44.087349977048
20
-4.33894642294121
30
0
41
1
10
44.2265467875109
20
-4.32979995698992
30
0
41
1
10
44.5058118600413
20
-4.30399893026061
30
0
41
1
10
44.6458601091488
20
-4.28734366657741
30
0
41
1
10
44.8562481340658
20
-4.25653824051264
30
0
41
1
10
44.9264441017103
20
-4.24529996127521
30
0
41
1
10
45.0670132467509
20
-4.22086271504557
30
0
41
1
10
45.1371628938746
20
-4.20770208416616
30
0
41
1
10
45.3471072377038
20
-4.16545794004844
30
0
41
1
10
45.4864695344373
20
-4.13359861093235
30
0
41
1
10
45.7643683021256
20
-4.06269180228676
30
0
41
1
10
45.9028693541192
20
-4.02362200519937
30
0
41
1
10
46.1105522642432
20
-3.95995055966972
30
0
41
1
10
46.1797730080788
20
-3.9378858208978
30
0
41
1
10
46.3183364107364
20
-3.89217283083352
30
0
41
1
10
46.3876767213497
20
-3.86852439069875
30
0
41
1
10
46.5958237928338
20
-3.79520459423094
30
0
41
1
10
46.7347666264004
20
-3.74317419850098
30
0
41
1
10
47.0125067916353
20
-3.63249245133872
30
0
41
1
10
47.1512561250856
20
-3.57379446124486
30
0
41
1
10
47.5553937776841
20
-3.39341582871856
30
0
41
1
10
47.8210512741398
20
-3.26308711737991
30
0
41
1
10
48.0887112801443
20
-3.12192284653031
30
0
0
SPLINE
5
169
100
AcDbEntity
8
1
62
256
6
ByLayer
370
18
48
1
60
0
100
AcDbSpline
70
4
71
3
72
28
73
24
40
0
40
0
40
0
40
0
40
0.0442816113454946
40
0.0442816113454946
40
0.150472543418216
40
0.150472543418216
40
0.256663475490938
40
0.256663475490938
40
0.362854407563659
40
0.362854407563659
40
0.46904533963638
40
0.46904533963638
40
0.575236271709102
40
0.575236271709102
40
0.681427203781823
40
0.681427203781823
40
0.734522669818184
40
0.734522669818184
40
0.787618135854544
40
0.787618135854544
40
0.893809067927273
40
0.893809067927273
40
1
40
1
40
1
40
1
41
1
10
61.7368286100543
20
4.35000067140322
30
0
41
1
10
61.7950043586824
20
4.35000486452105
30
0
41
1
10
61.8530960577177
20
4.34934478824269
30
0
41
1
10
62.0502198119607
20
4.34484861170421
30
0
41
1
10
62.1888011117337
20
4.33785031465038
30
0
41
1
10
62.4655478135535
20
4.31624288077211
30
0
41
1
10
62.6037535756151
20
4.30163517067999
30
0
41
1
10
62.8807476272793
20
4.26509385786107
30
0
41
1
10
63.0194757022233
20
4.24316121385633
30
0
41
1
10
63.2973570012516
20
4.19204679626762
30
0
41
1
10
63.4365041531651
20
4.1628642420533
30
0
41
1
10
63.7151029196714
20
4.09715298955325
30
0
41
1
10
63.8545685716857
20
4.06063205797167
30
0
41
1
10
64.1336455902092
20
3.97995795706925
30
0
41
1
10
64.2732047742132
20
3.93575756189386
30
0
41
1
10
64.483343117785
20
3.86390875704868
30
0
41
1
10
64.5533663809258
20
3.83909359685012
30
0
41
1
10
64.6934658964826
20
3.78787277702025
30
0
41
1
10
64.7635486942217
20
3.76146170388051
30
0
41
1
10
64.9739125182655
20
3.67986532720855
30
0
41
1
10
65.1143135874099
20
3.62232381464006
30
0
41
1
10
65.3954110275681
20
3.5010123670921
30
0
41
1
10
65.5361072882689
20
3.43724436166153
30
0
41
1
10
65.6768672095018
20
3.37027093193802
30
0
0
SPLINE
5
16A
100
AcDbEntity
8
1
62
256
6
ByLayer
370
18
48
1
60
0
100
AcDbSpline
70
4
71
3
72
26
73
22
40
0
40
0
40
0
40
0
40
0.124999999999976
40
0.124999999999976
40
0.249999999999952
40
0.249999999999952
40
0.374999999999929
40
0.374999999999929
40
0.437499999999928
40
0.437499999999928
40
0.499999999999927
40
0.499999999999927
40
0.624999999999945
40
0.624999999999945
40
0.749999999999964
40
0.749999999999964
40
0.812499999999973
40
0.812499999999973
40
0.874999999999982
40
0.874999999999982
40
1
40
1
40
1
40
1
41
1
10
65.6768672095017
20
3.37027093193802
30
0
41
1
10
65.7264449286414
20
3.34668190276292
30
0
41
1
10
65.7756655161276
20
3.32517113129399
30
0
41
1
10
65.8732152792305
20
3.28602009758967
30
0
41
1
10
65.9215475770733
20
3.26838054384137
30
0
41
1
10
66.0172249603102
20
3.23695417794113
30
0
41
1
10
66.0645705699833
20
3.2231646543795
30
0
41
1
10
66.1347944221296
20
3.20557540154223
30
0
41
1
10
66.1581159871457
20
3.20022245726173
30
0
41
1
10
66.204136402782
20
3.19069308538207
30
0
41
1
10
66.2268605846716
20
3.18650815732494
30
0
41
1
10
66.2941642609261
20
3.17577980037873
30
0
41
1
10
66.3378778398788
20
3.17104348082327
30
0
41
1
10
66.4228769557893
20
3.16725856778945
30
0
41
1
10
66.4641643657201
20
3.16819358354516
30
0
41
1
10
66.5240977702702
20
3.17508362942692
30
0
41
1
10
66.5435785061093
20
3.1782884700886
30
0
41
1
10
66.5813609649605
20
3.18669287423376
30
0
41
1
10
66.5996866943025
20
3.19189540421635
30
0
41
1
10
66.652858183741
20
3.21078675618074
30
0
41
1
10
66.6859203503873
20
3.22775562981121
30
0
41
1
10
66.7160976940431
20
3.24996665602345
30
0
0
SPLINE
5
16B
100
AcDbEntity
8
1
62
256
6
ByLayer
370
18
48
1
60
0
100
AcDbSpline
70
4
71
3
72
12
73
8
40
0
40
0
40
0
40
0
40
0.249999999999991
40
0.249999999999991
40
0.499999999999981
40
0.499999999999981
40
1
40
1
40
1
40
1
41
1
10
66.7160976940431
20
3.24996665602347
30
0
41
1
10
66.7398904372122
20
3.26747851022168
30
0
41
1
10
66.7637081122924
20
3.28501048795883
30
0
41
1
10
66.8112353913443
20
3.31912152096103
30
0
41
1
10
66.8349507708692
20
3.33573362363609
30
0
41
1
10
66.905929153358
20
3.38402219538583
30
0
41
1
10
66.9530406275767
20
3.41425056283131
30
0
41
1
10
67
20
3.44268621828289
30
0
0
SPLINE
5
16C
100
AcDbEntity
8
1
62
256
6
ByLayer
370
18
48
1
60
0
100
AcDbSpline
70
4
71
3
72
10
73
6
40
0
40
0
40
0
40
0
40
0.5
40
0.5
40
1
40
1
40
1
40
1
41
1
10
67.7118804742248
20
2.96514224120514
30
0
41
1
10
67.5935744694106
20
3.0496843848492
30
0
41
1
10
67.4750867882657
20
3.13172214810328
30
0
41
1
10
67.2378220079248
20
3.29092004274546
30
0
41
1
10
67.1190696346288
20
3.36810054542983
30
0
41
1
10
67
20
3.44268621828289
30
0
0
SPLINE
5
16D
100
AcDbEntity
8
1
62
256
6
ByLayer
370
18
48
1
60
0
100
AcDbSpline
70
4
71
3
72
10
73
6
40
0
40
0
40
0
40
0
40
0.5
40
0.5
40
1
40
1
40
1
40
1
41
1
10
67.9888016578622
20
2.44552913749536
30
0
41
1
10
67.9423233512401
20
2.53059448210203
30
0
41
1
10
67.8960178040206
20
2.61643116969873
30
0
41
1
10
67.8037085172292
20
2.78961153969939
30
0
41
1
10
67.7577138621567
20
2.87697260608905
30
0
41
1
10
67.7118804742248
20
2.96514224120514
30
0
0
SPLINE
5
16E
100
AcDbEntity
8
1
62
256
6
ByLayer
370
18
48
1
60
0
100
AcDbSpline
70
4
71
3
72
32
73
28
40
0
40
0
40
0
40
0
40
0.0624999999999888
40
0.0624999999999888
40
0.124999999999978
40
0.124999999999978
40
0.187499999999966
40
0.187499999999966
40
0.249999999999955
40
0.249999999999955
40
0.312499999999944
40
0.312499999999944
40
0.374999999999933
40
0.374999999999933
40
0.499999999999909
40
0.499999999999909
40
0.56249999999992
40
0.56249999999992
40
0.624999999999931
40
0.624999999999931
40
0.749999999999955
40
0.749999999999955
40
0.874999999999978
40
0.874999999999978
40
0.937499999999989
40
0.937499999999989
40
1
40
1
40
1
40
1
41
1
10
68.4493841207966
20
2.07978729881498
30
0
41
1
10
68.4422632834464
20
2.07854465532384
30
0
41
1
10
68.4344164822579
20
2.07847250058973
30
0
41
1
10
68.4175385141095
20
2.08022761945423
30
0
41
1
10
68.4085045020805
20
2.08205965806133
30
0
41
1
10
68.3893818652751
20
2.08741506872988
30
0
41
1
10
68.3794809461467
20
2.09088882347831
30
0
41
1
10
68.3592851190458
20
2.09910239172251
30
0
41
1
10
68.34896025803
20
2.10385267304758
30
0
41
1
10
68.3279156045564
20
2.11449180885839
30
0
41
1
10
68.3171346499291
20
2.12041885043828
30
0
41
1
10
68.2955581578488
20
2.1331322516381
30
0
41
1
10
68.2847696907881
20
2.13990812181277
30
0
41
1
10
68.2524143039016
20
2.16136868352825
30
0
41
1
10
68.2308565230315
20
2.17717109448591
30
0
41
1
10
68.1985915140565
20
2.20299604463673
30
0
41
1
10
68.1878537002584
20
2.21196233599773
30
0
41
1
10
68.1667776820704
20
2.23030414909928
30
0
41
1
10
68.1563921850458
20
2.2397166785905
30
0
41
1
10
68.1257042103152
20
2.26868591597449
30
0
41
1
10
68.1058631080778
20
2.28896288834051
30
0
41
1
10
68.067628284659
20
2.3317268407954
30
0
41
1
10
68.0497253689708
20
2.35366600961208
30
0
41
1
10
68.0250225907887
20
2.38746509998595
30
0
41
1
10
68.0171468258189
20
2.39888480611603
30
0
41
1
10
68.0022230066918
20
2.42207697924863
30
0
41
1
10
67.9952047931828
20
2.43381001620645
30
0
41
1
10
67.9888016578623
20
2.44552913749533
30
0
0
SPLINE
5
16F
100
AcDbEntity
8
1
62
256
6
ByLayer
370
18
48
1
60
0
100
AcDbSpline
70
4
71
3
72
10
73
6
40
0
40
0
40
0
40
0
40
0.5
40
0.5
40
1
40
1
40
1
40
1
41
1
10
68.8082658038932
20
2.10360066796622
30
0
41
1
10
68.7490080167183
20
2.10579358240011
30
0
41
1
10
68.6894722296657
20
2.10506335871816
30
0
41
1
10
68.5698541051796
20
2.09738098410784
30
0
41
1
10
68.5097892185057
20
2.09032847505711
30
0
41
1
10
68.4493841207966
20
2.07978729881501
30
0
0
SPLINE
5
170
100
AcDbEntity
8
1
62
256
6
ByLayer
370
18
48
1
60
0
100
AcDbSpline
70
4
71
3
72
8
73
4
40
0
40
0
40
0
40
0
40
1
40
1
40
1
40
1
41
1
10
69.4047429098307
20
1.58036611361769
30
0
41
1
10
69.2060877860238
20
1.75987390232965
30
0
41
1
10
69.0073896882192
20
1.93438608226435
30
0
41
1
10
68.8082658038932
20
2.10360066796619
30
0
0
SPLINE
5
171
100
AcDbEntity
8
1
62
256
6
ByLayer
370
18
48
1
60
0
100
AcDbSpline
70
4
71
3
72
10
73
6
40
0
40
0
40
0
40
0
40
0.5
40
0.5
40
1
40
1
40
1
40
1
41
1
10
69.827858266452
20
0.915541841039868
30
0
41
1
10
69.756581889716
20
1.02027133186988
30
0
41
1
10
69.685683076997
20
1.12800605175573
30
0
41
1
10
69.5445537904985
20
1.34968658373248
30
0
41
1
10
69.4744523054549
20
1.46355953601886
30
0
41
1
10
69.4047429098307
20
1.58036611361771
30
0
0
SPLINE
5
172
100
AcDbEntity
8
1
62
256
6
ByLayer
370
18
48
1
60
0
100
AcDbSpline
70
4
71
3
72
32
73
28
40
0
40
0
40
0
40
0
40
0.0625000000000147
40
0.0625000000000147
40
0.125000000000029
40
0.125000000000029
40
0.187500000000044
40
0.187500000000044
40
0.250000000000059
40
0.250000000000059
40
0.312500000000073
40
0.312500000000073
40
0.375000000000088
40
0.375000000000088
40
0.50000000000007
40
0.50000000000007
40
0.562500000000061
40
0.562500000000061
40
0.625000000000052
40
0.625000000000052
40
0.750000000000034
40
0.750000000000034
40
0.875000000000016
40
0.875000000000016
40
0.937500000000008
40
0.937500000000008
40
1
40
1
40
1
40
1
41
1
10
70.2883915668184
20
0.51256363992573
30
0
41
1
10
70.28127980709
20
0.515324154664597
30
0
41
1
10
70.2734430386744
20
0.51899061396378
30
0
41
1
10
70.2565844142169
20
0.527793372593607
30
0
41
1
10
70.24755973213
20
0.532933304019565
30
0
41
1
10
70.2284533102958
20
0.544523077808833
30
0
41
1
10
70.2185559236819
20
0.550863210592524
30
0
41
1
10
70.1983661221471
20
0.564342806440152
30
0
41
1
10
70.1880424366371
20
0.571502208209097
30
0
41
1
10
70.166996282053
20
0.586566750664105
30
0
41
1
10
70.1562124406943
20
0.594519364463736
30
0
41
1
10
70.1346259265369
20
0.610863286755091
30
0
41
1
10
70.123831396168
20
0.619245301910354
30
0
41
1
10
70.0914555494494
20
0.64496698316492
30
0
41
1
10
70.0698811201476
20
0.662874095664677
30
0
41
1
10
70.0375899583117
20
0.69085096780077
30
0
41
1
10
70.0268470009538
20
0.700359531777934
30
0
41
1
10
70.0057620086862
20
0.719435077809663
30
0
41
1
10
69.9953726670987
20
0.729042616843884
30
0
41
1
10
69.9646753322423
20
0.758090531348898
30
0
41
1
10
69.9448291399132
20
0.777755024169494
30
0
41
1
10
69.9065969575003
20
0.817822204904644
30
0
41
1
10
69.8887233520596
20
0.837688320847008
30
0
41
1
10
69.864041389891
20
0.867218573450401
30
0
41
1
10
69.8561720836095
20
0.877016180341826
30
0
41
1
10
69.8412597525405
20
0.896501550795023
30
0
41
1
10
69.8342531135918
20
0.906145613068048
30
0
41
1
10
69.827858266452
20
0.915541841040778
30
0
0
SPLINE
5
173
100
AcDbEntity
8
1
62
256
6
ByLayer
370
18
48
1
60
0
100
AcDbSpline
70
4
71
3
72
32
73
28
40
0
40
0
40
0
40
0
40
0.0625000000000064
40
0.0625000000000064
40
0.125000000000013
40
0.125000000000013
40
0.187500000000019
40
0.187500000000019
40
0.250000000000026
40
0.250000000000026
40
0.312500000000032
40
0.312500000000032
40
0.375000000000038
40
0.375000000000038
40
0.50000000000005
40
0.50000000000005
40
0.562500000000057
40
0.562500000000057
40
0.625000000000063
40
0.625000000000063
40
0.750000000000031
40
0.750000000000031
40
0.874999999999999
40
0.874999999999999
40
0.937499999999999
40
0.937499999999999
40
1
40
1
40
1
40
1
41
1
10
72.1275306266464
20
-1.10844371593117
30
0
41
1
10
72.1204135449699
20
-1.10195541324208
30
0
41
1
10
72.1125697794398
20
-1.09491199170392
30
0
41
1
10
72.0956943705228
20
-1.07992507808299
30
0
41
1
10
72.0866599038761
20
-1.07197933348127
30
0
41
1
10
72.0675316860317
20
-1.05528452444989
30
0
41
1
10
72.0576267974836
20
-1.04669980348922
30
0
41
1
10
72.0374197145239
20
-1.0292723730588
30
0
41
1
10
72.027087746239
20
-1.02040397843089
30
0
41
1
10
72.0060262529844
20
-1.00238815438482
30
0
41
1
10
71.995235022076
20
-0.993188461258484
30
0
41
1
10
71.9736447679492
20
-0.974824189480131
30
0
41
1
10
71.9628493895219
20
-0.965662355709952
30
0
41
1
10
71.930474008379
20
-0.938217771347325
30
0
41
1
10
71.9089039292068
20
-0.919976233239623
30
0
41
1
10
71.8766247216424
20
-0.892622330165096
30
0
41
1
10
71.8658906226002
20
-0.883516372500253
30
0
41
1
10
71.8448218798922
20
-0.86560232487281
30
0
41
1
10
71.8344405714911
20
-0.856754729894533
30
0
41
1
10
71.8037665657449
20
-0.830517366557928
30
0
41
1
10
71.7839284202839
20
-0.81342021850682
30
0
41
1
10
71.7457333857986
20
-0.780056907784228
30
0
41
1
10
71.7278713782251
20
-0.764220680960022
30
0
41
1
10
71.7031972823368
20
-0.74189401541949
30
0
41
1
10
71.6953290680659
20
-0.734692695689773
30
0
41
1
10
71.6804161736926
20
-0.720853571877058
30
0
41
1
10
71.6734095615821
20
-0.714250179016574
30
0
41
1
10
71.6670132735879
20
-0.708107132388477
30
0
0
SPLINE
5
174
100
AcDbEntity
8
1
62
256
6
ByLayer
370
18
48
1
60
0
100
AcDbSpline
70
4
71
3
72
14
73
10
40
0
40
0
40
0
40
0
40
0.25
40
0.25
40
0.5
40
0.5
40
0.75
40
0.75
40
1
40
1
40
1
40
1
41
1
10
72.7207737204101
20
-1.74964816233205
30
0
41
1
10
72.6722406598562
20
-1.68927672613435
30
0
41
1
10
72.6234999086508
20
-1.6305574452945
30
0
41
1
10
72.5255339511467
20
-1.51650498119932
30
0
41
1
10
72.4762875132853
20
-1.46114420744809
30
0
41
1
10
72.3773653135477
20
-1.35394741853344
30
0
41
1
10
72.3276987203429
20
-1.30209371924812
30
0
41
1
10
72.2279252935129
20
-1.20223611794455
30
0
41
1
10
72.1778433109776
20
-1.15431138190451
30
0
41
1
10
72.1275306266464
20
-1.1084437159312
30
0
0
SPLINE
5
175
100
AcDbEntity
8
1
62
256
6
ByLayer
370
18
48
1
60
0
100
AcDbSpline
70
4
71
3
72
8
73
4
40
0
40
0
40
0
40
0
40
1
40
1
40
1
40
1
41
1
10
72.7207737204124
20
-1.74964816233646
30
0
41
1
10
72.7789019204021
20
-1.80885093245769
30
0
41
1
10
72.8369320649653
20
-1.86774435451181
30
0
41
1
10
72.8948944349622
20
-1.92630229087359
30
0
0
SPLINE
5
176
100
AcDbEntity
8
1
62
256
6
ByLayer
370
18
48
1
60
0
100
AcDbSpline
70
4
71
3
72
14
73
10
40
0
40
0
40
0
40
0
40
0.25
40
0.25
40
0.5
40
0.5
40
0.75
40
0.75
40
1
40
1
40
1
40
1
41
1
10
73.5063096642737
20
-2.25983340699051
30
0
41
1
10
73.4544808208829
20
-2.24151392240825
30
0
41
1
10
73.4028936886619
20
-2.22082467592884
30
0
41
1
10
73.300121424258
20
-2.1747659170108
30
0
41
1
10
73.2489410164656
20
-2.1493481900753
30
0
41
1
10
73.1469903605304
20
-2.0936229166974
30
0
41
1
10
73.0962736454843
20
-2.06337114590522
30
0
41
1
10
72.9952500159757
20
-1.99824052949356
30
0
41
1
10
72.9449596588434
20
-1.96337375106785
30
0
41
1
10
72.8948944349622
20
-1.92630229087359
30
0
0
SPLINE
5
177
100
AcDbEntity
8
1
62
256
6
ByLayer
370
18
48
1
60
0
100
AcDbSpline
70
4
71
3
72
32
73
28
40
0
40
0
40
0
40
0
40
0.062499999999977
40
0.062499999999977
40
0.124999999999954
40
0.124999999999954
40
0.187499999999931
40
0.187499999999931
40
0.249999999999908
40
0.249999999999908
40
0.312499999999885
40
0.312499999999885
40
0.374999999999862
40
0.374999999999862
40
0.499999999999864
40
0.499999999999864
40
0.562499999999864
40
0.562499999999864
40
0.624999999999864
40
0.624999999999864
40
0.749999999999909
40
0.749999999999909
40
0.874999999999954
40
0.874999999999954
40
0.937499999999977
40
0.937499999999977
40
1
40
1
40
1
40
1
41
1
10
73.9667875131606
20
-2.61638484978982
30
0
41
1
10
73.9596877496747
20
-2.60684853493774
30
0
41
1
10
73.9518630323695
20
-2.59716486367159
30
0
41
1
10
73.9350266183096
20
-2.57756099033949
30
0
41
1
10
73.926012135812
20
-2.56764018128206
30
0
41
1
10
73.90692362024
20
-2.54758656911685
30
0
41
1
10
73.8970285002112
20
-2.53764305395367
30
0
41
1
10
73.8768444321192
20
-2.5180747505519
30
0
41
1
10
73.8665221250583
20
-2.50841637686486
30
0
41
1
10
73.8454764504865
20
-2.48931554127702
30
0
41
1
10
73.8346917267389
20
-2.47982189679175
30
0
41
1
10
73.8130975340414
20
-2.46132084674764
30
0
41
1
10
73.8022989474498
20
-2.45231896785603
30
0
41
1
10
73.7699111195394
20
-2.425966610382
30
0
41
1
10
73.7483290378423
20
-2.4092618504404
30
0
41
1
10
73.716028416949
20
-2.38533450590742
30
0
41
1
10
73.7052832798241
20
-2.37755812562673
30
0
41
1
10
73.6841952925855
20
-2.36263255507239
30
0
41
1
10
73.6738050530438
20
-2.35544791260415
30
0
41
1
10
73.6431062957986
20
-2.33470003036189
30
0
41
1
10
73.6232547778691
20
-2.3219243453668
30
0
41
1
10
73.5850359685756
20
-2.29865861470285
30
0
41
1
10
73.5671678894007
20
-2.28846726431507
30
0
41
1
10
73.5424894224444
20
-2.27562470103163
30
0
41
1
10
73.5346205261572
20
-2.27175603924272
30
0
41
1
10
73.5197071014474
20
-2.26498010132553
30
0
41
1
10
73.5127036036465
20
-2.26209341640026
30
0
41
1
10
73.5063096642737
20
-2.25983340699051
30
0
0
SPLINE
5
178
100
AcDbEntity
8
1
62
256
6
ByLayer
370
18
48
1
60
0
100
AcDbSpline
70
4
71
3
72
14
73
10
40
0
40
0
40
0
40
0
40
0.25
40
0.25
40
0.5
40
0.5
40
0.75
40
0.75
40
1
40
1
40
1
40
1
41
1
10
74.559265197309
20
-3.49476548676128
30
0
41
1
10
74.5107753206227
20
-3.41646977429042
30
0
41
1
10
74.4620852554901
20
-3.33935401864258
30
0
41
1
10
74.3642314375812
20
-3.18756087514757
30
0
41
1
10
74.3150449270988
20
-3.11284779177066
30
0
41
1
10
74.2162473361078
20
-2.96609598207931
30
0
41
1
10
74.166645850292
20
-2.89404448074549
30
0
41
1
10
74.0670158080144
20
-2.75287807424363
30
0
41
1
10
74.0170121786954
20
-2.68384600181662
30
0
41
1
10
73.9667875131606
20
-2.61638484978982
30
0
0
SPLINE
5
179
100
AcDbEntity
8
1
62
256
6
ByLayer
370
18
48
1
60
0
100
AcDbSpline
70
4
71
3
72
8
73
4
40
0
40
0
40
0
40
0
40
1
40
1
40
1
40
1
41
1
10
74.559265197309
20
-3.49476548676111
30
0
41
1
10
74.6175284010134
20
-3.5454965767276
30
0
41
1
10
74.6758289229425
20
-3.59579412294593
30
0
41
1
10
74.7342034047929
20
-3.6456241510127
30
0
0
SPLINE
5
17A
100
AcDbEntity
8
1
62
256
6
ByLayer
370
18
48
1
60
0
100
AcDbSpline
70
4
71
3
72
12
73
8
40
0
40
0
40
0
40
0
40
0.499999999999999
40
0.499999999999999
40
0.75
40
0.75
40
1
40
1
40
1
40
1
41
1
10
75.3453673322189
20
-3.58179611840788
30
0
41
1
10
75.2417880521041
20
-3.61160990393893
30
0
41
1
10
75.1391043475268
20
-3.63205429618083
30
0
41
1
10
74.9862410302576
20
-3.64794184122829
30
0
41
1
10
74.9355415810778
20
-3.65078551677362
30
0
41
1
10
74.8345449594908
20
-3.65172829017328
30
0
41
1
10
74.784263993885
20
-3.649828274702
30
0
41
1
10
74.7342034047929
20
-3.64562415101267
30
0
0
SPLINE
5
17B
100
AcDbEntity
8
1
62
256
6
ByLayer
370
18
48
1
60
0
100
AcDbSpline
70
4
71
3
72
32
73
28
40
0
40
0
40
0
40
0
40
0.0625000000000201
40
0.0625000000000201
40
0.12500000000004
40
0.12500000000004
40
0.18750000000006
40
0.18750000000006
40
0.25000000000008
40
0.25000000000008
40
0.3125000000001
40
0.3125000000001
40
0.37500000000012
40
0.37500000000012
40
0.500000000000113
40
0.500000000000113
40
0.562500000000087
40
0.562500000000087
40
0.62500000000006
40
0.62500000000006
40
0.750000000000052
40
0.750000000000052
40
0.875000000000044
40
0.875000000000044
40
0.937500000000022
40
0.937500000000022
40
1
40
1
40
1
40
1
41
1
10
75.805887951759
20
-3.85977280477013
30
0
41
1
10
75.798780275716
20
-3.84811393254825
30
0
41
1
10
75.7909485700022
20
-3.83672846087612
30
0
41
1
10
75.7741016841534
20
-3.81440625376277
30
0
41
1
10
75.7650837033486
20
-3.803470545197
30
0
41
1
10
75.74599267731
20
-3.78199882826192
30
0
41
1
10
75.7360969215379
20
-3.77166546320902
30
0
41
1
10
75.7159157836618
20
-3.75185903729877
30
0
41
1
10
75.7055965814189
20
-3.74235041872032
30
0
41
1
10
75.6845603722326
20
-3.72402426855683
30
0
41
1
10
75.6737826636785
20
-3.71516174400031
30
0
41
1
10
75.6521969957514
20
-3.69833325343342
30
0
41
1
10
75.64140341399
20
-3.69037178497459
30
0
41
1
10
75.6090324274592
20
-3.66768970503981
30
0
41
1
10
75.5874639959926
20
-3.65415673113733
30
0
41
1
10
75.555186190605
20
-3.63600074941036
30
0
41
1
10
75.5444416840423
20
-3.63031535714217
30
0
41
1
10
75.5233554227835
20
-3.61983921386198
30
0
41
1
10
75.5129660425894
20
-3.61502082615721
30
0
41
1
10
75.4822696387251
20
-3.60179402874405
30
0
41
1
10
75.4624273131903
20
-3.59459367415741
30
0
41
1
10
75.4241938106143
20
-3.58370377206222
30
0
41
1
10
75.4062929486036
20
-3.58015005141886
30
0
41
1
10
75.3815905756534
20
-3.57804905379871
30
0
41
1
10
75.3737145080514
20
-3.57789205842056
30
0
41
1
10
75.3587887137407
20
-3.57884243070998
30
0
41
1
10
75.3517707889769
20
-3.57995297674645
30
0
41
1
10
75.3453673322189
20
-3.58179611840785
30
0
0
SPLINE
5
17C
100
AcDbEntity
8
1
62
256
6
ByLayer
370
18
48
1
60
0
100
AcDbSpline
70
4
71
3
72
14
73
10
40
0
40
0
40
0
40
0
40
0.25
40
0.25
40
0.5
40
0.5
40
0.75
40
0.75
40
1
40
1
40
1
40
1
41
1
10
76.3985566086712
20
-4.8864705239819
30
0
41
1
10
76.3500294849962
20
-4.798352448533
30
0
41
1
10
76.3013018868769
20
-4.71080128099683
30
0
41
1
10
76.2033874327891
20
-4.53686322560478
30
0
41
1
10
76.1541795480512
20
-4.45043824431056
30
0
41
1
10
76.0553576255701
20
-4.27897192622672
30
0
41
1
10
76.0057521268564
20
-4.19392901906696
30
0
41
1
10
75.9061193127451
20
-4.02548784284627
30
0
41
1
10
75.8561158738958
20
-3.94216273399908
30
0
41
1
10
75.805887951759
20
-3.85977280477016
30
0
0
SPLINE
5
17D
100
AcDbEntity
8
1
62
256
6
ByLayer
370
18
48
1
60
0
100
AcDbSpline
70
4
71
3
72
8
73
4
40
0
40
0
40
0
40
0
40
1
40
1
40
1
40
1
41
1
10
76.3985566086712
20
-4.88647052398167
30
0
41
1
10
76.4569181698083
20
-4.92328952312167
30
0
41
1
10
76.51525435182
20
-4.95938686493633
30
0
41
1
10
76.5735558214369
20
-4.99476240975554
30
0
0
SPLINE
5
17E
100
AcDbEntity
8
1
62
256
6
ByLayer
370
18
48
1
60
0
100
AcDbSpline
70
4
71
3
72
12
73
8
40
0
40
0
40
0
40
0
40
0.499999999999993
40
0.499999999999993
40
0.749999999999997
40
0.749999999999997
40
1
40
1
40
1
40
1
41
1
10
77.1844662983544
20
-4.53922776821187
30
0
41
1
10
77.0809489953058
20
-4.6324838896868
30
0
41
1
10
76.9783332580549
20
-4.71737249363994
30
0
41
1
10
76.8255525145369
20
-4.83132636122284
30
0
41
1
10
76.7748759684271
20
-4.86705480644653
30
0
41
1
10
76.673906126852
20
-4.93416373277702
30
0
41
1
10
76.6236284061814
20
-4.9655345111565
30
0
41
1
10
76.5735558214368
20
-4.99476240975554
30
0
0
SPLINE
5
17F
100
AcDbEntity
8
1
62
256
6
ByLayer
370
18
48
1
60
0
100
AcDbSpline
70
4
71
3
72
32
73
28
40
0
40
0
40
0
40
0
40
0.0624999999999864
40
0.0624999999999864
40
0.124999999999973
40
0.124999999999973
40
0.187499999999959
40
0.187499999999959
40
0.249999999999945
40
0.249999999999945
40
0.312499999999931
40
0.312499999999931
40
0.374999999999918
40
0.374999999999918
40
0.499999999999888
40
0.499999999999888
40
0.562499999999897
40
0.562499999999897
40
0.624999999999906
40
0.624999999999906
40
0.749999999999925
40
0.749999999999925
40
0.874999999999944
40
0.874999999999944
40
0.937499999999972
40
0.937499999999972
40
1
40
1
40
1
40
1
41
1
10
77.6450048727872
20
-4.70970404662663
30
0
41
1
10
77.6378994596798
20
-4.6971396364961
30
0
41
1
10
77.6300724500052
20
-4.68524019539311
30
0
41
1
10
77.6132398070099
20
-4.66252636721526
30
0
41
1
10
77.6042313615893
20
-4.65171458454654
30
0
41
1
10
77.5851642952431
20
-4.63105793098489
30
0
41
1
10
77.5752760596851
20
-4.62140282721791
30
0
41
1
10
77.5551158582829
20
-4.60340674034421
30
0
41
1
10
77.5448077641919
20
-4.59502979934928
30
0
41
1
10
77.5237946941862
20
-4.57936829727765
30
0
41
1
10
77.5130303474977
20
-4.57204963449601
30
0
41
1
10
77.4914544423678
20
-4.55862183452189
30
0
41
1
10
77.4806653540074
20
-4.55251802925696
30
0
41
1
10
77.4483066022439
20
-4.53583414752413
30
0
41
1
10
77.4267446536532
20
-4.52686135362049
30
0
41
1
10
77.3944739871343
20
-4.51633949363352
30
0
41
1
10
77.3837228772833
20
-4.51333125502171
30
0
41
1
10
77.3626234610419
20
-4.50838658832277
30
0
41
1
10
77.352227665361
20
-4.50643320056372
30
0
41
1
10
77.3215126148838
20
-4.50209950261717
30
0
41
1
10
77.3016586387614
20
-4.501220806123
30
0
41
1
10
77.263404548059
20
-4.50386036021115
30
0
41
1
10
77.2454569833126
20
-4.5073486679776
30
0
41
1
10
77.220726733709
20
-4.51624762211748
30
0
41
1
10
77.2128431047634
20
-4.51983239289802
30
0
41
1
10
77.1979056969624
20
-4.52843793363854
30
0
41
1
10
77.190876579157
20
-4.53345290828392
30
0
41
1
10
77.1844662983543
20
-4.53922776821184
30
0
0
SPLINE
5
180
100
AcDbEntity
8
1
62
256
6
ByLayer
370
18
48
1
60
0
100
AcDbSpline
70
4
71
3
72
14
73
10
40
0
40
0
40
0
40
0
40
0.25
40
0.25
40
0.5
40
0.5
40
0.75
40
0.75
40
1
40
1
40
1
40
1
41
1
10
78.206174165773
20
-5.72246946972206
30
0
41
1
10
78.1601783890555
20
-5.63815327537571
30
0
41
1
10
78.1140024204576
20
-5.55375160430867
30
0
41
1
10
78.0212375083159
20
-5.38480307076912
30
0
41
1
10
77.9746283966901
20
-5.30021940479864
30
0
41
1
10
77.8810759821594
20
-5.13116943179642
30
0
41
1
10
77.834118669157
20
-5.04667245355392
30
0
41
1
10
77.7398353872244
20
-4.87793330514535
30
0
41
1
10
77.6925217008529
20
-4.79372743934036
30
0
41
1
10
77.6450048727872
20
-4.70970404662663
30
0
0
SPLINE
5
181
100
AcDbEntity
8
1
62
256
6
ByLayer
370
18
48
1
60
0
100
AcDbSpline
70
4
71
3
72
8
73
4
40
0
40
0
40
0
40
0
40
1
40
1
40
1
40
1
41
1
10
78.2061741657731
20
-5.72246946972206
30
0
41
1
10
78.3213779520954
20
-5.70576930467141
30
0
41
1
10
78.4377079253544
20
-5.68540981098511
30
0
41
1
10
78.555293137329
20
-5.66173676334483
30
0
0
SPLINE
5
182
100
AcDbEntity
8
1
62
256
6
ByLayer
370
18
48
1
60
0
100
AcDbSpline
70
4
71
3
72
14
73
10
40
0
40
0
40
0
40
0
40
0.25
40
0.25
40
0.5
40
0.5
40
0.75
40
0.75
40
1
40
1
40
1
40
1
41
1
10
79.0234747612022
20
-5.03597230485849
30
0
41
1
10
78.9839903147565
20
-5.0920008016121
30
0
41
1
10
78.9446401414978
20
-5.14706331629051
30
0
41
1
10
78.8661490775012
20
-5.25533180132649
30
0
41
1
10
78.8270165413606
20
-5.30851676670468
30
0
41
1
10
78.748969231598
20
-5.41292173466047
30
0
41
1
10
78.7100445333263
20
-5.46415067993692
30
0
41
1
10
78.6324787198034
20
-5.56449995021177
30
0
41
1
10
78.593829258747
20
-5.61363376423685
30
0
41
1
10
78.555293137329
20
-5.6617367633448
30
0
0
SPLINE
5
183
100
AcDbEntity
8
1
62
256
6
ByLayer
370
18
48
1
60
0
100
AcDbSpline
70
4
71
3
72
34
73
30
40
0
40
0
40
0
40
0
40
0.0624999999999979
40
0.0624999999999979
40
0.124999999999996
40
0.124999999999996
40
0.187499999999994
40
0.187499999999994
40
0.249999999999992
40
0.249999999999992
40
0.31249999999999
40
0.31249999999999
40
0.374999999999988
40
0.374999999999988
40
0.499999999999984
40
0.499999999999984
40
0.562499999999959
40
0.562499999999959
40
0.624999999999934
40
0.624999999999934
40
0.749999999999929
40
0.749999999999929
40
0.812499999999946
40
0.812499999999946
40
0.874999999999964
40
0.874999999999964
40
0.937499999999982
40
0.937499999999982
40
1
40
1
40
1
40
1
41
1
10
79.4840993402823
20
-5.08159415492372
30
0
41
1
10
79.4769894793525
20
-5.06941638223421
30
0
41
1
10
79.469159790894
20
-5.05822902074672
30
0
41
1
10
79.452326664375
20
-5.03746542336154
30
0
41
1
10
79.4433203853048
20
-5.02789313124822
30
0
41
1
10
79.4242635690126
20
-5.01018256755555
30
0
41
1
10
79.4143793322468
20
-5.00220540108077
30
0
41
1
10
79.394233214997
20
-4.98787945911241
30
0
41
1
10
79.3839339208731
20
-4.98149948890133
30
0
41
1
10
79.3629417365994
20
-4.97011814697589
30
0
41
1
10
79.3521910498416
20
-4.9650966473985
30
0
41
1
10
79.3306296045226
20
-4.95645531994953
30
0
41
1
10
79.3198480796477
20
-4.9528376589154
30
0
41
1
10
79.287512366239
20
-4.94386449745713
30
0
41
1
10
79.2659662128754
20
-4.94036502546962
30
0
41
1
10
79.2337177390787
20
-4.93853258534375
30
0
41
1
10
79.222964732232
20
-4.938504246527
30
0
41
1
10
79.2018578926758
20
-4.93958371054111
30
0
41
1
10
79.1914580474484
20
-4.94068673060036
30
0
41
1
10
79.16072980612
20
-4.94565937608073
30
0
41
1
10
79.1408655770022
20
-4.95116581685161
30
0
41
1
10
79.1121586176038
20
-4.96304270974125
30
0
41
1
10
79.1028454474098
20
-4.96758592530185
30
0
41
1
10
79.0849398343098
20
-4.97780814523691
30
0
41
1
10
79.076319209509
20
-4.98349766494994
30
0
41
1
10
79.0598026993404
20
-4.99613921758589
30
0
41
1
10
79.0519060026649
20
-5.00308976047023
30
0
41
1
10
79.0369465790023
20
-5.0184504732959
30
0
41
1
10
79.0298984856925
20
-5.02685702886634
30
0
41
1
10
79.0234747612022
20
-5.03597230485849
30
0
0
SPLINE
5
184
100
AcDbEntity
8
1
62
256
6
ByLayer
370
18
48
1
60
0
100
AcDbSpline
70
4
71
3
72
8
73
4
40
0
40
0
40
0
40
0
40
1
40
1
40
1
40
1
41
1
10
79.6522162959675
20
-5.36886368627583
30
0
41
1
10
79.5964478300972
20
-5.27382842645892
30
0
41
1
10
79.5404300672453
20
-5.1780774469546
30
0
41
1
10
79.4840993402823
20
-5.08159415492372
30
0
0
SPLINE
5
185
100
AcDbEntity
8
1
62
256
6
ByLayer
370
18
48
1
60
0
100
AcDbSpline
70
4
71
3
72
12
73
8
40
0
40
0
40
0
40
0
40
0.25
40
0.25
40
0.5
40
0.5
40
1
40
1
40
1
40
1
41
1
10
79.6522162959675
20
-5.36886368627586
30
0
41
1
10
79.7552563091384
20
-5.33614092533412
30
0
41
1
10
79.8593096490355
20
-5.30207489905962
30
0
41
1
10
80.0694718524078
20
-5.23195190474374
30
0
41
1
10
80.175575856225
20
-5.1958993793387
30
0
41
1
10
80.4967459451782
20
-5.08582972476896
30
0
41
1
10
80.714708463297
20
-5.00997418520868
30
0
41
1
10
80.9352533135666
20
-4.93394157745578
30
0
0
SPLINE
5
186
100
AcDbEntity
8
1
62
256
6
ByLayer
370
18
48
1
60
0
100
AcDbSpline
70
4
71
3
72
18
73
14
40
0
40
0
40
0
40
0
40
0.249999999999953
40
0.249999999999953
40
0.374999999999929
40
0.374999999999929
40
0.499999999999905
40
0.499999999999905
40
0.749999999999953
40
0.749999999999953
40
0.874999999999976
40
0.874999999999976
40
1
40
1
40
1
40
1
41
1
10
81.1729055409477
20
-4.85238120882579
30
0
41
1
10
81.1522147855573
20
-4.85025517143555
30
0
41
1
10
81.1315256399236
20
-4.850683183255
30
0
41
1
10
81.1005340221484
20
-4.85462428051872
30
0
41
1
10
81.0902105986777
20
-4.85649545443241
30
0
41
1
10
81.0695864765731
20
-4.86134005475759
30
0
41
1
10
81.0592905676316
20
-4.86431834669665
30
0
41
1
10
81.0289569800611
20
-4.87474012099992
30
0
41
1
10
81.0092938395939
20
-4.88368746316871
30
0
41
1
10
80.9807103068817
20
-4.90016820822035
30
0
41
1
10
80.9713355504465
20
-4.90617618714111
30
0
41
1
10
80.9529218555983
20
-4.91929472168539
30
0
41
1
10
80.9439159463018
20
-4.92638825416137
30
0
41
1
10
80.9352533135664
20
-4.93394157745414
30
0
0
SPLINE
5
187
100
AcDbEntity
8
1
62
256
6
ByLayer
370
18
48
1
60
0
100
AcDbSpline
70
4
71
3
72
14
73
10
40
0
40
0
40
0
40
0
40
0.25
40
0.25
40
0.5
40
0.5
40
0.75
40
0.75
40
1
40
1
40
1
40
1
41
1
10
81.1729055409477
20
-4.85238120882579
30
0
41
1
10
81.2730169719098
20
-4.81822489690143
30
0
41
1
10
81.373739777958
20
-4.78417122034676
30
0
41
1
10
81.5766350620589
20
-4.71672885175212
30
0
41
1
10
81.6787757360028
20
-4.68334675673208
30
0
41
1
10
81.8839394732655
20
-4.6174952807655
30
0
41
1
10
81.9869550224298
20
-4.58502462387577
30
0
41
1
10
82.1932923011537
20
-4.52097897097497
30
0
41
1
10
82.2966312576493
20
-4.48940809384689
30
0
41
1
10
82.3999437600541
20
-4.45822013034345
30
0
0
SPLINE
5
188
100
AcDbEntity
8
1
62
256
6
ByLayer
370
18
48
1
60
0
100
AcDbSpline
70
4
71
3
72
14
73
10
40
0
40
0
40
0
40
0
40
0.25
40
0.25
40
0.5
40
0.5
40
0.749999999999999
40
0.749999999999999
40
1
40
1
40
1
40
1
41
1
10
82.3999437600541
20
-4.45822013034345
30
0
41
1
10
82.4466472351497
20
-4.39570228664775
30
0
41
1
10
82.4939858123079
20
-4.33309109408967
30
0
41
1
10
82.5903865267697
20
-4.20784318685395
30
0
41
1
10
82.639409049051
20
-4.14528067978671
30
0
41
1
10
82.7393049059693
20
-4.02054905610461
30
0
41
1
10
82.7901155200929
20
-3.95844944874801
30
0
41
1
10
82.8935754212818
20
-3.83517281050391
30
0
41
1
10
82.9462436845054
20
-3.77397087058489
30
0
41
1
10
83.0000000000001
20
-3.71334626017096
30
0
0
SPLINE
5
189
100
AcDbEntity
8
1
62
256
6
ByLayer
370
18
48
1
60
0
100
AcDbSpline
70
4
71
3
72
26
73
22
40
0
40
0
40
0
40
0
40
0.0483840025209772
40
0.0483840025209772
40
0.0967680050419543
40
0.0967680050419543
40
0.193536010083909
40
0.290304015125863
40
0.290304015125863
40
0.387072020167817
40
0.387072020167817
40
0.435456022688794
40
0.435456022688794
40
0.483840025209771
40
0.580608030251725
40
0.580608030251725
40
0.677376035293679
40
0.677376035293679
40
0.774144040335633
40
0.774144040335633
40
1
40
1
40
1
40
1
41
1
10
83.0000000000001
20
-3.71334626017099
30
0
41
1
10
83.0000000000001
20
-3.68533658269223
30
0
41
1
10
83
20
-3.6576531766593
30
0
41
1
10
83
20
-3.60342066140461
30
0
41
1
10
83
20
-3.57680298577017
30
0
41
1
10
83
20
-3.49840551881496
30
0
41
1
10
83
20
-3.39774760680504
30
0
41
1
10
83
20
-3.30464741510138
30
0
41
1
10
83.0000000000001
20
-3.215384206995
30
0
41
1
10
83
20
-3.17267019678832
30
0
41
1
10
83
20
-3.11164208936438
30
0
41
1
10
83
20
-3.091764942042
30
0
41
1
10
83.0000000000001
20
-3.05338675980363
30
0
41
1
10
83
20
-2.99780454217691
30
0
41
1
10
83
20
-2.94797331056438
30
0
41
1
10
83.0000000000001
20
-2.8863637372144
30
0
41
1
10
83
20
-2.85816135182603
30
0
41
1
10
83
20
-2.80319800110843
30
0
41
1
10
83
20
-2.77619202835038
30
0
41
1
10
83
20
-2.68844401606975
30
0
41
1
10
83
20
-2.63112139054437
30
0
41
1
10
83.0000000000001
20
-2.5778482601691
30
0
0
SPLINE
5
18A
100
AcDbEntity
8
1
62
256
6
ByLayer
370
18
48
1
60
0
100
AcDbSpline
70
4
71
3
72
12
73
8
40
0
40
0
40
0
40
0
40
0.499999999999986
40
0.499999999999986
40
0.749999999999993
40
0.749999999999993
40
1
40
1
40
1
40
1
41
1
10
83.0000000000001
20
-2.52538489881206
30
0
41
1
10
82.8994575416369
20
-2.51534737563756
30
0
41
1
10
82.7993552267627
20
-2.50697268404787
30
0
41
1
10
82.6494212757622
20
-2.49784686538953
30
0
41
1
10
82.5994829647619
20
-2.49537784687149
30
0
41
1
10
82.4996432529418
20
-2.49175261676297
30
0
41
1
10
82.4496833410587
20
-2.49079970113635
30
0
41
1
10
82.3999947946078
20
-2.48959432252784
30
0
0
SPLINE
5
18B
100
AcDbEntity
8
1
62
256
6
ByLayer
370
18
48
1
60
0
100
AcDbSpline
70
4
71
3
72
8
73
4
40
0
40
0
40
0
40
0
40
1
40
1
40
1
40
1
41
1
10
82.3999600020975
20
-2.48957764027517
30
0
41
1
10
82.3999715996076
20
-2.48958320039992
30
0
41
1
10
82.3999831971111
20
-2.4895887611508
30
0
41
1
10
82.3999947946078
20
-2.48959432252781
30
0
0
SPLINE
5
18C
100
AcDbEntity
8
1
62
256
6
ByLayer
370
18
48
1
60
0
100
AcDbSpline
70
4
71
3
72
14
73
10
40
0
40
0
40
0
40
0
40
0.25
40
0.25
40
0.5
40
0.5
40
0.75
40
0.75
40
1
40
1
40
1
40
1
41
1
10
82.3999600020975
20
-2.48957764027455
30
0
41
1
10
82.275104894142
20
-2.38949044274807
30
0
41
1
10
82.1495133576137
20
-2.29025664308085
30
0
41
1
10
81.8972597165906
20
-2.09332499972493
30
0
41
1
10
81.7705999680615
20
-1.99562521716464
30
0
41
1
10
81.5166671008463
20
-1.80142417922423
30
0
41
1
10
81.3893743760301
20
-1.70494628258265
30
0
41
1
10
81.134718457422
20
-1.51263230536156
30
0
41
1
10
81.0073841960911
20
-1.41676522939713
30
0
41
1
10
80.8804935173496
20
-1.32059893708043
30
0
0
SPLINE
5
18D
100
AcDbEntity
8
1
62
256
6
ByLayer
370
18
48
1
60
0
100
AcDbSpline
70
4
71
3
72
28
73
24
40
0
40
0
40
0
40
0
40
0.0624999999999795
40
0.0624999999999795
40
0.124999999999959
40
0.124999999999959
40
0.249999999999918
40
0.249999999999918
40
0.312499999999898
40
0.312499999999898
40
0.374999999999878
40
0.374999999999878
40
0.499999999999886
40
0.499999999999886
40
0.624999999999894
40
0.624999999999894
40
0.687499999999899
40
0.687499999999899
40
0.749999999999903
40
0.749999999999903
40
0.874999999999951
40
0.874999999999951
40
1
40
1
40
1
40
1
41
1
10
80.4298324380728
20
-0.93811112908034
30
0
41
1
10
80.4368167293285
20
-0.939095823924049
30
0
41
1
10
80.4445246902178
20
-0.941092067637612
30
0
41
1
10
80.4611401637609
20
-0.946748804960862
30
0
41
1
10
80.4700504324692
20
-0.950412669159192
30
0
41
1
10
80.498394631385
20
-0.963680293777912
30
0
41
1
10
80.5184035440674
20
-0.975031516912708
30
0
41
1
10
80.5495306845835
20
-0.994798212279875
30
0
41
1
10
80.5601495615529
20
-1.00189435621002
30
0
41
1
10
80.5812786047009
20
-1.01663704552936
30
0
41
1
10
80.5918365386852
20
-1.02431135590447
30
0
41
1
10
80.6234814603328
20
-1.04815291096196
30
0
41
1
10
80.6445404363296
20
-1.06512814274953
30
0
41
1
10
80.6865199090875
20
-1.10111347662493
30
0
41
1
10
80.7069438099238
20
-1.11970095218774
30
0
41
1
10
80.7367029244958
20
-1.14843253641715
30
0
41
1
10
80.7464773113678
20
-1.15815469861983
30
0
41
1
10
80.7657216721605
20
-1.1779031900526
30
0
41
1
10
80.7752312028013
20
-1.18797397931183
30
0
41
1
10
80.8028722815815
20
-1.21824171197306
30
0
41
1
10
80.8201771908662
20
-1.23853312918823
30
0
41
1
10
80.8523366733125
20
-1.27937366262904
30
0
41
1
10
80.8672328657679
20
-1.29995895968031
30
0
41
1
10
80.8804935173497
20
-1.32059893708058
30
0
0
SPLINE
5
18E
100
AcDbEntity
8
1
62
256
6
ByLayer
370
18
48
1
60
0
100
AcDbSpline
70
4
71
3
72
8
73
4
40
0
40
0
40
0
40
0
40
1
40
1
40
1
40
1
41
1
10
80.3692627882143
20
-0.928231489223975
30
0
41
1
10
80.389415192451
20
-0.931939003282793
30
0
41
1
10
80.4096018362563
20
-0.935258875563903
30
0
41
1
10
80.4298324380728
20
-0.938111129080312
30
0
0
SPLINE
5
18F
100
AcDbEntity
8
1
62
256
6
ByLayer
370
18
48
1
60
0
100
AcDbSpline
70
4
71
3
72
10
73
6
40
0
40
0
40
0
40
0
40
0.5
40
0.5
40
1
40
1
40
1
40
1
41
1
10
80.3692627882145
20
-0.928231489223947
30
0
41
1
10
80.1931958104356
20
-0.790960287684356
30
0
41
1
10
80.0185533969381
20
-0.65216793269812
30
0
41
1
10
79.6727268479973
20
-0.369899005113098
30
0
41
1
10
79.5015420330142
20
-0.226422706507236
30
0
41
1
10
79.3323425562968
20
-0.0797431330592531
30
0
0
SPLINE
5
190
100
AcDbEntity
8
1
62
256
6
ByLayer
370
18
48
1
60
0
100
AcDbSpline
70
4
71
3
72
10
73
6
40
0
40
0
40
0
40
0
40
0.5
40
0.5
40
1
40
1
40
1
40
1
41
1
10
79.0511132101927
20
0.280798712379948
30
0
41
1
10
79.0982775138049
20
0.223937526526015
30
0
41
1
10
79.1453441419001
20
0.165657290531897
30
0
41
1
10
79.239081247561
20
0.0455034615264083
30
0
41
1
10
79.285785903154
20
-0.0162936134833274
30
0
41
1
10
79.3323425562969
20
-0.0797431330592531
30
0
0
SPLINE
5
191
100
AcDbEntity
8
1
62
256
6
ByLayer
370
18
48
1
60
0
100
AcDbSpline
70
4
71
3
72
32
73
28
40
0
40
0
40
0
40
0
40
0.062499999999996
40
0.062499999999996
40
0.124999999999992
40
0.124999999999992
40
0.249999999999982
40
0.249999999999982
40
0.312499999999999
40
0.312499999999999
40
0.375000000000016
40
0.375000000000016
40
0.437500000000033
40
0.437500000000033
40
0.50000000000005
40
0.50000000000005
40
0.625000000000038
40
0.625000000000038
40
0.687500000000032
40
0.687500000000032
40
0.750000000000026
40
0.750000000000026
40
0.875000000000012
40
0.875000000000012
40
0.937500000000006
40
0.937500000000006
40
1
40
1
40
1
40
1
41
1
10
78.5905209411733
20
0.687604596792028
30
0
41
1
10
78.5977301886907
20
0.682679015812909
30
0
41
1
10
78.6057099510409
20
0.677009289308671
30
0
41
1
10
78.622940623431
20
0.664454004818452
30
0
41
1
10
78.6322196263939
20
0.657547507842622
30
0
41
1
10
78.661613474522
20
0.635283942335178
30
0
41
1
10
78.6823511377833
20
0.619095589599397
30
0
41
1
10
78.7146474390166
20
0.593284784121039
30
0
41
1
10
78.7256314091528
20
0.584407075513241
30
0
41
1
10
78.7474466844076
20
0.566587020241712
30
0
41
1
10
78.7583463472287
20
0.557590433620504
30
0
41
1
10
78.7801224501291
20
0.539432180867664
30
0
41
1
10
78.7909989137104
20
0.530270438438322
30
0
41
1
10
78.8127202684952
20
0.511780288483777
30
0
41
1
10
78.8236061458853
20
0.502416084275382
30
0
41
1
10
78.8558915142674
20
0.474329359115444
30
0
41
1
10
78.876797273587
20
0.455725476204037
30
0
41
1
10
78.907222938429
20
0.427918582190131
30
0
41
1
10
78.9172078641547
20
0.418666503841479
30
0
41
1
10
78.9368451776044
20
0.400187201930777
30
0
41
1
10
78.9464764641998
20
0.390978161238081
30
0
41
1
10
78.9743291294288
20
0.363876193472578
30
0
41
1
10
78.9916969921511
20
0.346335369469585
30
0
41
1
10
79.0157139092449
20
0.320932565727219
30
0
41
1
10
79.0233778671341
20
0.31261951531522
30
0
41
1
10
79.0379212681502
20
0.296359044841637
30
0
41
1
10
79.0448166153637
20
0.288389873944283
30
0
41
1
10
79.0511132101927
20
0.280798712379351
30
0
0
SPLINE
5
192
100
AcDbEntity
8
1
62
256
6
ByLayer
370
18
48
1
60
0
100
AcDbSpline
70
4
71
3
72
12
73
8
40
0
40
0
40
0
40
0
40
0.50000000000001
40
0.50000000000001
40
0.750000000000005
40
0.750000000000005
40
1
40
1
40
1
40
1
41
1
10
70.8168843716766
20
0.22015337254939
30
0
41
1
10
70.7300942816627
20
0.281811857566396
30
0
41
1
10
70.6427090962182
20
0.337348819933055
30
0
41
1
10
70.5105351335279
20
0.410928343912843
30
0
41
1
10
70.4663492442239
20
0.433809330741667
30
0
41
1
10
70.3776425799656
20
0.475967747634684
30
0
41
1
10
70.3331165591918
20
0.495203098321753
30
0
41
1
10
70.2883915668184
20
0.512563639925929
30
0
0
SPLINE
5
193
100
AcDbEntity
8
1
62
256
6
ByLayer
370
13
48
1
60
0
100
AcDbSpline
70
4
71
3
72
10
73
6
40
0
40
0
40
0
40
0
40
0.0534040914164262
40
0.438277309917559
40
1
40
1
40
1
40
1
41
1.04
10
70.2883915668183
20
0.512563639927257
30
0
41
1.04
10
70.2915455398857
20
0.455195776678279
30
0
41
1.04
10
70.3174914336197
20
-0.0176885937275
30
0
41
1.04
10
70.3778980200782
20
-1.13263843660472
30
0
41
1.04
10
70.4344679090652
20
-2.11173822507575
30
0
41
1.04
10
70.4677248457253
20
-2.63248339658938
30
0
0
SPLINE
5
194
100
AcDbEntity
8
1
62
256
6
ByLayer
370
18
48
1
60
0
100
AcDbSpline
70
4
71
3
72
14
73
10
40
0
40
0
40
0
40
0
40
0.25
40
0.25
40
0.5
40
0.5
40
0.75
40
0.75
40
1
40
1
40
1
40
1
41
1
10
70.4677248457253
20
-2.63248339658938
30
0
41
1
10
70.5156273912694
20
-2.7251575620958
30
0
41
1
10
70.5633711006175
20
-2.81848744381634
30
0
41
1
10
70.6584289372885
20
-3.00669017028349
30
0
41
1
10
70.7057672950905
20
-3.10152616318152
30
0
41
1
10
70.8001426660298
20
-3.29260840119164
30
0
41
1
10
70.8471570337798
20
-3.38880967824517
30
0
41
1
10
70.9407685837528
20
-3.5821558644663
30
0
41
1
10
70.9873882867366
20
-3.67934627911316
30
0
41
1
10
71.0338616522583
20
-3.77702731876991
30
0
0
SPLINE
5
195
100
AcDbEntity
8
1
62
256
6
ByLayer
370
18
48
1
60
0
100
AcDbSpline
70
4
71
3
72
8
73
4
40
0
40
0
40
0
40
0
40
1
40
1
40
1
40
1
41
1
10
71.0977822088012
20
-0.0671299114687827
30
0
41
1
10
71.004183674293
20
0.0291110782692954
30
0
41
1
10
70.9105680345819
20
0.124888116547368
30
0
41
1
10
70.8168843716766
20
0.220153372549362
30
0
0
SPLINE
5
196
100
AcDbEntity
8
1
62
256
6
ByLayer
370
18
48
1
60
0
100
AcDbSpline
70
4
71
3
72
26
73
22
40
0
40
0
40
0
40
0
40
0.125
40
0.25
40
0.375
40
0.375
40
0.4375
40
0.4375
40
0.46875
40
0.46875
40
0.500000000000001
40
0.500000000000001
40
0.625
40
0.625
40
0.75
40
0.75
40
0.875
40
0.875
40
0.9375
40
0.9375
40
1
40
1
40
1
40
1
41
1
10
71.0338616522583
20
-3.77702731876991
30
0
41
1
10
71.0249591928578
20
-3.63594301723441
30
0
41
1
10
71.0073202632893
20
-3.34573619116509
30
0
41
1
10
70.9806332898255
20
-2.88703675133982
30
0
41
1
10
70.9624347866216
20
-2.56575463504802
30
0
41
1
10
70.9486110608673
20
-2.3188909183761
30
0
41
1
10
70.943974744447
20
-2.23561788119335
30
0
41
1
10
70.936981352713
20
-2.10920482362516
30
0
41
1
10
70.9346413597636
20
-2.06677236770201
30
0
41
1
10
70.9299611970778
20
-1.98161097210675
30
0
41
1
10
70.9276242781702
20
-1.93894147085015
30
0
41
1
10
70.9159593536124
20
-1.72515445903244
30
0
41
1
10
70.9066877257705
20
-1.55272126609825
30
0
41
1
10
70.8884085880051
20
-1.20511634131921
30
0
41
1
10
70.8794422647671
20
-1.0299433663032
30
0
41
1
10
70.8617587711582
20
-0.676864116436491
30
0
41
1
10
70.8529714815027
20
-0.498959773127638
30
0
41
1
10
70.8395719410806
20
-0.230019053470642
30
0
41
1
10
70.8350684573697
20
-0.139964464261738
30
0
41
1
10
70.8259871534424
20
0.0406065694663482
30
0
41
1
10
70.8214382025007
20
0.130548348165206
30
0
41
1
10
70.8168843716766
20
0.220153372549362
30
0
0
SPLINE
5
197
100
AcDbEntity
8
1
62
256
6
ByLayer
370
18
48
1
60
0
100
AcDbSpline
70
4
71
3
72
8
73
4
40
0
40
0
40
0
40
0
40
1
40
1
40
1
40
1
41
1
10
71.0338616522583
20
-3.77702731876991
30
0
41
1
10
71.1164826628842
20
-3.85354566416677
30
0
41
1
10
71.1989874046302
20
-3.92910690096309
30
0
41
1
10
71.2814245685865
20
-4.00366962561566
30
0
0
SPLINE
5
198
100
AcDbEntity
8
1
62
256
6
ByLayer
370
13
48
1
60
0
100
AcDbSpline
70
4
71
3
72
9
73
5
40
0
40
0
40
0
40
0
40
0.757668101205385
40
1
40
1
40
1
40
1
41
1
10
71.6670132735879
20
-0.708107132388477
30
0
41
1
10
71.7109110233226
20
-1.50300910643975
30
0
41
1
10
71.7698080382765
20
-2.53249393563726
30
0
41
1
10
71.8313583374394
20
-3.39802839470707
30
0
41
1
10
71.8464339300958
20
-3.59412970322921
30
0
0
SPLINE
5
199
100
AcDbEntity
8
1
62
256
6
ByLayer
370
18
48
1
60
0
100
AcDbSpline
70
4
71
3
72
12
73
8
40
0
40
0
40
0
40
0
40
0.249999999999996
40
0.249999999999996
40
0.499999999999993
40
0.499999999999993
40
1
40
1
40
1
40
1
41
1
10
71.6670132735879
20
-0.708107132388477
30
0
41
1
10
71.6188666407747
20
-0.661866717538231
30
0
41
1
10
71.5709005501233
20
-0.613837546812931
30
0
41
1
10
71.4752820421582
20
-0.514235961558285
30
0
41
1
10
71.4276383187639
20
-0.46263146122979
30
0
41
1
10
71.2851973505559
20
-0.302178355860178
30
0
41
1
10
71.1911427236736
20
-0.188047268519313
30
0
41
1
10
71.0977822088012
20
-0.0671299114687542
30
0
0
SPLINE
5
19A
100
AcDbEntity
8
1
62
256
6
ByLayer
370
18
48
1
60
0
100
AcDbSpline
70
4
71
3
72
25
73
21
40
0
40
0
40
0
40
0
40
0.125
40
0.125
40
0.25
40
0.25
40
0.3125
40
0.3125
40
0.375
40
0.375
40
0.5
40
0.5
40
0.625
40
0.750000000000001
40
0.750000000000001
40
0.812500000000001
40
0.812500000000001
40
0.875000000000001
40
0.875000000000001
40
1
40
1
40
1
40
1
41
1
10
71.0977822088012
20
-0.0671299114687827
30
0
41
1
10
71.10542111748
20
-0.246295109308249
30
0
41
1
10
71.1130060105734
20
-0.424643485310696
30
0
41
1
10
71.1281227673323
20
-0.779727791414302
30
0
41
1
10
71.1356617641377
20
-0.956463497894276
30
0
41
1
10
71.1470407026555
20
-1.22034278782331
30
0
41
1
10
71.1508450248955
20
-1.30809822044918
30
0
41
1
10
71.1584887098075
20
-1.48319440229559
30
0
41
1
10
71.1623304585048
20
-1.57058926564579
30
0
41
1
10
71.1739084013302
20
-1.831802924877
30
0
41
1
10
71.1816004741609
20
-2.0024478645864
30
0
41
1
10
71.1969771494855
20
-2.33696952807321
30
0
41
1
10
71.2123456560222
20
-2.66472174531569
30
0
41
1
10
71.2277318495489
20
-2.97905390348757
30
0
41
1
10
71.2392857851442
20
-3.20969494023819
30
0
41
1
10
71.2431394723747
20
-3.28572268916662
30
0
41
1
10
71.2508537090494
20
-3.43604462702069
30
0
41
1
10
71.254721823694
20
-3.51048520329721
30
0
41
1
10
71.2662355259291
20
-3.72911379511834
30
0
41
1
10
71.2738288325849
20
-3.86916327936845
30
0
41
1
10
71.2814245685865
20
-4.00366962561569
30
0
0
SPLINE
5
19B
100
AcDbEntity
8
1
62
256
6
ByLayer
370
18
48
1
60
0
100
AcDbSpline
70
4
71
3
72
12
73
8
40
0
40
0
40
0
40
0
40
0.500000000000017
40
0.500000000000017
40
0.750000000000018
40
0.875000000000009
40
1
40
1
40
1
40
1
41
1
10
71.2814245685865
20
-4.00366962561563
30
0
41
1
10
71.3741243523029
20
-3.94925305075841
30
0
41
1
10
71.4676233222155
20
-3.88781572843274
30
0
41
1
10
71.6089801550479
20
-3.78532396907994
30
0
41
1
10
71.6798669712046
20
-3.73154585266838
30
0
41
1
10
71.7748672451282
20
-3.65477733514629
30
0
41
1
10
71.822539726481
20
-3.61470062705897
30
0
41
1
10
71.8464339300953
20
-3.59412970322242
30
0
0
SPLINE
5
19C
100
AcDbEntity
8
1
62
256
6
ByLayer
370
18
48
1
60
0
100
AcDbSpline
70
4
71
3
72
105
73
101
40
0
40
0
40
0
40
0
40
0.0625000000000129
40
0.0625000000000129
40
0.0937500000000193
40
0.0937500000000193
40
0.125000000000026
40
0.125000000000026
40
0.187500000000035
40
0.187500000000035
40
0.203125000000038
40
0.203125000000038
40
0.21875000000004
40
0.234375000000043
40
0.234375000000043
40
0.250000000000045
40
0.250000000000045
40
0.281250000000054
40
0.281250000000054
40
0.296875000000056
40
0.296875000000056
40
0.312500000000059
40
0.328125000000061
40
0.328125000000061
40
0.343750000000064
40
0.343750000000064
40
0.375000000000068
40
0.375000000000068
40
0.406250000000073
40
0.406250000000073
40
0.437500000000078
40
0.437500000000078
40
0.445312500000079
40
0.445312500000079
40
0.453125000000081
40
0.453125000000081
40
0.468750000000086
40
0.468750000000086
40
0.484375000000092
40
0.484375000000092
40
0.492187500000094
40
0.492187500000094
40
0.500000000000095
40
0.500000000000095
40
0.531250000000098
40
0.531250000000098
40
0.539062500000098
40
0.539062500000098
40
0.542968750000098
40
0.542968750000098
40
0.546875000000098
40
0.546875000000098
40
0.5625000000001
40
0.5625000000001
40
0.570312500000101
40
0.574218750000101
40
0.574218750000101
40
0.578125000000101
40
0.578125000000101
40
0.593750000000099
40
0.593750000000099
40
0.609375000000097
40
0.609375000000097
40
0.617187500000097
40
0.617187500000097
40
0.625000000000096
40
0.625000000000096
40
0.640625000000094
40
0.640625000000094
40
0.648437500000093
40
0.648437500000093
40
0.652343750000092
40
0.652343750000092
40
0.656250000000091
40
0.656250000000091
40
0.671875000000085
40
0.671875000000085
40
0.687500000000079
40
0.687500000000079
40
0.703125000000073
40
0.703125000000073
40
0.71093750000007
40
0.71093750000007
40
0.718750000000068
40
0.718750000000068
40
0.750000000000059
40
0.750000000000059
40
0.78125000000005
40
0.78125000000005
40
0.812500000000041
40
0.812500000000041
40
0.828125000000037
40
0.828125000000037
40
0.843750000000032
40
0.843750000000032
40
0.875000000000026
40
0.875000000000026
40
0.937500000000013
40
0.937500000000013
40
1
40
1
40
1
40
1
41
1
10
42.4866098959971
20
0.768294647393077
30
0
41
1
10
42.2835739344551
20
0.911686643205286
30
0
41
1
10
42.0766903770719
20
1.04557159752895
30
0
41
1
10
41.7583239643967
20
1.22902739947932
30
0
41
1
10
41.6508675465754
20
1.28729773686348
30
0
41
1
10
41.4330032221771
20
1.39775252933413
30
0
41
1
10
41.3225902331066
20
1.4499273372931
30
0
41
1
10
40.9862858110032
20
1.59646051925034
30
0
41
1
10
40.7553811444478
20
1.68091978773822
30
0
41
1
10
40.4558511048947
20
1.76643515448134
30
0
41
1
10
40.3957170876773
20
1.78244635066841
30
0
41
1
10
40.2752301129647
20
1.81211445495001
30
0
41
1
10
40.1544431557921
20
1.83946294870637
30
0
41
1
10
40.0330198736409
20
1.86196810014491
30
0
41
1
10
39.9112473758772
20
1.88185091953898
30
0
41
1
10
39.850172307095
20
1.89037643364114
30
0
41
1
10
39.6665340598989
20
1.91287399879934
30
0
41
1
10
39.5435393332162
20
1.92363228590642
30
0
41
1
10
39.3584742577403
20
1.93554389776139
30
0
41
1
10
39.2966970407439
20
1.93885801649344
30
0
41
1
10
39.1729062730568
20
1.94374796022947
30
0
41
1
10
39.04888987781
20
1.94697842083784
30
0
41
1
10
38.924397051079
20
1.94671110939589
30
0
41
1
10
38.7996520036407
20
1.94459179697557
30
0
41
1
10
38.7370786877796
20
1.9425930809291
30
0
41
1
10
38.5501492382763
20
1.93368835790022
30
0
41
1
10
38.4262544666023
20
1.92391020657769
30
0
41
1
10
38.180089621573
20
1.89565351495651
30
0
41
1
10
38.0578127929548
20
1.87721248057881
30
0
41
1
10
37.8151375003209
20
1.83009181749881
30
0
41
1
10
37.6947351272034
20
1.8014368160064
30
0
41
1
10
37.5456817238939
20
1.75752284614677
30
0
41
1
10
37.5159217789047
20
1.74832286950829
30
0
41
1
10
37.4568680761043
20
1.72914851445592
30
0
41
1
10
37.4275390521695
20
1.71916563547799
30
0
41
1
10
37.3401824331471
20
1.68794766809603
30
0
41
1
10
37.2827830760641
20
1.66544826770314
30
0
41
1
10
37.1698824673209
20
1.61657394894468
30
0
41
1
10
37.1143802582716
20
1.59020126268061
30
0
41
1
10
37.0327693542411
20
1.54723718373512
30
0
41
1
10
37.0058400996207
20
1.53234681476417
30
0
41
1
10
36.9525766935901
20
1.5013220024712
30
0
41
1
10
36.9261836300832
20
1.48514793051211
30
0
41
1
10
36.7968113352911
20
1.40149632081045
30
0
41
1
10
36.70128928022
20
1.32572227675021
30
0
41
1
10
36.5946295613644
20
1.21637164307683
30
0
41
1
10
36.5739368302314
20
1.19376618693502
30
0
41
1
10
36.5439326647469
20
1.1586572043243
30
0
41
1
10
36.5340880212126
20
1.14673278702622
30
0
41
1
10
36.5148892835527
20
1.12262979856862
30
0
41
1
10
36.5055240420057
20
1.11043960273523
30
0
41
1
10
36.4598844956006
20
1.04878264308363
30
0
41
1
10
36.4271349746991
20
0.997217638924241
30
0
41
1
10
36.3838966082642
20
0.916300102749659
30
0
41
1
10
36.3637515939921
20
0.874947180516386
30
0
41
1
10
36.3458773755838
20
0.832203926535072
30
0
41
1
10
36.3344732798365
20
0.803393407162815
30
0
41
1
10
36.3290154543382
20
0.788798876296482
30
0
41
1
10
36.3031883835164
20
0.715466951414328
30
0
41
1
10
36.287280262458
20
0.655777428946493
30
0
41
1
10
36.2639456337477
20
0.534510080794036
30
0
41
1
10
36.2565259972331
20
0.472931047804934
30
0
41
1
10
36.2511557286759
20
0.379236617647706
30
0
41
1
10
36.250267312172
20
0.347734804144039
30
0
41
1
10
36.250546977388
20
0.285163462795168
30
0
41
1
10
36.2517054031937
20
0.253996662946122
30
0
41
1
10
36.2583944780969
20
0.160874133914092
30
0
41
1
10
36.2671595952052
20
0.0992989481222821
30
0
41
1
10
36.2869188345863
20
0.0077192753031454
30
0
41
1
10
36.2946430360645
20
-0.0226721491300168
30
0
41
1
10
36.3076503150787
20
-0.0680929439802753
30
0
41
1
10
36.3122214250967
20
-0.0831995395807894
30
0
41
1
10
36.3217442828245
20
-0.113157971770647
30
0
41
1
10
36.3267034443422
20
-0.128036431550157
30
0
41
1
10
36.3524149614095
20
-0.201960926406144
30
0
41
1
10
36.3758891915328
20
-0.259616000893885
30
0
41
1
10
36.427245207523
20
-0.372648856415481
30
0
41
1
10
36.4551358894695
20
-0.42802225844008
30
0
41
1
10
36.5144133999739
20
-0.536941258540736
30
0
41
1
10
36.5458068846975
20
-0.59048362399821
30
0
41
1
10
36.5950315734017
20
-0.669666472465167
30
0
41
1
10
36.6117958922042
20
-0.695867699217786
30
0
41
1
10
36.6457900577204
20
-0.747653071042265
30
0
41
1
10
36.6630427097822
20
-0.773274274789998
30
0
41
1
10
36.7504465894797
20
-0.90014904285087
30
0
41
1
10
36.8239589729725
20
-0.997764568179377
30
0
41
1
10
36.975867889563
20
-1.18734332623819
30
0
41
1
10
37.0542934218225
20
-1.27928078657885
30
0
41
1
10
37.2147125293462
20
-1.45870236703888
30
0
41
1
10
37.2967284213881
20
-1.54616775515407
30
0
41
1
10
37.4218455905493
20
-1.67455275223486
30
0
41
1
10
37.4639028126242
20
-1.71687636837311
30
0
41
1
10
37.5486438446617
20
-1.80064775367748
30
0
41
1
10
37.5912220220193
20
-1.84199071612375
30
0
41
1
10
37.7193677009645
20
-1.96439362418411
30
0
41
1
10
37.8053952836731
20
-2.04388666995098
30
0
41
1
10
38.0647461129744
20
-2.27675027016758
30
0
41
1
10
38.2392939617104
20
-2.42456664126092
30
0
41
1
10
38.5902715103496
20
-2.70710469481142
30
0
41
1
10
38.7667107592586
20
-2.84180327176972
30
0
41
1
10
38.9440651401288
20
-2.96991852553123
30
0
0
SPLINE
5
19D
100
AcDbEntity
8
1
62
256
6
ByLayer
370
18
48
1
60
0
100
AcDbSpline
70
4
71
3
72
38
73
34
40
0
40
0
40
0
40
0
40
0.0996427909123936
40
0.0996427909123936
40
0.152204596099195
40
0.152204596099195
40
0.204766401285996
40
0.204766401285996
40
0.257328206472797
40
0.257328206472797
40
0.309890011659598
40
0.309890011659598
40
0.362451816846399
40
0.362451816846399
40
0.4150136220332
40
0.4150136220332
40
0.520137232406799
40
0.520137232406799
40
0.625260842780399
40
0.625260842780399
40
0.677822647967199
40
0.677822647967199
40
0.730384453153999
40
0.730384453153999
40
0.782946258340799
40
0.782946258340799
40
0.835508063527599
40
0.835508063527599
40
0.888069868714399
40
0.888069868714399
40
0.940631673901199
40
0.940631673901199
40
1
40
1
40
1
40
1
41
1
10
42.4866098976668
20
0.768294646465392
30
0
41
1
10
42.3960197498787
20
0.818625219823929
30
0
41
1
10
42.2914622491363
20
0.847136158135555
30
0
41
1
10
42.1076327658716
20
0.853010362957008
30
0
41
1
10
42.0400641667768
20
0.847931349238337
30
0
41
1
10
41.8996683652677
20
0.822855304189346
30
0
41
1
10
41.8263977719931
20
0.802904562619403
30
0
41
1
10
41.6730882332248
20
0.746674763817566
30
0
41
1
10
41.5919928951083
20
0.709847568077919
30
0
41
1
10
41.4273208834008
20
0.618534923981713
30
0
41
1
10
41.3441400287603
20
0.565846166348166
30
0
41
1
10
41.1769336624413
20
0.453437811594625
30
0
41
1
10
41.0927834239155
20
0.3926800008513
30
0
41
1
10
40.9233145383176
20
0.261438665168185
30
0
41
1
10
40.8382556464682
20
0.191095482113639
30
0
41
1
10
40.5872260521631
20
-0.0300925044184055
30
0
41
1
10
40.4227373204725
20
-0.193183467765692
30
0
41
1
10
40.1045988843038
20
-0.548006595861722
30
0
41
1
10
39.956125254024
20
-0.734098629894532
30
0
41
1
10
39.7487690815549
20
-1.02581571930807
30
0
41
1
10
39.6818448259663
20
-1.12578994389347
30
0
41
1
10
39.5551518347918
20
-1.32640802810678
30
0
41
1
10
39.4954316947151
20
-1.42687256283199
30
0
41
1
10
39.3825108490674
20
-1.62808117573587
30
0
41
1
10
39.3294201855766
20
-1.72882997235183
30
0
41
1
10
39.2287184717634
20
-1.93056252307701
30
0
41
1
10
39.1804384753522
20
-2.03203917736715
30
0
41
1
10
39.100196868616
20
-2.22819030573427
30
0
41
1
10
39.0668876432809
20
-2.32369784885256
30
0
41
1
10
39.012489253551
20
-2.51010587138612
30
0
41
1
10
38.9912165172072
20
-2.60172550068347
30
0
41
1
10
38.9583019861504
20
-2.78757886593522
30
0
41
1
10
38.9479406165091
20
-2.88107209336431
30
0
41
1
10
38.94406513948
20
-2.96991854040587
30
0
0
SPLINE
5
19E
100
AcDbEntity
8
SK1
62
256
6
ByLayer
370
18
48
1
60
0
100
AcDbSpline
70
4
71
3
72
25
73
21
40
0
40
0
40
0
40
0
40
0.0625056657969768
40
0.0625056657969768
40
0.125011331593954
40
0.125011331593954
40
0.250022663187907
40
0.250022663187907
40
0.500045326375815
40
0.500045326375815
40
0.625056657969769
40
0.625056657969769
40
0.687562323766746
40
0.718815156665235
40
0.718815156665235
40
0.750067989563723
40
0.750067989563723
40
0.875079321157677
40
0.875079321157677
40
1
40
1
40
1
40
1
41
1
10
-25.6
20
3.49999999999997
30
0
41
1
10
-25.6283912504771
20
3.49999999999997
30
0
41
1
10
-25.6564118314841
20
3.49999999999997
30
0
41
1
10
-25.7116377394306
20
3.49999999999997
30
0
41
1
10
-25.7388670583176
20
3.49999999999997
30
0
41
1
10
-25.8189906594332
20
3.49999999999997
30
0
41
1
10
-25.8703259431386
20
3.49999999999997
30
0
41
1
10
-26.0169645194637
20
3.49999999999997
30
0
41
1
10
-26.104981197625
20
3.49999999999997
30
0
41
1
10
-26.2165657316218
20
3.49999999999997
30
0
41
1
10
-26.2503339875396
20
3.49999999999997
30
0
41
1
10
-26.2949367233174
20
3.49999999999997
30
0
41
1
10
-26.3157237676438
20
3.49999999999997
30
0
41
1
10
-26.3340524870825
20
3.49999999999997
30
0
41
1
10
-26.34570356453
20
3.49999999999997
30
0
41
1
10
-26.3512513335316
20
3.49999999999997
30
0
41
1
10
-26.3774102497551
20
3.49999999999997
30
0
41
1
10
-26.3933144104498
20
3.49999999999997
30
0
41
1
10
-26.414594641074
20
3.49999999999997
30
0
41
1
10
-26.4199769779198
20
3.49999999999997
30
0
41
1
10
-26.4199999999995
20
3.49999999999997
30
0
0
SPLINE
5
19F
100
AcDbEntity
8
SK1
62
256
6
ByLayer
370
18
48
1
60
0
100
AcDbSpline
70
4
71
3
72
25
73
21
40
0
40
0
40
0
40
0
40
0.124920685093432
40
0.124920685093432
40
0.24993201579437
40
0.24993201579437
40
0.281184848469605
40
0.281184848469605
40
0.312437681144839
40
0.374943346495308
40
0.374943346495308
40
0.499954677196247
40
0.499954677196247
40
0.749977338598123
40
0.749977338598123
40
0.874988669299062
40
0.874988669299062
40
0.937494334649531
40
0.937494334649531
40
1
40
1
40
1
40
1
41
1
10
-26.4200000000035
20
-3.50000000000003
30
0
41
1
10
-26.4199769785354
20
-3.50000000000003
30
0
41
1
10
-26.4145946416822
20
-3.50000000000003
30
0
41
1
10
-26.3933144104498
20
-3.50000000000003
30
0
41
1
10
-26.3774102497551
20
-3.50000000000003
30
0
41
1
10
-26.3512513335316
20
-3.50000000000003
30
0
41
1
10
-26.34570356453
20
-3.50000000000003
30
0
41
1
10
-26.3340524870825
20
-3.50000000000003
30
0
41
1
10
-26.3157237676438
20
-3.50000000000003
30
0
41
1
10
-26.2949367233175
20
-3.50000000000003
30
0
41
1
10
-26.2503339875396
20
-3.50000000000003
30
0
41
1
10
-26.2165657316218
20
-3.50000000000003
30
0
41
1
10
-26.104981197625
20
-3.50000000000003
30
0
41
1
10
-26.0169645194637
20
-3.50000000000003
30
0
41
1
10
-25.8703259431386
20
-3.50000000000003
30
0
41
1
10
-25.8189906594333
20
-3.50000000000003
30
0
41
1
10
-25.7388670583177
20
-3.50000000000003
30
0
41
1
10
-25.7116377394306
20
-3.50000000000003
30
0
41
1
10
-25.6564118314841
20
-3.50000000000003
30
0
41
1
10
-25.6283912504772
20
-3.50000000000003
30
0
41
1
10
-25.6
20
-3.50000000000003
30
0
0
SPLINE
5
1A0
100
AcDbEntity
8
SK1
62
256
6
ByLayer
370
18
48
1
60
0
100
AcDbSpline
70
4
71
3
72
42
73
38
40
0
40
0
40
0
40
0
40
0.0625
40
0.0625
40
0.0937500000000001
40
0.0937500000000001
40
0.125
40
0.125
40
0.25
40
0.25
40
0.375
40
0.375
40
0.390625
40
0.390625
40
0.40625
40
0.40625
40
0.4375
40
0.4375
40
0.5
40
0.5625
40
0.5625
40
0.625
40
0.625
40
0.640625
40
0.640625
40
0.65625
40
0.6875
40
0.6875
40
0.75
40
0.75
40
0.875
40
0.875
40
0.9375
40
0.9375
40
0.96875
40
0.96875
40
1
40
1
40
1
40
1
41
1
10
-25.6
20
-2.5322717073806
30
0
41
1
10
-25.6565583720233
20
-2.43578436503554
30
0
41
1
10
-25.7116439195181
20
-2.33820475716084
30
0
41
1
10
-25.7915967853719
20
-2.18985119337413
30
0
41
1
10
-25.8178006931364
20
-2.14006846927998
30
0
41
1
10
-25.8692210011127
20
-2.03977067284566
30
0
41
1
10
-25.8944274264223
20
-1.9892708441449
30
0
41
1
10
-26.0171592864999
20
-1.73596911681412
30
0
41
1
10
-26.1053306622981
20
-1.52990483419961
30
0
41
1
10
-26.2540117985661
20
-1.10832131566494
30
0
41
1
10
-26.314506645306
20
-0.892796982116977
30
0
41
1
10
-26.3615059681628
20
-0.64313453219745
30
0
41
1
10
-26.3664345906926
20
-0.615293931063547
30
0
41
1
10
-26.3756842001613
20
-0.559405034267684
30
0
41
1
10
-26.3800074791542
20
-0.531334955523477
30
0
41
1
10
-26.3919767973441
20
-0.447243633545071
30
0
41
1
10
-26.3986454591635
20
-0.391210696629002
30
0
41
1
10
-26.4146633786763
20
-0.223196900384096
30
0
41
1
10
-26.4253669159011
20
0.0005943875169123
30
0
41
1
10
-26.414602359619
20
0.223928035215863
30
0
41
1
10
-26.3933144104498
20
0.447037353369808
30
0
41
1
10
-26.3774102497551
20
0.558479879870447
30
0
41
1
10
-26.3512513335316
20
0.697649193201698
30
0
41
1
10
-26.34570356453
20
0.725484569075519
30
0
41
1
10
-26.3340524870825
20
0.780866452571985
30
0
41
1
10
-26.3157237676438
20
0.863610658520457
30
0
41
1
10
-26.2949367233175
20
0.945406795114565
30
0
41
1
10
-26.2503339875396
20
1.10783105038186
30
0
41
1
10
-26.2165657316219
20
1.21455849585826
30
0
41
1
10
-26.1049811976251
20
1.53077637201858
30
0
41
1
10
-26.0169645194637
20
1.73633295052204
30
0
41
1
10
-25.8703259431386
20
2.03903200195631
30
0
41
1
10
-25.8189906594333
20
2.13898460624907
30
0
41
1
10
-25.7388670583177
20
2.28771000338978
30
0
41
1
10
-25.7116377394306
20
2.33708225013294
30
0
41
1
10
-25.6564118314841
20
2.43512311771093
30
0
41
1
10
-25.6283912504772
20
2.48383685668742
30
0
41
1
10
-25.6
20
2.53227170738052
30
0
0
SPLINE
5
1A1
100
AcDbEntity
8
1
62
256
6
ByLayer
370
18
48
1
60
0
100
AcDbSpline
70
4
71
1
72
4
73
2
40
0
40
0
40
1
40
1
41
1
10
83.0000000000001
20
4.40820728808646
30
0
41
1
10
82.5731686881674
20
4.81473281852325
30
0
0
SPLINE
5
1A2
100
AcDbEntity
8
1
62
256
6
ByLayer
370
18
48
1
60
0
100
AcDbSpline
70
4
71
2
72
6
73
3
40
0
40
0
40
0
40
1
40
1
40
1
41
1
10
67.2279935766377
20
-5.07271664716924
30
0
41
1
10
67.3213315018795
20
-5.23345041950085
30
0
41
1
10
67.4145879925861
20
-5.39422322813465
30
0
0
SPLINE
5
1A3
100
AcDbEntity
8
1
62
256
6
ByLayer
370
18
48
1
60
0
100
AcDbSpline
70
4
71
2
72
6
73
3
40
0
40
0
40
0
40
1
40
1
40
1
41
1
10
78.2960174603944
20
-6.00695451195145
30
0
41
1
10
78.4721345126932
20
-5.91111504939769
30
0
41
1
10
78.6492282109803
20
-5.82488336890813
30
0
0
SPLINE
5
1A4
100
AcDbEntity
8
1
62
256
6
ByLayer
370
18
48
1
60
0
100
AcDbSpline
70
4
71
2
72
6
73
3
40
0
40
0
40
0
40
1
40
1
40
1
41
1
10
74.4681701561009
20
5.49935523756665
30
0
41
1
10
74.301521977459
20
5.78627223656787
30
0
41
1
10
74.1351649807276
20
6.07335834747076
30
0
0
SPLINE
5
1A5
100
AcDbEntity
8
1
62
256
6
ByLayer
370
18
48
1
60
0
100
AcDbSpline
70
4
71
2
72
6
73
3
40
0
40
0
40
0
40
1
40
1
40
1
41
1
10
68.2865024595149
20
-5.59686180727527
30
0
41
1
10
68.358679046841
20
-5.47210571243727
30
0
41
1
10
68.4309362060534
20
-5.34738985643128
30
0
0
SPLINE
5
1A6
100
AcDbEntity
8
1
62
256
6
ByLayer
370
18
48
1
60
0
100
AcDbSpline
70
4
71
1
72
4
73
2
40
0
40
0
40
1
40
1
41
1
10
82.2049144395954
20
4.97262185446954
30
0
41
1
10
82.192663462595
20
4.97264559335255
30
0
0
SPLINE
5
1A7
100
AcDbEntity
8
1
62
256
6
ByLayer
370
18
48
1
60
0
100
AcDbSpline
70
4
71
2
72
6
73
3
40
0
40
0
40
0
40
1
40
1
40
1
41
1
10
70.3247114569642
20
5.88257775360941
30
0
41
1
10
70.0892989411147
20
5.47613521215999
30
0
41
1
10
69.8537903324903
20
5.07029570067061
30
0
0
SPLINE
5
1A8
100
AcDbEntity
8
1
62
256
6
ByLayer
370
18
48
1
60
0
100
AcDbSpline
70
4
71
1
72
4
73
2
40
0
40
0
40
1
40
1
41
1
10
79.6700229234173
20
-5.36983907350694
30
0
41
1
10
80.0674353815816
20
-5.23270328474334
30
0
0
SPLINE
5
1A9
100
AcDbEntity
8
1
62
256
6
ByLayer
370
18
48
1
60
0
100
AcDbSpline
70
4
71
1
72
4
73
2
40
0
40
0
40
1
40
1
41
1
10
66.8233660730427
20
-5.10471195574314
30
0
41
1
10
66.8400326450262
20
-5.07600710350968
30
0
0
SPLINE
5
1AA
100
AcDbEntity
8
1
62
256
6
ByLayer
370
18
48
1
60
0
100
AcDbSpline
70
4
71
2
72
6
73
3
40
0
40
0
40
0
40
1
40
1
40
1
41
1
10
71.2173911242677
20
5.0708968331607
30
0
41
1
10
70.9624144395375
20
5.51008458116041
30
0
41
1
10
70.7079351898505
20
5.94947149776692
30
0
0
SPLINE
5
1AB
100
AcDbEntity
8
1
62
256
6
ByLayer
370
18
48
1
60
0
100
AcDbSpline
70
4
71
3
72
11
73
7
40
0
40
0
40
0
40
0
40
0.243359592532204
40
0.500389839115409
40
0.757160705450854
40
1
40
1
40
1
40
1
41
1
10
79.0891041758092
20
-5.07713491724482
30
0
41
1
10
79.1072955120328
20
-5.04412715360894
30
0
41
1
10
79.1571486003096
20
-4.99329033827641
30
0
41
1
10
79.2911034254554
20
-4.95206920795471
30
0
41
1
10
79.4251766500569
20
-4.99979646834731
30
0
41
1
10
79.4750356771805
20
-5.05543759067908
30
0
41
1
10
79.4932464466994
20
-5.09082625172968
30
0
0
SPLINE
5
1AC
100
AcDbEntity
8
1
62
256
6
ByLayer
370
18
48
1
60
0
100
AcDbSpline
70
4
71
3
72
11
73
7
40
0
40
0
40
0
40
0
40
0.247460163201407
40
0.499195032706792
40
0.75483651994609
40
1
40
1
40
1
40
1
41
1
10
66.8417239341975
20
-5.07321401855481
30
0
41
1
10
66.8503401642013
20
-5.05153356465792
30
0
41
1
10
66.8850274956183
20
-5.01576301983866
30
0
41
1
10
66.9954863192516
20
-4.95722187440373
30
0
41
1
10
67.1486138946766
20
-4.98124285882147
30
0
41
1
10
67.2108096325593
20
-5.04359002327945
30
0
41
1
10
67.2372445616772
20
-5.08584981779589
30
0
0
SPLINE
5
1AD
100
AcDbEntity
8
1
62
256
6
ByLayer
370
18
48
1
60
0
100
AcDbSpline
70
4
71
3
72
11
73
7
40
0
40
0
40
0
40
0
40
0.236313621603914
40
0.484018380500132
40
0.742373708277363
40
1
40
1
40
1
40
1
41
1
10
71.6033338605575
20
5.07046439311381
30
0
41
1
10
71.5942293779687
20
5.04902507058003
30
0
41
1
10
71.5596861880812
20
5.01298113167599
30
0
41
1
10
71.4494941700991
20
4.95516933209618
30
0
41
1
10
71.2977220285506
20
4.97954505802977
30
0
41
1
10
71.2385213133236
20
5.03646857009696
30
0
41
1
10
71.213961654656
20
5.07641466933558
30
0
0
SPLINE
5
1AE
100
AcDbEntity
8
1
62
256
6
ByLayer
370
18
48
1
60
0
100
AcDbSpline
70
4
71
2
72
6
73
3
40
0
40
0
40
0
40
1
40
1
40
1
41
1
10
78.6812520609688
20
-5.78004063461842
30
0
41
1
10
78.8873408211225
20
-5.42464750975986
30
0
41
1
10
79.0936485172309
20
-5.06960129987723
30
0
0
SPLINE
5
1AF
100
AcDbEntity
8
1
62
256
6
ByLayer
370
18
48
1
60
0
100
AcDbSpline
70
4
71
2
72
6
73
3
40
0
40
0
40
0
40
1
40
1
40
1
41
1
10
77.7283416439698
20
-5.07431760398677
30
0
41
1
10
78.0027008764905
20
-5.54684695347677
30
0
41
1
10
78.2767802812817
20
-6.01979881115892
30
0
0
SPLINE
5
1B0
100
AcDbEntity
8
1
62
256
6
ByLayer
370
18
48
1
60
0
100
AcDbSpline
70
4
71
2
72
6
73
3
40
0
40
0
40
0
40
1
40
1
40
1
41
1
10
72.1847151764047
20
6.07484407546715
30
0
41
1
10
71.8947370028264
20
5.57342607667584
30
0
41
1
10
71.6045414037981
20
5.07250268288936
30
0
0
SPLINE
5
1B1
100
AcDbEntity
8
1
62
256
6
ByLayer
370
18
48
1
60
0
100
AcDbSpline
70
4
71
3
72
11
73
7
40
0
40
0
40
0
40
0
40
0.275306674797653
40
0.539177613416908
40
0.781453675068682
40
1
40
1
40
1
40
1
41
1
10
77.3398944445648
20
-5.07528228259193
30
0
41
1
10
77.3625551648681
20
-5.03662215819108
30
0
41
1
10
77.4193191514725
20
-4.98350964473747
30
0
41
1
10
77.5696119295829
20
-4.9568547994794
30
0
41
1
10
77.6811173721335
20
-5.01259060432787
30
0
41
1
10
77.7169806469215
20
-5.05084820594661
30
0
41
1
10
77.7275727665114
20
-5.07301704656612
30
0
0
SPLINE
5
1B2
100
AcDbEntity
8
1
62
256
6
ByLayer
370
18
48
1
60
0
100
AcDbSpline
70
4
71
2
72
6
73
3
40
0
40
0
40
0
40
1
40
1
40
1
41
1
10
72.9670793104768
20
5.07232509988896
30
0
41
1
10
72.6767672241205
20
5.57151412902323
30
0
41
1
10
72.3867956241036
20
6.07127673750631
30
0
0
SPLINE
5
1B3
100
AcDbEntity
8
1
62
256
6
ByLayer
370
18
48
1
60
0
100
AcDbSpline
70
4
71
3
72
11
73
7
40
0
40
0
40
0
40
0
40
0.244309286415923
40
0.500625906680595
40
0.756713156322125
40
1
40
1
40
1
40
1
41
1
10
73.3660322832997
20
5.08946373725979
30
0
41
1
10
73.3482445174985
20
5.05471685173771
30
0
41
1
10
73.2990935506532
20
5.00038097978069
30
0
41
1
10
73.1654064690365
20
4.95279410245053
30
0
41
1
10
73.0317237415089
20
4.99399410585377
30
0
41
1
10
72.9824099418069
20
5.0440069902825
30
0
41
1
10
72.9644988034781
20
5.07654472666891
30
0
0
SPLINE
5
1B4
100
AcDbEntity
8
1
62
256
6
ByLayer
370
18
48
1
60
0
100
AcDbSpline
70
4
71
2
72
6
73
3
40
0
40
0
40
0
40
1
40
1
40
1
41
1
10
76.7491972353169
20
-6.08808775424208
30
0
41
1
10
77.0380646489608
20
-5.58926139914672
30
0
41
1
10
77.3270234790776
20
-5.09062539054307
30
0
0
SPLINE
5
1B5
100
AcDbEntity
8
1
62
256
6
ByLayer
370
18
48
1
60
0
100
AcDbSpline
70
4
71
2
72
6
73
3
40
0
40
0
40
0
40
1
40
1
40
1
41
1
10
75.9756114575407
20
-5.06863933138249
30
0
41
1
10
76.2649313293923
20
-5.56711858121022
30
0
41
1
10
76.5541000280868
20
-6.06631346668115
30
0
0
SPLINE
5
1B6
100
AcDbEntity
8
1
62
256
6
ByLayer
370
18
48
1
60
0
100
AcDbSpline
70
4
71
2
72
6
73
3
40
0
40
0
40
0
40
1
40
1
40
1
41
1
10
75.9389107050184
20
-5.02372575692246
30
0
41
1
10
75.9494406187397
20
-5.03164762618471
30
0
41
1
10
75.9529926350535
20
-5.02660059115277
30
0
0
LINE
5
82
100
AcDbEntity
8
4
62
256
6
ByLayer
370
18
48
0.05
60
0
100
AcDbLine
10
-5
20
0
30
0
11
88
21
0
31
0
39
0
210
0
220
0
230
1
0
LINE
5
84
100
AcDbEntity
8
81
62
256
6
ByLayer
370
18
48
1
60
0
100
AcDbLine
10
83
20
0
30
0
11
88
21
0
31
0
39
0
210
0
220
0
230
1
0
LINE
5
85
100
AcDbEntity
8
SK4
62
256
6
ByLayer
370
18
48
0.05
60
0
100
AcDbLine
10
-32
20
0
30
0
11
88
21
0
31
0
39
0
210
0
220
0
230
1
0
LINE
5
87
100
AcDbEntity
8
80
62
256
6
ByLayer
370
18
48
1
60
0
100
AcDbLine
10
0
20
0
30
0
11
-5
21
0
31
0
39
0
210
0
220
0
230
1
0
LINE
5
88
100
AcDbEntity
8
1
62
256
6
ByLayer
370
18
48
1
60
0
100
AcDbLine
10
0
20
4.5
30
0
11
0
21
-4.5
31
0
39
0
210
0
220
0
230
1
0
LINE
5
89
100
AcDbEntity
8
1
62
256
6
ByLayer
370
13
48
1
60
0
100
AcDbLine
10
67.223331
20
-5.063978
30
0
11
67.228014
21
-5.072751
31
0
39
0
210
0
220
0
230
1
0
LINE
5
8A
100
AcDbEntity
8
1
62
256
6
ByLayer
370
13
48
1
60
0
100
AcDbLine
10
66.716098
20
-4.95
30
0
11
66.716098
21
-4.858428
31
0
39
0
210
0
220
0
230
1
0
LINE
5
8B
100
AcDbEntity
8
1
62
256
6
ByLayer
370
18
48
1
60
0
100
AcDbLine
10
72.963641
20
5.07785
30
0
11
72.967054
21
5.072368
31
0
39
0
210
0
220
0
230
1
0
LINE
5
8C
100
AcDbEntity
8
1
62
256
6
ByLayer
370
13
48
1
60
0
100
AcDbLine
10
65.676867
20
-4.35
30
0
11
65.676867
21
-4.066906
31
0
39
0
210
0
220
0
230
1
0
LINE
5
8D
100
AcDbEntity
8
1
62
256
6
ByLayer
370
13
48
1
60
0
100
AcDbLine
10
28.580948
20
-4.35
30
0
11
28.580948
21
4.35
31
0
39
0
210
0
220
0
230
1
0
LINE
5
8E
100
AcDbEntity
8
1
62
256
6
ByLayer
370
18
48
1
60
0
100
AcDbLine
10
28
20
4.5
30
0
11
28
21
-4.5
31
0
39
0
210
0
220
0
230
1
0
LINE
5
8F
100
AcDbEntity
8
1
62
256
6
ByLayer
370
13
48
1
60
0
100
AcDbLine
10
65.676867
20
1.368936
30
0
11
65.676867
21
3.370271
31
0
39
0
210
0
220
0
230
1
0
LINE
5
90
100
AcDbEntity
8
1
62
256
6
ByLayer
370
13
48
1
60
0
100
AcDbLine
10
66.716098
20
3.249967
30
0
11
66.716098
21
0.583146
31
0
39
0
210
0
220
0
230
1
0
LINE
5
91
100
AcDbEntity
8
1
62
256
6
ByLayer
370
18
48
1
60
0
100
AcDbLine
10
67
20
3.442686
30
0
11
67
21
0.325462
31
0
39
0
210
0
220
0
230
1
0
LINE
5
92
100
AcDbEntity
8
SK1
62
256
6
ByLayer
370
18
48
1
60
0
100
AcDbLine
10
-27
20
2.92
30
0
11
-27
21
-2.92
31
0
39
0
210
0
220
0
230
1
0
LINE
5
94
100
AcDbEntity
8
SK1
62
256
6
ByLayer
370
18
48
1
60
0
100
AcDbLine
10
-17
20
3.5
30
0
11
-16.18
21
4.32
31
0
39
0
210
0
220
0
230
1
0
LINE
5
95
100
AcDbEntity
8
SK1
62
256
6
ByLayer
370
18
48
1
60
0
100
AcDbLine
10
-25.6
20
3.5
30
0
11
-17
21
3.5
31
0
39
0
210
0
220
0
230
1
0
LINE
5
96
100
AcDbEntity
8
SK1
62
256
6
ByLayer
370
18
48
1
60
0
100
AcDbLine
10
-25.6
20
2.532272
30
0
11
-25.6
21
3.5
31
0
39
0
210
0
220
0
230
1
0
LINE
5
97
100
AcDbEntity
8
SK1
62
256
6
ByLayer
370
18
48
1
60
0
100
AcDbLine
10
-17
20
2.532272
30
0
11
-25.6
21
2.532272
31
0
39
0
210
0
220
0
230
1
0
LINE
5
98
100
AcDbEntity
8
SK1
62
256
6
ByLayer
370
18
48
1
60
0
100
AcDbLine
10
-25.6
20
-2.532272
30
0
11
-17
21
-2.532272
31
0
39
0
210
0
220
0
230
1
0
LINE
5
99
100
AcDbEntity
8
SK1
62
256
6
ByLayer
370
18
48
1
60
0
100
AcDbLine
10
-25.6
20
-3.5
30
0
11
-25.6
21
-2.532272
31
0
39
0
210
0
220
0
230
1
0
LINE
5
9A
100
AcDbEntity
8
SK1
62
256
6
ByLayer
370
18
48
1
60
0
100
AcDbLine
10
-17
20
-3.5
30
0
11
-25.6
21
-3.5
31
0
39
0
210
0
220
0
230
1
0
LINE
5
9B
100
AcDbEntity
8
SK1
62
256
6
ByLayer
370
18
48
1
60
0
100
AcDbLine
10
-17
20
-3.5
30
0
11
-16.18
21
-4.32
31
0
39
0
210
0
220
0
230
1
0
LINE
5
9C
100
AcDbEntity
8
SK1
62
256
6
ByLayer
370
18
48
1
60
0
100
AcDbLine
10
-17
20
2.532272
30
0
11
-17
21
-2.532272
31
0
39
0
210
0
220
0
230
1
0
LINE
5
9D
100
AcDbEntity
8
SK1
62
256
6
ByLayer
370
18
48
1
60
0
100
AcDbLine
10
0
20
4.5
30
0
11
0
21
-4.5
31
0
39
0
210
0
220
0
230
1
0
LINE
5
9E
100
AcDbEntity
8
SK1
62
256
6
ByLayer
370
18
48
1
60
0
100
AcDbLine
10
-15
20
4.32
30
0
11
-15
21
-4.32
31
0
39
0
210
0
220
0
230
1
0
LINE
5
9F
100
AcDbEntity
8
SK1
62
256
6
ByLayer
370
18
48
1
60
0
100
AcDbLine
10
-14.82
20
-4.5
30
0
11
-14.82
21
4.5
31
0
39
0
210
0
220
0
230
1
0
LINE
5
A0
100
AcDbEntity
8
1
62
256
6
ByLayer
370
18
48
1
60
0
100
AcDbLine
10
67.492976
20
-5.511016
30
0
11
67.94794
21
-5.574958
31
0
39
0
210
0
220
0
230
1
0
LINE
5
A1
100
AcDbEntity
8
1
62
256
6
ByLayer
370
18
48
1
60
0
100
AcDbLine
10
28
20
4.5
30
0
11
0
21
4.5
31
0
39
0
210
0
220
0
230
1
0
LINE
5
A2
100
AcDbEntity
8
1
62
256
6
ByLayer
370
18
48
1
60
0
100
AcDbLine
10
0
20
-4.5
30
0
11
28
21
-4.5
31
0
39
0
210
0
220
0
230
1
0
LINE
5
A3
100
AcDbEntity
8
1
62
256
6
ByLayer
370
18
48
1
60
0
100
AcDbLine
10
70.688442
20
5.96011
30
0
11
70.350563
21
5.912624
31
0
39
0
210
0
220
0
230
1
0
LINE
5
A4
100
AcDbEntity
8
1
62
256
6
ByLayer
370
18
48
1
60
0
100
AcDbLine
10
66.716098
20
-4.95
30
0
11
66.800905
21
-5.096891
31
0
39
0
210
0
220
0
230
1
0
LINE
5
A5
100
AcDbEntity
8
1
62
256
6
ByLayer
370
18
48
1
60
0
100
AcDbLine
10
72.367273
20
6.085973
30
0
11
72.201728
21
6.085973
31
0
39
0
210
0
220
0
230
1
0
LINE
5
A6
100
AcDbEntity
8
1
62
256
6
ByLayer
370
18
48
1
60
0
100
AcDbLine
10
76.576511
20
-6.085973
30
0
11
76.742719
21
-6.085973
31
0
39
0
210
0
220
0
230
1
0
LINE
5
A7
100
AcDbEntity
8
1
62
256
6
ByLayer
370
18
48
1
60
0
100
AcDbLine
10
74.052516
20
6.085973
30
0
11
73.951838
21
6.085973
31
0
39
0
210
0
220
0
230
1
0
LINE
5
A8
100
AcDbEntity
8
1
62
256
6
ByLayer
370
18
48
1
60
0
100
AcDbLine
10
28.580948
20
-4.35
30
0
11
43.65701
21
-4.35
31
0
39
0
210
0
220
0
230
1
0
LINE
5
A9
100
AcDbEntity
8
1
62
256
6
ByLayer
370
18
48
1
60
0
100
AcDbLine
10
52.50826
20
-4.35
30
0
11
55.71066
21
-4.35
31
0
39
0
210
0
220
0
230
1
0
LINE
5
AA
100
AcDbEntity
8
1
62
256
6
ByLayer
370
18
48
1
60
0
100
AcDbLine
10
64.51167
20
-4.35
30
0
11
65.676867
21
-4.35
31
0
39
0
210
0
220
0
230
1
0
LINE
5
AB
100
AcDbEntity
8
1
62
256
6
ByLayer
370
18
48
1
60
0
100
AcDbLine
10
61.736756
20
4.35
30
0
11
58.510836
21
4.35
31
0
39
0
210
0
220
0
230
1
0
LINE
5
AC
100
AcDbEntity
8
1
62
256
6
ByLayer
370
18
48
1
60
0
100
AcDbLine
10
49.683586
20
4.35
30
0
11
46.506218
21
4.35
31
0
39
0
210
0
220
0
230
1
0
LINE
5
AD
100
AcDbEntity
8
1
62
256
6
ByLayer
370
18
48
1
60
0
100
AcDbLine
10
37.957409
20
4.35
30
0
11
28.580948
21
4.35
31
0
39
0
210
0
220
0
230
1
0
LINE
5
AE
100
AcDbEntity
8
SK1
62
256
6
ByLayer
370
18
48
1
60
0
100
AcDbLine
10
-27
20
-2.92
30
0
11
-26.42
21
-3.5
31
0
39
0
210
0
220
0
230
1
0
LINE
5
AF
100
AcDbEntity
8
SK1
62
256
6
ByLayer
370
18
48
1
60
0
100
AcDbLine
10
-26.42
20
3.5
30
0
11
-27
21
2.92
31
0
39
0
210
0
220
0
230
1
0
LINE
5
B0
100
AcDbEntity
8
SK1
62
256
6
ByLayer
370
18
48
1
60
0
100
AcDbLine
10
-15
20
4.32
30
0
11
-16.18
21
4.32
31
0
39
0
210
0
220
0
230
1
0
LINE
5
B1
100
AcDbEntity
8
SK1
62
256
6
ByLayer
370
18
48
1
60
0
100
AcDbLine
10
-16.18
20
-4.32
30
0
11
-15
21
-4.32
31
0
39
0
210
0
220
0
230
1
0
LINE
5
B2
100
AcDbEntity
8
SK1
62
256
6
ByLayer
370
18
48
1
60
0
100
AcDbLine
10
0
20
4.5
30
0
11
-14.82
21
4.5
31
0
39
0
210
0
220
0
230
1
0
LINE
5
B3
100
AcDbEntity
8
SK1
62
256
6
ByLayer
370
18
48
1
60
0
100
AcDbLine
10
-14.82
20
-4.5
30
0
11
0
21
-4.5
31
0
39
0
210
0
220
0
230
1
0
LINE
5
B4
100
AcDbEntity
8
SK1
62
256
6
ByLayer
370
18
48
1
60
0
100
AcDbLine
10
-15
20
-4.32
30
0
11
-14.82
21
-4.5
31
0
39
0
210
0
220
0
230
1
0
LINE
5
B5
100
AcDbEntity
8
SK1
62
256
6
ByLayer
370
18
48
1
60
0
100
AcDbLine
10
-14.82
20
4.5
30
0
11
-15
21
4.32
31
0
39
0
210
0
220
0
230
1
0
LINE
5
B6
100
AcDbEntity
8
SK2
62
256
6
ByLayer
370
13
48
1
60
0
100
AcDbLine
10
27.75
20
-4.5
30
0
11
27.75
21
35.14533
31
0
39
0
210
0
220
0
230
1
0
LINE
5
B8
100
AcDbEntity
8
SK2
62
256
6
ByLayer
370
13
48
1
60
0
100
AcDbLine
10
27.5875
20
4.5
30
0
11
29.75
21
4.5
31
0
39
0
210
0
220
0
230
1
0
LINE
5
B9
100
AcDbEntity
8
SK2
62
256
6
ByLayer
370
13
48
1
60
0
100
AcDbLine
10
27.5875
20
-4.5
30
0
11
29.75
21
-4.5
31
0
39
0
210
0
220
0
230
1
0
LINE
5
BA
100
AcDbEntity
8
1
62
256
6
ByLayer
370
18
48
1
60
1
100
AcDbLine
10
27.75
20
4.5
30
0
11
28.210784
21
1.000002
31
0
39
0
210
0
220
0
230
1
0
LINE
5
BB
100
AcDbEntity
8
1
62
256
6
ByLayer
370
18
48
1
60
1
100
AcDbLine
10
28.210784
20
1.000002
30
0
11
27.289216
21
0.999998
31
0
39
0
210
0
220
0
230
1
0
LINE
5
BC
100
AcDbEntity
8
1
62
256
6
ByLayer
370
18
48
1
60
1
100
AcDbLine
10
27.289216
20
0.999998
30
0
11
27.75
21
4.5
31
0
39
0
210
0
220
0
230
1
0
LINE
5
BD
100
AcDbEntity
8
1
62
256
6
ByLayer
370
18
48
1
60
1
100
AcDbLine
10
27.75
20
-4.5
30
0
11
27.289216
21
-1.000002
31
0
39
0
210
0
220
0
230
1
0
LINE
5
BE
100
AcDbEntity
8
1
62
256
6
ByLayer
370
18
48
1
60
1
100
AcDbLine
10
27.289216
20
-1.000002
30
0
11
28.210784
21
-0.999998
31
0
39
0
210
0
220
0
230
1
0
LINE
5
BF
100
AcDbEntity
8
1
62
256
6
ByLayer
370
18
48
1
60
1
100
AcDbLine
10
28.210784
20
-0.999998
30
0
11
27.75
21
-4.5
31
0
39
0
210
0
220
0
230
1
0
LINE
5
1BC
100
AcDbEntity
8
1
62
256
6
ByLayer
370
18
48
1
60
1
100
AcDbLine
10
27.75
20
4.5
30
0
11
28.210784
21
1.000002
31
0
39
0
210
0
220
0
230
1
0
LINE
5
1BD
100
AcDbEntity
8
1
62
256
6
ByLayer
370
18
48
1
60
1
100
AcDbLine
10
28.210784
20
1.000002
30
0
11
27.289216
21
0.999998
31
0
39
0
210
0
220
0
230
1
0
LINE
5
1BE
100
AcDbEntity
8
1
62
256
6
ByLayer
370
18
48
1
60
1
100
AcDbLine
10
27.289216
20
0.999998
30
0
11
27.75
21
4.5
31
0
39
0
210
0
220
0
230
1
0
LINE
5
1C0
100
AcDbEntity
8
1
62
256
6
ByLayer
370
18
48
1
60
1
100
AcDbLine
10
27.75
20
-4.5
30
0
11
27.289216
21
-1.000002
31
0
39
0
210
0
220
0
230
1
0
LINE
5
1C1
100
AcDbEntity
8
1
62
256
6
ByLayer
370
18
48
1
60
1
100
AcDbLine
10
27.289216
20
-1.000002
30
0
11
28.210784
21
-0.999998
31
0
39
0
210
0
220
0
230
1
0
LINE
5
1C2
100
AcDbEntity
8
1
62
256
6
ByLayer
370
18
48
1
60
1
100
AcDbLine
10
28.210784
20
-0.999998
30
0
11
27.75
21
-4.5
31
0
39
0
210
0
220
0
230
1
0
MTEXT
5
1B7
100
AcDbEntity
8
SK2
62
256
6
ByLayer
370
18
48
1
60
0
100
AcDbMText
10
26.185366
20
12.434844
30
0
210
0
220
0
230
1
1
%%c
40
3.5
41
0
44
1.084337
50
90
71
7
72
5
7
iso_b_vert
0
MTEXT
5
1BA
100
AcDbEntity
8
SK2
62
256
6
ByLayer
370
18
48
1
60
0
100
AcDbMText
10
26.185366
20
31.121898
30
0
210
0
220
0
230
1
1
\W0.7125;h9
40
3.5
41
0
44
1.084337
50
90
71
7
72
5
7
iso_b_vert
0
MTEXT
5
1BB
100
AcDbEntity
8
SK2
62
256
6
ByLayer
370
18
48
1
60
0
100
AcDbMText
10
26.185366
20
19.4075
30
0
210
0
220
0
230
1
1
\W0.7346;9.00
40
3.5
41
0
44
1.084337
50
90
71
7
72
5
7
iso_b_vert
0
MTEXT
5
1C4
100
AcDbEntity
8
SK6
62
256
6
ByLayer
370
18
48
1
60
0
100
AcDbMText
10
37.101128
20
-68.614886
30
0
210
0
220
0
230
1
1
\W0.7609;T300-PM105DA-M12 P1PM
40
3
41
0
44
1.084337
50
0
71
7
72
5
7
iso_b_vert
0
HATCH
5
1BF
100
AcDbEntity
8
SK2
62
256
6
ByLayer
370
13
48
1
60
0
100
AcDbHatch
10
0
20
0
30
0
210
0
220
0
230
1
2
ANSI31
70
0
71
0
91
1
92
5
93
3
72
1
10
27.75
20
4.50000000000003
11
28.2107837415528
21
1.00000169255321
72
1
10
28.2107837415528
20
1.00000169255321
11
27.2892162584472
21
0.999998307446845
72
1
10
27.2892162584472
20
0.999998307446845
11
27.75
21
4.50000000000003
97
0
75
0
76
1
52
0
41
0.0062
77
0
78
1
53
45
43
0
44
0
45
-0.0139193969876572
46
0.0139193969876572
79
0
47
0
98
1
10
0
20
0
0
HATCH
5
1C3
100
AcDbEntity
8
SK2
62
256
6
ByLayer
370
13
48
1
60
0
100
AcDbHatch
10
0
20
0
30
0
210
0
220
0
230
1
2
ANSI31
70
0
71
0
91
1
92
5
93
3
72
1
10
27.75
20
-4.49999999999997
11
27.2892162584472
21
-1.00000169255315
72
1
10
27.2892162584472
20
-1.00000169255315
11
28.2107837415528
21
-0.999998307446788
72
1
10
28.2107837415528
20
-0.999998307446788
11
27.75
21
-4.49999999999997
97
0
75
0
76
1
52
0
41
0.0062
77
0
78
1
53
45
43
0
44
0
45
-0.0139193969876572
46
0.0139193969876572
79
0
47
0
98
1
10
0
20
0
0
DIMENSION
5
1C7
100
AcDbEntity
8
SK2
62
256
6
ByLayer
370
18
48
1
60
0
100
AcDbDimension
2
_U0
10
83
20
-51.364192
30
0
11
28
21
-51.364192
31
0
70
32
71
1
72
1
41
1
210
0
220
0
230
1
3
Standard
100
AcDbAlignedDimension
13
-27
23
0
33
0
14
83
24
0
34
0
50
0
100
AcDbRotatedDimension
1001
ACAD
1000
DSTYLE
1002
{
1070
   371
1070
    13
1070
   372
1070
    13
1070
     3
1000

1070
   170
1070
     0
1070
   144
1040
1.0
1070
   277
1070
     2
1070
   284
1070
     8
1070
   278
1070
    46
1070
   146
1040
1.0
1070
   345
1005
16
1070
   347
1005
16
1070
   346
1005
16
1070
   344
1005
0
1070
   343
1005
0
1070
   172
1070
     1
1070
    76
1070
     0
1070
    75
1070
     0
1070
   282
1070
     0
1070
   281
1070
     0
1070
    71
1070
     0
1070
    74
1070
     0
1070
   279
1070
     0
1070
   173
1070
     1
1070
   340
1005
1B8
1070
   271
1070
     2
1070
   272
1070
     2
1070
    77
1070
     1
1070
    73
1070
     1
1070
   171
1070
     3
1070
   274
1070
     4
1070
   177
1070
     2
1070
   176
1070
     2
1070
   178
1070
     2
1070
    78
1070
     8
1070
    48
1040
-0.1
1070
    41
1040
3.5
1070
   147
1040
1.75
1070
    42
1040
1.5875
1070
    44
1040
2.0
1070
   140
1040
3.5
1002
}
1001
ACAD_DSTYLE_DIM_LINETYPE
1070
   380
1005
16
1001
ACAD_DSTYLE_DIM_EXT1_LINETYPE
1070
   381
1005
16
1001
ACAD_DSTYLE_DIM_EXT2_LINETYPE
1070
   382
1005
16
0
DIMENSION
5
1E0
100
AcDbEntity
8
SK2
62
256
6
ByLayer
370
18
48
1
60
0
100
AcDbDimension
2
_U1
10
28
20
-43.364192
30
0
11
55.5
21
-43.364192
31
0
70
32
71
1
72
1
41
1
210
0
220
0
230
1
3
Standard
100
AcDbAlignedDimension
13
83
23
0
33
0
14
28
24
0
34
0
50
0
100
AcDbRotatedDimension
1001
ACAD
1000
DSTYLE
1002
{
1070
   371
1070
    13
1070
   372
1070
    13
1070
     3
1000

1070
   170
1070
     0
1070
   144
1040
1.0
1070
   277
1070
     2
1070
   284
1070
     8
1070
   278
1070
    46
1070
   146
1040
1.0
1070
   345
1005
16
1070
   347
1005
16
1070
   346
1005
16
1070
   344
1005
0
1070
   343
1005
0
1070
   172
1070
     1
1070
    76
1070
     0
1070
    75
1070
     0
1070
   282
1070
     0
1070
   281
1070
     0
1070
    71
1070
     0
1070
    74
1070
     0
1070
   279
1070
     0
1070
   173
1070
     1
1070
   340
1005
1B8
1070
   271
1070
     2
1070
   272
1070
     2
1070
    77
1070
     1
1070
    73
1070
     1
1070
   171
1070
     3
1070
   274
1070
     4
1070
   177
1070
     2
1070
   176
1070
     2
1070
   178
1070
     2
1070
    78
1070
     8
1070
    48
1040
-0.1
1070
    41
1040
3.5
1070
   147
1040
1.75
1070
    42
1040
1.5875
1070
    44
1040
2.0
1070
   140
1040
3.5
1002
}
1001
ACAD_DSTYLE_DIM_LINETYPE
1070
   380
1005
16
1001
ACAD_DSTYLE_DIM_EXT1_LINETYPE
1070
   381
1005
16
1001
ACAD_DSTYLE_DIM_EXT2_LINETYPE
1070
   382
1005
16
0
DIMENSION
5
1F8
100
AcDbEntity
8
2
62
256
6
ByLayer
370
18
48
1
60
0
100
AcDbDimension
2
_U2
10
36.25
20
-35.364192
30
0
11
59.625
21
-35.364192
31
0
70
32
71
1
72
1
41
1
210
0
220
0
230
1
3
Standard
100
AcDbAlignedDimension
13
83
23
0
33
0
14
36.25
24
0
34
0
50
0
100
AcDbRotatedDimension
1001
ACAD
1000
DSTYLE
1002
{
1070
   371
1070
    13
1070
   372
1070
    13
1070
     3
1000

1070
   170
1070
     0
1070
   144
1040
1.0
1070
   277
1070
     2
1070
   284
1070
     8
1070
   278
1070
    46
1070
   146
1040
1.0
1070
   345
1005
16
1070
   347
1005
16
1070
   346
1005
16
1070
   344
1005
0
1070
   343
1005
0
1070
   172
1070
     1
1070
    76
1070
     0
1070
    75
1070
     0
1070
   282
1070
     0
1070
   281
1070
     0
1070
    71
1070
     0
1070
    74
1070
     0
1070
   279
1070
     0
1070
   173
1070
     1
1070
   340
1005
1B8
1070
   271
1070
     2
1070
   272
1070
     2
1070
    77
1070
     1
1070
    73
1070
     1
1070
   171
1070
     3
1070
   274
1070
     4
1070
   177
1070
     2
1070
   176
1070
     2
1070
   178
1070
     2
1070
    78
1070
     8
1070
    48
1040
-0.1
1070
    41
1040
3.5
1070
   147
1040
1.75
1070
    42
1040
1.5875
1070
    44
1040
2.0
1070
   140
1040
3.5
1002
}
1001
ACAD_DSTYLE_DIM_LINETYPE
1070
   380
1005
16
1001
ACAD_DSTYLE_DIM_EXT1_LINETYPE
1070
   381
1005
16
1001
ACAD_DSTYLE_DIM_EXT2_LINETYPE
1070
   382
1005
16
0
DIMENSION
5
211
100
AcDbEntity
8
SK2
62
256
6
ByLayer
370
18
48
1
60
0
100
AcDbDimension
2
_U3
10
67
20
-27.364192
30
0
11
75
21
-27.364192
31
0
70
32
71
1
72
1
41
1
210
0
220
0
230
1
3
Standard
100
AcDbAlignedDimension
13
83
23
0
33
0
14
67
24
0
34
0
50
0
100
AcDbRotatedDimension
1001
ACAD
1000
DSTYLE
1002
{
1070
   371
1070
    13
1070
   372
1070
    13
1070
     3
1000

1070
   170
1070
     0
1070
   144
1040
1.0
1070
   277
1070
     2
1070
   284
1070
     8
1070
   278
1070
    46
1070
   146
1040
1.0
1070
   345
1005
16
1070
   347
1005
16
1070
   346
1005
16
1070
   344
1005
0
1070
   343
1005
0
1070
   172
1070
     1
1070
    76
1070
     0
1070
    75
1070
     0
1070
   282
1070
     0
1070
   281
1070
     0
1070
    71
1070
     0
1070
    74
1070
     0
1070
   279
1070
     0
1070
   173
1070
     1
1070
   340
1005
1B8
1070
   271
1070
     2
1070
   272
1070
     2
1070
    77
1070
     1
1070
    73
1070
     1
1070
   171
1070
     3
1070
   274
1070
     4
1070
   177
1070
     2
1070
   176
1070
     2
1070
   178
1070
     2
1070
    78
1070
     8
1070
    48
1040
-0.1
1070
    41
1040
3.5
1070
   147
1040
1.75
1070
    42
1040
1.5875
1070
    44
1040
2.0
1070
   140
1040
3.5
1002
}
1001
ACAD_DSTYLE_DIM_LINETYPE
1070
   380
1005
16
1001
ACAD_DSTYLE_DIM_EXT1_LINETYPE
1070
   381
1005
16
1001
ACAD_DSTYLE_DIM_EXT2_LINETYPE
1070
   382
1005
16
0
DIMENSION
5
22A
100
AcDbEntity
8
SK2
62
256
6
ByLayer
370
18
48
1
60
0
100
AcDbDimension
2
_U4
10
78.19
20
12.421946
30
0
11
80.595
21
12.421946
31
0
70
32
71
1
72
1
41
1
210
0
220
0
230
1
3
Standard
100
AcDbAlignedDimension
13
83
23
0
33
0
14
78.19
24
0
34
0
50
0
100
AcDbRotatedDimension
1001
ACAD
1000
DSTYLE
1002
{
1070
   371
1070
    13
1070
   372
1070
    13
1070
     3
1000

1070
   170
1070
     0
1070
   144
1040
1.0
1070
   277
1070
     2
1070
   284
1070
     8
1070
   278
1070
    46
1070
   146
1040
1.0
1070
   345
1005
16
1070
   347
1005
16
1070
   346
1005
16
1070
   344
1005
0
1070
   343
1005
0
1070
   172
1070
     1
1070
    76
1070
     0
1070
    75
1070
     0
1070
   282
1070
     0
1070
   281
1070
     0
1070
    71
1070
     0
1070
    74
1070
     0
1070
   279
1070
     0
1070
   173
1070
     1
1070
   340
1005
1B8
1070
   271
1070
     2
1070
   272
1070
     2
1070
    77
1070
     1
1070
    73
1070
     1
1070
   171
1070
     3
1070
   274
1070
     4
1070
   177
1070
     2
1070
   176
1070
     2
1070
   178
1070
     2
1070
    78
1070
     8
1070
    48
1040
-0.1
1070
    41
1040
3.5
1070
   147
1040
1.75
1070
    42
1040
1.5875
1070
    44
1040
2.0
1070
   140
1040
3.5
1002
}
1001
ACAD_DSTYLE_DIM_LINETYPE
1070
   380
1005
16
1001
ACAD_DSTYLE_DIM_EXT1_LINETYPE
1070
   381
1005
16
1001
ACAD_DSTYLE_DIM_EXT2_LINETYPE
1070
   382
1005
16
0
DIMENSION
5
244
100
AcDbEntity
8
2
62
256
6
ByLayer
370
18
48
1
60
0
100
AcDbDimension
2
_U5
10
99.75
20
6.085973
30
0
11
99.75
21
0
31
0
70
32
71
1
72
1
41
1
210
0
220
0
230
1
3
Standard
100
AcDbAlignedDimension
13
83
23
-6.085973
33
0
14
83
24
6.085973
34
0
50
90
100
AcDbRotatedDimension
1001
ACAD
1000
DSTYLE
1002
{
1070
   371
1070
    13
1070
   372
1070
    13
1070
     3
1000

1070
   170
1070
     0
1070
   144
1040
1.0
1070
   277
1070
     2
1070
   284
1070
     8
1070
   278
1070
    46
1070
   146
1040
1.0
1070
   345
1005
16
1070
   347
1005
16
1070
   346
1005
16
1070
   344
1005
0
1070
   343
1005
0
1070
   172
1070
     1
1070
    76
1070
     0
1070
    75
1070
     0
1070
   282
1070
     0
1070
   281
1070
     0
1070
    71
1070
     0
1070
    74
1070
     0
1070
   279
1070
     0
1070
   173
1070
     1
1070
   340
1005
1B8
1070
   271
1070
     2
1070
   272
1070
     2
1070
    77
1070
     1
1070
    73
1070
     0
1070
   171
1070
     3
1070
   274
1070
     4
1070
   177
1070
     2
1070
   176
1070
     2
1070
   178
1070
     2
1070
    78
1070
     8
1070
    48
1040
-0.1
1070
    41
1040
3.5
1070
   147
1040
1.75
1070
    42
1040
1.5875
1070
    44
1040
2.0
1070
   140
1040
3.5
1002
}
1001
ACAD_DSTYLE_DIM_LINETYPE
1070
   380
1005
16
1001
ACAD_DSTYLE_DIM_EXT1_LINETYPE
1070
   381
1005
16
1001
ACAD_DSTYLE_DIM_EXT2_LINETYPE
1070
   382
1005
16
0
ENDSEC
0
SECTION
2
OBJECTS
0
DICTIONARY
5
2ce
330
0
100
AcDbDictionary
280
0
281
1
3
ACAD_GROUP
350
2cf
3
ACAD_MLINESTYLE
350
2d0
0
DICTIONARY
5
2cf
330
0
100
AcDbDictionary
280
0
281
1
0
DICTIONARY
5
2d0
330
0
100
AcDbDictionary
280
0
281
1
3
Standard
350
18
0
MLINESTYLE
5
18
330
2d0
100
AcDbMlineStyle
2
Standard
70
0
3

62
256
51
90
52
90
71
2
49
-0.5
62
256
6
ByLayer
49
0.5
62
256
6
ByLayer
0
RASTERVARIABLES
5
2bc
330

100
AcDbRasterVariables
90
0
70
1
71
1
72
1
0
ENDSEC
0
EOF
