0
SECTION
2
HEADER
9
$ACADVER
1
AC1015
9
$DWGCODEPAGE
3
ANSI_1252
9
$HANDSEED
5
2bd
9
$ANGBASE
50
0
9
$ANGDIR
70
0
9
$ATTMODE
70
1
9
$AUNITS
70
0
9
$AUPREC
70
0
9
$CECOLOR
62
256
9
$CELTSCALE
40
1
9
$CELTYPE
6
ByLayer
9
$CELWEIGHT
370
18
9
$CLAYER
8
0
9
$CMLJUST
70
0
9
$CMLSCALE
40
1
9
$CMLSTYLE
2
Standard
9
$DIMSTYLE
2
Standard
9
$TEXTSIZE
40
0.2
9
$TEXTSTYLE
7
Standard
9
$LUNITS
70
2
9
$LUPREC
70
4
9
$EXTNAMES
290
1
9
$INSUNITS
70
4
9
$LTSCALE
40
1
9
$LWDISPLAY
290
1
9
$PDMODE
70
0
9
$PDSIZE
40
0
9
$PLINEGEN
70
0
0
ENDSEC
0
SECTION
2
CLASSES
0
CLASS
1
RASTERVARIABLES
2
AcDbRasterVariables
3
ISM
90
0
280
0
281
0
0
ENDSEC
0
SECTION
2
TABLES
0
TABLE
2
VPORT
5
2b3
100
AcDbSymbolTable
0
VPORT
5
1
100
AcDbSymbolTableRecord
100
AcDbViewportTableRecord
2
*Active
70
0
10
0
20
0
11
1
21
1
12
-1
22
1
13
0
23
0
14
0.5
24
0.5
15
10
25
10
16
0
26
0
36
1
17
0
27
0
37
0
0
ENDTAB
0
TABLE
2
LTYPE
5
2b4
100
AcDbSymbolTable
0
LTYPE
5
14
100
AcDbSymbolTableRecord
100
AcDbLinetypeTableRecord
70
0
2
ByBlock
3

72
65
73
0
40
0
0
LTYPE
5
15
100
AcDbSymbolTableRecord
100
AcDbLinetypeTableRecord
70
0
2
ByLayer
3

72
65
73
0
40
0
0
LTYPE
5
16
100
AcDbSymbolTableRecord
100
AcDbLinetypeTableRecord
70
0
2
Continuous
3
Solid line
72
65
73
0
40
0
0
LTYPE
5
6E
100
AcDbSymbolTableRecord
100
AcDbLinetypeTableRecord
70
0
2
CENTER
3
____ _ ____ _ ____ _ ____
72
65
73
4
40
47.5
49
22
74
0
49
-8.5
74
0
49
8.5
74
0
49
-8.5
74
0
0
LTYPE
5
6F
100
AcDbSymbolTableRecord
100
AcDbLinetypeTableRecord
70
0
2
DASHED
3
__ __ __ __ __ __ __ __ __
72
65
73
2
40
25.72
49
12.86
74
0
49
-12.86
74
0
0
ENDTAB
0
TABLE
2
LAYER
5
2b5
100
AcDbSymbolTable
0
LAYER
5
10
100
AcDbSymbolTableRecord
100
AcDbLayerTableRecord
2
0
70
0
62
7
6
Continuous
290
1
370
-3
390
0
0
LAYER
5
71
100
AcDbSymbolTableRecord
100
AcDbLayerTableRecord
2
81
70
0
62
-3
6
Continuous
290
1
370
-3
390
0
0
LAYER
5
73
100
AcDbSymbolTableRecord
100
AcDbLayerTableRecord
2
80
70
0
62
-6
6
Continuous
290
1
370
-3
390
0
0
LAYER
5
75
100
AcDbSymbolTableRecord
100
AcDbLayerTableRecord
2
1
70
0
62
4
6
Continuous
290
1
370
-3
390
0
0
LAYER
5
83
100
AcDbSymbolTableRecord
100
AcDbLayerTableRecord
2
4
70
0
62
-2
6
CENTER
290
1
370
-3
390
0
0
LAYER
5
1AC
100
AcDbSymbolTableRecord
100
AcDbLayerTableRecord
2
Defpoints
70
0
62
7
6
Continuous
290
0
370
-3
390
0
0
LAYER
5
1E9
100
AcDbSymbolTableRecord
100
AcDbLayerTableRecord
2
2
70
0
62
7
6
Continuous
290
1
370
-3
390
0
0
LAYER
5
29f
100
AcDbSymbolTableRecord
100
AcDbLayerTableRecord
2
SK4
70
0
62
2
6
CENTER
290
1
370
-3
390
0
0
LAYER
5
2a0
100
AcDbSymbolTableRecord
100
AcDbLayerTableRecord
2
SK1
70
0
62
4
6
Continuous
290
1
370
-3
390
0
0
LAYER
5
2a1
100
AcDbSymbolTableRecord
100
AcDbLayerTableRecord
2
SK2
70
0
62
7
6
Continuous
290
1
370
-3
390
0
0
LAYER
5
2a2
100
AcDbSymbolTableRecord
100
AcDbLayerTableRecord
2
SK6
70
0
62
5
6
Continuous
290
1
370
-3
390
0
0
ENDTAB
0
TABLE
2
STYLE
5
2b6
100
AcDbSymbolTable
0
STYLE
5
11
100
AcDbSymbolTableRecord
100
AcDbTextStyleTableRecord
2
Standard
3
txt
70
0
71
0
40
0
41
1
42
0
50
0
0
STYLE
5
19A
100
AcDbSymbolTableRecord
100
AcDbTextStyleTableRecord
2
iso_b_vert
3
simplex.shx
70
0
71
0
40
0
41
1
42
0
50
0
0
STYLE
5
19B
100
AcDbSymbolTableRecord
100
AcDbTextStyleTableRecord
2
DWGDirectTextStyle
3
simplex
70
0
71
0
40
0
41
1
42
0
50
0
0
ENDTAB
0
TABLE
2
DIMSTYLE
5
2b7
100
AcDbSymbolTable
100
AcDbDimStyleTable
0
DIMSTYLE
105
27
100
AcDbSymbolTableRecord
100
AcDbDimStyleTableRecord
2
Standard
70
0
3
<>
41
0.18
42
0.0625
44
0.18
140
0.18
147
0.09
73
0
74
0
77
1
271
2
275
0
278
52
280
0
340
11
0
ENDTAB
0
TABLE
2
VIEW
5
2b8
100
AcDbSymbolTable
0
ENDTAB
0
TABLE
2
UCS
5
2b9
100
AcDbSymbolTable
0
ENDTAB
0
TABLE
2
APPID
5
2ba
100
AcDbSymbolTable
0
APPID
5
12
100
AcDbSymbolTableRecord
100
AcDbRegAppTableRecord
2
ACAD
70
0
0
APPID
5
1A8
100
AcDbSymbolTableRecord
100
AcDbRegAppTableRecord
2
ACAD_DSTYLE_DIMBREAK
70
0
0
APPID
5
25E
100
AcDbSymbolTableRecord
100
AcDbRegAppTableRecord
2
ACAD_DSTYLE_DIM_LINETYPE
70
0
0
APPID
5
25F
100
AcDbSymbolTableRecord
100
AcDbRegAppTableRecord
2
ACAD_DSTYLE_DIM_EXT1_LINETYPE
70
0
0
APPID
5
260
100
AcDbSymbolTableRecord
100
AcDbRegAppTableRecord
2
ACAD_DSTYLE_DIM_EXT2_LINETYPE
70
0
0
APPID
5
29B
100
AcDbSymbolTableRecord
100
AcDbRegAppTableRecord
2
ACAD_MLEADERVER
70
0
0
ENDTAB
0
TABLE
2
BLOCK_RECORD
5
2bb
100
AcDbSymbolTable
0
BLOCK_RECORD
5
1F
100
AcDbSymbolTableRecord
100
AcDbBlockTableRecord
2
*Model_Space
340
0
70
0
0
BLOCK_RECORD
5
1B
100
AcDbSymbolTableRecord
100
AcDbBlockTableRecord
2
*Paper_Space
340
0
70
0
0
BLOCK_RECORD
5
23
100
AcDbSymbolTableRecord
100
AcDbBlockTableRecord
2
*Paper_Space0
340
0
70
0
0
BLOCK_RECORD
5
1AD
100
AcDbSymbolTableRecord
100
AcDbBlockTableRecord
2
*D1
340
0
70
0
0
BLOCK_RECORD
5
1B9
100
AcDbSymbolTableRecord
100
AcDbBlockTableRecord
2
_U0
340
0
70
0
0
BLOCK_RECORD
5
1C5
100
AcDbSymbolTableRecord
100
AcDbBlockTableRecord
2
*D3
340
0
70
0
0
BLOCK_RECORD
5
1D1
100
AcDbSymbolTableRecord
100
AcDbBlockTableRecord
2
_U1
340
0
70
0
0
BLOCK_RECORD
5
1DD
100
AcDbSymbolTableRecord
100
AcDbBlockTableRecord
2
*D5
340
0
70
0
0
BLOCK_RECORD
5
1EA
100
AcDbSymbolTableRecord
100
AcDbBlockTableRecord
2
_U2
340
0
70
0
0
BLOCK_RECORD
5
1F6
100
AcDbSymbolTableRecord
100
AcDbBlockTableRecord
2
*D7
340
0
70
0
0
BLOCK_RECORD
5
203
100
AcDbSymbolTableRecord
100
AcDbBlockTableRecord
2
_U3
340
0
70
0
0
BLOCK_RECORD
5
20F
100
AcDbSymbolTableRecord
100
AcDbBlockTableRecord
2
*D9
340
0
70
0
0
BLOCK_RECORD
5
21C
100
AcDbSymbolTableRecord
100
AcDbBlockTableRecord
2
_U4
340
0
70
0
0
BLOCK_RECORD
5
229
100
AcDbSymbolTableRecord
100
AcDbBlockTableRecord
2
*D11
340
0
70
0
0
BLOCK_RECORD
5
236
100
AcDbSymbolTableRecord
100
AcDbBlockTableRecord
2
_U5
340
0
70
0
0
ENDTAB
0
ENDSEC
0
SECTION
2
BLOCKS
0
BLOCK
5
20
100
AcDbEntity
8
0
100
AcDbBlockBegin
2
*Model_Space
70
0
10
0
20
0
30
0
3
*Model_Space
0
ENDBLK
5
21
100
AcDbEntity
8
0
100
AcDbBlockEnd
0
BLOCK
5
1C
100
AcDbEntity
8
0
100
AcDbBlockBegin
2
*Paper_Space
70
0
10
0
20
0
30
0
3
*Paper_Space
0
ENDBLK
5
1D
100
AcDbEntity
8
0
100
AcDbBlockEnd
0
BLOCK
5
24
100
AcDbEntity
8
0
100
AcDbBlockBegin
2
*Paper_Space0
70
0
10
0
20
0
30
0
3
*Paper_Space0
0
ENDBLK
5
25
100
AcDbEntity
8
0
100
AcDbBlockEnd
0
BLOCK
5
1AE
100
AcDbEntity
8
0
100
AcDbBlockBegin
2
*D1
70
1
10
0
20
0
30
0
3
*D1
0
LINE
5
1B0
100
AcDbEntity
8
0
62
256
6
ByLayer
370
-2
48
1
60
0
100
AcDbLine
10
-27.41
20
-1.5875
30
0
11
-27.41
21
-53.0296
31
0
39
0
210
0
220
0
230
1
0
LINE
5
1B1
100
AcDbEntity
8
0
62
256
6
ByLayer
370
-2
48
1
60
0
100
AcDbLine
10
72.59
20
-1.5875
30
0
11
72.59
21
-53.0296
31
0
39
0
210
0
220
0
230
1
0
LINE
5
1B2
100
AcDbEntity
8
0
62
256
6
ByLayer
370
-2
48
1
60
0
100
AcDbLine
10
-23.91
20
-51.0296
30
0
11
69.09
21
-51.0296
31
0
39
0
210
0
220
0
230
1
0
SOLID
5
1B3
100
AcDbEntity
8
0
62
256
6
ByLayer
370
-1
48
1
60
0
100
AcDbTrace
10
-23.91
20
-50.446267
30
0
11
-23.91
21
-51.612934
31
0
12
-27.41
22
-51.0296
32
0
13
-27.41
23
-51.0296
33
0
39
0
210
0
220
0
230
1
0
SOLID
5
1B4
100
AcDbEntity
8
0
62
256
6
ByLayer
370
-1
48
1
60
0
100
AcDbTrace
10
69.09
20
-51.612934
30
0
11
69.09
21
-50.446267
31
0
12
72.59
22
-51.0296
32
0
13
72.59
23
-51.0296
33
0
39
0
210
0
220
0
230
1
0
MTEXT
5
1B5
100
AcDbEntity
8
0
62
256
6
ByLayer
370
18
48
1
60
0
100
AcDbMText
10
22.59
20
-44.0296
30
0
210
0
220
0
230
1
1
\A1;100
40
3.5
41
0
44
1
50
0
71
5
72
5
7
iso_b_vert
0
POINT
5
1B6
100
AcDbEntity
8
Defpoints
62
0
6
ByLayer
370
-1
48
1
60
0
100
AcDbPoint
10
-27.41
20
0
30
0
39
0
210
0
220
0
230
1
50
360
0
POINT
5
1B7
100
AcDbEntity
8
Defpoints
62
0
6
ByLayer
370
-1
48
1
60
0
100
AcDbPoint
10
72.59
20
0
30
0
39
0
210
0
220
0
230
1
50
360
0
POINT
5
1B8
100
AcDbEntity
8
Defpoints
62
0
6
ByLayer
370
-1
48
1
60
0
100
AcDbPoint
10
72.59
20
-51.0296
30
0
39
0
210
0
220
0
230
1
50
360
0
ENDBLK
5
1AF
100
AcDbEntity
8
0
100
AcDbBlockEnd
0
BLOCK
5
1C0
100
AcDbEntity
8
0
100
AcDbBlockBegin
2
_U0
70
0
10
0
20
0
30
0
3
_U0
0
MTEXT
5
1BA
100
AcDbEntity
8
SK2
62
256
6
ByLayer
370
18
48
1
60
0
100
AcDbMText
10
17.798001
20
-49.996967
30
0
210
0
220
0
230
1
1
\W0.6864;100.0
40
3.5
41
0
44
1.084337
50
0
71
7
72
5
7
iso_b_vert
0
LINE
5
1BB
100
AcDbEntity
8
SK2
62
256
6
ByLayer
370
13
48
1
60
0
100
AcDbLine
10
-27.41
20
-1.5875
30
0
11
-27.41
21
-53.0296
31
0
39
0
210
0
220
0
230
1
0
LINE
5
1BC
100
AcDbEntity
8
SK2
62
256
6
ByLayer
370
13
48
1
60
0
100
AcDbLine
10
72.59
20
-1.5875
30
0
11
72.59
21
-53.0296
31
0
39
0
210
0
220
0
230
1
0
LINE
5
1BD
100
AcDbEntity
8
SK2
62
256
6
ByLayer
370
13
48
1
60
0
100
AcDbLine
10
-27.41
20
-51.0296
30
0
11
72.59
21
-51.0296
31
0
39
0
210
0
220
0
230
1
0
SOLID
5
1BE
100
AcDbEntity
8
SK2
62
256
6
ByLayer
370
18
48
1
60
0
100
AcDbTrace
10
-27.41
20
-51.0296
30
0
11
-23.910002
21
-50.568817
31
0
12
-23.909998
22
-51.490384
32
0
13
-23.909998
23
-51.490384
33
0
39
0
210
0
220
0
230
1
0
SOLID
5
1BF
100
AcDbEntity
8
SK2
62
256
6
ByLayer
370
18
48
1
60
0
100
AcDbTrace
10
72.59
20
-51.0296
30
0
11
69.090002
21
-51.490384
31
0
12
69.089998
22
-50.568817
32
0
13
69.089998
23
-50.568817
33
0
39
0
210
0
220
0
230
1
0
ENDBLK
5
1C1
100
AcDbEntity
8
0
100
AcDbBlockEnd
0
BLOCK
5
1C6
100
AcDbEntity
8
0
100
AcDbBlockBegin
2
*D3
70
1
10
0
20
0
30
0
3
*D3
0
LINE
5
1C8
100
AcDbEntity
8
0
62
256
6
ByLayer
370
-2
48
1
60
0
100
AcDbLine
10
72.59
20
-1.5875
30
0
11
72.59
21
-45.0296
31
0
39
0
210
0
220
0
230
1
0
LINE
5
1C9
100
AcDbEntity
8
0
62
256
6
ByLayer
370
-2
48
1
60
0
100
AcDbLine
10
24.59
20
-1.5875
30
0
11
24.59
21
-45.0296
31
0
39
0
210
0
220
0
230
1
0
LINE
5
1CA
100
AcDbEntity
8
0
62
256
6
ByLayer
370
-2
48
1
60
0
100
AcDbLine
10
69.09
20
-43.0296
30
0
11
28.09
21
-43.0296
31
0
39
0
210
0
220
0
230
1
0
SOLID
5
1CB
100
AcDbEntity
8
0
62
256
6
ByLayer
370
-1
48
1
60
0
100
AcDbTrace
10
69.09
20
-43.612934
30
0
11
69.09
21
-42.446267
31
0
12
72.59
22
-43.0296
32
0
13
72.59
23
-43.0296
33
0
39
0
210
0
220
0
230
1
0
SOLID
5
1CC
100
AcDbEntity
8
0
62
256
6
ByLayer
370
-1
48
1
60
0
100
AcDbTrace
10
28.09
20
-42.446267
30
0
11
28.09
21
-43.612934
31
0
12
24.59
22
-43.0296
32
0
13
24.59
23
-43.0296
33
0
39
0
210
0
220
0
230
1
0
MTEXT
5
1CD
100
AcDbEntity
8
0
62
256
6
ByLayer
370
18
48
1
60
0
100
AcDbMText
10
48.59
20
-36.0296
30
0
210
0
220
0
230
1
1
\A1;48
40
3.5
41
0
44
1
50
0
71
5
72
5
7
iso_b_vert
0
POINT
5
1CE
100
AcDbEntity
8
Defpoints
62
0
6
ByLayer
370
-1
48
1
60
0
100
AcDbPoint
10
72.59
20
0
30
0
39
0
210
0
220
0
230
1
50
360
0
POINT
5
1CF
100
AcDbEntity
8
Defpoints
62
0
6
ByLayer
370
-1
48
1
60
0
100
AcDbPoint
10
24.59
20
0
30
0
39
0
210
0
220
0
230
1
50
360
0
POINT
5
1D0
100
AcDbEntity
8
Defpoints
62
0
6
ByLayer
370
-1
48
1
60
0
100
AcDbPoint
10
24.59
20
-43.0296
30
0
39
0
210
0
220
0
230
1
50
360
0
ENDBLK
5
1C7
100
AcDbEntity
8
0
100
AcDbBlockEnd
0
BLOCK
5
1D8
100
AcDbEntity
8
0
100
AcDbBlockBegin
2
_U1
70
0
10
0
20
0
30
0
3
_U1
0
MTEXT
5
1D2
100
AcDbEntity
8
SK2
62
256
6
ByLayer
370
18
48
1
60
0
100
AcDbMText
10
44.484034
20
-41.996967
30
0
210
0
220
0
230
1
1
\W0.7640;48.0
40
3.5
41
0
44
1.084337
50
0
71
7
72
5
7
iso_b_vert
0
LINE
5
1D3
100
AcDbEntity
8
SK2
62
256
6
ByLayer
370
13
48
1
60
0
100
AcDbLine
10
72.59
20
-1.5875
30
0
11
72.59
21
-45.0296
31
0
39
0
210
0
220
0
230
1
0
LINE
5
1D4
100
AcDbEntity
8
SK2
62
256
6
ByLayer
370
13
48
1
60
0
100
AcDbLine
10
24.59
20
-1.5875
30
0
11
24.59
21
-45.0296
31
0
39
0
210
0
220
0
230
1
0
LINE
5
1D5
100
AcDbEntity
8
SK2
62
256
6
ByLayer
370
13
48
1
60
0
100
AcDbLine
10
72.59
20
-43.0296
30
0
11
24.59
21
-43.0296
31
0
39
0
210
0
220
0
230
1
0
SOLID
5
1D6
100
AcDbEntity
8
SK2
62
256
6
ByLayer
370
18
48
1
60
0
100
AcDbTrace
10
72.59
20
-43.0296
30
0
11
69.090002
21
-43.490384
31
0
12
69.089998
22
-42.568817
32
0
13
69.089998
23
-42.568817
33
0
39
0
210
0
220
0
230
1
0
SOLID
5
1D7
100
AcDbEntity
8
SK2
62
256
6
ByLayer
370
18
48
1
60
0
100
AcDbTrace
10
24.59
20
-43.0296
30
0
11
28.089998
21
-42.568817
31
0
12
28.090002
22
-43.490384
32
0
13
28.090002
23
-43.490384
33
0
39
0
210
0
220
0
230
1
0
ENDBLK
5
1D9
100
AcDbEntity
8
0
100
AcDbBlockEnd
0
BLOCK
5
1DE
100
AcDbEntity
8
0
100
AcDbBlockBegin
2
*D5
70
1
10
0
20
0
30
0
3
*D5
0
LINE
5
1E0
100
AcDbEntity
8
0
62
256
6
ByLayer
370
-2
48
1
60
0
100
AcDbLine
10
72.59
20
-1.5875
30
0
11
72.59
21
-37.0296
31
0
39
0
210
0
220
0
230
1
0
LINE
5
1E1
100
AcDbEntity
8
0
62
256
6
ByLayer
370
-2
48
1
60
0
100
AcDbLine
10
31.79
20
-1.5875
30
0
11
31.79
21
-37.0296
31
0
39
0
210
0
220
0
230
1
0
LINE
5
1E2
100
AcDbEntity
8
0
62
256
6
ByLayer
370
-2
48
1
60
0
100
AcDbLine
10
69.09
20
-35.0296
30
0
11
35.29
21
-35.0296
31
0
39
0
210
0
220
0
230
1
0
SOLID
5
1E3
100
AcDbEntity
8
0
62
256
6
ByLayer
370
-1
48
1
60
0
100
AcDbTrace
10
69.09
20
-35.612934
30
0
11
69.09
21
-34.446267
31
0
12
72.59
22
-35.0296
32
0
13
72.59
23
-35.0296
33
0
39
0
210
0
220
0
230
1
0
SOLID
5
1E4
100
AcDbEntity
8
0
62
256
6
ByLayer
370
-1
48
1
60
0
100
AcDbTrace
10
35.29
20
-34.446267
30
0
11
35.29
21
-35.612934
31
0
12
31.79
22
-35.0296
32
0
13
31.79
23
-35.0296
33
0
39
0
210
0
220
0
230
1
0
MTEXT
5
1E5
100
AcDbEntity
8
0
62
256
6
ByLayer
370
18
48
1
60
0
100
AcDbMText
10
52.19
20
-28.0296
30
0
210
0
220
0
230
1
1
\A1;40.8
40
3.5
41
0
44
1
50
0
71
5
72
5
7
iso_b_vert
0
POINT
5
1E6
100
AcDbEntity
8
Defpoints
62
0
6
ByLayer
370
-1
48
1
60
0
100
AcDbPoint
10
72.59
20
0
30
0
39
0
210
0
220
0
230
1
50
360
0
POINT
5
1E7
100
AcDbEntity
8
Defpoints
62
0
6
ByLayer
370
-1
48
1
60
0
100
AcDbPoint
10
31.79
20
0
30
0
39
0
210
0
220
0
230
1
50
360
0
POINT
5
1E8
100
AcDbEntity
8
Defpoints
62
0
6
ByLayer
370
-1
48
1
60
0
100
AcDbPoint
10
31.79
20
-35.0296
30
0
39
0
210
0
220
0
230
1
50
360
0
ENDBLK
5
1DF
100
AcDbEntity
8
0
100
AcDbBlockEnd
0
BLOCK
5
1F1
100
AcDbEntity
8
0
100
AcDbBlockBegin
2
_U2
70
0
10
0
20
0
30
0
3
_U2
0
MTEXT
5
1EB
100
AcDbEntity
8
2
62
256
6
ByLayer
370
18
48
1
60
0
100
AcDbMText
10
48.084034
20
-33.996967
30
0
210
0
220
0
230
1
1
\W0.7640;40.8
40
3.5
41
0
44
1.084337
50
0
71
7
72
5
7
iso_b_vert
0
LINE
5
1EC
100
AcDbEntity
8
2
62
256
6
ByLayer
370
13
48
1
60
0
100
AcDbLine
10
72.59
20
-1.5875
30
0
11
72.59
21
-37.0296
31
0
39
0
210
0
220
0
230
1
0
LINE
5
1ED
100
AcDbEntity
8
2
62
256
6
ByLayer
370
13
48
1
60
0
100
AcDbLine
10
31.79
20
-1.5875
30
0
11
31.79
21
-37.0296
31
0
39
0
210
0
220
0
230
1
0
LINE
5
1EE
100
AcDbEntity
8
2
62
256
6
ByLayer
370
13
48
1
60
0
100
AcDbLine
10
72.59
20
-35.0296
30
0
11
31.79
21
-35.0296
31
0
39
0
210
0
220
0
230
1
0
SOLID
5
1EF
100
AcDbEntity
8
2
62
256
6
ByLayer
370
18
48
1
60
0
100
AcDbTrace
10
72.59
20
-35.0296
30
0
11
69.090002
21
-35.490384
31
0
12
69.089998
22
-34.568817
32
0
13
69.089998
23
-34.568817
33
0
39
0
210
0
220
0
230
1
0
SOLID
5
1F0
100
AcDbEntity
8
2
62
256
6
ByLayer
370
18
48
1
60
0
100
AcDbTrace
10
31.79
20
-35.0296
30
0
11
35.289998
21
-34.568817
31
0
12
35.290002
22
-35.490384
32
0
13
35.290002
23
-35.490384
33
0
39
0
210
0
220
0
230
1
0
ENDBLK
5
1F2
100
AcDbEntity
8
0
100
AcDbBlockEnd
0
BLOCK
5
1F7
100
AcDbEntity
8
0
100
AcDbBlockBegin
2
*D7
70
1
10
0
20
0
30
0
3
*D7
0
LINE
5
1F9
100
AcDbEntity
8
0
62
256
6
ByLayer
370
-2
48
1
60
0
100
AcDbLine
10
72.59
20
-1.5875
30
0
11
72.59
21
-29.0296
31
0
39
0
210
0
220
0
230
1
0
LINE
5
1FA
100
AcDbEntity
8
0
62
256
6
ByLayer
370
-2
48
1
60
0
100
AcDbLine
10
57.59
20
-1.5875
30
0
11
57.59
21
-29.0296
31
0
39
0
210
0
220
0
230
1
0
LINE
5
1FB
100
AcDbEntity
8
0
62
256
6
ByLayer
370
-2
48
1
60
0
100
AcDbLine
10
76.09
20
-27.0296
30
0
11
79.59
21
-27.0296
31
0
39
0
210
0
220
0
230
1
0
LINE
5
1FC
100
AcDbEntity
8
0
62
256
6
ByLayer
370
-2
48
1
60
0
100
AcDbLine
10
54.09
20
-27.0296
30
0
11
50.59
21
-27.0296
31
0
39
0
210
0
220
0
230
1
0
SOLID
5
1FD
100
AcDbEntity
8
0
62
256
6
ByLayer
370
-1
48
1
60
0
100
AcDbTrace
10
76.09
20
-26.446267
30
0
11
76.09
21
-27.612934
31
0
12
72.59
22
-27.0296
32
0
13
72.59
23
-27.0296
33
0
39
0
210
0
220
0
230
1
0
SOLID
5
1FE
100
AcDbEntity
8
0
62
256
6
ByLayer
370
-1
48
1
60
0
100
AcDbTrace
10
54.09
20
-27.612934
30
0
11
54.09
21
-26.446267
31
0
12
57.59
22
-27.0296
32
0
13
57.59
23
-27.0296
33
0
39
0
210
0
220
0
230
1
0
MTEXT
5
1FF
100
AcDbEntity
8
0
62
256
6
ByLayer
370
18
48
1
60
0
100
AcDbMText
10
65.09
20
-20.0296
30
0
210
0
220
0
230
1
1
\A1;15
40
3.5
41
0
44
1
50
0
71
5
72
5
7
iso_b_vert
0
POINT
5
200
100
AcDbEntity
8
Defpoints
62
0
6
ByLayer
370
-1
48
1
60
0
100
AcDbPoint
10
72.59
20
0
30
0
39
0
210
0
220
0
230
1
50
360
0
POINT
5
201
100
AcDbEntity
8
Defpoints
62
0
6
ByLayer
370
-1
48
1
60
0
100
AcDbPoint
10
57.59
20
0
30
0
39
0
210
0
220
0
230
1
50
360
0
POINT
5
202
100
AcDbEntity
8
Defpoints
62
0
6
ByLayer
370
-1
48
1
60
0
100
AcDbPoint
10
57.59
20
-27.0296
30
0
39
0
210
0
220
0
230
1
50
360
0
ENDBLK
5
1F8
100
AcDbEntity
8
0
100
AcDbBlockEnd
0
BLOCK
5
20A
100
AcDbEntity
8
0
100
AcDbBlockBegin
2
_U3
70
0
10
0
20
0
30
0
3
_U3
0
MTEXT
5
204
100
AcDbEntity
8
SK2
62
256
6
ByLayer
370
18
48
1
60
0
100
AcDbMText
10
61.605734
20
-25.996967
30
0
210
0
220
0
230
1
1
\W0.6563;15.0
40
3.5
41
0
44
1.084337
50
0
71
7
72
5
7
iso_b_vert
0
LINE
5
205
100
AcDbEntity
8
SK2
62
256
6
ByLayer
370
13
48
1
60
0
100
AcDbLine
10
72.59
20
-1.5875
30
0
11
72.59
21
-29.0296
31
0
39
0
210
0
220
0
230
1
0
LINE
5
206
100
AcDbEntity
8
SK2
62
256
6
ByLayer
370
13
48
1
60
0
100
AcDbLine
10
57.59
20
-1.5875
30
0
11
57.59
21
-29.0296
31
0
39
0
210
0
220
0
230
1
0
LINE
5
207
100
AcDbEntity
8
SK2
62
256
6
ByLayer
370
13
48
1
60
0
100
AcDbLine
10
72.59
20
-27.0296
30
0
11
57.59
21
-27.0296
31
0
39
0
210
0
220
0
230
1
0
SOLID
5
208
100
AcDbEntity
8
SK2
62
256
6
ByLayer
370
18
48
1
60
0
100
AcDbTrace
10
72.59
20
-27.0296
30
0
11
69.090002
21
-27.490384
31
0
12
69.089998
22
-26.568817
32
0
13
69.089998
23
-26.568817
33
0
39
0
210
0
220
0
230
1
0
SOLID
5
209
100
AcDbEntity
8
SK2
62
256
6
ByLayer
370
18
48
1
60
0
100
AcDbTrace
10
57.59
20
-27.0296
30
0
11
61.089998
21
-26.568817
31
0
12
61.090002
22
-27.490384
32
0
13
61.090002
23
-27.490384
33
0
39
0
210
0
220
0
230
1
0
ENDBLK
5
20B
100
AcDbEntity
8
0
100
AcDbBlockEnd
0
BLOCK
5
210
100
AcDbEntity
8
0
100
AcDbBlockBegin
2
*D9
70
1
10
0
20
0
30
0
3
*D9
0
LINE
5
212
100
AcDbEntity
8
0
62
256
6
ByLayer
370
-2
48
1
60
0
100
AcDbLine
10
72.59
20
1.5875
30
0
11
72.59
21
13.493663
31
0
39
0
210
0
220
0
230
1
0
LINE
5
213
100
AcDbEntity
8
0
62
256
6
ByLayer
370
-2
48
1
60
0
100
AcDbLine
10
67.6
20
1.5875
30
0
11
67.6
21
13.493663
31
0
39
0
210
0
220
0
230
1
0
LINE
5
214
100
AcDbEntity
8
0
62
256
6
ByLayer
370
-2
48
1
60
0
100
AcDbLine
10
76.09
20
11.493663
30
0
11
79.59
21
11.493663
31
0
39
0
210
0
220
0
230
1
0
LINE
5
215
100
AcDbEntity
8
0
62
256
6
ByLayer
370
-2
48
1
60
0
100
AcDbLine
10
64.1
20
11.493663
30
0
11
60.6
21
11.493663
31
0
39
0
210
0
220
0
230
1
0
SOLID
5
216
100
AcDbEntity
8
0
62
256
6
ByLayer
370
-1
48
1
60
0
100
AcDbTrace
10
76.09
20
12.076997
30
0
11
76.09
21
10.91033
31
0
12
72.59
22
11.493663
32
0
13
72.59
23
11.493663
33
0
39
0
210
0
220
0
230
1
0
SOLID
5
217
100
AcDbEntity
8
0
62
256
6
ByLayer
370
-1
48
1
60
0
100
AcDbTrace
10
64.1
20
10.91033
30
0
11
64.1
21
12.076997
31
0
12
67.6
22
11.493663
32
0
13
67.6
23
11.493663
33
0
39
0
210
0
220
0
230
1
0
MTEXT
5
218
100
AcDbEntity
8
0
62
256
6
ByLayer
370
18
48
1
60
0
100
AcDbMText
10
70.095
20
18.493663
30
0
210
0
220
0
230
1
1
\A1;4.99
40
3.5
41
0
44
1
50
0
71
5
72
5
7
iso_b_vert
0
POINT
5
219
100
AcDbEntity
8
Defpoints
62
0
6
ByLayer
370
-1
48
1
60
0
100
AcDbPoint
10
72.59
20
0
30
0
39
0
210
0
220
0
230
1
50
360
0
POINT
5
21A
100
AcDbEntity
8
Defpoints
62
0
6
ByLayer
370
-1
48
1
60
0
100
AcDbPoint
10
67.6
20
0
30
0
39
0
210
0
220
0
230
1
50
360
0
POINT
5
21B
100
AcDbEntity
8
Defpoints
62
0
6
ByLayer
370
-1
48
1
60
0
100
AcDbPoint
10
67.6
20
11.493663
30
0
39
0
210
0
220
0
230
1
50
360
0
ENDBLK
5
211
100
AcDbEntity
8
0
100
AcDbBlockEnd
0
BLOCK
5
224
100
AcDbEntity
8
0
100
AcDbBlockBegin
2
_U4
70
0
10
0
20
0
30
0
3
_U4
0
MTEXT
5
21D
100
AcDbEntity
8
SK2
62
256
6
ByLayer
370
18
48
1
60
0
100
AcDbMText
10
65.989034
20
19.526297
30
0
210
0
220
0
230
1
1
\W0.7756;4.99
40
3.5
41
0
44
1.084337
50
0
71
7
72
5
7
iso_b_vert
0
MTEXT
5
21E
100
AcDbEntity
8
SK2
62
256
6
ByLayer
370
18
48
1
60
0
100
AcDbMText
10
65.989034
20
12.526297
30
0
210
0
220
0
230
1
1
\W0.6474;'C'
40
3.5
41
0
44
1.084337
50
0
71
7
72
5
7
iso_b_vert
0
LINE
5
21F
100
AcDbEntity
8
SK2
62
256
6
ByLayer
370
13
48
1
60
0
100
AcDbLine
10
72.59
20
1.5875
30
0
11
72.59
21
13.493663
31
0
39
0
210
0
220
0
230
1
0
LINE
5
220
100
AcDbEntity
8
SK2
62
256
6
ByLayer
370
13
48
1
60
0
100
AcDbLine
10
67.6
20
1.5875
30
0
11
67.6
21
13.493663
31
0
39
0
210
0
220
0
230
1
0
LINE
5
221
100
AcDbEntity
8
SK2
62
256
6
ByLayer
370
13
48
1
60
0
100
AcDbLine
10
81.34
20
11.493663
30
0
11
58.85
21
11.493663
31
0
39
0
210
0
220
0
230
1
0
SOLID
5
222
100
AcDbEntity
8
SK2
62
256
6
ByLayer
370
18
48
1
60
0
100
AcDbTrace
10
72.59
20
11.493663
30
0
11
76.089998
21
11.954447
31
0
12
76.090002
22
11.03288
32
0
13
76.090002
23
11.03288
33
0
39
0
210
0
220
0
230
1
0
SOLID
5
223
100
AcDbEntity
8
SK2
62
256
6
ByLayer
370
18
48
1
60
0
100
AcDbTrace
10
67.6
20
11.493663
30
0
11
64.100002
21
11.03288
31
0
12
64.099998
22
11.954447
32
0
13
64.099998
23
11.954447
33
0
39
0
210
0
220
0
230
1
0
ENDBLK
5
225
100
AcDbEntity
8
0
100
AcDbBlockEnd
0
BLOCK
5
22A
100
AcDbEntity
8
0
100
AcDbBlockBegin
2
*D11
70
1
10
0
20
0
30
0
3
*D11
0
LINE
5
22C
100
AcDbEntity
8
0
62
256
6
ByLayer
370
-2
48
1
60
0
100
AcDbLine
10
74.1775
20
-5.621832
30
0
11
91.34
21
-5.621832
31
0
39
0
210
0
220
0
230
1
0
LINE
5
22D
100
AcDbEntity
8
0
62
256
6
ByLayer
370
-2
48
1
60
0
100
AcDbLine
10
74.1775
20
5.621832
30
0
11
91.34
21
5.621832
31
0
39
0
210
0
220
0
230
1
0
LINE
5
22E
100
AcDbEntity
8
0
62
256
6
ByLayer
370
-2
48
1
60
0
100
AcDbLine
10
89.34
20
-9.121832
30
0
11
89.34
21
-12.621832
31
0
39
0
210
0
220
0
230
1
0
LINE
5
22F
100
AcDbEntity
8
0
62
256
6
ByLayer
370
-2
48
1
60
0
100
AcDbLine
10
89.34
20
9.121832
30
0
11
89.34
21
12.621832
31
0
39
0
210
0
220
0
230
1
0
SOLID
5
230
100
AcDbEntity
8
0
62
256
6
ByLayer
370
-1
48
1
60
0
100
AcDbTrace
10
89.923333
20
-9.121832
30
0
11
88.756667
21
-9.121832
31
0
12
89.34
22
-5.621832
32
0
13
89.34
23
-5.621832
33
0
39
0
210
0
220
0
230
1
0
SOLID
5
231
100
AcDbEntity
8
0
62
256
6
ByLayer
370
-1
48
1
60
0
100
AcDbTrace
10
88.756667
20
9.121832
30
0
11
89.923333
21
9.121832
31
0
12
89.34
22
5.621832
32
0
13
89.34
23
5.621832
33
0
39
0
210
0
220
0
230
1
0
MTEXT
5
232
100
AcDbEntity
8
0
62
256
6
ByLayer
370
18
48
1
60
0
100
AcDbMText
10
82.34
20
0
30
0
210
0
220
0
230
1
1
\A1;11.24
40
3.5
41
0
44
1
50
90
71
5
72
5
7
iso_b_vert
0
POINT
5
233
100
AcDbEntity
8
Defpoints
62
0
6
ByLayer
370
-1
48
1
60
0
100
AcDbPoint
10
72.59
20
-5.621832
30
0
39
0
210
0
220
0
230
1
50
360
0
POINT
5
234
100
AcDbEntity
8
Defpoints
62
0
6
ByLayer
370
-1
48
1
60
0
100
AcDbPoint
10
72.59
20
5.621832
30
0
39
0
210
0
220
0
230
1
50
360
0
POINT
5
235
100
AcDbEntity
8
Defpoints
62
0
6
ByLayer
370
-1
48
1
60
0
100
AcDbPoint
10
89.34
20
5.621832
30
0
39
0
210
0
220
0
230
1
50
360
0
ENDBLK
5
22B
100
AcDbEntity
8
0
100
AcDbBlockEnd
0
BLOCK
5
23E
100
AcDbEntity
8
0
100
AcDbBlockBegin
2
_U5
70
0
10
0
20
0
30
0
3
_U5
0
MTEXT
5
237
100
AcDbEntity
8
2
62
256
6
ByLayer
370
18
48
1
60
0
100
AcDbMText
10
88.650366
20
-20.297364
30
0
210
0
220
0
230
1
1
\W0.7072;UNC 7/16-14
40
3.5
41
0
44
1.084337
50
90
71
7
72
5
7
iso_b_vert
0
MTEXT
5
238
100
AcDbEntity
8
2
62
256
6
ByLayer
370
18
48
1
60
0
100
AcDbMText
10
88.650366
20
10.555299
30
0
210
0
220
0
230
1
1
\W0.7601; 3BX
40
3.5
41
0
44
1.084337
50
90
71
7
72
5
7
iso_b_vert
0
LINE
5
239
100
AcDbEntity
8
2
62
256
6
ByLayer
370
13
48
1
60
0
100
AcDbLine
10
74.1775
20
-5.621832
30
0
11
91.34
21
-5.621832
31
0
39
0
210
0
220
0
230
1
0
LINE
5
23A
100
AcDbEntity
8
2
62
256
6
ByLayer
370
13
48
1
60
0
100
AcDbLine
10
74.1775
20
5.621832
30
0
11
91.34
21
5.621832
31
0
39
0
210
0
220
0
230
1
0
LINE
5
23B
100
AcDbEntity
8
2
62
256
6
ByLayer
370
13
48
1
60
0
100
AcDbLine
10
89.34
20
20.454864
30
0
11
89.34
21
-20.454864
31
0
39
0
210
0
220
0
230
1
0
SOLID
5
23C
100
AcDbEntity
8
2
62
256
6
ByLayer
370
18
48
1
60
0
100
AcDbTrace
10
89.34
20
-5.621832
30
0
11
88.879216
21
-2.121833
31
0
12
89.800784
22
-2.12183
32
0
13
89.800784
23
-2.12183
33
0
39
0
210
0
220
0
230
1
0
SOLID
5
23D
100
AcDbEntity
8
2
62
256
6
ByLayer
370
18
48
1
60
0
100
AcDbTrace
10
89.34
20
5.621832
30
0
11
89.800784
21
2.121833
31
0
12
88.879216
22
2.12183
32
0
13
88.879216
23
2.12183
33
0
39
0
210
0
220
0
230
1
0
ENDBLK
5
23F
100
AcDbEntity
8
0
100
AcDbBlockEnd
0
ENDSEC
0
SECTION
2
ENTITIES
0
ARC
5
BF
100
AcDbEntity
8
SK1
62
256
6
ByLayer
370
18
48
1
60
0
100
AcDbCircle
39
0
10
-20.075
20
0
30
0
40
3.93791999999992
210
0
220
0
230
1
100
AcDbArc
50
321.340217
51
38.659783
0
ARC
5
C0
100
AcDbEntity
8
1
62
256
6
ByLayer
370
18
48
1
60
0
100
AcDbCircle
39
0
10
56.176698
20
-5.152
30
0
40
1.2
210
0
220
0
230
1
100
AcDbArc
50
30
51
89.781176
0
ARC
5
C1
100
AcDbEntity
8
1
62
256
6
ByLayer
370
18
48
1
60
0
100
AcDbCircle
39
0
10
25.170948
20
-5.152
30
0
40
1.2
210
0
220
0
230
1
100
AcDbArc
50
90
51
118.955024
0
ARC
5
C2
100
AcDbEntity
8
1
62
256
6
ByLayer
370
18
48
1
60
0
100
AcDbCircle
39
0
10
25.170948
20
5.152
30
0
40
1.2
210
0
220
0
230
1
100
AcDbArc
50
241.044976
51
270
0
POINT
5
70
100
AcDbEntity
8
81
62
256
6
ByLayer
370
18
48
1
60
0
100
AcDbPoint
10
72.59
20
0
30
0
39
0
210
0
220
0
230
1
50
360
0
POINT
5
72
100
AcDbEntity
8
80
62
256
6
ByLayer
370
18
48
1
60
0
100
AcDbPoint
10
0
20
0
30
0
39
0
210
0
220
0
230
1
50
360
0
POINT
5
74
100
AcDbEntity
8
1
62
256
6
ByLayer
370
18
48
1
60
0
100
AcDbPoint
10
-27.41
20
0
30
0
39
0
210
0
220
0
230
1
50
360
0
POINT
5
76
100
AcDbEntity
8
1
62
256
6
ByLayer
370
18
48
1
60
1
100
AcDbPoint
10
-27.41
20
0
30
0
39
0
210
0
220
0
230
1
50
360
0
POINT
5
77
100
AcDbEntity
8
1
62
256
6
ByLayer
370
18
48
1
60
1
100
AcDbPoint
10
72.59
20
0
30
0
39
0
210
0
220
0
230
1
50
360
0
POINT
5
78
100
AcDbEntity
8
1
62
256
6
ByLayer
370
18
48
1
60
1
100
AcDbPoint
10
72.59
20
0
30
0
39
0
210
0
220
0
230
1
50
360
0
POINT
5
79
100
AcDbEntity
8
1
62
256
6
ByLayer
370
18
48
1
60
1
100
AcDbPoint
10
24.59
20
0
30
0
39
0
210
0
220
0
230
1
50
360
0
POINT
5
7A
100
AcDbEntity
8
1
62
256
6
ByLayer
370
18
48
1
60
1
100
AcDbPoint
10
72.59
20
0
30
0
39
0
210
0
220
0
230
1
50
360
0
POINT
5
7B
100
AcDbEntity
8
1
62
256
6
ByLayer
370
18
48
1
60
1
100
AcDbPoint
10
31.79
20
0
30
0
39
0
210
0
220
0
230
1
50
360
0
POINT
5
7C
100
AcDbEntity
8
1
62
256
6
ByLayer
370
18
48
1
60
1
100
AcDbPoint
10
72.59
20
0
30
0
39
0
210
0
220
0
230
1
50
360
0
POINT
5
7D
100
AcDbEntity
8
1
62
256
6
ByLayer
370
18
48
1
60
1
100
AcDbPoint
10
57.59
20
0
30
0
39
0
210
0
220
0
230
1
50
360
0
POINT
5
7E
100
AcDbEntity
8
1
62
256
6
ByLayer
370
18
48
1
60
1
100
AcDbPoint
10
72.59
20
0
30
0
39
0
210
0
220
0
230
1
50
360
0
POINT
5
7F
100
AcDbEntity
8
1
62
256
6
ByLayer
370
18
48
1
60
1
100
AcDbPoint
10
67.6
20
0
30
0
39
0
210
0
220
0
230
1
50
360
0
POINT
5
80
100
AcDbEntity
8
1
62
256
6
ByLayer
370
18
48
1
60
1
100
AcDbPoint
10
72.59
20
-5.621832
30
0
39
0
210
0
220
0
230
1
50
360
0
POINT
5
81
100
AcDbEntity
8
1
62
256
6
ByLayer
370
18
48
1
60
1
100
AcDbPoint
10
72.59
20
5.621832
30
0
39
0
210
0
220
0
230
1
50
360
0
SPLINE
5
C3
100
AcDbEntity
8
1
62
256
6
ByLayer
370
13
48
1
60
0
100
AcDbSpline
70
4
71
3
72
8
73
4
40
0
40
0
40
0
40
0
40
1
40
1
40
1
40
1
41
1
10
59.4937817912929
20
-4.59694516618052
30
0
41
1
10
59.498949787163
20
-4.59190891267946
30
0
41
1
10
59.5041066196019
20
-4.58464031279433
30
0
41
1
10
59.5092532875397
20
-4.57518864896784
30
0
0
SPLINE
5
C4
100
AcDbEntity
8
1
62
256
6
ByLayer
370
18
48
1
60
0
100
AcDbSpline
70
4
71
3
72
9
73
5
40
0
40
0
40
0
40
0
40
0.422022834484965
40
1
40
1
40
1
40
1
41
1
10
71.9899872546267
20
4.50499998030315
30
0
41
1
10
71.9899873988625
20
4.5043517224328
30
0
41
1
10
71.9899874775389
20
4.50190716210554
30
0
41
1
10
71.9899868221907
20
4.49730078578028
30
0
41
1
10
71.9899862426081
20
4.49391898039093
30
0
0
SPLINE
5
C5
100
AcDbEntity
8
1
62
256
6
ByLayer
370
18
48
1
60
0
100
AcDbSpline
70
4
71
3
72
8
73
4
40
0
40
0
40
0
40
0
40
1
40
1
40
1
40
1
41
1.04
10
60.7984095924787
20
4.55767200184672
30
0
41
1.04
10
60.8009003499675
20
4.56330415489685
30
0
41
1.04
10
60.8033916306739
20
4.56843676850772
30
0
41
1.04
10
60.8058833624004
20
4.57306759076176
30
0
0
SPLINE
5
C6
100
AcDbEntity
8
1
62
256
6
ByLayer
370
18
48
1
60
0
100
AcDbSpline
70
4
71
3
72
8
73
4
40
0
40
0
40
0
40
0
40
1
40
1
40
1
40
1
41
1
10
61.4469836477093
20
5.60793924855148
30
0
41
1
10
61.4403133341062
20
5.61723475945419
30
0
41
1
10
61.4336949993556
20
5.62183479636059
30
0
41
1
10
61.4270729985584
20
5.62183360407357
30
0
0
SPLINE
5
C7
100
AcDbEntity
8
1
62
256
6
ByLayer
370
18
48
1
60
0
100
AcDbSpline
70
4
71
3
72
8
73
4
40
0
40
0
40
0
40
0
40
1
40
1
40
1
40
1
41
1
10
61.4031510634211
20
5.60207509351267
30
0
41
1
10
61.4008235241635
20
5.59825877166824
30
0
41
1
10
61.3984901359161
20
5.59388986763307
30
0
41
1
10
61.3961496211594
20
5.58896852418874
30
0
0
SPLINE
5
C8
100
AcDbEntity
8
1
62
256
6
ByLayer
370
18
48
1
60
0
100
AcDbSpline
70
4
71
3
72
8
73
4
40
0
40
0
40
0
40
0
40
1
40
1
40
1
40
1
41
1
10
69.1128076331358
20
-4.81982560943803
30
0
41
1
10
69.1083944776964
20
-4.81220915972207
30
0
41
1
10
69.1039887073969
20
-4.80263927891278
30
0
41
1
10
69.0995882549448
20
-4.79110028448267
30
0
0
SPLINE
5
C9
100
AcDbEntity
8
1
62
256
6
ByLayer
370
18
48
1
60
0
100
AcDbSpline
70
4
71
3
72
8
73
4
40
0
40
0
40
0
40
0
40
1
40
1
40
1
40
1
41
1
10
61.6229051142054
20
5.61556807410895
30
0
41
1
10
61.6289072900381
20
5.61014233870944
30
0
41
1
10
61.6349157859933
20
5.60119942999504
30
0
41
1
10
61.6409259527678
20
5.58876610148801
30
0
0
SPLINE
5
CA
100
AcDbEntity
8
1
62
256
6
ByLayer
370
18
48
1
60
0
100
AcDbSpline
70
4
71
3
72
8
73
4
40
0
40
0
40
0
40
0
40
1
40
1
40
1
40
1
41
1
10
58.9987455359378
20
-5.38664630767133
30
0
41
1
10
59.0045571250153
20
-5.39494495110674
30
0
41
1
10
59.010388637514
20
-5.39953885517249
30
0
41
1
10
59.0162337990397
20
-5.40035723166793
30
0
0
SPLINE
5
CB
100
AcDbEntity
8
1
62
256
6
ByLayer
370
18
48
1
60
0
100
AcDbSpline
70
4
71
3
72
14
73
10
40
0
40
0
40
0
40
0
40
0.0473925563676778
40
0.0473925563676778
40
0.523696278183841
40
0.523696278183841
40
0.761848139091921
40
0.761848139091921
40
1
40
1
40
1
40
1
41
1
10
58.5177496371238
20
-5.31866069762296
30
0
41
1
10
58.5172720757637
20
-5.31805768758116
30
0
41
1
10
58.5167944445394
20
-5.31743608285913
30
0
41
1
10
58.5115157015283
20
-5.31036157634171
30
0
41
1
10
58.5067026649818
20
-5.30204387170878
30
0
41
1
10
58.4994475660524
20
-5.28668722441205
30
0
41
1
10
58.4970204325992
20
-5.28108012958094
30
0
41
1
10
58.4921749302322
20
-5.2689527559877
30
0
41
1
10
58.4897549660578
20
-5.26243029745282
30
0
41
1
10
58.4873372303705
20
-5.25545370215596
30
0
0
SPLINE
5
CC
100
AcDbEntity
8
1
62
256
6
ByLayer
370
13
48
1
60
0
100
AcDbSpline
70
4
71
3
72
8
73
4
40
0
40
0
40
0
40
0
40
1
40
1
40
1
40
1
41
1.04
10
68.953892422007
20
-4.53703284243769
30
0
41
1.04
10
68.9600259102434
20
-4.55379602206347
30
0
41
1.04
10
68.9661408518047
20
-4.56739164910897
30
0
41
1.04
10
68.9722370660231
20
-4.57788964474544
30
0
0
SPLINE
5
CD
100
AcDbEntity
8
1
62
256
6
ByLayer
370
18
48
1
60
0
100
AcDbSpline
70
4
71
3
72
8
73
4
40
0
40
0
40
0
40
0
40
1
40
1
40
1
40
1
41
1
10
62.2127425848741
20
4.59812869622422
30
0
41
1
10
62.2177344369905
20
4.59402672638103
30
0
41
1
10
62.222711453863
20
4.58788008538374
30
0
41
1
10
62.2276744338225
20
4.57971818123394
30
0
0
SPLINE
5
CE
100
AcDbEntity
8
1
62
256
6
ByLayer
370
13
48
1
60
0
100
AcDbSpline
70
4
71
3
72
9
73
5
40
0
40
0
40
0
40
0
40
0.97168158650103
40
1
40
1
40
1
40
1
41
1
10
62.2276739142646
20
4.57971903566923
30
0
41
1
10
62.2349150800985
20
4.56781073222359
30
0
41
1
10
62.2423365279336
20
4.55114028426786
30
0
41
1
10
62.2497289532672
20
4.53002281386696
30
0
41
1
10
62.2499382717663
20
4.5294212393718
30
0
0
SPLINE
5
CF
100
AcDbEntity
8
1
62
256
6
ByLayer
370
13
48
1
60
0
100
AcDbSpline
70
4
71
3
72
10
73
6
40
0
40
0
40
0
40
0
40
0.133076493041081
40
0.670730647566477
40
1
40
1
40
1
40
1
41
1
10
57.5703754915715
20
-4.37710437390894
30
0
41
1
10
57.5758172374446
20
-4.40413704836453
30
0
41
1
10
57.6032325513414
20
-4.52852970523548
30
0
41
1
10
57.6440577874916
20
-4.62309933369392
30
0
41
1
10
57.6789595078414
20
-4.6021395569241
30
0
41
1
10
57.6921683728091
20
-4.57986931695245
30
0
0
SPLINE
5
D0
100
AcDbEntity
8
1
62
256
6
ByLayer
370
18
48
1
60
0
100
AcDbSpline
70
4
71
3
72
18
73
14
40
0
40
0
40
0
40
0
40
0.473314598040156
40
0.473314598040156
40
0.591643247550195
40
0.591643247550195
40
0.650807572305215
40
0.650807572305215
40
0.709971897060235
40
0.709971897060235
40
0.946629196080316
40
0.946629196080316
40
1
40
1
40
1
40
1
41
1
10
57.4019919946061
20
-4.5615029954516
30
0
41
1
10
57.4102787058372
20
-4.67319185058253
30
0
41
1
10
57.4184691030181
20
-4.76243998354917
30
0
41
1
10
57.4287235120083
20
-4.8457846078224
30
0
41
1
10
57.4307782021572
20
-4.86103794177285
30
0
41
1
10
57.433870919188
20
-4.88176563906492
30
0
41
1
10
57.4349044496913
20
-4.88832046865676
30
0
41
1
10
57.4369661827581
20
-4.90065219695879
30
0
41
1
10
57.43799536579
20
-4.90643629441223
30
0
41
1
10
57.443133620896
20
-4.93346685688897
30
0
41
1
10
57.4472214102582
20
-4.94905702713103
30
0
41
1
10
57.4521948271112
20
-4.96092310014058
30
0
41
1
10
57.4531086037149
20
-4.96280632329533
30
0
41
1
10
57.4540211856112
20
-4.96438970037033
30
0
0
SPLINE
5
D1
100
AcDbEntity
8
1
62
256
6
ByLayer
370
13
48
1
60
0
100
AcDbSpline
70
4
71
3
72
9
73
5
40
0
40
0
40
0
40
0
40
0.0719311500768362
40
1
40
1
40
1
40
1
41
1
10
68.4700222128661
20
-4.4413869475411
30
0
41
1
10
68.472672868568
20
-4.45264601311396
30
0
41
1
10
68.5094818947189
20
-4.60101101709088
30
0
41
1
10
68.545640992412
20
-4.63422253785384
30
0
41
1
10
68.5786088683531
20
-4.57782689710712
30
0
0
SPLINE
5
D2
100
AcDbEntity
8
1
62
256
6
ByLayer
370
13
48
1
60
0
100
AcDbSpline
70
4
71
3
72
9
73
5
40
0
40
0
40
0
40
0
40
0.726225213363302
40
1
40
1
40
1
40
1
41
1.04
10
62.6234563475036
20
4.57840931645736
30
0
41
1.04
10
62.6508195495479
20
4.62445053985086
30
0
41
1.04
10
62.6878137820562
20
4.60290351234995
30
0
41
1.04
10
62.7241013145578
20
4.47290114438037
30
0
41
1.04
10
62.7339846728332
20
4.42971698622958
30
0
0
SPLINE
5
D3
100
AcDbEntity
8
1
62
256
6
ByLayer
370
18
48
1
60
0
100
AcDbSpline
70
4
71
3
72
16
73
12
40
0
40
0
40
0
40
0
40
0.232889786717352
40
0.232889786717352
40
0.465779573434704
40
0.465779573434704
40
0.698669360152056
40
0.698669360152056
40
0.931559146869408
40
0.931559146869408
40
1
40
1
40
1
40
1
41
1
10
67.9966819461406
20
-4.96575003047363
30
0
41
1
10
68.0083540635264
20
-5.02334923529654
30
0
41
1
10
68.0199898834181
20
-5.07365383264377
30
0
41
1
10
68.0432206144242
20
-5.15992383019813
30
0
41
1
10
68.0547671317423
20
-5.19593968256939
30
0
41
1
10
68.0774725461591
20
-5.25383198946165
30
0
41
1
10
68.0886733215774
20
-5.27568713378594
30
0
41
1
10
68.1111249925266
20
-5.3044643685173
30
0
41
1
10
68.122216674383
20
-5.31114695429375
30
0
41
1
10
68.1366551540382
20
-5.30989419126462
30
0
41
1
10
68.1399382489068
20
-5.30895363766439
30
0
41
1
10
68.1432256199279
20
-5.30736101055729
30
0
0
SPLINE
5
D4
100
AcDbEntity
8
1
62
256
6
ByLayer
370
18
48
1
60
0
100
AcDbSpline
70
4
71
3
72
19
73
15
40
0
40
0
40
0
40
0
40
0.0286852848160037
40
0.0286852848160037
40
0.271513963612002
40
0.514342642408
40
0.514342642408
40
0.635756981805999
40
0.635756981805999
40
0.696464151504999
40
0.696464151504999
40
0.757171321203999
40
0.757171321203999
40
1
40
1
40
1
40
1
41
1
10
67.7054661355562
20
-5.52070626096921
30
0
41
1
10
67.7045936480517
20
-5.51919288392452
30
0
41
1
10
67.7037212431174
20
-5.5175701232171
30
0
41
1
10
67.6954631992391
20
-5.50117763434059
30
0
41
1
10
67.6806986295164
20
-5.45627260867414
30
0
41
1
10
67.6660499684125
20
-5.38096765399999
30
0
41
1
10
67.6550883040937
20
-5.31298179963596
30
0
41
1
10
67.651439865991
20
-5.28839680884093
30
0
41
1
10
67.6459518188928
20
-5.24859262311773
30
0
41
1
10
67.6441196734576
20
-5.23483662160626
30
0
41
1
10
67.6404456527824
20
-5.20633817126586
30
0
41
1
10
67.6386030465198
20
-5.19158872254403
30
0
41
1
10
67.6293944992657
20
-5.11566276333065
30
0
41
1
10
67.6219994914352
20
-5.04774723633858
30
0
41
1
10
67.6146082090427
20
-4.97273611024602
30
0
0
SPLINE
5
D5
100
AcDbEntity
8
1
62
256
6
ByLayer
370
18
48
1
60
0
100
AcDbSpline
70
4
71
3
72
20
73
16
40
0
40
0
40
0
40
0
40
0.208599230944391
40
0.208599230944391
40
0.417198461888782
40
0.417198461888782
40
0.625797692833173
40
0.625797692833173
40
0.677947500569271
40
0.677947500569271
40
0.730097308305368
40
0.730097308305368
40
0.834396923777563
40
0.834396923777563
40
1
40
1
40
1
40
1
41
1
10
63.3709015288182
20
5.06401771540285
30
0
41
1
10
63.3617403727303
20
5.14072970362051
30
0
41
1
10
63.3526043962801
20
5.20943879264826
30
0
41
1
10
63.3343752516839
20
5.3312815640038
30
0
41
1
10
63.3252829628363
20
5.38441432338482
30
0
41
1
10
63.3071749519652
20
5.47511600672763
30
0
41
1
10
63.2981601420499
20
5.51268580304486
30
0
41
1
10
63.2869690107449
20
5.54966998148441
30
0
41
1
10
63.2847344617544
20
5.55656684414436
30
0
41
1
10
63.2802670086855
20
5.56934988006103
30
0
41
1
10
63.2780339498748
20
5.57523464508063
30
0
41
1
10
63.2713650845626
20
5.59127851213694
30
0
41
1
10
63.2669472954263
20
5.59986439064716
30
0
41
1
10
63.2555405521785
20
5.61672150265275
30
0
41
1
10
63.2485644752196
20
5.6218500825477
30
0
41
1
10
63.2415616514141
20
5.62183305582823
30
0
0
SPLINE
5
D6
100
AcDbEntity
8
1
62
256
6
ByLayer
370
18
48
1
60
0
100
AcDbSpline
70
4
71
3
72
20
73
16
40
0
40
0
40
0
40
0
40
0.0584925308868207
40
0.0584925308868207
40
0.293869398165116
40
0.293869398165116
40
0.529246265443412
40
0.529246265443412
40
0.646934699082559
40
0.646934699082559
40
0.705778915902133
40
0.705778915902133
40
0.764623132721706
40
0.764623132721706
40
1
40
1
40
1
40
1
41
1
10
63.4498847563672
20
5.59981558243985
30
0
41
1
10
63.4521388520397
20
5.59593982877846
30
0
41
1
10
63.4543866783991
20
5.59155914690089
30
0
41
1
10
63.465651257661
20
5.56703695835759
30
0
41
1
10
63.4745797112567
20
5.53930781184971
30
0
41
1
10
63.4923578151254
20
5.46794632489488
30
0
41
1
10
63.5012055542047
20
5.42431363534905
30
0
41
1
10
63.5145529488388
20
5.34682828765034
30
0
41
1
10
63.5190161587169
20
5.31899059353276
30
0
41
1
10
63.5257488733442
20
5.27417650099392
30
0
41
1
10
63.5279993686451
20
5.25872866111868
30
0
41
1
10
63.5325150181945
20
5.22680337633966
30
0
41
1
10
63.53478214136
20
5.21031108995595
30
0
41
1
10
63.5461349316848
20
5.1254256120601
30
0
41
1
10
63.5552386310745
20
5.05006489773731
30
0
41
1
10
63.5643854259341
20
4.96733771382014
30
0
0
SPLINE
5
D7
100
AcDbEntity
8
1
62
256
6
ByLayer
370
13
48
1
60
0
100
AcDbSpline
70
4
71
3
72
10
73
6
40
0
40
0
40
0
40
0
40
0.064391820517448
40
0.582563573519974
40
1
40
1
40
1
40
1
41
1.04
10
67.0305004139292
20
-3.9235194552752
30
0
41
1.04
10
67.0331980170124
20
-3.94604688427544
30
0
41
1.04
10
67.0576425003397
20
-4.14544305151914
30
0
41
1.04
10
67.1001906454363
20
-4.41673385849314
30
0
41
1.04
10
67.1394121285195
20
-4.54388379817794
30
0
41
1.04
10
67.1568634902895
20
-4.57546402482956
30
0
0
SPLINE
5
D8
100
AcDbEntity
8
1
62
256
6
ByLayer
370
13
48
1
60
0
100
AcDbSpline
70
4
71
3
72
9
73
5
40
0
40
0
40
0
40
0
40
0.358246452096139
40
1
40
1
40
1
40
1
41
1
10
64.0426324992655
20
4.57922341737967
30
0
41
1
10
64.0576811857447
20
4.55359036228785
30
0
41
1
10
64.1002062865293
20
4.42908350122295
30
0
41
1
10
64.1444702037352
20
4.14774293229638
30
0
41
1
10
64.1737680160622
20
3.89928685732215
30
0
0
SPLINE
5
D9
100
AcDbEntity
8
1
62
256
6
ByLayer
370
18
48
1
60
0
100
AcDbSpline
70
4
71
3
72
12
73
8
40
0
40
0
40
0
40
0
40
0.475285074617047
40
0.475285074617047
40
0.950570149234094
40
0.950570149234094
40
1
40
1
40
1
40
1
41
1
10
37.3679982245837
20
3.34458520437948
30
0
41
1
10
37.1923277733225
20
3.27368264483553
30
0
41
1
10
37.0132027518367
20
3.20092802391954
30
0
41
1
10
36.6456952863856
20
3.0576864935154
30
0
41
1
10
36.4572870802834
20
2.98723436183471
30
0
41
1
10
36.2428714667558
20
2.91424972377442
30
0
41
1
10
36.2226096271895
20
2.90742176720511
30
0
41
1
10
36.2022828368748
20
2.90064555612395
30
0
0
SPLINE
5
DA
100
AcDbEntity
8
1
62
256
6
ByLayer
370
18
48
1
60
0
100
AcDbSpline
70
4
71
3
72
17
73
13
40
0
40
0
40
0
40
0
40
0.0961677731219826
40
0.0961677731219826
40
0.276934218497588
40
0.276934218497588
40
0.367317441185391
40
0.367317441185391
40
0.457700663873194
40
0.638467109248799
40
0.638467109248799
40
1
40
1
40
1
40
1
41
1
10
32.8686241797396
20
3.9520004449472
30
0
41
1
10
32.9076257845442
20
3.95197192394812
30
0
41
1
10
32.9469063531708
20
3.95121324271111
30
0
41
1
10
33.0607178183354
20
3.94698089254777
30
0
41
1
10
33.1358601922097
20
3.94170428845203
30
0
41
1
10
33.2496056227781
20
3.93010398983896
30
0
41
1
10
33.2876659667551
20
3.92562393357602
30
0
41
1
10
33.3638603063027
20
3.91547707550322
30
0
41
1
10
33.4783444959843
20
3.8984676133426
30
0
41
1
10
33.593289185285
20
3.87616711230245
30
0
41
1
10
33.8235861349196
20
3.82460535490205
30
0
41
1
10
33.9776302069135
20
3.78096956312996
30
0
41
1
10
34.1320373001079
20
3.72798507206392
30
0
0
SPLINE
5
DB
100
AcDbEntity
8
1
62
256
6
ByLayer
370
13
48
1
60
0
100
AcDbSpline
70
4
71
3
72
10
73
6
40
0
40
0
40
0
40
0
40
0.194683252553558
40
0.534586788146245
40
1
40
1
40
1
40
1
41
1
10
66.5465964502289
20
-3.67711195475826
30
0
41
1
10
66.5588808633003
20
-3.79523196891066
30
0
41
1
10
66.5928855982545
20
-4.09465797035736
30
0
41
1
10
66.657748925704
20
-4.50278690285629
30
0
41
1
10
66.7089738382621
20
-4.61306062913823
30
0
41
1
10
66.7385788550345
20
-4.60427577558909
30
0
0
SPLINE
5
DC
100
AcDbEntity
8
1
62
256
6
ByLayer
370
13
48
1
60
0
100
AcDbSpline
70
4
71
3
72
9
73
5
40
0
40
0
40
0
40
0
40
0.418010561980481
40
1
40
1
40
1
40
1
41
1.04
10
64.4657692525237
20
4.60553567178363
30
0
41
1.04
10
64.4910662538711
20
4.60898657664888
30
0
41
1.04
10
64.5526965253097
20
4.49054537151951
30
0
41
1.04
10
64.6180560100338
20
4.0356673626351
30
0
41
1.04
10
64.6577679903263
20
3.64889419132082
30
0
0
SPLINE
5
DD
100
AcDbEntity
8
1
62
256
6
ByLayer
370
18
48
1
60
0
100
AcDbSpline
70
4
71
3
72
30
73
26
40
0
40
0
40
0
40
0
40
0.125000000000001
40
0.125000000000001
40
0.250000000000001
40
0.250000000000001
40
0.375000000000002
40
0.375000000000002
40
0.406250000000002
40
0.406250000000002
40
0.437500000000001
40
0.437500000000001
40
0.500000000000001
40
0.500000000000001
40
0.625
40
0.625
40
0.75
40
0.75
40
0.8125
40
0.8125
40
0.843749999999999
40
0.843749999999999
40
0.874999999999999
40
0.874999999999999
40
1
40
1
40
1
40
1
41
1
10
65.9120355592879
20
-3.89379171274825
30
0
41
1
10
65.9210783862594
20
-4.02133844185894
30
0
41
1
10
65.9301564088573
20
-4.14224378662664
30
0
41
1
10
65.9484135676875
20
-4.37113363960148
30
0
41
1
10
65.9575914168067
20
-4.47911743811684
30
0
41
1
10
65.9759611626292
20
-4.68218115090968
30
0
41
1
10
65.9851521650978
20
-4.7772618352021
30
0
41
1
10
65.9965436839737
20
-4.88784493567906
30
0
41
1
10
65.9988162653124
20
-4.90954730061102
30
0
41
1
10
66.0033519491361
20
-4.95211463300575
30
0
41
1
10
66.0056167665404
20
-4.97298510904719
30
0
41
1
10
66.0123770208382
20
-5.03400603817377
30
0
41
1
10
66.01685105798
20
-5.07268133729579
30
0
41
1
10
66.0302541382034
20
-5.18279979941772
30
0
41
1
10
66.0391751992665
20
-5.24834807648813
30
0
41
1
10
66.0571261660663
20
-5.36397916072428
30
0
41
1
10
66.0661346072923
20
-5.41406222310346
30
0
41
1
10
66.0796490001673
20
-5.47748060224259
30
0
41
1
10
66.0841585138784
20
-5.49666579893298
30
0
41
1
10
66.0909395867004
20
-5.5224690164772
30
0
41
1
10
66.0932027515015
20
-5.53057411469916
30
0
41
1
10
66.0977363945926
20
-5.54578253296395
30
0
41
1
10
66.1000089485007
20
-5.55289172052542
30
0
41
1
10
66.1113685598339
20
-5.58583069745507
30
0
41
1
10
66.1204160988956
20
-5.60378627353825
30
0
41
1
10
66.1294746999144
20
-5.61344020332646
30
0
0
SPLINE
5
DE
100
AcDbEntity
8
1
62
256
6
ByLayer
370
18
48
1
60
0
100
AcDbSpline
70
4
71
3
72
29
73
25
40
0
40
0
40
0
40
0
40
0.125
40
0.125
40
0.25
40
0.25
40
0.375000000000001
40
0.375000000000001
40
0.40625
40
0.40625
40
0.4375
40
0.4375
40
0.5
40
0.5
40
0.625
40
0.625
40
0.75
40
0.75
40
0.8125
40
0.843749999999999
40
0.843749999999999
40
0.874999999999999
40
0.874999999999999
40
1
40
1
40
1
40
1
41
1
10
65.9354514403558
20
-5.59761007397077
30
0
41
1
10
65.926410003779
20
-5.58121726596437
30
0
41
1
10
65.9174948573113
20
-5.55665164320351
30
0
41
1
10
65.8997614791068
20
-5.49161456355344
30
0
41
1
10
65.890920257212
20
-5.45114229681911
30
0
41
1
10
65.8730809520373
20
-5.35430771166
30
0
41
1
10
65.8640850159924
20
-5.29794631498461
30
0
41
1
10
65.852690874983
20
-5.21731029762611
30
0
41
1
10
65.8504047996855
20
-5.2006727926335
30
0
41
1
10
65.8458175610045
20
-5.16636632730982
30
0
41
1
10
65.8435163008556
20
-5.14869497651881
30
0
41
1
10
65.8366264770549
20
-5.09441700582278
30
0
41
1
10
65.8320394852399
20
-5.05645682360543
30
0
41
1
10
65.818297698439
20
-4.93734875575606
30
0
41
1
10
65.8091622658004
20
-4.85098467899201
30
0
41
1
10
65.7909581444065
20
-4.6645685007779
30
0
41
1
10
65.7818909175629
20
-4.56451613154303
30
0
41
1
10
65.7683369424884
20
-4.40407192785449
30
0
41
1
10
65.7615712071409
20
-4.32125423720541
30
0
41
1
10
65.7548150059895
20
-4.23448529863117
30
0
41
1
10
65.7503115588962
20
-4.17575197531681
30
0
41
1
10
65.7480579436346
20
-4.14591118383026
30
0
41
1
10
65.7368171874606
20
-3.994865375362
30
0
41
1
10
65.7279354192963
20
-3.86841915366915
30
0
41
1
10
65.7190745720276
20
-3.7364368892072
30
0
0
SPLINE
5
DF
100
AcDbEntity
8
1
62
256
6
ByLayer
370
13
48
1
60
0
100
AcDbSpline
70
4
71
3
72
9
73
5
40
0
40
0
40
0
40
0
40
0.130513772735534
40
1
40
1
40
1
40
1
41
1.04
10
65.1069886502921
20
-2.75535526054111
30
0
41
1.04
10
65.1160290946103
20
-2.87156147902461
30
0
41
1.04
10
65.1849060910754
20
-3.72612148791605
30
0
41
1.04
10
65.247922836059
20
-4.2299732555677
30
0
41
1.04
10
65.2991247268413
20
-4.44473438334893
30
0
0
SPLINE
5
E0
100
AcDbEntity
8
1
62
256
6
ByLayer
370
13
48
1
60
0
100
AcDbSpline
70
4
71
3
72
9
73
5
40
0
40
0
40
0
40
0
40
0.458729698505376
40
1
40
1
40
1
40
1
41
1
10
65.9053653381752
20
4.43224067522081
30
0
41
1
10
65.9343833782206
20
4.30684417831941
30
0
41
1
10
65.9976081525255
20
3.88762195987456
30
0
41
1
10
66.0621058408836
20
3.17096350292141
30
0
41
1
10
66.0973955971241
20
2.71715516241088
30
0
0
SPLINE
5
E1
100
AcDbEntity
8
1
62
256
6
ByLayer
370
18
48
1
60
0
100
AcDbSpline
70
4
71
3
72
30
73
26
40
0
40
0
40
0
40
0
40
0.125
40
0.125
40
0.25
40
0.25
40
0.374999999999999
40
0.374999999999999
40
0.406249999999999
40
0.406249999999999
40
0.437499999999999
40
0.437499999999999
40
0.499999999999999
40
0.499999999999999
40
0.625
40
0.625
40
0.75
40
0.75
40
0.8125
40
0.8125
40
0.84375
40
0.84375
40
0.875
40
0.875
40
1
40
1
40
1
40
1
41
1
10
65.2942978336968
20
3.80208307622098
30
0
41
1
10
65.2851667681461
20
3.93223039195627
30
0
41
1
10
65.2760815494406
20
4.05587934251332
30
0
41
1
10
65.2580248564276
20
4.29052758309697
30
0
41
1
10
65.2490744425855
20
4.40152676235664
30
0
41
1
10
65.2312482490572
20
4.61087953609925
30
0
41
1
10
65.2223663353714
20
4.70923359102315
30
0
41
1
10
65.211200062995
20
4.82406421813127
30
0
41
1
10
65.2089635335564
20
4.84662388383248
30
0
41
1
10
65.2044810843649
20
4.89092150588306
30
0
41
1
10
65.2022357056177
20
4.91265249522823
30
0
41
1
10
65.1955172755522
20
4.97626626233364
30
0
41
1
10
65.1910498916666
20
5.01669019463677
30
0
41
1
10
65.1776511182775
20
5.13211342915685
30
0
41
1
10
65.1687209927809
20
5.20127671643624
30
0
41
1
10
65.1507391745646
20
5.32428498135002
30
0
41
1
10
65.1416861790938
20
5.3781297690102
30
0
41
1
10
65.1279812623887
20
5.44729609797633
30
0
41
1
10
65.1233928541433
20
5.46841496400125
30
0
41
1
10
65.1164855987505
20
5.49714523590268
30
0
41
1
10
65.1141790720283
20
5.50623044431836
30
0
41
1
10
65.1095583647014
20
5.52340793820011
30
0
41
1
10
65.1072417825529
20
5.53150782389966
30
0
41
1
10
65.0956733722988
20
5.56939024457
30
0
41
1
10
65.0864796455991
20
5.59132142361702
30
0
41
1
10
65.0773334607772
20
5.60498107031327
30
0
0
SPLINE
5
E2
100
AcDbEntity
8
1
62
256
6
ByLayer
370
18
48
1
60
0
100
AcDbSpline
70
4
71
3
72
29
73
25
40
0
40
0
40
0
40
0
40
0.125
40
0.125
40
0.25
40
0.25
40
0.375
40
0.375
40
0.40625
40
0.40625
40
0.4375
40
0.4375
40
0.5
40
0.5
40
0.625000000000001
40
0.625000000000001
40
0.750000000000001
40
0.750000000000001
40
0.812500000000001
40
0.843750000000001
40
0.843750000000001
40
0.875000000000001
40
0.875000000000001
40
1
40
1
40
1
40
1
41
1
10
65.2713346099571
20
5.58437956504488
30
0
41
1
10
65.2803851406927
20
5.56401186486474
30
0
41
1
10
65.2893941139992
20
5.53552272506141
30
0
41
1
10
65.3074193226504
20
5.4627439517578
30
0
41
1
10
65.3164354443069
20
5.41845333361215
30
0
41
1
10
65.3345385782055
20
5.31408908896077
30
0
41
1
10
65.3436254343257
20
5.25401631432115
30
0
41
1
10
65.3550539401775
20
5.16881107447747
30
0
41
1
10
65.357343090099
20
5.15126323511262
30
0
41
1
10
65.3619287542053
20
5.11514324484341
30
0
41
1
10
65.3642260567472
20
5.09656305167596
30
0
41
1
10
65.3710928571213
20
5.03958112237129
30
0
41
1
10
65.3756493834413
20
4.99984577507411
30
0
41
1
10
65.3892586159249
20
4.87549366657237
30
0
41
1
10
65.3982512099471
20
4.78574198537217
30
0
41
1
10
65.4160845545457
20
4.59276707366593
30
0
41
1
10
65.4249296603342
20
4.48954358915154
30
0
41
1
10
65.438270613431
20
4.32451538741236
30
0
41
1
10
65.444958407831
20
4.23944894000212
30
0
41
1
10
65.4516975558263
20
4.1504985880344
30
0
41
1
10
65.4562040086375
20
4.09032625847743
30
0
41
1
10
65.4584661384728
20
4.05977629468458
30
0
41
1
10
65.469791329669
20
3.9051650513743
30
0
41
1
10
65.4788687301746
20
3.77598704225562
30
0
41
1
10
65.487998161904
20
3.64138369307327
30
0
0
SPLINE
5
E3
100
AcDbEntity
8
1
62
256
6
ByLayer
370
18
48
1
60
0
100
AcDbSpline
70
4
71
3
72
10
73
6
40
0
40
0
40
0
40
0
40
0.0296057678365832
40
0.492900142482974
40
1
40
1
40
1
40
1
41
1
10
72.59
20
-0.123039312382531
30
0
41
1
10
72.59
20
-0.145727434296475
30
0
41
1
10
72.5899999999999
20
-0.523555473048219
30
0
41
1
10
72.5899999999999
20
-1.29162222980432
30
0
41
1
10
72.5900000000002
20
-1.97158587043452
30
0
41
1
10
72.5900000000001
20
-2.29276679215468
30
0
0
SPLINE
5
E4
100
AcDbEntity
8
1
62
256
6
ByLayer
370
18
48
1
60
0
100
AcDbSpline
70
4
71
3
72
25
73
21
40
0
40
0
40
0
40
0
40
0.03125
40
0.03125
40
0.0624999999999999
40
0.0624999999999999
40
0.125
40
0.250000000000001
40
0.250000000000001
40
0.500000000000001
40
0.500000000000001
40
0.625000000000002
40
0.625000000000002
40
0.687500000000002
40
0.687500000000002
40
0.718750000000002
40
0.718750000000002
40
0.750000000000002
40
0.750000000000002
40
1
40
1
40
1
40
1
41
1
10
57.166752900647
20
3.53977428632302
30
0
41
1
10
57.1668080320407
20
3.52198015674162
30
0
41
1
10
57.1668776468789
20
3.50395030061512
30
0
41
1
10
57.1670438904439
20
3.46741196170899
30
0
41
1
10
57.1671405642983
20
3.44890149000997
30
0
41
1
10
57.167466418632
20
3.39290869248359
30
0
41
1
10
57.1682627640799
20
3.27882150455096
30
0
41
1
10
57.1694056925129
20
3.15848345675653
30
0
41
1
10
57.1719570504001
20
2.90950923564446
30
0
41
1
10
57.1739613368427
20
2.73245734191144
30
0
41
1
10
57.1778427165855
20
2.45071657471542
30
0
41
1
10
57.1792785162449
20
2.35409470032772
30
0
41
1
10
57.1816590630565
20
2.20501685226495
30
0
41
1
10
57.1824901533207
20
2.15463245085667
30
0
41
1
10
57.1837931546674
20
2.07799917962612
30
0
41
1
10
57.1842373427054
20
2.05225221172662
30
0
41
1
10
57.1851406162027
20
2.0006153320235
30
0
41
1
10
57.1855999695894
20
1.97470884595197
30
0
41
1
10
57.189801297398
20
1.74076464496466
30
0
41
1
10
57.1940138478964
20
1.52725838553585
30
0
41
1
10
57.1985567444032
20
1.30833704821816
30
0
0
SPLINE
5
E5
100
AcDbEntity
8
1
62
256
6
ByLayer
370
18
48
1
60
0
100
AcDbSpline
70
4
71
3
72
16
73
12
40
0
40
0
40
0
40
0
40
0.125
40
0.125
40
0.25
40
0.25
40
0.5
40
0.5
40
0.75
40
0.75
40
1
40
1
40
1
40
1
41
1
10
72.0004564255904
20
-2.25147006958611
30
0
41
1
10
72.0012214106382
20
-2.18864195500859
30
0
41
1
10
72.0016393557306
20
-2.12517607890504
30
0
41
1
10
72.0020753362722
20
-1.99683457125073
30
0
41
1
10
72.0020941135144
20
-1.93189650289057
30
0
41
1
10
72.0018343366481
20
-1.73594053282804
30
0
41
1
10
72.0013222520689
20
-1.60346394579952
30
0
41
1
10
71.999598693941
20
-1.33492423477304
30
0
41
1
10
71.9983502494597
20
-1.19887169110157
30
0
41
1
10
71.9948929799932
20
-0.923203604002339
30
0
41
1
10
71.9926576304927
20
-0.783588382460181
30
0
41
1
10
71.9899528270898
20
-0.642114727033601
30
0
0
SPLINE
5
E6
100
AcDbEntity
8
1
62
256
6
ByLayer
370
18
48
1
60
0
100
AcDbSpline
70
4
71
3
72
25
73
21
40
0
40
0
40
0
40
0
40
0.125
40
0.125
40
0.15625
40
0.15625
40
0.1875
40
0.25
40
0.25
40
0.375
40
0.5
40
0.5
40
0.625
40
0.625
40
0.6875
40
0.6875
40
0.75
40
0.75
40
0.875
40
1
40
1
40
1
40
1
41
1
10
70.3593220682492
20
-0.916933441566641
30
0
41
1
10
70.3507717907505
20
-0.793969911246791
30
0
41
1
10
70.3422152125711
20
-0.670151160179728
30
0
41
1
10
70.3314798114604
20
-0.514310377843969
30
0
41
1
10
70.3293304704995
20
-0.483072508742993
30
0
41
1
10
70.3250429516093
20
-0.420677444755199
30
0
41
1
10
70.3186238598441
20
-0.327145209620682
30
0
41
1
10
70.3122442885276
20
-0.233791771835456
30
0
41
1
10
70.299526315433
20
-0.047319998768387
30
0
41
1
10
70.2826607109064
20
0.200682126736268
30
0
41
1
10
70.2657667231099
20
0.447433757611861
30
0
41
1
10
70.2488244211581
20
0.693548864678633
30
0
41
1
10
70.2403206472504
20
0.816287241329832
30
0
41
1
10
70.2275766464416
20
0.999901476664263
30
0
41
1
10
70.2233310954235
20
1.06113355685559
30
0
41
1
10
70.2149768393548
20
1.18239333612249
30
0
41
1
10
70.2108559468589
20
1.24252396456458
30
0
41
1
10
70.1986147102075
20
1.42144593369514
30
0
41
1
10
70.1826156990525
20
1.65609567073059
30
0
41
1
10
70.1667843637009
20
1.88304383668503
30
0
41
1
10
70.1587927314597
20
1.99456888517142
30
0
0
SPLINE
5
E7
100
AcDbEntity
8
1
62
256
6
ByLayer
370
18
48
1
60
0
100
AcDbSpline
70
4
71
3
72
22
73
18
40
0
40
0
40
0
40
0
40
0.0312500000000001
40
0.0312500000000001
40
0.0625000000000002
40
0.0625000000000002
40
0.125000000000001
40
0.125000000000001
40
0.25
40
0.25
40
0.375
40
0.375
40
0.5
40
0.5
40
0.75
40
0.75
40
1
40
1
40
1
40
1
41
1
10
71.9899528270896
20
-0.642114727033714
30
0
41
1
10
71.9874682835248
20
-0.659578022688606
30
0
41
1
10
71.9855084689525
20
-0.677056549307537
30
0
41
1
10
71.9821097037548
20
-0.712008245643915
30
0
41
1
10
71.9806850641349
20
-0.729482384557372
30
0
41
1
10
71.9769313799876
20
-0.781879022669813
30
0
41
1
10
71.975116082479
20
-0.816775156776487
30
0
41
1
10
71.9707416473197
20
-0.921292852425211
30
0
41
1
10
71.9692389536808
20
-0.990743364241496
30
0
41
1
10
71.9673986815494
20
-1.12908292173574
30
0
41
1
10
71.9671141948168
20
-1.19805610088792
30
0
41
1
10
71.9672087069432
20
-1.33453267818862
30
0
41
1
10
71.9675955199234
20
-1.40213309157576
30
0
41
1
10
71.9692949384414
20
-1.6030399470188
30
0
41
1
10
71.9710832782271
20
-1.73445580555878
30
0
41
1
10
71.974969047003
20
-1.99225139680206
30
0
41
1
10
71.9772335544832
20
-2.11863399159637
30
0
41
1
10
71.9800365505587
20
-2.24244430432131
30
0
0
SPLINE
5
E8
100
AcDbEntity
8
1
62
256
6
ByLayer
370
18
48
1
60
0
100
AcDbSpline
70
4
71
3
72
8
73
4
40
0
40
0
40
0
40
0
40
1
40
1
40
1
40
1
41
1
10
71.9899528270896
20
-0.642114727033686
30
0
41
1
10
71.9899525632267
20
-0.290228609800891
30
0
41
1
10
71.989961892544
20
0.0669886190277396
30
0
41
1
10
71.9899632712979
20
0.417895490818523
30
0
0
SPLINE
5
E9
100
AcDbEntity
8
1
62
256
6
ByLayer
370
13
48
1
60
0
100
AcDbSpline
70
4
71
3
72
10
73
6
40
0
40
0
40
0
40
0
40
0.446664900446635
40
0.892214263639147
40
1
40
1
40
1
40
1
41
1
10
69.7523011704025
20
2.36766548124268
30
0
41
1
10
69.7816168610871
20
1.9666706784613
30
0
41
1
10
69.839701930806
20
1.099735858759
30
0
41
1
10
69.90350365891
20
0.0734337810179966
30
0
41
1
10
69.9380268801594
20
-0.474924826539365
30
0
41
1
10
69.9447253032911
20
-0.58083487551599
30
0
0
SPLINE
5
EA
100
AcDbEntity
8
1
62
256
6
ByLayer
370
13
48
1
60
0
100
AcDbSpline
70
4
71
3
72
9
73
5
40
0
40
0
40
0
40
0
40
0.275817560715335
40
1
40
1
40
1
40
1
41
1
10
64.6231828274451
20
-2.39300687822171
30
0
41
1
10
64.6419409800693
20
-2.64927350888496
30
0
41
1
10
64.709962415859
20
-3.52704120088029
30
0
41
1
10
64.7724007861527
20
-4.06963810124353
30
0
41
1
10
64.8151409458764
20
-4.30969851903808
30
0
0
SPLINE
5
EB
100
AcDbEntity
8
1
62
256
6
ByLayer
370
13
48
1
60
0
100
AcDbSpline
70
4
71
3
72
10
73
6
40
0
40
0
40
0
40
0
40
0.306407517583583
40
0.987044667772254
40
1
40
1
40
1
40
1
41
1.04
10
66.3894437421496
20
4.29331926211131
30
0
41
1.04
10
66.4087416136462
20
4.18211054510193
30
0
41
1.04
10
66.4710204287022
20
3.73054750114702
30
0
41
1.04
10
66.5353602918686
20
2.98154848022432
30
0
41
1.04
10
66.5806045063533
20
2.36277539698097
30
0
41
1.04
10
66.5814498201789
20
2.35118344305429
30
0
0
SPLINE
5
EC
100
AcDbEntity
8
1
62
256
6
ByLayer
370
18
48
1
60
0
100
AcDbSpline
70
4
71
3
72
28
73
24
40
0
40
0
40
0
40
0
40
0.125000000000001
40
0.125000000000001
40
0.250000000000002
40
0.250000000000002
40
0.375000000000003
40
0.375000000000003
40
0.406250000000003
40
0.406250000000003
40
0.437500000000002
40
0.437500000000002
40
0.500000000000003
40
0.500000000000003
40
0.625000000000002
40
0.750000000000001
40
0.750000000000001
40
0.812500000000001
40
0.843750000000001
40
0.843750000000001
40
0.875000000000001
40
0.875000000000001
40
1
40
1
40
1
40
1
41
1
10
63.9893765690503
20
-2.12014800587446
30
0
41
1
10
63.9986213358651
20
-2.28380433620723
30
0
41
1
10
64.0077844008358
20
-2.44321275437741
30
0
41
1
10
64.0257356034527
20
-2.75377205181502
30
0
41
1
10
64.0344340965868
20
-2.90492619828419
30
0
41
1
10
64.0517760631658
20
-3.19896765720921
30
0
41
1
10
64.0604955666255
20
-3.34185216702161
30
0
41
1
10
64.0717267132728
20
-3.51514485970876
30
0
41
1
10
64.0739879957532
20
-3.54953725914584
30
0
41
1
10
64.078541071008
20
-3.61778416448595
30
0
41
1
10
64.0808333833632
20
-3.65164454754472
30
0
41
1
10
64.0877152286562
20
-3.75187727075519
30
0
41
1
10
64.0923214134219
20
-3.81708555310169
30
0
41
1
10
64.1061247922279
20
-4.0079613177694
30
0
41
1
10
64.1244997901206
20
-4.24981848647883
30
0
41
1
10
64.1426944136834
20
-4.46681234819866
30
0
41
1
10
64.1563017644677
20
-4.62014428067837
30
0
41
1
10
64.1630968688187
20
-4.69445304887122
30
0
41
1
10
64.1698933021235
20
-4.76517321899607
30
0
41
1
10
64.1744266547676
20
-4.81151402667081
30
0
41
1
10
64.1766966261142
20
-4.83430230478757
30
0
41
1
10
64.1880311691694
20
-4.945943356252
30
0
41
1
10
64.1970223294624
20
-5.02766012609138
30
0
41
1
10
64.2060165144936
20
-5.1018632738749
30
0
0
SPLINE
5
ED
100
AcDbEntity
8
1
62
256
6
ByLayer
370
18
48
1
60
0
100
AcDbSpline
70
4
71
3
72
27
73
23
40
0
40
0
40
0
40
0
40
0.125
40
0.25
40
0.25
40
0.375
40
0.375
40
0.40625
40
0.40625
40
0.4375
40
0.4375
40
0.499999999999999
40
0.499999999999999
40
0.624999999999999
40
0.749999999999999
40
0.749999999999999
40
0.812499999999999
40
0.84375
40
0.84375
40
0.875
40
0.875
40
1
40
1
40
1
40
1
41
1
10
64.0116227420688
20
-5.00772627345597
30
0
41
1
10
64.0025932963689
20
-4.92742603705128
30
0
41
1
10
63.9848879652417
20
-4.75309951807381
30
0
41
1
10
63.9670590728714
20
-4.55207103133895
30
0
41
1
10
63.9490668272142
20
-4.33770531075496
30
0
41
1
10
63.9400111884892
20
-4.22385395353388
30
0
41
1
10
63.928636387582
20
-4.07298746346399
30
0
41
1
10
63.9263580465479
20
-4.04238565781742
30
0
41
1
10
63.9217936928376
20
-3.98031588894622
30
0
41
1
10
63.9195079988341
20
-3.9488509564996
30
0
41
1
10
63.9126745615461
20
-3.8536612365202
30
0
41
1
10
63.9081382561462
20
-3.78897691071424
30
0
41
1
10
63.8945731392937
20
-3.59131747017389
30
0
41
1
10
63.8766037749449
20
-3.31816997710951
30
0
41
1
10
63.8586997151369
20
-3.02613952588393
30
0
41
1
10
63.8452267822621
20
-2.79996965210117
30
0
41
1
10
63.838479017886
20
-2.68509508383255
30
0
41
1
10
63.8317005923064
20
-2.56749663108087
30
0
41
1
10
63.8271732489349
20
-2.48848597915028
30
0
41
1
10
63.8249030586602
20
-2.44863376218055
30
0
41
1
10
63.8135584460895
20
-2.2483800347199
30
0
41
1
10
63.8045178396629
20
-2.08528291082504
30
0
41
1
10
63.795465919328
20
-1.91932980200738
30
0
0
SPLINE
5
EE
100
AcDbEntity
8
1
62
256
6
ByLayer
370
13
48
1
60
0
100
AcDbSpline
70
4
71
3
72
9
73
5
40
0
40
0
40
0
40
0
40
0.926617830477575
40
1
40
1
40
1
40
1
41
1.04
10
63.1835404533592
20
-1.1988525515556
30
0
41
1.04
10
63.2425571432838
20
-2.10793536199559
30
0
41
1.04
10
63.3053574324302
20
-2.99484483244445
30
0
41
1.04
10
63.3705479183693
20
-3.63899589019674
30
0
41
1.04
10
63.3753407884055
20
-3.68485117058024
30
0
0
SPLINE
5
EF
100
AcDbEntity
8
1
62
256
6
ByLayer
370
18
48
1
60
0
100
AcDbSpline
70
4
71
3
72
26
73
22
40
0
40
0
40
0
40
0
40
0.125000000000001
40
0.250000000000002
40
0.250000000000002
40
0.281250000000002
40
0.281250000000002
40
0.312500000000002
40
0.375000000000001
40
0.375000000000001
40
0.500000000000001
40
0.500000000000001
40
0.625000000000001
40
0.625000000000001
40
0.750000000000001
40
0.750000000000001
40
0.812500000000001
40
0.812500000000001
40
0.875000000000001
40
0.875000000000001
40
1
40
1
40
1
40
1
41
1
10
69.7363152176964
20
2.39732332758186
30
0
41
1
10
69.7446558744744
20
2.28702986038465
30
0
41
1
10
69.761413182926
20
2.06117544460909
30
0
41
1
10
69.7783191920595
20
1.82482824919398
30
0
41
1
10
69.7889347345042
20
1.67374520443946
30
0
41
1
10
69.791062005581
20
1.64333540234691
30
0
41
1
10
69.7953034276384
20
1.58243636294489
30
0
41
1
10
69.8016515714862
20
1.49088814072329
30
0
41
1
10
69.8079582657038
20
1.39874554905478
30
0
41
1
10
69.8205171759261
20
1.21367456209833
30
0
41
1
10
69.8288193182855
20
1.0892430300824
30
0
41
1
10
69.845187252265
20
0.838324793083274
30
0
41
1
10
69.8532784595276
20
0.711839931878529
30
0
41
1
10
69.869437065739
20
0.456822876216251
30
0
41
1
10
69.8775046655418
20
0.328290872039986
30
0
41
1
10
69.8896949347399
20
0.133917386270554
30
0
41
1
10
69.8937750905073
20
0.0688301857950933
30
0
41
1
10
69.9019231680468
20
-0.06098038671837
30
0
41
1
10
69.9059979658357
20
-0.125813189260242
30
0
41
1
10
69.9182410429032
20
-0.32009277439036
30
0
41
1
10
69.9264345828835
20
-0.44931971393865
30
0
41
1
10
69.9346687311943
20
-0.578251478287797
30
0
0
SPLINE
5
F0
100
AcDbEntity
8
1
62
256
6
ByLayer
370
18
48
1
60
0
100
AcDbSpline
70
4
71
3
72
27
73
23
40
0
40
0
40
0
40
0
40
0.250000000000001
40
0.250000000000001
40
0.281250000000001
40
0.281250000000001
40
0.312500000000001
40
0.312500000000001
40
0.375000000000001
40
0.375000000000001
40
0.5
40
0.5
40
0.624999999999999
40
0.624999999999999
40
0.749999999999998
40
0.749999999999998
40
0.781249999999998
40
0.781249999999998
40
0.812499999999998
40
0.874999999999999
40
0.874999999999999
40
1
40
1
40
1
40
1
41
1
10
68.7702648793044
20
0.416838328459306
30
0
41
1
10
68.7551919217148
20
0.711256820890355
30
0
41
1
10
68.7401225544321
20
1.00214590107407
30
0
41
1
10
68.7230399895591
20
1.32542416000811
30
0
41
1
10
68.7211402493874
20
1.36128841947746
30
0
41
1
10
68.7173367434723
20
1.43290500130405
30
0
41
1
10
68.7154331226699
20
1.46865429605538
30
0
41
1
10
68.709740956503
20
1.57524846886147
30
0
41
1
10
68.7059624824868
20
1.64560350835893
30
0
41
1
10
68.6946639526279
20
1.85457940857006
30
0
41
1
10
68.6871815939808
20
1.99111619625802
30
0
41
1
10
68.6722345934385
20
2.25867928994262
30
0
41
1
10
68.6647567359963
20
2.38969492279182
30
0
41
1
10
68.6497902383458
20
2.64616579202834
30
0
41
1
10
68.6423177621083
20
2.77163128627703
30
0
41
1
10
68.633014660443
20
2.92492444816423
30
0
41
1
10
68.6311532279573
20
2.95543509892596
30
0
41
1
10
68.6274396111031
20
3.01593813269707
30
0
41
1
10
68.6218848413751
20
3.10588716010605
30
0
41
1
10
68.6163649601756
20
3.19343729532238
30
0
41
1
10
68.6053399303166
20
3.36536074281636
30
0
41
1
10
68.5980076066465
20
3.47574677131235
30
0
41
1
10
68.5906144170136
20
3.58186310649697
30
0
0
SPLINE
5
F1
100
AcDbEntity
8
1
62
256
6
ByLayer
370
13
48
1
60
0
100
AcDbSpline
70
4
71
3
72
9
73
5
40
0
40
0
40
0
40
0
40
0.344249400446202
40
1
40
1
40
1
40
1
41
1.04
10
68.3129298972974
20
3.37489319349767
30
0
41
1.04
10
68.3353503173524
20
3.13162125542134
30
0
41
1.04
10
68.4001014185461
20
2.34136387313555
30
0
41
1.04
10
68.4635024806855
20
1.37570983897134
30
0
41
1.04
10
68.505109409762
20
0.720034844249294
30
0
0
SPLINE
5
F2
100
AcDbEntity
8
1
62
256
6
ByLayer
370
13
48
1
60
0
100
AcDbSpline
70
4
71
3
72
9
73
5
40
0
40
0
40
0
40
0
40
0.495481694017472
40
1
40
1
40
1
40
1
41
1
10
67.8288254431571
20
3.65843032479984
30
0
41
1
10
67.8611208296617
20
3.34527211865949
30
0
41
1
10
67.9258159520892
20
2.5801661511131
30
0
41
1
10
67.9891717286082
20
1.64276380228816
30
0
41
1
10
68.0210704539381
20
1.14984197468607
30
0
0
SPLINE
5
F3
100
AcDbEntity
8
1
62
256
6
ByLayer
370
18
48
1
60
0
100
AcDbSpline
70
4
71
3
72
27
73
23
40
0
40
0
40
0
40
0
40
0.125
40
0.25
40
0.25
40
0.375
40
0.375
40
0.40625
40
0.40625
40
0.4375
40
0.4375
40
0.5
40
0.5
40
0.625
40
0.749999999999999
40
0.749999999999999
40
0.812499999999999
40
0.843749999999999
40
0.843749999999999
40
0.875
40
0.875
40
1
40
1
40
1
40
1
41
1
10
67.2179146134017
20
2.00078067518964
30
0
41
1
10
67.2088162404026
20
2.1659830655168
30
0
41
1
10
67.1907826995595
20
2.48823507775796
30
0
41
1
10
67.1728548859963
20
2.79460490996135
30
0
41
1
10
67.1549802874864
20
3.09303869686312
30
0
41
1
10
67.1460707192742
20
3.23828797847517
30
0
41
1
10
67.1348455709974
20
3.41475576535589
30
0
41
1
10
67.1325961948405
20
3.44979409492177
30
0
41
1
10
67.1280859572277
20
3.51935472025411
30
0
41
1
10
67.1258255367368
20
3.55386894249085
30
0
41
1
10
67.1190595158605
20
3.65608550375029
30
0
41
1
10
67.1145569483181
20
3.72264948253803
30
0
41
1
10
67.1010483806633
20
3.91768530814571
30
0
41
1
10
67.0830300561415
20
4.16533685851485
30
0
41
1
10
67.0648430093664
20
4.38859657100551
30
0
41
1
10
67.0511429504995
20
4.54680536238973
30
0
41
1
10
67.0442789670599
20
4.62359706051592
30
0
41
1
10
67.0374044380076
20
4.69686806404181
30
0
41
1
10
67.0328209717709
20
4.74492470409376
30
0
41
1
10
67.0305269370611
20
4.76858171132946
30
0
41
1
10
67.0190866713916
20
4.88453640746155
30
0
41
1
10
67.0100389080517
20
4.96976171303152
30
0
41
1
10
67.0010208759581
20
5.04753995191234
30
0
0
SPLINE
5
F4
100
AcDbEntity
8
1
62
256
6
ByLayer
370
18
48
1
60
0
100
AcDbSpline
70
4
71
3
72
28
73
24
40
0
40
0
40
0
40
0
40
0.125000000000001
40
0.125000000000001
40
0.250000000000003
40
0.375000000000005
40
0.375000000000005
40
0.406250000000005
40
0.406250000000005
40
0.437500000000005
40
0.437500000000005
40
0.500000000000004
40
0.500000000000004
40
0.625000000000002
40
0.625000000000002
40
0.75
40
0.75
40
0.812499999999999
40
0.843749999999999
40
0.843749999999999
40
0.874999999999999
40
0.874999999999999
40
1
40
1
40
1
40
1
41
1
10
67.1954694863236
20
4.94968385754677
30
0
41
1
10
67.2045668756448
20
4.86583250683756
30
0
41
1
10
67.2135527595904
20
4.77522248467824
30
0
41
1
10
67.2313698074621
20
4.58085177693741
30
0
41
1
10
67.2490781780157
20
4.37332913410145
30
0
41
1
10
67.266989521807
20
4.13954681882782
30
0
41
1
10
67.2783336819013
20
3.98502024416777
30
0
41
1
10
67.28060980179
20
3.95369339724317
30
0
41
1
10
67.2851779719605
20
3.89018774542967
30
0
41
1
10
67.2874705270373
20
3.85800077939319
30
0
41
1
10
67.294336604417
20
3.7606765680579
30
0
41
1
10
67.2989109398383
20
3.69460845999913
30
0
41
1
10
67.3126268386077
20
3.49291348945081
30
0
41
1
10
67.321764786942
20
3.353803720988
30
0
41
1
10
67.3399566474465
20
3.06644318108266
30
0
41
1
10
67.3489835168861
20
2.91819103713812
30
0
41
1
10
67.3624880447071
20
2.68889240007712
30
0
41
1
10
67.3692352627615
20
2.57251036308048
30
0
41
1
10
67.3759976131194
20
2.45349174334936
30
0
41
1
10
67.3805117041821
20
2.37355399354428
30
0
41
1
10
67.3827738367037
20
2.33325047437793
30
0
41
1
10
67.3940777480184
20
2.13073136442583
30
0
41
1
10
67.4030763983055
20
1.96596142088825
30
0
41
1
10
67.4120977507678
20
1.79847069818507
30
0
0
SPLINE
5
F5
100
AcDbEntity
8
1
62
256
6
ByLayer
370
13
48
1
60
0
100
AcDbSpline
70
4
71
3
72
10
73
6
40
0
40
0
40
0
40
0
40
0.200788983582993
40
0.886120392940686
40
1
40
1
40
1
40
1
41
1.04
10
57.4131940906383
20
3.52158942521557
30
0
41
1.04
10
57.4255364720453
20
3.3950560854187
30
0
41
1.04
10
57.4804452592616
20
2.78999080462097
30
0
41
1.04
10
57.5444539219327
20
1.88350828420486
30
0
41
1.04
10
57.5968192704164
20
1.0715534361708
30
0
41
1.04
10
57.6043107850207
20
0.954399745450947
30
0
0
SPLINE
5
F6
100
AcDbEntity
8
1
62
256
6
ByLayer
370
13
48
1
60
0
100
AcDbSpline
70
4
71
3
72
9
73
5
40
0
40
0
40
0
40
0
40
0.680491897358967
40
1
40
1
40
1
40
1
41
1.04
10
61.2600807478843
20
0.526144050440672
30
0
41
1.04
10
61.3039453746994
20
-0.168630286570512
30
0
41
1.04
10
61.3681857480905
20
-1.20907649942432
30
0
41
1.04
10
61.4314560486012
20
-2.12657941101478
30
0
41
1.04
10
61.451678598328
20
-2.4021932350099
30
0
0
SPLINE
5
F7
100
AcDbEntity
8
1
62
256
6
ByLayer
370
18
48
1
60
0
100
AcDbSpline
70
4
71
3
72
28
73
24
40
0
40
0
40
0
40
0
40
0.125
40
0.249999999999999
40
0.374999999999999
40
0.374999999999999
40
0.406249999999999
40
0.406249999999999
40
0.437499999999999
40
0.437499999999999
40
0.499999999999999
40
0.499999999999999
40
0.624999999999999
40
0.624999999999999
40
0.749999999999999
40
0.749999999999999
40
0.812499999999999
40
0.812499999999999
40
0.843749999999999
40
0.843749999999999
40
0.874999999999999
40
0.874999999999999
40
1
40
1
40
1
40
1
41
1
10
62.0884972516521
20
-3.708051695477
30
0
41
1
10
62.079436292312
20
-3.57524437802726
30
0
41
1
10
62.0613912652713
20
-3.30046766045834
30
0
41
1
10
62.0343127697959
20
-2.86155963248342
30
0
41
1
10
62.0161531389822
20
-2.55114614036017
30
0
41
1
10
62.0047555488409
20
-2.35142965639665
30
0
41
1
10
62.002473701037
20
-2.31120034521442
30
0
41
1
10
61.9979052221944
20
-2.23016358465151
30
0
41
1
10
61.9956186492256
20
-2.18935628075542
30
0
41
1
10
61.9887884107416
20
-2.06672094047178
30
0
41
1
10
61.9842618983083
20
-1.98446269088547
30
0
41
1
10
61.9707634478702
20
-1.73621107432655
30
0
41
1
10
61.9618831971467
20
-1.56874346693118
30
0
41
1
10
61.9441201463388
20
-1.22995138981551
30
0
41
1
10
61.9352357138032
20
-1.05862695638044
30
0
41
1
10
61.9217822214884
20
-0.798726213154595
30
0
41
1
10
61.9172772429372
20
-0.711606136448239
30
0
41
1
10
61.9104795121331
20
-0.58018596332559
30
0
41
1
10
61.9082069305878
20
-0.536255841238187
30
0
41
1
10
61.9036473040584
20
-0.448146401383866
30
0
41
1
10
61.9013579608058
20
-0.403922719600558
30
0
41
1
10
61.8899033112405
20
-0.182758000020158
30
0
41
1
10
61.880730414038
20
-0.006054435582854
30
0
41
1
10
61.8715556377547
20
0.170424118700168
30
0
0
SPLINE
5
F8
100
AcDbEntity
8
1
62
256
6
ByLayer
370
18
48
1
60
0
100
AcDbSpline
70
4
71
3
72
28
73
24
40
0
40
0
40
0
40
0
40
0.125000000000001
40
0.125000000000001
40
0.250000000000002
40
0.250000000000002
40
0.375000000000003
40
0.375000000000003
40
0.406250000000003
40
0.406250000000003
40
0.437500000000003
40
0.437500000000003
40
0.500000000000003
40
0.500000000000003
40
0.625000000000003
40
0.750000000000003
40
0.750000000000003
40
0.812500000000003
40
0.843750000000002
40
0.843750000000002
40
0.875000000000002
40
0.875000000000002
40
1
40
1
40
1
40
1
41
1
10
62.0658084905115
20
-0.0450266595964877
30
0
41
1
10
62.0748127273926
20
-0.221683902700647
30
0
41
1
10
62.0837066124754
20
-0.397074417311103
30
0
41
1
10
62.1015195943069
20
-0.745378064374933
30
0
41
1
10
62.1104385464105
20
-0.918291071023731
30
0
41
1
10
62.1283636499248
20
-1.26163897813612
30
0
41
1
10
62.1373558998679
20
-1.43207471036268
30
0
41
1
10
62.1486771684752
20
-1.64352986662925
30
0
41
1
10
62.1509455586526
20
-1.68574124951883
30
0
41
1
10
62.1554919219406
20
-1.77000296836414
30
0
41
1
10
62.1577704650608
20
-1.81206319568119
30
0
41
1
10
62.1645859121566
20
-1.93733012510117
30
0
41
1
10
62.1691147521403
20
-2.01984846268732
30
0
41
1
10
62.1826720227228
20
-2.26447844703506
30
0
41
1
10
62.2006710642821
20
-2.58286440209301
30
0
41
1
10
62.2186619595939
20
-2.88592863178138
30
0
41
1
10
62.2322036787074
20
-3.10742500607992
30
0
41
1
10
62.2389866449779
20
-3.21672041150529
30
0
41
1
10
62.2457976565507
20
-3.32380412728327
30
0
41
1
10
62.2503457177272
20
-3.39469655178155
30
0
41
1
10
62.2526255252435
20
-3.42992632250352
30
0
41
1
10
62.2640200348978
20
-3.60442230792287
30
0
41
1
10
62.2730906848757
20
-3.73828953756245
30
0
41
1
10
62.2821542947912
20
-3.86649003773803
30
0
0
SPLINE
5
F9
100
AcDbEntity
8
1
62
256
6
ByLayer
370
13
48
1
60
0
100
AcDbSpline
70
4
71
3
72
9
73
5
40
0
40
0
40
0
40
0
40
0.0488776930027901
40
1
40
1
40
1
40
1
41
1
10
62.6997149505291
20
-0.773438762324901
30
0
41
1
10
62.7028493969189
20
-0.822722186046263
30
0
41
1
10
62.7669235442725
20
-1.82741885195128
30
0
41
1
10
62.8296641403887
20
-2.74395683557535
30
0
41
1
10
62.8912552413498
20
-3.40477114325336
30
0
0
SPLINE
5
FA
100
AcDbEntity
8
1
62
256
6
ByLayer
370
18
48
1
60
0
100
AcDbSpline
70
4
71
3
72
25
73
21
40
0
40
0
40
0
40
0
40
0.125
40
0.125
40
0.1875
40
0.1875
40
0.25
40
0.25
40
0.375000000000001
40
0.375000000000001
40
0.500000000000001
40
0.625000000000001
40
0.625000000000001
40
0.687500000000001
40
0.687500000000001
40
0.750000000000001
40
0.750000000000001
40
0.875
40
0.875
40
1
40
1
40
1
40
1
41
1
10
58.0144590070792
20
0.506151751788138
30
0
41
1
10
58.005100337272
20
0.663037272352909
30
0
41
1
10
57.9957254757783
20
0.819267412929008
30
0
41
1
10
57.9815760399026
20
1.05260973670491
30
0
41
1
10
57.9768453011046
20
1.13022313229928
30
0
41
1
10
57.9673487741256
20
1.28510897232999
30
0
41
1
10
57.9625744953718
20
1.36251581709774
30
0
41
1
10
57.9483359913957
20
1.59194366595014
30
0
41
1
10
57.9389244073393
20
1.74183845797231
30
0
41
1
10
57.9201034036237
20
2.03566048968349
30
0
41
1
10
57.9012814861027
20
2.32351367807215
30
0
41
1
10
57.8821997916225
20
2.59943408225109
30
0
41
1
10
57.8677369052947
20
2.80179527922712
30
0
41
1
10
57.8628881411194
20
2.86852548667713
30
0
41
1
10
57.8531513867914
20
3.00025699453869
30
0
41
1
10
57.8482951903832
20
3.06482937307294
30
0
41
1
10
57.833769639247
20
3.2547437874419
30
0
41
1
10
57.8241398566408
20
3.37629047171552
30
0
41
1
10
57.8051013475479
20
3.60948117166299
30
0
41
1
10
57.795720529321
20
3.72112859633265
30
0
41
1
10
57.786360830935
20
3.82779141990861
30
0
0
SPLINE
5
FB
100
AcDbEntity
8
1
62
256
6
ByLayer
370
13
48
1
60
0
100
AcDbSpline
70
4
71
3
72
9
73
5
40
0
40
0
40
0
40
0
40
0.242652180600688
40
1
40
1
40
1
40
1
41
1
10
58.8528420585334
20
2.55158273572923
30
0
41
1
10
58.8685383522509
20
2.34268933488295
30
0
41
1
10
58.9337925466892
20
1.42770750571836
30
0
41
1
10
58.9970545913677
20
0.40314394998984
30
0
41
1
10
59.0439071787249
20
-0.342882995834344
30
0
0
SPLINE
5
FC
100
AcDbEntity
8
1
62
256
6
ByLayer
370
18
48
1
60
0
100
AcDbSpline
70
4
71
3
72
28
73
24
40
0
40
0
40
0
40
0
40
0.125000000000001
40
0.125000000000001
40
0.250000000000003
40
0.250000000000003
40
0.375000000000004
40
0.375000000000004
40
0.406250000000004
40
0.406250000000004
40
0.437500000000004
40
0.437500000000004
40
0.500000000000003
40
0.500000000000003
40
0.625000000000002
40
0.750000000000001
40
0.750000000000001
40
0.875000000000001
40
0.875000000000001
40
0.90625
40
0.90625
40
0.9375
40
1
40
1
40
1
40
1
41
1
10
58.4091445731461
20
3.43092282275086
30
0
41
1
10
58.4171826556902
20
3.30825837639981
30
0
41
1
10
58.4251383409598
20
3.18156808189227
30
0
41
1
10
58.4411251775457
20
2.9203600913086
30
0
41
1
10
58.4491933118503
20
2.78584635132967
30
0
41
1
10
58.465589207226
20
2.50901474293073
30
0
41
1
10
58.4739179435811
20
2.36669761696416
30
0
41
1
10
58.4842857893232
20
2.183778210642
30
0
41
1
10
58.4863552334192
20
2.14694242515887
30
0
41
1
10
58.4904822669941
20
2.07276146040826
30
0
41
1
10
58.4925420941802
20
2.03538875017713
30
0
41
1
10
58.4986793841217
20
1.92306843251856
30
0
41
1
10
58.5027242414552
20
1.84774886927235
30
0
41
1
10
58.5147567917699
20
1.6204987108915
30
0
41
1
10
58.5305287559843
20
1.31405988521308
30
0
41
1
10
58.5461496115975
20
1.0008940997831
30
0
41
1
10
58.5618704206745
20
0.684356411630091
30
0
41
1
10
58.5697811917833
20
0.524401906015612
30
0
41
1
10
58.5798230720047
20
0.322292034926818
30
0
41
1
10
58.581839308823
20
0.281756038765735
30
0
41
1
10
58.5858679589146
20
0.200882160241577
30
0
41
1
10
58.5919128628179
20
0.0797127096727195
30
0
41
1
10
58.5979702762666
20
-0.0410367609949276
30
0
41
1
10
58.6020179245565
20
-0.121352349095247
30
0
0
SPLINE
5
FD
100
AcDbEntity
8
1
62
256
6
ByLayer
370
18
48
1
60
0
100
AcDbSpline
70
4
71
3
72
14
73
10
40
0
40
0
40
0
40
0
40
0.25
40
0.25
40
0.5
40
0.5
40
0.75
40
0.75
40
1
40
1
40
1
40
1
41
1
10
66.1294746999142
20
-5.61344020332675
30
0
41
1
10
66.1792317056543
20
-5.53286493728805
30
0
41
1
10
66.2292203499307
20
-5.4513385028813
30
0
41
1
10
66.3297464052761
20
-5.28639707691354
30
0
41
1
10
66.3803166038172
20
-5.20292770839609
30
0
41
1
10
66.4819206150257
20
-5.0343906562095
30
0
41
1
10
66.5329543834218
20
-4.94932358991153
30
0
41
1
10
66.6354668307088
20
-4.77777302449388
30
0
41
1
10
66.6869051262069
20
-4.69135948839818
30
0
41
1
10
66.7385788550345
20
-4.60427577558909
30
0
0
SPLINE
5
FE
100
AcDbEntity
8
1
62
256
6
ByLayer
370
18
48
1
60
0
100
AcDbSpline
70
4
71
3
72
8
73
4
40
0
40
0
40
0
40
0
40
1
40
1
40
1
40
1
41
1
10
66.1294746999139
20
-5.61344020332646
30
0
41
1
10
66.064818371464
20
-5.60952986197904
30
0
41
1
10
66.0001526495709
20
-5.60425351883472
30
0
41
1
10
65.9354514403558
20
-5.59761007397077
30
0
0
SPLINE
5
FF
100
AcDbEntity
8
1
62
256
6
ByLayer
370
18
48
1
60
0
100
AcDbSpline
70
4
71
3
72
14
73
10
40
0
40
0
40
0
40
0
40
0.25
40
0.25
40
0.5
40
0.5
40
0.75
40
0.75
40
1
40
1
40
1
40
1
41
1
10
65.2991247268413
20
-4.44473438334893
30
0
41
1
10
65.3531162182404
20
-4.54614047762726
30
0
41
1
10
65.4068421571063
20
-4.64631556249253
30
0
41
1
10
65.5138246787662
20
-4.84411754602519
30
0
41
1
10
65.5671180666786
20
-4.94180725668363
30
0
41
1
10
65.6731922086828
20
-5.13430116901105
30
0
41
1
10
65.725965681656
20
-5.2290908705854
30
0
41
1
10
65.8310953252935
20
-5.41573086441173
30
0
41
1
10
65.8833993758399
20
-5.5074897655733
30
0
41
1
10
65.9354514403558
20
-5.59761007397077
30
0
0
SPLINE
5
100
100
AcDbEntity
8
1
62
256
6
ByLayer
370
18
48
1
60
0
100
AcDbSpline
70
4
71
3
72
32
73
28
40
0
40
0
40
0
40
0
40
0.0625000000000005
40
0.0625000000000005
40
0.125000000000001
40
0.125000000000001
40
0.187500000000001
40
0.187500000000001
40
0.250000000000002
40
0.250000000000002
40
0.312500000000002
40
0.312500000000002
40
0.375000000000003
40
0.375000000000003
40
0.437500000000003
40
0.437500000000003
40
0.500000000000004
40
0.500000000000004
40
0.625000000000004
40
0.625000000000004
40
0.687500000000004
40
0.687500000000004
40
0.750000000000004
40
0.750000000000004
40
0.875000000000002
40
0.875000000000002
40
1
40
1
40
1
40
1
41
1
10
64.8151409458764
20
-4.30969851903808
30
0
41
1
10
64.8227679736522
20
-4.29899574363921
30
0
41
1
10
64.831208764823
20
-4.28972006499359
30
0
41
1
10
64.8494151893159
20
-4.27347877334927
30
0
41
1
10
64.8592178316439
20
-4.26650043366485
30
0
41
1
10
64.879861243871
20
-4.25468442627047
30
0
41
1
10
64.8904801189204
20
-4.24996087075482
30
0
41
1
10
64.9121950660819
20
-4.24244613160985
30
0
41
1
10
64.9232921551161
20
-4.23965930566675
30
0
41
1
10
64.9458953697359
20
-4.23579414405813
30
0
41
1
10
64.9574180208436
20
-4.23472776036408
30
0
41
1
10
64.9802954704428
20
-4.23416022074574
30
0
41
1
10
64.9917200213144
20
-4.23464466982009
30
0
41
1
10
65.0145316063237
20
-4.23698084183192
30
0
41
1
10
65.0259186660726
20
-4.23883361212017
30
0
41
1
10
65.0486451137054
20
-4.24381994607663
30
0
41
1
10
65.0600134769201
20
-4.24696381732062
30
0
41
1
10
65.0938343464278
20
-4.25820768985147
30
0
41
1
10
65.1157213433684
20
-4.26798618432852
30
0
41
1
10
65.147556922777
20
-4.28586043436815
30
0
41
1
10
65.1580014982247
20
-4.29235864538799
30
0
41
1
10
65.1785375882651
20
-4.30646695867014
30
0
41
1
10
65.1886534866274
20
-4.31410178981611
30
0
41
1
10
65.2179778129938
20
-4.33839970742346
30
0
41
1
10
65.2363200158866
20
-4.35651075443121
30
0
41
1
10
65.2702134560788
20
-4.39713727017201
30
0
41
1
10
65.2858598574352
20
-4.41982048371912
30
0
41
1
10
65.2991247268413
20
-4.44473438334896
30
0
0
SPLINE
5
101
100
AcDbEntity
8
1
62
256
6
ByLayer
370
18
48
1
60
0
100
AcDbSpline
70
4
71
3
72
14
73
10
40
0
40
0
40
0
40
0
40
0.25
40
0.25
40
0.5
40
0.5
40
0.75
40
0.75
40
1
40
1
40
1
40
1
41
1
10
64.2060165144935
20
-5.10186327387527
30
0
41
1
10
64.2557703915942
20
-5.04263163541304
30
0
41
1
10
64.3057546622461
20
-4.98168235105842
30
0
41
1
10
64.4062743103757
20
-4.85631078398606
30
0
41
1
10
64.4568429522039
20
-4.79184505900554
30
0
41
1
10
64.558448806619
20
-4.65961208861972
30
0
41
1
10
64.6094861134891
20
-4.5918460920972
30
0
41
1
10
64.7120109981413
20
-4.45311795566417
30
0
41
1
10
64.7634575145909
20
-4.3822243014466
30
0
41
1
10
64.8151409458764
20
-4.30969851903808
30
0
0
SPLINE
5
102
100
AcDbEntity
8
1
62
256
6
ByLayer
370
18
48
1
60
0
100
AcDbSpline
70
4
71
3
72
8
73
4
40
0
40
0
40
0
40
0
40
1
40
1
40
1
40
1
41
1
10
64.2060165144933
20
-5.1018632738749
30
0
41
1
10
64.1411858703184
20
-5.07170704819367
30
0
41
1
10
64.0763970838619
20
-5.04032323976108
30
0
41
1
10
64.0116227420609
20
-5.00772627345924
30
0
0
SPLINE
5
103
100
AcDbEntity
8
1
62
256
6
ByLayer
370
18
48
1
60
0
100
AcDbSpline
70
4
71
3
72
14
73
10
40
0
40
0
40
0
40
0
40
0.25
40
0.25
40
0.5
40
0.5
40
0.75
40
0.75
40
1
40
1
40
1
40
1
41
1
10
63.3753407884045
20
-3.68485117058006
30
0
41
1
10
63.4293592538799
20
-3.79609627412651
30
0
41
1
10
63.4831117933147
20
-3.90719206716781
30
0
41
1
10
63.5901265987137
20
-4.12905013054595
30
0
41
1
10
63.6434260021667
20
-4.23987658707105
30
0
41
1
10
63.7494865690935
20
-4.46078088791563
30
0
41
1
10
63.8022395808177
20
-4.57084121425623
30
0
41
1
10
63.9073175951275
20
-4.79012837193858
30
0
41
1
10
63.9595917416044
20
-4.89924876238521
30
0
41
1
10
64.0116227420652
20
-5.00772627345447
30
0
0
SPLINE
5
104
100
AcDbEntity
8
1
62
256
6
ByLayer
370
18
48
1
60
0
100
AcDbSpline
70
4
71
3
72
34
73
30
40
0
40
0
40
0
40
0
40
0.062500000000005
40
0.062500000000005
40
0.12500000000001
40
0.12500000000001
40
0.187500000000015
40
0.187500000000015
40
0.25000000000002
40
0.25000000000002
40
0.312500000000025
40
0.312500000000025
40
0.37500000000003
40
0.37500000000003
40
0.437500000000035
40
0.437500000000035
40
0.50000000000004
40
0.50000000000004
40
0.625000000000007
40
0.625000000000007
40
0.687500000000011
40
0.687500000000011
40
0.750000000000015
40
0.750000000000015
40
0.875000000000023
40
0.875000000000023
40
0.937500000000011
40
0.937500000000011
40
1
40
1
40
1
40
1
41
1
10
62.8912552413498
20
-3.40477114325333
30
0
41
1
10
62.8988848578463
20
-3.39775474883868
30
0
41
1
10
62.9073274770633
20
-3.39225401266046
30
0
41
1
10
62.9255349148095
20
-3.38370083941353
30
0
41
1
10
62.9353361453109
20
-3.38064915227443
30
0
41
1
10
62.9559759120655
20
-3.37675403996894
30
0
41
1
10
62.9665917217766
20
-3.37594156487364
30
0
41
1
10
62.9882981330189
20
-3.37617018892479
30
0
41
1
10
62.9993898217633
20
-3.37721534502271
30
0
41
1
10
63.0219807664804
20
-3.38094730886576
30
0
41
1
10
63.0334985832486
20
-3.38365063747599
30
0
41
1
10
63.056367257578
20
-3.39040037701071
30
0
41
1
10
63.0677872189266
20
-3.39445582741828
30
0
41
1
10
63.0905892840622
20
-3.40378297607006
30
0
41
1
10
63.1019714152465
20
-3.40905557880834
30
0
41
1
10
63.1246879049165
20
-3.42074505771009
30
0
41
1
10
63.136047805749
20
-3.42717821938805
30
0
41
1
10
63.1698701085314
20
-3.44805876963625
30
0
41
1
10
63.1917595327539
20
-3.4638577719621
30
0
41
1
10
63.2236027621208
20
-3.49022540416513
30
0
41
1
10
63.2340505350988
20
-3.49946412423117
30
0
41
1
10
63.2545945266969
20
-3.51887109512799
30
0
41
1
10
63.2647196508397
20
-3.52907413112803
30
0
41
1
10
63.29408207933
20
-3.56069058169283
30
0
41
1
10
63.3124489410043
20
-3.5831956941785
30
0
41
1
10
63.33790175148
20
-3.61942402929302
30
0
41
1
10
63.3460331825969
20
-3.6319159995937
30
0
41
1
10
63.3614776857505
20
-3.65786759010908
30
0
41
1
10
63.3686984942146
20
-3.67117209438902
30
0
41
1
10
63.3753407884057
20
-3.68485117058222
30
0
0
SPLINE
5
105
100
AcDbEntity
8
1
62
256
6
ByLayer
370
18
48
1
60
0
100
AcDbSpline
70
4
71
3
72
14
73
10
40
0
40
0
40
0
40
0
40
0.250000000000001
40
0.250000000000001
40
0.5
40
0.5
40
0.75
40
0.75
40
1
40
1
40
1
40
1
41
1
10
62.2821542947933
20
-3.86649003773141
30
0
41
1
10
62.3319104994896
20
-3.83707923190542
30
0
41
1
10
62.3818985478356
20
-3.80541079250617
30
0
41
1
10
62.4824250527278
20
-3.73750676073351
30
0
41
1
10
62.5329962092416
20
-3.70124843299678
30
0
41
1
10
62.6346014619252
20
-3.62422872301818
30
0
41
1
10
62.6856356140023
20
-3.58346893721216
30
0
41
1
10
62.7881476024428
20
-3.49747089662063
30
0
41
1
10
62.8395849121544
20
-3.45228852624854
30
0
41
1
10
62.8912552413498
20
-3.40477114325333
30
0
0
SPLINE
5
106
100
AcDbEntity
8
1
62
256
6
ByLayer
370
18
48
1
60
0
100
AcDbSpline
70
4
71
3
72
8
73
4
40
0
40
0
40
0
40
0
40
1
40
1
40
1
40
1
41
1
10
62.2821542947969
20
-3.86649003773781
30
0
41
1
10
62.2175168132978
20
-3.81453227040163
30
0
41
1
10
62.1529730639999
20
-3.76171162589796
30
0
41
1
10
62.0884972516521
20
-3.708051695477
30
0
0
SPLINE
5
107
100
AcDbEntity
8
1
62
256
6
ByLayer
370
18
48
1
60
0
100
AcDbSpline
70
4
71
3
72
14
73
10
40
0
40
0
40
0
40
0
40
0.25
40
0.25
40
0.5
40
0.5
40
0.75
40
0.75
40
1
40
1
40
1
40
1
41
1
10
61.4516785983279
20
-2.40219323500941
30
0
41
1
10
61.5057169135435
20
-2.5075975902017
30
0
41
1
10
61.5594869802825
20
-2.61394075165774
30
0
41
1
10
61.666549002975
20
-2.82850454802778
30
0
41
1
10
61.7198636997994
20
-2.9367517169363
30
0
41
1
10
61.8260602076971
20
-3.1548907517591
30
0
41
1
10
61.8788813639765
20
-3.26465722840635
30
0
41
1
10
61.9840748321711
20
-3.48552289726354
30
0
41
1
10
62.0364213602561
20
-3.59657023702445
30
0
41
1
10
62.0884972516521
20
-3.708051695477
30
0
0
SPLINE
5
108
100
AcDbEntity
8
1
62
256
6
ByLayer
370
18
48
1
60
0
100
AcDbSpline
70
4
71
3
72
34
73
30
40
0
40
0
40
0
40
0
40
0.0624999999999878
40
0.0624999999999878
40
0.124999999999976
40
0.124999999999976
40
0.187499999999963
40
0.187499999999963
40
0.249999999999951
40
0.249999999999951
40
0.312499999999939
40
0.312499999999939
40
0.374999999999927
40
0.374999999999927
40
0.437499999999915
40
0.437499999999915
40
0.499999999999902
40
0.499999999999902
40
0.624999999999877
40
0.624999999999877
40
0.687499999999885
40
0.687499999999885
40
0.749999999999894
40
0.749999999999894
40
0.874999999999947
40
0.874999999999947
40
0.937499999999974
40
0.937499999999974
40
1
40
1
40
1
40
1
41
1
10
60.9676647748789
20
-2.01705939443033
30
0
41
1
10
60.9752898220212
20
-2.01471593654611
30
0
41
1
10
60.9837273538565
20
-2.0137560207817
30
0
41
1
10
61.0019245842103
20
-2.01406942386839
30
0
41
1
10
61.0117197581653
20
-2.01535621642404
30
0
41
1
10
61.032351883818
20
-2.01989256953917
30
0
41
1
10
61.0429644710339
20
-2.02308510313509
30
0
41
1
10
61.0646655872819
20
-2.03098361776207
30
0
41
1
10
61.0757551530691
20
-2.03569296925659
30
0
41
1
10
61.0983432541883
20
-2.04645710552361
30
0
41
1
10
61.1098615341096
20
-2.05253112512455
30
0
41
1
10
61.132732123935
20
-2.06561405122861
30
0
41
1
10
61.1441533494026
20
-2.07265396033867
30
0
41
1
10
61.1669579355125
20
-2.08763128779535
30
0
41
1
10
61.1783413258939
20
-2.09556933893566
30
0
41
1
10
61.2010599480568
20
-2.11229620216031
30
0
41
1
10
61.212420723701
20
-2.12110618183874
30
0
41
1
10
61.2462448134647
20
-2.1486609739668
30
0
41
1
10
61.268133404285
20
-2.1682471681398
30
0
41
1
10
61.2999736876253
20
-2.19938793555915
30
0
41
1
10
61.3104202158221
20
-2.21006466814006
30
0
41
1
10
61.3309615998699
20
-2.23203523091755
30
0
41
1
10
61.341084977184
20
-2.24336535501104
30
0
41
1
10
61.3704406220896
20
-2.27782384153014
30
0
41
1
10
61.3888026281269
20
-2.30153611514848
30
0
41
1
10
61.4142490220935
20
-2.33839020046062
30
0
41
1
10
61.4223784681512
20
-2.3508910957317
30
0
41
1
10
61.4378195585641
20
-2.376393244128
30
0
41
1
10
61.4450379104965
20
-2.3892402512586
30
0
41
1
10
61.451678598328
20
-2.40219323500955
30
0
0
SPLINE
5
109
100
AcDbEntity
8
1
62
256
6
ByLayer
370
18
48
1
60
0
100
AcDbSpline
70
4
71
3
72
32
73
28
40
0
40
0
40
0
40
0
40
0.0624999999999982
40
0.0624999999999982
40
0.124999999999996
40
0.124999999999996
40
0.187499999999995
40
0.187499999999995
40
0.249999999999993
40
0.249999999999993
40
0.312499999999991
40
0.312499999999991
40
0.374999999999989
40
0.374999999999989
40
0.437499999999988
40
0.437499999999988
40
0.499999999999986
40
0.499999999999986
40
0.62499999999994
40
0.62499999999994
40
0.687499999999937
40
0.687499999999937
40
0.749999999999935
40
0.749999999999935
40
0.874999999999967
40
0.874999999999967
40
1
40
1
40
1
40
1
41
1
10
59.0439071787248
20
-0.342882995834316
30
0
41
1
10
59.0515401167272
20
-0.345563714111734
30
0
41
1
10
59.0599865966015
20
-0.34930485855125
30
0
41
1
10
59.0782032586311
20
-0.358494615669741
30
0
41
1
10
59.0880106492461
20
-0.363968539855136
30
0
41
1
10
59.1086610729753
20
-0.376355176988653
30
0
41
1
10
59.1192826147784
20
-0.3831314494048
30
0
41
1
10
59.1410013917462
20
-0.397642337900208
30
0
41
1
10
59.1520996645894
20
-0.405379105013083
30
0
41
1
10
59.1747050295156
20
-0.421710649462597
30
0
41
1
10
59.1862289932908
20
-0.430322463318845
30
0
41
1
10
59.2091093152231
20
-0.447935158836913
30
0
41
1
10
59.2205351598934
20
-0.456985504889417
30
0
41
1
10
59.2433481798428
20
-0.475534681806607
30
0
41
1
10
59.2547353855259
20
-0.485033786831877
30
0
41
1
10
59.2774606346244
20
-0.504465860848143
30
0
41
1
10
59.2888267010132
20
-0.514424160192874
30
0
41
1
10
59.322646019883
20
-0.544786993203672
30
0
41
1
10
59.3445299398816
20
-0.565405214999288
30
0
41
1
10
59.3763618449164
20
-0.596930835629394
30
0
41
1
10
59.3868054110004
20
-0.607539753452016
30
0
41
1
10
59.4073404189617
20
-0.628973132309767
30
0
41
1
10
59.4174576416264
20
-0.639828012096274
30
0
41
1
10
59.4467895734491
20
-0.672248384797655
30
0
41
1
10
59.4651368379701
20
-0.69380789960681
30
0
41
1
10
59.4990386363212
20
-0.736815484083252
30
0
41
1
10
59.5146906527498
20
-0.758413455191942
30
0
41
1
10
59.5279609622583
20
-0.779190332748414
30
0
0
SPLINE
5
10A
100
AcDbEntity
8
1
62
256
6
ByLayer
370
18
48
1
60
0
100
AcDbSpline
70
4
71
3
72
10
73
6
40
0
40
0
40
0
40
0
40
0.5
40
0.5
40
1
40
1
40
1
40
1
41
1
10
58.6020179245565
20
-0.121352349095247
30
0
41
1
10
58.6747176692983
20
-0.168579587373813
30
0
41
1
10
58.7479794333688
20
-0.210858049725346
30
0
41
1
10
58.8952548375473
20
-0.284862909584007
30
0
41
1
10
58.9693027840598
20
-0.316681634799721
30
0
41
1
10
59.0439071787248
20
-0.342882995834287
30
0
0
SPLINE
5
10B
100
AcDbEntity
8
1
62
256
6
ByLayer
370
18
48
1
60
0
100
AcDbSpline
70
4
71
3
72
8
73
4
40
0
40
0
40
0
40
0
40
1
40
1
40
1
40
1
41
1
10
58.0144590070792
20
0.506151751788138
30
0
41
1
10
58.2113422820378
20
0.29981118561804
30
0
41
1
10
58.4069601852214
20
0.0904305817102511
30
0
41
1
10
58.6020179245565
20
-0.121352349095247
30
0
0
SPLINE
5
10C
100
AcDbEntity
8
1
62
256
6
ByLayer
370
18
48
1
60
0
100
AcDbSpline
70
4
71
3
72
12
73
8
40
0
40
0
40
0
40
0
40
0.499999999999999
40
0.499999999999999
40
0.749999999999999
40
0.749999999999999
40
1
40
1
40
1
40
1
41
1
10
57.6043107850207
20
0.954399745450957
30
0
41
1
10
57.6734551833922
20
0.888268088748362
30
0
41
1
10
57.7421751563442
20
0.817815926079447
30
0
41
1
10
57.8447383926894
20
0.705628812016698
30
0
41
1
10
57.8788403928087
20
0.66715592503445
30
0
41
1
10
57.9468042374781
20
0.588187009829738
30
0
41
1
10
57.9806786725483
20
0.547677600264564
30
0
41
1
10
58.0144590070792
20
0.506151751788138
30
0
0
SPLINE
5
10D
100
AcDbEntity
8
1
62
256
6
ByLayer
370
18
48
1
60
0
100
AcDbSpline
70
4
71
3
72
28
73
24
40
0
40
0
40
0
40
0
40
0.124999999999994
40
0.124999999999994
40
0.249999999999988
40
0.249999999999988
40
0.374999999999982
40
0.374999999999982
40
0.437499999999978
40
0.437499999999978
40
0.499999999999975
40
0.499999999999975
40
0.625000000000017
40
0.625000000000017
40
0.687500000000013
40
0.687500000000013
40
0.75000000000001
40
0.75000000000001
40
0.875000000000005
40
0.875000000000005
40
0.937500000000003
40
0.937500000000003
40
1
40
1
40
1
40
1
41
1
10
57.1985567444035
20
1.30833704821876
30
0
41
1
10
57.2163215727421
20
1.29270501261953
30
0
41
1
10
57.2347767415848
20
1.27668682009116
30
0
41
1
10
57.2726824006723
20
1.24403240586457
30
0
41
1
10
57.2916040625761
20
1.22785071155693
30
0
41
1
10
57.329340549237
20
1.19565428458191
30
0
41
1
10
57.3481554997572
20
1.17964073149213
30
0
41
1
10
57.3762607502246
20
1.15568609679633
30
0
41
1
10
57.3855814506495
20
1.1477362600435
30
0
41
1
10
57.4039420738041
20
1.13205147748209
30
0
41
1
10
57.4130096323619
20
1.12429300110304
30
0
41
1
10
57.4398744604804
20
1.10125149376094
30
0
41
1
10
57.4573367660183
20
1.08619981654815
30
0
41
1
10
57.4828099362774
20
1.06406403264657
30
0
41
1
10
57.4912052050802
20
1.05673769009275
30
0
41
1
10
57.5075503159119
20
1.0424018279387
30
0
41
1
10
57.5155136736548
20
1.0353807793251
30
0
41
1
10
57.5387540447733
20
1.01476777653747
30
0
41
1
10
57.5533905968063
20
1.00161796479648
30
0
41
1
10
57.5738380264663
20
0.982937158542683
30
0
41
1
10
57.5804179936319
20
0.976869714026861
30
0
41
1
10
57.592915001928
20
0.965221099441038
30
0
41
1
10
57.5988113476383
20
0.959659562783997
30
0
41
1
10
57.6043107850207
20
0.954399745451042
30
0
0
SPLINE
5
10E
100
AcDbEntity
8
1
62
256
6
ByLayer
370
18
48
1
60
0
100
AcDbSpline
70
4
71
3
72
23
73
19
40
0
40
0
40
0
40
0
40
0.125000000000005
40
0.125000000000005
40
0.187500000000008
40
0.187500000000008
40
0.25000000000001
40
0.312500000000012
40
0.312500000000012
40
0.375000000000014
40
0.375000000000014
40
0.500000000000019
40
0.500000000000019
40
0.750000000000009
40
0.750000000000009
40
0.875000000000005
40
0.875000000000005
40
1
40
1
40
1
40
1
41
1
10
57.1985567444032
20
1.30833704821816
30
0
41
1
10
57.1707320831182
20
1.33036531693455
30
0
41
1
10
57.140646938388
20
1.35373037468543
30
0
41
1
10
57.0922730280212
20
1.38979907730047
30
0
41
1
10
57.0756047216176
20
1.40199593218901
30
0
41
1
10
57.0410759308514
20
1.4264373741083
30
0
41
1
10
57.0053644469248
20
1.45095890556755
30
0
41
1
10
56.9673595681473
20
1.47579482468581
30
0
41
1
10
56.9282398303247
20
1.50086362276468
30
0
41
1
10
56.9080999896742
20
1.51352836892659
30
0
41
1
10
56.8461974242803
20
1.55189551665438
30
0
41
1
10
56.803307397693
20
1.57775403816757
30
0
41
1
10
56.6704727431444
20
1.65701453819119
30
0
41
1
10
56.5763806195649
20
1.71210386196927
30
0
41
1
10
56.4293710225558
20
1.80142453504257
30
0
41
1
10
56.3792614934236
20
1.83239320703584
30
0
41
1
10
56.2784637203118
20
1.89642432682268
30
0
41
1
10
56.2276902655901
20
1.92953504672172
30
0
41
1
10
56.1766979319172
20
1.96394215944832
30
0
0
SPLINE
5
10F
100
AcDbEntity
8
1
62
256
6
ByLayer
370
18
48
1
60
0
100
AcDbSpline
70
4
71
3
72
52
73
48
40
0
40
0
40
0
40
0
40
0.0638549228109409
40
0.0638549228109409
40
0.127709845621882
40
0.127709845621882
40
0.191564768432823
40
0.191564768432823
40
0.255419691243764
40
0.255419691243764
40
0.287347152649236
40
0.287347152649236
40
0.319274614054707
40
0.319274614054707
40
0.35120207546018
40
0.35120207546018
40
0.383129536865651
40
0.383129536865651
40
0.446984459676592
40
0.446984459676592
40
0.478911921082061
40
0.478911921082061
40
0.51083938248753
40
0.542766843892999
40
0.542766843892999
40
0.574694305298469
40
0.574694305298469
40
0.606621766703938
40
0.606621766703938
40
0.638549228109407
40
0.638549228109407
40
0.702404150920342
40
0.702404150920342
40
0.766259073731277
40
0.766259073731277
40
0.830113996542213
40
0.830113996542213
40
0.893968919353148
40
0.893968919353148
40
0.909932650055883
40
0.909932650055883
40
0.925896380758618
40
0.925896380758618
40
0.957823842164086
40
0.989751303569554
40
0.989751303569554
40
1
40
1
40
1
40
1
41
1
10
56.1766979319175
20
1.96394215944807
30
0
41
1
10
55.9787524683256
20
2.09750599912664
30
0
41
1
10
55.782278177507
20
2.22611392360835
30
0
41
1
10
55.3906698638839
20
2.47191073086586
30
0
41
1
10
55.1954621471165
20
2.58902972005168
30
0
41
1
10
54.8051024262413
20
2.81080938701075
30
0
41
1
10
54.6100185608428
20
2.91554363028652
30
0
41
1
10
54.2194307113804
20
3.11212726354128
30
0
41
1
10
54.0239603133454
20
3.20399759900514
30
0
41
1
10
53.7296894328445
20
3.33132558378975
30
0
41
1
10
53.6314181053333
20
3.37201879549852
30
0
41
1
10
53.434361044838
20
3.44974759762368
30
0
41
1
10
53.3354215568171
20
3.48682981646053
30
0
41
1
10
53.1382770099898
20
3.55661881051444
30
0
41
1
10
53.039924806699
20
3.58938963032935
30
0
41
1
10
52.8434309389755
20
3.6506493700106
30
0
41
1
10
52.7452920004338
20
3.67914452654787
30
0
41
1
10
52.4514384756049
20
3.75842609407778
30
0
41
1
10
52.2562289561144
20
3.8029711610032
30
0
41
1
10
51.9637213532453
20
3.85707367938841
30
0
41
1
10
51.8662712183068
20
3.87298834463027
30
0
41
1
10
51.6713640960265
20
3.90052759352855
30
0
41
1
10
51.4764592181901
20
3.92377594068705
30
0
41
1
10
51.2810721924868
20
3.93829095741728
30
0
41
1
10
51.0851841592273
20
3.9483920141067
30
0
41
1
10
50.9869631271206
20
3.95123647126636
30
0
41
1
10
50.7899634454301
20
3.95249549855117
30
0
41
1
10
50.6911976730387
20
3.95091146757468
30
0
41
1
10
50.4932130370481
20
3.94323431758539
30
0
41
1
10
50.3945387963977
20
3.93715597379386
30
0
41
1
10
50.0994638949667
20
3.91230562262626
30
0
41
1
10
49.9038769465228
20
3.88690770464717
30
0
41
1
10
49.5133708662347
20
3.81911742308648
30
0
41
1
10
49.3183836429599
20
3.77676237804926
30
0
41
1
10
48.9281102782027
20
3.67564672154859
30
0
41
1
10
48.732864167727
20
3.61687337965242
30
0
41
1
10
48.3415181061975
20
3.48304371950755
30
0
41
1
10
48.1454459969446
20
3.40796000357287
30
0
41
1
10
47.8991209052859
20
3.30405797863739
30
0
41
1
10
47.8497936498801
20
3.28277543454584
30
0
41
1
10
47.7509950254114
20
3.23921066737108
30
0
41
1
10
47.7016094302639
20
3.21696570651025
30
0
41
1
10
47.553744088625
20
3.14899854066681
30
0
41
1
10
47.3571361381319
20
3.05498563836406
30
0
41
1
10
47.1611655790804
20
2.9546612236702
30
0
41
1
10
47.0317905302553
20
2.88647351881639
30
0
41
1
10
47.0003571620742
20
2.86975489056991
30
0
41
1
10
46.9689321965614
20
2.85288378923565
30
0
0
SPLINE
5
110
100
AcDbEntity
8
1
62
256
6
ByLayer
370
18
48
1
60
0
100
AcDbSpline
70
4
71
3
72
81
73
77
40
0
40
0
40
0
40
0
40
0.0004997478791792
40
0.0004997478791792
40
0.0268023860928828
40
0.0268023860928828
40
0.0531050243065862
40
0.0531050243065862
40
0.0794076625202898
40
0.0794076625202898
40
0.105710300733993
40
0.105710300733993
40
0.132012938947697
40
0.132012938947697
40
0.145164258054549
40
0.145164258054549
40
0.158315577161402
40
0.158315577161402
40
0.18461821537511
40
0.18461821537511
40
0.210920853588817
40
0.210920853588817
40
0.237223491802524
40
0.237223491802524
40
0.263526130016232
40
0.263526130016232
40
0.289828768229939
40
0.289828768229939
40
0.316131406443647
40
0.316131406443647
40
0.342434044657354
40
0.342434044657354
40
0.368736682871061
40
0.368736682871061
40
0.421341959298474
40
0.421341959298474
40
0.473947235725887
40
0.473947235725887
40
0.500249873939593
40
0.500249873939593
40
0.5265525121533
40
0.5265525121533
40
0.579157788580713
40
0.579157788580713
40
0.592309107687567
40
0.592309107687567
40
0.60546042679442
40
0.60546042679442
40
0.618611745901274
40
0.618611745901274
40
0.631763065008128
40
0.631763065008128
40
0.658065703221835
40
0.658065703221835
40
0.684368341435542
40
0.684368341435542
40
0.736973617862957
40
0.736973617862957
40
0.763276256076665
40
0.763276256076665
40
0.789578894290372
40
0.789578894290372
40
0.802730213397225
40
0.802730213397225
40
0.815881532504078
40
0.842184170717781
40
0.842184170717781
40
0.868486808931485
40
0.868486808931485
40
0.894789447145188
40
0.894789447145188
40
0.921092085358892
40
0.921092085358892
40
0.947394723572595
40
0.947394723572595
40
1
40
1
40
1
40
1
41
1
10
43.0818396061688
20
3.95199999741089
30
0
41
1
10
43.0840107781334
20
3.95199999677789
30
0
41
1
10
43.0861818636651
20
3.95199890466051
30
0
41
1
10
43.2026165604424
20
3.95188179189364
30
0
41
1
10
43.3166418363195
20
3.94874218756115
30
0
41
1
10
43.5446892947471
20
3.93647187219233
30
0
41
1
10
43.6587142228541
20
3.92733925653252
30
0
41
1
10
43.8873884233818
20
3.90326174112815
30
0
41
1
10
44.0020216241745
20
3.888327869856
30
0
41
1
10
44.2315408397467
20
3.85264249162839
30
0
41
1
10
44.3463642245513
20
3.83187053096685
30
0
41
1
10
44.5760812805815
20
3.78433154317932
30
0
41
1
10
44.6910190258363
20
3.75757434846693
30
0
41
1
10
44.8637989749656
20
3.71294868700005
30
0
41
1
10
44.9214549583216
20
3.69732555486289
30
0
41
1
10
45.0369396225723
20
3.66458766966042
30
0
41
1
10
45.0948358232013
20
3.6474518553662
30
0
41
1
10
45.2681830298899
20
3.59402806887698
30
0
41
1
10
45.3833602207421
20
3.55570597500847
30
0
41
1
10
45.613344453244
20
3.47398963916632
30
0
41
1
10
45.7281893172064
20
3.43062198745335
30
0
41
1
10
45.957685446424
20
3.33903892873664
30
0
41
1
10
46.0723218028765
20
3.29081512518306
30
0
41
1
10
46.3013057057027
20
3.18949254975681
30
0
41
1
10
46.4156674676256
20
3.13640290229549
30
0
41
1
10
46.6441931410504
20
3.02539422440134
30
0
41
1
10
46.7583535090137
20
2.96747300502338
30
0
41
1
10
46.9864768761866
20
2.84672343850175
30
0
41
1
10
47.1005078516182
20
2.78394252511856
30
0
41
1
10
47.3296168934911
20
2.65458934299514
30
0
41
1
10
47.4445956511692
20
2.58793604410928
30
0
41
1
10
47.6753163754695
20
2.45059157826199
30
0
41
1
10
47.7910340394898
20
2.37986952068249
30
0
41
1
10
48.1393069646636
20
2.16151968457143
30
0
41
1
10
48.3698441711596
20
2.00983902406634
30
0
41
1
10
48.8284081806355
20
1.69530995955387
30
0
41
1
10
49.0564438683051
20
1.53245052133735
30
0
41
1
10
49.3987413241936
20
1.28233239385909
30
0
41
1
10
49.5128979274032
20
1.19801032262245
30
0
41
1
10
49.7417280891037
20
1.02798337878929
30
0
41
1
10
49.8563806746795
20
0.942254286641031
30
0
41
1
10
50.2010151243802
20
0.682878732428634
30
0
41
1
10
50.4316804126847
20
0.507080272224869
30
0
41
1
10
50.7204319308279
20
0.28250941246742
30
0
41
1
10
50.7782297729627
20
0.237362697547894
30
0
41
1
10
50.8934721502706
20
0.14720959997652
30
0
41
1
10
50.9509847084792
20
0.102150569214899
30
0
41
1
10
51.0659276844669
20
0.0122450996788928
30
0
41
1
10
51.1233620700785
20
-0.0325960610930736
30
0
41
1
10
51.2382784277065
20
-0.121899342553206
30
0
41
1
10
51.29574911244
20
-0.166376677254192
30
0
41
1
10
51.4681573611144
20
-0.299349046271516
30
0
41
1
10
51.5830959747797
20
-0.387379435977294
30
0
41
1
10
51.8126338230129
20
-0.562668510366052
30
0
41
1
10
51.9271778113712
20
-0.649997651623494
30
0
41
1
10
52.2702827923268
20
-0.910834859264241
30
0
41
1
10
52.4984089468579
20
-1.08307415470449
30
0
41
1
10
52.8409536803845
20
-1.33724481633914
30
0
41
1
10
52.9552076718775
20
-1.42125119912609
30
0
41
1
10
53.1848779654928
20
-1.58656920730161
30
0
41
1
10
53.3002218569365
20
-1.66797311508196
30
0
41
1
10
53.4739382911948
20
-1.78827119879349
30
0
41
1
10
53.5320223097625
20
-1.82811317927485
30
0
41
1
10
53.6480599928099
20
-1.90699675562706
30
0
41
1
10
53.821837552292
20
-2.02406378274819
30
0
41
1
10
53.9948566882578
20
-2.13730594591573
30
0
41
1
10
54.224985830125
20
-2.28481062170553
30
0
41
1
10
54.3397598218138
20
-2.35682992737611
30
0
41
1
10
54.5688793865555
20
-2.49724332052827
30
0
41
1
10
54.6832337455736
20
-2.56562671693635
30
0
41
1
10
54.9118467024733
20
-2.69842358348262
30
0
41
1
10
55.0261055062196
20
-2.76283607518568
30
0
41
1
10
55.2549219780595
20
-2.8873178045109
30
0
41
1
10
55.3695086056083
20
-2.94736219069748
30
0
41
1
10
55.7141484099974
20
-3.12061821850972
30
0
41
1
10
55.9450375451927
20
-3.22704512351467
30
0
41
1
10
56.1766979319175
20
-3.32437821774724
30
0
0
SPLINE
5
111
100
AcDbEntity
8
1
62
256
6
ByLayer
370
18
48
1
60
0
100
AcDbSpline
70
4
71
3
72
27
73
23
40
0
40
0
40
0
40
0
40
0.125000000000018
40
0.125000000000018
40
0.250000000000036
40
0.250000000000036
40
0.375000000000055
40
0.375000000000055
40
0.500000000000073
40
0.500000000000073
40
0.562500000000072
40
0.562500000000072
40
0.62500000000007
40
0.62500000000007
40
0.750000000000049
40
0.750000000000049
40
0.812500000000037
40
0.812500000000037
40
0.843750000000031
40
0.843750000000031
40
0.875000000000024
40
1
40
1
40
1
40
1
41
1
10
56.1766979319172
20
-3.32437821774707
30
0
41
1
10
56.2258573512653
20
-3.34503275633037
30
0
41
1
10
56.2746476859203
20
-3.36764681029655
30
0
41
1
10
56.371327778596
20
-3.41680417647726
30
0
41
1
10
56.4192182951706
20
-3.44334578977004
30
0
41
1
10
56.5139890175733
20
-3.50047843633075
30
0
41
1
10
56.5608698114772
20
-3.53106681990044
30
0
41
1
10
56.6535420085734
20
-3.59658826251118
30
0
41
1
10
56.6993338361637
20
-3.63151635501345
30
0
41
1
10
56.767156817918
20
-3.68760037016798
30
0
41
1
10
56.7896098402067
20
-3.70690976094053
30
0
41
1
10
56.833740627197
20
-3.74642634922313
30
0
41
1
10
56.8554774469413
20
-3.76668127625064
30
0
41
1
10
56.9196785021118
20
-3.82901706149622
30
0
41
1
10
56.9611385026807
20
-3.87265328918795
30
0
41
1
10
57.0211553179611
20
-3.94177154338684
30
0
41
1
10
57.0407987150254
20
-3.96542487960383
30
0
41
1
10
57.0696823461378
20
-4.00193787767012
30
0
41
1
10
57.0792094667809
20
-4.01427968958299
30
0
41
1
10
57.0979108869547
20
-4.03913994951668
30
0
41
1
10
57.1438703505414
20
-4.10184461503741
30
0
41
1
10
57.1856932473649
20
-4.16742877868995
30
0
41
1
10
57.2159284164589
20
-4.22211577011288
30
0
0
SPLINE
5
112
100
AcDbEntity
8
1
62
256
6
ByLayer
370
18
48
1
60
0
100
AcDbSpline
70
4
71
3
72
8
73
4
40
0
40
0
40
0
40
0
40
1
40
1
40
1
40
1
41
1
10
57.2159284164515
20
-4.22211577009955
30
0
41
1
10
57.2783060243505
20
-4.33493947211176
30
0
41
1
10
57.3403216817499
20
-4.44806793347971
30
0
41
1
10
57.4019919946031
20
-4.56150299544123
30
0
0
SPLINE
5
113
100
AcDbEntity
8
1
62
256
6
ByLayer
370
18
48
1
60
0
100
AcDbSpline
70
4
71
3
72
8
73
4
40
0
40
0
40
0
40
0
40
1
40
1
40
1
40
1
41
1
10
57.5703754915715
20
-4.37710437390905
30
0
41
1
10
57.5138909174899
20
-4.44135331938901
30
0
41
1
10
57.4578035647135
20
-4.50276270567812
30
0
41
1
10
57.4019919946165
20
-4.56150299543452
30
0
0
SPLINE
5
114
100
AcDbEntity
8
1
62
256
6
ByLayer
370
18
48
1
60
0
100
AcDbSpline
70
4
71
3
72
32
73
28
40
0
40
0
40
0
40
0
40
0.0625000000000143
40
0.0625000000000143
40
0.125000000000029
40
0.125000000000029
40
0.187500000000043
40
0.187500000000043
40
0.250000000000057
40
0.250000000000057
40
0.312500000000071
40
0.312500000000071
40
0.375000000000086
40
0.375000000000086
40
0.500000000000069
40
0.500000000000069
40
0.562500000000061
40
0.562500000000061
40
0.625000000000052
40
0.625000000000052
40
0.750000000000035
40
0.750000000000035
40
0.812500000000027
40
0.812500000000027
40
0.875000000000018
40
0.875000000000018
40
1
40
1
40
1
40
1
41
1
10
58.0542362705376
20
-4.49314003704305
30
0
41
1
10
58.0467055206814
20
-4.47993556222332
30
0
41
1
10
58.038407788798
20
-4.46764919226851
30
0
41
1
10
58.0205712285529
20
-4.44455406561005
30
0
41
1
10
58.0110291287766
20
-4.43374934024197
30
0
41
1
10
57.9908461452317
20
-4.41344611791556
30
0
41
1
10
57.9804093395956
20
-4.40415644902254
30
0
41
1
10
57.9591231269501
20
-4.38712944219174
30
0
41
1
10
57.9482456282396
20
-4.37936791557036
30
0
41
1
10
57.9260881119972
20
-4.36516208449157
30
0
41
1
10
57.9147456176462
20
-4.35868947776811
30
0
41
1
10
57.8920414025806
20
-4.34713445442625
30
0
41
1
10
57.8806938677936
20
-4.34204926658333
30
0
41
1
10
57.8466796699422
20
-4.32863540742196
30
0
41
1
10
57.8240404446092
20
-4.32212553801139
30
0
41
1
10
57.7902062187015
20
-4.31566518147585
30
0
41
1
10
57.7789303042026
20
-4.31407211955542
30
0
41
1
10
57.7568015599661
20
-4.31203003070891
30
0
41
1
10
57.7459028074657
20
-4.31157006160885
30
0
41
1
10
57.7137152633312
20
-4.31183918520688
30
0
41
1
10
57.692928184297
20
-4.31419034773063
30
0
41
1
10
57.6629160502842
20
-4.32127529418946
30
0
41
1
10
57.6531560435909
20
-4.32423234086886
30
0
41
1
10
57.6344444852413
20
-4.33130330751365
30
0
41
1
10
57.6254497822787
20
-4.33542594346847
30
0
41
1
10
57.5996382320251
20
-4.34969488569766
30
0
41
1
10
57.5839502800802
20
-4.36166359452835
30
0
41
1
10
57.5703754915714
20
-4.37710437390888
30
0
0
SPLINE
5
115
100
AcDbEntity
8
1
62
256
6
ByLayer
370
18
48
1
60
0
100
AcDbSpline
70
4
71
3
72
10
73
6
40
0
40
0
40
0
40
0
40
0.5
40
0.5
40
1
40
1
40
1
40
1
41
1
10
58.4873372303705
20
-5.25545370215596
30
0
41
1
10
58.416137497169
20
-5.13001161341708
30
0
41
1
10
58.3444843060423
20
-5.00363578102159
30
0
41
1
10
58.2000452631044
20
-4.74921186285209
30
0
41
1
10
58.1273979964554
20
-4.62142237095392
30
0
41
1
10
58.0542362705376
20
-4.49314003704305
30
0
0
SPLINE
5
116
100
AcDbEntity
8
1
62
256
6
ByLayer
370
18
48
1
60
0
100
AcDbSpline
70
4
71
3
72
8
73
4
40
0
40
0
40
0
40
0
40
1
40
1
40
1
40
1
41
1
10
58.9987455359378
20
-5.38664630767133
30
0
41
1
10
58.8282039299806
20
-5.35133656983896
30
0
41
1
10
58.6577334681321
20
-5.30755578014509
30
0
41
1
10
58.4873372303705
20
-5.25545370215599
30
0
0
SPLINE
5
117
100
AcDbEntity
8
1
62
256
6
ByLayer
370
18
48
1
60
0
100
AcDbSpline
70
4
71
3
72
10
73
6
40
0
40
0
40
0
40
0
40
0.5
40
0.5
40
1
40
1
40
1
40
1
41
1
10
59.4937817912929
20
-4.59694516618052
30
0
41
1
10
59.4099281514478
20
-4.73677920205157
30
0
41
1
10
59.3269052597134
20
-4.87245139813584
30
0
41
1
10
59.1618174521877
20
-5.13601096746578
30
0
41
1
10
59.0799879755121
20
-5.26351969622405
30
0
41
1
10
58.9987455359377
20
-5.38664630767133
30
0
0
SPLINE
5
118
100
AcDbEntity
8
1
62
256
6
ByLayer
370
18
48
1
60
0
100
AcDbSpline
70
4
71
3
72
32
73
28
40
0
40
0
40
0
40
0
40
0.062500000000005
40
0.062500000000005
40
0.12500000000001
40
0.12500000000001
40
0.187500000000015
40
0.187500000000015
40
0.25000000000002
40
0.25000000000002
40
0.312500000000025
40
0.312500000000025
40
0.37500000000003
40
0.37500000000003
40
0.50000000000004
40
0.50000000000004
40
0.562500000000044
40
0.562500000000044
40
0.625000000000049
40
0.625000000000049
40
0.750000000000059
40
0.750000000000059
40
0.812500000000044
40
0.812500000000044
40
0.87500000000003
40
0.87500000000003
40
1
40
1
40
1
40
1
41
1
10
59.9777328175157
20
-4.54939326451907
30
0
41
1
10
59.970195944749
20
-4.53765804438621
30
0
41
1
10
59.9618912180477
20
-4.52718311661243
30
0
41
1
10
59.9440402921025
20
-4.50825605867482
30
0
41
1
10
59.9344908251764
20
-4.49980956959843
30
0
41
1
10
59.9142941667354
20
-4.4847035597557
30
0
41
1
10
59.9038516421305
20
-4.47820096351128
30
0
41
1
10
59.88255589179
20
-4.46701777968971
30
0
41
1
10
59.8716747234755
20
-4.46232076542779
30
0
41
1
10
59.8495124648761
20
-4.45449768680874
30
0
41
1
10
59.8381689994703
20
-4.45136233877571
30
0
41
1
10
59.8154651592127
20
-4.44661705205044
30
0
41
1
10
59.8041189110854
20
-4.4449991786953
30
0
41
1
10
59.7701114514692
20
-4.44215978735886
30
0
41
1
10
59.7474805837637
20
-4.44292710292254
30
0
41
1
10
59.7136623669576
20
-4.44772287339981
30
0
41
1
10
59.7023908737918
20
-4.4499465563122
30
0
41
1
10
59.6802692970026
20
-4.45553283033212
30
0
41
1
10
59.6693739609912
20
-4.45889931507327
30
0
41
1
10
59.6371954747497
20
-4.4706921160595
30
0
41
1
10
59.6164128112923
20
-4.48078445386332
30
0
41
1
10
59.5864026939857
20
-4.49960545677692
30
0
41
1
10
59.5766360251711
20
-4.50648213632627
30
0
41
1
10
59.5579128809415
20
-4.52128432446639
30
0
41
1
10
59.5489115599449
20
-4.52923619531663
30
0
41
1
10
59.5230782549827
20
-4.55487785424657
30
0
41
1
10
59.5073729489473
20
-4.57428059931755
30
0
41
1
10
59.4937817912929
20
-4.59694516618055
30
0
0
SPLINE
5
119
100
AcDbEntity
8
1
62
256
6
ByLayer
370
18
48
1
60
0
100
AcDbSpline
70
4
71
3
72
14
73
10
40
0
40
0
40
0
40
0
40
0.25
40
0.25
40
0.5
40
0.5
40
0.75
40
0.75
40
1
40
1
40
1
40
1
41
1
10
60.5888637229457
20
-5.45837890441032
30
0
41
1
10
60.5389530096496
20
-5.38812157991092
30
0
41
1
10
60.4888220040636
20
-5.3164717354706
30
0
41
1
10
60.3880160858791
20
-5.17033249809049
30
0
41
1
10
60.3373207168136
20
-5.09581264860296
30
0
41
1
10
60.235364004155
20
-4.94399922697281
30
0
41
1
10
60.1841870797899
20
-4.86683162349428
30
0
41
1
10
60.0813384208239
20
-4.70995747661084
30
0
41
1
10
60.0296680448767
20
-4.63025854440363
30
0
41
1
10
59.9777328175157
20
-4.54939326451907
30
0
0
SPLINE
5
11A
100
AcDbEntity
8
1
62
256
6
ByLayer
370
18
48
1
60
0
100
AcDbSpline
70
4
71
3
72
8
73
4
40
0
40
0
40
0
40
0
40
1
40
1
40
1
40
1
41
1
10
60.592121416115
20
-5.45797546462228
30
0
41
1
10
60.5910355217376
20
-5.45811032772377
30
0
41
1
10
60.5899496240915
20
-5.45824480765495
30
0
41
1
10
60.5888637229457
20
-5.45837890441035
30
0
0
SPLINE
5
11B
100
AcDbEntity
8
1
62
256
6
ByLayer
370
18
48
1
60
0
100
AcDbSpline
70
4
71
3
72
8
73
4
40
0
40
0
40
0
40
0
40
1
40
1
40
1
40
1
41
1
10
60.5921214161152
20
-5.45797546462325
30
0
41
1
10
60.6557699138274
20
-5.44103674980835
30
0
41
1
10
60.7193666247314
20
-5.42282245053107
30
0
41
1
10
60.7829610368701
20
-5.40335213449441
30
0
0
SPLINE
5
11C
100
AcDbEntity
8
1
62
256
6
ByLayer
370
18
48
1
60
0
100
AcDbSpline
70
4
71
3
72
14
73
10
40
0
40
0
40
0
40
0
40
0.25
40
0.25
40
0.5
40
0.5
40
0.75
40
0.75
40
1
40
1
40
1
40
1
41
1
10
61.4171191652854
20
-4.16655460123238
30
0
41
1
10
61.3630674834723
20
-4.27249505411461
30
0
41
1
10
61.3094021817637
20
-4.3777823246912
30
0
41
1
10
61.202625408807
20
-4.58706046739084
30
0
41
1
10
61.1495114092144
20
-4.69105399445655
30
0
41
1
10
61.0437306534664
20
-4.89770087328662
30
0
41
1
10
60.9911461593882
20
-5.00019472203243
30
0
41
1
10
60.886631310744
20
-5.2031967378241
30
0
41
1
10
60.8346754414886
20
-5.3037527943365
30
0
41
1
10
60.7829610368657
20
-5.40335213449001
30
0
0
SPLINE
5
11D
100
AcDbEntity
8
1
62
256
6
ByLayer
370
18
48
1
60
0
100
AcDbSpline
70
4
71
3
72
32
73
28
40
0
40
0
40
0
40
0
40
0.0624999999999903
40
0.0624999999999903
40
0.124999999999981
40
0.124999999999981
40
0.187499999999971
40
0.187499999999971
40
0.249999999999961
40
0.249999999999961
40
0.312499999999952
40
0.312499999999952
40
0.374999999999942
40
0.374999999999942
40
0.499999999999923
40
0.499999999999923
40
0.562499999999914
40
0.562499999999914
40
0.624999999999905
40
0.624999999999905
40
0.749999999999927
40
0.749999999999927
40
0.812499999999936
40
0.812499999999936
40
0.874999999999946
40
0.874999999999946
40
1
40
1
40
1
40
1
41
1
10
61.9010515114272
20
-3.96269252743889
30
0
41
1
10
61.8935279595861
20
-3.95412884463539
30
0
41
1
10
61.8852405787453
20
-3.94697804725405
30
0
41
1
10
61.8674302091761
20
-3.93493892529071
30
0
41
1
10
61.8579039749732
20
-3.93005700249026
30
0
41
1
10
61.8377584172925
20
-3.92229049714675
30
0
41
1
10
61.8273309482234
20
-3.919484783841
30
0
41
1
10
61.8060730750186
20
-3.91569979125927
30
0
41
1
10
61.7952103421521
20
-3.91471234324322
30
0
41
1
10
61.7730833997561
20
-3.91433164771485
30
0
41
1
10
61.7617587141378
20
-3.91494860933915
30
0
41
1
10
61.7390647767813
20
-3.91762698071568
30
0
41
1
10
61.7277220134615
20
-3.91967561637085
30
0
41
1
10
61.6937209562916
20
-3.92772291132042
30
0
41
1
10
61.671088936861
20
-3.9355987821863
30
0
41
1
10
61.6372626540252
20
-3.95088862882329
30
0
41
1
10
61.6259801418923
20
-3.95659139834979
30
0
41
1
10
61.6038317970543
20
-3.96897723375548
30
0
41
1
10
61.5929235493617
20
-3.97567652370955
30
0
41
1
10
61.5607082419143
20
-3.99727745804475
30
0
41
1
10
61.5399035923416
20
-4.01365853459347
30
0
41
1
10
61.509866301666
20
-4.04152097981242
30
0
41
1
10
61.5000764498663
20
-4.05134777885829
30
0
41
1
10
61.4813198244956
20
-4.07178710943109
30
0
41
1
10
61.4723042864782
20
-4.08244280249036
30
0
41
1
10
61.4464354383261
20
-4.11582325238811
30
0
41
1
10
61.4307158808748
20
-4.13990525085302
30
0
41
1
10
61.4171191652853
20
-4.166554601233
30
0
0
SPLINE
5
11E
100
AcDbEntity
8
1
62
256
6
ByLayer
370
18
48
1
60
0
100
AcDbSpline
70
4
71
3
72
14
73
10
40
0
40
0
40
0
40
0
40
0.25
40
0.25
40
0.5
40
0.5
40
0.75
40
0.75
40
1
40
1
40
1
40
1
41
1
10
62.5129816557063
20
-4.57464994756785
30
0
41
1
10
62.4630351580308
20
-4.53184801558132
30
0
41
1
10
62.4128723405109
20
-4.48710805402325
30
0
41
1
10
62.3119886875376
20
-4.39351417124126
30
0
41
1
10
62.261235132074
20
-4.34462700538992
30
0
41
1
10
62.1592072016576
20
-4.24266523121565
30
0
41
1
10
62.1079316170185
20
-4.18958907097144
30
0
41
1
10
62.0048441098948
20
-4.07918452480703
30
0
41
1
10
61.9530728479392
20
-4.02190581317359
30
0
41
1
10
61.9010515114272
20
-3.96269252743892
30
0
0
SPLINE
5
11F
100
AcDbEntity
8
1
62
256
6
ByLayer
370
18
48
1
60
0
100
AcDbSpline
70
4
71
3
72
8
73
4
40
0
40
0
40
0
40
0
40
1
40
1
40
1
40
1
41
1
10
62.5129816557062
20
-4.57464994756742
30
0
41
1
10
62.5776034478176
20
-4.53291246864657
30
0
41
1
10
62.6422268045224
20
-4.49019449705756
30
0
41
1
10
62.7068429625425
20
-4.44650801895722
30
0
0
SPLINE
5
120
100
AcDbEntity
8
1
62
256
6
ByLayer
370
18
48
1
60
0
100
AcDbSpline
70
4
71
3
72
14
73
10
40
0
40
0
40
0
40
0
40
0.0080187579550728
40
0.0080187579550728
40
0.338679171970048
40
0.338679171970048
40
0.669339585985024
40
0.669339585985024
40
1
40
1
40
1
40
1
41
1
10
63.1836848526894
20
-3.46303201112806
30
0
41
1
10
63.1823915972514
20
-3.46563648914582
30
0
41
1
10
63.1810984932529
20
-3.46824123839178
30
0
41
1
10
63.126489460433
20
-3.57826648283682
30
0
41
1
10
63.0734160184197
20
-3.68616227605091
30
0
41
1
10
62.9677136638773
20
-3.90273780085877
30
0
41
1
10
62.9151638735526
20
-4.01125868449572
30
0
41
1
10
62.8105744672219
20
-4.22872336438832
30
0
41
1
10
62.7585536482379
20
-4.33762514714849
30
0
41
1
10
62.7068429625383
20
-4.44650801895494
30
0
0
SPLINE
5
121
100
AcDbEntity
8
1
62
256
6
ByLayer
370
18
48
1
60
0
100
AcDbSpline
70
4
71
3
72
101
73
97
40
0
40
0
40
0
40
0
40
0.0312499999999965
40
0.0312499999999965
40
0.0624999999999929
40
0.0624999999999929
40
0.0937499999999894
40
0.0937499999999894
40
0.124999999999986
40
0.124999999999986
40
0.140624999999984
40
0.140624999999984
40
0.156249999999982
40
0.156249999999982
40
0.171874999999981
40
0.171874999999981
40
0.187499999999979
40
0.187499999999979
40
0.218749999999977
40
0.218749999999977
40
0.234374999999975
40
0.234374999999975
40
0.249999999999973
40
0.265624999999972
40
0.265624999999972
40
0.28124999999997
40
0.28124999999997
40
0.296874999999968
40
0.296874999999968
40
0.312499999999966
40
0.312499999999966
40
0.343749999999964
40
0.343749999999964
40
0.374999999999962
40
0.374999999999962
40
0.40624999999996
40
0.40624999999996
40
0.437499999999958
40
0.437499999999958
40
0.445312499999958
40
0.445312499999958
40
0.453124999999959
40
0.453124999999959
40
0.46874999999996
40
0.484374999999962
40
0.484374999999962
40
0.499999999999964
40
0.499999999999964
40
0.531249999999967
40
0.531249999999967
40
0.562499999999971
40
0.562499999999971
40
0.593749999999974
40
0.593749999999974
40
0.601562499999975
40
0.601562499999975
40
0.609374999999975
40
0.624999999999976
40
0.624999999999976
40
0.640624999999977
40
0.640624999999977
40
0.656249999999978
40
0.656249999999978
40
0.671874999999979
40
0.671874999999979
40
0.68749999999998
40
0.68749999999998
40
0.718749999999981
40
0.718749999999981
40
0.734374999999981
40
0.734374999999981
40
0.742187499999981
40
0.742187499999981
40
0.749999999999981
40
0.749999999999981
40
0.781249999999983
40
0.781249999999983
40
0.812499999999985
40
0.812499999999985
40
0.843749999999987
40
0.843749999999987
40
0.874999999999989
40
0.874999999999989
40
0.890624999999991
40
0.890624999999991
40
0.898437499999991
40
0.898437499999991
40
0.906249999999991
40
0.906249999999991
40
0.937499999999995
40
0.937499999999995
40
0.953124999999996
40
0.953124999999996
40
0.968749999999998
40
0.968749999999998
40
1
40
1
40
1
40
1
41
1
10
56.1766979319174
20
-3.95197552345073
30
0
41
1
10
55.9787524683254
20
-3.95251722529724
30
0
41
1
10
55.7822781775066
20
-3.94405627127028
30
0
41
1
10
55.3906698638835
20
-3.90962091946778
30
0
41
1
10
55.1954621471161
20
-3.88366838727694
30
0
41
1
10
54.8051024262409
20
-3.81487249751919
30
0
41
1
10
54.6100185608425
20
-3.77202098131673
30
0
41
1
10
54.2194307113801
20
-3.66960168911788
30
0
41
1
10
54.023960313345
20
-3.61000923511293
30
0
41
1
10
53.7296894328441
20
-3.50816787565347
30
0
41
1
10
53.6314181053329
20
-3.4721464925282
30
0
41
1
10
53.4343610448377
20
-3.39598119325396
30
0
41
1
10
53.3354215568168
20
-3.35576620219146
30
0
41
1
10
53.1382770099895
20
-3.27196609251107
30
0
41
1
10
53.0399248066987
20
-3.22833053244383
30
0
41
1
10
52.8434309389751
20
-3.13782961510128
30
0
41
1
10
52.7452920004335
20
-3.09096545793713
30
0
41
1
10
52.4514384756045
20
-2.94539503140953
30
0
41
1
10
52.2562289561141
20
-2.8417519708882
30
0
41
1
10
51.963721353245
20
-2.67706456442536
30
0
41
1
10
51.8662712183065
20
-2.62062991138416
30
0
41
1
10
51.6713640960262
20
-2.50477630049599
30
0
41
1
10
51.4764592181898
20
-2.38592730122079
30
0
41
1
10
51.2810721924865
20
-2.2615441550964
30
0
41
1
10
51.085184159227
20
-2.13466130583507
30
0
41
1
10
50.9869631271202
20
-2.070001298194
30
0
41
1
10
50.7899634454297
20
-1.93823588472009
30
0
41
1
10
50.6911976730384
20
-1.87111657479295
30
0
41
1
10
50.4932130370478
20
-1.73425653437863
30
0
41
1
10
50.3945387963975
20
-1.66486777906692
30
0
41
1
10
50.0994638949665
20
-1.45439033396275
30
0
41
1
10
49.9038769465226
20
-1.31091286895818
30
0
41
1
10
49.5133708662345
20
-1.01966922094391
30
0
41
1
10
49.3183836429596
20
-0.87199167517926
30
0
41
1
10
48.9281102782024
20
-0.573618443516807
30
0
41
1
10
48.7328641677268
20
-0.422872541442501
30
0
41
1
10
48.3415181061973
20
-0.119047629260592
30
0
41
1
10
48.1454459969444
20
0.0340701197127373
30
0
41
1
10
47.8991209052857
20
0.226064995449463
30
0
41
1
10
47.84979364988
20
0.264493225979066
30
0
41
1
10
47.7509950254112
20
0.341383899937711
30
0
41
1
10
47.7016094302637
20
0.379779485432295
30
0
41
1
10
47.5537440886248
20
0.494564702460878
30
0
41
1
10
47.3571361381317
20
0.646722122985864
30
0
41
1
10
47.1611655790802
20
0.796554001306276
30
0
41
1
10
46.9652910807789
20
0.944962963383716
30
0
41
1
10
46.8673968388721
20
1.01845156878389
30
0
41
1
10
46.574203321495
20
1.23724352145607
30
0
41
1
10
46.3793350322356
20
1.38079146162167
30
0
41
1
10
45.9894242152719
20
1.66154827189447
30
0
41
1
10
45.794407731503
20
1.7987869716392
30
0
41
1
10
45.4027092853489
20
2.06510560547767
30
0
41
1
10
45.2059838065673
20
2.1941449499395
30
0
41
1
10
44.9586411585983
20
2.34982291681467
30
0
41
1
10
44.9091606152702
20
2.38063789899667
30
0
41
1
10
44.8104169761605
20
2.44146039019387
30
0
41
1
10
44.6625139246224
20
2.53155472575642
30
0
41
1
10
44.51519480822
20
2.61820505502988
30
0
41
1
10
44.3192055675642
20
2.73062788048947
30
0
41
1
10
44.2214358180124
20
2.78528995483666
30
0
41
1
10
44.0262271067365
20
2.89141615387987
30
0
41
1
10
43.9287726006646
20
2.94286440634897
30
0
41
1
10
43.7338709957036
20
3.04229358165941
30
0
41
1
10
43.6364060641945
20
3.09026069155419
30
0
41
1
10
43.4412928373383
20
3.18260340863608
30
0
41
1
10
43.3436638097834
20
3.22699570359831
30
0
41
1
10
43.0505488796084
20
3.3548331887267
30
0
41
1
10
42.8548605744237
20
3.43296342317851
30
0
41
1
10
42.5604385227548
20
3.53898204020751
30
0
41
1
10
42.4621592898135
20
3.57246179404896
30
0
41
1
10
42.3144109894236
20
3.61977066957908
30
0
41
1
10
42.2651053330426
20
3.63505441909808
30
0
41
1
10
42.166355630679
20
3.6646274522665
30
0
41
1
10
42.1169482460464
20
3.67890461000672
30
0
41
1
10
41.8704745373115
20
3.74749568245699
30
0
41
1
10
41.6743598980444
20
3.79362814709219
30
0
41
1
10
41.2826789492178
20
3.86839826574618
30
0
41
1
10
41.0872122202808
20
3.89710610156863
30
0
41
1
10
40.6970423394594
20
3.93731326361726
30
0
41
1
10
40.5023693658256
20
3.94877053866449
30
0
41
1
10
40.1119623087789
20
3.95404478119184
30
0
41
1
10
39.9163155965946
20
3.94788340121451
30
0
41
1
10
39.6213395388277
20
3.92527918324242
30
0
41
1
10
39.5227606264695
20
3.91551715247445
30
0
41
1
10
39.3743930254555
20
3.89751300033038
30
0
41
1
10
39.3248701714798
20
3.89095186876739
30
0
41
1
10
39.22605126934
20
3.87676479130141
30
0
41
1
10
39.1767064767593
20
3.86913319744633
30
0
41
1
10
38.9302972552373
20
3.82830801288776
30
0
41
1
10
38.7342139532926
20
3.78711946045735
30
0
41
1
10
38.4413554758639
20
3.71277262734068
30
0
41
1
10
38.3439095941172
20
3.68590577802823
30
0
41
1
10
38.1490474670769
20
3.62816661098154
30
0
41
1
10
38.0516124556379
20
3.59730540589092
30
0
41
1
10
37.7590629008125
20
3.49891990777337
30
0
41
1
10
37.5637554222202
20
3.42558353248734
30
0
41
1
10
37.3679981149854
20
3.34458586289102
30
0
0
SPLINE
5
122
100
AcDbEntity
8
1
62
256
6
ByLayer
370
18
48
1
60
0
100
AcDbSpline
70
4
71
3
72
14
73
10
40
0
40
0
40
0
40
0
40
0.023289067713582
40
0.023289067713582
40
0.35773785203738
40
0.35773785203738
40
0.692186636361178
40
0.692186636361178
40
1
40
1
40
1
40
1
41
1
10
37.3679982245586
20
3.34458520432136
30
0
41
1
10
37.3649358567417
20
3.33748192348907
30
0
41
1
10
37.3618530025784
20
3.33038830316073
30
0
41
1
10
37.3141827521314
20
3.22157354422214
30
0
41
1
10
37.2649978822266
20
3.12119533408099
30
0
41
1
10
37.1592482232796
20
2.92819447105234
30
0
41
1
10
37.1029445115142
20
2.83595833698885
30
0
41
1
10
36.9880546631131
20
2.6672467509747
30
0
41
1
10
36.9300260735781
20
2.59007791077778
30
0
41
1
10
36.8686756982101
20
2.51704017852012
30
0
0
SPLINE
5
123
100
AcDbEntity
8
1
62
256
6
ByLayer
370
18
48
1
60
0
100
AcDbSpline
70
4
71
3
72
110
73
106
40
0
40
0
40
0
40
0
40
0.0379168480039516
40
0.0379168480039516
40
0.0568752720059271
40
0.0568752720059271
40
0.0758336960079026
40
0.0758336960079026
40
0.113750544011855
40
0.113750544011855
40
0.132708968013832
40
0.132708968013832
40
0.14218818001482
40
0.14218818001482
40
0.151667392015809
40
0.151667392015809
40
0.170625816017784
40
0.170625816017784
40
0.18958424001976
40
0.18958424001976
40
0.227501088023712
40
0.227501088023712
40
0.246459512025688
40
0.246459512025688
40
0.255938724026677
40
0.255938724026677
40
0.265417936027665
40
0.265417936027665
40
0.284376360029641
40
0.284376360029641
40
0.293855572030629
40
0.293855572030629
40
0.303334784031617
40
0.303334784031617
40
0.34125163203557
40
0.34125163203557
40
0.379168480039522
40
0.379168480039522
40
0.398126904041498
40
0.398126904041498
40
0.417085328043474
40
0.417085328043474
40
0.436043752045451
40
0.436043752045451
40
0.445522964046439
40
0.445522964046439
40
0.455002176047427
40
0.455002176047427
40
0.473960600049403
40
0.473960600049403
40
0.492919024051379
40
0.492919024051379
40
0.511877448053356
40
0.511877448053356
40
0.530835872055332
40
0.530835872055332
40
0.549794296057308
40
0.549794296057308
40
0.568752720059284
40
0.568752720059284
40
0.587711144061261
40
0.587711144061261
40
0.597190356062249
40
0.597190356062249
40
0.606669568063238
40
0.606669568063238
40
0.625627992065217
40
0.625627992065217
40
0.644586416067196
40
0.644586416067196
40
0.663544840069175
40
0.663544840069175
40
0.682503264071154
40
0.682503264071154
40
0.701461688073133
40
0.701461688073133
40
0.720420112075113
40
0.720420112075113
40
0.739378536077092
40
0.739378536077092
40
0.758336960079071
40
0.758336960079071
40
0.79625380808303
40
0.79625380808303
40
0.834170656086989
40
0.834170656086989
40
0.85312908008897
40
0.85312908008897
40
0.87208750409095
40
0.87208750409095
40
0.91000435209491
40
0.91000435209491
40
0.9194835640959
40
0.9194835640959
40
0.92896277609689
40
0.92896277609689
40
0.93844198809788
40
0.93844198809788
40
0.947921200098871
40
0.947921200098871
40
0.96687962410085
40
0.96687962410085
40
0.985838048102829
40
0.985838048102829
40
1
40
1
40
1
40
1
41
1
10
34.1320478485309
20
3.7279883729916
30
0
41
1
10
34.3624187411561
20
3.66856643746584
30
0
41
1
10
34.5920815924163
20
3.59827077041931
30
0
41
1
10
34.9359824980486
20
3.47731364449319
30
0
41
1
10
35.0505078268027
20
3.43439836859108
30
0
41
1
10
35.2793085942321
20
3.34334949090356
30
0
41
1
10
35.3935501323438
20
3.29519019105334
30
0
41
1
10
35.7361067171358
20
3.14292243855732
30
0
41
1
10
35.9642888338458
20
3.03099390449273
30
0
41
1
10
36.3093286017624
20
2.84978118628126
30
0
41
1
10
36.4247683201989
20
2.78714226922591
30
0
41
1
10
36.5986011998743
20
2.68983596903502
30
0
41
1
10
36.6567119269075
20
2.65680884168927
30
0
41
1
10
36.7726560721426
20
2.58991092773113
30
0
41
1
10
36.8305352072777
20
2.55601549331001
30
0
41
1
10
37.0038784972829
20
2.45298253153004
30
0
41
1
10
37.1190371028434
20
2.38248799997422
30
0
41
1
10
37.3484862702264
20
2.23782888821185
30
0
41
1
10
37.4628075051183
20
2.1636938077454
30
0
41
1
10
37.8052231409695
20
1.93659368573529
30
0
41
1
10
38.032749899586
20
1.7788795867929
30
0
41
1
10
38.3764799258017
20
1.53718087426807
30
0
41
1
10
38.4914039507362
20
1.4557045182456
30
0
41
1
10
38.6638328523986
20
1.33154760809879
30
0
41
1
10
38.7213083701148
20
1.28982738253413
30
0
41
1
10
38.836189907212
20
1.20562256800656
30
0
41
1
10
38.8936073410953
20
1.16315183172534
30
0
41
1
10
39.0658848129946
20
1.03473646178776
30
0
41
1
10
39.1807658967626
20
0.947781390157161
30
0
41
1
10
39.3535948423491
20
0.815872320217039
30
0
41
1
10
39.4113294354044
20
0.771628193741179
30
0
41
1
10
39.5268849472878
20
0.682896626916943
30
0
41
1
10
39.5845931569188
20
0.638508188727059
30
0
41
1
10
39.8728684859813
20
0.416556445317866
30
0
41
1
10
40.1026189274077
20
0.238935682075407
30
0
41
1
10
40.5613290259449
20
-0.115260192132922
30
0
41
1
10
40.7903798475338
20
-0.291719217786778
30
0
41
1
10
41.133024353201
20
-0.556060625391893
30
0
41
1
10
41.2471193849957
20
-0.644068585855706
30
0
41
1
10
41.4755813188736
20
-0.819204398297501
30
0
41
1
10
41.5899612331379
20
-0.906315329956868
30
0
41
1
10
41.8196248852291
20
-1.07884364557177
30
0
41
1
10
41.9348739947022
20
-1.16430621762672
30
0
41
1
10
42.1083829979694
20
-1.29128425217141
30
0
41
1
10
42.1663244697281
20
-1.33340853720651
30
0
41
1
10
42.282409953742
20
-1.41726248506731
30
0
41
1
10
42.3405142837652
20
-1.45896283448224
30
0
41
1
10
42.5143116547761
20
-1.58293299323805
30
0
41
1
10
42.6297203408358
20
-1.66428226976967
30
0
41
1
10
42.8595898386797
20
-1.82444039596979
30
0
41
1
10
42.9740891678258
20
-1.90319938521907
30
0
41
1
10
43.2026165604424
20
-2.05761500067976
30
0
41
1
10
43.3166418363195
20
-2.13327418060851
30
0
41
1
10
43.5446892947471
20
-2.28099101351501
30
0
41
1
10
43.6587142228541
20
-2.35304439485054
30
0
41
1
10
43.8873884233818
20
-2.492942953343
30
0
41
1
10
44.0020216241745
20
-2.56081306278736
30
0
41
1
10
44.2315408397467
20
-2.69276481078711
30
0
41
1
10
44.3463642245513
20
-2.75690544020301
30
0
41
1
10
44.5760812805814
20
-2.88149925318751
30
0
41
1
10
44.6910190258363
20
-2.94190817896845
30
0
41
1
10
44.8637989749656
20
-3.02939485999031
30
0
41
1
10
44.9214549583216
20
-3.05803570298835
30
0
41
1
10
45.0369396225723
20
-3.11422323053859
30
0
41
1
10
45.0948358232012
20
-3.14179995786651
30
0
41
1
10
45.2681830298899
20
-3.22250671695625
30
0
41
1
10
45.3833602207421
20
-3.27365880334057
30
0
41
1
10
45.6133444532439
20
-3.37047752976005
30
0
41
1
10
45.7281893172064
20
-3.41612115181195
30
0
41
1
10
45.9576854464239
20
-3.50193450570876
30
0
41
1
10
46.0723218028765
20
-3.54211578499385
30
0
41
1
10
46.3013057057027
20
-3.61710954054391
30
0
41
1
10
46.4156674676256
20
-3.65191233349844
30
0
41
1
10
46.6441931410504
20
-3.71607196809597
30
0
41
1
10
46.7583535090137
20
-3.7454313250058
30
0
41
1
10
46.9864768761866
20
-3.79861112621154
30
0
41
1
10
47.1005078516182
20
-3.82238977933034
30
0
41
1
10
47.3296168934911
20
-3.86393668784098
30
0
41
1
10
47.4445956511692
20
-3.8817520733584
30
0
41
1
10
47.6753163754695
20
-3.91148951071838
30
0
41
1
10
47.7910340394898
20
-3.92341621107437
30
0
41
1
10
48.1393069646636
20
-3.95020415475065
30
0
41
1
10
48.3698441711595
20
-3.95583656015523
30
0
41
1
10
48.8284081806355
20
-3.94312654444531
30
0
41
1
10
49.0564438683051
20
-3.92472262235384
30
0
41
1
10
49.3987413241937
20
-3.87943208815165
30
0
41
1
10
49.5128979274032
20
-3.8613959836793
30
0
41
1
10
49.7417280891037
20
-3.81960102163637
30
0
41
1
10
49.8563806746795
20
-3.79584183498776
30
0
41
1
10
50.2010151243802
20
-3.71597844935315
30
0
41
1
10
50.4316804126847
20
-3.65137104767965
30
0
41
1
10
50.7204319308279
20
-3.55525422922594
30
0
41
1
10
50.7782297729627
20
-3.535258546791
30
0
41
1
10
50.8934721502706
20
-3.4939852668233
30
0
41
1
10
50.9509847084792
20
-3.47268569853713
30
0
41
1
10
51.0659276844669
20
-3.4288599662878
30
0
41
1
10
51.1233620700785
20
-3.40633648410659
30
0
41
1
10
51.2382784277065
20
-3.3601728507924
30
0
41
1
10
51.2957491124401
20
-3.33652579739658
30
0
41
1
10
51.4681573611144
20
-3.26389125124987
30
0
41
1
10
51.5830959747797
20
-3.21321892603325
30
0
41
1
10
51.8126338230129
20
-3.10719444321344
30
0
41
1
10
51.9271778113712
20
-3.05179391443704
30
0
41
1
10
52.1269793339193
20
-2.95087933881095
30
0
41
1
10
52.2123273633264
20
-2.90642086317956
30
0
41
1
10
52.2976343849112
20
-2.860681451033
30
0
0
SPLINE
5
124
100
AcDbEntity
8
1
62
256
6
ByLayer
370
18
48
1
60
0
100
AcDbSpline
70
4
71
3
72
14
73
10
40
0
40
0
40
0
40
0
40
0.25
40
0.25
40
0.5
40
0.5
40
0.75
40
0.75
40
1
40
1
40
1
40
1
41
1
10
65.0773334607776
20
5.60498107031398
30
0
41
1
10
65.0274014128255
20
5.52575139399332
30
0
41
1
10
64.9772426575962
20
5.44546076450987
30
0
41
1
10
64.8763711398609
20
5.28273539084978
30
0
41
1
10
64.825626992564
20
5.2002491224263
30
0
41
1
10
64.7236420510714
20
5.03337089257434
30
0
41
1
10
64.6724005035611
20
4.94897800108021
30
0
41
1
10
64.5694152892265
20
4.77843879665366
30
0
41
1
10
64.5177096027642
20
4.69235876574763
30
0
41
1
10
64.4657692525237
20
4.60553567178363
30
0
0
SPLINE
5
125
100
AcDbEntity
8
1
62
256
6
ByLayer
370
18
48
1
60
0
100
AcDbSpline
70
4
71
3
72
8
73
4
40
0
40
0
40
0
40
0
40
1
40
1
40
1
40
1
41
1
10
65.0773334607775
20
5.60498107031327
30
0
41
1
10
65.1420447297327
20
5.59945643731044
30
0
41
1
10
65.2067112892832
20
5.59258551176802
30
0
41
1
10
65.2713346099571
20
5.58437956504488
30
0
0
SPLINE
5
126
100
AcDbEntity
8
1
62
256
6
ByLayer
370
18
48
1
60
0
100
AcDbSpline
70
4
71
3
72
14
73
10
40
0
40
0
40
0
40
0
40
0.25
40
0.25
40
0.5
40
0.5
40
0.75
40
0.75
40
1
40
1
40
1
40
1
41
1
10
65.9053653381752
20
4.43224067522081
30
0
41
1
10
65.8514404496088
20
4.53280391811813
30
0
41
1
10
65.7978867923582
20
4.63223677515384
30
0
41
1
10
65.6912760265234
20
4.82895947325028
30
0
41
1
10
65.6382046057458
20
4.92627436356236
30
0
41
1
10
65.5324762013728
20
5.11868706830629
30
0
41
1
10
65.4798958395429
20
5.21364736449417
30
0
41
1
10
65.3752129635828
20
5.4010385596641
30
0
41
1
10
65.3231296347469
20
5.49343434090221
30
0
41
1
10
65.2713346099571
20
5.58437956504494
30
0
0
SPLINE
5
127
100
AcDbEntity
8
1
62
256
6
ByLayer
370
18
48
1
60
0
100
AcDbSpline
70
4
71
3
72
32
73
28
40
0
40
0
40
0
40
0
40
0.0625000000000053
40
0.0625000000000053
40
0.125000000000011
40
0.125000000000011
40
0.187500000000016
40
0.187500000000016
40
0.250000000000021
40
0.250000000000021
40
0.312500000000027
40
0.312500000000027
40
0.375000000000032
40
0.375000000000032
40
0.500000000000042
40
0.500000000000042
40
0.562500000000026
40
0.562500000000026
40
0.62500000000001
40
0.62500000000001
40
0.750000000000018
40
0.750000000000018
40
0.812500000000022
40
0.812500000000022
40
0.875000000000026
40
0.875000000000026
40
1
40
1
40
1
40
1
41
1
10
66.3894437421496
20
4.29331926211131
30
0
41
1
10
66.3819074856091
20
4.28322692464539
30
0
41
1
10
66.3736081832042
20
4.27450602713037
30
0
41
1
10
66.3557785635507
20
4.25926100158071
30
0
41
1
10
66.3462449715951
20
4.2527430936521
30
0
41
1
10
66.326091854732
20
4.24164568324105
30
0
41
1
10
66.3156595135898
20
4.23717480070616
30
0
41
1
10
66.2944011864339
20
4.23009177973174
30
0
41
1
10
66.2835411010547
20
4.22746511433499
30
0
41
1
10
66.2614262059104
20
4.22382008747121
30
0
41
1
10
66.2501129019861
20
4.2228034029599
30
0
41
1
10
66.2274310349878
20
4.22226892082955
30
0
41
1
10
66.2160965613685
20
4.22274228106639
30
0
41
1
10
66.1821261101413
20
4.22614135898255
30
0
41
1
10
66.1595221803523
20
4.23102091776033
30
0
41
1
10
66.1257443356145
20
4.24193444828776
30
0
41
1
10
66.1144717153885
20
4.24619745226224
30
0
41
1
10
66.0923308885201
20
4.25579468772378
30
0
41
1
10
66.0814262752777
20
4.26113696454826
30
0
41
1
10
66.0492202509639
20
4.27877327088535
30
0
41
1
10
66.0284195193401
20
4.29265114855659
30
0
41
1
10
65.9983817279851
20
4.31698031035555
30
0
41
1
10
65.9885648286506
20
4.32569230794149
30
0
41
1
10
65.9697585135115
20
4.34403323557098
30
0
41
1
10
65.9607178144141
20
4.35370044738974
30
0
41
1
10
65.9347738598298
20
4.38431382622673
30
0
41
1
10
65.9190040783128
20
4.40680611293001
30
0
41
1
10
65.9053653381752
20
4.43224067522092
30
0
0
SPLINE
5
128
100
AcDbEntity
8
1
62
256
6
ByLayer
370
18
48
1
60
0
100
AcDbSpline
70
4
71
3
72
13
73
9
40
0
40
0
40
0
40
0
40
0.25
40
0.25
40
0.5
40
0.75
40
0.75
40
1
40
1
40
1
40
1
41
1
10
67.0010208759586
20
5.04753995191305
30
0
41
1
10
66.9510925986031
20
4.99177023530976
30
0
41
1
10
66.9009311604251
20
4.93420714642579
30
0
41
1
10
66.8000505053706
20
4.81546746662139
30
0
41
1
10
66.6985505415586
20
4.69303763061666
30
0
41
1
10
66.5960624707303
20
4.56366238355903
30
0
41
1
10
66.4930791151024
20
4.43089192597012
30
0
41
1
10
66.4413767190251
20
4.36286640735776
30
0
41
1
10
66.3894437421496
20
4.29331926211134
30
0
0
SPLINE
5
129
100
AcDbEntity
8
1
62
256
6
ByLayer
370
18
48
1
60
0
100
AcDbSpline
70
4
71
3
72
8
73
4
40
0
40
0
40
0
40
0
40
1
40
1
40
1
40
1
41
1
10
67.0010208759585
20
5.04753995191237
30
0
41
1
10
67.0659707459664
20
5.01607463652934
30
0
41
1
10
67.1307889601071
20
4.98345306905117
30
0
41
1
10
67.1954694863236
20
4.9496838575468
30
0
0
SPLINE
5
12A
100
AcDbEntity
8
1
62
256
6
ByLayer
370
18
48
1
60
0
100
AcDbSpline
70
4
71
3
72
14
73
10
40
0
40
0
40
0
40
0
40
0.249999999999999
40
0.249999999999999
40
0.5
40
0.5
40
0.75
40
0.75
40
1
40
1
40
1
40
1
41
1
10
67.8288254431571
20
3.65843032479987
30
0
41
1
10
67.7749716755478
20
3.76633298268115
30
0
41
1
10
67.7214954915142
20
3.87427090032605
30
0
41
1
10
67.6150395794356
20
4.09011661815725
30
0
41
1
10
67.5620481154344
20
4.1980414561904
30
0
41
1
10
67.4564534135108
20
4.41372431840864
30
0
41
1
10
67.4039255866437
20
4.52133134394006
30
0
41
1
10
67.2993173493299
20
4.73603232783344
30
0
41
1
10
67.2472561595179
20
4.84308969690596
30
0
41
1
10
67.1954694863236
20
4.94968385754677
30
0
0
SPLINE
5
12B
100
AcDbEntity
8
1
62
256
6
ByLayer
370
18
48
1
60
0
100
AcDbSpline
70
4
71
3
72
32
73
28
40
0
40
0
40
0
40
0
40
0.0625000000000132
40
0.0625000000000132
40
0.125000000000026
40
0.125000000000026
40
0.18750000000004
40
0.18750000000004
40
0.250000000000053
40
0.250000000000053
40
0.312500000000066
40
0.312500000000066
40
0.375000000000079
40
0.375000000000079
40
0.500000000000104
40
0.500000000000104
40
0.562500000000096
40
0.562500000000096
40
0.625000000000087
40
0.625000000000087
40
0.750000000000069
40
0.750000000000069
40
0.81250000000006
40
0.81250000000006
40
0.875000000000052
40
0.875000000000052
40
1
40
1
40
1
40
1
41
1
10
68.3129298972974
20
3.37489319349765
30
0
41
1
10
68.3053947806792
20
3.36874974383966
30
0
41
1
10
68.2970967945649
20
3.36401992013654
30
0
41
1
10
68.2792695736864
20
3.35682246760786
30
0
41
1
10
68.2697370723092
20
3.35436130134201
30
0
41
1
10
68.249585531266
20
3.35143599671434
30
0
41
1
10
68.2391513860022
20
3.3510037223478
30
0
41
1
10
68.2178899231053
20
3.35185094961707
30
0
41
1
10
68.2070277726053
20
3.35312921118998
30
0
41
1
10
68.1849076782225
20
3.3571931513722
30
0
41
1
10
68.1735914708675
20
3.35999909316908
30
0
41
1
10
68.1508998025952
20
3.36692405300118
30
0
41
1
10
68.1395602879478
20
3.37102387809705
30
0
41
1
10
68.1055752727207
20
3.38503427425402
30
0
41
1
10
68.0829624104829
20
3.39663396022661
30
0
41
1
10
68.0491758923992
20
3.41717208320651
30
0
41
1
10
68.0379011935713
20
3.42457549934929
30
0
41
1
10
68.0157581742426
20
3.44020844430028
30
0
41
1
10
68.0048533474597
20
3.44845679778615
30
0
41
1
10
67.9726485322328
20
3.47448733898281
30
0
41
1
10
67.9518510600323
20
3.49353493628104
30
0
41
1
10
67.9218190152444
20
3.52493425678071
30
0
41
1
10
67.9120055121785
20
3.5358850287748
30
0
41
1
10
67.8932053134968
20
3.55836423332409
30
0
41
1
10
67.8841673869366
20
3.56994345280475
30
0
41
1
10
67.858230449805
20
3.60578400104589
30
0
41
1
10
67.8424635220684
20
3.6311047535678
30
0
41
1
10
67.8288254431571
20
3.65843032480012
30
0
0
SPLINE
5
12C
100
AcDbEntity
8
1
62
256
6
ByLayer
370
18
48
1
60
0
100
AcDbSpline
70
4
71
3
72
10
73
6
40
0
40
0
40
0
40
0
40
0.5
40
0.5
40
1
40
1
40
1
40
1
41
1
10
68.5906144170137
20
3.581863106497
30
0
41
1
10
68.5447287372831
20
3.55103732784332
30
0
41
1
10
68.4986245705495
20
3.51833900943944
30
0
41
1
10
68.4060454841526
20
3.44927169203893
30
0
41
1
10
68.3595813537971
20
3.41292855366512
30
0
41
1
10
68.3129298972974
20
3.37489319349765
30
0
0
SPLINE
5
12D
100
AcDbEntity
8
1
62
256
6
ByLayer
370
18
48
1
60
0
100
AcDbSpline
70
4
71
3
72
10
73
6
40
0
40
0
40
0
40
0
40
0.5
40
0.5
40
1
40
1
40
1
40
1
41
1
10
68.5906144170137
20
3.58186310649697
30
0
41
1
10
68.7744101910913
20
3.38233578857074
30
0
41
1
10
68.9617111445234
20
3.1832868721296
30
0
41
1
10
69.3433929003062
20
2.78777407426915
30
0
41
1
10
69.5377885030887
20
2.59130307938759
30
0
41
1
10
69.7363152176963
20
2.39732332758186
30
0
0
SPLINE
5
12E
100
AcDbEntity
8
1
62
256
6
ByLayer
370
18
48
1
60
0
100
AcDbSpline
70
4
71
3
72
8
73
4
40
0
40
0
40
0
40
0
40
1
40
1
40
1
40
1
41
1
10
69.7523011704025
20
2.36766548124243
30
0
41
1
10
69.7469687518872
20
2.37753967277558
30
0
41
1
10
69.7416401448639
20
2.38742567281602
30
0
41
1
10
69.7363152176963
20
2.39732332758186
30
0
0
SPLINE
5
12F
100
AcDbEntity
8
1
62
256
6
ByLayer
370
18
48
1
60
0
100
AcDbSpline
70
4
71
3
72
26
73
22
40
0
40
0
40
0
40
0
40
0.124999999999962
40
0.124999999999962
40
0.187499999999942
40
0.187499999999942
40
0.249999999999921
40
0.249999999999921
40
0.374999999999934
40
0.374999999999934
40
0.499999999999947
40
0.499999999999947
40
0.624999999999961
40
0.624999999999961
40
0.687499999999967
40
0.687499999999967
40
0.749999999999974
40
0.749999999999974
40
0.874999999999987
40
0.874999999999987
40
1
40
1
40
1
40
1
41
1
10
70.1587927314596
20
1.99456888517128
30
0
41
1
10
70.1414405593064
20
2.00121959183676
30
0
41
1
10
70.1234389921764
20
2.00973545057786
30
0
41
1
10
70.0956756179755
20
2.02481846039709
30
0
41
1
10
70.0862739581138
20
2.03025040671429
30
0
41
1
10
70.0675600401372
20
2.04165406432014
30
0
41
1
10
70.0582073253961
20
2.04764655347725
30
0
41
1
10
70.0301700522547
20
2.06643091252994
30
0
41
1
10
70.0115059636678
20
2.08002213878299
30
0
41
1
10
69.9742820096016
20
2.10922708471071
30
0
41
1
10
69.9556337865922
20
2.12493347050537
30
0
41
1
10
69.9194618769525
20
2.15758717331204
30
0
41
1
10
69.9018300544597
20
2.17460944790116
30
0
41
1
10
69.8761178196112
20
2.20124449278663
30
0
41
1
10
69.8676703297314
20
2.21030753367663
30
0
41
1
10
69.8510404353235
20
2.22882815279084
30
0
41
1
10
69.8428248003854
20
2.23832680736064
30
0
41
1
10
69.8189398477182
20
2.26707553284157
30
0
41
1
10
69.8039894021261
20
2.28659806308815
30
0
41
1
10
69.7763117359221
20
2.32646093692983
30
0
41
1
10
69.7635710098299
20
2.34679679797347
30
0
41
1
10
69.7523011704025
20
2.36766548124274
30
0
0
SPLINE
5
130
100
AcDbEntity
8
1
62
256
6
ByLayer
370
18
48
1
60
0
100
AcDbSpline
70
4
71
3
72
14
73
10
40
0
40
0
40
0
40
0
40
0.25
40
0.25
40
0.5
40
0.5
40
0.75
40
0.75
40
1
40
1
40
1
40
1
41
1
10
70.1587927314597
20
1.99456888517142
30
0
41
1
10
70.3062997010927
20
1.85745368841245
30
0
41
1
10
70.4557646188146
20
1.7222158076886
30
0
41
1
10
70.7582184153607
20
1.45560358959094
30
0
41
1
10
70.9111845106149
20
1.32421788509987
30
0
41
1
10
71.2185918145943
20
1.06352241561487
30
0
41
1
10
71.3728821165063
20
0.934044953282495
30
0
41
1
10
71.6814690372253
20
0.675634559544307
30
0
41
1
10
71.8357937562474
20
0.546727022902246
30
0
41
1
10
71.9899632712979
20
0.417895490818523
30
0
0
SPLINE
5
131
100
AcDbEntity
8
1
62
256
6
ByLayer
370
18
48
1
60
0
100
AcDbSpline
70
4
71
3
72
14
73
10
40
0
40
0
40
0
40
0
40
0.25
40
0.25
40
0.5
40
0.5
40
0.75
40
0.75
40
1
40
1
40
1
40
1
41
1
10
71.9899632712979
20
0.417895490818523
30
0
41
1
10
72.0361536239523
20
0.365112142298585
30
0
41
1
10
72.08296032159
20
0.313710510467672
30
0
41
1
10
72.1787892276307
20
0.21512029564721
30
0
41
1
10
72.227690515486
20
0.167916715422422
30
0
41
1
10
72.3276181550833
20
0.0775937335896231
30
0
41
1
10
72.378574040264
20
0.0345272226798841
30
0
41
1
10
72.4825874828956
20
-0.047369801426612
30
0
41
1
10
72.5356719138486
20
-0.0862205899035473
30
0
41
1
10
72.59
20
-0.123039312382531
30
0
0
SPLINE
5
132
100
AcDbEntity
8
1
62
256
6
ByLayer
370
18
48
1
60
0
100
AcDbSpline
70
4
71
3
72
57
73
53
40
0
40
0
40
0
40
0
40
0.0624999999999995
40
0.0624999999999995
40
0.0781249999999996
40
0.0781249999999996
40
0.0937499999999996
40
0.0937499999999996
40
0.125
40
0.125
40
0.1875
40
0.1875
40
0.21875
40
0.21875
40
0.234375
40
0.234375
40
0.25
40
0.25
40
0.28125
40
0.28125
40
0.3125
40
0.3125
40
0.375
40
0.375
40
0.5
40
0.5
40
0.625000000000001
40
0.625000000000001
40
0.687500000000001
40
0.687500000000001
40
0.718750000000001
40
0.718750000000001
40
0.734375000000001
40
0.734375000000001
40
0.750000000000001
40
0.750000000000001
40
0.781250000000001
40
0.781250000000001
40
0.812500000000001
40
0.812500000000001
40
0.843750000000001
40
0.843750000000001
40
0.859375000000001
40
0.859375000000001
40
0.875000000000001
40
0.9375
40
0.9375
40
0.96875
40
0.96875
40
0.984375
40
0.984375
40
1
40
1
40
1
40
1
41
1
10
72.59
20
-0.123039312382531
30
0
41
1
10
72.59
20
-0.111957394731292
30
0
41
1
10
72.59
20
-0.0919915196752186
30
0
41
1
10
72.59
20
-0.0555535791575323
30
0
41
1
10
72.59
20
-0.04768577885892
30
0
41
1
10
72.59
20
-0.0307545394938415
30
0
41
1
10
72.59
20
-0.0216677477210112
30
0
41
1
10
72.59
20
0.0072709951080299
30
0
41
1
10
72.59
20
0.0287338390091065
30
0
41
1
10
72.59
20
0.0992826987793478
30
0
41
1
10
72.59
20
0.154456076655436
30
0
41
1
10
72.59
20
0.24933033655401
30
0
41
1
10
72.59
20
0.282992494743553
30
0
41
1
10
72.59
20
0.336775012239372
30
0
41
1
10
72.59
20
0.355285348031913
30
0
41
1
10
72.59
20
0.393031469283471
30
0
41
1
10
72.59
20
0.412302209908518
30
0
41
1
10
72.59
20
0.471116740437509
30
0
41
1
10
72.59
20
0.511715648247048
30
0
41
1
10
72.59
20
0.593609533137084
30
0
41
1
10
72.59
20
0.634756715277888
30
0
41
1
10
72.59
20
0.758547897737657
30
0
41
1
10
72.59
20
0.841783886491413
30
0
41
1
10
72.59
20
1.09501888394033
30
0
41
1
10
72.59
20
1.26811736134584
30
0
41
1
10
72.59
20
1.62177652269216
30
0
41
1
10
72.59
20
1.8024106554065
30
0
41
1
10
72.5900000000001
20
2.07997983372241
30
0
41
1
10
72.5900000000001
20
2.17359296010778
30
0
41
1
10
72.59
20
2.3146287727526
30
0
41
1
10
72.59
20
2.36164625994991
30
0
41
1
10
72.59
20
2.43379442697196
30
0
41
1
10
72.59
20
2.45815331825364
30
0
41
1
10
72.59
20
2.5073197268386
30
0
41
1
10
72.59
20
2.53215607305
30
0
41
1
10
72.59
20
2.60753296852837
30
0
41
1
10
72.59
20
2.65896338091213
30
0
41
1
10
72.59
20
2.76407399328716
30
0
41
1
10
72.59
20
2.81774771458791
30
0
41
1
10
72.59
20
2.92733444352223
30
0
41
1
10
72.59
20
2.9832567236376
30
0
41
1
10
72.59
20
3.06887472813071
30
0
41
1
10
72.59
20
3.09770426202465
30
0
41
1
10
72.59
20
3.15537809757239
30
0
41
1
10
72.59
20
3.29995075828651
30
0
41
1
10
72.59
20
3.44644045793095
30
0
41
1
10
72.59
20
3.62403255374753
30
0
41
1
10
72.59
20
3.68353343249538
30
0
41
1
10
72.59
20
3.77325836185233
30
0
41
1
10
72.59
20
3.8032202488975
30
0
41
1
10
72.59
20
3.86285002062371
30
0
41
1
10
72.59
20
3.89257301614546
30
0
41
1
10
72.59
20
3.92220468229144
30
0
0
SPLINE
5
133
100
AcDbEntity
8
1
62
256
6
ByLayer
370
18
48
1
60
0
100
AcDbSpline
70
4
71
3
72
14
73
10
40
0
40
0
40
0
40
0
40
0.499999999999985
40
0.499999999999985
40
0.749999999999977
40
0.749999999999977
40
0.874999999999988
40
0.874999999999988
40
1
40
1
40
1
40
1
41
1
10
72.5900000000001
20
3.92220468229144
30
0
41
1
10
72.4892455102878
20
4.01636195974518
30
0
41
1
10
72.3891163963432
20
4.11196058751688
30
0
41
1
10
72.2392392470207
20
4.2576286620905
30
0
41
1
10
72.1893411119471
20
4.30656088976278
30
0
41
1
10
72.1145153266306
20
4.38057208948817
30
0
41
1
10
72.0895700970769
20
4.40535195744243
30
0
41
1
10
72.0396882589084
20
4.45511492621688
30
0
41
1
10
72.0147840548995
20
4.48006553191127
30
0
41
1
10
71.9899872546267
20
4.50499998030315
30
0
0
SPLINE
5
134
100
AcDbEntity
8
1
62
256
6
ByLayer
370
18
48
1
60
0
100
AcDbSpline
70
4
71
3
72
16
73
12
40
0
40
0
40
0
40
0
40
0.250000000000003
40
0.250000000000003
40
0.374999999999999
40
0.374999999999999
40
0.499999999999995
40
0.499999999999995
40
0.749999999999997
40
0.749999999999997
40
1
40
1
40
1
40
1
41
1
10
71.9899872546267
20
4.50499998030315
30
0
41
1
10
71.8138909719687
20
4.47942826959599
30
0
41
1
10
71.6350933372791
20
4.45372449856094
30
0
41
1
10
71.3644328605177
20
4.41717776888191
30
0
41
1
10
71.2738135787972
20
4.40531536075827
30
0
41
1
10
71.0921139774446
20
4.38238483058407
30
0
41
1
10
71.0010433082305
20
4.37131190599587
30
0
41
1
10
70.727471475961
20
4.33935535247716
30
0
41
1
10
70.5445638319992
20
4.31980323480042
30
0
41
1
10
70.1794952524643
20
4.28346353201982
30
0
41
1
10
69.9974831453241
20
4.26660815754653
30
0
41
1
10
69.8172120250615
20
4.24953285214571
30
0
0
SPLINE
5
135
100
AcDbEntity
8
1
62
256
6
ByLayer
370
18
48
1
60
0
100
AcDbSpline
70
4
71
3
72
8
73
4
40
0
40
0
40
0
40
0
40
1
40
1
40
1
40
1
41
1
10
69.7875561394757
20
4.19050809157773
30
0
41
1
10
69.797450060748
20
4.21020955857705
30
0
41
1
10
69.8073352518344
20
4.22988450588136
30
0
41
1
10
69.8172120250615
20
4.24953285214573
30
0
0
SPLINE
5
136
100
AcDbEntity
8
1
62
256
6
ByLayer
370
18
48
1
60
0
100
AcDbSpline
70
4
71
3
72
32
73
28
40
0
40
0
40
0
40
0
40
0.0624999999999929
40
0.0624999999999929
40
0.124999999999986
40
0.124999999999986
40
0.187499999999979
40
0.187499999999979
40
0.249999999999972
40
0.249999999999972
40
0.312499999999965
40
0.312499999999965
40
0.374999999999958
40
0.374999999999958
40
0.43749999999995
40
0.43749999999995
40
0.499999999999943
40
0.499999999999943
40
0.624999999999928
40
0.624999999999928
40
0.68749999999994
40
0.68749999999994
40
0.749999999999952
40
0.749999999999952
40
0.874999999999976
40
0.874999999999976
40
1
40
1
40
1
40
1
41
1
10
69.303516267007
20
3.9896213777487
30
0
41
1
10
69.3111423798553
20
3.98033654097944
30
0
41
1
10
69.3195829757225
20
3.97254212907677
30
0
41
1
10
69.33779086155
20
3.95936513960939
30
0
41
1
10
69.3475960331794
20
3.95397506504611
30
0
41
1
10
69.3682427214586
20
3.94540637635401
30
0
41
1
10
69.3788639427781
20
3.94230647629209
30
0
41
1
10
69.4005825363025
20
3.93804378416695
30
0
41
1
10
69.4116809392042
20
3.93688514970529
30
0
41
1
10
69.4342869231206
20
3.9362800578335
30
0
41
1
10
69.4458088604929
20
3.9368474461906
30
0
41
1
10
69.4686852625484
20
3.93947744648855
30
0
41
1
10
69.4801098356506
20
3.9415359394761
30
0
41
1
10
69.5029231407286
20
3.94697828537292
30
0
41
1
10
69.5143118946998
20
3.95036315521304
30
0
41
1
10
69.5370435747548
20
3.95837712231716
30
0
41
1
10
69.5484167355589
20
3.96302090614339
30
0
41
1
10
69.5822443966783
20
3.97868518919128
30
0
41
1
10
69.604139493324
20
3.99127496924123
30
0
41
1
10
69.6359878839082
20
4.01319186088614
30
0
41
1
10
69.6464368041795
20
4.02100818256196
30
0
41
1
10
69.666980706263
20
4.03769393310111
30
0
41
1
10
69.6770987750137
20
4.04659001413893
30
0
41
1
10
69.7064247363494
20
4.07452028601671
30
0
41
1
10
69.724763766323
20
4.09487423900532
30
0
41
1
10
69.758651485189
20
4.1395745639955
30
0
41
1
10
69.7742938643858
20
4.16409932321943
30
0
41
1
10
69.7875561394777
20
4.1905080915802
30
0
0
SPLINE
5
137
100
AcDbEntity
8
1
62
256
6
ByLayer
370
18
48
1
60
0
100
AcDbSpline
70
4
71
3
72
8
73
4
40
0
40
0
40
0
40
0
40
1
40
1
40
1
40
1
41
1
10
69.1428174973976
20
4.17977475102865
30
0
41
1
10
69.1961667024182
20
4.11845922777755
30
0
41
1
10
69.2497124735756
20
4.05512780933617
30
0
41
1
10
69.303516267007
20
3.9896213777487
30
0
0
SPLINE
5
138
100
AcDbEntity
8
1
62
256
6
ByLayer
370
18
48
1
60
0
100
AcDbSpline
70
4
71
3
72
10
73
6
40
0
40
0
40
0
40
0
40
0.5
40
0.5
40
1
40
1
40
1
40
1
41
1
10
69.1428174973975
20
4.17977475102862
30
0
41
1
10
68.9945449275036
20
4.16222582239837
30
0
41
1
10
68.8480122350012
20
4.14276338017993
30
0
41
1
10
68.5585118078655
20
4.09791971391331
30
0
41
1
10
68.4154516556802
20
4.07252014411611
30
0
41
1
10
68.2744336242909
20
4.0433222256282
30
0
0
SPLINE
5
139
100
AcDbEntity
8
1
62
256
6
ByLayer
370
18
48
1
60
0
100
AcDbSpline
70
4
71
3
72
10
73
6
40
0
40
0
40
0
40
0
40
0.262995839780587
40
0.262995839780587
40
1
40
1
40
1
40
1
41
1
10
67.9969931284265
20
3.46051679812811
30
0
41
1
10
68.0215030810408
20
3.51139914578553
30
0
41
1
10
68.0459600682178
20
3.5623463507678
30
0
41
1
10
68.138765710177
20
3.75630590560695
30
0
41
1
10
68.2068255966088
20
3.89982072443164
30
0
41
1
10
68.2744336242909
20
4.04332222562817
30
0
0
SPLINE
5
13A
100
AcDbEntity
8
1
62
256
6
ByLayer
370
18
48
1
60
0
100
AcDbSpline
70
4
71
3
72
14
73
10
40
0
40
0
40
0
40
0
40
0.25
40
0.25
40
0.5
40
0.5
40
0.75
40
0.75
40
1
40
1
40
1
40
1
41
1
10
67.4120977507699
20
1.79847069818854
30
0
41
1
10
67.4618342396455
20
1.7362166919759
30
0
41
1
10
67.5118003064117
20
1.67587779853932
30
0
41
1
10
67.6122872437807
20
1.55917066959842
30
0
41
1
10
67.6628420316687
20
1.50276721527789
30
0
41
1
10
67.7644242488248
20
1.39427141058033
30
0
41
1
10
67.8154518920486
20
1.34217691693988
30
0
41
1
10
67.9179587547022
20
1.24250738781797
30
0
41
1
10
67.9693967335148
20
1.19494897398644
30
0
41
1
10
68.0210704539381
20
1.1498419746861
30
0
0
SPLINE
5
13B
100
AcDbEntity
8
1
62
256
6
ByLayer
370
18
48
1
60
0
100
AcDbSpline
70
4
71
3
72
10
73
6
40
0
40
0
40
0
40
0
40
0.5
40
0.5
40
1
40
1
40
1
40
1
41
1
10
67.4120977507734
20
1.79847069818536
30
0
41
1
10
67.3797318495135
20
1.8324187904791
30
0
41
1
10
67.3473053459589
20
1.86632015935217
30
0
41
1
10
67.2825553649377
20
1.93378348669774
30
0
41
1
10
67.2502178728178
20
1.96736030964115
30
0
41
1
10
67.2179146134016
20
2.00078067518967
30
0
0
SPLINE
5
13C
100
AcDbEntity
8
1
62
256
6
ByLayer
370
18
48
1
60
0
100
AcDbSpline
70
4
71
3
72
14
73
10
40
0
40
0
40
0
40
0
40
0.25
40
0.25
40
0.5
40
0.5
40
0.75
40
0.75
40
1
40
1
40
1
40
1
41
1
10
66.5814498201788
20
2.35118344305431
30
0
41
1
10
66.6354374220347
20
2.33363242335221
30
0
41
1
10
66.6891608102719
20
2.31314677688576
30
0
41
1
10
66.7961358089534
20
2.26622405665168
30
0
41
1
10
66.8494098219374
20
2.23979561107689
30
0
41
1
10
66.9555371672109
20
2.18115782998231
30
0
41
1
10
67.0083303659203
20
2.14898371375892
30
0
41
1
10
67.1134890624574
20
2.07902369106793
30
0
41
1
10
67.1658297505441
20
2.04125174707633
30
0
41
1
10
67.2179146134016
20
2.00078067518967
30
0
0
SPLINE
5
13D
100
AcDbEntity
8
1
62
256
6
ByLayer
370
18
48
1
60
0
100
AcDbSpline
70
4
71
3
72
32
73
28
40
0
40
0
40
0
40
0
40
0.062499999999982
40
0.062499999999982
40
0.124999999999964
40
0.124999999999964
40
0.187499999999946
40
0.187499999999946
40
0.249999999999928
40
0.249999999999928
40
0.31249999999991
40
0.31249999999991
40
0.374999999999892
40
0.374999999999892
40
0.437499999999874
40
0.437499999999874
40
0.499999999999856
40
0.499999999999856
40
0.624999999999863
40
0.624999999999863
40
0.687499999999886
40
0.687499999999886
40
0.749999999999909
40
0.749999999999909
40
0.874999999999954
40
0.874999999999954
40
1
40
1
40
1
40
1
41
1
10
66.0973955971241
20
2.7171551624109
30
0
41
1
10
66.1050264897929
20
2.70671306512412
30
0
41
1
10
66.1134734580916
20
2.69616385212882
30
0
41
1
10
66.1316968972371
20
2.67489923753465
30
0
41
1
10
66.1415124730989
20
2.66414614069316
30
0
41
1
10
66.1621770220541
20
2.64264552308862
30
0
41
1
10
66.1728074133378
20
2.63211986206539
30
0
41
1
10
66.1945463161956
20
2.6114260391806
30
0
41
1
10
66.2056556235048
20
2.6012583553858
30
0
41
1
10
66.2282834075947
20
2.58122437244802
30
0
41
1
10
66.2398137587712
20
2.57135294470959
30
0
41
1
10
66.2627035297811
20
2.5523094341134
30
0
41
1
10
66.2741336122871
20
2.54307415319335
30
0
41
1
10
66.2969551934804
20
2.52509932069998
30
0
41
1
10
66.3083467171404
20
2.51636021237917
30
0
41
1
10
66.331081147746
20
2.49933201295431
30
0
41
1
10
66.342456472336
20
2.49102008969712
30
0
41
1
10
66.3762684905141
20
2.46688098179521
30
0
41
1
10
66.3981498211089
20
2.45200840428487
30
0
41
1
10
66.4299770915408
20
2.43133534770192
30
0
41
1
10
66.4404189094984
20
2.42472021170383
30
0
41
1
10
66.4609493939471
20
2.41204765712087
30
0
41
1
10
66.471057592078
20
2.40598005296499
30
0
41
1
10
66.5003544542196
20
2.38891999531683
30
0
41
1
10
66.5186818654218
20
2.37895366734347
30
0
41
1
10
66.5525548432804
20
2.36225844147609
30
0
41
1
10
66.5681914037168
20
2.35549366837537
30
0
41
1
10
66.5814498201789
20
2.35118344305431
30
0
0
SPLINE
5
13E
100
AcDbEntity
8
1
62
256
6
ByLayer
370
18
48
1
60
0
100
AcDbSpline
70
4
71
3
72
14
73
10
40
0
40
0
40
0
40
0
40
0.25
40
0.25
40
0.5
40
0.5
40
0.75
40
0.75
40
1
40
1
40
1
40
1
41
1
10
65.4879981619038
20
3.64138369307318
30
0
41
1
10
65.537772100951
20
3.55895145614522
30
0
41
1
10
65.5877746778479
20
3.47773320075737
30
0
41
1
10
65.688332289101
20
3.31783847922458
30
0
41
1
10
65.7389215095905
20
3.23911211131551
30
0
41
1
10
65.8405731377642
20
3.08460282914606
30
0
41
1
10
65.8916354580246
20
3.00881880463845
30
0
41
1
10
65.9942130450059
20
2.86045417614625
30
0
41
1
10
66.0456862080461
20
2.78791418036988
30
0
41
1
10
66.0973955971241
20
2.7171551624109
30
0
0
SPLINE
5
13F
100
AcDbEntity
8
1
62
256
6
ByLayer
370
18
48
1
60
0
100
AcDbSpline
70
4
71
3
72
8
73
4
40
0
40
0
40
0
40
0
40
1
40
1
40
1
40
1
41
1
10
65.4879981619036
20
3.64138369307324
30
0
41
1
10
65.4235366496099
20
3.69576022730186
30
0
41
1
10
65.3589786674058
20
3.7493352086679
30
0
41
1
10
65.2942978336969
20
3.80208307622101
30
0
0
SPLINE
5
140
100
AcDbEntity
8
1
62
256
6
ByLayer
370
18
48
1
60
0
100
AcDbSpline
70
4
71
3
72
14
73
10
40
0
40
0
40
0
40
0
40
0.25
40
0.25
40
0.5
40
0.5
40
0.750000000000001
40
0.750000000000001
40
1
40
1
40
1
40
1
41
1
10
64.657767990326
20
3.64889419132365
30
0
41
1
10
64.7117558407411
20
3.6733949215093
30
0
41
1
10
64.7654850744485
20
3.69497943333707
30
0
41
1
10
64.8724896439043
20
3.73220113013141
30
0
41
1
10
64.9258028747726
20
3.74786259587444
30
0
41
1
10
65.0319208512215
20
3.77331093040226
30
0
41
1
10
65.0847172305137
20
3.78310050398196
30
0
41
1
10
65.1898921813856
20
3.79690834751085
30
0
41
1
10
65.2422204981856
20
3.80091937712373
30
0
41
1
10
65.2942978336969
20
3.80208307622104
30
0
0
SPLINE
5
141
100
AcDbEntity
8
1
62
256
6
ByLayer
370
18
48
1
60
0
100
AcDbSpline
70
4
71
3
72
31
73
27
40
0
40
0
40
0
40
0
40
0.0625000000000045
40
0.0625000000000045
40
0.125000000000009
40
0.125000000000009
40
0.187500000000014
40
0.187500000000014
40
0.250000000000018
40
0.250000000000018
40
0.312500000000023
40
0.312500000000023
40
0.375000000000027
40
0.437500000000032
40
0.437500000000032
40
0.500000000000036
40
0.500000000000036
40
0.625000000000046
40
0.625000000000046
40
0.687500000000051
40
0.687500000000051
40
0.750000000000056
40
0.750000000000056
40
0.875000000000028
40
0.875000000000028
40
1
40
1
40
1
40
1
41
1
10
64.1737680160622
20
3.89928685732215
30
0
41
1
10
64.1813961966056
20
3.88654302503497
30
0
41
1
10
64.1898389767119
20
3.87425984434049
30
0
41
1
10
64.2080511594253
20
3.85044561661576
30
0
41
1
10
64.2178585072012
20
3.83887930058856
30
0
41
1
10
64.2385089180013
20
3.81657256545847
30
0
41
1
10
64.2491315573505
20
3.80606063029353
30
0
41
1
10
64.2708543421329
20
3.78607629015204
30
0
41
1
10
64.2819555893031
20
3.77660621393397
30
0
41
1
10
64.3045675134348
20
3.7585736455907
30
0
41
1
10
64.3160928013871
20
3.75000960867016
30
0
41
1
10
64.3389744562508
20
3.73406136143044
30
0
41
1
10
64.3618273849635
20
3.71917732278328
30
0
41
1
10
64.384604368974
20
3.70616725192556
30
0
41
1
10
64.4073331107929
20
3.69402172666099
30
0
41
1
10
64.4187036149536
20
3.68836777648869
30
0
41
1
10
64.4525196760227
20
3.67274905379784
30
0
41
1
10
64.474403476818
20
3.66422295698826
30
0
41
1
10
64.506234533408
20
3.65401893525359
30
0
41
1
10
64.5166776355195
20
3.65105334400826
30
0
41
1
10
64.5372108920998
20
3.6460109248043
30
0
41
1
10
64.5473238455893
20
3.64393311501124
30
0
41
1
10
64.5766384377029
20
3.63917898191485
30
0
41
1
10
64.5949759426509
20
3.63791027612862
30
0
41
1
10
64.6288621955156
20
3.63974159629882
30
0
41
1
10
64.644505218248
20
3.64287528896512
30
0
41
1
10
64.657767990326
20
3.64889419132368
30
0
0
SPLINE
5
142
100
AcDbEntity
8
1
62
256
6
ByLayer
370
18
48
1
60
0
100
AcDbSpline
70
4
71
3
72
14
73
10
40
0
40
0
40
0
40
0
40
0.25
40
0.25
40
0.5
40
0.5
40
0.75
40
0.75
40
1
40
1
40
1
40
1
41
1
10
63.5643854259339
20
4.96733771382023
30
0
41
1
10
63.6141568776448
20
4.87648615987263
30
0
41
1
10
63.6641589699549
20
4.78598368920029
30
0
41
1
10
63.7647171648967
20
4.60573941734967
30
0
41
1
10
63.8153068814739
20
4.51593872895944
30
0
41
1
10
63.9169577562731
20
4.33747722572375
30
0
41
1
10
63.968018716773
20
4.24881616316375
30
0
41
1
10
64.0705916272865
20
4.07288272511744
30
0
41
1
10
64.1220617193621
20
3.98566871071299
30
0
41
1
10
64.1737680160622
20
3.89928685732215
30
0
0
SPLINE
5
143
100
AcDbEntity
8
1
62
256
6
ByLayer
370
18
48
1
60
0
100
AcDbSpline
70
4
71
3
72
8
73
4
40
0
40
0
40
0
40
0
40
1
40
1
40
1
40
1
41
1
10
63.5643854259336
20
4.96733771382014
30
0
41
1
10
63.4999422272951
20
5.00074773104868
30
0
41
1
10
63.4354559696386
20
5.03297986109851
30
0
41
1
10
63.3709015288182
20
5.06401771540288
30
0
0
SPLINE
5
144
100
AcDbEntity
8
1
62
256
6
ByLayer
370
18
48
1
60
0
100
AcDbSpline
70
4
71
3
72
14
73
10
40
0
40
0
40
0
40
0
40
0.25
40
0.25
40
0.5
40
0.5
40
0.75
40
0.75
40
1
40
1
40
1
40
1
41
1
10
62.7339846728332
20
4.42971698622961
30
0
41
1
10
62.7880063139808
20
4.4926460488177
30
0
41
1
10
62.8417679780055
20
4.55309271462366
30
0
41
1
10
62.9488349316309
20
4.66895204558864
30
0
41
1
10
63.0021769362117
20
4.72441008384857
30
0
41
1
10
63.1083550142412
20
4.83020731657538
30
0
41
1
10
63.1611834684634
20
4.88054314286976
30
0
41
1
10
63.266426172641
20
4.97615348181481
30
0
41
1
10
63.3187901863395
20
5.02138131766097
30
0
41
1
10
63.3709015288182
20
5.06401771540288
30
0
0
SPLINE
5
145
100
AcDbEntity
8
1
62
256
6
ByLayer
370
18
48
1
60
0
100
AcDbSpline
70
4
71
3
72
32
73
28
40
0
40
0
40
0
40
0
40
0.0625000000000019
40
0.0625000000000019
40
0.125000000000004
40
0.125000000000004
40
0.187500000000006
40
0.187500000000006
40
0.250000000000008
40
0.250000000000008
40
0.312500000000009
40
0.312500000000009
40
0.375000000000011
40
0.375000000000011
40
0.437500000000013
40
0.437500000000013
40
0.500000000000015
40
0.500000000000015
40
0.625000000000061
40
0.625000000000061
40
0.687500000000063
40
0.687500000000063
40
0.750000000000065
40
0.750000000000065
40
0.875000000000033
40
0.875000000000033
40
1
40
1
40
1
40
1
41
1
10
62.2499382717663
20
4.5294212393718
30
0
41
1
10
62.2575630480509
20
4.51619424753804
30
0
41
1
10
62.266002599071
20
4.50392735580894
30
0
41
1
10
62.2842093394658
20
4.48095311988055
30
0
41
1
10
62.294013722607
20
4.47021744037215
30
0
41
1
10
62.3146626292413
20
4.45027350119614
30
0
41
1
10
62.3252853351962
20
4.44126731709977
30
0
41
1
10
62.3470094263563
20
4.4248264755397
30
0
41
1
10
62.3581118678196
20
4.41739527719275
30
0
41
1
10
62.3807277121271
20
4.40391474550532
30
0
41
1
10
62.3922565626693
20
4.3978696411821
30
0
41
1
10
62.4151454710934
20
4.38727134081174
30
0
41
1
10
62.426575542311
20
4.38267427120635
30
0
41
1
10
62.4493968436254
20
4.37472150964766
30
0
41
1
10
62.46078809864
20
4.37136679515882
30
0
41
1
10
62.4835210997001
20
4.36581165724442
30
0
41
1
10
62.4948929491611
20
4.36360752296991
30
0
41
1
10
62.5287127974284
20
4.35870320074855
30
0
41
1
10
62.5505968734528
20
4.35771310856109
30
0
41
1
10
62.5824279775256
20
4.35938740638716
30
0
41
1
10
62.5928710438632
20
4.36047793647569
30
0
41
1
10
62.613404714073
20
4.36375014930996
30
0
41
1
10
62.6235180739185
20
4.36594217479978
30
0
41
1
10
62.6528350130146
20
4.37412228558108
30
0
41
1
10
62.6711750060451
20
4.3816938577321
30
0
41
1
10
62.7050688026759
20
4.40171389782429
30
0
41
1
10
62.7207166972236
20
4.41426130495418
30
0
41
1
10
62.7339846728332
20
4.42971698622961
30
0
0
SPLINE
5
146
100
AcDbEntity
8
1
62
256
6
ByLayer
370
18
48
1
60
0
100
AcDbSpline
70
4
71
3
72
13
73
9
40
0
40
0
40
0
40
0
40
0.25
40
0.25
40
0.5
40
0.75
40
0.75
40
1
40
1
40
1
40
1
41
1
10
61.6409259527677
20
5.58876610148826
30
0
41
1
10
61.6906762667165
20
5.50246636529144
30
0
41
1
10
61.7406529189641
20
5.41559523874346
30
0
41
1
10
61.8411531347728
20
5.24072075505808
30
0
41
1
10
61.9422673630317
20
5.06459657861168
30
0
41
1
10
62.0443221720423
20
4.88683714537481
30
0
41
1
10
62.1468289023008
20
4.70847252464631
30
0
41
1
10
62.1982659055723
20
4.61905927466148
30
0
41
1
10
62.2499382717663
20
4.5294212393718
30
0
0
SPLINE
5
147
100
AcDbEntity
8
1
62
256
6
ByLayer
370
18
48
1
60
0
100
AcDbSpline
70
4
71
3
72
8
73
4
40
0
40
0
40
0
40
0
40
1
40
1
40
1
40
1
41
1
10
61.6409259527674
20
5.58876610148801
30
0
41
1
10
61.576278569481
20
5.59651792266735
30
0
41
1
10
61.5116397443184
20
5.60290980998954
30
0
41
1
10
61.4469836477093
20
5.60793924855148
30
0
0
SPLINE
5
148
100
AcDbEntity
8
1
62
256
6
ByLayer
370
18
48
1
60
0
100
AcDbSpline
70
4
71
3
72
14
73
10
40
0
40
0
40
0
40
0
40
0.25
40
0.25
40
0.5
40
0.5
40
0.75
40
0.75
40
1
40
1
40
1
40
1
41
1
10
60.810399399378
20
4.58090983400308
30
0
41
1
10
60.8644568498492
20
4.67347198546716
30
0
41
1
10
60.9182255410609
20
4.76435679226381
30
0
41
1
10
61.0252576722263
20
4.94269997789033
30
0
41
1
10
61.0785444483747
20
5.03019643809881
30
0
41
1
10
61.1846768079772
20
5.2016714997624
30
0
41
1
10
61.2374621650786
20
5.28555377163437
30
0
41
1
10
61.3425946916269
20
5.44962653611444
30
0
41
1
10
61.3949170636948
20
5.52977707042353
30
0
41
1
10
61.4469836477093
20
5.60793924855148
30
0
0
SPLINE
5
149
100
AcDbEntity
8
1
62
256
6
ByLayer
370
18
48
1
60
0
100
AcDbSpline
70
4
71
3
72
32
73
28
40
0
40
0
40
0
40
0
40
0.0625000000000104
40
0.0625000000000104
40
0.125000000000021
40
0.125000000000021
40
0.187500000000031
40
0.187500000000031
40
0.250000000000042
40
0.250000000000042
40
0.312500000000052
40
0.312500000000052
40
0.375000000000063
40
0.375000000000063
40
0.437500000000073
40
0.437500000000073
40
0.500000000000083
40
0.500000000000083
40
0.625000000000062
40
0.625000000000062
40
0.687500000000051
40
0.687500000000051
40
0.75000000000004
40
0.75000000000004
40
0.87500000000002
40
0.87500000000002
40
1
40
1
40
1
40
1
41
1
10
60.3264139703595
20
4.51613451548781
30
0
41
1
10
60.3340332236802
20
4.50430546053286
30
0
41
1
10
60.3424642378218
20
4.49379687244098
30
0
41
1
10
60.3606483467718
20
4.47491858756698
30
0
41
1
10
60.3704353916042
20
4.46653297646318
30
0
41
1
10
60.3910587686465
20
4.45176062611907
30
0
41
1
10
60.4016680343256
20
4.44552436982138
30
0
41
1
10
60.4233647021645
20
4.43492742007265
30
0
41
1
10
60.4344531395377
20
4.4305708655227
30
0
41
1
10
60.4570411908151
20
4.42351349458764
30
0
41
1
10
60.4685623188849
20
4.42082108836752
30
0
41
1
10
60.4914403796017
20
4.41702857518206
30
0
41
1
10
60.5028659439398
20
4.41590419700665
30
0
41
1
10
60.5256799387815
20
4.41502745488128
30
0
41
1
10
60.5370684001588
20
4.41527613632769
30
0
41
1
10
60.5597975127615
20
4.41705632981305
30
0
41
1
10
60.5711640208012
20
4.41859338024042
30
0
41
1
10
60.6050031090677
20
4.42504832355363
30
0
41
1
10
60.6268993815935
20
4.43171097550578
30
0
41
1
10
60.6587472719396
20
4.44500377235846
30
0
41
1
10
60.6691956918015
20
4.44999046792489
30
0
41
1
10
60.6897395971725
20
4.46110626043156
30
0
41
1
10
60.6998624441445
20
4.46725806828613
30
0
41
1
10
60.7292109368215
20
4.48722539409121
30
0
41
1
10
60.7475651509877
20
4.50257927689697
30
0
41
1
10
60.7814752279524
20
4.53798297877017
30
0
41
1
10
60.7971289374954
20
4.55818692546632
30
0
41
1
10
60.8103993993781
20
4.58090983400308
30
0
0
SPLINE
5
14A
100
AcDbEntity
8
1
62
256
6
ByLayer
370
18
48
1
60
0
100
AcDbSpline
70
4
71
3
72
14
73
10
40
0
40
0
40
0
40
0
40
0.25
40
0.25
40
0.5
40
0.5
40
0.75
40
0.75
40
1
40
1
40
1
40
1
41
1
10
59.7855818823938
20
5.32168568772914
30
0
41
1
10
59.8298877637401
20
5.25876212195141
30
0
41
1
10
59.8743710261252
20
5.19475700940671
30
0
41
1
10
59.9637572502906
20
5.06456476739226
30
0
41
1
10
60.0086883393088
20
4.99833562621603
30
0
41
1
10
60.0988988792652
20
4.86387173205068
30
0
41
1
10
60.1441498916637
20
4.79568053121506
30
0
41
1
10
60.2350022002065
20
4.65737004466266
30
0
41
1
10
60.2806016290082
20
4.58725916256984
30
0
41
1
10
60.3264139703595
20
4.51613451548764
30
0
0
SPLINE
5
14B
100
AcDbEntity
8
1
62
256
6
ByLayer
370
18
48
1
60
0
100
AcDbSpline
70
4
71
3
72
8
73
4
40
0
40
0
40
0
40
0
40
1
40
1
40
1
40
1
41
1
10
59.4203052109652
20
5.15360765622401
30
0
41
1
10
59.5424838302674
20
5.21421673352208
30
0
41
1
10
59.6641770928118
20
5.27026261600903
30
0
41
1
10
59.7855818823916
20
5.3216856877423
30
0
0
SPLINE
5
14C
100
AcDbEntity
8
1
62
256
6
ByLayer
370
18
48
1
60
0
100
AcDbSpline
70
4
71
3
72
12
73
8
40
0
40
0
40
0
40
0
40
0.500000000000007
40
0.500000000000007
40
0.750000000000004
40
0.750000000000004
40
1
40
1
40
1
40
1
41
1
10
58.8867224870118
20
4.08526321935582
30
0
41
1
10
58.9769856383194
20
4.26734112597836
30
0
41
1
10
59.0664927918231
20
4.44758834947589
30
0
41
1
10
59.1999505655021
20
4.71507714250649
30
0
41
1
10
59.2442868324608
20
4.80372507239264
30
0
41
1
10
59.3325501642722
20
4.97963422702352
30
0
41
1
10
59.3765019778753
20
5.06694516367583
30
0
41
1
10
59.4203052109652
20
5.15360765622401
30
0
0
SPLINE
5
14D
100
AcDbEntity
8
1
62
256
6
ByLayer
370
18
48
1
60
0
100
AcDbSpline
70
4
71
3
72
32
73
28
40
0
40
0
40
0
40
0
40
0.0625000000000076
40
0.0625000000000076
40
0.125000000000015
40
0.125000000000015
40
0.187500000000023
40
0.187500000000023
40
0.250000000000031
40
0.250000000000031
40
0.312500000000038
40
0.312500000000038
40
0.375000000000046
40
0.375000000000046
40
0.437500000000054
40
0.437500000000054
40
0.500000000000061
40
0.500000000000061
40
0.625000000000077
40
0.625000000000077
40
0.687500000000064
40
0.687500000000064
40
0.750000000000051
40
0.750000000000051
40
0.875000000000025
40
0.875000000000025
40
1
40
1
40
1
40
1
41
1
10
58.4026868147054
20
3.8636828799554
30
0
41
1
10
58.4103137953089
20
3.8549272884367
30
0
41
1
10
58.4187547718291
20
3.84767246970179
30
0
41
1
10
58.4369625184206
20
3.83559129858742
30
0
41
1
10
58.4467659931511
20
3.83075986317533
30
0
41
1
10
58.4674132198409
20
3.82331486584408
30
0
41
1
10
58.4780344027709
20
3.82076948291183
30
0
41
1
10
58.49975420277
20
3.8176018826465
30
0
41
1
10
58.5108538395603
20
3.81698394330618
30
0
41
1
10
58.5334631494554
20
3.81745033671939
30
0
41
1
10
58.5449894603702
20
3.81854921696004
30
0
41
1
10
58.5678741368805
20
3.82221334575502
30
0
41
1
10
58.5793022215578
20
3.82477768844046
30
0
41
1
10
58.602119577328
20
3.83121338364759
30
0
41
1
10
58.6135088782108
20
3.83508570342522
30
0
41
1
10
58.636238068672
20
3.8440575028425
30
0
41
1
10
58.647607127217
20
3.84917231386197
30
0
41
1
10
58.6814260886471
20
3.86621978256471
30
0
41
1
10
58.7033091920496
20
3.87967620510039
30
0
41
1
10
58.7351403338402
20
3.9028127926978
30
0
41
1
10
58.7455837189381
20
3.9110221928247
30
0
41
1
10
58.7661185961807
20
3.92846682116445
30
0
41
1
10
58.7762340254537
20
3.93773018497751
30
0
41
1
10
58.8055583613367
20
3.96670705757793
30
0
41
1
10
58.8239024372609
20
3.98768960026376
30
0
41
1
10
58.8578022014592
20
4.03349339848921
30
0
41
1
10
58.8734531046615
20
4.05849635684856
30
0
41
1
10
58.8867224870118
20
4.08526321935582
30
0
0
SPLINE
5
14E
100
AcDbEntity
8
1
62
256
6
ByLayer
370
18
48
1
60
0
100
AcDbSpline
70
4
71
3
72
10
73
6
40
0
40
0
40
0
40
0
40
0.5
40
0.5
40
1
40
1
40
1
40
1
41
1
10
58.0111651659879
20
4.2782814418446
30
0
41
1
10
58.0756716653865
20
4.21584669622496
30
0
41
1
10
58.1406150294372
20
4.15000042395263
30
0
41
1
10
58.2711211167569
20
4.01178479338662
30
0
41
1
10
58.3366941266087
20
3.93944090927766
30
0
41
1
10
58.4026868147054
20
3.86368287995543
30
0
0
SPLINE
5
14F
100
AcDbEntity
8
1
62
256
6
ByLayer
370
18
48
1
60
0
100
AcDbSpline
70
4
71
3
72
8
73
4
40
0
40
0
40
0
40
0
40
1
40
1
40
1
40
1
41
1
10
57.59
20
3.95654949232909
30
0
41
1
10
57.731003349844
20
4.06824313663924
30
0
41
1
10
57.8712931759425
20
4.17554188271527
30
0
41
1
10
58.0111651659879
20
4.27828144184457
30
0
0
SPLINE
5
150
100
AcDbEntity
8
1
62
256
6
ByLayer
370
18
48
1
60
0
100
AcDbSpline
70
4
71
3
72
10
73
6
40
0
40
0
40
0
40
0
40
0.92065188467313
40
0.92065188467313
40
1
40
1
40
1
40
1
41
1
10
57.5900000000015
20
3.95654949233247
30
0
41
1
10
57.5280839297232
20
3.8181915124477
30
0
41
1
10
57.4660048259865
20
3.68028326060468
30
0
41
1
10
57.3983123245495
20
3.5310225800894
30
0
41
1
10
57.392939160497
20
3.51918274047043
30
0
41
1
10
57.3875640871836
20
3.5073466200349
30
0
0
SPLINE
5
151
100
AcDbEntity
8
1
62
256
6
ByLayer
370
18
48
1
60
0
100
AcDbSpline
70
4
71
3
72
51
73
47
40
0
40
0
40
0
40
0
40
0.0640412018031298
40
0.0640412018031298
40
0.0820404094607642
40
0.0820404094607642
40
0.100039617118399
40
0.136038032433664
40
0.136038032433664
40
0.17203644774893
40
0.17203644774893
40
0.208034863064196
40
0.208034863064196
40
0.244033278379462
40
0.244033278379462
40
0.280031693694728
40
0.280031693694728
40
0.352028524325259
40
0.352028524325259
40
0.388026939640525
40
0.388026939640525
40
0.406026147298156
40
0.406026147298156
40
0.424025354955787
40
0.424025354955787
40
0.496022185586315
40
0.496022185586315
40
0.568019016216844
40
0.568019016216844
40
0.640015846847372
40
0.640015846847372
40
0.7120126774779
40
0.7120126774779
40
0.748011092793162
40
0.748011092793162
40
0.766010300450794
40
0.766010300450794
40
0.784009508108425
40
0.784009508108425
40
0.85600633873895
40
0.85600633873895
40
0.892004754054213
40
0.892004754054213
40
0.928003169369475
40
0.928003169369475
40
1
40
1
40
1
40
1
41
1
10
45.5336021967621
20
-3.95200051149743
30
0
41
1
10
45.3592190439637
20
-3.95200543004523
30
0
41
1
10
45.1841187740854
20
-3.94501384438561
30
0
41
1
10
44.9586411585984
20
-3.92692634254996
30
0
41
1
10
44.9091606152704
20
-3.92239787608213
30
0
41
1
10
44.8104169761606
20
-3.91225137057066
30
0
41
1
10
44.6625139246226
20
-3.89538805281523
30
0
41
1
10
44.5151948082201
20
-3.87363984964307
30
0
41
1
10
44.3192055675644
20
-3.84036010000546
30
0
41
1
10
44.2214358180125
20
-3.82157672755599
30
0
41
1
10
44.0262271067367
20
-3.77977620255757
30
0
41
1
10
43.9287726006647
20
-3.75676259359864
30
0
41
1
10
43.7338709957038
20
-3.7066468483128
30
0
41
1
10
43.6364060641946
20
-3.67955394717001
30
0
41
1
10
43.4412928373384
20
-3.62140616567225
30
0
41
1
10
43.3436638097836
20
-3.59034338054599
30
0
41
1
10
43.0505488796086
20
-3.49120089744196
30
0
41
1
10
42.8548605744238
20
-3.41715946274803
30
0
41
1
10
42.5604385227549
20
-3.29422342033123
30
0
41
1
10
42.4621592898136
20
-3.25125540690237
30
0
41
1
10
42.3144109894237
20
-3.18385077885674
30
0
41
1
10
42.2651053330426
20
-3.16089146451367
30
0
41
1
10
42.1663556306791
20
-3.11400098164495
30
0
41
1
10
42.1169482460465
20
-3.09008630060893
30
0
41
1
10
41.8704745373116
20
-2.96860988379245
30
0
41
1
10
41.6743598980444
20
-2.86500999707519
30
0
41
1
10
41.2826789492179
20
-2.64675465935861
30
0
41
1
10
41.0872122202809
20
-2.53202825459758
30
0
41
1
10
40.6970423394594
20
-2.29144679078999
30
0
41
1
10
40.5023693658257
20
-2.16553246319577
30
0
41
1
10
40.111962308779
20
-1.9043847540874
30
0
41
1
10
39.9163155965947
20
-1.76906530632945
30
0
41
1
10
39.6213395388278
20
-1.55982268224017
30
0
41
1
10
39.5227606264695
20
-1.48903397489732
30
0
41
1
10
39.3743930254555
20
-1.38141182601189
30
0
41
1
10
39.3248701714798
20
-1.34530758656641
30
0
41
1
10
39.22605126934
20
-1.27291042462991
30
0
41
1
10
39.1767064767593
20
-1.23658219730439
30
0
41
1
10
38.9302972552373
20
-1.05430558503633
30
0
41
1
10
38.7342139532927
20
-0.906405415416657
30
0
41
1
10
38.4413554758639
20
-0.681830945659414
30
0
41
1
10
38.3439095941172
20
-0.606566286118408
30
0
41
1
10
38.149047467077
20
-0.455634496217641
30
0
41
1
10
38.0516124556379
20
-0.379991755955899
30
0
41
1
10
37.7590629008125
20
-0.152838618363347
30
0
41
1
10
37.5637554222202
20
-0.0010381165225795
30
0
41
1
10
37.3679981149854
20
0.15090125851691
30
0
0
SPLINE
5
152
100
AcDbEntity
8
1
62
256
6
ByLayer
370
18
48
1
60
0
100
AcDbSpline
70
4
71
3
72
46
73
42
40
0
40
0
40
0
40
0
40
0.0915960638396951
40
0.0915960638396951
40
0.137394095759543
40
0.137394095759543
40
0.18319212767939
40
0.18319212767939
40
0.274788191519082
40
0.274788191519082
40
0.32058622343893
40
0.32058622343893
40
0.343485239398853
40
0.343485239398853
40
0.366384255358777
40
0.366384255358777
40
0.412182287278625
40
0.412182287278625
40
0.457980319198472
40
0.457980319198472
40
0.549576383038164
40
0.549576383038164
40
0.59537441495801
40
0.59537441495801
40
0.618273430917931
40
0.618273430917931
40
0.641172446877852
40
0.641172446877852
40
0.686970478797695
40
0.686970478797695
40
0.709869494757616
40
0.709869494757616
40
0.732768510717537
40
0.732768510717537
40
0.824364574557222
40
0.824364574557222
40
0.915960638396907
40
0.915960638396907
40
0.961758670316749
40
0.961758670316749
40
1
40
1
40
1
40
1
41
1
10
34.132047848531
20
-2.99991012446375
30
0
41
1
10
34.3624187411562
20
-3.11646280879185
30
0
41
1
10
34.5920815924163
20
-3.22270109480942
30
0
41
1
10
34.9359824980487
20
-3.36678897182424
30
0
41
1
10
35.0505078268027
20
-3.41227484377524
30
0
41
1
10
35.2793085942322
20
-3.49817720733142
30
0
41
1
10
35.3935501323438
20
-3.53861215345398
30
0
41
1
10
35.7361067171358
20
-3.65207702909163
30
0
41
1
10
35.9642888338459
20
-3.7171890582805
30
0
41
1
10
36.3093286017624
20
-3.79739279216639
30
0
41
1
10
36.424768320199
20
-3.8212474771311
30
0
41
1
10
36.5986011998743
20
-3.8526692343805
30
0
41
1
10
36.6567119269075
20
-3.86242360577995
30
0
41
1
10
36.7726560721427
20
-3.88039530756589
30
0
41
1
10
36.8305352072778
20
-3.88862238099446
30
0
41
1
10
37.003878497283
20
-3.91104974105269
30
0
41
1
10
37.1190371028434
20
-3.92300195833656
30
0
41
1
10
37.3484862702265
20
-3.94093140823543
30
0
41
1
10
37.4628075051183
20
-3.94689698862612
30
0
41
1
10
37.8052231409695
20
-3.95573392268841
30
0
41
1
10
38.032749899586
20
-3.94947429160717
30
0
41
1
10
38.3764799258018
20
-3.92253754543432
30
0
41
1
10
38.4914039507362
20
-3.91065995496169
30
0
41
1
10
38.6638328523986
20
-3.88841629368889
30
0
41
1
10
38.7213083701149
20
-3.88025967633521
30
0
41
1
10
38.836189907212
20
-3.86242173899368
30
0
41
1
10
38.8936073410955
20
-3.85274247562356
30
0
41
1
10
39.0658848129946
20
-3.82141053369816
30
0
41
1
10
39.1807658967626
20
-3.79745790926015
30
0
41
1
10
39.3535948423492
20
-3.75696800793924
30
0
41
1
10
39.4113294354045
20
-3.74270230397292
30
0
41
1
10
39.5268849472878
20
-3.71272331480796
30
0
41
1
10
39.5845931569188
20
-3.69704486934361
30
0
41
1
10
39.8728684859814
20
-3.61529764488347
30
0
41
1
10
40.1026189274077
20
-3.53918110752244
30
0
41
1
10
40.5613290259449
20
-3.36688342211102
30
0
41
1
10
40.7903798475338
20
-3.27079464017802
30
0
41
1
10
41.1330243532011
20
-3.1113252704821
30
0
41
1
10
41.2471193849958
20
-3.05562243197392
30
0
41
1
10
41.4567331420597
20
-2.94906312001777
30
0
41
1
10
41.5522197818372
20
-2.89893040863558
30
0
41
1
10
41.6479866516119
20
-2.84731057196421
30
0
0
SPLINE
5
153
100
AcDbEntity
8
1
62
256
6
ByLayer
370
18
48
1
60
0
100
AcDbSpline
70
4
71
3
72
19
73
15
40
0
40
0
40
0
40
0
40
0.005399164078117
40
0.147484997781244
40
0.147484997781244
40
0.289570831484373
40
0.289570831484373
40
0.4316566651875
40
0.4316566651875
40
0.573742498890629
40
0.573742498890629
40
0.715828332593756
40
0.715828332593756
40
1
40
1
40
1
40
1
41
1
10
53.750638323132
20
3.95199981597256
30
0
41
1
10
53.7550351813118
20
3.95200000699163
30
0
41
1
10
53.8751275254039
20
3.95188594009832
30
0
41
1
10
53.9948566882579
20
3.94851561307132
30
0
41
1
10
54.224985830125
20
3.93604033944231
30
0
41
1
10
54.3397598218138
20
3.9268104505351
30
0
41
1
10
54.5688793865555
20
3.90239163533931
30
0
41
1
10
54.6832337455736
20
3.88720195265444
30
0
41
1
10
54.9118467024733
20
3.85092178904299
30
0
41
1
10
55.0261055062196
20
3.82983023779818
30
0
41
1
10
55.2549219780597
20
3.78186689293776
30
0
41
1
10
55.3695086056083
20
3.75500762650412
30
0
41
1
10
55.7141484099974
20
3.66595795633296
30
0
41
1
10
55.9450375451927
20
3.59535571330494
30
0
41
1
10
56.1766979319175
20
3.51289440659818
30
0
0
SPLINE
5
154
100
AcDbEntity
8
1
62
256
6
ByLayer
370
18
48
1
60
0
100
AcDbSpline
70
4
71
3
72
24
73
20
40
0
40
0
40
0
40
0
40
0.249999999999984
40
0.249999999999984
40
0.374999999999987
40
0.374999999999987
40
0.49999999999999
40
0.49999999999999
40
0.562499999999991
40
0.562499999999991
40
0.624999999999993
40
0.624999999999993
40
0.749999999999995
40
0.749999999999995
40
0.874999999999998
40
0.874999999999998
40
0.937499999999999
40
0.937499999999999
40
1
40
1
40
1
40
1
41
1
10
56.1766979319172
20
3.51289440659832
30
0
41
1
10
56.2686903492564
20
3.48014899402193
30
0
41
1
10
56.3593707111957
20
3.45529515584414
30
0
41
1
10
56.4927412355798
20
3.42919590448926
30
0
41
1
10
56.5367617437773
20
3.4223812180538
30
0
41
1
10
56.6238612563502
20
3.41273222104653
30
0
41
1
10
56.6669405888843
20
3.40989390939961
30
0
41
1
10
56.7308128390778
20
3.40900665722592
30
0
41
1
10
56.7520110763591
20
3.40927682672898
30
0
41
1
10
56.7940104036564
20
3.41104702499032
30
0
41
1
10
56.8147257594152
20
3.41254165130127
30
0
41
1
10
56.8760019057607
20
3.41897881629947
30
0
41
1
10
56.9156958842692
20
3.42585224921385
30
0
41
1
10
56.9926337780784
20
3.44588823940282
30
0
41
1
10
57.0298843535865
20
3.45904062369257
30
0
41
1
10
57.0837140375757
20
3.48498527926236
30
0
41
1
10
57.1011644690751
20
3.49460274005855
30
0
41
1
10
57.1348601227361
20
3.51574687111844
30
0
41
1
10
57.151126107336
20
3.52728390300678
30
0
41
1
10
57.1667529006475
20
3.53977428632254
30
0
0
SPLINE
5
155
100
AcDbEntity
8
1
62
256
6
ByLayer
370
18
48
1
60
0
100
AcDbSpline
70
4
71
3
72
20
73
16
40
0
40
0
40
0
40
0
40
0.125
40
0.125
40
0.250000000000001
40
0.250000000000001
40
0.375000000000001
40
0.375000000000001
40
0.500000000000002
40
0.500000000000002
40
0.625000000000002
40
0.625000000000002
40
0.750000000000002
40
0.750000000000002
40
1
40
1
40
1
40
1
41
1
10
57.4131940906382
20
3.52158942521589
30
0
41
1
10
57.4058409061783
20
3.51487860265294
30
0
41
1
10
57.3977528938215
20
3.50952885358279
30
0
41
1
10
57.3803822561317
20
3.50102324291942
30
0
41
1
10
57.3710966908594
20
3.49787319069887
30
0
41
1
10
57.3514678590588
20
3.49351497168323
30
0
41
1
10
57.3412809812278
20
3.49234889032707
30
0
41
1
10
57.3205420029096
20
3.49172754889173
30
0
41
1
10
57.3099460661306
20
3.49226571529451
30
0
41
1
10
57.2883663473452
20
3.49483624037819
30
0
41
1
10
57.277331211039
20
3.4968834800986
30
0
41
1
10
57.2551597411218
20
3.50230685781762
30
0
41
1
10
57.244079608257
20
3.50566192789788
30
0
41
1
10
57.2108699928471
20
3.51744614473969
30
0
41
1
10
57.1887705640121
20
3.52757315205415
30
0
41
1
10
57.166752900647
20
3.53977428632302
30
0
0
SPLINE
5
156
100
AcDbEntity
8
1
62
256
6
ByLayer
370
18
48
1
60
0
100
AcDbSpline
70
4
71
3
72
10
73
6
40
0
40
0
40
0
40
0
40
0.5
40
0.5
40
1
40
1
40
1
40
1
41
1
10
57.7863608309351
20
3.82779141990858
30
0
41
1
10
57.7248808128134
20
3.78335905644107
30
0
41
1
10
57.6630190750261
20
3.73556016447173
30
0
41
1
10
57.5385954159225
20
3.63336276931554
30
0
41
1
10
57.4760680348562
20
3.57897080681656
30
0
41
1
10
57.4131940906383
20
3.52158942521564
30
0
0
SPLINE
5
157
100
AcDbEntity
8
1
62
256
6
ByLayer
370
18
48
1
60
0
100
AcDbSpline
70
4
71
3
72
10
73
6
40
0
40
0
40
0
40
0
40
0.5
40
0.5
40
1
40
1
40
1
40
1
41
1
10
58.4091445731461
20
3.43092282275086
30
0
41
1
10
58.3059801133107
20
3.50261180246864
30
0
41
1
10
58.2027400327949
20
3.57169541568871
30
0
41
1
10
57.9953211834048
20
3.70408966919092
30
0
41
1
10
57.8910871820731
20
3.76736149457051
30
0
41
1
10
57.786360830935
20
3.82779141990858
30
0
0
SPLINE
5
158
100
AcDbEntity
8
1
62
256
6
ByLayer
370
18
48
1
60
0
100
AcDbSpline
70
4
71
3
72
10
73
6
40
0
40
0
40
0
40
0
40
0.5
40
0.5
40
1
40
1
40
1
40
1
41
1
10
58.8528420585066
20
2.55158273608563
30
0
41
1
10
58.7776821386526
20
2.69438736412107
30
0
41
1
10
58.7032645910822
20
2.83930424994856
30
0
41
1
10
58.5553299010102
20
3.1328447991387
30
0
41
1
10
58.4819953589006
20
3.28120337887401
30
0
41
1
10
58.4091445731461
20
3.43092282275086
30
0
0
SPLINE
5
159
100
AcDbEntity
8
1
62
256
6
ByLayer
370
18
48
1
60
0
100
AcDbSpline
70
4
71
3
72
32
73
28
40
0
40
0
40
0
40
0
40
0.062500000000009
40
0.062500000000009
40
0.125000000000018
40
0.125000000000018
40
0.187500000000027
40
0.187500000000027
40
0.250000000000036
40
0.250000000000036
40
0.312500000000045
40
0.312500000000045
40
0.375000000000054
40
0.375000000000054
40
0.500000000000028
40
0.500000000000028
40
0.562500000000036
40
0.562500000000036
40
0.625000000000045
40
0.625000000000045
40
0.750000000000019
40
0.750000000000019
40
0.812500000000006
40
0.812500000000006
40
0.874999999999993
40
0.874999999999993
40
1
40
1
40
1
40
1
41
1
10
59.3366475245562
20
2.17777219453703
30
0
41
1
10
59.3291196316299
20
2.1756224929097
30
0
41
1
10
59.3208240733835
20
2.17477164349643
30
0
41
1
10
59.3029904423711
20
2.17514916578364
30
0
41
1
10
59.2934491275481
20
2.17638345953597
30
0
41
1
10
59.2732668568676
20
2.18069017126027
30
0
41
1
10
59.2628281693803
20
2.18372215750534
30
0
41
1
10
59.2415395425048
20
2.19119220557451
30
0
41
1
10
59.230660652911
20
2.19563913399591
30
0
41
1
10
59.208500266312
20
2.2057935832845
30
0
41
1
10
59.1971562297935
20
2.21153779825062
30
0
41
1
10
59.1744491503703
20
2.22401506442972
30
0
41
1
10
59.1631006449097
20
2.2307331735278
30
0
41
1
10
59.1290848041671
20
2.25218287609599
30
0
41
1
10
59.1064462396859
20
2.2681930432031
30
0
41
1
10
59.0726136432304
20
2.29462095351929
30
0
41
1
10
59.0613395650838
20
2.30385602753117
30
0
41
1
10
59.039215461846
20
2.3228368406638
30
0
41
1
10
59.0283191128541
20
2.33261717726651
30
0
41
1
10
58.9961386776823
20
2.36283129104285
30
0
41
1
10
58.9753562430137
20
2.38412518924323
30
0
41
1
10
58.9453487002765
20
2.41801688697487
30
0
41
1
10
58.9355952136467
20
2.4295879160384
30
0
41
1
10
58.9168927628634
20
2.4529766072007
30
0
41
1
10
58.9079021494694
20
2.46484029250567
30
0
41
1
10
58.8821008250043
20
2.50098169673368
30
0
41
1
10
58.8664168548946
20
2.52579048201485
30
0
41
1
10
58.8528420585066
20
2.55158273608615
30
0
0
SPLINE
5
15A
100
AcDbEntity
8
1
62
256
6
ByLayer
370
18
48
1
60
0
100
AcDbSpline
70
4
71
3
72
32
73
28
40
0
40
0
40
0
40
0
40
0.0624999999999927
40
0.0624999999999927
40
0.124999999999985
40
0.124999999999985
40
0.187499999999978
40
0.187499999999978
40
0.249999999999971
40
0.249999999999971
40
0.312499999999964
40
0.312499999999964
40
0.374999999999956
40
0.374999999999956
40
0.499999999999942
40
0.499999999999942
40
0.562499999999935
40
0.562499999999935
40
0.624999999999929
40
0.624999999999929
40
0.749999999999915
40
0.749999999999915
40
0.812499999999928
40
0.812499999999928
40
0.874999999999941
40
0.874999999999941
40
1
40
1
40
1
40
1
41
1
10
61.2600807478843
20
0.526144050439996
30
0
41
1
10
61.2525445496891
20
0.529018969174047
30
0
41
1
10
61.2442394432182
20
0.532882452512098
30
0
41
1
10
61.226385420948
20
0.542189032913171
30
0
41
1
10
61.2168332540612
20
0.547636705841626
30
0
41
1
10
61.1966290961051
20
0.55992887420939
30
0
41
1
10
61.1861811316117
20
0.566650585706185
30
0
41
1
10
61.1648743964616
20
0.580948949049144
30
0
41
1
10
61.1539872729834
20
0.588544114449917
30
0
41
1
10
61.1318128263955
20
0.604529829156775
30
0
41
1
10
61.1204629401794
20
0.612969245748531
30
0
41
1
10
61.0977485381326
20
0.63033310303129
30
0
41
1
10
61.0863976229753
20
0.639243792631589
30
0
41
1
10
61.0523785642627
20
0.666605130150799
30
0
41
1
10
61.0297432287664
20
0.685676619651019
30
0
41
1
10
60.9959242322415
20
0.715503327996174
30
0
41
1
10
60.9846549491453
20
0.725670575849762
30
0
41
1
10
60.9625401711671
20
0.746093677686559
30
0
41
1
10
60.951648940493
20
0.756388903222359
30
0
41
1
10
60.9194839175067
20
0.787540747046734
30
0
41
1
10
60.898711754308
20
0.808660498569139
30
0
41
1
10
60.8687159326183
20
0.840978347060457
30
0
41
1
10
60.858958625328
20
0.85181173724007
30
0
41
1
10
60.8402499239925
20
0.873282329253499
30
0
41
1
10
60.8312550730899
20
0.883965785492336
30
0
41
1
10
60.8054383844422
20
0.915849314605907
30
0
41
1
10
60.7897403499203
20
0.936893265809715
30
0
41
1
10
60.7761517387577
20
0.957606455208406
30
0
0
SPLINE
5
15B
100
AcDbEntity
8
1
62
256
6
ByLayer
370
18
48
1
60
0
100
AcDbSpline
70
4
71
3
72
13
73
9
40
0
40
0
40
0
40
0
40
0.25
40
0.25
40
0.5
40
0.75
40
0.75
40
1
40
1
40
1
40
1
41
1
10
61.8715556377554
20
0.170424118700225
30
0
41
1
10
61.8216708728376
20
0.209733255694857
30
0
41
1
10
61.7715380119863
20
0.246684996156318
30
0
41
1
10
61.6706899793971
20
0.315826722996235
30
0
41
1
10
61.5691939458168
20
0.380244247626507
30
0
41
1
10
61.4666963843398
20
0.434747058312865
30
0
41
1
10
61.3637080174188
20
0.484166762154587
30
0
41
1
10
61.3120065238623
20
0.506335337575564
30
0
41
1
10
61.2600807478843
20
0.526144050440024
30
0
0
SPLINE
5
15C
100
AcDbEntity
8
1
62
256
6
ByLayer
370
18
48
1
60
0
100
AcDbSpline
70
4
71
3
72
8
73
4
40
0
40
0
40
0
40
0
40
1
40
1
40
1
40
1
41
1
10
61.8715556377554
20
0.170424118699998
30
0
41
1
10
61.9362965723814
20
0.0988595075623948
30
0
41
1
10
62.0010384219412
20
0.0270358607104129
30
0
41
1
10
62.0658084905114
20
-0.0450266595964877
30
0
0
SPLINE
5
15D
100
AcDbEntity
8
1
62
256
6
ByLayer
370
18
48
1
60
0
100
AcDbSpline
70
4
71
3
72
14
73
10
40
0
40
0
40
0
40
0
40
0.25
40
0.25
40
0.5
40
0.5
40
0.75
40
0.75
40
1
40
1
40
1
40
1
41
1
10
62.6997149505291
20
-0.773438762324872
30
0
41
1
10
62.6456627231829
20
-0.723357611887536
30
0
41
1
10
62.5920167696081
20
-0.670379518099736
30
0
41
1
10
62.4853158380288
20
-0.559021291992963
30
0
41
1
10
62.4322511720772
20
-0.500624281952241
30
0
41
1
10
62.3266028742589
20
-0.378670958527351
30
0
41
1
10
62.2740983891631
20
-0.315211308019087
30
0
41
1
10
62.1695664582563
20
-0.183545601326159
30
0
41
1
10
62.1175590410938
20
-0.115362062859106
30
0
41
1
10
62.0658084905115
20
-0.0450266595964877
30
0
0
SPLINE
5
15E
100
AcDbEntity
8
1
62
256
6
ByLayer
370
18
48
1
60
0
100
AcDbSpline
70
4
71
3
72
32
73
28
40
0
40
0
40
0
40
0
40
0.0625000000000134
40
0.0625000000000134
40
0.125000000000027
40
0.125000000000027
40
0.18750000000004
40
0.18750000000004
40
0.250000000000054
40
0.250000000000054
40
0.312500000000067
40
0.312500000000067
40
0.37500000000008
40
0.37500000000008
40
0.500000000000063
40
0.500000000000063
40
0.562500000000076
40
0.562500000000076
40
0.625000000000088
40
0.625000000000088
40
0.750000000000072
40
0.750000000000072
40
0.812500000000063
40
0.812500000000063
40
0.875000000000054
40
0.875000000000054
40
1
40
1
40
1
40
1
41
1
10
63.1835404533592
20
-1.1988525515556
30
0
41
1
10
63.1760183853113
20
-1.19138150431226
30
0
41
1
10
63.1677305325942
20
-1.18337837140953
30
0
41
1
10
63.1499146646682
20
-1.16652683257988
30
0
41
1
10
63.1403834318008
20
-1.15767588010186
30
0
41
1
10
63.1202231923145
20
-1.13922709562254
30
0
41
1
10
63.1097892498629
20
-1.12980800772345
30
0
41
1
10
63.0885147201024
20
-1.11079899388901
30
0
41
1
10
63.0776426840784
20
-1.10118036917754
30
0
41
1
10
63.0554956397478
20
-1.08173099124488
30
0
41
1
10
63.0441589702445
20
-1.07184720204356
30
0
41
1
10
63.0214526005957
20
-1.05215739399731
30
0
41
1
10
63.0101039155375
20
-1.04236887109857
30
0
41
1
10
62.9760865896508
20
-1.01313456061294
30
0
41
1
10
62.9534458066055
20
-0.993818976278448
30
0
41
1
10
62.9196109306681
20
-0.964997513972264
30
0
41
1
10
62.9083318166194
20
-0.955397223274446
30
0
41
1
10
62.8861962829183
20
-0.93654441625543
30
0
41
1
10
62.8752948682791
20
-0.927253563357652
30
0
41
1
10
62.8431008941299
20
-0.899760087715606
30
0
41
1
10
62.8223116313502
20
-0.88192903093875
30
0
41
1
10
62.7922962180946
20
-0.855940415182943
30
0
41
1
10
62.782530139371
20
-0.847442504632284
30
0
41
1
10
62.7638105142915
20
-0.831055168705518
30
0
41
1
10
62.7548121994955
20
-0.823126880189278
30
0
41
1
10
62.7289903168694
20
-0.800200636804419
30
0
41
1
10
62.7132958536968
20
-0.786021911770916
30
0
41
1
10
62.699714950529
20
-0.773438762324304
30
0
0
SPLINE
5
15F
100
AcDbEntity
8
1
62
256
6
ByLayer
370
18
48
1
60
0
100
AcDbSpline
70
4
71
3
72
14
73
10
40
0
40
0
40
0
40
0
40
0.25
40
0.25
40
0.5
40
0.5
40
0.75
40
0.75
40
1
40
1
40
1
40
1
41
1
10
63.7954659193209
20
-1.91932980200349
30
0
41
1
10
63.7455651840019
20
-1.85141855801305
30
0
41
1
10
63.6954219203527
20
-1.7853361499381
30
0
41
1
10
63.594543666683
20
-1.65697771768765
30
0
41
1
10
63.5437748306148
20
-1.59466238447482
30
0
41
1
10
63.4417132869245
20
-1.47421071622736
30
0
41
1
10
63.390420271806
20
-1.41607589505793
30
0
41
1
10
63.2873156116223
20
-1.30421365091877
30
0
41
1
10
63.2355451359226
20
-1.2505044959191
30
0
41
1
10
63.1835404533592
20
-1.1988525515556
30
0
0
SPLINE
5
160
100
AcDbEntity
8
1
62
256
6
ByLayer
370
18
48
1
60
0
100
AcDbSpline
70
4
71
3
72
8
73
4
40
0
40
0
40
0
40
0
40
1
40
1
40
1
40
1
41
1
10
63.7954659193214
20
-1.91932980200636
30
0
41
1
10
63.8600626612958
20
-1.98666736051751
30
0
41
1
10
63.9246816210755
20
-2.0536230298213
30
0
41
1
10
63.9893765690503
20
-2.12014800587448
30
0
0
SPLINE
5
161
100
AcDbEntity
8
1
62
256
6
ByLayer
370
18
48
1
60
0
100
AcDbSpline
70
4
71
3
72
14
73
10
40
0
40
0
40
0
40
0
40
0.25
40
0.25
40
0.5
40
0.5
40
0.75
40
0.75
40
1
40
1
40
1
40
1
41
1
10
64.6231828274451
20
-2.39300687822171
30
0
41
1
10
64.5692749641719
20
-2.38210428000025
30
0
41
1
10
64.5157423623363
20
-2.36803433158775
30
0
41
1
10
64.4091540251537
20
-2.33398746585752
30
0
41
1
10
64.3560902387829
20
-2.31402602516522
30
0
41
1
10
64.2503871236671
20
-2.26831997893308
30
0
41
1
10
64.1978276463493
20
-2.24260850696433
30
0
41
1
10
64.0931941896665
20
-2.18554753136425
30
0
41
1
10
64.0411414496987
20
-2.15420197461069
30
0
41
1
10
63.9893765690503
20
-2.12014800587448
30
0
0
SPLINE
5
162
100
AcDbEntity
8
1
62
256
6
ByLayer
370
18
48
1
60
0
100
AcDbSpline
70
4
71
3
72
32
73
28
40
0
40
0
40
0
40
0
40
0.0625000000000041
40
0.0625000000000041
40
0.125000000000008
40
0.125000000000008
40
0.187500000000012
40
0.187500000000012
40
0.250000000000016
40
0.250000000000016
40
0.31250000000002
40
0.31250000000002
40
0.375000000000024
40
0.375000000000024
40
0.499999999999988
40
0.499999999999988
40
0.562499999999969
40
0.562499999999969
40
0.62499999999995
40
0.62499999999995
40
0.749999999999954
40
0.749999999999954
40
0.812499999999957
40
0.812499999999957
40
0.87499999999996
40
0.87499999999996
40
1
40
1
40
1
40
1
41
1
10
65.1069886502921
20
-2.75535526054111
30
0
41
1
10
65.0994579481106
20
-2.74430317895113
30
0
41
1
10
65.0911625989904
20
-2.73324499875713
30
0
41
1
10
65.0733358189838
20
-2.71112739100928
30
0
41
1
10
65.0638011378731
20
-2.70006776543363
30
0
41
1
10
65.0436391220084
20
-2.67794767350142
30
0
41
1
10
65.0332051777732
20
-2.66710148360565
30
0
41
1
10
65.0119354501076
20
-2.64593893250833
30
0
41
1
10
65.0010678094519
20
-2.63558916371602
30
0
41
1
10
64.978933456778
20
-2.61528605440677
30
0
41
1
10
64.9676058861649
20
-2.605282399495
30
0
41
1
10
64.9449131140166
20
-2.58590660728882
30
0
41
1
10
64.9335723760639
20
-2.57655082126638
30
0
41
1
10
64.8995813630945
20
-2.54935349899026
30
0
41
1
10
64.8769613654546
20
-2.53237160277962
30
0
41
1
10
64.8431590192774
20
-2.50840071543846
30
0
41
1
10
64.8318866532886
20
-2.50064791533211
30
0
41
1
10
64.8097597106206
20
-2.48587828858027
30
0
41
1
10
64.7988622791666
20
-2.47882995360638
30
0
41
1
10
64.7666788589825
20
-2.45866009435636
30
0
41
1
10
64.745894710566
20
-2.44649686077207
30
0
41
1
10
64.7158835099003
20
-2.43031314160524
30
0
41
1
10
64.7061036367362
20
-2.42528452107183
30
0
41
1
10
64.6873624904896
20
-2.41617068135363
30
0
41
1
10
64.6783531037186
20
-2.41205857592291
30
0
41
1
10
64.6524980357644
20
-2.40116288648579
30
0
41
1
10
64.6367811452274
20
-2.39575707060999
30
0
41
1
10
64.623182827445
20
-2.39300687822123
30
0
0
SPLINE
5
163
100
AcDbEntity
8
1
62
256
6
ByLayer
370
18
48
1
60
0
100
AcDbSpline
70
4
71
3
72
14
73
10
40
0
40
0
40
0
40
0
40
0.25
40
0.25
40
0.5
40
0.5
40
0.75
40
0.75
40
1
40
1
40
1
40
1
41
1
10
65.7190745720196
20
-3.73643688919842
30
0
41
1
10
65.6691743678427
20
-3.64981074775045
30
0
41
1
10
65.619019668925
20
-3.56430533264165
30
0
41
1
10
65.5181079953987
20
-3.39559017093032
30
0
41
1
10
65.4673191909312
20
-3.3123256828176
30
0
41
1
10
65.3652213327857
20
-3.14843382096515
30
0
41
1
10
65.3139126224698
20
-3.06780772930446
30
0
41
1
10
65.2107845767589
20
-2.90941491448552
30
0
41
1
10
65.1590035038766
20
-2.83169241899643
30
0
41
1
10
65.1069886502921
20
-2.75535526054108
30
0
0
SPLINE
5
164
100
AcDbEntity
8
1
62
256
6
ByLayer
370
18
48
1
60
0
100
AcDbSpline
70
4
71
3
72
8
73
4
40
0
40
0
40
0
40
0
40
1
40
1
40
1
40
1
41
1
10
65.7190745720206
20
-3.73643688920691
30
0
41
1
10
65.7834550110967
20
-3.78974755088311
30
0
41
1
10
65.8477523765122
20
-3.84221646603703
30
0
41
1
10
65.9120355592879
20
-3.89379171274825
30
0
0
SPLINE
5
165
100
AcDbEntity
8
1
62
256
6
ByLayer
370
18
48
1
60
0
100
AcDbSpline
70
4
71
3
72
14
73
10
40
0
40
0
40
0
40
0
40
0.25
40
0.25
40
0.5
40
0.5
40
0.75
40
0.75
40
1
40
1
40
1
40
1
41
1
10
66.5465964502288
20
-3.67711195475815
30
0
41
1
10
66.4925016335512
20
-3.70679632117674
30
0
41
1
10
66.438798343608
20
-3.73339677750084
30
0
41
1
10
66.3319572194993
20
-3.78084808646869
30
0
41
1
10
66.2788073612318
20
-3.80171312614544
30
0
41
1
10
66.1730060250918
20
-3.83772547246676
30
0
41
1
10
66.1204331248827
20
-3.85285296305605
30
0
41
1
10
66.0158084398353
20
-3.87750379803185
30
0
41
1
10
65.9637769523721
20
-3.88701978821359
30
0
41
1
10
65.9120355592879
20
-3.89379171274825
30
0
0
SPLINE
5
166
100
AcDbEntity
8
1
62
256
6
ByLayer
370
18
48
1
60
0
100
AcDbSpline
70
4
71
3
72
32
73
28
40
0
40
0
40
0
40
0
40
0.0624999999999864
40
0.0624999999999864
40
0.124999999999973
40
0.124999999999973
40
0.187499999999959
40
0.187499999999959
40
0.249999999999945
40
0.249999999999945
40
0.312499999999932
40
0.312499999999932
40
0.374999999999918
40
0.374999999999918
40
0.499999999999892
40
0.499999999999892
40
0.5624999999999
40
0.5624999999999
40
0.624999999999908
40
0.624999999999908
40
0.749999999999964
40
0.749999999999964
40
0.812499999999973
40
0.812499999999973
40
0.874999999999982
40
0.874999999999982
40
1
40
1
40
1
40
1
41
1
10
67.0305004139292
20
-3.9235194552752
30
0
41
1
10
67.0229856187092
20
-3.91053329711059
30
0
41
1
10
67.0147091661365
20
-3.89806498464424
30
0
41
1
10
66.9969242580709
20
-3.87396675867089
30
0
41
1
10
66.9874125901511
20
-3.8623390144003
30
0
41
1
10
66.9673002656068
20
-3.83982464486101
30
0
41
1
10
66.9568806884312
20
-3.82914531660018
30
0
41
1
10
66.9356472178025
20
-3.80894420915126
30
0
41
1
10
66.9247971502427
20
-3.79938478594502
30
0
41
1
10
66.9026969747788
20
-3.78120901431336
30
0
41
1
10
66.8913888276668
20
-3.77255347069252
30
0
41
1
10
66.868705991042
20
-3.75631946371311
30
0
41
1
10
66.8573690284539
20
-3.74876086134933
30
0
41
1
10
66.8233863555656
20
-3.72756327852724
30
0
41
1
10
66.8007679796789
20
-3.71538430696731
30
0
41
1
10
66.7669635544729
20
-3.69973732689155
30
0
41
1
10
66.755682068577
20
-3.69495344157877
30
0
41
1
10
66.7335270872539
20
-3.68640096912711
30
0
41
1
10
66.7226158645042
20
-3.68261237944449
30
0
41
1
10
66.6903918563115
20
-3.67267256483217
30
0
41
1
10
66.6695817129635
20
-3.66792344408015
30
0
41
1
10
66.6395333242656
20
-3.6638554765814
30
0
41
1
10
66.6297211419057
20
-3.66302262310421
30
0
41
1
10
66.610926555094
20
-3.66249492686711
30
0
41
1
10
66.6018927508605
20
-3.66279102194298
30
0
41
1
10
66.5759713502148
20
-3.66549343284439
30
0
41
1
10
66.5602192566517
20
-3.66963648109257
30
0
41
1
10
66.5465964502288
20
-3.67711195475795
30
0
0
SPLINE
5
167
100
AcDbEntity
8
1
62
256
6
ByLayer
370
18
48
1
60
0
100
AcDbSpline
70
4
71
3
72
14
73
10
40
0
40
0
40
0
40
0
40
0.25
40
0.25
40
0.5
40
0.5
40
0.75
40
0.75
40
1
40
1
40
1
40
1
41
1
10
67.6146082090427
20
-4.97273611024599
30
0
41
1
10
67.5669496393608
20
-4.88417095918646
30
0
41
1
10
67.5190534467628
20
-4.79578405619483
30
0
41
1
10
67.4226929254337
20
-4.61941998296751
30
0
41
1
10
67.3741981648189
20
-4.53138427177839
30
0
41
1
10
67.2767725666405
20
-4.35614724705243
30
0
41
1
10
67.2278153997849
20
-4.26889975683457
30
0
41
1
10
67.1294595450018
20
-4.09541154716732
30
0
41
1
10
67.0800858594175
20
-4.00920701147871
30
0
41
1
10
67.0305004139292
20
-3.9235194552752
30
0
0
SPLINE
5
168
100
AcDbEntity
8
1
62
256
6
ByLayer
370
18
48
1
60
0
100
AcDbSpline
70
4
71
3
72
8
73
4
40
0
40
0
40
0
40
0
40
1
40
1
40
1
40
1
41
1
10
67.6146082090428
20
-4.97273611024596
30
0
41
1
10
67.7401615403251
20
-4.97601360393202
30
0
41
1
10
67.8672606788237
20
-4.97369845828581
30
0
41
1
10
67.9966819461406
20
-4.96575003047363
30
0
0
SPLINE
5
169
100
AcDbEntity
8
1
62
256
6
ByLayer
370
18
48
1
60
0
100
AcDbSpline
70
4
71
3
72
12
73
8
40
0
40
0
40
0
40
0
40
0.499999999999991
40
0.499999999999991
40
0.749999999999996
40
0.749999999999996
40
1
40
1
40
1
40
1
41
1
10
68.4700222128664
20
-4.44138694754272
30
0
41
1
10
68.3898050248026
20
-4.53946285298633
30
0
41
1
10
68.3104165597489
20
-4.63200637720686
30
0
41
1
10
68.1921031916109
20
-4.76314601710271
30
0
41
1
10
68.1527818021978
20
-4.80557997230994
30
0
41
1
10
68.07448845471
20
-4.8877092520315
30
0
41
1
10
68.035512560471
20
-4.92740825542737
30
0
41
1
10
67.9966819461406
20
-4.96575003047369
30
0
0
SPLINE
5
16A
100
AcDbEntity
8
1
62
256
6
ByLayer
370
18
48
1
60
0
100
AcDbSpline
70
4
71
3
72
32
73
28
40
0
40
0
40
0
40
0
40
0.0625000000000215
40
0.0625000000000215
40
0.125000000000043
40
0.125000000000043
40
0.187500000000065
40
0.187500000000065
40
0.250000000000086
40
0.250000000000086
40
0.312500000000108
40
0.312500000000108
40
0.375000000000129
40
0.375000000000129
40
0.500000000000128
40
0.500000000000128
40
0.562500000000128
40
0.562500000000128
40
0.625000000000127
40
0.625000000000127
40
0.750000000000084
40
0.750000000000084
40
0.812500000000063
40
0.812500000000063
40
0.875000000000042
40
0.875000000000042
40
1
40
1
40
1
40
1
41
1
10
68.9538924220071
20
-4.5370328424377
30
0
41
1
10
68.9463813084849
20
-4.52393837871838
30
0
41
1
10
68.9381104517836
20
-4.51181075559012
30
0
41
1
10
68.9203398179366
20
-4.48911150812236
30
0
41
1
10
68.9108368340805
20
-4.47854411271177
30
0
41
1
10
68.8907445494803
20
-4.45878401910969
30
0
41
1
10
68.8803319272274
20
-4.44977134967058
30
0
41
1
10
68.8591155799761
20
-4.43336049514545
30
0
41
1
10
68.8482743007867
20
-4.42592911376286
30
0
41
1
10
68.8261918062258
20
-4.41242246014647
30
0
41
1
10
68.814893890215
20
-4.40632290554953
30
0
41
1
10
68.7922201051607
20
-4.39551272275128
30
0
41
1
10
68.7808872262515
20
-4.39081383472589
30
0
41
1
10
68.7469154334897
20
-4.37859626762543
30
0
41
1
10
68.7243024642473
20
-4.37293325123053
30
0
41
1
10
68.6905036240483
20
-4.36781345263236
30
0
41
1
10
68.6792210443676
20
-4.36667758268359
30
0
41
1
10
68.6570586898956
20
-4.36556381047663
30
0
41
1
10
68.6461437141166
20
-4.36557697213388
30
0
41
1
10
68.6139084537876
20
-4.36729214797683
30
0
41
1
10
68.5930907952622
20
-4.37064242335239
30
0
41
1
10
68.5630322825522
20
-4.37928613610535
30
0
41
1
10
68.5532096639736
20
-4.38278666647352
30
0
41
1
10
68.5343967633375
20
-4.39095369227653
30
0
41
1
10
68.5253547177185
20
-4.39563203242602
30
0
41
1
10
68.4994117536779
20
-4.41159464754284
30
0
41
1
10
68.4836494253405
20
-4.42472591473498
30
0
41
1
10
68.4700222128664
20
-4.44138694754261
30
0
0
SPLINE
5
16B
100
AcDbEntity
8
1
62
256
6
ByLayer
370
18
48
1
60
0
100
AcDbSpline
70
4
71
3
72
8
73
4
40
0
40
0
40
0
40
0
40
1
40
1
40
1
40
1
41
1
10
69.0995882549448
20
-4.79110028448267
30
0
41
1
10
69.0512408051262
20
-4.70678964397044
30
0
41
1
10
69.0026800027416
20
-4.62208643722042
30
0
41
1
10
68.9538924220071
20
-4.5370328424377
30
0
0
SPLINE
5
16C
100
AcDbEntity
8
1
62
256
6
ByLayer
370
18
48
1
60
0
100
AcDbSpline
70
4
71
3
72
20
73
16
40
0
40
0
40
0
40
0
40
0.25
40
0.25
40
0.375
40
0.375
40
0.5
40
0.5
40
0.625
40
0.625
40
0.75
40
0.75
40
0.875
40
0.875
40
1
40
1
40
1
40
1
41
1
10
69.0995882549448
20
-4.79110028448267
30
0
41
1
10
69.3220504335754
20
-4.73967960402754
30
0
41
1
10
69.5493010937424
20
-4.68035222346884
30
0
41
1
10
69.8987428800444
20
-4.58526193370179
30
0
41
1
10
70.0166691310043
20
-4.55256137973518
30
0
41
1
10
70.2553822499039
20
-4.48632291268518
30
0
41
1
10
70.3760227315683
20
-4.45282770170823
30
0
41
1
10
70.6197231297192
20
-4.38623869876903
30
0
41
1
10
70.7427992009804
20
-4.35316097030986
30
0
41
1
10
70.9905648610945
20
-4.28832160267675
30
0
41
1
10
71.1152285908362
20
-4.25656610110471
30
0
41
1
10
71.3649113741271
20
-4.19457842614239
30
0
41
1
10
71.4899582704512
20
-4.16433476789024
30
0
41
1
10
71.740019914891
20
-4.10527636119653
30
0
41
1
10
71.865040217769
20
-4.07645716951362
30
0
41
1
10
71.9899632712979
20
-4.04827717304784
30
0
0
SPLINE
5
16D
100
AcDbEntity
8
1
62
256
6
ByLayer
370
18
48
1
60
0
100
AcDbSpline
70
4
71
3
72
14
73
10
40
0
40
0
40
0
40
0
40
0.249999999999999
40
0.249999999999999
40
0.499999999999999
40
0.499999999999999
40
0.75
40
0.75
40
1
40
1
40
1
40
1
41
1
10
71.9899632712979
20
-4.04827717304784
30
0
41
1
10
72.0361536239523
20
-3.98608135645142
30
0
41
1
10
72.0829603215901
20
-3.92372966741019
30
0
41
1
10
72.1787892276307
20
-3.79887316735164
30
0
41
1
10
72.2276905154859
20
-3.73647635256495
30
0
41
1
10
72.3276181550833
20
-3.61210245508977
30
0
41
1
10
72.378574040264
20
-3.5502071320893
30
0
41
1
10
72.4825874828956
20
-3.4275089339464
30
0
41
1
10
72.5356719138486
20
-3.36667329885268
30
0
41
1
10
72.59
20
-3.30652621047673
30
0
0
SPLINE
5
16E
100
AcDbEntity
8
1
62
256
6
ByLayer
370
18
48
1
60
0
100
AcDbSpline
70
4
71
3
72
30
73
26
40
0
40
0
40
0
40
0
40
0.0977756590778464
40
0.0977756590778464
40
0.195551318155693
40
0.195551318155693
40
0.391102636311385
40
0.391102636311385
40
0.439990465850308
40
0.439990465850308
40
0.488878295389231
40
0.488878295389231
40
0.586653954467077
40
0.586653954467077
40
0.684429613544922
40
0.684429613544922
40
0.782205272622768
40
0.782205272622768
40
0.879980931700614
40
0.879980931700614
40
0.928868761239537
40
0.928868761239537
40
0.97775659077846
40
0.97775659077846
40
1
40
1
40
1
40
1
41
1
10
72.59
20
-3.30652621047673
30
0
41
1
10
72.59
20
-3.25769549593423
30
0
41
1
10
72.59
20
-3.21045712494689
30
0
41
1
10
72.59
20
-3.11922048508836
30
0
41
1
10
72.59
20
-3.07519874325425
30
0
41
1
10
72.59
20
-2.94795582982235
30
0
41
1
10
72.59
20
-2.86963846459392
30
0
41
1
10
72.59
20
-2.78007096147243
30
0
41
1
10
72.59
20
-2.76253837315289
30
0
41
1
10
72.59
20
-2.72847429266125
30
0
41
1
10
72.59
20
-2.7119699745125
30
0
41
1
10
72.59
20
-2.66400764201455
30
0
41
1
10
72.59
20
-2.63409314759113
30
0
41
1
10
72.59
20
-2.57833741953124
30
0
41
1
10
72.59
20
-2.55249532621386
30
0
41
1
10
72.59
20
-2.50506183191831
30
0
41
1
10
72.59
20
-2.48357038779599
30
0
41
1
10
72.59
20
-2.44426069204764
30
0
41
1
10
72.59
20
-2.42648465757617
30
0
41
1
10
72.59
20
-2.40075294560859
30
0
41
1
10
72.59
20
-2.39230780470493
30
0
41
1
10
72.59
20
-2.37544813024215
30
0
41
1
10
72.59
20
-2.36706181334824
30
0
41
1
10
72.59
20
-2.35494386157018
30
0
41
1
10
72.59
20
-2.35116716197538
30
0
41
1
10
72.59
20
-2.34740421047792
30
0
0
SPLINE
5
16F
100
AcDbEntity
8
1
62
256
6
ByLayer
370
18
48
1
60
0
100
AcDbSpline
70
4
71
3
72
14
73
10
40
0
40
0
40
0
40
0
40
0.5
40
0.5
40
0.75
40
0.75
40
0.875
40
0.875
40
1
40
1
40
1
40
1
41
1
10
72.5900000000001
20
-2.29276679215468
30
0
41
1
10
72.4910169688997
20
-2.28171893381506
30
0
41
1
10
72.392637990255
20
-2.27227335279758
30
0
41
1
10
72.2453841553826
20
-2.26161351833076
30
0
41
1
10
72.1963586558623
20
-2.25863408050748
30
0
41
1
10
72.1228469078821
20
-2.25524620741626
30
0
41
1
10
72.0983447173916
20
-2.25430388742023
30
0
41
1
10
72.0493326432904
20
-2.25283006317756
30
0
41
1
10
72.0248438010646
20
-2.25223117318913
30
0
41
1
10
72.0004564255904
20
-2.25147006958608
30
0
0
SPLINE
5
170
100
AcDbEntity
8
1
62
256
6
ByLayer
370
18
48
1
60
0
100
AcDbSpline
70
4
71
3
72
8
73
4
40
0
40
0
40
0
40
0
40
1
40
1
40
1
40
1
41
1
10
71.9800365505598
20
-2.24244430432066
30
0
41
1
10
71.9867668202907
20
-2.24519499998831
30
0
41
1
10
71.9935735009579
20
-2.248207300708
30
0
41
1
10
72.0004511235394
20
-2.2514675561691
30
0
0
SPLINE
5
171
100
AcDbEntity
8
1
62
256
6
ByLayer
370
18
48
1
60
0
100
AcDbSpline
70
4
71
3
72
14
73
10
40
0
40
0
40
0
40
0
40
0.25
40
0.25
40
0.5
40
0.5
40
0.75
40
0.75
40
1
40
1
40
1
40
1
41
1
10
71.9800365505596
20
-2.24244430432125
30
0
41
1
10
71.8485016133634
20
-2.12763336421253
30
0
41
1
10
71.7154817116158
20
-2.01426999960737
30
0
41
1
10
71.4472966589821
20
-1.79011606683829
30
0
41
1
10
71.3121437362389
20
-1.67931607879959
30
0
41
1
10
71.0408234774314
20
-1.45940861933579
30
0
41
1
10
70.9046810033728
20
-1.35026930416578
30
0
41
1
10
70.632073240843
20
-1.13302643436211
30
0
41
1
10
70.495585638052
20
-1.02495028378453
30
0
41
1
10
70.3593220682492
20
-0.91693344156667
30
0
0
SPLINE
5
172
100
AcDbEntity
8
1
62
256
6
ByLayer
370
18
48
1
60
0
100
AcDbSpline
70
4
71
3
72
28
73
24
40
0
40
0
40
0
40
0
40
0.124999999999959
40
0.124999999999959
40
0.187499999999962
40
0.187499999999962
40
0.249999999999965
40
0.249999999999965
40
0.312499999999967
40
0.312499999999967
40
0.37499999999997
40
0.37499999999997
40
0.499999999999975
40
0.499999999999975
40
0.562499999999978
40
0.562499999999978
40
0.624999999999982
40
0.624999999999982
40
0.749999999999988
40
0.749999999999988
40
0.874999999999994
40
0.874999999999994
40
1
40
1
40
1
40
1
41
1
10
69.9447253032911
20
-0.580834875516018
30
0
41
1
10
69.9572215980692
20
-0.584000068637607
30
0
41
1
10
69.9718742629888
20
-0.590117041362504
30
0
41
1
10
69.9962711441935
20
-0.602569473740431
30
0
41
1
10
70.0048281984486
20
-0.607293498271332
30
0
41
1
10
70.0221722730729
20
-0.617459963521895
30
0
41
1
10
70.0310237031382
20
-0.622934646480502
30
0
41
1
10
70.0490320470567
20
-0.634569918660674
30
0
41
1
10
70.0581892744333
20
-0.640731093607286
30
0
41
1
10
70.0767755851732
20
-0.653683785069518
30
0
41
1
10
70.086203167566
20
-0.660477012868967
30
0
41
1
10
70.1143162409332
20
-0.681339230442035
30
0
41
1
10
70.1330221108431
20
-0.696013667673526
30
0
41
1
10
70.1609976545349
20
-0.71903211190039
30
0
41
1
10
70.1703088890086
20
-0.726874621833161
30
0
41
1
10
70.1888974912352
20
-0.742893851023211
30
0
41
1
10
70.1982033262703
20
-0.751096902495675
30
0
41
1
10
70.2257450436824
20
-0.775927070461762
30
0
41
1
10
70.2436664533273
20
-0.792818803438507
30
0
41
1
10
70.2786221301001
20
-0.827300192905824
30
0
41
1
10
70.2956655933356
20
-0.844899568718091
30
0
41
1
10
70.3287345192076
20
-0.880842246679293
30
0
41
1
10
70.3444605726652
20
-0.8988596264264
30
0
41
1
10
70.3593220682492
20
-0.916933441566613
30
0
0
SPLINE
5
173
100
AcDbEntity
8
1
62
256
6
ByLayer
370
18
48
1
60
0
100
AcDbSpline
70
4
71
3
72
8
73
4
40
0
40
0
40
0
40
0
40
1
40
1
40
1
40
1
41
1
10
69.9346687311943
20
-0.578251478287825
30
0
41
1
10
69.9380198011593
20
-0.579124376726611
30
0
41
1
10
69.9413719883873
20
-0.579985512608346
30
0
41
1
10
69.9447253032911
20
-0.580834875516018
30
0
0
SPLINE
5
174
100
AcDbEntity
8
1
62
256
6
ByLayer
370
18
48
1
60
0
100
AcDbSpline
70
4
71
3
72
10
73
6
40
0
40
0
40
0
40
0
40
0.5
40
0.5
40
1
40
1
40
1
40
1
41
1
10
69.9346687311943
20
-0.578251478287768
30
0
41
1
10
69.7357517110382
20
-0.418027344482169
30
0
41
1
10
69.5386894998026
20
-0.256148558429629
30
0
41
1
10
69.1501450275658
20
0.0745268964387265
30
0
41
1
10
68.9586716467918
20
0.243353734176282
30
0
41
1
10
68.7702648793044
20
0.416838328459335
30
0
0
SPLINE
5
175
100
AcDbEntity
8
1
62
256
6
ByLayer
370
18
48
1
60
0
100
AcDbSpline
70
4
71
3
72
8
73
4
40
0
40
0
40
0
40
0
40
1
40
1
40
1
40
1
41
1
10
68.5051094097614
20
0.720034844257725
30
0
41
1
10
68.5941584969603
20
0.625910474462529
30
0
41
1
10
68.6824812032077
20
0.524843089960228
30
0
41
1
10
68.7702648793044
20
0.416838328459306
30
0
0
SPLINE
5
176
100
AcDbEntity
8
1
62
256
6
ByLayer
370
18
48
1
60
0
100
AcDbSpline
70
4
71
3
72
32
73
28
40
0
40
0
40
0
40
0
40
0.0625000000000071
40
0.0625000000000071
40
0.125000000000014
40
0.125000000000014
40
0.187500000000021
40
0.187500000000021
40
0.250000000000028
40
0.250000000000028
40
0.312500000000035
40
0.312500000000035
40
0.375000000000043
40
0.375000000000043
40
0.43750000000005
40
0.43750000000005
40
0.500000000000057
40
0.500000000000057
40
0.625000000000071
40
0.625000000000071
40
0.687500000000059
40
0.687500000000059
40
0.750000000000046
40
0.750000000000046
40
0.875000000000023
40
0.875000000000023
40
1
40
1
40
1
40
1
41
1
10
68.0210704539381
20
1.1498419746861
30
0
41
1
10
68.0287007012717
20
1.14318138283556
30
0
41
1
10
68.0371467797178
20
1.13586037177362
30
0
41
1
10
68.055367866225
20
1.1201558513344
30
0
41
1
10
68.0651821107177
20
1.11173863820005
30
0
41
1
10
68.0858428236844
20
1.09408256413781
30
0
41
1
10
68.0964712114784
20
1.08502990745504
30
0
41
1
10
68.1182046972922
20
1.06654634923572
30
0
41
1
10
68.1293106905837
20
1.0571143839004
30
0
41
1
10
68.1519315647854
20
1.03790267091551
30
0
41
1
10
68.1634580748432
20
1.02811302657801
30
0
41
1
10
68.1863411621082
20
1.00865420156856
30
0
41
1
10
68.1977683477876
20
0.998925184067161
30
0
41
1
10
68.2205853851444
20
0.979454029415876
30
0
41
1
10
68.2319752600112
20
0.969711943135849
30
0
41
1
10
68.2547077970414
20
0.950201126423167
30
0
41
1
10
68.2660828012989
20
0.940404433874392
30
0
41
1
10
68.2998966381965
20
0.911145442098757
30
0
41
1
10
68.3217814543384
20
0.892025777696773
30
0
41
1
10
68.3536152037217
20
0.863806974165669
30
0
41
1
10
68.3640593788259
20
0.854478628065465
30
0
41
1
10
68.3845945024449
20
0.835971271850269
30
0
41
1
10
68.3947053472854
20
0.82677324142449
30
0
41
1
10
68.4240087955088
20
0.799826672444453
30
0
41
1
10
68.4423379912893
20
0.78258042803489
30
0
41
1
10
68.4762137671848
20
0.749741630820211
30
0
41
1
10
68.4918509731814
20
0.734048934990881
30
0
41
1
10
68.5051094097613
20
0.720034844259459
30
0
0
SPLINE
5
177
100
AcDbEntity
8
1
62
256
6
ByLayer
370
18
48
1
60
0
100
AcDbSpline
70
4
71
3
72
14
73
10
40
0
40
0
40
0
40
0
40
0.25
40
0.25
40
0.5
40
0.5
40
0.75
40
0.75
40
1
40
1
40
1
40
1
41
1
10
59.8874859139797
20
2.24002776501786
30
0
41
1
10
59.842387795038
20
2.24301547477907
30
0
41
1
10
59.7971106441147
20
2.2439896997696
30
0
41
1
10
59.7061290709954
20
2.24186090440151
30
0
41
1
10
59.6604089877036
20
2.23875737561786
30
0
41
1
10
59.5685277857101
20
2.22840566538224
30
0
41
1
10
59.5224261964434
20
2.22115901623499
30
0
41
1
10
59.4298333183533
20
2.20249996573895
30
0
41
1
10
59.3833440762145
20
2.19110708838735
30
0
41
1
10
59.3366475245562
20
2.17777219453703
30
0
0
SPLINE
5
178
100
AcDbEntity
8
1
62
256
6
ByLayer
370
13
48
1
60
0
100
AcDbSpline
70
4
71
3
72
9
73
5
40
0
40
0
40
0
40
0
40
0.0931629403224119
40
1
40
1
40
1
40
1
41
1.04
10
59.3366475245563
20
2.17777219453702
30
0
41
1.04
10
59.3427587419112
20
2.09181658016727
30
0
41
1.04
10
59.4083260902937
20
1.15443671641377
30
0
41
1.04
10
59.4718637351178
20
0.103390690470944
30
0
41
1.04
10
59.5279609622583
20
-0.779190332748423
30
0
0
SPLINE
5
179
100
AcDbEntity
8
1
62
256
6
ByLayer
370
18
48
1
60
0
100
AcDbSpline
70
4
71
3
72
12
73
8
40
0
40
0
40
0
40
0
40
0.5
40
0.5
40
0.75
40
0.75
40
1
40
1
40
1
40
1
41
1
10
59.5279609622583
20
-0.779190332748442
30
0
41
1
10
59.6287431038409
20
-0.936981544339233
30
0
41
1
10
59.7285379478082
20
-1.10150672544731
30
0
41
1
10
59.8773044518406
20
-1.35821375074048
30
0
41
1
10
59.9267115928753
20
-1.44537606429751
30
0
41
1
10
60.0250181992169
20
-1.62241068560499
30
0
41
1
10
60.073950601307
20
-1.71233947033986
30
0
41
1
10
60.1227026922981
20
-1.80364526680114
30
0
0
SPLINE
5
17A
100
AcDbEntity
8
1
62
256
6
ByLayer
370
13
48
1
60
0
100
AcDbSpline
70
4
71
3
72
10
73
6
40
0
40
0
40
0
40
0
40
0.147182580892871
40
0.833393385088703
40
1
40
1
40
1
40
1
41
1
10
60.7761517387577
20
0.957606455207809
30
0
41
1
10
60.785629573989
20
0.809616978869713
30
0
41
1
10
60.8392118639111
20
-0.035457351824391
30
0
41
1
10
60.9032412613647
20
-1.07211918341568
30
0
41
1
10
60.9571458090302
20
-1.86608628329944
30
0
41
1
10
60.9676647748788
20
-2.01705939443031
30
0
0
SPLINE
5
17B
100
AcDbEntity
8
1
62
256
6
ByLayer
370
18
48
1
60
0
100
AcDbSpline
70
4
71
3
72
12
73
8
40
0
40
0
40
0
40
0
40
0.25
40
0.25
40
0.500000000000001
40
0.500000000000001
40
1
40
1
40
1
40
1
41
1
10
60.7761517387577
20
0.957606455207866
30
0
41
1
10
60.7252570359398
20
1.03518551065685
30
0
41
1
10
60.674705809442
20
1.11463344819092
30
0
41
1
10
60.5740894673457
20
1.2769293672375
30
0
41
1
10
60.5240210999317
20
1.3597661814625
30
0
41
1
10
60.3743792322966
20
1.61320334247628
30
0
41
1
10
60.2757455863726
20
1.78809965217528
30
0
41
1
10
60.1779256484695
20
1.968480725268
30
0
0
SPLINE
5
17C
100
AcDbEntity
8
1
62
256
6
ByLayer
370
18
48
1
60
0
100
AcDbSpline
70
4
71
3
72
14
73
10
40
0
40
0
40
0
40
0
40
0.25
40
0.25
40
0.5
40
0.5
40
0.75
40
0.75
40
1
40
1
40
1
40
1
41
1
10
60.3770370550824
20
-2.08474759244621
30
0
41
1
10
60.4253489111378
20
-2.08859841137252
30
0
41
1
10
60.4738698885753
20
-2.09013374130637
30
0
41
1
10
60.5714135476368
20
-2.08848486564659
30
0
41
1
10
60.6204711193446
20
-2.08529654645719
30
0
41
1
10
60.7190049948805
20
-2.07410940055351
30
0
41
1
10
60.7684402918667
20
-2.06611896211672
30
0
41
1
10
60.8677226619212
20
-2.04528010706934
30
0
41
1
10
60.917567181213
20
-2.03245623049779
30
0
41
1
10
60.9676647748788
20
-2.01705939443033
30
0
0
SPLINE
5
17D
100
AcDbEntity
8
1
62
256
6
ByLayer
370
18
48
1
60
0
100
AcDbSpline
70
4
71
3
72
26
73
22
40
0
40
0
40
0
40
0
40
0.0625000000000001
40
0.0937500000000001
40
0.0937500000000001
40
0.125
40
0.125
40
0.25
40
0.25
40
0.375
40
0.375
40
0.5
40
0.5
40
0.5625
40
0.5625
40
0.625
40
0.625
40
0.75
40
0.875
40
0.875
40
1
40
1
40
1
40
1
41
1
10
60.1779256484629
20
1.96848072527266
30
0
41
1
10
60.1820649305303
20
1.88796475729717
30
0
41
1
10
60.1882959372459
20
1.76586905256028
30
0
41
1
10
60.1945693021497
20
1.64176129977483
30
0
41
1
10
60.1987617003706
20
1.55857091199743
30
0
41
1
10
60.2008655417753
20
1.51669871616829
30
0
41
1
10
60.2113627937006
20
1.30717463077212
30
0
41
1
10
60.2197150157085
20
1.13859453838981
30
0
41
1
10
60.2363303884997
20
0.799572014962621
30
0
41
1
10
60.244586861917
20
0.629129010343746
30
0
41
1
10
60.2609886051905
20
0.286388510250049
30
0
41
1
10
60.2691539081571
20
0.11409233979748
30
0
41
1
10
60.281491438585
20
-0.145760432481751
30
0
41
1
10
60.2856185259017
20
-0.232613174895022
30
0
41
1
10
60.2939211343465
20
-0.406797350285473
30
0
41
1
10
60.2980676722049
20
-0.493519077516368
30
0
41
1
10
60.3104968114754
20
-0.752230827009384
30
0
41
1
10
60.3270614427662
20
-1.09363324511722
30
0
41
1
10
60.3437163653008
20
-1.42809052626288
30
0
41
1
10
60.3603886140639
20
-1.75906058077828
30
0
41
1
10
60.3687223679083
20
-1.92280243615286
30
0
41
1
10
60.3770370550826
20
-2.08474759244609
30
0
0
SPLINE
5
17E
100
AcDbEntity
8
1
62
256
6
ByLayer
370
18
48
1
60
0
100
AcDbSpline
70
4
71
3
72
8
73
4
40
0
40
0
40
0
40
0
40
1
40
1
40
1
40
1
41
1
10
60.1779256484693
20
1.96848072527445
30
0
41
1
10
60.0812930033819
20
2.06075996841275
30
0
41
1
10
59.9845161098174
20
2.15130012399047
30
0
41
1
10
59.8874859139797
20
2.24002776501789
30
0
0
SPLINE
5
17F
100
AcDbEntity
8
1
62
256
6
ByLayer
370
18
48
1
60
0
100
AcDbSpline
70
4
71
3
72
29
73
25
40
0
40
0
40
0
40
0
40
0.0625000000000003
40
0.0937500000000005
40
0.0937500000000005
40
0.125000000000001
40
0.125000000000001
40
0.25
40
0.25
40
0.374999999999999
40
0.374999999999999
40
0.499999999999999
40
0.499999999999999
40
0.562499999999998
40
0.562499999999998
40
0.593749999999998
40
0.593749999999998
40
0.624999999999998
40
0.624999999999998
40
0.749999999999999
40
0.749999999999999
40
0.874999999999999
40
0.874999999999999
40
1
40
1
40
1
40
1
41
1
10
60.1227026922981
20
-1.80364526680105
30
0
41
1
10
60.1177651157503
20
-1.72189510284107
30
0
41
1
10
60.1103737468684
20
-1.59808987555533
30
0
41
1
10
60.1030224123572
20
-1.47248877204737
30
0
41
1
10
60.0981326309281
20
-1.3883514364569
30
0
41
1
10
60.0956915123215
20
-1.34603991149316
30
0
41
1
10
60.083537678736
20
-1.13394049334732
30
0
41
1
10
60.0740317396619
20
-0.963723527284031
30
0
41
1
10
60.0550667373488
20
-0.622267293088015
30
0
41
1
10
60.0456090873578
20
-0.451027885731918
30
0
41
1
10
60.0265001072927
20
-0.107545265442553
30
0
41
1
10
60.0168496332694
20
0.0646979514923203
30
0
41
1
10
60.0021302421668
20
0.323825305864659
30
0
41
1
10
59.9971839457746
20
0.410328424371556
30
0
41
1
10
59.9896987901214
20
0.540277624508292
30
0
41
1
10
59.9871924130011
20
0.583633092908627
30
0
41
1
10
59.9821844162353
20
0.66994516095815
30
0
41
1
10
59.9796794548012
20
0.712959955548911
30
0
41
1
10
59.9671501875917
20
0.927334875185522
30
0
41
1
10
59.9571098731408
20
1.09660232662068
30
0
41
1
10
59.9370505399629
20
1.4307814336953
30
0
41
1
10
59.9270323783831
20
1.59569297600942
30
0
41
1
10
59.9071264743324
20
1.92115784338813
30
0
41
1
10
59.8972396121052
20
2.08171155328333
30
0
41
1
10
59.8874859139797
20
2.24002776501786
30
0
0
SPLINE
5
180
100
AcDbEntity
8
1
62
256
6
ByLayer
370
18
48
1
60
0
100
AcDbSpline
70
4
71
3
72
8
73
4
40
0
40
0
40
0
40
0
40
1
40
1
40
1
40
1
41
1
10
60.1227026922981
20
-1.80364526680111
30
0
41
1
10
60.2075944563846
20
-1.89774260662512
30
0
41
1
10
60.2923506928632
20
-1.99146307912954
30
0
41
1
10
60.3770370550825
20
-2.08474759244606
30
0
0
SPLINE
5
181
100
AcDbEntity
8
1
62
256
6
ByLayer
370
18
48
1
60
0
100
AcDbSpline
70
4
71
3
72
101
73
97
40
0
40
0
40
0
40
0
40
0.0625000000000287
40
0.0625000000000287
40
0.125000000000057
40
0.125000000000057
40
0.187500000000086
40
0.187500000000086
40
0.195312500000089
40
0.195312500000089
40
0.203125000000092
40
0.218750000000095
40
0.218750000000095
40
0.250000000000096
40
0.250000000000096
40
0.265625000000097
40
0.265625000000097
40
0.281250000000097
40
0.281250000000097
40
0.296875000000098
40
0.296875000000098
40
0.312500000000099
40
0.312500000000099
40
0.320312500000098
40
0.320312500000098
40
0.328125000000097
40
0.328125000000097
40
0.343750000000096
40
0.343750000000096
40
0.359375000000095
40
0.359375000000095
40
0.375000000000093
40
0.375000000000093
40
0.406250000000089
40
0.406250000000089
40
0.437500000000084
40
0.437500000000084
40
0.445312500000082
40
0.445312500000082
40
0.45312500000008
40
0.45312500000008
40
0.468750000000078
40
0.468750000000078
40
0.500000000000073
40
0.500000000000073
40
0.515625000000071
40
0.515625000000071
40
0.531250000000069
40
0.531250000000069
40
0.562500000000064
40
0.562500000000064
40
0.570312500000063
40
0.570312500000063
40
0.578125000000063
40
0.578125000000063
40
0.593750000000061
40
0.593750000000061
40
0.601562500000061
40
0.601562500000061
40
0.60937500000006
40
0.61718750000006
40
0.621093750000059
40
0.621093750000059
40
0.625000000000059
40
0.625000000000059
40
0.640625000000058
40
0.640625000000058
40
0.656250000000057
40
0.656250000000057
40
0.664062500000057
40
0.664062500000057
40
0.671875000000056
40
0.671875000000056
40
0.687500000000054
40
0.687500000000054
40
0.718750000000051
40
0.718750000000051
40
0.734375000000049
40
0.734375000000049
40
0.750000000000046
40
0.750000000000046
40
0.781250000000041
40
0.781250000000041
40
0.812500000000035
40
0.812500000000035
40
0.843750000000029
40
0.843750000000029
40
0.875000000000023
40
0.875000000000023
40
0.89062500000002
40
0.89062500000002
40
0.906250000000017
40
0.906250000000017
40
0.937500000000012
40
0.937500000000012
40
1
40
1
40
1
40
1
41
1
10
37.3679982245837
20
0.150902493784571
30
0
41
1
10
37.1923277733225
20
0.283904901845176
30
0
41
1
10
37.0132027518367
20
0.409408301442681
30
0
41
1
10
36.6456952863856
20
0.64186098400404
30
0
41
1
10
36.4572870802834
20
0.748764701912393
30
0
41
1
10
36.068853148086
20
0.940532747178821
30
0
41
1
10
35.868793761661
20
1.02533692837901
30
0
41
1
10
35.6353954271159
20
1.10557922237831
30
0
41
1
10
35.6093462196761
20
1.11428385022248
30
0
41
1
10
35.5570065789215
20
1.13125607279281
30
0
41
1
10
35.478047057433
20
1.15608689960698
30
0
41
1
10
35.3987634437382
20
1.17861828100411
30
0
41
1
10
35.239748575584
20
1.22055036805924
30
0
41
1
10
35.1331381293713
20
1.24430670665623
30
0
41
1
10
34.9722095020742
20
1.27300073290635
30
0
41
1
10
34.9184011343792
20
1.28143095365266
30
0
41
1
10
34.8104013586999
20
1.29568575024666
30
0
41
1
10
34.7562135757731
20
1.30153497817392
30
0
41
1
10
34.6474452678779
20
1.31057444935848
30
0
41
1
10
34.59286490856
20
1.31376583046583
30
0
41
1
10
34.4832796125347
20
1.31728151953661
30
0
41
1
10
34.4282614680199
20
1.31751670013784
30
0
41
1
10
34.3454577418278
20
1.31600282963157
30
0
41
1
10
34.3178103828414
20
1.31518683192402
30
0
41
1
10
34.2624317323119
20
1.31298775762173
30
0
41
1
10
34.2346700353569
20
1.31160271185254
30
0
41
1
10
34.1515463253955
20
1.30670729825411
30
0
41
1
10
34.0963408740442
20
1.30245917732236
30
0
41
1
10
33.9862218562553
20
1.29259100864775
30
0
41
1
10
33.9313049517726
20
1.28698679506451
30
0
41
1
10
33.8218593024063
20
1.273949213322
30
0
41
1
10
33.767320621278
20
1.26656235196384
30
0
41
1
10
33.6043117446237
20
1.24152544299741
30
0
41
1
10
33.4964593363009
20
1.22095165351678
30
0
41
1
10
33.2826402591198
20
1.17075329702561
30
0
41
1
10
33.1766682215995
20
1.1411556313256
30
0
41
1
10
33.0455931057759
20
1.09736656885397
30
0
41
1
10
33.0194479595116
20
1.08826705122411
30
0
41
1
10
32.9673046189484
20
1.06934572098532
30
0
41
1
10
32.9412854300705
20
1.05951471571567
30
0
41
1
10
32.8638573689906
20
1.02903419751598
30
0
41
1
10
32.8129594114988
20
1.00736135712225
30
0
41
1
10
32.6625990365723
20
0.937921979189184
30
0
41
1
10
32.5654511542098
20
0.885776814470006
30
0
41
1
10
32.4256375866945
20
0.79615825352866
30
0
41
1
10
32.3798900424007
20
0.76424627809655
30
0
41
1
10
32.2922093996476
20
0.697136189777098
30
0
41
1
10
32.2501111452203
20
0.661849298731738
30
0
41
1
10
32.1295701164745
20
0.550225172855505
30
0
41
1
10
32.0569819041601
20
0.468033679591798
30
0
41
1
10
31.9776665265966
20
0.35364996273546
30
0
41
1
10
31.9623613694099
20
0.330095614663151
30
0
41
1
10
31.9329837286508
20
0.282444663859508
30
0
41
1
10
31.9189401827704
20
0.258299748190524
30
0
41
1
10
31.8792114723187
20
0.184680546958134
30
0
41
1
10
31.8559169959515
20
0.134027565260908
30
0
41
1
10
31.8277818732261
20
0.0547029843202722
30
0
41
1
10
31.8194743344714
20
0.0275770574676812
30
0
41
1
10
31.8061202126358
20
-0.0268476628546068
30
0
41
1
10
31.7958212931093
20
-0.0816190664128555
30
0
41
1
10
31.7900620106684
20
-0.150886865169809
30
0
41
1
10
31.7895980373585
20
-0.192783785096736
30
0
41
1
10
31.7899325165748
20
-0.220787243306546
30
0
41
1
10
31.7904237580875
20
-0.23485880224095
30
0
41
1
10
31.7944101801003
20
-0.304953497030141
30
0
41
1
10
31.8024399994296
20
-0.359863464496385
30
0
41
1
10
31.8253749903246
20
-0.467976519046033
30
0
41
1
10
31.8403143030718
20
-0.521172087484842
30
0
41
1
10
31.8667937692648
20
-0.599928766284165
30
0
41
1
10
31.8763236303113
20
-0.6260483941183
30
0
41
1
10
31.8964175629033
20
-0.677485341245784
30
0
41
1
10
31.9069991878912
20
-0.702861227499682
30
0
41
1
10
31.9401460724827
20
-0.778079187862033
30
0
41
1
10
31.9641059819944
20
-0.827015966242016
30
0
41
1
10
32.040365086788
20
-0.970905268464406
30
0
41
1
10
32.0970025096596
20
-1.06296236490522
30
0
41
1
10
32.1878468678268
20
-1.19688637231647
30
0
41
1
10
32.2191884541646
20
-1.24089978047019
30
0
41
1
10
32.2830734273907
20
-1.32704526987095
30
0
41
1
10
32.315657920741
20
-1.36924294815313
30
0
41
1
10
32.4149822634891
20
-1.49357603892844
30
0
41
1
10
32.4832768965617
20
-1.57346880891856
30
0
41
1
10
32.6227978314255
20
-1.72852069714045
30
0
41
1
10
32.6940342756371
20
-1.8036694521912
30
0
41
1
10
32.8387024875163
20
-1.94997325910956
30
0
41
1
10
32.9121388950633
20
-2.02112355604541
30
0
41
1
10
33.0607178183355
20
-2.15989968602938
30
0
41
1
10
33.1358601922097
20
-2.22752485800541
30
0
41
1
10
33.2496056227782
20
-2.32653757290174
30
0
41
1
10
33.2876659667552
20
-2.35911151265691
30
0
41
1
10
33.3638603063027
20
-2.42327611342202
30
0
41
1
10
33.4020213350987
20
-2.45489035988947
30
0
41
1
10
33.5166593924179
20
-2.54837614293038
30
0
41
1
10
33.593289185285
20
-2.6088940990924
30
0
41
1
10
33.8235861349197
20
-2.78527060069331
30
0
41
1
10
33.9776302069136
20
-2.89599163740954
30
0
41
1
10
34.132037300108
20
-2.9999165990096
30
0
0
SPLINE
5
182
100
AcDbEntity
8
1
62
256
6
ByLayer
370
18
48
1
60
0
100
AcDbSpline
70
4
71
3
72
42
73
38
40
0
40
0
40
0
40
0
40
0.0037491748559215
40
0.0037491748559215
40
0.0575901867933485
40
0.0575901867933485
40
0.111431198730776
40
0.111431198730776
40
0.165272210668202
40
0.165272210668202
40
0.219113222605629
40
0.219113222605629
40
0.272954234543056
40
0.272954234543056
40
0.326795246480483
40
0.326795246480483
40
0.38063625841791
40
0.38063625841791
40
0.434477270355337
40
0.434477270355337
40
0.542159294230193
40
0.542159294230193
40
0.64984131810505
40
0.64984131810505
40
0.703682330042478
40
0.703682330042478
40
0.757523341979906
40
0.757523341979906
40
0.811364353917334
40
0.811364353917334
40
0.865205365854763
40
0.865205365854763
40
0.919046377792191
40
0.919046377792191
40
0.972887389729619
40
0.972887389729619
40
1
40
1
40
1
40
1
41
1
10
37.3679982245587
20
0.150902493807905
30
0
41
1
10
37.3649358567417
20
0.153752520185151
30
0
41
1
10
37.3618530025784
20
0.156576949297232
30
0
41
1
10
37.3141827521314
20
0.19956842749994
30
0
41
1
10
37.2649978822267
20
0.234635477701545
30
0
41
1
10
37.1592482232796
20
0.29220890992147
30
0
41
1
10
37.1029445115142
20
0.314643426425789
30
0
41
1
10
36.9832900363104
20
0.34645739511754
30
0
41
1
10
36.9199613131853
20
0.355877678239466
30
0
41
1
10
36.7853881055075
20
0.360053845902144
30
0
41
1
10
36.7137772208237
20
0.354661659116942
30
0
41
1
10
36.566859077205
20
0.327595073775427
30
0
41
1
10
36.491009307369
20
0.306013908501654
30
0
41
1
10
36.3337157872906
20
0.244020407662447
30
0
41
1
10
36.2528491406785
20
0.203196478235384
30
0
41
1
10
36.0923483086943
20
0.104563439119602
30
0
41
1
10
36.0119250579102
20
0.047285449518256
30
0
41
1
10
35.8509408405798
20
-0.0736142750994588
30
0
41
1
10
35.771377740823
20
-0.137587693512501
30
0
41
1
10
35.5365966232677
20
-0.340556670439639
30
0
41
1
10
35.3848518828666
20
-0.490557709687238
30
0
41
1
10
35.090665967786
20
-0.819172487117072
30
0
41
1
10
34.952256095142
20
-0.993389574072211
30
0
41
1
10
34.7594006881222
20
-1.26569920378949
30
0
41
1
10
34.6974994532368
20
-1.35852313104169
30
0
41
1
10
34.5777994679609
20
-1.54770582689002
30
0
41
1
10
34.5192725328089
20
-1.64350337938939
30
0
41
1
10
34.4130327044318
20
-1.83620495984945
30
0
41
1
10
34.3661998926323
20
-1.93365820510979
30
0
41
1
10
34.2856552224501
20
-2.13086547907301
30
0
41
1
10
34.2521114168277
20
-2.22948101864216
30
0
41
1
10
34.1983407053764
20
-2.42077695494726
30
0
41
1
10
34.1777692747072
20
-2.51443588222364
30
0
41
1
10
34.1480075198929
20
-2.69816840975895
30
0
41
1
10
34.1388968163375
20
-2.78753426612545
30
0
41
1
10
34.1326131964285
20
-2.91616482798412
30
0
41
1
10
34.1317372000648
20
-2.95843062259061
30
0
41
1
10
34.1320373001081
20
-2.99991659903111
30
0
0
SPLINE
5
183
100
AcDbEntity
8
SK1
62
256
6
ByLayer
370
18
48
1
60
0
100
AcDbSpline
70
4
71
3
72
23
73
19
40
0
40
0
40
0
40
0
40
0.125052946784665
40
0.125052946784665
40
0.250105893569331
40
0.250105893569331
40
0.375158840353997
40
0.375158840353997
40
0.500211787138662
40
0.625264733923328
40
0.750317680707993
40
0.750317680707993
40
0.78158091740416
40
0.78158091740416
40
0.812844154100326
40
0.875370627492659
40
0.875370627492659
40
1
40
1
40
1
40
1
41
1
10
-26.01
20
3.07499999999996
30
0
41
1
10
-26.0682148550651
20
3.07499999999996
30
0
41
1
10
-26.1250658154559
20
3.07499999999996
30
0
41
1
10
-26.2354151777124
20
3.07499999999996
30
0
41
1
10
-26.2889874199618
20
3.07499999999996
30
0
41
1
10
-26.3911970848273
20
3.07499999999996
30
0
41
1
10
-26.4399162371142
20
3.07499999999996
30
0
41
1
10
-26.5316039801916
20
3.07499999999996
30
0
41
1
10
-26.6175425211512
20
3.07499999999996
30
0
41
1
10
-26.7256494542928
20
3.07499999999996
30
0
41
1
10
-26.7810307085825
20
3.07499999999996
30
0
41
1
10
-26.8094095338454
20
3.07499999999996
30
0
41
1
10
-26.8147676078568
20
3.07499999999996
30
0
41
1
10
-26.8247823113628
20
3.07499999999996
30
0
41
1
10
-26.8387751984791
20
3.07499999999996
30
0
41
1
10
-26.8496299118954
20
3.07499999999996
30
0
41
1
10
-26.8670086332513
20
3.07499999999999
30
0
41
1
10
-26.8728863213183
20
3.07499999999996
30
0
41
1
10
-26.8729200000006
20
3.07499999999996
30
0
0
SPLINE
5
184
100
AcDbEntity
8
SK1
62
256
6
ByLayer
370
18
48
1
60
0
100
AcDbSpline
70
4
71
3
72
23
73
19
40
0
40
0
40
0
40
0
40
0.124629367929254
40
0.124629367929254
40
0.187155841648593
40
0.218419078508263
40
0.218419078508263
40
0.249682315367932
40
0.249682315367932
40
0.37473526280661
40
0.499788210245288
40
0.624841157683966
40
0.624841157683966
40
0.749894105122644
40
0.749894105122644
40
0.874947052561322
40
0.874947052561322
40
1
40
1
40
1
40
1
41
1
10
-26.8729199999963
20
-3.07500000000002
30
0
41
1
10
-26.872886320825
20
-3.07500000000002
30
0
41
1
10
-26.8670086327657
20
-3.07500000000005
30
0
41
1
10
-26.8496299118953
20
-3.07500000000002
30
0
41
1
10
-26.8387751984791
20
-3.07500000000002
30
0
41
1
10
-26.8247823113628
20
-3.07500000000002
30
0
41
1
10
-26.8147676078568
20
-3.07500000000002
30
0
41
1
10
-26.8094095338454
20
-3.07500000000002
30
0
41
1
10
-26.7810307085825
20
-3.07500000000002
30
0
41
1
10
-26.7256494542928
20
-3.07500000000002
30
0
41
1
10
-26.6175425211512
20
-3.07500000000002
30
0
41
1
10
-26.5316039801915
20
-3.07500000000002
30
0
41
1
10
-26.4399162371141
20
-3.07500000000002
30
0
41
1
10
-26.3911970848273
20
-3.07500000000002
30
0
41
1
10
-26.2889874199618
20
-3.07500000000005
30
0
41
1
10
-26.2354151777124
20
-3.07500000000002
30
0
41
1
10
-26.1250658154559
20
-3.07500000000005
30
0
41
1
10
-26.0682148550651
20
-3.07500000000005
30
0
41
1
10
-26.01
20
-3.07500000000002
30
0
0
SPLINE
5
185
100
AcDbEntity
8
SK1
62
256
6
ByLayer
370
18
48
1
60
0
100
AcDbSpline
70
4
71
3
72
42
73
38
40
0
40
0
40
0
40
0
40
0.0624999999999998
40
0.0624999999999998
40
0.125
40
0.125
40
0.15625
40
0.15625
40
0.1875
40
0.1875
40
0.25
40
0.25
40
0.374999999999999
40
0.374999999999999
40
0.406249999999999
40
0.406249999999999
40
0.421874999999999
40
0.421874999999999
40
0.437499999999999
40
0.437499999999999
40
0.499999999999999
40
0.562499999999999
40
0.562499999999999
40
0.593749999999999
40
0.609374999999999
40
0.609374999999999
40
0.624999999999999
40
0.624999999999999
40
0.687499999999999
40
0.75
40
0.8125
40
0.8125
40
0.875
40
0.875
40
0.9375
40
0.9375
40
1
40
1
40
1
40
1
41
1
10
-26.01
20
-2.4599977492673
30
0
41
1
10
-26.0679540661729
20
-2.3672259260689
30
0
41
1
10
-26.1245450317026
20
-2.27345129836814
30
0
41
1
10
-26.2343840777406
20
-2.08344275269559
30
0
41
1
10
-26.2876341436208
20
-1.98721029532018
30
0
41
1
10
-26.3644011633633
20
-1.84057506078514
30
0
41
1
10
-26.3894964799223
20
-1.79126120749754
30
0
41
1
10
-26.4384000316881
20
-1.69203107927228
30
0
41
1
10
-26.4621733928458
20
-1.64218851729959
30
0
41
1
10
-26.5312669462799
20
-1.49191419248879
30
0
41
1
10
-26.57436654768
20
-1.39073778238168
30
0
41
1
10
-26.6930380704064
20
-1.08364482665203
30
0
41
1
10
-26.7580634619915
20
-0.874191634701049
30
0
41
1
10
-26.8145926139307
20
-0.604074675318714
30
0
41
1
10
-26.8246547507205
20
-0.549634226409694
30
0
41
1
10
-26.8377337841841
20
-0.467298125849084
30
0
41
1
10
-26.8417580561212
20
-0.439728314075779
30
0
41
1
10
-26.8490707799248
20
-0.384688779872448
30
0
41
1
10
-26.8523660635797
20
-0.357178970802778
30
0
41
1
10
-26.8670236957705
20
-0.219680085025487
30
0
41
1
10
-26.8788044513233
20
-3.7501791894E-06
30
0
41
1
10
-26.8670479650675
20
0.219023460526074
30
0
41
1
10
-26.8496299118954
20
0.383056673620814
30
0
41
1
10
-26.8387751984791
20
0.465014105132639
30
0
41
1
10
-26.8247823113628
20
0.54688499021205
30
0
41
1
10
-26.8147676078568
20
0.601446658255014
30
0
41
1
10
-26.8094095338454
20
0.628753424513661
30
0
41
1
10
-26.7810307085825
20
0.764780718187581
30
0
41
1
10
-26.7256486755605
20
0.97852105881131
30
0
41
1
10
-26.6175428480383
20
1.2893368593727
30
0
41
1
10
-26.5316039801916
20
1.49112106204038
30
0
41
1
10
-26.4399162371142
20
1.69065587121742
30
0
41
1
10
-26.3911970848273
20
1.78929824916349
30
0
41
1
10
-26.2889874199618
20
1.98471608911964
30
0
41
1
10
-26.2354151777124
20
2.0816196022796
30
0
41
1
10
-26.1250658154559
20
2.27258932263879
30
0
41
1
10
-26.0682148550651
20
2.36680845991677
30
0
41
1
10
-26.01
20
2.45999774926722
30
0
0
SPLINE
5
186
100
AcDbEntity
8
1
62
256
6
ByLayer
370
18
48
1
60
0
100
AcDbSpline
70
4
71
1
72
4
73
2
40
0
40
0
40
1
40
1
41
1
10
72.5900000000001
20
3.93304372731069
30
0
41
1
10
72.1609261741067
20
4.33764525685274
30
0
0
SPLINE
5
187
100
AcDbEntity
8
1
62
256
6
ByLayer
370
18
48
1
60
0
100
AcDbSpline
70
4
71
1
72
4
73
2
40
0
40
0
40
1
40
1
41
1
10
69.1473923563562
20
-4.84443822935242
30
0
41
1
10
69.9253041974459
20
-4.58566712771199
30
0
0
SPLINE
5
188
100
AcDbEntity
8
1
62
256
6
ByLayer
370
18
48
1
60
0
100
AcDbSpline
70
4
71
1
72
4
73
2
40
0
40
0
40
1
40
1
41
1
10
71.9899862425067
20
4.49391838878623
30
0
41
1
10
71.7820306718046
20
4.47748093570758
30
0
0
SPLINE
5
189
100
AcDbEntity
8
1
62
256
6
ByLayer
370
18
48
1
60
0
100
AcDbSpline
70
4
71
2
72
6
73
3
40
0
40
0
40
0
40
1
40
1
40
1
41
1
10
59.0527351541444
20
-5.3601379100545
30
0
41
1
10
59.2809746918612
20
-4.967164663928
30
0
41
1
10
59.5093768430425
20
-4.57496132093004
30
0
0
SPLINE
5
18A
100
AcDbEntity
8
1
62
256
6
ByLayer
370
18
48
1
60
0
100
AcDbSpline
70
4
71
2
72
6
73
3
40
0
40
0
40
0
40
1
40
1
40
1
41
1
10
61.3998835979115
20
5.59541149426295
30
0
41
1
10
61.1052228559715
20
5.08753093464381
30
0
41
1
10
60.8103436562581
20
4.58070849029158
30
0
0
SPLINE
5
18B
100
AcDbEntity
8
1
62
256
6
ByLayer
370
18
48
1
60
0
100
AcDbSpline
70
4
71
2
72
6
73
3
40
0
40
0
40
0
40
1
40
1
40
1
41
1
10
68.9722683669965
20
-4.5779435197002
30
0
41
1
10
69.0435489114719
20
-4.70057096527768
30
0
41
1
10
69.114786060006
20
-4.82322991826516
30
0
0
SPLINE
5
18C
100
AcDbEntity
8
1
62
256
6
ByLayer
370
18
48
1
60
0
100
AcDbSpline
70
4
71
2
72
6
73
3
40
0
40
0
40
0
40
1
40
1
40
1
41
1
10
62.2127044661497
20
4.59815997966035
30
0
41
1
10
61.9156178485679
20
5.11032135574408
30
0
41
1
10
61.6186887589476
20
5.62283195079181
30
0
0
SPLINE
5
18D
100
AcDbEntity
8
1
62
256
6
ByLayer
370
18
48
1
60
0
100
AcDbSpline
70
4
71
2
72
6
73
3
40
0
40
0
40
0
40
1
40
1
40
1
41
1
10
58.0975077036339
20
-4.59390145097265
30
0
41
1
10
58.3037058749459
20
-4.94930034097777
30
0
41
1
10
58.5098158676272
20
-5.30495330480804
30
0
0
SPLINE
5
18E
100
AcDbEntity
8
1
62
256
6
ByLayer
370
18
48
1
60
0
100
AcDbSpline
70
4
71
3
72
11
73
7
40
0
40
0
40
0
40
0
40
0.224165824728148
40
0.468152095550785
40
0.730170256800476
40
1
40
1
40
1
40
1
41
1
10
68.5787483372591
20
-4.57758779192272
30
0
41
1
10
68.5887307725985
20
-4.55576374505412
30
0
41
1
10
68.6244549260882
20
-4.51842276224195
30
0
41
1
10
68.7383460188756
20
-4.46098180301888
30
0
41
1
10
68.8936019939993
20
-4.48812103816425
30
0
41
1
10
68.9521321293013
20
-4.54357840677463
30
0
41
1
10
68.9756629856967
20
-4.58346664688068
30
0
0
SPLINE
5
18F
100
AcDbEntity
8
1
62
256
6
ByLayer
370
18
48
1
60
0
100
AcDbSpline
70
4
71
3
72
11
73
7
40
0
40
0
40
0
40
0
40
0.253208017801435
40
0.508215189218311
40
0.759170047751045
40
1
40
1
40
1
40
1
41
1
10
62.6227716201555
20
4.57724449641566
30
0
41
1
10
62.6067876086368
20
4.54692220154661
30
0
41
1
10
62.5600232554324
20
4.50146751657977
30
0
41
1
10
62.4240212582803
20
4.45794296017147
30
0
41
1
10
62.2903045304053
20
4.50293562012129
30
0
41
1
10
62.2441005666884
20
4.54915334099854
30
0
41
1
10
62.2281232712526
20
4.578974485202
30
0
0
SPLINE
5
190
100
AcDbEntity
8
1
62
256
6
ByLayer
370
18
48
1
60
0
100
AcDbSpline
70
4
71
3
72
11
73
7
40
0
40
0
40
0
40
0
40
0.27608699240734
40
0.539369809042741
40
0.781233582272299
40
1
40
1
40
1
40
1
41
1
10
57.6928082480746
20
-4.57877922813864
30
0
41
1
10
57.7152010195894
20
-4.54091514756612
30
0
41
1
10
57.7720499694399
20
-4.48914299459582
30
0
41
1
10
57.9260287713004
20
-4.46205448943664
30
0
41
1
10
58.0394342326912
20
-4.51799390925163
30
0
41
1
10
58.0749683197037
20
-4.55439549459763
30
0
41
1
10
58.0851082936442
20
-4.57545463431944
30
0
0
SPLINE
5
191
100
AcDbEntity
8
1
62
256
6
ByLayer
370
18
48
1
60
0
100
AcDbSpline
70
4
71
2
72
6
73
3
40
0
40
0
40
0
40
1
40
1
40
1
41
1
10
57.4770454204368
20
-4.94947681313633
30
0
41
1
10
57.5862658115688
20
-4.76153103105182
30
0
41
1
10
57.6956992526496
20
-4.57357369678996
30
0
0
SPLINE
5
192
100
AcDbEntity
8
1
62
256
6
ByLayer
370
18
48
1
60
0
100
AcDbSpline
70
4
71
2
72
6
73
3
40
0
40
0
40
0
40
1
40
1
40
1
41
1
10
68.1808877939894
20
-5.26195063967631
30
0
41
1
10
68.3796047637204
20
-4.91966309709153
30
0
41
1
10
68.5787183686947
20
-4.5776392587554
30
0
0
SPLINE
5
193
100
AcDbEntity
8
1
62
256
6
ByLayer
370
18
48
1
60
0
100
AcDbSpline
70
4
71
2
72
6
73
3
40
0
40
0
40
0
40
1
40
1
40
1
41
1
10
63.2169354981981
20
5.60054569545335
30
0
41
1
10
62.9183212453881
20
5.08512092119429
30
0
41
1
10
62.6188956306625
20
4.570172381221
30
0
0
SPLINE
5
194
100
AcDbEntity
8
1
62
256
6
ByLayer
370
18
48
1
60
0
100
AcDbSpline
70
4
71
2
72
6
73
3
40
0
40
0
40
0
40
1
40
1
40
1
41
1
10
67.7364544422271
20
-5.53142557441106
30
0
41
1
10
67.9369735895066
20
-5.41495400136154
30
0
41
1
10
68.1507206707156
20
-5.3051015663238
30
0
0
SPLINE
5
195
100
AcDbEntity
8
1
62
256
6
ByLayer
370
18
48
1
60
0
100
AcDbSpline
70
4
71
2
72
6
73
3
40
0
40
0
40
0
40
1
40
1
40
1
41
1
10
67.1568392440694
20
-4.57542013240621
30
0
41
1
10
67.4276651345332
20
-5.04140580772199
30
0
41
1
10
67.6976239671202
20
-5.50720205609849
30
0
0
SPLINE
5
196
100
AcDbEntity
8
1
62
256
6
ByLayer
370
18
48
1
60
0
100
AcDbSpline
70
4
71
2
72
6
73
3
40
0
40
0
40
0
40
1
40
1
40
1
41
1
10
64.0428493025922
20
4.57885283664049
30
0
41
1
10
63.743733901765
20
5.09301115006082
30
0
41
1
10
63.4453592361338
20
5.60761878213702
30
0
0
SPLINE
5
197
100
AcDbEntity
8
1
62
256
6
ByLayer
370
18
48
1
60
0
100
AcDbSpline
70
4
71
3
72
13
73
9
40
0
40
0
40
0
40
0
40
0.241275971046876
40
0.369602309629311
40
0.500517453486998
40
0.631349470664764
40
0.759443698280444
40
1
40
1
40
1
40
1
41
1
10
66.7393485926582
20
-4.60403102735938
30
0
41
1
10
66.7577972562178
20
-4.56696938345695
30
0
41
1
10
66.7976280179915
20
-4.52164892419887
30
0
41
1
10
66.8793643707066
20
-4.47959937176137
30
0
41
1
10
66.9502082585358
20
-4.46679848045022
30
0
41
1
10
67.0210555658925
20
-4.47434577688378
30
0
41
1
10
67.1027894633301
20
-4.50950154982965
30
0
41
1
10
67.1426275903063
20
-4.54933092613186
30
0
41
1
10
67.1611065313303
20
-4.5826481837266
30
0
0
SPLINE
5
198
100
AcDbEntity
8
1
62
256
6
ByLayer
370
18
48
1
60
0
100
AcDbSpline
70
4
71
3
72
13
73
9
40
0
40
0
40
0
40
0
40
0.239641401212118
40
0.367599946587843
40
0.498451313867695
40
0.629501598169694
40
0.758051537536637
40
1
40
1
40
1
40
1
41
1
10
64.4624546178711
20
4.60478005894046
30
0
41
1
10
64.4438534007286
20
4.5675818076063
30
0
41
1
10
64.4039198354006
20
4.52205964835102
30
0
41
1
10
64.3222005967943
20
4.48001232683367
30
0
41
1
10
64.2513315482553
20
4.46717662557933
30
0
41
1
10
64.1804697710858
20
4.47469428243468
30
0
41
1
10
64.0986970433684
20
4.50982702282832
30
0
41
1
10
64.058877186804
20
4.54954467737144
30
0
41
1
10
64.0404626218221
20
4.58279014632967
30
0
0
LINE
5
82
100
AcDbEntity
8
4
62
256
6
ByLayer
370
18
48
0.05
60
0
100
AcDbLine
10
-5
20
0
30
0
11
77.59
21
0
31
0
39
0
210
0
220
0
230
1
0
LINE
5
84
100
AcDbEntity
8
81
62
256
6
ByLayer
370
18
48
1
60
0
100
AcDbLine
10
72.59
20
0
30
0
11
77.59
21
0
31
0
39
0
210
0
220
0
230
1
0
LINE
5
85
100
AcDbEntity
8
SK4
62
256
6
ByLayer
370
18
48
0.05
60
0
100
AcDbLine
10
-32.41
20
0
30
0
11
77.59
21
0
31
0
39
0
210
0
220
0
230
1
0
LINE
5
87
100
AcDbEntity
8
80
62
256
6
ByLayer
370
18
48
1
60
0
100
AcDbLine
10
0
20
0
30
0
11
-5
21
0
31
0
39
0
210
0
220
0
230
1
0
LINE
5
88
100
AcDbEntity
8
1
62
256
6
ByLayer
370
18
48
1
60
0
100
AcDbLine
10
0
20
4.102
30
0
11
0
21
-4.102
31
0
39
0
210
0
220
0
230
1
0
LINE
5
89
100
AcDbEntity
8
1
62
256
6
ByLayer
370
13
48
1
60
0
100
AcDbLine
10
60.805884
20
4.573068
30
0
11
60.810399
21
4.58091
31
0
39
0
210
0
220
0
230
1
0
LINE
5
8A
100
AcDbEntity
8
1
62
256
6
ByLayer
370
18
48
1
60
0
100
AcDbLine
10
61.609102
20
5.621831
30
0
11
61.612573
21
5.62143
31
0
39
0
210
0
220
0
230
1
0
LINE
5
8B
100
AcDbEntity
8
1
62
256
6
ByLayer
370
18
48
1
60
0
100
AcDbLine
10
57.692169
20
-4.579869
30
0
11
57.695674
21
-4.573621
31
0
39
0
210
0
220
0
230
1
0
LINE
5
8C
100
AcDbEntity
8
1
62
256
6
ByLayer
370
13
48
1
60
0
100
AcDbLine
10
57.215928
20
-4.552
30
0
11
57.215928
21
-4.222116
31
0
39
0
210
0
220
0
230
1
0
LINE
5
8D
100
AcDbEntity
8
1
62
256
6
ByLayer
370
18
48
1
60
0
100
AcDbLine
10
62.619053
20
4.570475
30
0
11
62.623456
21
4.578409
31
0
39
0
210
0
220
0
230
1
0
LINE
5
8E
100
AcDbEntity
8
1
62
256
6
ByLayer
370
18
48
1
60
0
100
AcDbLine
10
67.156863
20
-4.575464
30
0
11
67.161967
21
-4.583985
31
0
39
0
210
0
220
0
230
1
0
LINE
5
8F
100
AcDbEntity
8
1
62
256
6
ByLayer
370
18
48
1
60
0
100
AcDbLine
10
64.04029
20
4.583062
30
0
11
64.042633
21
4.579223
31
0
39
0
210
0
220
0
230
1
0
LINE
5
90
100
AcDbEntity
8
1
62
256
6
ByLayer
370
13
48
1
60
0
100
AcDbLine
10
56.176698
20
-3.951976
30
0
11
56.176698
21
-3.324378
31
0
39
0
210
0
220
0
230
1
0
LINE
5
91
100
AcDbEntity
8
1
62
256
6
ByLayer
370
13
48
1
60
0
100
AcDbLine
10
25.170948
20
-3.952
30
0
11
25.170948
21
3.952
31
0
39
0
210
0
220
0
230
1
0
LINE
5
92
100
AcDbEntity
8
1
62
256
6
ByLayer
370
18
48
1
60
0
100
AcDbLine
10
24.59
20
4.102
30
0
11
24.59
21
-4.102
31
0
39
0
210
0
220
0
230
1
0
LINE
5
93
100
AcDbEntity
8
1
62
256
6
ByLayer
370
13
48
1
60
0
100
AcDbLine
10
56.176698
20
1.963942
30
0
11
56.176698
21
3.512894
31
0
39
0
210
0
220
0
230
1
0
LINE
5
94
100
AcDbEntity
8
SK1
62
256
6
ByLayer
370
18
48
1
60
0
100
AcDbLine
10
-27.41
20
2.53792
30
0
11
-27.41
21
-2.53792
31
0
39
0
210
0
220
0
230
1
0
LINE
5
96
100
AcDbEntity
8
SK1
62
256
6
ByLayer
370
18
48
1
60
0
100
AcDbLine
10
-17
20
2.459998
30
0
11
-17
21
-2.459998
31
0
39
0
210
0
220
0
230
1
0
LINE
5
97
100
AcDbEntity
8
SK1
62
256
6
ByLayer
370
18
48
1
60
0
100
AcDbLine
10
-17
20
3.075
30
0
11
-16.13708
21
3.93792
31
0
39
0
210
0
220
0
230
1
0
LINE
5
98
100
AcDbEntity
8
SK1
62
256
6
ByLayer
370
18
48
1
60
0
100
AcDbLine
10
-26.01
20
3.075
30
0
11
-17
21
3.075
31
0
39
0
210
0
220
0
230
1
0
LINE
5
99
100
AcDbEntity
8
SK1
62
256
6
ByLayer
370
18
48
1
60
0
100
AcDbLine
10
-26.01
20
2.459998
30
0
11
-26.01
21
3.075
31
0
39
0
210
0
220
0
230
1
0
LINE
5
9A
100
AcDbEntity
8
SK1
62
256
6
ByLayer
370
18
48
1
60
0
100
AcDbLine
10
-17
20
2.459998
30
0
11
-26.01
21
2.459998
31
0
39
0
210
0
220
0
230
1
0
LINE
5
9B
100
AcDbEntity
8
SK1
62
256
6
ByLayer
370
18
48
1
60
0
100
AcDbLine
10
-26.01
20
-2.459998
30
0
11
-17
21
-2.459998
31
0
39
0
210
0
220
0
230
1
0
LINE
5
9C
100
AcDbEntity
8
SK1
62
256
6
ByLayer
370
18
48
1
60
0
100
AcDbLine
10
-26.01
20
-3.075
30
0
11
-26.01
21
-2.459998
31
0
39
0
210
0
220
0
230
1
0
LINE
5
9D
100
AcDbEntity
8
SK1
62
256
6
ByLayer
370
18
48
1
60
0
100
AcDbLine
10
-17
20
-3.075
30
0
11
-26.01
21
-3.075
31
0
39
0
210
0
220
0
230
1
0
LINE
5
9E
100
AcDbEntity
8
SK1
62
256
6
ByLayer
370
18
48
1
60
0
100
AcDbLine
10
-17
20
-3.075
30
0
11
-16.13708
21
-3.93792
31
0
39
0
210
0
220
0
230
1
0
LINE
5
9F
100
AcDbEntity
8
SK1
62
256
6
ByLayer
370
18
48
1
60
0
100
AcDbLine
10
-14.918
20
3.93792
30
0
11
-14.918
21
-3.93792
31
0
39
0
210
0
220
0
230
1
0
LINE
5
A0
100
AcDbEntity
8
SK1
62
256
6
ByLayer
370
18
48
1
60
0
100
AcDbLine
10
0
20
4.102
30
0
11
0
21
-4.102
31
0
39
0
210
0
220
0
230
1
0
LINE
5
A1
100
AcDbEntity
8
SK1
62
256
6
ByLayer
370
18
48
1
60
0
100
AcDbLine
10
-14.75392
20
-4.102
30
0
11
-14.75392
21
4.102
31
0
39
0
210
0
220
0
230
1
0
LINE
5
A2
100
AcDbEntity
8
1
62
256
6
ByLayer
370
18
48
1
60
0
100
AcDbLine
10
24.59
20
4.102
30
0
11
0
21
4.102
31
0
39
0
210
0
220
0
230
1
0
LINE
5
A3
100
AcDbEntity
8
1
62
256
6
ByLayer
370
18
48
1
60
0
100
AcDbLine
10
0
20
-4.102
30
0
11
24.59
21
-4.102
31
0
39
0
210
0
220
0
230
1
0
LINE
5
A4
100
AcDbEntity
8
1
62
256
6
ByLayer
370
18
48
1
60
0
100
AcDbLine
10
61.609131
20
5.621832
30
0
11
61.426996
21
5.621832
31
0
39
0
210
0
220
0
230
1
0
LINE
5
A5
100
AcDbEntity
8
1
62
256
6
ByLayer
370
18
48
1
60
0
100
AcDbLine
10
58.536545
20
-5.332939
30
0
11
59.014919
21
-5.40017
31
0
39
0
210
0
220
0
230
1
0
LINE
5
A6
100
AcDbEntity
8
1
62
256
6
ByLayer
370
18
48
1
60
0
100
AcDbLine
10
57.215928
20
-4.552
30
0
11
57.44994
21
-4.957319
31
0
39
0
210
0
220
0
230
1
0
LINE
5
A7
100
AcDbEntity
8
1
62
256
6
ByLayer
370
18
48
1
60
0
100
AcDbLine
10
63.424142
20
5.621832
30
0
11
63.241538
21
5.621832
31
0
39
0
210
0
220
0
230
1
0
LINE
5
A8
100
AcDbEntity
8
1
62
256
6
ByLayer
370
18
48
1
60
0
100
AcDbLine
10
25.170948
20
-3.952
30
0
11
37.744279
21
-3.952
31
0
39
0
210
0
220
0
230
1
0
LINE
5
A9
100
AcDbEntity
8
1
62
256
6
ByLayer
370
18
48
1
60
0
100
AcDbLine
10
45.533338
20
-3.952
30
0
11
48.416859
21
-3.952
31
0
39
0
210
0
220
0
230
1
0
LINE
5
AA
100
AcDbEntity
8
1
62
256
6
ByLayer
370
18
48
1
60
0
100
AcDbLine
10
53.750651
20
3.952
30
0
11
50.846038
21
3.952
31
0
39
0
210
0
220
0
230
1
0
LINE
5
AB
100
AcDbEntity
8
1
62
256
6
ByLayer
370
18
48
1
60
0
100
AcDbLine
10
43.081689
20
3.952
30
0
11
40.219309
21
3.952
31
0
39
0
210
0
220
0
230
1
0
LINE
5
AC
100
AcDbEntity
8
1
62
256
6
ByLayer
370
18
48
1
60
0
100
AcDbLine
10
32.872028
20
3.952
30
0
11
25.170948
21
3.952
31
0
39
0
210
0
220
0
230
1
0
LINE
5
AD
100
AcDbEntity
8
SK1
62
256
6
ByLayer
370
18
48
1
60
0
100
AcDbLine
10
-27.41
20
-2.53792
30
0
11
-26.87292
21
-3.075
31
0
39
0
210
0
220
0
230
1
0
LINE
5
AE
100
AcDbEntity
8
SK1
62
256
6
ByLayer
370
18
48
1
60
0
100
AcDbLine
10
-26.87292
20
3.075
30
0
11
-27.41
21
2.53792
31
0
39
0
210
0
220
0
230
1
0
LINE
5
AF
100
AcDbEntity
8
SK1
62
256
6
ByLayer
370
18
48
1
60
0
100
AcDbLine
10
-14.918
20
3.93792
30
0
11
-16.13708
21
3.93792
31
0
39
0
210
0
220
0
230
1
0
LINE
5
B0
100
AcDbEntity
8
SK1
62
256
6
ByLayer
370
18
48
1
60
0
100
AcDbLine
10
-16.13708
20
-3.93792
30
0
11
-14.918
21
-3.93792
31
0
39
0
210
0
220
0
230
1
0
LINE
5
B1
100
AcDbEntity
8
SK1
62
256
6
ByLayer
370
18
48
1
60
0
100
AcDbLine
10
-14.918
20
-3.93792
30
0
11
-14.75392
21
-4.102
31
0
39
0
210
0
220
0
230
1
0
LINE
5
B2
100
AcDbEntity
8
SK1
62
256
6
ByLayer
370
18
48
1
60
0
100
AcDbLine
10
-14.75392
20
4.102
30
0
11
-14.918
21
3.93792
31
0
39
0
210
0
220
0
230
1
0
LINE
5
B3
100
AcDbEntity
8
SK1
62
256
6
ByLayer
370
18
48
1
60
0
100
AcDbLine
10
0
20
4.102
30
0
11
-14.75392
21
4.102
31
0
39
0
210
0
220
0
230
1
0
LINE
5
B4
100
AcDbEntity
8
SK1
62
256
6
ByLayer
370
18
48
1
60
0
100
AcDbLine
10
-14.75392
20
-4.102
30
0
11
0
21
-4.102
31
0
39
0
210
0
220
0
230
1
0
LINE
5
B5
100
AcDbEntity
8
SK2
62
256
6
ByLayer
370
13
48
1
60
0
100
AcDbLine
10
22.34
20
-4.102
30
0
11
22.34
21
60.925194
31
0
39
0
210
0
220
0
230
1
0
LINE
5
B7
100
AcDbEntity
8
SK2
62
256
6
ByLayer
370
13
48
1
60
0
100
AcDbLine
10
22.1775
20
4.102
30
0
11
24.34
21
4.102
31
0
39
0
210
0
220
0
230
1
0
LINE
5
B8
100
AcDbEntity
8
SK2
62
256
6
ByLayer
370
13
48
1
60
0
100
AcDbLine
10
22.1775
20
-4.102
30
0
11
24.34
21
-4.102
31
0
39
0
210
0
220
0
230
1
0
LINE
5
B9
100
AcDbEntity
8
1
62
256
6
ByLayer
370
18
48
1
60
1
100
AcDbLine
10
22.34
20
4.102
30
0
11
22.800784
21
0.602002
31
0
39
0
210
0
220
0
230
1
0
LINE
5
BA
100
AcDbEntity
8
1
62
256
6
ByLayer
370
18
48
1
60
1
100
AcDbLine
10
22.800784
20
0.602002
30
0
11
21.879216
21
0.601998
31
0
39
0
210
0
220
0
230
1
0
LINE
5
BB
100
AcDbEntity
8
1
62
256
6
ByLayer
370
18
48
1
60
1
100
AcDbLine
10
21.879216
20
0.601998
30
0
11
22.34
21
4.102
31
0
39
0
210
0
220
0
230
1
0
LINE
5
BC
100
AcDbEntity
8
1
62
256
6
ByLayer
370
18
48
1
60
1
100
AcDbLine
10
22.34
20
-4.102
30
0
11
21.879216
21
-0.602002
31
0
39
0
210
0
220
0
230
1
0
LINE
5
BD
100
AcDbEntity
8
1
62
256
6
ByLayer
370
18
48
1
60
1
100
AcDbLine
10
21.879216
20
-0.602002
30
0
11
22.800784
21
-0.601998
31
0
39
0
210
0
220
0
230
1
0
LINE
5
BE
100
AcDbEntity
8
1
62
256
6
ByLayer
370
18
48
1
60
1
100
AcDbLine
10
22.800784
20
-0.601998
30
0
11
22.34
21
-4.102
31
0
39
0
210
0
220
0
230
1
0
LINE
5
19E
100
AcDbEntity
8
1
62
256
6
ByLayer
370
18
48
1
60
1
100
AcDbLine
10
22.34
20
4.102
30
0
11
22.800784
21
0.602002
31
0
39
0
210
0
220
0
230
1
0
LINE
5
19F
100
AcDbEntity
8
1
62
256
6
ByLayer
370
18
48
1
60
1
100
AcDbLine
10
22.800784
20
0.602002
30
0
11
21.879216
21
0.601998
31
0
39
0
210
0
220
0
230
1
0
LINE
5
1A0
100
AcDbEntity
8
1
62
256
6
ByLayer
370
18
48
1
60
1
100
AcDbLine
10
21.879216
20
0.601998
30
0
11
22.34
21
4.102
31
0
39
0
210
0
220
0
230
1
0
LINE
5
1A2
100
AcDbEntity
8
1
62
256
6
ByLayer
370
18
48
1
60
1
100
AcDbLine
10
22.34
20
-4.102
30
0
11
21.879216
21
-0.602002
31
0
39
0
210
0
220
0
230
1
0
LINE
5
1A3
100
AcDbEntity
8
1
62
256
6
ByLayer
370
18
48
1
60
1
100
AcDbLine
10
21.879216
20
-0.602002
30
0
11
22.800784
21
-0.601998
31
0
39
0
210
0
220
0
230
1
0
LINE
5
1A4
100
AcDbEntity
8
1
62
256
6
ByLayer
370
18
48
1
60
1
100
AcDbLine
10
22.800784
20
-0.601998
30
0
11
22.34
21
-4.102
31
0
39
0
210
0
220
0
230
1
0
MTEXT
5
199
100
AcDbEntity
8
SK2
62
256
6
ByLayer
370
18
48
1
60
0
100
AcDbMText
10
20.775366
20
12.832844
30
0
210
0
220
0
230
1
1
%%c
40
3.5
41
0
44
1.084337
50
90
71
7
72
5
7
iso_b_vert
0
MTEXT
5
19C
100
AcDbEntity
8
SK2
62
256
6
ByLayer
370
18
48
1
60
0
100
AcDbMText
10
20.775366
20
34.503898
30
0
210
0
220
0
230
1
1
\W0.8220;ASME-B94.9
40
3.5
41
0
44
1.084337
50
90
71
7
72
5
7
iso_b_vert
0
MTEXT
5
19D
100
AcDbEntity
8
SK2
62
256
6
ByLayer
370
18
48
1
60
0
100
AcDbMText
10
20.775366
20
19.8055
30
0
210
0
220
0
230
1
1
\W0.7607;8.204
40
3.5
41
0
44
1.084337
50
90
71
7
72
5
7
iso_b_vert
0
MTEXT
5
1A6
100
AcDbEntity
8
SK6
62
256
6
ByLayer
370
18
48
1
60
0
100
AcDbMText
10
31.347657
20
-68.614886
30
0
210
0
220
0
230
1
1
\W0.7522;T300-PM101AE-7/16 P1PM
40
3
41
0
44
1.084337
50
0
71
7
72
5
7
iso_b_vert
0
HATCH
5
1A1
100
AcDbEntity
8
SK2
62
256
6
ByLayer
370
13
48
1
60
0
100
AcDbHatch
10
0
20
0
30
0
210
0
220
0
230
1
2
ANSI31
70
0
71
0
91
1
92
5
93
3
72
1
10
22.34
20
4.102
11
22.8007837415528
21
0.602001692553188
72
1
10
22.8007837415528
20
0.602001692553188
11
21.8792162584473
21
0.60199830744682
72
1
10
21.8792162584473
20
0.60199830744682
11
22.34
21
4.102
97
0
75
0
76
1
52
0
41
0.0062
77
0
78
1
53
45
43
0
44
0
45
-0.0139193969876572
46
0.0139193969876572
79
0
47
0
98
1
10
0
20
0
0
HATCH
5
1A5
100
AcDbEntity
8
SK2
62
256
6
ByLayer
370
13
48
1
60
0
100
AcDbHatch
10
0
20
0
30
0
210
0
220
0
230
1
2
ANSI31
70
0
71
0
91
1
92
5
93
3
72
1
10
22.34
20
-4.10199999999998
11
21.8792162584473
21
-0.602001692553159
72
1
10
21.8792162584473
20
-0.602001692553159
11
22.8007837415528
21
-0.601998307446792
72
1
10
22.8007837415528
20
-0.601998307446792
11
22.34
21
-4.10199999999998
97
0
75
0
76
1
52
0
41
0.0062
77
0
78
1
53
45
43
0
44
0
45
-0.0139193969876572
46
0.0139193969876572
79
0
47
0
98
1
10
0
20
0
0
DIMENSION
5
1A9
100
AcDbEntity
8
SK2
62
256
6
ByLayer
370
18
48
1
60
0
100
AcDbDimension
2
_U0
10
72.59
20
-51.0296
30
0
11
22.59
21
-51.0296
31
0
70
32
71
1
72
1
41
1
210
0
220
0
230
1
3
Standard
100
AcDbAlignedDimension
13
-27.41
23
0
33
0
14
72.59
24
0
34
0
50
0
100
AcDbRotatedDimension
1001
ACAD
1000
DSTYLE
1002
{
1070
   371
1070
    13
1070
   372
1070
    13
1070
     3
1000

1070
   170
1070
     0
1070
   144
1040
1.0
1070
   277
1070
     2
1070
   284
1070
     8
1070
   278
1070
    46
1070
   146
1040
1.0
1070
   345
1005
16
1070
   347
1005
16
1070
   346
1005
16
1070
   344
1005
0
1070
   343
1005
0
1070
   172
1070
     1
1070
    76
1070
     0
1070
    75
1070
     0
1070
   282
1070
     0
1070
   281
1070
     0
1070
    71
1070
     0
1070
    74
1070
     0
1070
   279
1070
     0
1070
   173
1070
     1
1070
   340
1005
19A
1070
   271
1070
     2
1070
   272
1070
     2
1070
    77
1070
     1
1070
    73
1070
     1
1070
   171
1070
     3
1070
   274
1070
     4
1070
   177
1070
     2
1070
   176
1070
     2
1070
   178
1070
     2
1070
    78
1070
     8
1070
    48
1040
-0.1
1070
    41
1040
3.5
1070
   147
1040
1.75
1070
    42
1040
1.5875
1070
    44
1040
2.0
1070
   140
1040
3.5
1002
}
1001
ACAD_DSTYLE_DIM_LINETYPE
1070
   380
1005
16
1001
ACAD_DSTYLE_DIM_EXT1_LINETYPE
1070
   381
1005
16
1001
ACAD_DSTYLE_DIM_EXT2_LINETYPE
1070
   382
1005
16
0
DIMENSION
5
1C2
100
AcDbEntity
8
SK2
62
256
6
ByLayer
370
18
48
1
60
0
100
AcDbDimension
2
_U1
10
24.59
20
-43.0296
30
0
11
48.59
21
-43.0296
31
0
70
32
71
1
72
1
41
1
210
0
220
0
230
1
3
Standard
100
AcDbAlignedDimension
13
72.59
23
0
33
0
14
24.59
24
0
34
0
50
0
100
AcDbRotatedDimension
1001
ACAD
1000
DSTYLE
1002
{
1070
   371
1070
    13
1070
   372
1070
    13
1070
     3
1000

1070
   170
1070
     0
1070
   144
1040
1.0
1070
   277
1070
     2
1070
   284
1070
     8
1070
   278
1070
    46
1070
   146
1040
1.0
1070
   345
1005
16
1070
   347
1005
16
1070
   346
1005
16
1070
   344
1005
0
1070
   343
1005
0
1070
   172
1070
     1
1070
    76
1070
     0
1070
    75
1070
     0
1070
   282
1070
     0
1070
   281
1070
     0
1070
    71
1070
     0
1070
    74
1070
     0
1070
   279
1070
     0
1070
   173
1070
     1
1070
   340
1005
19A
1070
   271
1070
     2
1070
   272
1070
     2
1070
    77
1070
     1
1070
    73
1070
     1
1070
   171
1070
     3
1070
   274
1070
     4
1070
   177
1070
     2
1070
   176
1070
     2
1070
   178
1070
     2
1070
    78
1070
     8
1070
    48
1040
-0.1
1070
    41
1040
3.5
1070
   147
1040
1.75
1070
    42
1040
1.5875
1070
    44
1040
2.0
1070
   140
1040
3.5
1002
}
1001
ACAD_DSTYLE_DIM_LINETYPE
1070
   380
1005
16
1001
ACAD_DSTYLE_DIM_EXT1_LINETYPE
1070
   381
1005
16
1001
ACAD_DSTYLE_DIM_EXT2_LINETYPE
1070
   382
1005
16
0
DIMENSION
5
1DA
100
AcDbEntity
8
2
62
256
6
ByLayer
370
18
48
1
60
0
100
AcDbDimension
2
_U2
10
31.79
20
-35.0296
30
0
11
52.19
21
-35.0296
31
0
70
32
71
1
72
1
41
1
210
0
220
0
230
1
3
Standard
100
AcDbAlignedDimension
13
72.59
23
0
33
0
14
31.79
24
0
34
0
50
0
100
AcDbRotatedDimension
1001
ACAD
1000
DSTYLE
1002
{
1070
   371
1070
    13
1070
   372
1070
    13
1070
     3
1000

1070
   170
1070
     0
1070
   144
1040
1.0
1070
   277
1070
     2
1070
   284
1070
     8
1070
   278
1070
    46
1070
   146
1040
1.0
1070
   345
1005
16
1070
   347
1005
16
1070
   346
1005
16
1070
   344
1005
0
1070
   343
1005
0
1070
   172
1070
     1
1070
    76
1070
     0
1070
    75
1070
     0
1070
   282
1070
     0
1070
   281
1070
     0
1070
    71
1070
     0
1070
    74
1070
     0
1070
   279
1070
     0
1070
   173
1070
     1
1070
   340
1005
19A
1070
   271
1070
     2
1070
   272
1070
     2
1070
    77
1070
     1
1070
    73
1070
     1
1070
   171
1070
     3
1070
   274
1070
     4
1070
   177
1070
     2
1070
   176
1070
     2
1070
   178
1070
     2
1070
    78
1070
     8
1070
    48
1040
-0.1
1070
    41
1040
3.5
1070
   147
1040
1.75
1070
    42
1040
1.5875
1070
    44
1040
2.0
1070
   140
1040
3.5
1002
}
1001
ACAD_DSTYLE_DIM_LINETYPE
1070
   380
1005
16
1001
ACAD_DSTYLE_DIM_EXT1_LINETYPE
1070
   381
1005
16
1001
ACAD_DSTYLE_DIM_EXT2_LINETYPE
1070
   382
1005
16
0
DIMENSION
5
1F3
100
AcDbEntity
8
SK2
62
256
6
ByLayer
370
18
48
1
60
0
100
AcDbDimension
2
_U3
10
57.59
20
-27.0296
30
0
11
65.09
21
-27.0296
31
0
70
32
71
1
72
1
41
1
210
0
220
0
230
1
3
Standard
100
AcDbAlignedDimension
13
72.59
23
0
33
0
14
57.59
24
0
34
0
50
0
100
AcDbRotatedDimension
1001
ACAD
1000
DSTYLE
1002
{
1070
   371
1070
    13
1070
   372
1070
    13
1070
     3
1000

1070
   170
1070
     0
1070
   144
1040
1.0
1070
   277
1070
     2
1070
   284
1070
     8
1070
   278
1070
    46
1070
   146
1040
1.0
1070
   345
1005
16
1070
   347
1005
16
1070
   346
1005
16
1070
   344
1005
0
1070
   343
1005
0
1070
   172
1070
     1
1070
    76
1070
     0
1070
    75
1070
     0
1070
   282
1070
     0
1070
   281
1070
     0
1070
    71
1070
     0
1070
    74
1070
     0
1070
   279
1070
     0
1070
   173
1070
     1
1070
   340
1005
19A
1070
   271
1070
     2
1070
   272
1070
     2
1070
    77
1070
     1
1070
    73
1070
     1
1070
   171
1070
     3
1070
   274
1070
     4
1070
   177
1070
     2
1070
   176
1070
     2
1070
   178
1070
     2
1070
    78
1070
     8
1070
    48
1040
-0.1
1070
    41
1040
3.5
1070
   147
1040
1.75
1070
    42
1040
1.5875
1070
    44
1040
2.0
1070
   140
1040
3.5
1002
}
1001
ACAD_DSTYLE_DIM_LINETYPE
1070
   380
1005
16
1001
ACAD_DSTYLE_DIM_EXT1_LINETYPE
1070
   381
1005
16
1001
ACAD_DSTYLE_DIM_EXT2_LINETYPE
1070
   382
1005
16
0
DIMENSION
5
20C
100
AcDbEntity
8
SK2
62
256
6
ByLayer
370
18
48
1
60
0
100
AcDbDimension
2
_U4
10
67.6
20
11.493663
30
0
11
70.095
21
11.493663
31
0
70
32
71
1
72
1
41
1
210
0
220
0
230
1
3
Standard
100
AcDbAlignedDimension
13
72.59
23
0
33
0
14
67.6
24
0
34
0
50
0
100
AcDbRotatedDimension
1001
ACAD
1000
DSTYLE
1002
{
1070
   371
1070
    13
1070
   372
1070
    13
1070
     3
1000

1070
   170
1070
     0
1070
   144
1040
1.0
1070
   277
1070
     2
1070
   284
1070
     8
1070
   278
1070
    46
1070
   146
1040
1.0
1070
   345
1005
16
1070
   347
1005
16
1070
   346
1005
16
1070
   344
1005
0
1070
   343
1005
0
1070
   172
1070
     1
1070
    76
1070
     0
1070
    75
1070
     0
1070
   282
1070
     0
1070
   281
1070
     0
1070
    71
1070
     0
1070
    74
1070
     0
1070
   279
1070
     0
1070
   173
1070
     1
1070
   340
1005
19A
1070
   271
1070
     2
1070
   272
1070
     2
1070
    77
1070
     1
1070
    73
1070
     1
1070
   171
1070
     3
1070
   274
1070
     4
1070
   177
1070
     2
1070
   176
1070
     2
1070
   178
1070
     2
1070
    78
1070
     8
1070
    48
1040
-0.1
1070
    41
1040
3.5
1070
   147
1040
1.75
1070
    42
1040
1.5875
1070
    44
1040
2.0
1070
   140
1040
3.5
1002
}
1001
ACAD_DSTYLE_DIM_LINETYPE
1070
   380
1005
16
1001
ACAD_DSTYLE_DIM_EXT1_LINETYPE
1070
   381
1005
16
1001
ACAD_DSTYLE_DIM_EXT2_LINETYPE
1070
   382
1005
16
0
DIMENSION
5
226
100
AcDbEntity
8
2
62
256
6
ByLayer
370
18
48
1
60
0
100
AcDbDimension
2
_U5
10
89.34
20
5.621832
30
0
11
89.34
21
0
31
0
70
32
71
1
72
1
41
1
210
0
220
0
230
1
3
Standard
100
AcDbAlignedDimension
13
72.59
23
-5.621832
33
0
14
72.59
24
5.621832
34
0
50
90
100
AcDbRotatedDimension
1001
ACAD
1000
DSTYLE
1002
{
1070
   371
1070
    13
1070
   372
1070
    13
1070
     3
1000

1070
   170
1070
     0
1070
   144
1040
1.0
1070
   277
1070
     2
1070
   284
1070
     8
1070
   278
1070
    46
1070
   146
1040
1.0
1070
   345
1005
16
1070
   347
1005
16
1070
   346
1005
16
1070
   344
1005
0
1070
   343
1005
0
1070
   172
1070
     1
1070
    76
1070
     0
1070
    75
1070
     0
1070
   282
1070
     0
1070
   281
1070
     0
1070
    71
1070
     0
1070
    74
1070
     0
1070
   279
1070
     0
1070
   173
1070
     1
1070
   340
1005
19A
1070
   271
1070
     2
1070
   272
1070
     2
1070
    77
1070
     1
1070
    73
1070
     0
1070
   171
1070
     3
1070
   274
1070
     4
1070
   177
1070
     2
1070
   176
1070
     2
1070
   178
1070
     2
1070
    78
1070
     8
1070
    48
1040
-0.1
1070
    41
1040
3.5
1070
   147
1040
1.75
1070
    42
1040
1.5875
1070
    44
1040
2.0
1070
   140
1040
3.5
1002
}
1001
ACAD_DSTYLE_DIM_LINETYPE
1070
   380
1005
16
1001
ACAD_DSTYLE_DIM_EXT1_LINETYPE
1070
   381
1005
16
1001
ACAD_DSTYLE_DIM_EXT2_LINETYPE
1070
   382
1005
16
0
ENDSEC
0
SECTION
2
OBJECTS
0
DICTIONARY
5
2b0
330
0
100
AcDbDictionary
280
0
281
1
3
ACAD_GROUP
350
2b1
3
ACAD_MLINESTYLE
350
2b2
0
DICTIONARY
5
2b1
330
0
100
AcDbDictionary
280
0
281
1
0
DICTIONARY
5
2b2
330
0
100
AcDbDictionary
280
0
281
1
3
Standard
350
18
0
MLINESTYLE
5
18
330
2b2
100
AcDbMlineStyle
2
Standard
70
0
3

62
256
51
90
52
90
71
2
49
-0.5
62
256
6
ByLayer
49
0.5
62
256
6
ByLayer
0
RASTERVARIABLES
5
29e
330

100
AcDbRasterVariables
90
0
70
1
71
1
72
1
0
ENDSEC
0
EOF
