0
SECTION
2
HEADER
9
$ACADVER
1
AC1015
9
$DWGCODEPAGE
3
ANSI_1252
9
$HANDSEED
5
314
9
$ANGBASE
50
0
9
$ANGDIR
70
0
9
$ATTMODE
70
1
9
$AUNITS
70
0
9
$AUPREC
70
0
9
$CECOLOR
62
256
9
$CELTSCALE
40
1
9
$CELTYPE
6
ByLayer
9
$CELWEIGHT
370
18
9
$CLAYER
8
0
9
$CMLJUST
70
0
9
$CMLSCALE
40
1
9
$CMLSTYLE
2
Standard
9
$DIMSTYLE
2
Standard
9
$TEXTSIZE
40
0.2
9
$TEXTSTYLE
7
Standard
9
$LUNITS
70
2
9
$LUPREC
70
4
9
$EXTNAMES
290
1
9
$INSUNITS
70
4
9
$LTSCALE
40
1
9
$LWDISPLAY
290
1
9
$PDMODE
70
0
9
$PDSIZE
40
0
9
$PLINEGEN
70
0
0
ENDSEC
0
SECTION
2
CLASSES
0
CLASS
1
RASTERVARIABLES
2
AcDbRasterVariables
3
ISM
90
0
280
0
281
0
0
ENDSEC
0
SECTION
2
TABLES
0
TABLE
2
VPORT
5
30a
100
AcDbSymbolTable
0
VPORT
5
1
100
AcDbSymbolTableRecord
100
AcDbViewportTableRecord
2
*Active
70
0
10
0
20
0
11
1
21
1
12
-1
22
1
13
0
23
0
14
0.5
24
0.5
15
10
25
10
16
0
26
0
36
1
17
0
27
0
37
0
0
ENDTAB
0
TABLE
2
LTYPE
5
30b
100
AcDbSymbolTable
0
LTYPE
5
14
100
AcDbSymbolTableRecord
100
AcDbLinetypeTableRecord
70
0
2
ByBlock
3

72
65
73
0
40
0
0
LTYPE
5
15
100
AcDbSymbolTableRecord
100
AcDbLinetypeTableRecord
70
0
2
ByLayer
3

72
65
73
0
40
0
0
LTYPE
5
16
100
AcDbSymbolTableRecord
100
AcDbLinetypeTableRecord
70
0
2
Continuous
3
Solid line
72
65
73
0
40
0
0
LTYPE
5
6E
100
AcDbSymbolTableRecord
100
AcDbLinetypeTableRecord
70
0
2
CENTER
3
____ _ ____ _ ____ _ ____
72
65
73
4
40
47.5
49
22
74
0
49
-8.5
74
0
49
8.5
74
0
49
-8.5
74
0
0
LTYPE
5
6F
100
AcDbSymbolTableRecord
100
AcDbLinetypeTableRecord
70
0
2
DASHED
3
__ __ __ __ __ __ __ __ __
72
65
73
2
40
25.72
49
12.86
74
0
49
-12.86
74
0
0
ENDTAB
0
TABLE
2
LAYER
5
30c
100
AcDbSymbolTable
0
LAYER
5
10
100
AcDbSymbolTableRecord
100
AcDbLayerTableRecord
2
0
70
0
62
7
6
Continuous
290
1
370
-3
390
0
0
LAYER
5
71
100
AcDbSymbolTableRecord
100
AcDbLayerTableRecord
2
80
70
0
62
-6
6
Continuous
290
1
370
-3
390
0
0
LAYER
5
73
100
AcDbSymbolTableRecord
100
AcDbLayerTableRecord
2
81
70
0
62
-3
6
Continuous
290
1
370
-3
390
0
0
LAYER
5
75
100
AcDbSymbolTableRecord
100
AcDbLayerTableRecord
2
1
70
0
62
4
6
Continuous
290
1
370
-3
390
0
0
LAYER
5
84
100
AcDbSymbolTableRecord
100
AcDbLayerTableRecord
2
4
70
0
62
-2
6
CENTER
290
1
370
-3
390
0
0
LAYER
5
203
100
AcDbSymbolTableRecord
100
AcDbLayerTableRecord
2
Defpoints
70
0
62
7
6
Continuous
290
0
370
-3
390
0
0
LAYER
5
240
100
AcDbSymbolTableRecord
100
AcDbLayerTableRecord
2
2
70
0
62
7
6
Continuous
290
1
370
-3
390
0
0
LAYER
5
2f6
100
AcDbSymbolTableRecord
100
AcDbLayerTableRecord
2
SK4
70
0
62
2
6
CENTER
290
1
370
-3
390
0
0
LAYER
5
2f7
100
AcDbSymbolTableRecord
100
AcDbLayerTableRecord
2
SK1
70
0
62
4
6
Continuous
290
1
370
-3
390
0
0
LAYER
5
2f8
100
AcDbSymbolTableRecord
100
AcDbLayerTableRecord
2
SK2
70
0
62
7
6
Continuous
290
1
370
-3
390
0
0
LAYER
5
2f9
100
AcDbSymbolTableRecord
100
AcDbLayerTableRecord
2
SK6
70
0
62
5
6
Continuous
290
1
370
-3
390
0
0
ENDTAB
0
TABLE
2
STYLE
5
30d
100
AcDbSymbolTable
0
STYLE
5
11
100
AcDbSymbolTableRecord
100
AcDbTextStyleTableRecord
2
Standard
3
txt
70
0
71
0
40
0
41
1
42
0
50
0
0
STYLE
5
1F1
100
AcDbSymbolTableRecord
100
AcDbTextStyleTableRecord
2
iso_b_vert
3
simplex.shx
70
0
71
0
40
0
41
1
42
0
50
0
0
STYLE
5
1F2
100
AcDbSymbolTableRecord
100
AcDbTextStyleTableRecord
2
DWGDirectTextStyle
3
simplex
70
0
71
0
40
0
41
1
42
0
50
0
0
ENDTAB
0
TABLE
2
DIMSTYLE
5
30e
100
AcDbSymbolTable
100
AcDbDimStyleTable
0
DIMSTYLE
105
27
100
AcDbSymbolTableRecord
100
AcDbDimStyleTableRecord
2
Standard
70
0
3
<>
41
0.18
42
0.0625
44
0.18
140
0.18
147
0.09
73
0
74
0
77
1
271
2
275
0
278
52
280
0
340
11
0
ENDTAB
0
TABLE
2
VIEW
5
30f
100
AcDbSymbolTable
0
ENDTAB
0
TABLE
2
UCS
5
310
100
AcDbSymbolTable
0
ENDTAB
0
TABLE
2
APPID
5
311
100
AcDbSymbolTable
0
APPID
5
12
100
AcDbSymbolTableRecord
100
AcDbRegAppTableRecord
2
ACAD
70
0
0
APPID
5
1FF
100
AcDbSymbolTableRecord
100
AcDbRegAppTableRecord
2
ACAD_DSTYLE_DIMBREAK
70
0
0
APPID
5
2B5
100
AcDbSymbolTableRecord
100
AcDbRegAppTableRecord
2
ACAD_DSTYLE_DIM_LINETYPE
70
0
0
APPID
5
2B6
100
AcDbSymbolTableRecord
100
AcDbRegAppTableRecord
2
ACAD_DSTYLE_DIM_EXT1_LINETYPE
70
0
0
APPID
5
2B7
100
AcDbSymbolTableRecord
100
AcDbRegAppTableRecord
2
ACAD_DSTYLE_DIM_EXT2_LINETYPE
70
0
0
APPID
5
2F2
100
AcDbSymbolTableRecord
100
AcDbRegAppTableRecord
2
ACAD_MLEADERVER
70
0
0
ENDTAB
0
TABLE
2
BLOCK_RECORD
5
312
100
AcDbSymbolTable
0
BLOCK_RECORD
5
1F
100
AcDbSymbolTableRecord
100
AcDbBlockTableRecord
2
*Model_Space
340
0
70
0
0
BLOCK_RECORD
5
1B
100
AcDbSymbolTableRecord
100
AcDbBlockTableRecord
2
*Paper_Space
340
0
70
0
0
BLOCK_RECORD
5
23
100
AcDbSymbolTableRecord
100
AcDbBlockTableRecord
2
*Paper_Space0
340
0
70
0
0
BLOCK_RECORD
5
204
100
AcDbSymbolTableRecord
100
AcDbBlockTableRecord
2
*D1
340
0
70
0
0
BLOCK_RECORD
5
210
100
AcDbSymbolTableRecord
100
AcDbBlockTableRecord
2
_U0
340
0
70
0
0
BLOCK_RECORD
5
21C
100
AcDbSymbolTableRecord
100
AcDbBlockTableRecord
2
*D3
340
0
70
0
0
BLOCK_RECORD
5
228
100
AcDbSymbolTableRecord
100
AcDbBlockTableRecord
2
_U1
340
0
70
0
0
BLOCK_RECORD
5
234
100
AcDbSymbolTableRecord
100
AcDbBlockTableRecord
2
*D5
340
0
70
0
0
BLOCK_RECORD
5
241
100
AcDbSymbolTableRecord
100
AcDbBlockTableRecord
2
_U2
340
0
70
0
0
BLOCK_RECORD
5
24D
100
AcDbSymbolTableRecord
100
AcDbBlockTableRecord
2
*D7
340
0
70
0
0
BLOCK_RECORD
5
25A
100
AcDbSymbolTableRecord
100
AcDbBlockTableRecord
2
_U3
340
0
70
0
0
BLOCK_RECORD
5
266
100
AcDbSymbolTableRecord
100
AcDbBlockTableRecord
2
*D9
340
0
70
0
0
BLOCK_RECORD
5
273
100
AcDbSymbolTableRecord
100
AcDbBlockTableRecord
2
_U4
340
0
70
0
0
BLOCK_RECORD
5
280
100
AcDbSymbolTableRecord
100
AcDbBlockTableRecord
2
*D11
340
0
70
0
0
BLOCK_RECORD
5
28D
100
AcDbSymbolTableRecord
100
AcDbBlockTableRecord
2
_U5
340
0
70
0
0
ENDTAB
0
ENDSEC
0
SECTION
2
BLOCKS
0
BLOCK
5
20
100
AcDbEntity
8
0
100
AcDbBlockBegin
2
*Model_Space
70
0
10
0
20
0
30
0
3
*Model_Space
0
ENDBLK
5
21
100
AcDbEntity
8
0
100
AcDbBlockEnd
0
BLOCK
5
1C
100
AcDbEntity
8
0
100
AcDbBlockBegin
2
*Paper_Space
70
0
10
0
20
0
30
0
3
*Paper_Space
0
ENDBLK
5
1D
100
AcDbEntity
8
0
100
AcDbBlockEnd
0
BLOCK
5
24
100
AcDbEntity
8
0
100
AcDbBlockBegin
2
*Paper_Space0
70
0
10
0
20
0
30
0
3
*Paper_Space0
0
ENDBLK
5
25
100
AcDbEntity
8
0
100
AcDbBlockEnd
0
BLOCK
5
205
100
AcDbEntity
8
0
100
AcDbBlockBegin
2
*D1
70
1
10
0
20
0
30
0
3
*D1
0
LINE
5
207
100
AcDbEntity
8
0
62
256
6
ByLayer
370
-2
48
1
60
0
100
AcDbLine
10
-27.41
20
-1.5875
30
0
11
-27.41
21
-53.507865
31
0
39
0
210
0
220
0
230
1
0
LINE
5
208
100
AcDbEntity
8
0
62
256
6
ByLayer
370
-2
48
1
60
0
100
AcDbLine
10
72.59
20
-1.5875
30
0
11
72.59
21
-53.507865
31
0
39
0
210
0
220
0
230
1
0
LINE
5
209
100
AcDbEntity
8
0
62
256
6
ByLayer
370
-2
48
1
60
0
100
AcDbLine
10
-23.91
20
-51.507865
30
0
11
69.09
21
-51.507865
31
0
39
0
210
0
220
0
230
1
0
SOLID
5
20A
100
AcDbEntity
8
0
62
256
6
ByLayer
370
-1
48
1
60
0
100
AcDbTrace
10
-23.91
20
-50.924532
30
0
11
-23.91
21
-52.091199
31
0
12
-27.41
22
-51.507865
32
0
13
-27.41
23
-51.507865
33
0
39
0
210
0
220
0
230
1
0
SOLID
5
20B
100
AcDbEntity
8
0
62
256
6
ByLayer
370
-1
48
1
60
0
100
AcDbTrace
10
69.09
20
-52.091199
30
0
11
69.09
21
-50.924532
31
0
12
72.59
22
-51.507865
32
0
13
72.59
23
-51.507865
33
0
39
0
210
0
220
0
230
1
0
MTEXT
5
20C
100
AcDbEntity
8
0
62
256
6
ByLayer
370
18
48
1
60
0
100
AcDbMText
10
22.59
20
-44.507865
30
0
210
0
220
0
230
1
1
\A1;100
40
3.5
41
0
44
1
50
0
71
5
72
5
7
iso_b_vert
0
POINT
5
20D
100
AcDbEntity
8
Defpoints
62
0
6
ByLayer
370
-1
48
1
60
0
100
AcDbPoint
10
-27.41
20
0
30
0
39
0
210
0
220
0
230
1
50
360
0
POINT
5
20E
100
AcDbEntity
8
Defpoints
62
0
6
ByLayer
370
-1
48
1
60
0
100
AcDbPoint
10
72.59
20
0
30
0
39
0
210
0
220
0
230
1
50
360
0
POINT
5
20F
100
AcDbEntity
8
Defpoints
62
0
6
ByLayer
370
-1
48
1
60
0
100
AcDbPoint
10
72.59
20
-51.507865
30
0
39
0
210
0
220
0
230
1
50
360
0
ENDBLK
5
206
100
AcDbEntity
8
0
100
AcDbBlockEnd
0
BLOCK
5
217
100
AcDbEntity
8
0
100
AcDbBlockBegin
2
_U0
70
0
10
0
20
0
30
0
3
_U0
0
MTEXT
5
211
100
AcDbEntity
8
SK2
62
256
6
ByLayer
370
18
48
1
60
0
100
AcDbMText
10
17.798001
20
-50.475232
30
0
210
0
220
0
230
1
1
\W0.6864;100.0
40
3.5
41
0
44
1.084337
50
0
71
7
72
5
7
iso_b_vert
0
LINE
5
212
100
AcDbEntity
8
SK2
62
256
6
ByLayer
370
13
48
1
60
0
100
AcDbLine
10
-27.41
20
-1.5875
30
0
11
-27.41
21
-53.507865
31
0
39
0
210
0
220
0
230
1
0
LINE
5
213
100
AcDbEntity
8
SK2
62
256
6
ByLayer
370
13
48
1
60
0
100
AcDbLine
10
72.59
20
-1.5875
30
0
11
72.59
21
-53.507865
31
0
39
0
210
0
220
0
230
1
0
LINE
5
214
100
AcDbEntity
8
SK2
62
256
6
ByLayer
370
13
48
1
60
0
100
AcDbLine
10
-27.41
20
-51.507865
30
0
11
72.59
21
-51.507865
31
0
39
0
210
0
220
0
230
1
0
SOLID
5
215
100
AcDbEntity
8
SK2
62
256
6
ByLayer
370
18
48
1
60
0
100
AcDbTrace
10
-27.41
20
-51.507865
30
0
11
-23.910002
21
-51.047082
31
0
12
-23.909998
22
-51.968649
32
0
13
-23.909998
23
-51.968649
33
0
39
0
210
0
220
0
230
1
0
SOLID
5
216
100
AcDbEntity
8
SK2
62
256
6
ByLayer
370
18
48
1
60
0
100
AcDbTrace
10
72.59
20
-51.507865
30
0
11
69.090002
21
-51.968649
31
0
12
69.089998
22
-51.047082
32
0
13
69.089998
23
-51.047082
33
0
39
0
210
0
220
0
230
1
0
ENDBLK
5
218
100
AcDbEntity
8
0
100
AcDbBlockEnd
0
BLOCK
5
21D
100
AcDbEntity
8
0
100
AcDbBlockBegin
2
*D3
70
1
10
0
20
0
30
0
3
*D3
0
LINE
5
21F
100
AcDbEntity
8
0
62
256
6
ByLayer
370
-2
48
1
60
0
100
AcDbLine
10
72.59
20
-1.5875
30
0
11
72.59
21
-45.507865
31
0
39
0
210
0
220
0
230
1
0
LINE
5
220
100
AcDbEntity
8
0
62
256
6
ByLayer
370
-2
48
1
60
0
100
AcDbLine
10
24.59
20
-1.5875
30
0
11
24.59
21
-45.507865
31
0
39
0
210
0
220
0
230
1
0
LINE
5
221
100
AcDbEntity
8
0
62
256
6
ByLayer
370
-2
48
1
60
0
100
AcDbLine
10
69.09
20
-43.507865
30
0
11
28.09
21
-43.507865
31
0
39
0
210
0
220
0
230
1
0
SOLID
5
222
100
AcDbEntity
8
0
62
256
6
ByLayer
370
-1
48
1
60
0
100
AcDbTrace
10
69.09
20
-44.091199
30
0
11
69.09
21
-42.924532
31
0
12
72.59
22
-43.507865
32
0
13
72.59
23
-43.507865
33
0
39
0
210
0
220
0
230
1
0
SOLID
5
223
100
AcDbEntity
8
0
62
256
6
ByLayer
370
-1
48
1
60
0
100
AcDbTrace
10
28.09
20
-42.924532
30
0
11
28.09
21
-44.091199
31
0
12
24.59
22
-43.507865
32
0
13
24.59
23
-43.507865
33
0
39
0
210
0
220
0
230
1
0
MTEXT
5
224
100
AcDbEntity
8
0
62
256
6
ByLayer
370
18
48
1
60
0
100
AcDbMText
10
48.59
20
-36.507865
30
0
210
0
220
0
230
1
1
\A1;48
40
3.5
41
0
44
1
50
0
71
5
72
5
7
iso_b_vert
0
POINT
5
225
100
AcDbEntity
8
Defpoints
62
0
6
ByLayer
370
-1
48
1
60
0
100
AcDbPoint
10
72.59
20
0
30
0
39
0
210
0
220
0
230
1
50
360
0
POINT
5
226
100
AcDbEntity
8
Defpoints
62
0
6
ByLayer
370
-1
48
1
60
0
100
AcDbPoint
10
24.59
20
0
30
0
39
0
210
0
220
0
230
1
50
360
0
POINT
5
227
100
AcDbEntity
8
Defpoints
62
0
6
ByLayer
370
-1
48
1
60
0
100
AcDbPoint
10
24.59
20
-43.507865
30
0
39
0
210
0
220
0
230
1
50
360
0
ENDBLK
5
21E
100
AcDbEntity
8
0
100
AcDbBlockEnd
0
BLOCK
5
22F
100
AcDbEntity
8
0
100
AcDbBlockBegin
2
_U1
70
0
10
0
20
0
30
0
3
_U1
0
MTEXT
5
229
100
AcDbEntity
8
SK2
62
256
6
ByLayer
370
18
48
1
60
0
100
AcDbMText
10
44.484034
20
-42.475232
30
0
210
0
220
0
230
1
1
\W0.7640;48.0
40
3.5
41
0
44
1.084337
50
0
71
7
72
5
7
iso_b_vert
0
LINE
5
22A
100
AcDbEntity
8
SK2
62
256
6
ByLayer
370
13
48
1
60
0
100
AcDbLine
10
72.59
20
-1.5875
30
0
11
72.59
21
-45.507865
31
0
39
0
210
0
220
0
230
1
0
LINE
5
22B
100
AcDbEntity
8
SK2
62
256
6
ByLayer
370
13
48
1
60
0
100
AcDbLine
10
24.59
20
-1.5875
30
0
11
24.59
21
-45.507865
31
0
39
0
210
0
220
0
230
1
0
LINE
5
22C
100
AcDbEntity
8
SK2
62
256
6
ByLayer
370
13
48
1
60
0
100
AcDbLine
10
72.59
20
-43.507865
30
0
11
24.59
21
-43.507865
31
0
39
0
210
0
220
0
230
1
0
SOLID
5
22D
100
AcDbEntity
8
SK2
62
256
6
ByLayer
370
18
48
1
60
0
100
AcDbTrace
10
72.59
20
-43.507865
30
0
11
69.090002
21
-43.968649
31
0
12
69.089998
22
-43.047082
32
0
13
69.089998
23
-43.047082
33
0
39
0
210
0
220
0
230
1
0
SOLID
5
22E
100
AcDbEntity
8
SK2
62
256
6
ByLayer
370
18
48
1
60
0
100
AcDbTrace
10
24.59
20
-43.507865
30
0
11
28.089998
21
-43.047082
31
0
12
28.090002
22
-43.968649
32
0
13
28.090002
23
-43.968649
33
0
39
0
210
0
220
0
230
1
0
ENDBLK
5
230
100
AcDbEntity
8
0
100
AcDbBlockEnd
0
BLOCK
5
235
100
AcDbEntity
8
0
100
AcDbBlockBegin
2
*D5
70
1
10
0
20
0
30
0
3
*D5
0
LINE
5
237
100
AcDbEntity
8
0
62
256
6
ByLayer
370
-2
48
1
60
0
100
AcDbLine
10
72.59
20
-1.5875
30
0
11
72.59
21
-37.507865
31
0
39
0
210
0
220
0
230
1
0
LINE
5
238
100
AcDbEntity
8
0
62
256
6
ByLayer
370
-2
48
1
60
0
100
AcDbLine
10
31.79
20
-1.5875
30
0
11
31.79
21
-37.507865
31
0
39
0
210
0
220
0
230
1
0
LINE
5
239
100
AcDbEntity
8
0
62
256
6
ByLayer
370
-2
48
1
60
0
100
AcDbLine
10
69.09
20
-35.507865
30
0
11
35.29
21
-35.507865
31
0
39
0
210
0
220
0
230
1
0
SOLID
5
23A
100
AcDbEntity
8
0
62
256
6
ByLayer
370
-1
48
1
60
0
100
AcDbTrace
10
69.09
20
-36.091199
30
0
11
69.09
21
-34.924532
31
0
12
72.59
22
-35.507865
32
0
13
72.59
23
-35.507865
33
0
39
0
210
0
220
0
230
1
0
SOLID
5
23B
100
AcDbEntity
8
0
62
256
6
ByLayer
370
-1
48
1
60
0
100
AcDbTrace
10
35.29
20
-34.924532
30
0
11
35.29
21
-36.091199
31
0
12
31.79
22
-35.507865
32
0
13
31.79
23
-35.507865
33
0
39
0
210
0
220
0
230
1
0
MTEXT
5
23C
100
AcDbEntity
8
0
62
256
6
ByLayer
370
18
48
1
60
0
100
AcDbMText
10
52.19
20
-28.507865
30
0
210
0
220
0
230
1
1
\A1;40.8
40
3.5
41
0
44
1
50
0
71
5
72
5
7
iso_b_vert
0
POINT
5
23D
100
AcDbEntity
8
Defpoints
62
0
6
ByLayer
370
-1
48
1
60
0
100
AcDbPoint
10
72.59
20
0
30
0
39
0
210
0
220
0
230
1
50
360
0
POINT
5
23E
100
AcDbEntity
8
Defpoints
62
0
6
ByLayer
370
-1
48
1
60
0
100
AcDbPoint
10
31.79
20
0
30
0
39
0
210
0
220
0
230
1
50
360
0
POINT
5
23F
100
AcDbEntity
8
Defpoints
62
0
6
ByLayer
370
-1
48
1
60
0
100
AcDbPoint
10
31.79
20
-35.507865
30
0
39
0
210
0
220
0
230
1
50
360
0
ENDBLK
5
236
100
AcDbEntity
8
0
100
AcDbBlockEnd
0
BLOCK
5
248
100
AcDbEntity
8
0
100
AcDbBlockBegin
2
_U2
70
0
10
0
20
0
30
0
3
_U2
0
MTEXT
5
242
100
AcDbEntity
8
2
62
256
6
ByLayer
370
18
48
1
60
0
100
AcDbMText
10
48.084034
20
-34.475232
30
0
210
0
220
0
230
1
1
\W0.7640;40.8
40
3.5
41
0
44
1.084337
50
0
71
7
72
5
7
iso_b_vert
0
LINE
5
243
100
AcDbEntity
8
2
62
256
6
ByLayer
370
13
48
1
60
0
100
AcDbLine
10
72.59
20
-1.5875
30
0
11
72.59
21
-37.507865
31
0
39
0
210
0
220
0
230
1
0
LINE
5
244
100
AcDbEntity
8
2
62
256
6
ByLayer
370
13
48
1
60
0
100
AcDbLine
10
31.79
20
-1.5875
30
0
11
31.79
21
-37.507865
31
0
39
0
210
0
220
0
230
1
0
LINE
5
245
100
AcDbEntity
8
2
62
256
6
ByLayer
370
13
48
1
60
0
100
AcDbLine
10
72.59
20
-35.507865
30
0
11
31.79
21
-35.507865
31
0
39
0
210
0
220
0
230
1
0
SOLID
5
246
100
AcDbEntity
8
2
62
256
6
ByLayer
370
18
48
1
60
0
100
AcDbTrace
10
72.59
20
-35.507865
30
0
11
69.090002
21
-35.968649
31
0
12
69.089998
22
-35.047082
32
0
13
69.089998
23
-35.047082
33
0
39
0
210
0
220
0
230
1
0
SOLID
5
247
100
AcDbEntity
8
2
62
256
6
ByLayer
370
18
48
1
60
0
100
AcDbTrace
10
31.79
20
-35.507865
30
0
11
35.289998
21
-35.047082
31
0
12
35.290002
22
-35.968649
32
0
13
35.290002
23
-35.968649
33
0
39
0
210
0
220
0
230
1
0
ENDBLK
5
249
100
AcDbEntity
8
0
100
AcDbBlockEnd
0
BLOCK
5
24E
100
AcDbEntity
8
0
100
AcDbBlockBegin
2
*D7
70
1
10
0
20
0
30
0
3
*D7
0
LINE
5
250
100
AcDbEntity
8
0
62
256
6
ByLayer
370
-2
48
1
60
0
100
AcDbLine
10
72.59
20
-1.5875
30
0
11
72.59
21
-29.507865
31
0
39
0
210
0
220
0
230
1
0
LINE
5
251
100
AcDbEntity
8
0
62
256
6
ByLayer
370
-2
48
1
60
0
100
AcDbLine
10
57.59
20
-1.5875
30
0
11
57.59
21
-29.507865
31
0
39
0
210
0
220
0
230
1
0
LINE
5
252
100
AcDbEntity
8
0
62
256
6
ByLayer
370
-2
48
1
60
0
100
AcDbLine
10
76.09
20
-27.507865
30
0
11
79.59
21
-27.507865
31
0
39
0
210
0
220
0
230
1
0
LINE
5
253
100
AcDbEntity
8
0
62
256
6
ByLayer
370
-2
48
1
60
0
100
AcDbLine
10
54.09
20
-27.507865
30
0
11
50.59
21
-27.507865
31
0
39
0
210
0
220
0
230
1
0
SOLID
5
254
100
AcDbEntity
8
0
62
256
6
ByLayer
370
-1
48
1
60
0
100
AcDbTrace
10
76.09
20
-26.924532
30
0
11
76.09
21
-28.091199
31
0
12
72.59
22
-27.507865
32
0
13
72.59
23
-27.507865
33
0
39
0
210
0
220
0
230
1
0
SOLID
5
255
100
AcDbEntity
8
0
62
256
6
ByLayer
370
-1
48
1
60
0
100
AcDbTrace
10
54.09
20
-28.091199
30
0
11
54.09
21
-26.924532
31
0
12
57.59
22
-27.507865
32
0
13
57.59
23
-27.507865
33
0
39
0
210
0
220
0
230
1
0
MTEXT
5
256
100
AcDbEntity
8
0
62
256
6
ByLayer
370
18
48
1
60
0
100
AcDbMText
10
65.09
20
-20.507865
30
0
210
0
220
0
230
1
1
\A1;15
40
3.5
41
0
44
1
50
0
71
5
72
5
7
iso_b_vert
0
POINT
5
257
100
AcDbEntity
8
Defpoints
62
0
6
ByLayer
370
-1
48
1
60
0
100
AcDbPoint
10
72.59
20
0
30
0
39
0
210
0
220
0
230
1
50
360
0
POINT
5
258
100
AcDbEntity
8
Defpoints
62
0
6
ByLayer
370
-1
48
1
60
0
100
AcDbPoint
10
57.59
20
0
30
0
39
0
210
0
220
0
230
1
50
360
0
POINT
5
259
100
AcDbEntity
8
Defpoints
62
0
6
ByLayer
370
-1
48
1
60
0
100
AcDbPoint
10
57.59
20
-27.507865
30
0
39
0
210
0
220
0
230
1
50
360
0
ENDBLK
5
24F
100
AcDbEntity
8
0
100
AcDbBlockEnd
0
BLOCK
5
261
100
AcDbEntity
8
0
100
AcDbBlockBegin
2
_U3
70
0
10
0
20
0
30
0
3
_U3
0
MTEXT
5
25B
100
AcDbEntity
8
SK2
62
256
6
ByLayer
370
18
48
1
60
0
100
AcDbMText
10
61.605734
20
-26.475232
30
0
210
0
220
0
230
1
1
\W0.6563;15.0
40
3.5
41
0
44
1.084337
50
0
71
7
72
5
7
iso_b_vert
0
LINE
5
25C
100
AcDbEntity
8
SK2
62
256
6
ByLayer
370
13
48
1
60
0
100
AcDbLine
10
72.59
20
-1.5875
30
0
11
72.59
21
-29.507865
31
0
39
0
210
0
220
0
230
1
0
LINE
5
25D
100
AcDbEntity
8
SK2
62
256
6
ByLayer
370
13
48
1
60
0
100
AcDbLine
10
57.59
20
-1.5875
30
0
11
57.59
21
-29.507865
31
0
39
0
210
0
220
0
230
1
0
LINE
5
25E
100
AcDbEntity
8
SK2
62
256
6
ByLayer
370
13
48
1
60
0
100
AcDbLine
10
72.59
20
-27.507865
30
0
11
57.59
21
-27.507865
31
0
39
0
210
0
220
0
230
1
0
SOLID
5
25F
100
AcDbEntity
8
SK2
62
256
6
ByLayer
370
18
48
1
60
0
100
AcDbTrace
10
72.59
20
-27.507865
30
0
11
69.090002
21
-27.968649
31
0
12
69.089998
22
-27.047082
32
0
13
69.089998
23
-27.047082
33
0
39
0
210
0
220
0
230
1
0
SOLID
5
260
100
AcDbEntity
8
SK2
62
256
6
ByLayer
370
18
48
1
60
0
100
AcDbTrace
10
57.59
20
-27.507865
30
0
11
61.089998
21
-27.047082
31
0
12
61.090002
22
-27.968649
32
0
13
61.090002
23
-27.968649
33
0
39
0
210
0
220
0
230
1
0
ENDBLK
5
262
100
AcDbEntity
8
0
100
AcDbBlockEnd
0
BLOCK
5
267
100
AcDbEntity
8
0
100
AcDbBlockBegin
2
*D9
70
1
10
0
20
0
30
0
3
*D9
0
LINE
5
269
100
AcDbEntity
8
0
62
256
6
ByLayer
370
-2
48
1
60
0
100
AcDbLine
10
72.59
20
1.5875
30
0
11
72.59
21
13.471194
31
0
39
0
210
0
220
0
230
1
0
LINE
5
26A
100
AcDbEntity
8
0
62
256
6
ByLayer
370
-2
48
1
60
0
100
AcDbLine
10
69.1
20
1.5875
30
0
11
69.1
21
13.471194
31
0
39
0
210
0
220
0
230
1
0
LINE
5
26B
100
AcDbEntity
8
0
62
256
6
ByLayer
370
-2
48
1
60
0
100
AcDbLine
10
76.09
20
11.471194
30
0
11
79.59
21
11.471194
31
0
39
0
210
0
220
0
230
1
0
LINE
5
26C
100
AcDbEntity
8
0
62
256
6
ByLayer
370
-2
48
1
60
0
100
AcDbLine
10
65.6
20
11.471194
30
0
11
62.1
21
11.471194
31
0
39
0
210
0
220
0
230
1
0
SOLID
5
26D
100
AcDbEntity
8
0
62
256
6
ByLayer
370
-1
48
1
60
0
100
AcDbTrace
10
76.09
20
12.054527
30
0
11
76.09
21
10.887861
31
0
12
72.59
22
11.471194
32
0
13
72.59
23
11.471194
33
0
39
0
210
0
220
0
230
1
0
SOLID
5
26E
100
AcDbEntity
8
0
62
256
6
ByLayer
370
-1
48
1
60
0
100
AcDbTrace
10
65.6
20
10.887861
30
0
11
65.6
21
12.054527
31
0
12
69.1
22
11.471194
32
0
13
69.1
23
11.471194
33
0
39
0
210
0
220
0
230
1
0
MTEXT
5
26F
100
AcDbEntity
8
0
62
256
6
ByLayer
370
18
48
1
60
0
100
AcDbMText
10
70.845
20
18.471194
30
0
210
0
220
0
230
1
1
\A1;3.49
40
3.5
41
0
44
1
50
0
71
5
72
5
7
iso_b_vert
0
POINT
5
270
100
AcDbEntity
8
Defpoints
62
0
6
ByLayer
370
-1
48
1
60
0
100
AcDbPoint
10
72.59
20
0
30
0
39
0
210
0
220
0
230
1
50
360
0
POINT
5
271
100
AcDbEntity
8
Defpoints
62
0
6
ByLayer
370
-1
48
1
60
0
100
AcDbPoint
10
69.1
20
0
30
0
39
0
210
0
220
0
230
1
50
360
0
POINT
5
272
100
AcDbEntity
8
Defpoints
62
0
6
ByLayer
370
-1
48
1
60
0
100
AcDbPoint
10
69.1
20
11.471194
30
0
39
0
210
0
220
0
230
1
50
360
0
ENDBLK
5
268
100
AcDbEntity
8
0
100
AcDbBlockEnd
0
BLOCK
5
27B
100
AcDbEntity
8
0
100
AcDbBlockBegin
2
_U4
70
0
10
0
20
0
30
0
3
_U4
0
MTEXT
5
274
100
AcDbEntity
8
SK2
62
256
6
ByLayer
370
18
48
1
60
0
100
AcDbMText
10
66.739034
20
19.503827
30
0
210
0
220
0
230
1
1
\W0.7756;3.49
40
3.5
41
0
44
1.084337
50
0
71
7
72
5
7
iso_b_vert
0
MTEXT
5
275
100
AcDbEntity
8
SK2
62
256
6
ByLayer
370
18
48
1
60
0
100
AcDbMText
10
66.739034
20
12.503827
30
0
210
0
220
0
230
1
1
\W0.6474;'C'
40
3.5
41
0
44
1.084337
50
0
71
7
72
5
7
iso_b_vert
0
LINE
5
276
100
AcDbEntity
8
SK2
62
256
6
ByLayer
370
13
48
1
60
0
100
AcDbLine
10
72.59
20
1.5875
30
0
11
72.59
21
13.471194
31
0
39
0
210
0
220
0
230
1
0
LINE
5
277
100
AcDbEntity
8
SK2
62
256
6
ByLayer
370
13
48
1
60
0
100
AcDbLine
10
69.1
20
1.5875
30
0
11
69.1
21
13.471194
31
0
39
0
210
0
220
0
230
1
0
LINE
5
278
100
AcDbEntity
8
SK2
62
256
6
ByLayer
370
13
48
1
60
0
100
AcDbLine
10
81.34
20
11.471194
30
0
11
60.35
21
11.471194
31
0
39
0
210
0
220
0
230
1
0
SOLID
5
279
100
AcDbEntity
8
SK2
62
256
6
ByLayer
370
18
48
1
60
0
100
AcDbTrace
10
72.59
20
11.471194
30
0
11
76.089998
21
11.931978
31
0
12
76.090002
22
11.01041
32
0
13
76.090002
23
11.01041
33
0
39
0
210
0
220
0
230
1
0
SOLID
5
27A
100
AcDbEntity
8
SK2
62
256
6
ByLayer
370
18
48
1
60
0
100
AcDbTrace
10
69.1
20
11.471194
30
0
11
65.600002
21
11.01041
31
0
12
65.599998
22
11.931978
32
0
13
65.599998
23
11.931978
33
0
39
0
210
0
220
0
230
1
0
ENDBLK
5
27C
100
AcDbEntity
8
0
100
AcDbBlockEnd
0
BLOCK
5
281
100
AcDbEntity
8
0
100
AcDbBlockBegin
2
*D11
70
1
10
0
20
0
30
0
3
*D11
0
LINE
5
283
100
AcDbEntity
8
0
62
256
6
ByLayer
370
-2
48
1
60
0
100
AcDbLine
10
74.1775
20
-5.610597
30
0
11
91.34
21
-5.610597
31
0
39
0
210
0
220
0
230
1
0
LINE
5
284
100
AcDbEntity
8
0
62
256
6
ByLayer
370
-2
48
1
60
0
100
AcDbLine
10
74.1775
20
5.610597
30
0
11
91.34
21
5.610597
31
0
39
0
210
0
220
0
230
1
0
LINE
5
285
100
AcDbEntity
8
0
62
256
6
ByLayer
370
-2
48
1
60
0
100
AcDbLine
10
89.34
20
-9.110597
30
0
11
89.34
21
-12.610597
31
0
39
0
210
0
220
0
230
1
0
LINE
5
286
100
AcDbEntity
8
0
62
256
6
ByLayer
370
-2
48
1
60
0
100
AcDbLine
10
89.34
20
9.110597
30
0
11
89.34
21
12.610597
31
0
39
0
210
0
220
0
230
1
0
SOLID
5
287
100
AcDbEntity
8
0
62
256
6
ByLayer
370
-1
48
1
60
0
100
AcDbTrace
10
89.923333
20
-9.110597
30
0
11
88.756667
21
-9.110597
31
0
12
89.34
22
-5.610597
32
0
13
89.34
23
-5.610597
33
0
39
0
210
0
220
0
230
1
0
SOLID
5
288
100
AcDbEntity
8
0
62
256
6
ByLayer
370
-1
48
1
60
0
100
AcDbTrace
10
88.756667
20
9.110597
30
0
11
89.923333
21
9.110597
31
0
12
89.34
22
5.610597
32
0
13
89.34
23
5.610597
33
0
39
0
210
0
220
0
230
1
0
MTEXT
5
289
100
AcDbEntity
8
0
62
256
6
ByLayer
370
18
48
1
60
0
100
AcDbMText
10
82.34
20
0
30
0
210
0
220
0
230
1
1
\A1;11.22
40
3.5
41
0
44
1
50
90
71
5
72
5
7
iso_b_vert
0
POINT
5
28A
100
AcDbEntity
8
Defpoints
62
0
6
ByLayer
370
-1
48
1
60
0
100
AcDbPoint
10
72.59
20
-5.610597
30
0
39
0
210
0
220
0
230
1
50
360
0
POINT
5
28B
100
AcDbEntity
8
Defpoints
62
0
6
ByLayer
370
-1
48
1
60
0
100
AcDbPoint
10
72.59
20
5.610597
30
0
39
0
210
0
220
0
230
1
50
360
0
POINT
5
28C
100
AcDbEntity
8
Defpoints
62
0
6
ByLayer
370
-1
48
1
60
0
100
AcDbPoint
10
89.34
20
5.610597
30
0
39
0
210
0
220
0
230
1
50
360
0
ENDBLK
5
282
100
AcDbEntity
8
0
100
AcDbBlockEnd
0
BLOCK
5
295
100
AcDbEntity
8
0
100
AcDbBlockBegin
2
_U5
70
0
10
0
20
0
30
0
3
_U5
0
MTEXT
5
28E
100
AcDbEntity
8
2
62
256
6
ByLayer
370
18
48
1
60
0
100
AcDbMText
10
88.650366
20
-20.550531
30
0
210
0
220
0
230
1
1
\W0.7325;UNF 7/16-20
40
3.5
41
0
44
1.084337
50
90
71
7
72
5
7
iso_b_vert
0
MTEXT
5
28F
100
AcDbEntity
8
2
62
256
6
ByLayer
370
18
48
1
60
0
100
AcDbMText
10
88.650366
20
10.808465
30
0
210
0
220
0
230
1
1
\W0.7601; 3BX
40
3.5
41
0
44
1.084337
50
90
71
7
72
5
7
iso_b_vert
0
LINE
5
290
100
AcDbEntity
8
2
62
256
6
ByLayer
370
13
48
1
60
0
100
AcDbLine
10
74.1775
20
-5.610597
30
0
11
91.34
21
-5.610597
31
0
39
0
210
0
220
0
230
1
0
LINE
5
291
100
AcDbEntity
8
2
62
256
6
ByLayer
370
13
48
1
60
0
100
AcDbLine
10
74.1775
20
5.610597
30
0
11
91.34
21
5.610597
31
0
39
0
210
0
220
0
230
1
0
LINE
5
292
100
AcDbEntity
8
2
62
256
6
ByLayer
370
13
48
1
60
0
100
AcDbLine
10
89.34
20
20.708031
30
0
11
89.34
21
-20.708031
31
0
39
0
210
0
220
0
230
1
0
SOLID
5
293
100
AcDbEntity
8
2
62
256
6
ByLayer
370
18
48
1
60
0
100
AcDbTrace
10
89.34
20
-5.610597
30
0
11
88.879216
21
-2.110599
31
0
12
89.800784
22
-2.110595
32
0
13
89.800784
23
-2.110595
33
0
39
0
210
0
220
0
230
1
0
SOLID
5
294
100
AcDbEntity
8
2
62
256
6
ByLayer
370
18
48
1
60
0
100
AcDbTrace
10
89.34
20
5.610597
30
0
11
89.800784
21
2.110599
31
0
12
88.879216
22
2.110595
32
0
13
88.879216
23
2.110595
33
0
39
0
210
0
220
0
230
1
0
ENDBLK
5
296
100
AcDbEntity
8
0
100
AcDbBlockEnd
0
ENDSEC
0
SECTION
2
ENTITIES
0
ARC
5
CA
100
AcDbEntity
8
SK1
62
256
6
ByLayer
370
18
48
1
60
0
100
AcDbCircle
39
0
10
-20.075
20
0
30
0
40
3.9379199999999
210
0
220
0
230
1
100
AcDbArc
50
321.340217
51
38.659783
0
ARC
5
CB
100
AcDbEntity
8
1
62
256
6
ByLayer
370
18
48
1
60
0
100
AcDbCircle
39
0
10
56.405428
20
-5.152
30
0
40
1.2
210
0
220
0
230
1
100
AcDbArc
50
30
51
90
0
ARC
5
CC
100
AcDbEntity
8
1
62
256
6
ByLayer
370
18
48
1
60
0
100
AcDbCircle
39
0
10
25.170948
20
-5.152
30
0
40
1.2
210
0
220
0
230
1
100
AcDbArc
50
90
51
118.955024
0
ARC
5
CD
100
AcDbEntity
8
1
62
256
6
ByLayer
370
18
48
1
60
0
100
AcDbCircle
39
0
10
25.170948
20
5.152
30
0
40
1.2
210
0
220
0
230
1
100
AcDbArc
50
241.044976
51
270
0
POINT
5
70
100
AcDbEntity
8
80
62
256
6
ByLayer
370
18
48
1
60
0
100
AcDbPoint
10
0
20
0
30
0
39
0
210
0
220
0
230
1
50
360
0
POINT
5
72
100
AcDbEntity
8
81
62
256
6
ByLayer
370
18
48
1
60
0
100
AcDbPoint
10
72.59
20
0
30
0
39
0
210
0
220
0
230
1
50
360
0
POINT
5
74
100
AcDbEntity
8
1
62
256
6
ByLayer
370
18
48
1
60
0
100
AcDbPoint
10
-27.41
20
0
30
0
39
0
210
0
220
0
230
1
50
360
0
POINT
5
76
100
AcDbEntity
8
1
62
256
6
ByLayer
370
18
48
1
60
1
100
AcDbPoint
10
-27.41
20
0
30
0
39
0
210
0
220
0
230
1
50
360
0
POINT
5
77
100
AcDbEntity
8
1
62
256
6
ByLayer
370
18
48
1
60
1
100
AcDbPoint
10
72.59
20
0
30
0
39
0
210
0
220
0
230
1
50
360
0
POINT
5
78
100
AcDbEntity
8
1
62
256
6
ByLayer
370
18
48
1
60
1
100
AcDbPoint
10
72.59
20
0
30
0
39
0
210
0
220
0
230
1
50
360
0
POINT
5
79
100
AcDbEntity
8
1
62
256
6
ByLayer
370
18
48
1
60
1
100
AcDbPoint
10
24.59
20
0
30
0
39
0
210
0
220
0
230
1
50
360
0
POINT
5
7A
100
AcDbEntity
8
1
62
256
6
ByLayer
370
18
48
1
60
1
100
AcDbPoint
10
72.59
20
0
30
0
39
0
210
0
220
0
230
1
50
360
0
POINT
5
7B
100
AcDbEntity
8
1
62
256
6
ByLayer
370
18
48
1
60
1
100
AcDbPoint
10
31.79
20
0
30
0
39
0
210
0
220
0
230
1
50
360
0
POINT
5
7C
100
AcDbEntity
8
1
62
256
6
ByLayer
370
18
48
1
60
1
100
AcDbPoint
10
72.59
20
0
30
0
39
0
210
0
220
0
230
1
50
360
0
POINT
5
7D
100
AcDbEntity
8
1
62
256
6
ByLayer
370
18
48
1
60
1
100
AcDbPoint
10
57.59
20
0
30
0
39
0
210
0
220
0
230
1
50
360
0
POINT
5
7E
100
AcDbEntity
8
1
62
256
6
ByLayer
370
18
48
1
60
1
100
AcDbPoint
10
72.59
20
0
30
0
39
0
210
0
220
0
230
1
50
360
0
POINT
5
7F
100
AcDbEntity
8
1
62
256
6
ByLayer
370
18
48
1
60
1
100
AcDbPoint
10
69.1
20
0
30
0
39
0
210
0
220
0
230
1
50
360
0
POINT
5
80
100
AcDbEntity
8
1
62
256
6
ByLayer
370
18
48
1
60
1
100
AcDbPoint
10
72.59
20
-5.610597
30
0
39
0
210
0
220
0
230
1
50
360
0
POINT
5
81
100
AcDbEntity
8
1
62
256
6
ByLayer
370
18
48
1
60
1
100
AcDbPoint
10
72.59
20
5.610597
30
0
39
0
210
0
220
0
230
1
50
360
0
SPLINE
5
CE
100
AcDbEntity
8
1
62
256
6
ByLayer
370
13
48
1
60
0
100
AcDbSpline
70
4
71
3
72
8
73
4
40
0
40
0
40
0
40
0
40
1
40
1
40
1
40
1
41
1
10
59.5472281594692
20
-4.89191531131931
30
0
41
1
10
59.5494932606501
20
-4.88984418411025
30
0
41
1
10
59.5517614793522
20
-4.88686122883973
30
0
41
1
10
59.554032738951
20
-4.88296182091193
30
0
0
SPLINE
5
CF
100
AcDbEntity
8
1
62
256
6
ByLayer
370
18
48
1
60
0
100
AcDbSpline
70
4
71
3
72
8
73
4
40
0
40
0
40
0
40
0
40
1
40
1
40
1
40
1
41
1
10
59.4442249854805
20
-5.06407162522322
30
0
41
1
10
59.4478041984578
20
-5.06356596157451
30
0
41
1
10
59.4513897852141
20
-5.06016427067533
30
0
41
1
10
59.4549903406029
20
-5.05392746746867
30
0
0
SPLINE
5
D0
100
AcDbEntity
8
1
62
256
6
ByLayer
370
13
48
1
60
0
100
AcDbSpline
70
4
71
3
72
8
73
4
40
0
40
0
40
0
40
0
40
1
40
1
40
1
40
1
41
1
10
69.6877160355726
20
-4.88724667629464
30
0
41
1
10
69.6959634187642
20
-4.89909743724377
30
0
41
1
10
69.7042356946818
20
-4.89881476039602
30
0
41
1
10
69.7125423260756
20
-4.88611055035642
30
0
0
SPLINE
5
D1
100
AcDbEntity
8
1
62
256
6
ByLayer
370
18
48
1
60
0
100
AcDbSpline
70
4
71
3
72
8
73
4
40
0
40
0
40
0
40
0
40
1
40
1
40
1
40
1
41
1
10
69.712542493333
20
-4.88611029455029
30
0
41
1
10
69.7143528237338
20
-4.88334152859173
30
0
41
1
10
69.7161647859181
20
-4.87998277754568
30
0
41
1
10
69.7179784778386
20
-4.87603105922454
30
0
0
SPLINE
5
D2
100
AcDbEntity
8
1
62
256
6
ByLayer
370
18
48
1
60
0
100
AcDbSpline
70
4
71
3
72
8
73
4
40
0
40
0
40
0
40
0
40
1
40
1
40
1
40
1
41
1
10
58.6040289256492
20
-4.93343827071246
30
0
41
1
10
58.5979422234361
20
-4.92289413861278
30
0
41
1
10
58.5917942645066
20
-4.90682980278376
30
0
41
1
10
58.5855937978232
20
-4.88508357682039
30
0
0
SPLINE
5
D3
100
AcDbEntity
8
1
62
256
6
ByLayer
370
13
48
1
60
0
100
AcDbSpline
70
4
71
3
72
8
73
4
40
0
40
0
40
0
40
0
40
1
40
1
40
1
40
1
41
1.04
10
61.7524361081746
20
4.88717128725269
30
0
41
1.04
10
61.7621792195492
20
4.9012015382698
30
0
41
1.04
10
61.7718606621975
20
4.89818907327483
30
0
41
1.04
10
61.7814834382514
20
4.87863912150194
30
0
0
SPLINE
5
D4
100
AcDbEntity
8
1
62
256
6
ByLayer
370
18
48
1
60
0
100
AcDbSpline
70
4
71
3
72
10
73
6
40
0
40
0
40
0
40
0
40
0.5637747030051
40
0.5637747030051
40
1
40
1
40
1
40
1
41
1
10
69.3611229894726
20
-5.37853850659488
30
0
41
1
10
69.3679472021059
20
-5.4005726364515
30
0
41
1
10
69.374753371271
20
-5.41501368492703
30
0
41
1
10
69.3868827934486
20
-5.42739109927831
30
0
41
1
10
69.3921795314674
20
-5.42834548327806
30
0
41
1
10
69.3974619048638
20
-5.42489200398399
30
0
0
SPLINE
5
D5
100
AcDbEntity
8
1
62
256
6
ByLayer
370
13
48
1
60
0
100
AcDbSpline
70
4
71
3
72
8
73
4
40
0
40
0
40
0
40
0
40
1
40
1
40
1
40
1
41
1.04
10
58.5574940287275
20
-4.83551247334582
30
0
41
1.04
10
58.5632870049421
20
-4.85732315217403
30
0
41
1.04
10
58.5690474979616
20
-4.87307079363761
30
0
41
1.04
10
58.5747755679757
20
-4.88293504051632
30
0
0
SPLINE
5
D6
100
AcDbEntity
8
1
62
256
6
ByLayer
370
13
48
1
60
0
100
AcDbSpline
70
4
71
3
72
8
73
4
40
0
40
0
40
0
40
0
40
1
40
1
40
1
40
1
41
1
10
58.2463978656739
20
-4.86314675818952
30
0
41
1
10
58.2588920341486
20
-4.89768274186056
30
0
41
1
10
58.271233663929
20
-4.90411109231766
30
0
41
1
10
58.2834233684655
20
-4.88427601001129
30
0
0
SPLINE
5
D7
100
AcDbEntity
8
1
62
256
6
ByLayer
370
18
48
1
60
0
100
AcDbSpline
70
4
71
3
72
13
73
9
40
0
40
0
40
0
40
0
40
0.319613632682609
40
0.319613632682609
40
0.489710224511957
40
0.489710224511957
40
0.659806816341305
40
1
40
1
40
1
40
1
41
1
10
69.1202310805943
20
-5.54989964131209
30
0
41
1
10
69.1176313539139
20
-5.54536224342104
30
0
41
1
10
69.1150364539452
20
-5.53909086213417
30
0
41
1
10
69.1110496816087
20
-5.52677765157452
30
0
41
1
10
69.1096633962212
20
-5.52200086443292
30
0
41
1
10
69.1068945590579
20
-5.51147899424487
30
0
41
1
10
69.1027434380734
20
-5.49423287708149
30
0
41
1
10
69.0985923438231
20
-5.47262202185561
30
0
41
1
10
69.0958191667223
20
-5.45628335017895
30
0
0
SPLINE
5
D8
100
AcDbEntity
8
1
62
256
6
ByLayer
370
18
48
1
60
0
100
AcDbSpline
70
4
71
3
72
14
73
10
40
0
40
0
40
0
40
0
40
0.523491774067886
40
0.523491774067886
40
0.78523766110183
40
0.78523766110183
40
0.916110604618801
40
0.916110604618801
40
1
40
1
40
1
40
1
41
1
10
62.1131215496567
20
5.35711497407675
30
0
41
1
10
62.1064635281698
20
5.38463209399328
30
0
41
1
10
62.099874337331
20
5.40488996517186
30
0
41
1
10
62.0899869512094
20
5.42415153709473
30
0
41
1
10
62.0866881874392
20
5.42871467996008
30
0
41
1
10
62.0817196616156
20
5.43271612845481
30
0
41
1
10
62.0800622250603
20
5.43357298648891
30
0
41
1
10
62.0773486794184
20
5.43419607669566
30
0
41
1
10
62.0762895637804
20
5.43424406956836
30
0
41
1
10
62.075231046167
20
5.43409783326422
30
0
0
SPLINE
5
D9
100
AcDbEntity
8
1
62
256
6
ByLayer
370
18
48
1
60
0
100
AcDbSpline
70
4
71
3
72
13
73
9
40
0
40
0
40
0
40
0
40
0.18150527260005
40
0.317921060500042
40
0.317921060500042
40
0.454336848400034
40
0.454336848400034
40
1
40
1
40
1
40
1
41
1
10
62.3917949311453
20
5.46505665065507
30
0
41
1
10
62.39361657599
20
5.46143928455666
30
0
41
1
10
62.3968269535671
20
5.45364016617617
30
0
41
1
10
62.4000801905052
20
5.44325357408823
30
0
41
1
10
62.4028892912661
20
5.43337731110276
30
0
41
1
10
62.4043038997779
20
5.42795129514769
30
0
41
1
10
62.4113886105724
20
5.39853931150523
30
0
41
1
10
62.4171210426455
20
5.36766140200086
30
0
41
1
10
62.4229001896601
20
5.32965400572292
30
0
0
SPLINE
5
DA
100
AcDbEntity
8
1
62
256
6
ByLayer
370
13
48
1
60
0
100
AcDbSpline
70
4
71
3
72
8
73
4
40
0
40
0
40
0
40
0
40
1
40
1
40
1
40
1
41
1.04
10
68.6978570361365
20
-4.73708411116338
30
0
41
1.04
10
68.7095758806918
20
-4.80896530479264
30
0
41
1.04
10
68.7212835761841
20
-4.85710696939869
30
0
41
1.04
10
68.7330036122991
20
-4.88044157597758
30
0
0
SPLINE
5
DB
100
AcDbEntity
8
1
62
256
6
ByLayer
370
18
48
1
60
0
100
AcDbSpline
70
4
71
3
72
10
73
6
40
0
40
0
40
0
40
0
40
0.5
40
0.5
40
1
40
1
40
1
40
1
41
1
10
58.2268581188144
20
-4.77205798799608
30
0
41
1
10
58.230118607796
20
-4.79181316756021
30
0
41
1
10
58.2333719734233
20
-4.80931495829208
30
0
41
1
10
58.2398790693203
20
-4.83969747648268
30
0
41
1
10
58.2431333718828
20
-4.8525830345813
30
0
41
1
10
58.2463978584027
20
-4.8631467346604
30
0
0
SPLINE
5
DC
100
AcDbEntity
8
1
62
256
6
ByLayer
370
18
48
1
60
0
100
AcDbSpline
70
4
71
3
72
8
73
4
40
0
40
0
40
0
40
0
40
1
40
1
40
1
40
1
41
1
10
58.2463978656739
20
-4.86314675818954
30
0
41
1
10
58.2535224225885
20
-4.88620142760925
30
0
41
1
10
58.260613875722
20
-4.89802380212069
30
0
41
1
10
58.2677509882247
20
-4.89899788028924
30
0
0
SPLINE
5
DD
100
AcDbEntity
8
1
62
256
6
ByLayer
370
13
48
1
60
0
100
AcDbSpline
70
4
71
3
72
8
73
4
40
0
40
0
40
0
40
0
40
1
40
1
40
1
40
1
41
1
10
62.7300600696524
20
4.88100705720282
30
0
41
1
10
62.7439375320521
20
4.85503334636479
30
0
41
1
10
62.7577501709986
20
4.79540745218307
30
0
41
1
10
62.7714138915182
20
4.70454540333739
30
0
0
SPLINE
5
DE
100
AcDbEntity
8
1
62
256
6
ByLayer
370
13
48
1
60
0
100
AcDbSpline
70
4
71
3
72
9
73
5
40
0
40
0
40
0
40
0
40
0.854808303094678
40
1
40
1
40
1
40
1
41
1
10
68.3651092655907
20
-4.64627594808283
30
0
41
1
10
68.3873888989145
20
-4.81629602297676
30
0
41
1
10
68.4133671516615
20
-4.91669962680692
30
0
41
1
10
68.4394654316098
20
-4.89195547634782
30
0
41
1
10
68.4432578376969
20
-4.88574568309016
30
0
0
SPLINE
5
DF
100
AcDbEntity
8
1
62
256
6
ByLayer
370
18
48
1
60
0
100
AcDbSpline
70
4
71
3
72
17
73
13
40
0
40
0
40
0
40
0
40
0.215667104124472
40
0.215667104124472
40
0.431334208248945
40
0.647001312373417
40
0.647001312373417
40
0.754834864435653
40
0.754834864435653
40
0.862668416497889
40
0.862668416497889
40
1
40
1
40
1
40
1
41
1
10
67.9297202310802
20
-5.10403099004776
30
0
41
1
10
67.9358907148359
20
-5.17624274077878
30
0
41
1
10
67.9420653667133
20
-5.240599192351
30
0
41
1
10
67.954496540299
20
-5.3540612501582
30
0
41
1
10
67.9670094550188
20
-5.4522697051338
30
0
41
1
10
67.9797414871886
20
-5.52009718184021
30
0
41
1
10
67.9893600895779
20
-5.55932825452533
30
0
41
1
10
67.9925789311025
20
-5.57046619211016
30
0
41
1
10
67.9990271070742
20
-5.58875915896482
30
0
41
1
10
68.00223369045
20
-5.59585150310545
30
0
41
1
10
68.0094746172887
20
-5.60739949806489
30
0
41
1
10
68.0134933080538
20
-5.61060834947537
30
0
41
1
10
68.0174679694412
20
-5.61059975691484
30
0
0
SPLINE
5
E0
100
AcDbEntity
8
1
62
256
6
ByLayer
370
18
48
1
60
0
100
AcDbSpline
70
4
71
3
72
18
73
14
40
0
40
0
40
0
40
0
40
0.0525531544563529
40
0.0525531544563529
40
0.289414865842266
40
0.526276577228178
40
0.526276577228178
40
0.763138288614091
40
0.763138288614091
40
0.822353716460568
40
0.822353716460568
40
0.881569144307046
40
1
40
1
40
1
40
1
41
1
10
67.8794608560226
20
-5.59927937079942
30
0
41
1
10
67.8780505947149
20
-5.59683424957962
30
0
41
1
10
67.8766401024829
20
-5.59399680626569
30
0
41
1
10
67.8688706301756
20
-5.57622950581353
30
0
41
1
10
67.8561353644381
20
-5.53137629632974
30
0
41
1
10
67.8434531486135
20
-5.45561881749123
30
0
41
1
10
67.8309156482729
20
-5.36433002298813
30
0
41
1
10
67.8247514743746
20
-5.31092075203438
30
0
41
1
10
67.8171319435653
20
-5.23414946275022
30
0
41
1
10
67.8156093855251
20
-5.21828020707105
30
0
41
1
10
67.8125755924837
20
-5.18564330879491
30
0
41
1
10
67.8080390628109
20
-5.13531327438426
30
0
41
1
10
67.8035259310265
20
-5.0808769689429
30
0
41
1
10
67.8005129970206
20
-5.04276579845975
30
0
0
SPLINE
5
E1
100
AcDbEntity
8
1
62
256
6
ByLayer
370
13
48
1
60
0
100
AcDbSpline
70
4
71
3
72
9
73
5
40
0
40
0
40
0
40
0
40
0.898318226293735
40
1
40
1
40
1
40
1
41
1.04
10
63.0195602987474
20
4.88383463123326
30
0
41
1.04
10
63.045162182784
20
4.92750648684384
30
0
41
1.04
10
63.0736421543267
20
4.84311415572684
30
0
41
1.04
10
63.1014527035374
20
4.62909190539531
30
0
41
1.04
10
63.104274057276
20
4.60602443733649
30
0
0
SPLINE
5
E2
100
AcDbEntity
8
1
62
256
6
ByLayer
370
18
48
1
60
0
100
AcDbSpline
70
4
71
3
72
21
73
17
40
0
40
0
40
0
40
0
40
0.199620454564872
40
0.199620454564872
40
0.399240909129744
40
0.399240909129744
40
0.598861363694616
40
0.598861363694616
40
0.698671590977052
40
0.698671590977052
40
0.74857670461827
40
0.74857670461827
40
0.798481818259488
40
0.798481818259488
40
0.998102272824361
40
1
40
1
40
1
40
1
41
1
10
63.5399394133065
20
5.02155744485356
30
0
41
1
10
63.5337602951486
20
5.0991652931306
30
0
41
1
10
63.5276670291287
20
5.16896960745063
30
0
41
1
10
63.5155774925224
20
5.29345178032497
30
0
41
1
10
63.5095898908997
20
5.34812853029482
30
0
41
1
10
63.4976293570828
20
5.44243701411028
30
0
41
1
10
63.4916279163986
20
5.48206884605423
30
0
41
1
10
63.4824093679502
20
5.53000682662721
30
0
41
1
10
63.4793017774055
20
5.54406485412946
30
0
41
1
10
63.4745767349053
20
5.56221274375301
30
0
41
1
10
63.4729930558028
20
5.56776341480287
30
0
41
1
10
63.4698200319858
20
5.57783101191092
30
0
41
1
10
63.4682289095879
20
5.58235494720117
30
0
41
1
10
63.460250390997
20
5.60245000890336
30
0
41
1
10
63.4537268062173
20
5.61054033156728
30
0
41
1
10
63.4471744098968
20
5.61059726844587
30
0
41
1
10
63.4471127025416
20
5.61059709218523
30
0
0
SPLINE
5
E3
100
AcDbEntity
8
1
62
256
6
ByLayer
370
18
48
1
60
0
100
AcDbSpline
70
4
71
3
72
22
73
18
40
0
40
0
40
0
40
0
40
0.0248930255723266
40
0.0248930255723266
40
0.0790656352627526
40
0.0790656352627526
40
0.133238244953179
40
0.133238244953179
40
0.349928683714884
40
0.349928683714884
40
0.56661912247659
40
0.56661912247659
40
0.783309561238295
40
0.783309561238295
40
0.891654780619148
40
0.891654780619148
40
1
40
1
40
1
40
1
41
1
10
63.5847380152606
20
5.60006861188032
30
0
41
1
10
63.585454857557
20
5.59884584067896
30
0
41
1
10
63.5861715431721
20
5.59751566723244
30
0
41
1
10
63.5884474124235
20
5.59294809456088
30
0
41
1
10
63.5900052323391
20
5.58930742964921
30
0
41
1
10
63.5931034256022
20
5.58104312796939
30
0
41
1
10
63.5946457994753
20
5.57641577843532
30
0
41
1
10
63.6023252084099
20
5.55082718148972
30
0
41
1
10
63.6083469478222
20
5.52252628163092
30
0
41
1
10
63.6203467976248
20
5.45061915830038
30
0
41
1
10
63.6263390404295
20
5.40701239005344
30
0
41
1
10
63.6384868355908
20
5.30445476987293
30
0
41
1
10
63.6446412134866
20
5.24550496815203
30
0
41
1
10
63.6540566861871
20
5.14524595886743
30
0
41
1
10
63.6572287250095
20
5.10980405214039
30
0
41
1
10
63.6635911023262
20
5.03543135353024
30
0
41
1
10
63.6667864024804
20
4.99645105881595
30
0
41
1
10
63.6699953063126
20
4.95568133767782
30
0
0
SPLINE
5
E4
100
AcDbEntity
8
1
62
256
6
ByLayer
370
13
48
1
60
0
100
AcDbSpline
70
4
71
3
72
9
73
5
40
0
40
0
40
0
40
0
40
0.469543539559999
40
1
40
1
40
1
40
1
41
1.04
10
67.3751191287085
20
-4.25861888642435
30
0
41
1.04
10
67.3889553616316
20
-4.42442299823302
30
0
41
1.04
10
67.4183865964516
20
-4.71409214483327
30
0
41
1.04
10
67.4477489796579
20
-4.85084741315704
30
0
41
1.04
10
67.4633098793711
20
-4.88033399887073
30
0
0
SPLINE
5
E5
100
AcDbEntity
8
1
62
256
6
ByLayer
370
13
48
1
60
0
100
AcDbSpline
70
4
71
3
72
9
73
5
40
0
40
0
40
0
40
0
40
0.183538499542805
40
1
40
1
40
1
40
1
41
1
10
63.9988909452928
20
4.88477121901104
30
0
41
1
10
64.0044919312725
20
4.87526350796057
30
0
41
1
10
64.035218726655
20
4.79210262518552
30
0
41
1
10
64.0671960335927
20
4.53116849205838
30
0
41
1
10
64.0941579875674
20
4.19621330570683
30
0
0
SPLINE
5
E6
100
AcDbEntity
8
1
62
256
6
ByLayer
370
13
48
1
60
0
100
AcDbSpline
70
4
71
3
72
9
73
5
40
0
40
0
40
0
40
0
40
0.442870223690623
40
1
40
1
40
1
40
1
41
1
10
67.0423258264706
20
-4.09119456121135
30
0
41
1
10
67.0607561901649
20
-4.33658942375865
30
0
41
1
10
67.1023015758596
20
-4.77653350649612
30
0
41
1
10
67.1437098578288
20
-4.9117592611523
30
0
41
1
10
67.1667527414188
20
-4.89250696770387
30
0
0
SPLINE
5
E7
100
AcDbEntity
8
1
62
256
6
ByLayer
370
18
48
1
60
0
100
AcDbSpline
70
4
71
3
72
8
73
4
40
0
40
0
40
0
40
0
40
1
40
1
40
1
40
1
41
1
10
67.1667528583651
20
-4.89250686999469
30
0
41
1
10
67.1692334179969
20
-4.8904343318147
30
0
41
1
10
67.1717136658613
20
-4.88726563446795
30
0
41
1
10
67.1741936214854
20
-4.88300076800837
30
0
0
SPLINE
5
E8
100
AcDbEntity
8
1
62
256
6
ByLayer
370
18
48
1
60
0
100
AcDbSpline
70
4
71
3
72
25
73
21
40
0
40
0
40
0
40
0
40
0.133998400356286
40
0.133998400356286
40
0.267996800712572
40
0.401995201068858
40
0.401995201068858
40
0.468994401247001
40
0.468994401247001
40
0.535993601425143
40
0.535993601425143
40
0.669992001781429
40
0.669992001781429
40
0.803990402137714
40
0.803990402137714
40
0.937988802493999
40
0.937988802493999
40
0.97148840258307
40
0.97148840258307
40
1
40
1
40
1
40
1
41
1
10
66.6068062041066
20
-4.33016281801966
30
0
41
1
10
66.6129318335684
20
-4.44073482050655
30
0
41
1
10
66.619091069594
20
-4.54429026832452
30
0
41
1
10
66.6315567153808
20
-4.73777852326521
30
0
41
1
10
66.6441691272913
20
-4.91764169665629
30
0
41
1
10
66.6570687075764
20
-5.07036953749852
30
0
41
1
10
66.666786135615
20
-5.17452062862867
30
0
41
1
10
66.6700330538803
20
-5.20751503450734
30
0
41
1
10
66.676515311587
20
-5.26991001885497
30
0
41
1
10
66.6797275596473
20
-5.299090570944
30
0
41
1
10
66.6892436519313
20
-5.38070262262013
30
0
41
1
10
66.6954012878915
20
-5.42721720969155
30
0
41
1
10
66.7075706477686
20
-5.50477987900663
30
0
41
1
10
66.7135875518049
20
-5.53582741126266
30
0
41
1
10
66.7256806621091
20
-5.58238034937293
30
0
41
1
10
66.7317569466877
20
-5.59788696399406
30
0
41
1
10
66.7394701804182
20
-5.60725814062974
30
0
41
1
10
66.7410198954148
20
-5.60863093909722
30
0
41
1
10
66.7438910342519
20
-5.61022923699011
30
0
41
1
10
66.745212576593
20
-5.61059632106819
30
0
41
1
10
66.74653586633
20
-5.61059688413806
30
0
0
SPLINE
5
E9
100
AcDbEntity
8
1
62
256
6
ByLayer
370
18
48
1
60
0
100
AcDbSpline
70
4
71
3
72
24
73
20
40
0
40
0
40
0
40
0
40
0.0811275596907702
40
0.234272966408975
40
0.234272966408975
40
0.310845669768078
40
0.310845669768078
40
0.387418373127181
40
0.387418373127181
40
0.540563779845386
40
0.540563779845386
40
0.69370918656359
40
0.69370918656359
40
0.846854593281795
40
0.846854593281795
40
0.885140944961347
40
0.885140944961347
40
0.923427296640898
40
1
40
1
40
1
40
1
41
1
10
66.6004694936494
20
-5.5759973409217
30
0
41
1
10
66.5971449543089
20
-5.56590301131965
30
0
41
1
10
66.587501577389
20
-5.53040071914231
30
0
41
1
10
66.5777194559483
20
-5.47659246066658
30
0
41
1
10
66.5680501511962
20
-5.41184035280833
30
0
41
1
10
66.5648125128642
20
-5.38823948902697
30
0
41
1
10
66.5583252228508
20
-5.33701424596274
30
0
41
1
10
66.5550973298611
20
-5.30956377097993
30
0
41
1
10
66.5454710653743
20
-5.2218084407528
30
0
41
1
10
66.5391297391378
20
-5.15611113718845
30
0
41
1
10
66.5266674157954
20
-5.0106202032556
30
0
41
1
10
66.520571173948
20
-4.93082562033783
30
0
41
1
10
66.5085031999207
20
-4.75707025296379
30
0
41
1
10
66.5025138568755
20
-4.66311083910739
30
0
41
1
10
66.4949517284404
20
-4.53653701665803
30
0
41
1
10
66.4934344128341
20
-4.51074279211753
30
0
41
1
10
66.4904001936336
20
-4.45840975992422
30
0
41
1
10
66.4858470396675
20
-4.37875303547943
30
0
41
1
10
66.4812775928712
20
-4.29563984922692
30
0
41
1
10
66.4782165205404
20
-4.23869885250932
30
0
0
SPLINE
5
EA
100
AcDbEntity
8
1
62
256
6
ByLayer
370
13
48
1
60
0
100
AcDbSpline
70
4
71
3
72
9
73
5
40
0
40
0
40
0
40
0
40
0.454624854350995
40
1
40
1
40
1
40
1
41
1.04
10
66.0526282039881
20
-3.495120114743
30
0
41
1.04
10
66.0733109759824
20
-3.84631524948565
30
0
41
1.04
10
66.1181952834879
20
-4.49048533948856
30
0
41
1.04
10
66.1623106724826
20
-4.79737923035173
30
0
41
1.04
10
66.1863304075224
20
-4.86294437566312
30
0
0
SPLINE
5
EB
100
AcDbEntity
8
1
62
256
6
ByLayer
370
18
48
1
60
0
100
AcDbSpline
70
4
71
3
72
8
73
4
40
0
40
0
40
0
40
0
40
1
40
1
40
1
40
1
41
1.04
10
66.1863303165672
20
-4.86294412738785
30
0
41
1.04
10
66.1877686812445
20
-4.8668703554747
30
0
41
1.04
10
66.1892069035536
20
-4.87043151041932
30
0
41
1.04
10
66.1906450240795
20
-4.87362727232498
30
0
0
SPLINE
5
EC
100
AcDbEntity
8
1
62
256
6
ByLayer
370
18
48
1
60
0
100
AcDbSpline
70
4
71
3
72
8
73
4
40
0
40
0
40
0
40
0
40
1
40
1
40
1
40
1
41
1.04
10
64.2889485929564
20
4.88229780709192
30
0
41
1.04
10
64.2925364764006
20
4.88898634253503
30
0
41
1.04
10
64.2961382404311
20
4.89338097864336
30
0
41
1.04
10
64.299754886056
20
4.8954159372199
30
0
0
SPLINE
5
ED
100
AcDbEntity
8
1
62
256
6
ByLayer
370
13
48
1
60
0
100
AcDbSpline
70
4
71
3
72
9
73
5
40
0
40
0
40
0
40
0
40
0.28657347228984
40
1
40
1
40
1
40
1
41
1.04
10
64.2997545865116
20
4.89541576867143
30
0
41
1.04
10
64.3112953845155
20
4.90190978476255
30
0
41
1.04
10
64.3520958514934
20
4.84072586393052
30
0
41
1.04
10
64.3951375446723
20
4.46093930268859
30
0
41
1.04
10
64.4270175622924
20
4.02217015910334
30
0
0
SPLINE
5
EE
100
AcDbEntity
8
1
62
256
6
ByLayer
370
18
48
1
60
0
100
AcDbSpline
70
4
71
3
72
29
73
25
40
0
40
0
40
0
40
0
40
0.127636250259765
40
0.127636250259765
40
0.25527250051953
40
0.25527250051953
40
0.382908750779295
40
0.382908750779295
40
0.414817813344236
40
0.414817813344236
40
0.446726875909177
40
0.446726875909177
40
0.510545001039059
40
0.510545001039059
40
0.638181251298823
40
0.638181251298823
40
0.765817501558588
40
0.765817501558588
40
0.893453751818352
40
0.893453751818352
40
0.925362814383293
40
0.925362814383293
40
0.957271876948233
40
1
40
1
40
1
40
1
41
1
10
64.8623585512839
20
4.20576587930645
30
0
41
1
10
64.8562024452214
20
4.32076424701992
30
0
41
1
10
64.8501866476949
20
4.428916076261
30
0
41
1
10
64.8381891072736
20
4.63191554920903
30
0
41
1
10
64.83221826049
20
4.72676253877805
30
0
41
1
10
64.8202095135016
20
4.90319681182683
30
0
41
1
10
64.8141707165741
20
4.98478459333418
30
0
41
1
10
64.8065036351013
20
5.07829881580673
30
0
41
1
10
64.8049643301313
20
5.09657727308289
30
0
41
1
10
64.8018722724193
20
5.13227726841035
30
0
41
1
10
64.8003183663087
20
5.14971130452642
30
0
41
1
10
64.7956417919798
20
5.20063095538367
30
0
41
1
10
64.7925187219818
20
5.23257921052328
30
0
41
1
10
64.7831218918651
20
5.32254832609289
30
0
41
1
10
64.7768176941036
20
5.3747059197639
30
0
41
1
10
64.7641280931283
20
5.463694478973
30
0
41
1
10
64.757741548574
20
5.50052498664968
30
0
41
1
10
64.7449871080279
20
5.55878206922245
30
0
41
1
10
64.7386413867285
20
5.5802099042302
30
0
41
1
10
64.7307343624238
20
5.59706757702187
30
0
41
1
10
64.7291525899425
20
5.5999428643311
30
0
41
1
10
64.726000485415
20
5.60467281124534
30
0
41
1
10
64.7223249680579
20
5.60901758573095
30
0
41
1
10
64.7186712338492
20
5.6105974407609
30
0
41
1
10
64.7165849028282
20
5.61059713795854
30
0
0
SPLINE
5
EF
100
AcDbEntity
8
1
62
256
6
ByLayer
370
18
48
1
60
0
100
AcDbSpline
70
4
71
3
72
25
73
21
40
0
40
0
40
0
40
0
40
0.0579375351566687
40
0.0579375351566687
40
0.192517887277145
40
0.327098239397621
40
0.327098239397621
40
0.394388415457859
40
0.394388415457859
40
0.461678591518096
40
0.461678591518096
40
0.596258943638572
40
0.730839295759048
40
0.730839295759048
40
0.865419647879523
40
0.865419647879523
40
0.899064735909643
40
0.899064735909643
40
0.932709823939762
40
1
40
1
40
1
40
1
41
1
10
64.8545202177943
20
5.59946078099594
30
0
41
1
10
64.8572228757067
20
5.5947786967879
30
0
41
1
10
64.8599214111865
20
5.58863024850965
30
0
41
1
10
64.8688867605249
20
5.56338982496533
30
0
41
1
10
64.8814153905472
20
5.51247714570329
30
0
41
1
10
64.8939429112256
20
5.43044575548515
30
0
41
1
10
64.9032943539585
20
5.35699920682438
30
0
41
1
10
64.9064030808646
20
5.33051623500381
30
0
41
1
10
64.9125968883062
20
5.27352917064485
30
0
41
1
10
64.9156633766237
20
5.24323117882835
30
0
41
1
10
64.9248181544477
20
5.14703268465303
30
0
41
1
10
64.9369116245885
20
5.00464550305136
30
0
41
1
10
64.9491182472619
20
4.83459818727547
30
0
41
1
10
64.9614731980021
20
4.65065870056418
30
0
41
1
10
64.9677242719906
20
4.55174393353821
30
0
41
1
10
64.9756505140725
20
4.41915274738901
30
0
41
1
10
64.9772426605202
20
4.39216176778802
30
0
41
1
10
64.9804277423428
20
4.33745011969359
30
0
41
1
10
64.9852084372018
20
4.25425773657045
30
0
41
1
10
64.98999740157
20
4.16770424547295
30
0
41
1
10
64.9931918896103
20
4.10851105423146
30
0
0
SPLINE
5
F0
100
AcDbEntity
8
1
62
256
6
ByLayer
370
13
48
1
60
0
100
AcDbSpline
70
4
71
3
72
9
73
5
40
0
40
0
40
0
40
0
40
0.292953124142374
40
1
40
1
40
1
40
1
41
1
10
65.2787530605398
20
4.86149686280044
30
0
41
1
10
65.2918649446995
20
4.82414041760205
30
0
41
1
10
65.3369994909698
20
4.59121224516133
30
0
41
1
10
65.3832768803738
20
3.98800260531237
30
0
41
1
10
65.4169352702535
20
3.40337830167627
30
0
0
SPLINE
5
F1
100
AcDbEntity
8
1
62
256
6
ByLayer
370
18
48
1
60
0
100
AcDbSpline
70
4
71
3
72
10
73
6
40
0
40
0
40
0
40
0
40
0.762630804398975
40
0.762630804398975
40
1
40
1
40
1
40
1
41
1
10
37.1210670088031
20
3.2164574786737
30
0
41
1
10
36.9429520150324
20
3.1470631032831
30
0
41
1
10
36.7615378495452
20
3.07771195019799
30
0
41
1
10
36.5180159458011
20
2.99064740347046
30
0
41
1
10
36.4598001365525
20
2.97026006052641
30
0
41
1
10
36.4011310594163
20
2.95025990485539
30
0
0
SPLINE
5
F2
100
AcDbEntity
8
1
62
256
6
ByLayer
370
18
48
1
60
0
100
AcDbSpline
70
4
71
3
72
12
73
8
40
0
40
0
40
0
40
0
40
0.0566035394460449
40
0.0566035394460449
40
0.528301769723022
40
0.528301769723022
40
1
40
1
40
1
40
1
41
1
10
33.0567513243142
20
3.95199992948088
30
0
41
1
10
33.0736876454547
20
3.95198837642315
30
0
41
1
10
33.0906635357283
20
3.95183696445943
30
0
41
1
10
33.2494405067251
20
3.94914202285617
30
0
41
1
10
33.3937156804474
20
3.93724292187306
30
0
41
1
10
33.6854741888998
20
3.89587944527108
30
0
41
1
10
33.8329753018959
20
3.86638840824099
30
0
41
1
10
33.9818665790326
20
3.82825552099783
30
0
0
SPLINE
5
F3
100
AcDbEntity
8
1
62
256
6
ByLayer
370
13
48
1
60
0
100
AcDbSpline
70
4
71
3
72
9
73
5
40
0
40
0
40
0
40
0
40
0.539780545054731
40
1
40
1
40
1
40
1
41
1
10
65.7197453439238
20
-3.261734107508
30
0
41
1
10
65.7451823887416
20
-3.72093928187968
30
0
41
1
10
65.7914670988924
20
-4.41682885795112
30
0
41
1
10
65.8369369793697
20
-4.75491547317353
30
0
41
1
10
65.8578144147986
20
-4.83380346376089
30
0
0
SPLINE
5
F4
100
AcDbEntity
8
1
62
256
6
ByLayer
370
18
48
1
60
0
100
AcDbSpline
70
4
71
3
72
25
73
21
40
0
40
0
40
0
40
0
40
0.125
40
0.25
40
0.375
40
0.375
40
0.4375
40
0.4375
40
0.5
40
0.5
40
0.625
40
0.625
40
0.749999999999999
40
0.749999999999999
40
0.874999999999999
40
0.874999999999999
40
0.906249999999999
40
0.906249999999999
40
0.9375
40
1
40
1
40
1
40
1
41
1
10
65.2844719642084
20
-3.26214399307017
30
0
41
1
10
65.2906038857171
20
-3.40363230244259
30
0
41
1
10
65.3028196194004
20
-3.67520949228509
30
0
41
1
10
65.3213373711878
20
-4.04936176827971
30
0
41
1
10
65.3339621728451
20
-4.27673862478943
30
0
41
1
10
65.3435559242975
20
-4.43882031666863
30
0
41
1
10
65.346775852602
20
-4.49146243473129
30
0
41
1
10
65.3532472786949
20
-4.59376110327733
30
0
41
1
10
65.3564764393291
20
-4.6430664753957
30
0
41
1
10
65.3661328511399
20
-4.78556148999968
30
0
41
1
10
65.3725314219466
20
-4.87334150756649
30
0
41
1
10
65.3851338907164
20
-5.03476510427103
30
0
41
1
10
65.3913119019595
20
-5.10840853453033
30
0
41
1
10
65.4035334522214
20
-5.2414872461996
30
0
41
1
10
65.4095846241492
20
-5.30092347813292
30
0
41
1
10
65.4171762641618
20
-5.36606285708848
30
0
41
1
10
65.4186972392276
20
-5.37864152071091
30
0
41
1
10
65.4217343611036
20
-5.4027921523089
30
0
41
1
10
65.4262851249962
20
-5.43753031523667
30
0
41
1
10
65.4308320623174
20
-5.46782286481644
30
0
41
1
10
65.4338704431775
20
-5.48604582980516
30
0
0
SPLINE
5
F5
100
AcDbEntity
8
1
62
256
6
ByLayer
370
18
48
1
60
0
100
AcDbSpline
70
4
71
3
72
27
73
23
40
0
40
0
40
0
40
0
40
0.125
40
0.125
40
0.250000000000001
40
0.250000000000001
40
0.375000000000001
40
0.375000000000001
40
0.437500000000001
40
0.437500000000001
40
0.500000000000001
40
0.500000000000001
40
0.625000000000001
40
0.625000000000001
40
0.750000000000001
40
0.750000000000001
40
0.875000000000001
40
0.875000000000001
40
0.906250000000001
40
0.906250000000001
40
0.937500000000001
40
1
40
1
40
1
40
1
41
1
10
65.3041025966583
20
-5.45414351861578
30
0
41
1
10
65.2979873402092
20
-5.41337250129288
30
0
41
1
10
65.2919633278602
20
-5.36505272998812
30
0
41
1
10
65.2799456848588
20
-5.25375591673304
30
0
41
1
10
65.2739262494553
20
-5.19077807140025
30
0
41
1
10
65.2616100923473
20
-5.05022445232876
30
0
41
1
10
65.2553153543299
20
-4.97264933914801
30
0
41
1
10
65.2456825781165
20
-4.84510089436449
30
0
41
1
10
65.242439843043
20
-4.80068922711044
30
0
41
1
10
65.2359282667905
20
-4.70816948351833
30
0
41
1
10
65.2326812972842
20
-4.66037210108445
30
0
41
1
10
65.2230258547769
20
-4.5124580227878
30
0
41
1
10
65.2167532846453
20
-4.40782782035123
30
0
41
1
10
65.2044146589701
20
-4.18677205609822
30
0
41
1
10
65.1983246185534
20
-4.07034662919116
30
0
41
1
10
65.1860996280771
20
-3.82564756713654
30
0
41
1
10
65.1799650915085
20
-3.69737485655148
30
0
41
1
10
65.1721883433477
20
-3.52940237210623
30
0
41
1
10
65.1706264400313
20
-3.49539690219601
30
0
41
1
10
65.1675014461054
20
-3.426848652643
30
0
41
1
10
65.162809590351
20
-3.3231642217857
30
0
41
1
10
65.1580999349344
20
-3.21690476700044
30
0
41
1
10
65.1549500643256
20
-3.14492354084797
30
0
0
SPLINE
5
F6
100
AcDbEntity
8
1
62
256
6
ByLayer
370
13
48
1
60
0
100
AcDbSpline
70
4
71
3
72
9
73
5
40
0
40
0
40
0
40
0
40
0.583740725967001
40
1
40
1
40
1
40
1
41
1.04
10
64.7298942132181
20
-2.49372384824547
30
0
41
1.04
10
64.7574862538582
20
-3.06780103618347
30
0
41
1.04
10
64.8039895454639
20
-3.91818912781198
30
0
41
1.04
10
64.849418653522
20
-4.43745132484407
30
0
41
1.04
10
64.8678143629165
20
-4.59241336033011
30
0
0
SPLINE
5
F7
100
AcDbEntity
8
1
62
256
6
ByLayer
370
13
48
1
60
0
100
AcDbSpline
70
4
71
3
72
9
73
5
40
0
40
0
40
0
40
0
40
0.191769081376963
40
1
40
1
40
1
40
1
41
1.04
10
65.6115874941655
20
4.81331969388735
30
0
41
1.04
10
65.6201674112178
20
4.77542405398723
30
0
41
1.04
10
65.6651425043454
20
4.50894100607296
30
0
41
1.04
10
65.7112465086322
20
3.8764763074767
30
0
41
1.04
10
65.7497845317812
20
3.16546006944075
30
0
0
SPLINE
5
F8
100
AcDbEntity
8
1
62
256
6
ByLayer
370
13
48
1
60
0
100
AcDbSpline
70
4
71
3
72
10
73
6
40
0
40
0
40
0
40
0
40
0.144471090502279
40
0.600746499605458
40
1
40
1
40
1
40
1
41
1
10
66.6015205687837
20
4.54780398983075
30
0
41
1
10
66.6079356274279
20
4.49013383267365
30
0
41
1
10
66.6349066859056
20
4.21870710430966
30
0
41
1
10
66.6820504628136
20
3.53894978340682
30
0
41
1
10
66.7214975797977
20
2.76576319109879
30
0
41
1
10
66.7397126866886
20
2.37978364098407
30
0
0
SPLINE
5
F9
100
AcDbEntity
8
1
62
256
6
ByLayer
370
18
48
1
60
0
100
AcDbSpline
70
4
71
3
72
27
73
23
40
0
40
0
40
0
40
0
40
0.125000000000001
40
0.125000000000001
40
0.250000000000002
40
0.375000000000003
40
0.375000000000003
40
0.406250000000003
40
0.406250000000003
40
0.437500000000003
40
0.437500000000003
40
0.500000000000003
40
0.500000000000003
40
0.625000000000003
40
0.750000000000002
40
0.750000000000002
40
0.875000000000001
40
0.875000000000001
40
0.906250000000001
40
0.906250000000001
40
0.937500000000001
40
1
40
1
40
1
40
1
41
1
10
66.1860279318398
20
3.10403128666041
30
0
41
1
10
66.1796513536287
20
3.24880651325495
30
0
41
1
10
66.1733391651463
20
3.38809941709005
30
0
41
1
10
66.1609331950444
20
3.65603987437925
30
0
41
1
10
66.148695231651
20
3.91333188978785
30
0
41
1
10
66.1365304086732
20
4.14939781654857
30
0
41
1
10
66.1288651072628
20
4.29015833847319
30
0
41
1
10
66.1273289641546
20
4.31797070628369
30
0
41
1
10
66.1242484956465
20
4.37290942369532
30
0
41
1
10
66.1227031186255
20
4.40005390629571
30
0
41
1
10
66.11805865704
20
4.480328181635
30
0
41
1
10
66.1149665414392
20
4.53203565239761
30
0
41
1
10
66.1056834544056
20
4.68183939279825
30
0
41
1
10
66.0932843295654
20
4.86741696204049
30
0
41
1
10
66.0807179464689
20
5.02524568533551
30
0
41
1
10
66.0680695892144
20
5.16913031863925
30
0
41
1
10
66.0617039425028
20
5.23410191051386
30
0
41
1
10
66.0537474743767
20
5.30633206067364
30
0
41
1
10
66.05215519128
20
5.3203380017072
30
0
41
1
10
66.0489844613755
20
5.34734714863669
30
0
41
1
10
66.0442475642753
20
5.38638564690226
30
0
41
1
10
66.0395569690307
20
5.42101703088386
30
0
41
1
10
66.03643980232
20
5.4421504905367
30
0
0
SPLINE
5
FA
100
AcDbEntity
8
1
62
256
6
ByLayer
370
18
48
1
60
0
100
AcDbSpline
70
4
71
3
72
27
73
23
40
0
40
0
40
0
40
0
40
0.125
40
0.125
40
0.25
40
0.25
40
0.374999999999999
40
0.374999999999999
40
0.4375
40
0.4375
40
0.5
40
0.5
40
0.624999999999999
40
0.624999999999999
40
0.749999999999999
40
0.749999999999999
40
0.874999999999999
40
0.874999999999999
40
0.906249999999999
40
0.906249999999999
40
0.937499999999999
40
1
40
1
40
1
40
1
41
1
10
66.1671091102903
20
5.40507112657147
30
0
41
1
10
66.1734283669152
20
5.3584660642862
30
0
41
1
10
66.1796586036959
20
5.30443243802137
30
0
41
1
10
66.191939217694
20
5.1819414764619
30
0
41
1
10
66.1979885653769
20
5.11348306019534
30
0
41
1
10
66.2099544168141
20
4.96219761279502
30
0
41
1
10
66.2158435547791
20
4.87937045993033
30
0
41
1
10
66.22491559284
20
4.7441262936222
30
0
41
1
10
66.2279807123213
20
4.69719004886022
30
0
41
1
10
66.2342207325148
20
4.59964244569053
30
0
41
1
10
66.2373732386337
20
4.54938204677151
30
0
41
1
10
66.2469339806734
20
4.39423102725155
30
0
41
1
10
66.2534573747871
20
4.28498020800836
30
0
41
1
10
66.2665339271051
20
4.05507984252023
30
0
41
1
10
66.2730482887586
20
3.93442899178066
30
0
41
1
10
66.285636559749
20
3.68166093022569
30
0
41
1
10
66.2917734177389
20
3.54954603508213
30
0
41
1
10
66.2994034238581
20
3.37702172245847
30
0
41
1
10
66.3009286985777
20
3.34211585032628
30
0
41
1
10
66.3039692122435
20
3.27178275868201
30
0
41
1
10
66.3085167425795
20
3.16546106237894
30
0
41
1
10
66.3130416775994
20
3.05668355128643
30
0
41
1
10
66.3160619064366
20
2.98307629070231
30
0
0
SPLINE
5
FB
100
AcDbEntity
8
1
62
256
6
ByLayer
370
18
48
1
60
0
100
AcDbSpline
70
4
71
3
72
10
73
6
40
0
40
0
40
0
40
0
40
0.0770565016670886
40
0.511888746740221
40
1
40
1
40
1
40
1
41
1
10
72.59
20
0.0126696279017722
30
0
41
1
10
72.59
20
-0.0551624378699671
30
0
41
1
10
72.59
20
-0.506447526947568
30
0
41
1
10
72.5900000000003
20
-1.39025405462971
30
0
41
1
10
72.5899999999999
20
-2.13278946709806
30
0
41
1
10
72.5899999999999
20
-2.4862351471937
30
0
0
SPLINE
5
FC
100
AcDbEntity
8
1
62
256
6
ByLayer
370
13
48
1
60
0
100
AcDbSpline
70
4
71
3
72
8
73
4
40
0
40
0
40
0
40
0
40
1
40
1
40
1
40
1
41
1.04
10
71.0112681835901
20
-0.948995878189534
30
0
41
1.04
10
71.0210875004599
20
-1.18222296466981
30
0
41
1.04
10
71.0309245529818
20
-1.41250239825991
30
0
41
1.04
10
71.0407799005364
20
-1.63739285135386
30
0
0
SPLINE
5
FD
100
AcDbEntity
8
1
62
256
6
ByLayer
370
18
48
1
60
0
100
AcDbSpline
70
4
71
3
72
22
73
18
40
0
40
0
40
0
40
0
40
0.125
40
0.125
40
0.1875
40
0.1875
40
0.25
40
0.25
40
0.5
40
0.5
40
0.625000000000001
40
0.625000000000001
40
0.687500000000001
40
0.687500000000001
40
0.75
40
0.75
40
1
40
1
40
1
40
1
41
1
10
71.0112681835901
20
-0.948995878189891
30
0
41
1
10
71.006238515286
20
-0.840150754724192
30
0
41
1
10
71.0011990343845
20
-0.730744615819901
30
0
41
1
10
70.9936203980561
20
-0.56579407357836
30
0
41
1
10
70.9910931531703
20
-0.510718102678339
30
0
41
1
10
70.9860523724838
20
-0.400742957912996
30
0
41
1
10
70.9835364460891
20
-0.345791774357565
30
0
41
1
10
70.9709771242339
20
-0.071216507581795
30
0
41
1
10
70.9609587078263
20
0.147865140154579
30
0
41
1
10
70.9461301573692
20
0.475625048042502
30
0
41
1
10
70.9412406289439
20
0.584735880187168
30
0
41
1
10
70.9339087194514
20
0.748183893851035
30
0
41
1
10
70.9314652054133
20
0.802630150494593
30
0
41
1
10
70.9265671927254
20
0.911448564226021
30
0
41
1
10
70.9241137549239
20
0.965795968136291
30
0
41
1
10
70.9118657395224
20
1.23572225303261
30
0
41
1
10
70.9020419149838
20
1.44718595156289
30
0
41
1
10
70.8920234027487
20
1.6541513818201
30
0
0
SPLINE
5
FE
100
AcDbEntity
8
1
62
256
6
ByLayer
370
18
48
1
60
0
100
AcDbSpline
70
4
71
3
72
8
73
4
40
0
40
0
40
0
40
0
40
1
40
1
40
1
40
1
41
1
10
71.0436632437044
20
-1.64267031514174
30
0
41
1
10
71.0329662830189
20
-1.41646746897894
30
0
41
1
10
71.0221850634466
20
-1.18524388978824
30
0
41
1
10
71.0112681835901
20
-0.948995878189521
30
0
0
SPLINE
5
FF
100
AcDbEntity
8
1
62
256
6
ByLayer
370
18
48
1
60
0
100
AcDbSpline
70
4
71
3
72
11
73
7
40
0
40
0
40
0
40
0
40
0.0353607908659337
40
0.53326546078177
40
0.95702353380003
40
1
40
1
40
1
40
1
41
1
10
71.9899783375731
20
-2.39873183576515
30
0
41
1
10
71.9899785912746
20
-2.36703387898814
30
0
41
1
10
71.9899795408493
20
-1.88580061463762
30
0
41
1
10
71.9898892434206
20
-0.9378912476202
30
0
41
1
10
71.9899377150912
20
0.0685848253189079
30
0
41
1
10
71.9899382301718
20
0.544536953760911
30
0
41
1
10
71.9899381253404
20
0.588252770836306
30
0
0
SPLINE
5
100
100
AcDbEntity
8
1
62
256
6
ByLayer
370
18
48
1
60
0
100
AcDbSpline
70
4
71
3
72
24
73
20
40
0
40
0
40
0
40
0
40
0.0624999999999998
40
0.0624999999999998
40
0.125
40
0.125
40
0.249999999999999
40
0.249999999999999
40
0.374999999999999
40
0.499999999999998
40
0.499999999999998
40
0.562499999999998
40
0.562499999999998
40
0.624999999999998
40
0.624999999999998
40
0.749999999999999
40
0.875
40
0.875
40
1
40
1
40
1
40
1
41
1
10
57.8379613368148
20
3.54279203618916
30
0
41
1
10
57.8405515085717
20
3.49659099256178
30
0
41
1
10
57.8431613012899
20
3.44916944926516
30
0
41
1
10
57.8483806658829
20
3.35205487308363
30
0
41
1
10
57.8509752169472
20
3.30264083320898
30
0
41
1
10
57.8586627013769
20
3.15187039431393
30
0
41
1
10
57.8636610701444
20
3.04799041627035
30
0
41
1
10
57.8730814613917
20
2.83359982697047
30
0
41
1
10
57.8819317578689
20
2.61257813971849
30
0
41
1
10
57.8906578831365
20
2.3783973366202
30
0
41
1
10
57.8974041774226
20
2.19774690202581
30
0
41
1
10
57.8996861462164
20
2.13666777395636
30
0
41
1
10
57.9043366422941
20
2.01290961306523
30
0
41
1
10
57.9066900555671
20
1.95063354308641
30
0
41
1
10
57.9138533491533
20
1.76263888481637
30
0
41
1
10
57.9236880821909
20
1.50887370943957
30
0
41
1
10
57.9340488512279
20
1.24903459153538
30
0
41
1
10
57.9444856214587
20
0.986149686549766
30
0
41
1
10
57.9497220464138
20
0.85318298375779
30
0
41
1
10
57.9548594196115
20
0.718652959103707
30
0
0
SPLINE
5
101
100
AcDbEntity
8
1
62
256
6
ByLayer
370
13
48
1
60
0
100
AcDbSpline
70
4
71
3
72
8
73
4
40
0
40
0
40
0
40
0
40
1
40
1
40
1
40
1
41
1.04
10
58.2519204690113
20
0.480649185383169
30
0
41
1.04
10
58.2526490164479
20
0.463148120521923
30
0
41
1.04
10
58.253376965534
20
0.44565328954793
30
0
41
1.04
10
58.2541043208802
20
0.428165408630358
30
0
0
SPLINE
5
102
100
AcDbEntity
8
1
62
256
6
ByLayer
370
13
48
1
60
0
100
AcDbSpline
70
4
71
3
72
10
73
6
40
0
40
0
40
0
40
0
40
0.0612406903640159
40
0.493441619905509
40
1
40
1
40
1
40
1
41
1
10
70.5695318221428
20
1.94976303870141
30
0
41
1
10
70.5722833885729
20
1.88868279182728
30
0
41
1
10
70.5945164189515
20
1.39059982137266
30
0
41
1
10
70.6406434265809
20
0.287213874470496
30
0
41
1
10
70.6842767578386
20
-0.779858894262844
30
0
41
1
10
70.707925681491
20
-1.33086444454227
30
0
0
SPLINE
5
103
100
AcDbEntity
8
1
62
256
6
ByLayer
370
13
48
1
60
0
100
AcDbSpline
70
4
71
3
72
9
73
5
40
0
40
0
40
0
40
0
40
0.685036593672366
40
1
40
1
40
1
40
1
41
1
10
64.3970449992438
20
-2.21226178997435
30
0
41
1
10
64.4293996000223
20
-2.90985496900453
30
0
41
1
10
64.4757177475938
20
-3.78497535735517
30
0
41
1
10
64.5209750091672
20
-4.33254027223353
30
0
41
1
10
64.5349844966773
20
-4.47092070421439
30
0
0
SPLINE
5
104
100
AcDbEntity
8
1
62
256
6
ByLayer
370
18
48
1
60
0
100
AcDbSpline
70
4
71
3
72
26
73
22
40
0
40
0
40
0
40
0
40
0.0625
40
0.0937499999999999
40
0.0937499999999999
40
0.125
40
0.125
40
0.25
40
0.25
40
0.374999999999999
40
0.499999999999999
40
0.499999999999999
40
0.562499999999999
40
0.562499999999999
40
0.624999999999999
40
0.624999999999999
40
0.749999999999999
40
0.749999999999999
40
0.875
40
0.875
40
1
40
1
40
1
40
1
41
1
10
58.2519204690114
20
0.480649185381651
30
0
41
1
10
58.2488325756808
20
0.549213747581803
30
0
41
1
10
58.2442277880393
20
0.651752720600911
30
0
41
1
10
58.2396647936936
20
0.753830883037637
30
0
41
1
10
58.2366319503261
20
0.821780424602849
30
0
41
1
10
58.2351192030981
20
0.855724482629341
30
0
41
1
10
58.2275954941875
20
1.02478837184336
30
0
41
1
10
58.2216895229243
20
1.15813336348364
30
0
41
1
10
58.2097977333885
20
1.42108075817433
30
0
41
1
10
58.1978283074025
20
1.68028536806415
30
0
41
1
10
58.185362096494
20
1.93200957327494
30
0
41
1
10
58.1757810325205
20
2.11794754535518
30
0
41
1
10
58.1725496082412
20
2.17945045606996
30
0
41
1
10
58.1660150138448
20
2.30148818462547
30
0
41
1
10
58.1627273808748
20
2.36173065107363
30
0
41
1
10
58.1528507394623
20
2.53970023195512
30
0
41
1
10
58.1462319639688
20
2.65487730985578
30
0
41
1
10
58.1331580882221
20
2.87844578559927
30
0
41
1
10
58.1267369232974
20
2.98684107659727
30
0
41
1
10
58.1142740182583
20
3.19684914770647
30
0
41
1
10
58.108181974546
20
3.29845609413982
30
0
41
1
10
58.1020827616282
20
3.39656431684898
30
0
0
SPLINE
5
105
100
AcDbEntity
8
1
62
256
6
ByLayer
370
18
48
1
60
0
100
AcDbSpline
70
4
71
3
72
8
73
4
40
0
40
0
40
0
40
0
40
1
40
1
40
1
40
1
41
1
10
58.2542967513865
20
0.427933032125082
30
0
41
1
10
58.2535038259646
20
0.445507732742811
30
0
41
1
10
58.252711729541
20
0.463079785796424
30
0
41
1
10
58.2519204690114
20
0.480649185381054
30
0
0
SPLINE
5
106
100
AcDbEntity
8
1
62
256
6
ByLayer
370
13
48
1
60
0
100
AcDbSpline
70
4
71
3
72
9
73
5
40
0
40
0
40
0
40
0
40
0.582173210858708
40
1
40
1
40
1
40
1
41
1
10
59.1063978281719
20
2.65569168569294
30
0
41
1
10
59.1332313751331
20
2.10911778493519
30
0
41
1
10
59.1791834595037
20
1.05329078537301
30
0
41
1
10
59.2249009924129
20
-0.0649682384949415
30
0
41
1
10
59.2440711698843
20
-0.526694711935619
30
0
0
SPLINE
5
107
100
AcDbEntity
8
1
62
256
6
ByLayer
370
18
48
1
60
0
100
AcDbSpline
70
4
71
3
72
26
73
22
40
0
40
0
40
0
40
0
40
0.125000000000001
40
0.125000000000001
40
0.187500000000002
40
0.187500000000002
40
0.218750000000002
40
0.218750000000002
40
0.250000000000002
40
0.375000000000002
40
0.500000000000002
40
0.500000000000002
40
0.625000000000002
40
0.625000000000002
40
0.687500000000002
40
0.687500000000002
40
0.718750000000002
40
0.718750000000002
40
0.750000000000002
40
0.875000000000001
40
1
40
1
40
1
40
1
41
1
10
59.037964919644
20
2.79073409445283
30
0
41
1
10
59.0431731953863
20
2.671913910135
30
0
41
1
10
59.0484260022239
20
2.54951289482116
30
0
41
1
10
59.0564400628859
20
2.36045408569834
30
0
41
1
10
59.059133537115
20
2.29652363731429
30
0
41
1
10
59.0632121459619
20
2.19923859174301
30
0
41
1
10
59.0645797474079
20
2.16653805774138
30
0
41
1
10
59.0673183934871
20
2.10090595393825
30
0
41
1
10
59.0741723911016
20
1.9362650411629
30
0
41
1
10
59.0865907107879
20
1.6349323996086
30
0
41
1
10
59.0976975889722
20
1.36017225394139
30
0
41
1
10
59.1087616264613
20
1.08196115275061
30
0
41
1
10
59.1142683042473
20
0.941129947373469
30
0
41
1
10
59.1224116021332
20
0.727237286859236
30
0
41
1
10
59.1251104745535
20
0.655498439691456
30
0
41
1
10
59.1291481497291
20
0.547216945897361
30
0
41
1
10
59.1304919792812
20
0.511018173740297
30
0
41
1
10
59.1331650135161
20
0.438751530946121
30
0
41
1
10
59.1398190260093
20
0.258190882103719
30
0
41
1
10
59.1515926060678
20
-0.0658750183355892
30
0
41
1
10
59.1620011870731
20
-0.352615819850854
30
0
41
1
10
59.1672359404521
20
-0.495655704541349
30
0
0
SPLINE
5
108
100
AcDbEntity
8
1
62
256
6
ByLayer
370
18
48
1
60
0
100
AcDbSpline
70
4
71
3
72
25
73
21
40
0
40
0
40
0
40
0
40
0.125
40
0.125
40
0.25
40
0.375000000000001
40
0.375000000000001
40
0.437500000000001
40
0.437500000000001
40
0.500000000000001
40
0.500000000000001
40
0.625000000000001
40
0.750000000000001
40
0.750000000000001
40
0.875000000000001
40
0.875000000000001
40
0.906250000000001
40
0.906250000000001
40
0.937500000000001
40
1
40
1
40
1
40
1
41
1
10
63.9623751933247
20
-1.97622206326113
30
0
41
1
10
63.9686926943695
20
-2.13883371848166
30
0
41
1
10
63.9748854006517
20
-2.2974549385888
30
0
41
1
10
63.987185361589
20
-2.60694320787294
30
0
41
1
10
63.9994002374083
20
-2.90867589566395
30
0
41
1
10
64.0117188251103
20
-3.19495065629363
30
0
41
1
10
64.0210685481628
20
-3.40373195674442
30
0
41
1
10
64.0242047858009
20
-3.47236989433978
30
0
41
1
10
64.0305141765064
20
-3.60749025328755
30
0
41
1
10
64.0336655321205
20
-3.67350674212741
30
0
41
1
10
64.0431124065217
20
-3.86701763283335
30
0
41
1
10
64.0556937031316
20
-4.11294874813115
30
0
41
1
10
64.0681610891579
20
-4.33520872781162
30
0
41
1
10
64.0804446330189
20
-4.54557880467854
30
0
41
1
10
64.0864429893738
20
-4.64482075346695
30
0
41
1
10
64.0939509236699
20
-4.76120990764429
30
0
41
1
10
64.095455579793
20
-4.78412256750687
30
0
41
1
10
64.0984647010639
20
-4.82902565229466
30
0
41
1
10
64.1029799543145
20
-4.89503105785718
30
0
41
1
10
64.1075248268046
20
-4.95700462330745
30
0
41
1
10
64.1105834814543
20
-4.99653174898813
30
0
0
SPLINE
5
109
100
AcDbEntity
8
1
62
256
6
ByLayer
370
18
48
1
60
0
100
AcDbSpline
70
4
71
3
72
27
73
23
40
0
40
0
40
0
40
0
40
0.125
40
0.125
40
0.25
40
0.25
40
0.375
40
0.375
40
0.4375
40
0.4375
40
0.5
40
0.5
40
0.625
40
0.625
40
0.75
40
0.75
40
0.875
40
0.875
40
0.90625
40
0.90625
40
0.9375
40
1
40
1
40
1
40
1
41
1
10
63.9811382387143
20
-4.92970094371432
30
0
41
1
10
63.9748769050699
20
-4.84669848891016
30
0
41
1
10
63.9687060254072
20
-4.75720282442657
30
0
41
1
10
63.9564832550954
20
-4.56560310485585
30
0
41
1
10
63.9504369007577
20
-4.4634979961314
30
0
41
1
10
63.938318915306
20
-4.24672850822921
30
0
41
1
10
63.9322375784731
20
-4.13206483438842
30
0
41
1
10
63.9229838468517
20
-3.95044759407375
30
0
41
1
10
63.9198761790387
20
-3.888263901019
30
0
41
1
10
63.9136173268735
20
-3.7607760377885
30
0
41
1
10
63.9104870980276
20
-3.69589968689507
30
0
41
1
10
63.9010885408708
20
-3.49794132436196
30
0
41
1
10
63.8948117360494
20
-3.36153706474121
30
0
41
1
10
63.8822380150809
20
-3.08004551958231
30
0
41
1
10
63.8759367351617
20
-2.93495806043157
30
0
41
1
10
63.8632663423186
20
-2.63605887318894
30
0
41
1
10
63.8568984245287
20
-2.48224778839037
30
0
41
1
10
63.8489035463381
20
-2.28436257920717
30
0
41
1
10
63.8473015674252
20
-2.24447041294965
30
0
41
1
10
63.8441055233736
20
-2.16439074033082
30
0
41
1
10
63.8393206265012
20
-2.04376273962896
30
0
41
1
10
63.8345650547352
20
-1.92161567710593
30
0
41
1
10
63.8314090540646
20
-1.83951074969264
30
0
0
SPLINE
5
10A
100
AcDbEntity
8
1
62
256
6
ByLayer
370
13
48
1
60
0
100
AcDbSpline
70
4
71
3
72
10
73
6
40
0
40
0
40
0
40
0
40
0.491001150933804
40
0.964565258976587
40
1
40
1
40
1
40
1
41
1.04
10
63.4070958445473
20
-1.32187677208176
30
0
41
1.04
10
63.431267347991
20
-1.88461740145504
30
0
41
1.04
10
63.4768800957276
20
-2.8908012042135
30
0
41
1.04
10
63.5215278259969
20
-3.66623267726589
30
0
41
1.04
10
63.5436006083863
20
-3.9794556572118
30
0
41
1.04
10
63.5451341590172
20
-4.00086733050075
30
0
0
SPLINE
5
10B
100
AcDbEntity
8
1
62
256
6
ByLayer
370
13
48
1
60
0
100
AcDbSpline
70
4
71
3
72
10
73
6
40
0
40
0
40
0
40
0
40
0.0424101373669101
40
0.499199429558035
40
1
40
1
40
1
40
1
41
1.04
10
66.9342825674984
20
4.41943305800806
30
0
41
1.04
10
66.9361941138886
20
4.39943095524228
30
0
41
1.04
10
66.95877142579
20
4.15606547407727
30
0
41
1.04
10
67.0058621636058
20
3.47945771250275
30
0
41
1.04
10
67.0498485902111
20
2.59126053262431
30
0
41
1.04
10
67.0725479221045
20
2.0936321983928
30
0
0
SPLINE
5
10C
100
AcDbEntity
8
1
62
256
6
ByLayer
370
13
48
1
60
0
100
AcDbSpline
70
4
71
3
72
9
73
5
40
0
40
0
40
0
40
0
40
0.482489644300236
40
1
40
1
40
1
40
1
41
1.04
10
59.4391793334119
20
2.38107347158354
30
0
41
1.04
10
59.4614106440298
20
1.91029470356275
30
0
41
1.04
10
59.5073712242043
20
0.848497368338085
30
0
41
1.04
10
59.5530969284482
20
-0.276803274786849
30
0
41
1.04
10
59.5769053063672
20
-0.844907869724474
30
0
0
SPLINE
5
10D
100
AcDbEntity
8
1
62
256
6
ByLayer
370
18
48
1
60
0
100
AcDbSpline
70
4
71
3
72
28
73
24
40
0
40
0
40
0
40
0
40
0.125
40
0.125
40
0.25
40
0.375
40
0.375
40
0.40625
40
0.40625
40
0.4375
40
0.4375
40
0.5
40
0.5
40
0.625
40
0.625
40
0.75
40
0.75
40
0.875000000000001
40
0.875000000000001
40
0.906250000000001
40
0.906250000000001
40
0.937500000000001
40
1
40
1
40
1
40
1
41
1
10
67.5094417314148
20
1.79201403368461
30
0
41
1
10
67.503322689824
20
1.9569048844574
30
0
41
1
10
67.497172980439
20
2.11804036662082
30
0
41
1
10
67.4847201520562
20
2.43301665374136
30
0
41
1
10
67.4721150261754
20
2.74069700270326
30
0
41
1
10
67.459218012409
20
3.03384413537972
30
0
41
1
10
67.4511189697539
20
3.21242170120101
30
0
41
1
10
67.449497416374
20
3.24790477360585
30
0
41
1
10
67.4462528183727
20
3.31840164807994
30
0
41
1
10
67.444628727812
20
3.35343785811409
30
0
41
1
10
67.4397643976358
20
3.45768915594664
30
0
41
1
10
67.4365487145484
20
3.52569175408715
30
0
41
1
10
67.4270114064408
20
3.72529477544006
30
0
41
1
10
67.4207992708852
20
3.85249980553706
30
0
41
1
10
67.408834175738
20
4.0954227439403
30
0
41
1
10
67.4030566539431
20
4.21113934562757
30
0
41
1
10
67.3912796806545
20
4.43100929891278
30
0
41
1
10
67.3852805681015
20
4.53516369319144
30
0
41
1
10
67.3774829985319
20
4.6579031065402
30
0
41
1
10
67.3759082508438
20
4.68209519338589
30
0
41
1
10
67.3727418231533
20
4.7295585891066
30
0
41
1
10
67.3679642288329
20
4.79942249235012
30
0
41
1
10
67.3631084776008
20
4.86531008864048
30
0
41
1
10
67.359855336918
20
4.90747261863987
30
0
0
SPLINE
5
10E
100
AcDbEntity
8
1
62
256
6
ByLayer
370
18
48
1
60
0
100
AcDbSpline
70
4
71
3
72
26
73
22
40
0
40
0
40
0
40
0
40
0.125
40
0.125
40
0.25
40
0.25
40
0.375
40
0.375
40
0.4375
40
0.4375
40
0.5
40
0.5
40
0.625
40
0.75
40
0.75
40
0.875
40
0.875
40
0.90625
40
0.90625
40
0.9375
40
1
40
1
40
1
40
1
41
1
10
67.4883559315128
20
4.83669091116096
30
0
41
1
10
67.4945910875941
20
4.74848592898417
30
0
41
1
10
67.5009180442873
20
4.65394890381043
30
0
41
1
10
67.5137311914071
20
4.45258331704804
30
0
41
1
10
67.5202167190147
20
4.34575391069987
30
0
41
1
10
67.5331620125023
20
4.11984738147916
30
0
41
1
10
67.5396169852781
20
4.00077065768417
30
0
41
1
10
67.5490450575389
20
3.8127633265685
30
0
41
1
10
67.5521544499031
20
3.74849495699405
30
0
41
1
10
67.5583423251129
20
3.6168877833563
30
0
41
1
10
67.5613994740449
20
3.55000793221109
30
0
41
1
10
67.5705205196173
20
3.34620565084336
30
0
41
1
10
67.5825556606086
20
3.06604913560997
30
0
41
1
10
67.5947731706421
20
2.76940903941826
30
0
41
1
10
67.6071731899269
20
2.46449074738246
30
0
41
1
10
67.6134648582377
20
2.30789318524614
30
0
41
1
10
67.6214199842138
20
2.10681203023202
30
0
41
1
10
67.6230165075826
20
2.06629489750196
30
0
41
1
10
67.6262052022711
20
1.98499374338763
30
0
41
1
10
67.6309842018346
20
1.86257692961021
30
0
41
1
10
67.635739891552
20
1.7387700618558
30
0
41
1
10
67.6388862769045
20
1.65561503409677
30
0
0
SPLINE
5
10F
100
AcDbEntity
8
1
62
256
6
ByLayer
370
13
48
1
60
0
100
AcDbSpline
70
4
71
3
72
10
73
6
40
0
40
0
40
0
40
0
40
0.225289501643266
40
0.914314120190658
40
1
40
1
40
1
40
1
41
1
10
67.9241865310494
20
3.92537259366875
30
0
41
1
10
67.9345313112276
20
3.77605625973851
30
0
41
1
10
67.9766947933954
20
3.10613550237409
30
0
41
1
10
68.0230714617671
20
2.11391278112353
30
0
41
1
10
68.0584978107146
20
1.28769358837565
30
0
41
1
10
68.0624092062797
20
1.19579165952939
30
0
0
SPLINE
5
110
100
AcDbEntity
8
1
62
256
6
ByLayer
370
13
48
1
60
0
100
AcDbSpline
70
4
71
3
72
10
73
6
40
0
40
0
40
0
40
0
40
0.433996518935732
40
0.896016287617451
40
1
40
1
40
1
40
1
41
1
10
60.4290643638491
20
1.50692885960248
30
0
41
1
10
60.4492353287947
20
1.0419140626301
30
0
41
1
10
60.4905180442515
20
0.0427636363423005
30
0
41
1
10
60.5366902285502
20
-1.0770291038626
30
0
41
1
10
60.5621692642693
20
-1.65977493193023
30
0
41
1
10
60.5668301390502
20
-1.76497133637778
30
0
0
SPLINE
5
111
100
AcDbEntity
8
1
62
256
6
ByLayer
370
18
48
1
60
0
100
AcDbSpline
70
4
71
3
72
27
73
23
40
0
40
0
40
0
40
0
40
0.0312499999999996
40
0.0312499999999996
40
0.0624999999999993
40
0.0624999999999993
40
0.124999999999999
40
0.124999999999999
40
0.249999999999999
40
0.374999999999999
40
0.374999999999999
40
0.499999999999999
40
0.499999999999999
40
0.531249999999999
40
0.531249999999999
40
0.562499999999999
40
0.624999999999999
40
0.624999999999999
40
0.749999999999999
40
0.875
40
0.875
40
1
40
1
40
1
40
1
41
1
10
60.2570619369318
20
1.80995495772376
30
0
41
1
10
60.258440385329
20
1.77418727648063
30
0
41
1
10
60.2598203034163
20
1.73821412426903
30
0
41
1
10
60.262583990052
20
1.66585281606552
30
0
41
1
10
60.2639678086353
20
1.62946285905926
30
0
41
1
10
60.2681054750412
20
1.52021862169315
30
0
41
1
10
60.2708525489189
20
1.44710785036443
30
0
41
1
10
60.2790694871829
20
1.22694692226116
30
0
41
1
10
60.2899617840401
20
0.931192671477049
30
0
41
1
10
60.3008047882103
20
0.631105585430845
30
0
41
1
10
60.311643506605
20
0.328840476373358
30
0
41
1
10
60.3170593460599
20
0.176618980342312
30
0
41
1
10
60.3238310640693
20
-0.0150592196161767
30
0
41
1
10
60.3251879062633
20
-0.05351281916262
30
0
41
1
10
60.3278964194035
20
-0.130252802790267
30
0
41
1
10
60.3319523084834
20
-0.245140419626722
30
0
41
1
10
60.3360045067033
20
-0.359367760588071
30
0
41
1
10
60.3441359270797
20
-0.586955186707087
30
0
41
1
10
60.355058320249
20
-0.888095589726987
30
0
41
1
10
60.3662657218122
20
-1.18467644256449
30
0
41
1
10
60.3775257291521
20
-1.47895622158023
30
0
41
1
10
60.383160685154
20
-1.62499746557427
30
0
41
1
10
60.3887595525751
20
-1.76974613952316
30
0
0
SPLINE
5
112
100
AcDbEntity
8
1
62
256
6
ByLayer
370
18
48
1
60
0
100
AcDbSpline
70
4
71
3
72
29
73
25
40
0
40
0
40
0
40
0
40
0.0312499999999996
40
0.0312499999999996
40
0.0624999999999993
40
0.124999999999999
40
0.124999999999999
40
0.25
40
0.375
40
0.375
40
0.4375
40
0.46875
40
0.46875
40
0.5
40
0.5
40
0.625
40
0.625
40
0.75
40
0.875
40
0.875
40
0.9375
40
0.96875
40
0.96875
40
1
40
1
40
1
40
1
41
1
10
59.7025844903505
20
-1.05261976414951
30
0
41
1
10
59.7009597022072
20
-1.01589482204025
30
0
41
1
10
59.699329751099
20
-0.979033732665044
30
0
41
1
10
59.6960738865692
20
-0.905380203517808
30
0
41
1
10
59.6911901674163
20
-0.794866999911079
30
0
41
1
10
59.686303870756
20
-0.68425616665624
30
0
41
1
10
59.6765234258242
20
-0.462906381998408
30
0
41
1
10
59.6634597731424
20
-0.167432256479344
30
0
41
1
10
59.6503546109713
20
0.128716362897194
30
0
41
1
10
59.6405370775259
20
0.351084742445636
30
0
41
1
10
59.6356315371218
20
0.462333267558449
30
0
41
1
10
59.6307394187794
20
0.573680041688647
30
0
41
1
10
59.6274821871584
20
0.647933324452964
30
0
41
1
10
59.6258537296418
20
0.685114999961655
30
0
41
1
10
59.6177502373473
20
0.870502348828012
30
0
41
1
10
59.6114319378955
20
1.01676794864571
30
0
41
1
10
59.5989881794615
20
1.30532617842451
30
0
41
1
10
59.5866997067728
20
1.58990757130104
30
0
41
1
10
59.5743039027141
20
1.86656688352281
30
0
41
1
10
59.5648562985104
20
2.0710381511897
30
0
41
1
10
59.5600955116764
20
2.17251697170442
30
0
41
1
10
59.5552648608136
20
2.27284107288529
30
0
41
1
10
59.5520277447978
20
2.33946431472265
30
0
41
1
10
59.5504031913151
20
2.37259684676175
30
0
41
1
10
59.5487776190738
20
2.40544273945042
30
0
0
SPLINE
5
113
100
AcDbEntity
8
1
62
256
6
ByLayer
370
13
48
1
60
0
100
AcDbSpline
70
4
71
3
72
10
73
6
40
0
40
0
40
0
40
0
40
0.0499788811867738
40
0.473348839362381
40
1
40
1
40
1
40
1
41
1.04
10
69.5796428939956
20
2.78295982885145
30
0
41
1.04
10
69.5820295967382
20
2.73534569669146
30
0
41
1.04
10
69.6045933121162
20
2.27970467674996
30
0
41
1.04
10
69.6514557758199
20
1.23021233252446
30
0
41
1.04
10
69.6944262792489
20
0.179271636023515
30
0
41
1.04
10
69.7180362804345
20
-0.390959188034183
30
0
0
SPLINE
5
114
100
AcDbEntity
8
1
62
256
6
ByLayer
370
18
48
1
60
0
100
AcDbSpline
70
4
71
3
72
24
73
20
40
0
40
0
40
0
40
0
40
0.125000000000001
40
0.125000000000001
40
0.250000000000002
40
0.375000000000004
40
0.375000000000004
40
0.406250000000004
40
0.406250000000004
40
0.437500000000004
40
0.500000000000003
40
0.500000000000003
40
0.625000000000003
40
0.625000000000003
40
0.750000000000002
40
0.750000000000002
40
0.875000000000001
40
0.875000000000001
40
1
40
1
40
1
40
1
41
1
10
69.9258682999123
20
-0.713270700289172
30
0
41
1
10
69.9199871384673
20
-0.559100868068981
30
0
41
1
10
69.9141005817079
20
-0.404776242475407
30
0
41
1
10
69.9023069037973
20
-0.0958248262719792
30
0
41
1
10
69.8905088185229
20
0.213428804411478
30
0
41
1
10
69.8787264625142
20
0.523288197116131
30
0
41
1
10
69.8713459220604
20
0.717144901884524
30
0
41
1
10
69.8698673646572
20
0.755965148962446
30
0
41
1
10
69.8669143447664
20
0.833439289984454
30
0
41
1
10
69.8624971783991
20
0.949236467404347
30
0
41
1
10
69.8581114701194
20
1.06380221357358
30
0
41
1
10
69.8493628799563
20
1.29130836442181
30
0
41
1
10
69.8435545975566
20
1.44080752727274
30
0
41
1
10
69.8320127311905
20
1.73557750699197
30
0
41
1
10
69.8262701198884
20
1.88085130328264
30
0
41
1
10
69.8147689950878
20
2.16716386444901
30
0
41
1
10
69.8090112403726
20
2.30820312758701
30
0
41
1
10
69.7973876381036
20
2.58587995815026
30
0
41
1
10
69.7915700727839
20
2.721070913609
30
0
41
1
10
69.7857375027627
20
2.85261555163604
30
0
0
SPLINE
5
115
100
AcDbEntity
8
1
62
256
6
ByLayer
370
18
48
1
60
0
100
AcDbSpline
70
4
71
3
72
27
73
23
40
0
40
0
40
0
40
0
40
0.125
40
0.125
40
0.25
40
0.25
40
0.3125
40
0.34375
40
0.34375
40
0.375
40
0.375
40
0.5
40
0.5
40
0.625
40
0.750000000000001
40
0.750000000000001
40
0.8125
40
0.84375
40
0.84375
40
0.875
40
0.875
40
1
40
1
40
1
40
1
41
1
10
70.5190259013164
20
2.04115837182849
30
0
41
1
10
70.5245216068657
20
1.91068370656927
30
0
41
1
10
70.5299836610218
20
1.77812114945286
30
0
41
1
10
70.5409004507582
20
1.50889862493793
30
0
41
1
10
70.5463710226861
20
1.37224141488181
30
0
41
1
10
70.5546710772819
20
1.16416103375377
30
0
41
1
10
70.5588433535063
20
1.0593457016569
30
0
41
1
10
70.5630525417573
20
0.953348606836386
30
0
41
1
10
70.5658665895495
20
0.882418089395742
30
0
41
1
10
70.5672793195366
20
0.846776653491759
30
0
41
1
10
70.5743379647816
20
0.668496302113681
30
0
41
1
10
70.579975140147
20
0.525836787880394
30
0
41
1
10
70.5910665406897
20
0.240442894368698
30
0
41
1
10
70.6018997134952
20
-0.0450282481275224
30
0
41
1
10
70.6124703025115
20
-0.330641943953395
30
0
41
1
10
70.6204036739073
20
-0.544902355117131
30
0
41
1
10
70.624371868255
20
-0.652045113049638
30
0
41
1
10
70.6283637474362
20
-0.759206227049447
30
0
41
1
10
70.6310328291174
20
-0.830651006073026
30
0
41
1
10
70.632371415606
20
-0.866378831481597
30
0
41
1
10
70.639068466302
20
-1.04444456629923
30
0
41
1
10
70.6444669398334
20
-1.18552678637701
30
0
41
1
10
70.6499500500923
20
-1.3252293923469
30
0
0
SPLINE
5
116
100
AcDbEntity
8
1
62
256
6
ByLayer
370
13
48
1
60
0
100
AcDbSpline
70
4
71
3
72
10
73
6
40
0
40
0
40
0
40
0
40
0.333587649713193
40
0.793725549432186
40
1
40
1
40
1
40
1
41
1.04
10
60.7619002276712
20
1.19790895718165
30
0
41
1.04
10
60.7774140403927
20
0.833297513897799
30
0
41
1.04
10
60.8141420976433
20
-0.0555317154215264
30
0
41
1.04
10
60.8605031139608
20
-1.1803126709182
30
0
41
1.04
10
60.8904838084609
20
-1.85891237117092
30
0
41
1.04
10
60.899692428148
20
-2.06105143461323
30
0
0
SPLINE
5
117
100
AcDbEntity
8
1
62
256
6
ByLayer
370
13
48
1
60
0
100
AcDbSpline
70
4
71
3
72
10
73
6
40
0
40
0
40
0
40
0
40
0.146873868024363
40
0.572925721894738
40
1
40
1
40
1
40
1
41
1
10
69.2467951198927
20
3.04172770020679
30
0
41
1
10
69.2538134777422
20
2.90835985972475
30
0
41
1
10
69.2810449493024
20
2.36939487344443
30
0
41
1
10
69.3276124305675
20
1.32533625469276
30
0
41
1
10
69.3661062370324
20
0.392406703086863
30
0
41
1
10
69.3852057388426
20
-0.0700687541934428
30
0
0
SPLINE
5
118
100
AcDbEntity
8
1
62
256
6
ByLayer
370
13
48
1
60
0
100
AcDbSpline
70
4
71
3
72
10
73
6
40
0
40
0
40
0
40
0
40
0.125426646701193
40
0.813593860695242
40
1
40
1
40
1
40
1
41
1.04
10
68.2569958892665
20
3.72610514657623
30
0
41
1.04
10
68.2627810234908
20
3.63551724119064
30
0
41
1.04
10
68.3003698060191
20
3.01729541186656
30
0
41
1.04
10
68.3468042532937
20
2.02534584749917
30
0
41
1.04
10
68.386773046369
20
1.08357583929676
30
0
41
1.04
10
68.3952550976533
20
0.881385420839218
30
0
0
SPLINE
5
119
100
AcDbEntity
8
1
62
256
6
ByLayer
370
18
48
1
60
0
100
AcDbSpline
70
4
71
3
72
29
73
25
40
0
40
0
40
0
40
0
40
0.125
40
0.125
40
0.25
40
0.25
40
0.375
40
0.375
40
0.40625
40
0.40625
40
0.4375
40
0.4375
40
0.5
40
0.5
40
0.625
40
0.749999999999999
40
0.749999999999999
40
0.874999999999999
40
0.874999999999999
40
0.906249999999999
40
0.906249999999999
40
0.937499999999999
40
0.937499999999999
40
1
40
1
40
1
40
1
41
1
10
68.8317670451118
20
0.359550257288277
30
0
41
1
10
68.8255315741691
20
0.533211569355103
30
0
41
1
10
68.8193048602029
20
0.705119184026216
30
0
41
1
10
68.8068107920929
20
1.04552703347429
30
0
41
1
10
68.8005442924115
20
1.21402706907099
30
0
41
1
10
68.7880395165343
20
1.54763457904207
30
0
41
1
10
68.7818218557699
20
1.71274290419748
30
0
41
1
10
68.774113492748
20
1.91696288137709
30
0
41
1
10
68.7725727646772
20
1.95769830565584
30
0
41
1
10
68.7694885588098
20
2.03894976962653
30
0
41
1
10
68.7679440318833
20
2.07949319697929
30
0
41
1
10
68.7633068816129
20
2.20061153509008
30
0
41
1
10
68.7602257685554
20
2.28027353594675
30
0
41
1
10
68.7509734700885
20
2.51607220774474
30
0
41
1
10
68.7386045417849
20
2.82198431359552
30
0
41
1
10
68.7259633958572
20
3.11126136399895
30
0
41
1
10
68.7132128251362
20
3.39218012772656
30
0
41
1
10
68.7067825673525
20
3.52846104536792
30
0
41
1
10
68.6987741083084
20
3.69342842884524
30
0
41
1
10
68.6971730336934
20
3.72617596222221
30
0
41
1
10
68.6939895680347
20
3.79089741762169
30
0
41
1
10
68.6924060827619
20
3.822894230082
30
0
41
1
10
68.6876865906756
20
3.9177969809023
30
0
41
1
10
68.6845872499516
20
3.97961596348836
30
0
41
1
10
68.6815309044326
20
4.03998857538875
30
0
0
SPLINE
5
11A
100
AcDbEntity
8
1
62
256
6
ByLayer
370
18
48
1
60
0
100
AcDbSpline
70
4
71
3
72
27
73
23
40
0
40
0
40
0
40
0
40
0.125
40
0.125
40
0.25
40
0.25
40
0.375
40
0.375
40
0.4375
40
0.4375
40
0.500000000000001
40
0.500000000000001
40
0.625
40
0.625
40
0.75
40
0.75
40
0.875
40
0.875
40
0.90625
40
0.90625
40
0.9375
40
1
40
1
40
1
40
1
41
1
10
68.8123160151062
20
3.93866766360676
30
0
41
1
10
68.8184681103872
20
3.81474241207951
30
0
41
1
10
68.8245806074295
20
3.68603067387085
30
0
41
1
10
68.8368343882536
20
3.41931659103446
30
0
41
1
10
68.8429761211157
20
3.28131361430795
30
0
41
1
10
68.8553137705251
20
2.99605280917908
30
0
41
1
10
68.8614939266043
20
2.84879484260299
30
0
41
1
10
68.8708459503521
20
2.62081676330771
30
0
41
1
10
68.87398023162
20
2.5435928555261
30
0
41
1
10
68.8802830187937
20
2.38692483843607
30
0
41
1
10
68.8834305077943
20
2.308005392703
30
0
41
1
10
68.8928710086491
20
2.06952611746172
30
0
41
1
10
68.8991651860968
20
1.90824910649511
30
0
41
1
10
68.9117359207279
20
1.58120625918144
30
0
41
1
10
68.9179996772853
20
1.41543982996862
30
0
41
1
10
68.9304612317277
20
1.07939385123103
30
0
41
1
10
68.9366694941407
20
0.909115003312138
30
0
41
1
10
68.944457732836
20
0.693360701896069
30
0
41
1
10
68.9460180560559
20
0.650030062896917
30
0
41
1
10
68.9491325572118
20
0.563370858260384
30
0
41
1
10
68.9537979011834
20
0.433307626186036
30
0
41
1
10
68.9584511669443
20
0.303022257209079
30
0
41
1
10
68.9615541626783
20
0.216067022418798
30
0
0
SPLINE
5
11B
100
AcDbEntity
8
1
62
256
6
ByLayer
370
13
48
1
60
0
100
AcDbSpline
70
4
71
3
72
10
73
6
40
0
40
0
40
0
40
0
40
0.0592416790229578
40
0.745481307986853
40
1
40
1
40
1
40
1
41
1
10
61.7515709701027
20
0.2584603506767
30
0
41
1
10
61.7543994755165
20
0.190041717743412
30
0
41
1
10
61.7899265850358
20
-0.669994763709383
30
0
41
1
10
61.8362499562383
20
-1.78839726079315
30
0
41
1
10
61.8782755455147
20
-2.66236042985122
30
0
41
1
10
61.8895382176362
20
-2.88328938962209
30
0
0
SPLINE
5
11C
100
AcDbEntity
8
1
62
256
6
ByLayer
370
18
48
1
60
0
100
AcDbSpline
70
4
71
3
72
27
73
23
40
0
40
0
40
0
40
0
40
0.125
40
0.125
40
0.25
40
0.25
40
0.3125
40
0.34375
40
0.34375
40
0.375
40
0.375
40
0.5
40
0.5
40
0.625
40
0.75
40
0.75
40
0.8125
40
0.8125
40
0.84375
40
0.84375
40
0.875000000000001
40
1
40
1
40
1
40
1
41
1
10
61.4748029870294
20
0.656245820186001
30
0
41
1
10
61.4804702097603
20
0.497274587738502
30
0
41
1
10
61.4861876031149
20
0.337985634563353
30
0
41
1
10
61.4975881765331
20
0.0187733551256599
30
0
41
1
10
61.5032359613932
20
-0.141151441988825
30
0
41
1
10
61.5116636220507
20
-0.38152176238367
30
0
41
1
10
61.515870494342
20
-0.501827714773668
30
0
41
1
10
61.5200837545125
20
-0.622317090609386
30
0
41
1
10
61.522895849496
20
-0.702684477579737
30
0
41
1
10
61.5243020850657
20
-0.74284740529751
30
0
41
1
10
61.5313108130341
20
-0.942767497276577
30
0
41
1
10
61.536873221243
20
-1.1005767564971
30
0
41
1
10
61.547999318296
20
-1.41206243306522
30
0
41
1
10
61.5591268791624
20
-1.71941457239527
30
0
41
1
10
61.5703435217153
20
-2.01853693716691
30
0
41
1
10
61.5787744252723
20
-2.2397309640952
30
0
41
1
10
61.5815872666378
20
-2.31293688899282
30
0
41
1
10
61.5858029068364
20
-2.4219423191918
30
0
41
1
10
61.5872060196828
20
-2.45810988640503
30
0
41
1
10
61.5899992462229
20
-2.52981688995513
30
0
41
1
10
61.596957500268
20
-2.7077238895528
30
0
41
1
10
61.6038311405048
20
-2.87891746125141
30
0
41
1
10
61.6093428714793
20
-3.01167540031523
30
0
0
SPLINE
5
11D
100
AcDbEntity
8
1
62
256
6
ByLayer
370
18
48
1
60
0
100
AcDbSpline
70
4
71
3
72
26
73
22
40
0
40
0
40
0
40
0
40
0.125
40
0.125
40
0.187499999999999
40
0.187499999999999
40
0.21875
40
0.21875
40
0.25
40
0.25
40
0.375
40
0.375
40
0.5
40
0.625
40
0.625
40
0.6875
40
0.6875
40
0.75
40
0.75
40
0.875
40
1
40
1
40
1
40
1
41
1
10
61.148781341159
20
-2.5521948230689
30
0
41
1
10
61.1421696860862
20
-2.41361358407536
30
0
41
1
10
61.1355631544009
20
-2.27160738480197
30
0
41
1
10
61.1256707103883
20
-2.05337867673691
30
0
41
1
10
61.1223761929211
20
-1.97976458257691
30
0
41
1
10
61.1174400899687
20
-1.86801413380729
30
0
41
1
10
61.1157946246368
20
-1.83051847231167
30
0
41
1
10
61.1125102234545
20
-1.75518252062346
30
0
41
1
10
61.1108753535538
20
-1.71743580329598
30
0
41
1
10
61.102737350182
20
-1.52831264856661
30
0
41
1
10
61.096368430171
20
-1.3757695206352
30
0
41
1
10
61.0836167506373
20
-1.06826445094856
30
0
41
1
10
61.0708247181779
20
-0.758340658892507
30
0
41
1
10
61.0576029265178
20
-0.443599370658859
30
0
41
1
10
61.0475373677393
20
-0.205697706494874
30
0
41
1
10
61.0441585745385
20
-0.12608472854248
30
0
41
1
10
61.0373748153819
20
0.0337529594315242
30
0
41
1
10
61.033998090725
20
0.11336897878229
30
0
41
1
10
61.0239355311497
20
0.351327980091924
30
0
41
1
10
61.0106703247853
20
0.666237565249503
30
0
41
1
10
60.9975010592481
20
0.976494752709471
30
0
41
1
10
60.9909017630579
20
1.13045433153817
30
0
0
SPLINE
5
11E
100
AcDbEntity
8
1
62
256
6
ByLayer
370
18
48
1
60
0
100
AcDbSpline
70
4
71
3
72
8
73
4
40
0
40
0
40
0
40
0
40
1
40
1
40
1
40
1
41
1
10
66.7565949602509
20
-5.60359962002883
30
0
41
1
10
66.7937536272065
20
-5.539710010981
30
0
41
1
10
66.8310638214103
20
-5.47539642516224
30
0
41
1
10
66.8685170020503
20
-5.41070871641813
30
0
0
SPLINE
5
11F
100
AcDbEntity
8
1
62
256
6
ByLayer
370
18
48
1
60
0
100
AcDbSpline
70
4
71
3
72
30
73
26
40
0
40
0
40
0
40
0
40
0.0625000000000146
40
0.0625000000000146
40
0.125000000000029
40
0.125000000000029
40
0.25000000000006
40
0.25000000000006
40
0.312500000000076
40
0.312500000000076
40
0.375000000000092
40
0.375000000000092
40
0.500000000000063
40
0.500000000000063
40
0.625000000000034
40
0.625000000000034
40
0.68750000000002
40
0.68750000000002
40
0.750000000000006
40
0.750000000000006
40
0.874999999999981
40
0.874999999999981
40
0.93749999999999
40
0.93749999999999
40
1
40
1
40
1
40
1
41
1
10
65.8578144147987
20
-4.83380346376089
30
0
41
1
10
65.8631230940202
20
-4.82540287514701
30
0
41
1
10
65.8689751892576
20
-4.81793412559284
30
0
41
1
10
65.8815540705079
20
-4.80448826019085
30
0
41
1
10
65.8882982384755
20
-4.79850446728403
30
0
41
1
10
65.9095983234371
20
-4.78260196014716
30
0
41
1
10
65.9245459219321
20
-4.77512587837336
30
0
41
1
10
65.9477366012368
20
-4.7672477487333
30
0
41
1
10
65.9556271885693
20
-4.76519553813375
30
0
41
1
10
65.9713008234432
20
-4.76220256513054
30
0
41
1
10
65.9791241793785
20
-4.76124485908113
30
0
41
1
10
66.0025479230177
20
-4.75980923141162
30
0
41
1
10
66.0181025587316
20
-4.76075053057104
30
0
41
1
10
66.0490493556626
20
-4.76609784083254
30
0
41
1
10
66.0640946130802
20
-4.77044908629023
30
0
41
1
10
66.0859645141065
20
-4.7793186562896
30
0
41
1
10
66.0931408676333
20
-4.78267054610939
30
0
41
1
10
66.1072560915583
20
-4.79018924246296
30
0
41
1
10
66.11422233798
20
-4.79437519187513
30
0
41
1
10
66.1345101616728
20
-4.80809284326543
30
0
41
1
10
66.1471984872941
20
-4.81871972137586
30
0
41
1
10
66.1647789635979
20
-4.83722631595327
30
0
41
1
10
66.1703947447537
20
-4.84382737672394
30
0
41
1
10
66.1810570588148
20
-4.85804011572046
30
0
41
1
10
66.1860602496655
20
-4.86559758651666
30
0
41
1
10
66.1906450240795
20
-4.873627272325
30
0
0
SPLINE
5
120
100
AcDbEntity
8
1
62
256
6
ByLayer
370
18
48
1
60
0
100
AcDbSpline
70
4
71
3
72
10
73
6
40
0
40
0
40
0
40
0
40
0.5
40
0.5
40
1
40
1
40
1
40
1
41
1
10
65.4338704431775
20
-5.48604582980516
30
0
41
1
10
65.5035186103067
20
-5.38227444930709
30
0
41
1
10
65.5737103567019
20
-5.27586164589474
30
0
41
1
10
65.7150708147632
20
-5.05825590386047
30
0
41
1
10
65.7861721866079
20
-4.94717194230273
30
0
41
1
10
65.8578144147987
20
-4.83380346376089
30
0
0
SPLINE
5
121
100
AcDbEntity
8
1
62
256
6
ByLayer
370
18
48
1
60
0
100
AcDbSpline
70
4
71
3
72
8
73
4
40
0
40
0
40
0
40
0
40
1
40
1
40
1
40
1
41
1
10
65.4338704431775
20
-5.48604582980516
30
0
41
1
10
65.390647119461
20
-5.47601754701984
30
0
41
1
10
65.3473938897865
20
-5.4653838182717
30
0
41
1
10
65.3041025966583
20
-5.45414351861578
30
0
0
SPLINE
5
122
100
AcDbEntity
8
1
62
256
6
ByLayer
370
18
48
1
60
0
100
AcDbSpline
70
4
71
3
72
10
73
6
40
0
40
0
40
0
40
0
40
0.5
40
0.5
40
1
40
1
40
1
40
1
41
1
10
64.8678143574583
20
-4.59241331435135
30
0
41
1
10
64.9414489426133
20
-4.74008035405288
30
0
41
1
10
65.0145580433293
20
-4.88584228303276
30
0
41
1
10
65.16001394991
20
-5.1733621291788
30
0
41
1
10
65.2322835091042
20
-5.31497262440431
30
0
41
1
10
65.3041025966583
20
-5.45414351861578
30
0
0
SPLINE
5
123
100
AcDbEntity
8
1
62
256
6
ByLayer
370
18
48
1
60
0
100
AcDbSpline
70
4
71
3
72
30
73
26
40
0
40
0
40
0
40
0
40
0.0625000000000123
40
0.0625000000000123
40
0.125000000000025
40
0.125000000000025
40
0.250000000000049
40
0.250000000000049
40
0.312500000000031
40
0.312500000000031
40
0.375000000000014
40
0.375000000000014
40
0.499999999999978
40
0.499999999999978
40
0.624999999999942
40
0.624999999999942
40
0.687499999999953
40
0.687499999999953
40
0.749999999999964
40
0.749999999999964
40
0.874999999999982
40
0.874999999999982
40
0.937499999999991
40
0.937499999999991
40
1
40
1
40
1
40
1
41
1
10
64.5349844927512
20
-4.47092066543482
30
0
41
1
10
64.5402973891537
20
-4.46392972486714
30
0
41
1
10
64.5461537701215
20
-4.4579863239471
30
0
41
1
10
64.5587407527095
20
-4.44777343169352
30
0
41
1
10
64.5654896520238
20
-4.44350119558592
30
0
41
1
10
64.5867972105441
20
-4.43295396833315
30
0
41
1
10
64.6017473437881
20
-4.42916956452387
30
0
41
1
10
64.6249398885475
20
-4.42696408056912
30
0
41
1
10
64.6328299746517
20
-4.42683287631627
30
0
41
1
10
64.6485017036896
20
-4.42764301189163
30
0
41
1
10
64.6563241542174
20
-4.42857735853167
30
0
41
1
10
64.6797452077402
20
-4.43279582483183
30
0
41
1
10
64.6952979794431
20
-4.43747745632447
30
0
41
1
10
64.7262409452172
20
-4.45026734546934
30
0
41
1
10
64.7412819917544
20
-4.4582362105472
30
0
41
1
10
64.7631488217409
20
-4.47238225378163
30
0
41
1
10
64.7703243994461
20
-4.47746844349541
30
0
41
1
10
64.7844381837106
20
-4.48840618688519
30
0
41
1
10
64.7914038128468
20
-4.49428360660801
30
0
41
1
10
64.8116886611541
20
-4.51294095538978
30
0
41
1
10
64.8243752903498
20
-4.52667737073944
30
0
41
1
10
64.8419530114582
20
-4.54953055173675
30
0
41
1
10
64.8475678408082
20
-4.55752692132779
30
0
41
1
10
64.8582281150937
20
-4.57440432237186
30
0
41
1
10
64.8632304673526
20
-4.58322076602894
30
0
41
1
10
64.8678143574583
20
-4.59241331435138
30
0
0
SPLINE
5
124
100
AcDbEntity
8
1
62
256
6
ByLayer
370
18
48
1
60
0
100
AcDbSpline
70
4
71
3
72
10
73
6
40
0
40
0
40
0
40
0
40
0.5
40
0.5
40
1
40
1
40
1
40
1
41
1
10
64.1105834814543
20
-4.99653174898816
30
0
41
1
10
64.1803066218369
20
-4.91587452257232
30
0
41
1
10
64.2505775920689
20
-4.83162204457722
30
0
41
1
10
64.3920924472678
20
-4.65628345872994
30
0
41
1
10
64.4632703395885
20
-4.56528527273073
30
0
41
1
10
64.5349844927512
20
-4.47092066543482
30
0
0
SPLINE
5
125
100
AcDbEntity
8
1
62
256
6
ByLayer
370
18
48
1
60
0
100
AcDbSpline
70
4
71
3
72
8
73
4
40
0
40
0
40
0
40
0
40
1
40
1
40
1
40
1
41
1
10
64.1105834814543
20
-4.9965317489881
30
0
41
1
10
64.0674080757301
20
-4.97478235206498
30
0
41
1
10
64.0242624145836
20
-4.95250362352127
30
0
41
1
10
63.9811382387143
20
-4.92970094371432
30
0
0
SPLINE
5
126
100
AcDbEntity
8
1
62
256
6
ByLayer
370
18
48
1
60
0
100
AcDbSpline
70
4
71
3
72
10
73
6
40
0
40
0
40
0
40
0
40
0.5
40
0.5
40
1
40
1
40
1
40
1
41
1
10
63.5451341590172
20
-4.00086733050077
30
0
41
1
10
63.6187217488329
20
-4.15678416823326
30
0
41
1
10
63.691793740384
20
-4.31229241203019
30
0
41
1
10
63.8371590148897
20
-4.62222958277263
30
0
41
1
10
63.9093748297497
20
-4.7764928457504
30
0
41
1
10
63.9811382387143
20
-4.92970094371435
30
0
0
SPLINE
5
127
100
AcDbEntity
8
1
62
256
6
ByLayer
370
18
48
1
60
0
100
AcDbSpline
70
4
71
3
72
30
73
26
40
0
40
0
40
0
40
0
40
0.0624999999999542
40
0.0624999999999542
40
0.124999999999908
40
0.124999999999908
40
0.24999999999987
40
0.24999999999987
40
0.312499999999881
40
0.312499999999881
40
0.374999999999891
40
0.374999999999891
40
0.499999999999912
40
0.499999999999912
40
0.624999999999933
40
0.624999999999933
40
0.687499999999944
40
0.687499999999944
40
0.749999999999954
40
0.749999999999954
40
0.874999999999975
40
0.874999999999975
40
0.937499999999988
40
0.937499999999988
40
1
40
1
40
1
40
1
41
1
10
63.212283251366
20
-3.80669736027892
30
0
41
1
10
63.2175938684478
20
-3.80159809133306
30
0
41
1
10
63.2234471975755
20
-3.79758699809037
30
0
41
1
10
63.2360268336456
20
-3.7913013732628
30
0
41
1
10
63.2427707727322
20
-3.78902894561955
30
0
41
1
10
63.26406607068
20
-3.78453439971537
30
0
41
1
10
63.2790075914173
20
-3.7846769373887
30
0
41
1
10
63.3021878034863
20
-3.78825143839637
30
0
41
1
10
63.3100748201482
20
-3.79003413911428
30
0
41
1
10
63.3257426456109
20
-3.79455915752243
30
0
41
1
10
63.3335635226412
20
-3.79730469625451
30
0
41
1
10
63.3569811060355
20
-3.80683592535362
30
0
41
1
10
63.3725331649501
20
-3.81489995694582
30
0
41
1
10
63.4034768144958
20
-3.8341777849277
30
0
41
1
10
63.4185281067238
20
-3.84518499317031
30
0
41
1
10
63.4404042325971
20
-3.86358334196811
30
0
41
1
10
63.4475829689381
20
-3.87003692056308
30
0
41
1
10
63.4617030289911
20
-3.88360727729335
30
0
41
1
10
63.4686713310073
20
-3.8907541354728
30
0
41
1
10
63.4889740175959
20
-3.91302821749088
30
0
41
1
10
63.5016704941208
20
-3.92890421739824
30
0
41
1
10
63.5192590653263
20
-3.95449693065316
30
0
41
1
10
63.5248768553708
20
-3.96332731031166
30
0
41
1
10
63.5355416024271
20
-3.98168696790859
30
0
41
1
10
63.5405481420244
20
-3.99115051182105
30
0
41
1
10
63.5451341590172
20
-4.00086733050077
30
0
0
SPLINE
5
128
100
AcDbEntity
8
1
62
256
6
ByLayer
370
18
48
1
60
0
100
AcDbSpline
70
4
71
3
72
30
73
26
40
0
40
0
40
0
40
0
40
0.0625000000000061
40
0.0625000000000061
40
0.125000000000012
40
0.125000000000012
40
0.250000000000024
40
0.250000000000024
40
0.31250000000003
40
0.31250000000003
40
0.375000000000035
40
0.375000000000035
40
0.499999999999986
40
0.499999999999986
40
0.624999999999936
40
0.624999999999936
40
0.68749999999994
40
0.68749999999994
40
0.749999999999944
40
0.749999999999944
40
0.874999999999949
40
0.874999999999949
40
0.937499999999975
40
0.937499999999975
40
1
40
1
40
1
40
1
41
1
10
61.8895382176363
20
-2.88328938962209
30
0
41
1
10
61.8948448416454
20
-2.88040782377991
30
0
41
1
10
61.9006939016866
20
-2.87857850099368
30
0
41
1
10
61.9132649241706
20
-2.87659933857685
30
0
41
1
10
61.9200037578321
20
-2.87645569321578
30
0
41
1
10
61.9412891794316
20
-2.87824515449111
30
0
41
1
10
61.956225937067
20
-2.88225824647972
30
0
41
1
10
61.9794013420848
20
-2.89130776970816
30
0
41
1
10
61.9872877651294
20
-2.894864138451
30
0
41
1
10
62.0029555662279
20
-2.90276192184581
30
0
41
1
10
62.0107766358203
20
-2.90711627535501
30
0
41
1
10
62.0341951959729
20
-2.92126955377361
30
0
41
1
10
62.0497484268514
20
-2.93214506388713
30
0
41
1
10
62.0806946924267
20
-2.95656576346445
30
0
41
1
10
62.0957471355088
20
-2.96984689947919
30
0
41
1
10
62.1176235152878
20
-2.99123098287015
30
0
41
1
10
62.1248021551726
20
-2.99860893967704
30
0
41
1
10
62.1389216668657
20
-3.01388274053386
30
0
41
1
10
62.1458896547916
20
-3.02181156538669
30
0
41
1
10
62.1661886566012
20
-3.04617323919069
30
0
41
1
10
62.1788817865762
20
-3.0631023135127
30
0
41
1
10
62.1964647868321
20
-3.08968886672017
30
0
41
1
10
62.2020806288855
20
-3.09875184551012
30
0
41
1
10
62.2127414622861
20
-3.11734564058389
30
0
41
1
10
62.2177451778697
20
-3.12680777480489
30
0
41
1
10
62.2223289655128
20
-3.13638634945531
30
0
0
SPLINE
5
129
100
AcDbEntity
8
1
62
256
6
ByLayer
370
18
48
1
60
0
100
AcDbSpline
70
4
71
3
72
10
73
6
40
0
40
0
40
0
40
0
40
0.5
40
0.5
40
1
40
1
40
1
40
1
41
1
10
61.6093428714869
20
-3.01167540030744
30
0
41
1
10
61.6556223460335
20
-2.99443581908309
30
0
41
1
10
61.7021310002486
20
-2.97512780415221
30
0
41
1
10
61.7955252856722
20
-2.93234862457655
30
0
41
1
10
61.8424170640842
20
-2.90887678874611
30
0
41
1
10
61.8895382176363
20
-2.88328938962209
30
0
0
SPLINE
5
12A
100
AcDbEntity
8
1
62
256
6
ByLayer
370
18
48
1
60
0
100
AcDbSpline
70
4
71
3
72
8
73
4
40
0
40
0
40
0
40
0
40
1
40
1
40
1
40
1
41
1
10
61.148781341159
20
-2.55219482306887
30
0
41
1
10
61.3027269380888
20
-2.70807411424269
30
0
41
1
10
61.4561148270448
20
-2.86135170751493
30
0
41
1
10
61.609342871484
20
-3.01167540031503
30
0
0
SPLINE
5
12B
100
AcDbEntity
8
1
62
256
6
ByLayer
370
18
48
1
60
0
100
AcDbSpline
70
4
71
3
72
8
73
4
40
0
40
0
40
0
40
0
40
1
40
1
40
1
40
1
41
1
10
60.8996924281482
20
-2.0610514346175
30
0
41
1
10
60.9832966283018
20
-2.22151719578062
30
0
41
1
10
61.0663190554145
20
-2.38543376065772
30
0
41
1
10
61.148781341159
20
-2.55219482306885
30
0
0
SPLINE
5
12C
100
AcDbEntity
8
1
62
256
6
ByLayer
370
18
48
1
60
0
100
AcDbSpline
70
4
71
3
72
30
73
26
40
0
40
0
40
0
40
0
40
0.0624999999999811
40
0.0624999999999811
40
0.124999999999962
40
0.124999999999962
40
0.249999999999924
40
0.249999999999924
40
0.312499999999905
40
0.312499999999905
40
0.374999999999886
40
0.374999999999886
40
0.499999999999909
40
0.499999999999909
40
0.624999999999932
40
0.624999999999932
40
0.687499999999944
40
0.687499999999944
40
0.749999999999955
40
0.749999999999955
40
0.874999999999978
40
0.874999999999978
40
0.937499999999989
40
0.937499999999989
40
1
40
1
40
1
40
1
41
1
10
60.5668301390503
20
-1.76497133637926
30
0
41
1
10
60.5721407555851
20
-1.76451716856312
30
0
41
1
10
60.5779940953943
20
-1.76501435130001
30
0
41
1
10
60.5905730301172
20
-1.76752620858423
30
0
41
1
10
60.5973162445461
20
-1.76955089906275
30
0
41
1
10
60.6186086820917
20
-1.77760027123651
30
0
41
1
10
60.6335471532485
20
-1.7852831647682
30
0
41
1
10
60.6567213718444
20
-1.79930025636168
30
0
41
1
10
60.6646064102325
20
-1.80442425568341
30
0
41
1
10
60.6802707954759
20
-1.81522670137454
30
0
41
1
10
60.6880899472596
20
-1.82092734030712
30
0
41
1
10
60.7115024373115
20
-1.83883772428032
30
0
41
1
10
60.7270512049185
20
-1.85184587020632
30
0
41
1
10
60.7579889775385
20
-1.87985946251092
30
0
41
1
10
60.7730428934341
20
-1.89456540606687
30
0
41
1
10
60.7949204633298
20
-1.91755212859525
30
0
41
1
10
60.8020998586053
20
-1.92537523157506
30
0
41
1
10
60.8162215960544
20
-1.94135644947454
30
0
41
1
10
60.8231905039517
20
-1.94954734951821
30
0
41
1
10
60.8435027296223
20
-1.97440847259003
30
0
41
1
10
60.8562054959353
20
-1.9912807887481
30
0
41
1
10
60.8738027649426
20
-2.01710977798197
30
0
41
1
10
60.8794233266431
20
-2.02580697412483
30
0
41
1
10
60.8900931780626
20
-2.04340457311568
30
0
41
1
10
60.8951035800991
20
-2.0522438269409
30
0
41
1
10
60.8996924281482
20
-2.0610514346175
30
0
0
SPLINE
5
12D
100
AcDbEntity
8
1
62
256
6
ByLayer
370
18
48
1
60
0
100
AcDbSpline
70
4
71
3
72
8
73
4
40
0
40
0
40
0
40
0
40
1
40
1
40
1
40
1
41
1
10
60.388759552575
20
-1.76974613952316
30
0
41
1
10
60.4478004809157
20
-1.77164956632589
30
0
41
1
10
60.5071344997622
20
-1.77007655117893
30
0
41
1
10
60.5668301390503
20
-1.76497133637926
30
0
0
SPLINE
5
12E
100
AcDbEntity
8
1
62
256
6
ByLayer
370
18
48
1
60
0
100
AcDbSpline
70
4
71
3
72
8
73
4
40
0
40
0
40
0
40
0
40
1
40
1
40
1
40
1
41
1
10
59.7025844903505
20
-1.05261976414951
30
0
41
1
10
59.9323617754685
20
-1.29275376993428
30
0
41
1
10
60.1606993747558
20
-1.53217007953813
30
0
41
1
10
60.388759552575
20
-1.76974613952319
30
0
0
SPLINE
5
12F
100
AcDbEntity
8
1
62
256
6
ByLayer
370
18
48
1
60
0
100
AcDbSpline
70
4
71
3
72
8
73
4
40
0
40
0
40
0
40
0
40
1
40
1
40
1
40
1
41
1
10
59.5769053063672
20
-0.844907869723869
30
0
41
1
10
59.6189571307641
20
-0.91289149552216
30
0
41
1
10
59.6608407628435
20
-0.982137681671446
30
0
41
1
10
59.7025844903505
20
-1.05261976414951
30
0
0
SPLINE
5
130
100
AcDbEntity
8
1
62
256
6
ByLayer
370
18
48
1
60
0
100
AcDbSpline
70
4
71
3
72
30
73
26
40
0
40
0
40
0
40
0
40
0.0624999999999825
40
0.0624999999999825
40
0.124999999999965
40
0.124999999999965
40
0.249999999999927
40
0.249999999999927
40
0.312499999999908
40
0.312499999999908
40
0.374999999999889
40
0.374999999999889
40
0.499999999999911
40
0.499999999999911
40
0.624999999999934
40
0.624999999999934
40
0.687499999999945
40
0.687499999999945
40
0.749999999999956
40
0.749999999999956
40
0.874999999999979
40
0.874999999999979
40
0.937499999999989
40
0.937499999999989
40
1
40
1
40
1
40
1
41
1
10
59.2440711698842
20
-0.526694711935619
30
0
41
1
10
59.2493777750441
20
-0.528700855057622
30
0
41
1
10
59.2552256578966
20
-0.531486976098506
30
0
41
1
10
59.2677909482964
20
-0.538302455084221
30
0
41
1
10
59.2745241601978
20
-0.542343862643548
30
0
41
1
10
59.2957943992997
20
-0.556061222642313
30
0
41
1
10
59.3107170294221
20
-0.566852797167911
30
0
41
1
10
59.3338678656692
20
-0.58482086826865
30
0
41
1
10
59.3417472190935
20
-0.591143645471959
30
0
41
1
10
59.3574044740929
20
-0.604078358435487
30
0
41
1
10
59.3652204974264
20
-0.610718678439014
30
0
41
1
10
59.3886249457152
20
-0.63111171390878
30
0
41
1
10
59.4041701570532
20
-0.645330684953365
30
0
41
1
10
59.4351043899341
20
-0.674960666618745
30
0
41
1
10
59.4501721211419
20
-0.690067108274548
30
0
41
1
10
59.472059499356
20
-0.713050083441345
30
0
41
1
10
59.479242156868
20
-0.720772092169597
30
0
41
1
10
59.493370306676
20
-0.73634579657363
30
0
41
1
10
59.5003412544882
20
-0.744227182737745
30
0
41
1
10
59.5206754668202
20
-0.767861691029566
30
0
41
1
10
59.5333897122022
20
-0.783504904516946
30
0
41
1
10
59.5509994358587
20
-0.806780286931399
30
0
41
1
10
59.5566233497328
20
-0.814506705707345
30
0
41
1
10
59.5672982770038
20
-0.829883468627884
30
0
41
1
10
59.5723137201481
20
-0.837484822476426
30
0
41
1
10
59.5769053063672
20
-0.844907869723841
30
0
0
SPLINE
5
131
100
AcDbEntity
8
1
62
256
6
ByLayer
370
18
48
1
60
0
100
AcDbSpline
70
4
71
3
72
8
73
4
40
0
40
0
40
0
40
0
40
1
40
1
40
1
40
1
41
1
10
59.1672359404603
20
-0.49565570454024
30
0
41
1
10
59.1927886393626
20
-0.506640637329468
30
0
41
1
10
59.2183985584318
20
-0.516989272895188
30
0
41
1
10
59.2440711698842
20
-0.526694711935193
30
0
0
SPLINE
5
132
100
AcDbEntity
8
1
62
256
6
ByLayer
370
18
48
1
60
0
100
AcDbSpline
70
4
71
3
72
10
73
6
40
0
40
0
40
0
40
0
40
0.5
40
0.5
40
1
40
1
40
1
40
1
41
1
10
58.2542967513865
20
0.427933032125054
30
0
41
1
10
58.4075131830951
20
0.277328401936217
30
0
41
1
10
58.5598985502454
20
0.124767368158189
30
0
41
1
10
58.8639329481433
20
-0.183364298725081
30
0
41
1
10
59.0155869157915
20
-0.338929330572029
30
0
41
1
10
59.1672359404567
20
-0.495655704541548
30
0
0
SPLINE
5
133
100
AcDbEntity
8
1
62
256
6
ByLayer
370
18
48
1
60
0
100
AcDbSpline
70
4
71
3
72
8
73
4
40
0
40
0
40
0
40
0
40
1
40
1
40
1
40
1
41
1
10
58.2541043208802
20
0.428165408630349
30
0
41
1
10
58.2541684647296
20
0.428087953618416
30
0
41
1
10
58.2542326082317
20
0.428010494783251
30
0
41
1
10
58.2542967513866
20
0.427933032125082
30
0
0
SPLINE
5
134
100
AcDbEntity
8
1
62
256
6
ByLayer
370
18
48
1
60
0
100
AcDbSpline
70
4
71
3
72
26
73
22
40
0
40
0
40
0
40
0
40
0.0624999999999967
40
0.0624999999999967
40
0.124999999999993
40
0.124999999999993
40
0.249999999999985
40
0.249999999999985
40
0.374999999999977
40
0.374999999999977
40
0.499999999999968
40
0.499999999999968
40
0.62499999999996
40
0.62499999999996
40
0.687499999999986
40
0.687499999999986
40
0.750000000000013
40
0.750000000000013
40
0.875000000000006
40
0.875000000000006
40
1
40
1
40
1
40
1
41
1
10
57.9548594195998
20
0.718652959113797
30
0
41
1
10
57.9610345741365
20
0.713319115862618
30
0
41
1
10
57.9674560299595
20
0.707723993246248
30
0
41
1
10
57.9804774144536
20
0.696296723718291
30
0
41
1
10
57.9871159721448
20
0.690431063171673
30
0
41
1
10
58.0073607190977
20
0.672431386799644
30
0
41
1
10
58.021394112648
20
0.659804723056425
30
0
41
1
10
58.049140285762
20
0.63454089809116
30
0
41
1
10
58.062971627938
20
0.621799402686179
30
0
41
1
10
58.0905253033623
20
0.596086563739476
30
0
41
1
10
58.1043242048214
20
0.583039811995008
30
0
41
1
10
58.1310711308834
20
0.557366132491779
30
0
41
1
10
58.1440939380444
20
0.544671603719081
30
0
41
1
10
58.1630820759452
20
0.525823225204448
30
0
41
1
10
58.169319825632
20
0.519573014079498
30
0
41
1
10
58.1816000799761
20
0.507138717189576
30
0
41
1
10
58.1876217726133
20
0.500975198286142
30
0
41
1
10
58.2051165953152
20
0.482853390917768
30
0
41
1
10
58.2161057266155
20
0.471179482951896
30
0
41
1
10
58.2365046841763
20
0.448780870996131
30
0
41
1
10
58.245969111655
20
0.437988840393302
30
0
41
1
10
58.2541043208802
20
0.428165408630292
30
0
0
SPLINE
5
135
100
AcDbEntity
8
1
62
256
6
ByLayer
370
18
48
1
60
0
100
AcDbSpline
70
4
71
3
72
8
73
4
40
0
40
0
40
0
40
0
40
1
40
1
40
1
40
1
41
1
10
57.59
20
1.06268602553436
30
0
41
1
10
57.711976956779
20
0.949636930946497
30
0
41
1
10
57.8335590918412
20
0.834923785804278
30
0
41
1
10
57.9548594196021
20
0.718652959112688
30
0
0
SPLINE
5
136
100
AcDbEntity
8
1
62
256
6
ByLayer
370
18
48
1
60
0
100
AcDbSpline
70
4
71
3
72
12
73
8
40
0
40
0
40
0
40
0
40
0.249999999999998
40
0.249999999999998
40
0.499999999999997
40
0.499999999999997
40
1
40
1
40
1
40
1
41
1
10
57.59
20
1.06268602553433
30
0
41
1
10
57.5780530811466
20
1.07407363485021
30
0
41
1
10
57.5661163615725
20
1.08536503510445
30
0
41
1
10
57.5422046168978
20
1.10755462668678
30
0
41
1
10
57.5302223764569
20
1.11842757396468
30
0
41
1
10
57.4940121748388
20
1.14977824607206
30
0
41
1
10
57.4695338785562
20
1.1690355062758
30
0
41
1
10
57.4446579978079
20
1.18654895208843
30
0
0
SPLINE
5
137
100
AcDbEntity
8
1
62
256
6
ByLayer
370
18
48
1
60
0
100
AcDbSpline
70
4
71
3
72
24
73
20
40
0
40
0
40
0
40
0
40
0.124999999999998
40
0.124999999999998
40
0.249999999999996
40
0.249999999999996
40
0.374999999999994
40
0.374999999999994
40
0.437499999999992
40
0.437499999999992
40
0.499999999999991
40
0.499999999999991
40
0.749999999999986
40
0.749999999999986
40
0.812499999999989
40
0.812499999999989
40
0.874999999999993
40
0.874999999999993
40
1
40
1
40
1
40
1
41
1
10
57.4446579978077
20
1.18654895208849
30
0
41
1
10
57.417108141085
20
1.20594496575089
30
0
41
1
10
57.3866944507994
20
1.22559153503883
30
0
41
1
10
57.3207123305887
20
1.26583063729638
30
0
41
1
10
57.2851417039257
20
1.28642499097808
30
0
41
1
10
57.2092696636736
20
1.32907460703319
30
0
41
1
10
57.1689662259574
20
1.35112911961991
30
0
41
1
10
57.1052251975461
20
1.38574738143592
30
0
41
1
10
57.0834036137197
20
1.39755801037626
30
0
41
1
10
57.0391627098243
20
1.42152705795291
30
0
41
1
10
57.0166926087834
20
1.43371307891277
30
0
41
1
10
56.9027702217144
20
1.49580933924506
30
0
41
1
10
56.8066470838197
20
1.54924185361716
30
0
41
1
10
56.6826442153774
20
1.62310451290091
30
0
41
1
10
56.6576209101007
20
1.63824610642118
30
0
41
1
10
56.6073623953126
20
1.66921339950645
30
0
41
1
10
56.5821764066073
20
1.68500832271309
30
0
41
1
10
56.5065212884783
20
1.73338700447388
30
0
41
1
10
56.4559578391995
20
1.76696569923172
30
0
41
1
10
56.4054275132665
20
1.8020137363504
30
0
0
SPLINE
5
138
100
AcDbEntity
8
1
62
256
6
ByLayer
370
18
48
1
60
0
100
AcDbSpline
70
4
71
3
72
51
73
47
40
0
40
0
40
0
40
0
40
0.0648929282357534
40
0.0648929282357534
40
0.129785856471507
40
0.129785856471507
40
0.19467878470726
40
0.19467878470726
40
0.259571712943014
40
0.259571712943014
40
0.292018177060889
40
0.292018177060889
40
0.308241409119825
40
0.308241409119825
40
0.324464641178762
40
0.324464641178762
40
0.389357569414501
40
0.389357569414501
40
0.421804033532372
40
0.421804033532372
40
0.454250497650244
40
0.454250497650244
40
0.519143425885986
40
0.519143425885986
40
0.584036354121728
40
0.584036354121728
40
0.600259586180662
40
0.600259586180662
40
0.616482818239597
40
0.648929282357462
40
0.648929282357462
40
0.713822210593194
40
0.713822210593194
40
0.778715138828925
40
0.778715138828925
40
0.843608067064656
40
0.843608067064656
40
0.876054531182523
40
0.876054531182523
40
0.892277763241457
40
0.892277763241457
40
0.90850099530039
40
0.90850099530039
40
0.973393923536124
40
0.973393923536124
40
1
40
1
40
1
40
1
41
1
10
56.4054275132664
20
1.80201373635046
30
0
41
1
10
56.2024371960228
20
1.94280863608884
30
0
41
1
10
56.0006025748735
20
2.07829230038132
30
0
41
1
10
55.5988675219716
20
2.33852925349063
30
0
41
1
10
55.3989059518952
20
2.4631906955093
30
0
41
1
10
54.9990676640502
20
2.69994732705155
30
0
41
1
10
54.7991510036052
20
2.81201915563329
30
0
41
1
10
54.3985192874108
20
3.02282499290314
30
0
41
1
10
54.1978273860386
20
3.1215811018464
30
0
41
1
10
53.8956601659946
20
3.25906172678972
30
0
41
1
10
53.7947443540644
20
3.30310649101696
30
0
41
1
10
53.6429540215165
20
3.36636074799759
30
0
41
1
10
53.5922548620505
20
3.38698872605562
30
0
41
1
10
53.4911021280573
20
3.42712507146359
30
0
41
1
10
53.4406036086364
20
3.44665283358089
30
0
41
1
10
53.1884455841747
20
3.54157653707608
30
0
41
1
10
52.9878032604683
20
3.60882243557404
30
0
41
1
10
52.6870519321507
20
3.69627800732601
30
0
41
1
10
52.5868180470387
20
3.72319200471739
30
0
41
1
10
52.3864989386694
20
3.77263987562262
30
0
41
1
10
52.2864270836198
20
3.79517626608819
30
0
41
1
10
51.9862908783588
20
3.85614116107516
30
0
41
1
10
51.7863023193775
20
3.88793020980231
30
0
41
1
10
51.3855576208662
20
3.93323664596431
30
0
41
1
10
51.1848499131938
20
3.9467323309548
30
0
41
1
10
50.9321510034855
20
3.95173416888642
30
0
41
1
10
50.8815085524147
20
3.95214243624858
30
0
41
1
10
50.7800530465017
20
3.95177003072158
30
0
41
1
10
50.6280348034903
20
3.94942980571869
30
0
41
1
10
50.4765564570123
20
3.94181593348341
30
0
41
1
10
50.1744339501628
20
3.91963593165772
30
0
41
1
10
49.9741800612604
20
3.89555138200745
30
0
41
1
10
49.5743293410153
20
3.82925723830098
30
0
41
1
10
49.3747141735152
20
3.78705606491087
30
0
41
1
10
48.9745799255571
20
3.68518046526205
30
0
41
1
10
48.7741264998663
20
3.62549916903831
30
0
41
1
10
48.4723468283561
20
3.52295538075049
30
0
41
1
10
48.3715695852179
20
3.48660143340098
30
0
41
1
10
48.2200566394136
20
3.42880086817661
30
0
41
1
10
48.1694950634244
20
3.40898846048611
30
0
41
1
10
48.0682382812663
20
3.36827357823898
30
0
41
1
10
48.01751184707
20
3.34735721844044
30
0
41
1
10
47.7645127370206
20
3.24049766232096
30
0
41
1
10
47.5634061976835
20
3.14743362617963
30
0
41
1
10
47.2807133251643
20
3.00649974972191
30
0
41
1
10
47.1986045969888
20
2.96436882986149
30
0
41
1
10
47.1165311045963
20
2.92114814023205
30
0
0
SPLINE
5
139
100
AcDbEntity
8
1
62
256
6
ByLayer
370
18
48
1
60
0
100
AcDbSpline
70
4
71
3
72
86
73
82
40
0
40
0
40
0
40
0
40
0.0066847746458049
40
0.0066847746458049
40
0.0335311320878124
40
0.0335311320878124
40
0.0603774895298199
40
0.0603774895298199
40
0.0872238469718275
40
0.114070204413835
40
0.114070204413835
40
0.127493383134838
40
0.127493383134838
40
0.140916561855841
40
0.140916561855841
40
0.167762919297844
40
0.167762919297844
40
0.194609276739848
40
0.194609276739848
40
0.248301991623853
40
0.248301991623853
40
0.275148349065856
40
0.275148349065856
40
0.30199470650786
40
0.30199470650786
40
0.328841063949863
40
0.328841063949863
40
0.342264242670866
40
0.342264242670866
40
0.355687421391869
40
0.355687421391869
40
0.382533778833876
40
0.382533778833876
40
0.409380136275883
40
0.409380136275883
40
0.4630728511599
40
0.4630728511599
40
0.489919208601908
40
0.489919208601908
40
0.516765566043915
40
0.516765566043915
40
0.543611923485923
40
0.543611923485923
40
0.550323512846424
40
0.550323512846424
40
0.557035102206925
40
0.570458280927926
40
0.570458280927926
40
0.583881459648927
40
0.583881459648927
40
0.597304638369928
40
0.597304638369928
40
0.624150995811929
40
0.624150995811929
40
0.677843710695932
40
0.677843710695932
40
0.704690068137935
40
0.704690068137935
40
0.718113246858936
40
0.718113246858936
40
0.731536425579937
40
0.731536425579937
40
0.758382783021942
40
0.758382783021942
40
0.765094372382444
40
0.765094372382444
40
0.771805961742945
40
0.785229140463948
40
0.812075497905955
40
0.812075497905955
40
0.838921855347961
40
0.838921855347961
40
0.892614570231974
40
0.892614570231974
40
0.919460927673981
40
0.919460927673981
40
0.946307285115987
40
0.946307285115987
40
0.973153642557994
40
0.973153642557994
40
1
40
1
40
1
40
1
41
1
10
43.3565133237549
20
3.95199924417167
30
0
41
1
10
43.3854129254036
20
3.95199656836621
30
0
41
1
10
43.4143231951019
20
3.95180051318229
30
0
41
1
10
43.5594194496168
20
3.94985018001094
30
0
41
1
10
43.6759450164456
20
3.94519597570414
30
0
41
1
10
43.9094603133468
20
3.92980587208217
30
0
41
1
10
44.02639869706
20
3.91906805930512
30
0
41
1
10
44.2601426196525
20
3.891335973108
30
0
41
1
10
44.4938828660598
20
3.85734862490205
30
0
41
1
10
44.7283613947133
20
3.81069253457076
30
0
41
1
10
44.9048163147432
20
3.77093826502318
30
0
41
1
10
44.9636521777317
20
3.75691050762376
30
0
41
1
10
45.081040006956
20
3.72742306396901
30
0
41
1
10
45.1396475638307
20
3.71195099263011
30
0
41
1
10
45.3153038216049
20
3.66341631973415
30
0
41
1
10
45.43222175843
20
3.62825292288972
30
0
41
1
10
45.6659511332109
20
3.55259230774769
30
0
41
1
10
45.7827288202004
20
3.51208132510112
30
0
41
1
10
46.1326026313526
20
3.38248549654853
30
0
41
1
10
46.3652634454695
20
3.28538161386243
30
0
41
1
10
46.7133958499853
20
3.12333438811109
30
0
41
1
10
46.8292215284938
20
3.06649921617284
30
0
41
1
10
47.0620189300857
20
2.9484541071547
30
0
41
1
10
47.1789142749048
20
2.88720086845856
30
0
41
1
10
47.4135642535261
20
2.76014500161489
30
0
41
1
10
47.5312953277333
20
2.69431988026284
30
0
41
1
10
47.7084525227095
20
2.59202822113443
30
0
41
1
10
47.7675488032608
20
2.55737489613034
30
0
41
1
10
47.8854085311061
20
2.48722691471787
30
0
41
1
10
47.9442341798466
20
2.45169650196084
30
0
41
1
10
48.1204130596779
20
2.34375798648921
30
0
41
1
10
48.2374641350505
20
2.26999916185659
30
0
41
1
10
48.4708350279543
20
2.11897026869687
30
0
41
1
10
48.5871710486967
20
2.04171591575451
30
0
41
1
10
48.9357047462518
20
1.80537781662261
30
0
41
1
10
49.1674178409303
20
1.6416888642662
30
0
41
1
10
49.5167974085858
20
1.39034008980548
30
0
41
1
10
49.6335322426398
20
1.30556327442935
30
0
41
1
10
49.8674628510566
20
1.13391867130733
30
0
41
1
10
49.9846572635394
20
1.04704992970389
30
0
41
1
10
50.2193193768699
20
0.870936047709108
30
0
41
1
10
50.3367686040261
20
0.781667001376491
30
0
41
1
10
50.483649395424
20
0.668390007762497
30
0
41
1
10
50.5130474991489
20
0.645645981602087
30
0
41
1
10
50.5717454414972
20
0.600128272311167
30
0
41
1
10
50.6596848832799
20
0.531776977241236
30
0
41
1
10
50.7473861039786
20
0.463313293776338
30
0
41
1
10
50.8642700435243
20
0.372139506535149
30
0
41
1
10
50.9226944570056
20
0.326618674271344
30
0
41
1
10
51.039624953984
20
0.235859539144485
30
0
41
1
10
51.0981162406852
20
0.190601572429017
30
0
41
1
10
51.2736061035458
20
0.0551055150374395
30
0
41
1
10
51.3906256110396
20
-0.0348491620805476
30
0
41
1
10
51.7410814848921
20
-0.304493574855996
30
0
41
1
10
51.9736310756809
20
-0.484330785532336
30
0
41
1
10
52.3220784490057
20
-0.75252208097956
30
0
41
1
10
52.4381614195148
20
-0.841662430123392
30
0
41
1
10
52.6123900116895
20
-0.974717401893486
30
0
41
1
10
52.6704971195546
20
-1.01894238451683
30
0
41
1
10
52.7869592305334
20
-1.10690177800495
30
0
41
1
10
52.8453301065349
20
-1.1506161587651
30
0
41
1
10
53.0208921755083
20
-1.28092699351842
30
0
41
1
10
53.1385199250256
20
-1.36670819254567
30
0
41
1
10
53.2861580082793
20
-1.47273127013995
30
0
41
1
10
53.3157324130526
20
-1.4938883192651
30
0
41
1
10
53.3748072812616
20
-1.53599792134105
30
0
41
1
10
53.4633331394472
20
-1.5988772152551
30
0
41
1
10
53.6693050197068
20
-1.74359310238981
30
0
41
1
10
53.8449136403879
20
-1.86415908612338
30
0
41
1
10
54.078323726344
20
-2.02174445183186
30
0
41
1
10
54.1946429661947
20
-2.09897225928179
30
0
41
1
10
54.542816256553
20
-2.32554785111375
30
0
41
1
10
54.7738864909275
20
-2.46975945655777
30
0
41
1
10
55.1214856097283
20
-2.67324762695552
30
0
41
1
10
55.23756586428
20
-2.73890028027412
30
0
41
1
10
55.470189874699
20
-2.8658432028522
30
0
41
1
10
55.5867248240593
20
-2.92714357099851
30
0
41
1
10
55.8200832869472
20
-3.04549921120628
30
0
41
1
10
55.9368566588485
20
-3.10259567852785
30
0
41
1
10
56.1707036869395
20
-3.21240480701226
30
0
41
1
10
56.2878168919366
20
-3.26508041032156
30
0
41
1
10
56.4054275132664
20
-3.31523026956651
30
0
0
SPLINE
5
13A
100
AcDbEntity
8
1
62
256
6
ByLayer
370
18
48
1
60
0
100
AcDbSpline
70
4
71
3
72
28
73
24
40
0
40
0
40
0
40
0
40
0.125000000000003
40
0.125000000000003
40
0.250000000000006
40
0.250000000000006
40
0.375000000000009
40
0.375000000000009
40
0.500000000000012
40
0.500000000000012
40
0.562500000000013
40
0.562500000000013
40
0.625000000000014
40
0.625000000000014
40
0.750000000000017
40
0.750000000000017
40
0.812500000000019
40
0.812500000000019
40
0.84375000000002
40
0.84375000000002
40
0.875000000000022
40
0.875000000000022
40
1
40
1
40
1
40
1
41
1
10
56.4054275132664
20
-3.31523026956651
30
0
41
1
10
56.4559592962657
20
-3.3367773184313
30
0
41
1
10
56.5058730325835
20
-3.36052902750839
30
0
41
1
10
56.6043651748375
20
-3.41225940645498
30
0
41
1
10
56.6529445895524
20
-3.44023697162476
30
0
41
1
10
56.7487059920631
20
-3.50039166222697
30
0
41
1
10
56.7958921188204
20
-3.53256644073298
30
0
41
1
10
56.8887737254035
20
-3.60129716405976
30
0
41
1
10
56.9344686080777
20
-3.63784967300171
30
0
41
1
10
57.0018143499522
20
-3.69629100328936
30
0
41
1
10
57.0240981485348
20
-3.71641173893278
30
0
41
1
10
57.0678531101926
20
-3.75756423455272
30
0
41
1
10
57.0893680503926
20
-3.77863129276358
30
0
41
1
10
57.1528039948963
20
-3.84337218940317
30
0
41
1
10
57.1936212345916
20
-3.88857238127775
30
0
41
1
10
57.2524587391021
20
-3.95990261979836
30
0
41
1
10
57.2716719349495
20
-3.98427065043504
30
0
41
1
10
57.2998551748995
20
-4.02180506987813
30
0
41
1
10
57.309143367479
20
-4.03448058026848
30
0
41
1
10
57.3274992092628
20
-4.06018001615232
30
0
41
1
10
57.3365780859009
20
-4.0732211892358
30
0
41
1
10
57.3811484002951
20
-4.13898424879193
30
0
41
1
10
57.4143344594233
20
-4.19354842017199
30
0
41
1
10
57.4446579978077
20
-4.25047940297509
30
0
0
SPLINE
5
13B
100
AcDbEntity
8
1
62
256
6
ByLayer
370
18
48
1
60
0
100
AcDbSpline
70
4
71
3
72
11
73
7
40
0
40
0
40
0
40
0
40
0.5
40
0.75
40
0.75
40
1
40
1
40
1
40
1
41
1
10
57.4446579978077
20
-4.25047940297506
30
0
41
1
10
57.4686546756441
20
-4.29553200982855
30
0
41
1
10
57.5048327144376
20
-4.36302005547606
30
0
41
1
10
57.5412630782155
20
-4.4303837998873
30
0
41
1
10
57.5656034917458
20
-4.47526669732187
30
0
41
1
10
57.5777996711408
20
-4.49769538608084
30
0
41
1
10
57.59
20
-4.52012158113382
30
0
0
SPLINE
5
13C
100
AcDbEntity
8
1
62
256
6
ByLayer
370
18
48
1
60
0
100
AcDbSpline
70
4
71
3
72
10
73
6
40
0
40
0
40
0
40
0
40
0.5
40
0.5
40
1
40
1
40
1
40
1
41
1
10
58.2268581188143
20
-4.77205798799608
30
0
41
1
10
58.1213329204958
20
-4.73557095268202
30
0
41
1
10
58.0157434397901
20
-4.69625601256482
30
0
41
1
10
57.8036474091805
20
-4.61219753546192
30
0
41
1
10
57.6970805613519
20
-4.56747252560098
30
0
41
1
10
57.59
20
-4.52012158113382
30
0
0
SPLINE
5
13D
100
AcDbEntity
8
1
62
256
6
ByLayer
370
18
48
1
60
0
100
AcDbSpline
70
4
71
3
72
32
73
28
40
0
40
0
40
0
40
0
40
0.0625000000000174
40
0.0625000000000174
40
0.125000000000035
40
0.125000000000035
40
0.187500000000052
40
0.187500000000052
40
0.25000000000007
40
0.25000000000007
40
0.312500000000087
40
0.312500000000087
40
0.375000000000104
40
0.375000000000104
40
0.500000000000141
40
0.500000000000141
40
0.562500000000129
40
0.562500000000129
40
0.625000000000117
40
0.625000000000117
40
0.750000000000094
40
0.750000000000094
40
0.812500000000082
40
0.812500000000082
40
0.875000000000071
40
0.875000000000071
40
1
40
1
40
1
40
1
41
1
10
58.5574940287277
20
-4.83551247334648
30
0
41
1
10
58.5522797155226
20
-4.82631437605946
30
0
41
1
10
58.546552557446
20
-4.81781899281157
30
0
41
1
10
58.5342778360119
20
-4.80195148754203
30
0
41
1
10
58.5277279765426
20
-4.79458253940797
30
0
41
1
10
58.5139080825505
20
-4.78083175008328
30
0
41
1
10
58.5067735208872
20
-4.77458756364732
30
0
41
1
10
58.4922499973381
20
-4.76323081942488
30
0
41
1
10
58.4848404546843
20
-4.75810072579714
30
0
41
1
10
58.4697665816644
20
-4.74879810661525
30
0
41
1
10
58.4620622615747
20
-4.74460860986847
30
0
41
1
10
58.4466311329184
20
-4.73721291916581
30
0
41
1
10
58.4389241045448
20
-4.73400975021988
30
0
41
1
10
58.4158333058604
20
-4.72571659115215
30
0
41
1
10
58.4004791809654
20
-4.72192655718075
30
0
41
1
10
58.3775364242401
20
-4.71860691294
30
0
41
1
10
58.3698785019822
20
-4.71790052913192
30
0
41
1
10
58.3548283117676
20
-4.71729698540588
30
0
41
1
10
58.3474137617969
20
-4.71739402499188
30
0
41
1
10
58.325505371913
20
-4.71885877748096
30
0
41
1
10
58.3113421383607
20
-4.7213817021605
30
0
41
1
10
58.2908531270676
20
-4.72769766716695
30
0
41
1
10
58.2841404242174
20
-4.73023955828546
30
0
41
1
10
58.2712617204412
20
-4.73613766346639
30
0
41
1
10
58.2650619212114
20
-4.73950167538197
30
0
41
1
10
58.2472366072566
20
-4.75093265536216
30
0
41
1
10
58.2363574393609
20
-4.76028541499863
30
0
41
1
10
58.2268581188143
20
-4.77205798799608
30
0
0
SPLINE
5
13E
100
AcDbEntity
8
1
62
256
6
ByLayer
370
18
48
1
60
0
100
AcDbSpline
70
4
71
3
72
8
73
4
40
0
40
0
40
0
40
0
40
1
40
1
40
1
40
1
41
1
10
58.5855937978233
20
-4.88508357682048
30
0
41
1
10
58.576236277665
20
-4.86857480820117
30
0
41
1
10
58.5668692968381
20
-4.85205053402277
30
0
41
1
10
58.5574940287277
20
-4.83551247334648
30
0
0
SPLINE
5
13F
100
AcDbEntity
8
1
62
256
6
ByLayer
370
18
48
1
60
0
100
AcDbSpline
70
4
71
3
72
10
73
6
40
0
40
0
40
0
40
0
40
0.466435292013675
40
0.466435292013675
40
1
40
1
40
1
40
1
41
1
10
59.3903120699955
20
-5.05675723819041
30
0
41
1
10
59.2654412340337
20
-5.039190701564
30
0
41
1
10
59.1405427020291
20
-5.01728273448808
30
0
41
1
10
58.8724481984162
20
-4.96127526453228
30
0
41
1
10
58.7291462037839
20
-4.92587625654252
30
0
41
1
10
58.5855937978232
20
-4.88508357682039
30
0
0
SPLINE
5
140
100
AcDbEntity
8
1
62
256
6
ByLayer
370
18
48
1
60
0
100
AcDbSpline
70
4
71
3
72
8
73
4
40
0
40
0
40
0
40
0
40
1
40
1
40
1
40
1
41
1
10
59.5472281594692
20
-4.89191531131934
30
0
41
1
10
59.5128008447983
20
-4.94996886949733
30
0
41
1
10
59.4784728893926
20
-5.00735030674031
30
0
41
1
10
59.4442249854805
20
-5.06407162522319
30
0
0
SPLINE
5
141
100
AcDbEntity
8
1
62
256
6
ByLayer
370
18
48
1
60
0
100
AcDbSpline
70
4
71
3
72
32
73
28
40
0
40
0
40
0
40
0
40
0.0625000000000011
40
0.0625000000000011
40
0.125000000000002
40
0.125000000000002
40
0.187500000000004
40
0.187500000000004
40
0.250000000000005
40
0.250000000000005
40
0.312500000000006
40
0.312500000000006
40
0.375000000000008
40
0.375000000000008
40
0.50000000000001
40
0.50000000000001
40
0.562500000000011
40
0.562500000000011
40
0.625000000000012
40
0.625000000000012
40
0.749999999999958
40
0.749999999999958
40
0.812499999999957
40
0.812499999999957
40
0.874999999999956
40
0.874999999999956
40
1
40
1
40
1
40
1
41
1
10
59.8800259836701
20
-4.86952494787161
30
0
41
1
10
59.8747742081871
20
-4.86106770526942
30
0
41
1
10
59.869003261577
20
-4.85349305032855
30
0
41
1
10
59.8566319108975
20
-4.83975077149918
30
0
41
1
10
59.8500291363021
20
-4.83358723195536
30
0
41
1
10
59.8360950839276
20
-4.82249609672576
30
0
41
1
10
59.8289062062725
20
-4.81768425214761
30
0
41
1
10
59.8142643585718
20
-4.80932743792567
30
0
41
1
10
59.8067931591607
20
-4.80577115646682
30
0
41
1
10
59.7915908928832
20
-4.79974784680542
30
0
41
1
10
59.7838184709662
20
-4.79727297983479
30
0
41
1
10
59.7682576769187
20
-4.79338629108389
30
0
41
1
10
59.7604844024703
20
-4.79197106688437
30
0
41
1
10
59.7371904892531
20
-4.78913667634941
30
0
41
1
10
59.7216950484264
20
-4.78911086855936
30
0
41
1
10
59.6985321380845
20
-4.79163668512462
30
0
41
1
10
59.6908027462501
20
-4.79291901223965
30
0
41
1
10
59.6756219211949
20
-4.79630082281659
30
0
41
1
10
59.668143528913
20
-4.79840082518916
30
0
41
1
10
59.6460499192723
20
-4.80591206080263
30
0
41
1
10
59.6317710565171
20
-4.8125149720631
30
0
41
1
10
59.611134376346
20
-4.82506592571991
30
0
41
1
10
59.604390423265
20
-4.82970090624994
30
0
41
1
10
59.5914711573688
20
-4.83973624974743
30
0
41
1
10
59.5852599197258
20
-4.84515623119728
30
0
41
1
10
59.5674343686694
20
-4.86272211130338
30
0
41
1
10
59.5565964408175
20
-4.87611791115953
30
0
41
1
10
59.5472281594692
20
-4.89191531131934
30
0
0
SPLINE
5
142
100
AcDbEntity
8
1
62
256
6
ByLayer
370
18
48
1
60
0
100
AcDbSpline
70
4
71
3
72
8
73
4
40
0
40
0
40
0
40
0
40
1
40
1
40
1
40
1
41
1
10
60.0293445636318
20
-5.10792213540338
30
0
41
1
10
59.979834455373
20
-5.02958617676006
30
0
41
1
10
59.9300825155604
20
-4.95013392199741
30
0
41
1
10
59.8800259836701
20
-4.86952494787161
30
0
0
SPLINE
5
143
100
AcDbEntity
8
1
62
256
6
ByLayer
370
18
48
1
60
0
100
AcDbSpline
70
4
71
3
72
8
73
4
40
0
40
0
40
0
40
0
40
1
40
1
40
1
40
1
41
1
10
60.6635666748944
20
-5.07936550011766
30
0
41
1
10
60.4522427689752
20
-5.10225931229249
30
0
41
1
10
60.2413466012943
20
-5.11176838655612
30
0
41
1
10
60.0293445636318
20
-5.10792213540341
30
0
0
SPLINE
5
144
100
AcDbEntity
8
1
62
256
6
ByLayer
370
18
48
1
60
0
100
AcDbSpline
70
4
71
3
72
8
73
4
40
0
40
0
40
0
40
0
40
1
40
1
40
1
40
1
41
1
10
60.8699383563092
20
-4.6816013031511
30
0
41
1
10
60.8007489701077
20
-4.81592064643857
30
0
41
1
10
60.7319650489771
20
-4.94854407294852
30
0
41
1
10
60.6635666748944
20
-5.07936550011772
30
0
0
SPLINE
5
145
100
AcDbEntity
8
1
62
256
6
ByLayer
370
18
48
1
60
0
100
AcDbSpline
70
4
71
3
72
32
73
28
40
0
40
0
40
0
40
0
40
0.0624999999999918
40
0.0624999999999918
40
0.124999999999984
40
0.124999999999984
40
0.187499999999975
40
0.187499999999975
40
0.249999999999967
40
0.249999999999967
40
0.312499999999959
40
0.312499999999959
40
0.374999999999951
40
0.374999999999951
40
0.499999999999995
40
0.499999999999995
40
0.562500000000017
40
0.562500000000017
40
0.62500000000004
40
0.62500000000004
40
0.75000000000003
40
0.75000000000003
40
0.812500000000023
40
0.812500000000023
40
0.875000000000017
40
0.875000000000017
40
1
40
1
40
1
40
1
41
1
10
61.2027061156403
20
-4.5775698068409
30
0
41
1
10
61.1974593811457
20
-4.57050596619319
30
0
41
1
10
61.1916926843439
20
-4.56443100913216
30
0
41
1
10
61.1793271762492
20
-4.55386036756161
30
0
41
1
10
61.1727260218606
20
-4.54936920324565
30
0
41
1
10
61.1587922006378
20
-4.54177611429748
30
0
41
1
10
61.1516021432404
20
-4.53875428227769
30
0
41
1
10
61.1369561965656
20
-4.53402203640223
30
0
41
1
10
61.1294820212151
20
-4.53230477051417
30
0
41
1
10
61.1142722932647
20
-4.53000784517792
30
0
41
1
10
61.106494983972
20
-4.52943043846469
30
0
41
1
10
61.0909275622811
20
-4.52933112461864
30
0
41
1
10
61.0831508967423
20
-4.52980210050981
30
0
41
1
10
61.0598470149259
20
-4.53260820154438
30
0
41
1
10
61.0443452409064
20
-4.53631872061104
30
0
41
1
10
61.0211742614378
20
-4.54442458173617
30
0
41
1
10
61.0134443713503
20
-4.54756737983735
30
0
41
1
10
60.9982656667405
20
-4.55460272738833
30
0
41
1
10
60.9907884893798
20
-4.55850296047029
30
0
41
1
10
60.9686987933094
20
-4.57133878949384
30
0
41
1
10
60.9544229509625
20
-4.58139115166213
30
0
41
1
10
60.9337897955975
20
-4.59895992076602
30
0
41
1
10
60.9270532577752
20
-4.60523460295519
30
0
41
1
10
60.9141468152413
20
-4.61842365725337
30
0
41
1
10
60.9079414897524
20
-4.62536623200572
30
0
41
1
10
60.8901318101171
20
-4.64732479893428
30
0
41
1
10
60.8793019479915
20
-4.6634234935965
30
0
41
1
10
60.8699383563092
20
-4.68160130315121
30
0
0
SPLINE
5
146
100
AcDbEntity
8
1
62
256
6
ByLayer
370
18
48
1
60
0
100
AcDbSpline
70
4
71
3
72
10
73
6
40
0
40
0
40
0
40
0
40
0.5
40
0.5
40
1
40
1
40
1
40
1
41
1
10
61.4719152692301
20
-4.92690179546474
30
0
41
1
10
61.4274545536889
20
-4.87139699888459
30
0
41
1
10
61.3827927050339
20
-4.81455158015254
30
0
41
1
10
61.2930647854126
20
-4.69813764475515
30
0
41
1
10
61.2480037533194
20
-4.63855541505416
30
0
41
1
10
61.2027061156403
20
-4.5775698068409
30
0
0
SPLINE
5
147
100
AcDbEntity
8
1
62
256
6
ByLayer
370
18
48
1
60
0
100
AcDbSpline
70
4
71
3
72
10
73
6
40
0
40
0
40
0
40
0
40
0.5
40
0.5
40
1
40
1
40
1
40
1
41
1
10
61.8816249351391
20
-4.7981394467617
30
0
41
1
10
61.813605942511
20
-4.82256326007371
30
0
41
1
10
61.7454824880821
20
-4.84549992390609
30
0
41
1
10
61.6089053219545
20
-4.88839607811957
30
0
41
1
10
61.5404715210071
20
-4.9083678654909
30
0
41
1
10
61.4719152692301
20
-4.92690179546474
30
0
0
SPLINE
5
148
100
AcDbEntity
8
1
62
256
6
ByLayer
370
18
48
1
60
0
100
AcDbSpline
70
4
71
3
72
8
73
4
40
0
40
0
40
0
40
0
40
1
40
1
40
1
40
1
41
1
10
62.1926089741748
20
-4.15327413970979
30
0
41
1
10
62.0880326910057
20
-4.36940473726546
30
0
41
1
10
61.9843417337631
20
-4.58465834776246
30
0
41
1
10
61.8816249351391
20
-4.79813944676167
30
0
0
SPLINE
5
149
100
AcDbEntity
8
1
62
256
6
ByLayer
370
18
48
1
60
0
100
AcDbSpline
70
4
71
3
72
32
73
28
40
0
40
0
40
0
40
0
40
0.0624999999999994
40
0.0624999999999994
40
0.124999999999999
40
0.124999999999999
40
0.187499999999998
40
0.187499999999998
40
0.249999999999998
40
0.249999999999998
40
0.312499999999997
40
0.312499999999997
40
0.374999999999996
40
0.374999999999996
40
0.499999999999995
40
0.499999999999995
40
0.562500000000024
40
0.562500000000024
40
0.625000000000054
40
0.625000000000054
40
0.750000000000053
40
0.750000000000053
40
0.812500000000051
40
0.812500000000051
40
0.875000000000049
40
0.875000000000049
40
1
40
1
40
1
40
1
41
1
10
62.5255117706411
20
-3.9740126592379
30
0
41
1
10
62.520256437181
20
-3.96881694440654
30
0
41
1
10
62.5144809268078
20
-3.96465620210353
30
0
41
1
10
62.5020990743024
20
-3.95798569415837
30
0
41
1
10
62.4954903644065
20
-3.95548070755814
30
0
41
1
10
62.4815438763076
20
-3.95192227939364
30
0
41
1
10
62.4743473136045
20
-3.95090719149894
30
0
41
1
10
62.4596915021771
20
-3.95014457410082
30
0
41
1
10
62.4522134919251
20
-3.95039509571163
30
0
41
1
10
62.4369985805913
20
-3.95200428034576
30
0
41
1
10
62.4292205276844
20
-3.95337503849583
30
0
41
1
10
62.4136480846354
20
-3.95709229320883
30
0
41
1
10
62.4058699111926
20
-3.95942844294603
30
0
41
1
10
62.3825646518246
20
-3.96771619806793
30
0
41
1
10
62.3670661732227
20
-3.97493074490942
30
0
41
1
10
62.3439065411478
20
-3.98809135090792
30
0
41
1
10
62.336178668
20
-3.99289071836657
30
0
41
1
10
62.3210006712537
20
-4.00312464858962
30
0
41
1
10
62.3135245103802
20
-4.0085716681445
30
0
41
1
10
62.2914394392132
20
-4.02589411232364
30
0
41
1
10
62.2771689473834
20
-4.03873520028694
30
0
41
1
10
62.2565444164944
20
-4.06015616642102
30
0
41
1
10
62.2498010014896
20
-4.06766750294639
30
0
41
1
10
62.2368808252784
20
-4.08316306482212
30
0
41
1
10
62.2306682856594
20
-4.09118217702803
30
0
41
1
10
62.2128358887348
20
-4.11612189067401
30
0
41
1
10
62.2019891973852
20
-4.13388778186444
30
0
41
1
10
62.1926089741748
20
-4.15327413971002
30
0
0
SPLINE
5
14A
100
AcDbEntity
8
1
62
256
6
ByLayer
370
18
48
1
60
0
100
AcDbSpline
70
4
71
3
72
10
73
6
40
0
40
0
40
0
40
0
40
0.5
40
0.5
40
1
40
1
40
1
40
1
41
1
10
62.9151704498883
20
-4.32142628989189
30
0
41
1
10
62.8510650172838
20
-4.27049501831397
30
0
41
1
10
62.7865369990511
20
-4.21607873410818
30
0
41
1
10
62.6566591528041
20
-4.10040237410135
30
0
41
1
10
62.5913263599234
20
-4.03908062119007
30
0
41
1
10
62.5255117706429
20
-3.97401265923475
30
0
0
SPLINE
5
14B
100
AcDbEntity
8
1
62
256
6
ByLayer
370
18
48
1
60
0
100
AcDbSpline
70
4
71
3
72
8
73
4
40
0
40
0
40
0
40
0
40
1
40
1
40
1
40
1
41
1
10
63.0994408997266
20
-4.21500849755586
30
0
41
1
10
63.0380740111334
20
-4.25157496512625
30
0
41
1
10
62.9766439784099
20
-4.28703797334802
30
0
41
1
10
62.9151704498883
20
-4.32142628989189
30
0
0
SPLINE
5
14C
100
AcDbEntity
8
1
62
256
6
ByLayer
370
18
48
1
60
0
100
AcDbSpline
70
4
71
3
72
8
73
4
40
0
40
0
40
0
40
0
40
1
40
1
40
1
40
1
41
1
10
63.3011396940572
20
-3.78897301235548
30
0
41
1
10
63.2334606764404
20
-3.93049690123971
30
0
41
1
10
63.1662619693706
20
-4.0725481266457
30
0
41
1
10
63.0994408997266
20
-4.21500849755586
30
0
0
SPLINE
5
14D
100
AcDbEntity
8
1
62
256
6
ByLayer
370
18
48
1
60
0
100
AcDbSpline
70
4
71
3
72
10
73
6
40
0
40
0
40
0
40
0
40
0.5
40
0.5
40
1
40
1
40
1
40
1
41
1
10
68.5206954114444
20
4.46954591053981
30
0
41
1
10
68.5903053161234
20
4.40776687483398
30
0
41
1
10
68.6604483503774
20
4.34192112786147
30
0
41
1
10
68.8016872902077
20
4.20228355215374
30
0
41
1
10
68.8727147399665
20
4.12858647569655
30
0
41
1
10
68.9442848729952
20
4.05084808925199
30
0
0
SPLINE
5
14E
100
AcDbEntity
8
1
62
256
6
ByLayer
370
18
48
1
60
0
100
AcDbSpline
70
4
71
3
72
8
73
4
40
0
40
0
40
0
40
0
40
1
40
1
40
1
40
1
41
1
10
68.5206954114444
20
4.46954591053981
30
0
41
1
10
68.47739345741
20
4.44056756709222
30
0
41
1
10
68.434109881949
20
4.4111107371904
30
0
41
1
10
68.3908369316861
20
4.38118057252538
30
0
0
SPLINE
5
14F
100
AcDbEntity
8
1
62
256
6
ByLayer
370
18
48
1
60
0
100
AcDbSpline
70
4
71
3
72
10
73
6
40
0
40
0
40
0
40
0
40
0.258864640926445
40
0.258864640926445
40
1
40
1
40
1
40
1
41
1
10
68.09751257862
20
3.74499661472913
30
0
41
1
10
68.1230318453335
20
3.79973625537696
30
0
41
1
10
68.148497536653
20
3.85454076019306
30
0
41
1
10
68.2466850134913
20
4.06647681724263
30
0
41
1
10
68.3189875561366
20
4.22386218583213
30
0
41
1
10
68.3908369316861
20
4.38118057252538
30
0
0
SPLINE
5
150
100
AcDbEntity
8
1
62
256
6
ByLayer
370
18
48
1
60
0
100
AcDbSpline
70
4
71
3
72
102
73
98
40
0
40
0
40
0
40
0
40
0.018412688473991
40
0.018412688473991
40
0.0500767952974183
40
0.0500767952974183
40
0.0817409021208456
40
0.0817409021208456
40
0.113405008944273
40
0.113405008944273
40
0.129237062355986
40
0.129237062355986
40
0.137153089061842
40
0.137153089061842
40
0.145069115767699
40
0.145069115767699
40
0.176733222591121
40
0.176733222591121
40
0.192565276002832
40
0.192565276002832
40
0.208397329414543
40
0.208397329414543
40
0.240061436237963
40
0.240061436237963
40
0.271725543061384
40
0.271725543061384
40
0.279641569767239
40
0.279641569767239
40
0.287557596473093
40
0.303389649884803
40
0.303389649884803
40
0.335053756708222
40
0.335053756708222
40
0.366717863531641
40
0.366717863531641
40
0.398381970355061
40
0.398381970355061
40
0.41421402376677
40
0.41421402376677
40
0.422130050472625
40
0.422130050472625
40
0.43004607717848
40
0.43004607717848
40
0.461710184001895
40
0.461710184001895
40
0.49337429082531
40
0.49337429082531
40
0.509206344237018
40
0.509206344237018
40
0.525038397648725
40
0.525038397648725
40
0.55670250447214
40
0.55670250447214
40
0.572534557883848
40
0.572534557883848
40
0.588366611295556
40
0.588366611295556
40
0.620030718118972
40
0.620030718118972
40
0.63586277153068
40
0.63586277153068
40
0.651694824942389
40
0.651694824942389
40
0.667526878354097
40
0.667526878354097
40
0.683358931765805
40
0.683358931765805
40
0.715023038589222
40
0.715023038589222
40
0.722939065295077
40
0.722939065295077
40
0.730855092000932
40
0.730855092000932
40
0.746687145412641
40
0.746687145412641
40
0.778351252236059
40
0.778351252236059
40
0.810015359059477
40
0.810015359059477
40
0.841679465882895
40
0.841679465882895
40
0.857511519294603
40
0.857511519294603
40
0.865427546000458
40
0.865427546000458
40
0.873343572706312
40
0.889175626118023
40
0.889175626118023
40
0.905007679529733
40
0.905007679529733
40
0.936671786353155
40
0.936671786353155
40
0.952503839764867
40
0.952503839764867
40
0.968335893176578
40
0.968335893176578
40
1
40
1
40
1
40
1
41
1
10
56.1511667779122
20
-3.95200459076744
30
0
41
1
10
56.0336711289783
20
-3.95200617455819
30
0
41
1
10
55.9165395806915
20
-3.9488228225766
30
0
41
1
10
55.598867521875
20
-3.93162818333911
30
0
41
1
10
55.3989059517747
20
-3.91144228825712
30
0
41
1
10
54.9990676638815
20
-3.85292676928688
30
0
41
1
10
54.7991510034123
20
-3.81462959957849
30
0
41
1
10
54.3985192871691
20
-3.72024386271451
30
0
41
1
10
54.1978273857723
20
-3.66414874345597
30
0
41
1
10
53.8956601656908
20
-3.56660669433904
30
0
41
1
10
53.7947443537479
20
-3.53185865173788
30
0
41
1
10
53.6429540211807
20
-3.47639416009574
30
0
41
1
10
53.5922548617088
20
-3.45733530801388
30
0
41
1
10
53.4911021277041
20
-3.41826622271773
30
0
41
1
10
53.4406036082775
20
-3.3982402753613
30
0
41
1
10
53.188445583787
20
-3.2957075228274
30
0
41
1
10
52.9878032600572
20
-3.20597248393145
30
0
41
1
10
52.6870519317037
20
-3.06117694489237
30
0
41
1
10
52.5868180465798
20
-3.01123312437892
30
0
41
1
10
52.3864989381868
20
-2.9079244684292
30
0
41
1
10
52.2864270831253
20
-2.85454592475921
30
0
41
1
10
51.9862908778284
20
-2.68939117234368
30
0
41
1
10
51.7863023188228
20
-2.57260357426784
30
0
41
1
10
51.3855576202616
20
-2.32637438986427
30
0
41
1
10
51.1848499125634
20
-2.19686028622871
30
0
41
1
10
50.9321510028208
20
-2.02828153382975
30
0
41
1
10
50.8815085517417
20
-1.99422768419768
30
0
41
1
10
50.7800530458174
20
-1.92551386449671
30
0
41
1
10
50.6280348027892
20
-1.82180135903562
30
0
41
1
10
50.4765564562948
20
-1.71612906837757
30
0
41
1
10
50.1744339494129
20
-1.50205784249988
30
0
41
1
10
49.9741800604884
20
-1.35564396191236
30
0
41
1
10
49.5743293401969
20
-1.05748092792777
30
0
41
1
10
49.3747141726724
20
-0.905755320262841
30
0
41
1
10
48.9745799246638
20
-0.598956900687966
30
0
41
1
10
48.7741264989471
20
-0.443805647467883
30
0
41
1
10
48.4723468273971
20
-0.209081894003958
30
0
41
1
10
48.3715695842454
20
-0.130508123917906
30
0
41
1
10
48.2200566384207
20
-0.0122290310585527
30
0
41
1
10
48.1694950624246
20
0.0272679118783117
30
0
41
1
10
48.0682382802524
20
0.106380367015817
30
0
41
1
10
48.0175118460505
20
0.146019734243453
30
0
41
1
10
47.764512735976
20
0.343649915106425
30
0
41
1
10
47.5634061966182
20
0.500520041836381
30
0
41
1
10
47.1624232930033
20
0.810152728743077
30
0
41
1
10
46.9624832553896
20
0.962830361013317
30
0
41
1
10
46.6621498248053
20
1.18714672314624
30
0
41
1
10
46.5620350940719
20
1.26122050131133
30
0
41
1
10
46.3618952282714
20
1.40808560961616
30
0
41
1
10
46.2618393645373
20
1.48083837430443
30
0
41
1
10
45.9614445666712
20
1.69671259273051
30
0
41
1
10
45.7608997897828
20
1.83747424171654
30
0
41
1
10
45.4585129253289
20
2.04243782309644
30
0
41
1
10
45.3574239698696
20
2.10973511877256
30
0
41
1
10
45.1546068865178
20
2.24194969455053
30
0
41
1
10
45.0534730345753
20
2.30649782149376
30
0
41
1
10
44.750764011742
20
2.49542635780278
30
0
41
1
10
44.5498695033296
20
2.61508663377842
30
0
41
1
10
44.2493504291443
20
2.78479670048512
30
0
41
1
10
44.1493165909404
20
2.83973654678593
30
0
41
1
10
43.9494508663449
20
2.94628500506835
30
0
41
1
10
43.8496340317621
20
2.99790477735527
30
0
41
1
10
43.6499340612107
20
3.09756959295117
30
0
41
1
10
43.5500470813537
20
3.14561132767534
30
0
41
1
10
43.3498877892098
20
3.23787214505603
30
0
41
1
10
43.2496231932835
20
3.28210006201761
30
0
41
1
10
42.9482542325559
20
3.40905443015117
30
0
41
1
10
42.7466079310879
20
3.48608520801798
30
0
41
1
10
42.4932836927833
20
3.57237633805033
30
0
41
1
10
42.4425238826225
20
3.58914198386813
30
0
41
1
10
42.3412739161653
20
3.62152676438737
30
0
41
1
10
42.2907390838716
20
3.63716294260522
30
0
41
1
10
42.1393700008534
20
3.68239394457746
30
0
41
1
10
42.0387681956798
20
3.71030902727568
30
0
41
1
10
41.737557476399
20
3.78725496139916
30
0
41
1
10
41.537536631157
20
3.82947673906654
30
0
41
1
10
41.1373613394583
20
3.89556815405254
30
0
41
1
10
40.9372423496038
20
3.91948790806487
30
0
41
1
10
40.5368703800298
20
3.94904981067595
30
0
41
1
10
40.3366921033827
20
3.95465668043156
30
0
41
1
10
40.0350341299622
20
3.94892410557685
30
0
41
1
10
39.9342588057349
20
3.94465950103637
30
0
41
1
10
39.782643880076
20
3.93469346265593
30
0
41
1
10
39.7320198151679
20
3.93077564652037
30
0
41
1
10
39.6306420053108
20
3.92174743943482
30
0
41
1
10
39.4787921051111
20
3.90645359296994
30
0
41
1
10
39.3274950048619
20
3.8859747985928
30
0
41
1
10
39.1260887408005
20
3.85418159667719
30
0
41
1
10
39.025548012316
20
3.83604240113124
30
0
41
1
10
38.7243799345394
20
3.77498576732208
30
0
41
1
10
38.5242532670968
20
3.72542595417133
30
0
41
1
10
38.2247006560887
20
3.6378988307537
30
0
41
1
10
38.1249145639669
20
3.60653823551689
30
0
41
1
10
37.9251275018422
20
3.53961732550283
30
0
41
1
10
37.8251061445412
20
3.5040706303237
30
0
41
1
10
37.5244337179146
20
3.39131570773017
30
0
41
1
10
37.3232272965405
20
3.30798100400793
30
0
41
1
10
37.1210594425038
20
3.21645857293262
30
0
0
SPLINE
5
151
100
AcDbEntity
8
1
62
256
6
ByLayer
370
18
48
1
60
0
100
AcDbSpline
70
4
71
3
72
12
73
8
40
0
40
0
40
0
40
0
40
0.296311256791543
40
0.296311256791543
40
0.834974792590262
40
0.834974792590262
40
1
40
1
40
1
40
1
41
1
10
37.1210670088629
20
3.21645747878659
30
0
41
1
10
37.0935436828053
20
3.16449922982358
30
0
41
1
10
37.0648354067562
20
3.11356674451824
30
0
41
1
10
36.9804642841046
20
2.97305163702782
30
0
41
1
10
36.9214770488977
20
2.88534509181045
30
0
41
1
10
36.8398373693271
20
2.77796810494149
30
0
41
1
10
36.8203908575257
20
2.75339303608396
30
0
41
1
10
36.8006844562911
20
2.7293418434754
30
0
0
SPLINE
5
152
100
AcDbEntity
8
1
62
256
6
ByLayer
370
18
48
1
60
0
100
AcDbSpline
70
4
71
3
72
116
73
112
40
0
40
0
40
0
40
0
40
0.0379968076649335
40
0.0379968076649335
40
0.0569952114974002
40
0.0569952114974002
40
0.0759936153298669
40
0.0759936153298669
40
0.0949920191623336
40
0.0949920191623336
40
0.1139904229948
40
0.1139904229948
40
0.132988826827267
40
0.132988826827267
40
0.1424880287435
40
0.1424880287435
40
0.151987230659732
40
0.151987230659732
40
0.170985634492196
40
0.170985634492196
40
0.18998403832466
40
0.18998403832466
40
0.208982442157124
40
0.208982442157124
40
0.218481644073356
40
0.218481644073356
40
0.227980845989588
40
0.227980845989588
40
0.246979249822051
40
0.246979249822051
40
0.265977653654513
40
0.265977653654513
40
0.284976057486976
40
0.284976057486976
40
0.294475259403206
40
0.294475259403206
40
0.303974461319437
40
0.303974461319437
40
0.341971268984359
40
0.341971268984359
40
0.360969672816821
40
0.360969672816821
40
0.379968076649283
40
0.379968076649283
40
0.398966480481745
40
0.398966480481745
40
0.417964884314207
40
0.417964884314207
40
0.436963288146669
40
0.436963288146669
40
0.446462490062899
40
0.446462490062899
40
0.455961691979129
40
0.455961691979129
40
0.493958499644049
40
0.493958499644049
40
0.512956903476508
40
0.512956903476508
40
0.531955307308968
40
0.531955307308968
40
0.550953711141428
40
0.550953711141428
40
0.569952114973888
40
0.588950518806348
40
0.588950518806348
40
0.598449720722577
40
0.598449720722577
40
0.607948922638806
40
0.607948922638806
40
0.626947326471264
40
0.626947326471264
40
0.645945730303723
40
0.645945730303723
40
0.683942537968638
40
0.683942537968638
40
0.702940941801096
40
0.702940941801096
40
0.721939345633555
40
0.721939345633555
40
0.740937749466013
40
0.740937749466013
40
0.750436951382242
40
0.750436951382242
40
0.75993615329847
40
0.75993615329847
40
0.778934557130928
40
0.778934557130928
40
0.797932960963387
40
0.797932960963387
40
0.835929768628303
40
0.835929768628303
40
0.854928172460762
40
0.854928172460762
40
0.87392657629322
40
0.87392657629322
40
0.892924980125678
40
0.892924980125678
40
0.897674581083793
40
0.897674581083793
40
0.902424182041907
40
0.911923383958134
40
0.911923383958134
40
0.921422585874361
40
0.921422585874361
40
0.930921787790588
40
0.930921787790588
40
0.949920191623042
40
0.949920191623042
40
0.987916999287952
40
0.987916999287952
40
1
40
1
40
1
40
1
41
1
10
33.9820167199149
20
3.82825020117446
30
0
41
1
10
34.2164894053401
20
3.78298361989988
30
0
41
1
10
34.4503412537759
20
3.72600946967853
30
0
41
1
10
34.8003471036658
20
3.62362552558383
30
0
41
1
10
34.916876651892
20
3.58666407330381
30
0
41
1
10
35.149565754845
20
3.5069908297838
30
0
41
1
10
35.2656916235869
20
3.46425281695846
30
0
41
1
10
35.4979343413909
20
3.3731487267427
30
0
41
1
10
35.6140547661767
20
3.32478254614622
30
0
41
1
10
35.8469025207344
20
3.22280289914221
30
0
41
1
10
35.9636839419352
20
3.16923365706975
30
0
41
1
10
36.1982412362014
20
3.05716542309091
30
0
41
1
10
36.3159871513696
20
2.99864656886197
30
0
41
1
10
36.493274458403
20
2.90707024045196
30
0
41
1
10
36.5523326415374
20
2.87598624655234
30
0
41
1
10
36.6701769188094
20
2.81278968626938
30
0
41
1
10
36.7289920475269
20
2.78066212131762
30
0
41
1
10
36.905084277756
20
2.68266649985665
30
0
41
1
10
37.0219577840537
20
2.61513637235595
30
0
41
1
10
37.2549019238044
20
2.47590005390478
30
0
41
1
10
37.3710023565485
20
2.40422113856246
30
0
41
1
10
37.6030429559813
20
2.25735142020943
30
0
41
1
10
37.7189834282833
20
2.18216005254405
30
0
41
1
10
37.8932990947176
20
2.06734380228923
30
0
41
1
10
37.9514747610736
20
2.02873744958211
30
0
41
1
10
38.0680516413806
20
1.95096235484999
30
0
41
1
10
38.1264436122245
20
1.9117838904414
30
0
41
1
10
38.3017942883231
20
1.79323232886497
30
0
41
1
10
38.4189313687183
20
1.71285457807528
30
0
41
1
10
38.6527583930892
20
1.54826709876664
30
0
41
1
10
38.7694841377307
20
1.46408788367563
30
0
41
1
10
39.0032099168037
20
1.29262624988922
30
0
41
1
10
39.1202112763535
20
1.20534417803341
30
0
41
1
10
39.2965113894994
20
1.07278926710123
30
0
41
1
10
39.355291500093
20
1.0284388714754
30
0
41
1
10
39.4726726374917
20
0.939655281853959
30
0
41
1
10
39.5313092773602
20
0.895187789868089
30
0
41
1
10
39.8242663921595
20
0.672528984965112
30
0
41
1
10
40.0579326011614
20
0.493405133348688
30
0
41
1
10
40.4079582524049
20
0.223978691455386
30
0
41
1
10
40.5245567922991
20
0.134049374238941
30
0
41
1
10
40.7573330934888
20
-0.0463991379310755
30
0
41
1
10
40.8734507556349
20
-0.136996788326087
30
0
41
1
10
41.1056555823945
20
-0.318273747912684
30
0
41
1
10
41.2217505349119
20
-0.408942919650485
30
0
41
1
10
41.4546698670301
20
-0.589371439726108
30
0
41
1
10
41.5715591463172
20
-0.679046005284249
30
0
41
1
10
41.8062928078817
20
-0.857190370060408
30
0
41
1
10
41.9241223523912
20
-0.945679523783497
30
0
41
1
10
42.1014779728176
20
-1.077647199941
30
0
41
1
10
42.1605901915564
20
-1.12142977118808
30
0
41
1
10
42.2784795585393
20
-1.20839884382414
30
0
41
1
10
42.3373023575084
20
-1.25161938425114
30
0
41
1
10
42.6307232805498
20
-1.46651097688317
30
0
41
1
10
42.8631581615972
20
-1.63462183714742
30
0
41
1
10
43.2111705157287
20
-1.87768241465261
30
0
41
1
10
43.3270797897447
20
-1.95717464384356
30
0
41
1
10
43.5594194496168
20
-2.11234237105154
30
0
41
1
10
43.6759450164455
20
-2.18791892185968
30
0
41
1
10
43.9094603133467
20
-2.33539035211265
30
0
41
1
10
44.02639869706
20
-2.4073421881391
30
0
41
1
10
44.2601426196525
20
-2.54814723532778
30
0
41
1
10
44.4938828660597
20
-2.68570849874692
30
0
41
1
10
44.7283613947133
20
-2.81585851060194
30
0
41
1
10
44.9048163147432
20
-2.91032565224458
30
0
41
1
10
44.9636521777317
20
-2.94124532260329
30
0
41
1
10
45.0810400069561
20
-3.0017111491575
30
0
41
1
10
45.1396475638308
20
-3.03128713453313
30
0
41
1
10
45.3153038216049
20
-3.11799038162653
30
0
41
1
10
45.43222175843
20
-3.17306374447457
30
0
41
1
10
45.6659511332109
20
-3.27769247555256
30
0
41
1
10
45.7827288202004
20
-3.32727862017168
30
0
41
1
10
46.1326026313526
20
-3.46809684455761
30
0
41
1
10
46.3652634454695
20
-3.55140305749995
30
0
41
1
10
46.7133958499853
20
-3.66011975589296
30
0
41
1
10
46.8292215284938
20
-3.69365993419942
30
0
41
1
10
47.0620189300857
20
-3.75455589889091
30
0
41
1
10
47.1789142749048
20
-3.78196843318636
30
0
41
1
10
47.4135642535261
20
-3.83080937309967
30
0
41
1
10
47.5312953277334
20
-3.85224558594865
30
0
41
1
10
47.7084525227096
20
-3.8798739610763
30
0
41
1
10
47.7675488032608
20
-3.88831577660434
30
0
41
1
10
47.8854085311061
20
-3.90360621837533
30
0
41
1
10
47.9442341798466
20
-3.9104648463082
30
0
41
1
10
48.1204130596779
20
-3.92869366681171
30
0
41
1
10
48.2374641350506
20
-3.9377195601364
30
0
41
1
10
48.4708350279544
20
-3.94953447272633
30
0
41
1
10
48.5871710486967
20
-3.9523173443863
30
0
41
1
10
48.9357047462517
20
-3.95127913747962
30
0
41
1
10
49.1674178409303
20
-3.93802802093771
30
0
41
1
10
49.5167974085858
20
-3.89986338341586
30
0
41
1
10
49.6335322426398
20
-3.88410677117611
30
0
41
1
10
49.8674628510566
20
-3.84651800324454
30
0
41
1
10
49.9846572635394
20
-3.82468721757993
30
0
41
1
10
50.2193193768699
20
-3.77478085524763
30
0
41
1
10
50.3367686040261
20
-3.74669836571806
30
0
41
1
10
50.4836493954239
20
-3.70748215292437
30
0
41
1
10
50.5130474991489
20
-3.69943109957032
30
0
41
1
10
50.5717454414973
20
-3.68296391488909
30
0
41
1
10
50.65968488328
20
-3.6577058628063
30
0
41
1
10
50.7473861039786
20
-3.63081975388519
30
0
41
1
10
50.8642700435243
20
-3.59362582395357
30
0
41
1
10
50.9226944570055
20
-3.57436057122203
30
0
41
1
10
51.039624953984
20
-3.53458867099846
30
0
41
1
10
51.0981162406852
20
-3.51407443871284
30
0
41
1
10
51.2736061035458
20
-3.45064763831965
30
0
41
1
10
51.3906256110396
20
-3.40586071273324
30
0
41
1
10
51.7410814848921
20
-3.26366465019927
30
0
41
1
10
51.9736310756809
20
-3.15819721738566
30
0
41
1
10
52.2798002647604
20
-3.00563582311253
30
0
41
1
10
52.3536444458853
20
-2.96778465374621
30
0
41
1
10
52.4274967468519
20
-2.92890921665463
30
0
0
SPLINE
5
153
100
AcDbEntity
8
1
62
256
6
ByLayer
370
18
48
1
60
0
100
AcDbSpline
70
4
71
3
72
12
73
8
40
0
40
0
40
0
40
0
40
0.562400168202651
40
0.562400168202651
40
0.843600252303988
40
0.843600252303988
40
1
40
1
40
1
40
1
41
1
10
64.7134992469799
20
5.60993560607776
30
0
41
1
10
64.6437691658108
20
5.49191169703141
30
0
41
1
10
64.5735520671267
20
5.37215283258297
30
0
41
1
10
64.467416564364
20
5.19012642311912
30
0
41
1
10
64.4319147318544
20
5.12907235936552
30
0
41
1
10
64.3764509788042
20
5.03347864687387
30
0
41
1
10
64.3565883423503
20
4.99920313677939
30
0
41
1
10
64.3366829220689
20
4.96481845822652
30
0
0
SPLINE
5
154
100
AcDbEntity
8
1
62
256
6
ByLayer
370
18
48
1
60
0
100
AcDbSpline
70
4
71
3
72
8
73
4
40
0
40
0
40
0
40
0
40
1
40
1
40
1
40
1
41
1
10
64.7915005371992
20
5.61059698779377
30
0
41
1
10
64.8089280045483
20
5.61059695592994
30
0
41
1
10
64.8263490939105
20
5.61049791991033
30
0
41
1
10
64.8437644142442
20
5.61030023547568
30
0
0
SPLINE
5
155
100
AcDbEntity
8
1
62
256
6
ByLayer
370
18
48
1
60
0
100
AcDbSpline
70
4
71
3
72
10
73
6
40
0
40
0
40
0
40
0
40
0.539683750067593
40
0.539683750067593
40
1
40
1
40
1
40
1
41
1
10
65.2787530639075
20
4.86149685320581
30
0
41
1
10
65.2420514874812
20
4.92672727080918
30
0
41
1
10
65.2054684083176
20
4.99127883103913
30
0
41
1
10
65.1378568776187
20
5.1096581568701
30
0
41
1
10
65.1068077228937
20
5.16365938263189
30
0
41
1
10
65.0758385335778
20
5.21713973708486
30
0
0
SPLINE
5
156
100
AcDbEntity
8
1
62
256
6
ByLayer
370
18
48
1
60
0
100
AcDbSpline
70
4
71
3
72
32
73
28
40
0
40
0
40
0
40
0
40
0.0625000000000271
40
0.0625000000000271
40
0.125000000000054
40
0.125000000000054
40
0.187500000000081
40
0.187500000000081
40
0.250000000000108
40
0.250000000000108
40
0.312500000000135
40
0.312500000000135
40
0.375000000000162
40
0.375000000000162
40
0.500000000000157
40
0.500000000000157
40
0.562500000000155
40
0.562500000000155
40
0.625000000000152
40
0.625000000000152
40
0.750000000000149
40
0.750000000000149
40
0.812500000000123
40
0.812500000000123
40
0.875000000000096
40
0.875000000000096
40
1
40
1
40
1
40
1
41
1
10
65.6115874985696
20
4.81331967443515
30
0
41
1
10
65.6063482980902
20
4.80527737386163
30
0
41
1
10
65.6005948764148
20
4.79815458468602
30
0
41
1
10
65.5882672324291
20
4.78537262368698
30
0
41
1
10
65.5816906544678
20
4.77971772908748
30
0
41
1
10
65.5678172889497
20
4.76969158300776
30
0
41
1
10
65.5606478579447
20
4.76541631512967
30
0
41
1
10
65.5460565405537
20
4.75815425823879
30
0
41
1
10
65.5386112065378
20
4.75515359917756
30
0
41
1
10
65.5234614546841
20
4.75025586534764
30
0
41
1
10
65.5157197506023
20
4.74835418476385
30
0
41
1
10
65.5001832620879
20
4.74560620194629
30
0
41
1
10
65.492420971389
20
4.74475947155662
30
0
41
1
10
65.4691563800477
20
4.74362903666761
30
0
41
1
10
65.4536755833934
20
4.74473711464782
30
0
41
1
10
65.4305270630941
20
4.74896538962838
30
0
41
1
10
65.4227934788319
20
4.75081848449329
30
0
41
1
10
65.4075838179639
20
4.75533432433895
30
0
41
1
10
65.4000910025085
20
4.75799658462438
30
0
41
1
10
65.3779543983264
20
4.76718088641508
30
0
41
1
10
65.3636472373188
20
4.77488125360958
30
0
41
1
10
65.3429701010824
20
4.78904873863888
30
0
41
1
10
65.3361907738427
20
4.79423351855505
30
0
41
1
10
65.3231998544772
20
4.80534809560862
30
0
41
1
10
65.3169556072051
20
4.81129639916625
30
0
41
1
10
65.2990400153563
20
4.83040970623057
30
0
41
1
10
65.2881536760794
20
4.84478896440623
30
0
41
1
10
65.2787530639075
20
4.86149685320586
30
0
0
SPLINE
5
157
100
AcDbEntity
8
1
62
256
6
ByLayer
370
18
48
1
60
0
100
AcDbSpline
70
4
71
3
72
12
73
8
40
0
40
0
40
0
40
0
40
0.499999999999999
40
0.499999999999999
40
0.75
40
0.75
40
1
40
1
40
1
40
1
41
1
10
66.0364398023112
20
5.44215049052175
30
0
41
1
10
65.9666853432224
20
5.34293719858582
30
0
41
1
10
65.896447629712
20
5.24092345334228
30
0
41
1
10
65.7902456984187
20
5.08371822707394
30
0
41
1
10
65.7547162688915
20
5.03063254567994
30
0
41
1
10
65.683364183324
20
4.92303354543034
30
0
41
1
10
65.6475520714922
20
4.86852617141403
30
0
41
1
10
65.6115874985696
20
4.81331967443515
30
0
0
SPLINE
5
158
100
AcDbEntity
8
1
62
256
6
ByLayer
370
18
48
1
60
0
100
AcDbSpline
70
4
71
3
72
8
73
4
40
0
40
0
40
0
40
0
40
1
40
1
40
1
40
1
41
1
10
66.0364398023119
20
5.44215049053704
30
0
41
1
10
66.0799385935645
20
5.43039473556928
30
0
41
1
10
66.1234929846527
20
5.41803445981776
30
0
41
1
10
66.1671091102902
20
5.40507112657147
30
0
0
SPLINE
5
159
100
AcDbEntity
8
1
62
256
6
ByLayer
370
18
48
1
60
0
100
AcDbSpline
70
4
71
3
72
12
73
8
40
0
40
0
40
0
40
0
40
0.250000000000004
40
0.250000000000004
40
0.500000000000009
40
0.500000000000009
40
1
40
1
40
1
40
1
41
1
10
66.6015205687837
20
4.54780398983075
30
0
41
1
10
66.5648528564785
20
4.62080591778181
30
0
41
1
10
66.5283059631127
20
4.6934480626812
30
0
41
1
10
66.455410955444
20
4.83801239739165
30
0
41
1
10
66.4190685842019
20
4.90993412676133
30
0
41
1
10
66.3103841678489
20
5.12451600881792
30
0
41
1
10
66.2384767682423
20
5.26582324275248
30
0
41
1
10
66.1671091102903
20
5.40507112657147
30
0
0
SPLINE
5
15A
100
AcDbEntity
8
1
62
256
6
ByLayer
370
18
48
1
60
0
100
AcDbSpline
70
4
71
3
72
32
73
28
40
0
40
0
40
0
40
0
40
0.0624999999999926
40
0.0624999999999926
40
0.124999999999985
40
0.124999999999985
40
0.187499999999978
40
0.187499999999978
40
0.24999999999997
40
0.24999999999997
40
0.312499999999963
40
0.312499999999963
40
0.374999999999955
40
0.374999999999955
40
0.499999999999942
40
0.499999999999942
40
0.562499999999937
40
0.562499999999937
40
0.624999999999931
40
0.624999999999931
40
0.74999999999992
40
0.74999999999992
40
0.812499999999941
40
0.812499999999941
40
0.874999999999962
40
0.874999999999962
40
1
40
1
40
1
40
1
41
1
10
66.9342825674984
20
4.41943305800808
30
0
41
1
10
66.9290472706882
20
4.41295789734767
30
0
41
1
10
66.9232961852693
20
4.40748576680068
30
0
41
1
10
66.9109689214217
20
4.39814153770376
30
0
41
1
10
66.904390415097
20
4.39427404004527
30
0
41
1
10
66.89050839424
20
4.38794498358698
30
0
41
1
10
66.8833346739832
20
4.38554619601317
30
0
41
1
10
66.8687309414931
20
4.38204929431049
30
0
41
1
10
66.8612781951658
20
4.38094380876584
30
0
41
1
10
66.8461116231869
20
4.37986032771954
30
0
41
1
10
66.8383589674472
20
4.37988706836771
30
0
41
1
10
66.8228108261418
20
4.38097332029551
30
0
41
1
10
66.815042769683
20
4.38202463326274
30
0
41
1
10
66.7917616035383
20
4.38653940461825
30
0
41
1
10
66.7762708179895
20
4.39134628266171
30
0
41
1
10
66.7531101307588
20
4.40104262676223
30
0
41
1
10
66.7453754840052
20
4.40471079035495
30
0
41
1
10
66.7301739864233
20
4.41277193571273
30
0
41
1
10
66.7226854552993
20
4.41717100090602
30
0
41
1
10
66.7005620032547
20
4.4314622771729
30
0
41
1
10
66.6862640370169
20
4.44243099235715
30
0
41
1
10
66.6655995717259
20
4.46128591224854
30
0
41
1
10
66.6588338523962
20
4.46799206178659
30
0
41
1
10
66.6458741914199
20
4.48199891540204
30
0
41
1
10
66.6396446044651
20
4.48932917608028
30
0
41
1
10
66.6217695060689
20
4.51238114599437
30
0
41
1
10
66.6109056025729
20
4.52911928011147
30
0
41
1
10
66.6015205687837
20
4.5478039898309
30
0
0
SPLINE
5
15B
100
AcDbEntity
8
1
62
256
6
ByLayer
370
18
48
1
60
0
100
AcDbSpline
70
4
71
3
72
12
73
8
40
0
40
0
40
0
40
0
40
0.499999999999989
40
0.499999999999989
40
0.749999999999994
40
0.749999999999994
40
1
40
1
40
1
40
1
41
1
10
67.359855336918
20
4.90747261863999
30
0
41
1
10
67.2900376921933
20
4.83388986413752
30
0
41
1
10
67.2196741805912
20
4.75637577545473
30
0
41
1
10
67.1132646576107
20
4.63437982309423
30
0
41
1
10
67.0776646324738
20
4.59276761993743
30
0
41
1
10
67.0061783486685
20
4.5075741688251
30
0
41
1
10
66.970302179599
20
4.46398311576678
30
0
41
1
10
66.9342825674984
20
4.41943305800777
30
0
0
SPLINE
5
15C
100
AcDbEntity
8
1
62
256
6
ByLayer
370
18
48
1
60
0
100
AcDbSpline
70
4
71
3
72
8
73
4
40
0
40
0
40
0
40
0
40
1
40
1
40
1
40
1
41
1
10
67.3598553369181
20
4.90747261863984
30
0
41
1
10
67.4027568082159
20
4.88440223663275
30
0
41
1
10
67.4455825878598
20
4.86080463402738
30
0
41
1
10
67.4883559315128
20
4.83669091116093
30
0
0
SPLINE
5
15D
100
AcDbEntity
8
1
62
256
6
ByLayer
370
18
48
1
60
0
100
AcDbSpline
70
4
71
3
72
10
73
6
40
0
40
0
40
0
40
0
40
0.5
40
0.5
40
1
40
1
40
1
40
1
41
1
10
67.9241865310494
20
3.92537259366904
30
0
41
1
10
67.8505332856456
20
4.07753622758912
30
0
41
1
10
67.7773923848912
20
4.22968002852139
30
0
41
1
10
67.6320413323738
20
4.5337750788623
30
0
41
1
10
67.5599421161174
20
4.68554462766241
30
0
41
1
10
67.4883559315128
20
4.83669091116096
30
0
0
SPLINE
5
15E
100
AcDbEntity
8
1
62
256
6
ByLayer
370
18
48
1
60
0
100
AcDbSpline
70
4
71
3
72
32
73
28
40
0
40
0
40
0
40
0
40
0.0625000000000073
40
0.0625000000000073
40
0.125000000000014
40
0.125000000000014
40
0.187500000000022
40
0.187500000000022
40
0.250000000000029
40
0.250000000000029
40
0.312500000000036
40
0.312500000000036
40
0.375000000000044
40
0.375000000000044
40
0.50000000000006
40
0.50000000000006
40
0.562500000000068
40
0.562500000000068
40
0.625000000000076
40
0.625000000000076
40
0.750000000000033
40
0.750000000000033
40
0.812500000000014
40
0.812500000000014
40
0.874999999999994
40
0.874999999999994
40
1
40
1
40
1
40
1
41
1
10
68.2569958892664
20
3.72610514657816
30
0
41
1
10
68.2517621955899
20
3.72163406283138
30
0
41
1
10
68.2460144470458
20
3.71818257768359
30
0
41
1
10
68.2336977861507
20
3.71290472676392
30
0
41
1
10
68.2271265405506
20
3.71108306567425
30
0
41
1
10
68.2132635189618
20
3.70886700433468
30
0
41
1
10
68.206094422867
20
3.70849605139142
30
0
41
1
10
68.1915062993806
20
3.70897557297792
30
0
41
1
10
68.1840620685191
20
3.70982458414053
30
0
41
1
10
68.1689141686989
20
3.71259185624362
30
0
41
1
10
68.1611743021081
20
3.71452290880836
30
0
41
1
10
68.1456334632138
20
3.71932482631382
30
0
41
1
10
68.1378692768119
20
3.72217918668284
30
0
41
1
10
68.1146004827123
20
3.73195811954653
30
0
41
1
10
68.0991189899866
20
3.74008291134783
30
0
41
1
10
68.0759734719689
20
3.75449900725485
30
0
41
1
10
68.0682408823451
20
3.75970397695679
30
0
41
1
10
68.0530310326709
20
3.77071768705528
30
0
41
1
10
68.0455387090697
20
3.77653253661677
30
0
41
1
10
68.0234046307174
20
3.79489385490427
30
0
41
1
10
68.0091005800755
20
3.8083424843079
30
0
41
1
10
67.9884270297121
20
3.8305359585344
30
0
41
1
10
67.9816472117426
20
3.83830367795682
30
0
41
1
10
67.9686534733841
20
3.85426372638125
30
0
41
1
10
67.9624076251786
20
3.86248670710523
30
0
41
1
10
67.9444861475038
20
3.88794493003755
30
0
41
1
10
67.9335942266774
20
3.90593680172631
30
0
41
1
10
67.9241865310494
20
3.92537259366921
30
0
0
SPLINE
5
15F
100
AcDbEntity
8
1
62
256
6
ByLayer
370
18
48
1
60
0
100
AcDbSpline
70
4
71
3
72
12
73
8
40
0
40
0
40
0
40
0
40
0.5
40
0.5
40
0.75
40
0.75
40
1
40
1
40
1
40
1
41
1
10
68.6815309044327
20
4.03998857538875
30
0
41
1
10
68.6118159468338
20
3.9964847148735
30
0
41
1
10
68.5416027887936
20
3.94858327073817
30
0
41
1
10
68.4354674831389
20
3.87023225761593
30
0
41
1
10
68.3999648387013
20
3.84302762427259
30
0
41
1
10
68.3286815131414
20
3.78631422450735
30
0
41
1
10
68.2929104214641
20
3.75678651448146
30
0
41
1
10
68.2569958892664
20
3.72610514657816
30
0
0
SPLINE
5
160
100
AcDbEntity
8
1
62
256
6
ByLayer
370
18
48
1
60
0
100
AcDbSpline
70
4
71
3
72
8
73
4
40
0
40
0
40
0
40
0
40
1
40
1
40
1
40
1
41
1
10
68.6815309044327
20
4.03998857538875
30
0
41
1
10
68.7250904534661
20
4.00669578431868
30
0
41
1
10
68.768686098375
20
3.97292382555821
30
0
41
1
10
68.8123160151062
20
3.93866766360676
30
0
0
SPLINE
5
161
100
AcDbEntity
8
1
62
256
6
ByLayer
370
18
48
1
60
0
100
AcDbSpline
70
4
71
3
72
12
73
8
40
0
40
0
40
0
40
0
40
0.25
40
0.25
40
0.5
40
0.5
40
1
40
1
40
1
40
1
41
1
10
69.2467951198927
20
3.04172770020679
30
0
41
1
10
69.2101417895908
20
3.11522380612493
30
0
41
1
10
69.1736130283607
20
3.18906376145174
30
0
41
1
10
69.1007403311231
20
3.33736994748051
30
0
41
1
10
69.064404632279
20
3.41185382729549
30
0
41
1
10
68.9557177215232
20
3.63628684969822
30
0
41
1
10
68.8837731869303
20
3.78708019570016
30
0
41
1
10
68.8123160151062
20
3.93866766360676
30
0
0
SPLINE
5
162
100
AcDbEntity
8
1
62
256
6
ByLayer
370
18
48
1
60
0
100
AcDbSpline
70
4
71
3
72
32
73
28
40
0
40
0
40
0
40
0
40
0.0625000000000081
40
0.0625000000000081
40
0.125000000000016
40
0.125000000000016
40
0.187500000000024
40
0.187500000000024
40
0.250000000000033
40
0.250000000000033
40
0.312500000000041
40
0.312500000000041
40
0.375000000000049
40
0.375000000000049
40
0.500000000000064
40
0.500000000000064
40
0.562500000000071
40
0.562500000000071
40
0.625000000000079
40
0.625000000000079
40
0.750000000000037
40
0.750000000000037
40
0.812500000000016
40
0.812500000000016
40
0.874999999999996
40
0.874999999999996
40
1
40
1
40
1
40
1
41
1
10
69.5796428939956
20
2.78295982885146
30
0
41
1
10
69.574402853871
20
2.78083438897696
30
0
41
1
10
69.5686497177138
20
2.77968354284386
30
0
41
1
10
69.5563252587997
20
2.77893098712349
30
0
41
1
10
69.5497515756144
20
2.77933385105132
30
0
41
1
10
69.5358870320473
20
2.78149765666168
30
0
41
1
10
69.5287191822122
20
2.78324246296967
30
0
41
1
10
69.5141353608561
20
2.78778946774673
30
0
41
1
10
69.5066945003982
20
2.79059777678492
30
0
41
1
10
69.4915552660743
20
2.79715279946709
30
0
41
1
10
69.4838213695738
20
2.80091978932191
30
0
41
1
10
69.4682895156518
20
2.80923499532426
30
0
41
1
10
69.4605299338384
20
2.81375859538409
30
0
41
1
10
69.4372747153488
20
2.82831262992139
30
0
41
1
10
69.4218019052113
20
2.83931348384669
30
0
41
1
10
69.3986676886267
20
2.85762733069274
30
0
41
1
10
69.3909377380185
20
2.86406625120554
30
0
41
1
10
69.3757261673958
20
2.87737977686669
30
0
41
1
10
69.3682326793775
20
2.88426088291172
30
0
41
1
10
69.3460944501887
20
2.9055756573035
30
0
41
1
10
69.3317867081569
20
2.92067019978589
30
0
41
1
10
69.311108113665
20
2.94480511661413
30
0
41
1
10
69.304322241568
20
2.95313704795211
30
0
41
1
10
69.2913110263406
20
2.97001986680726
30
0
41
1
10
69.2850569713156
20
2.97860079830286
30
0
41
1
10
69.2671131694134
20
3.00479779543812
30
0
41
1
10
69.2562093964988
20
3.02285048864411
30
0
41
1
10
69.2467951198927
20
3.04172770020699
30
0
0
SPLINE
5
163
100
AcDbEntity
8
1
62
256
6
ByLayer
370
18
48
1
60
0
100
AcDbSpline
70
4
71
3
72
10
73
6
40
0
40
0
40
0
40
0
40
0.5
40
0.5
40
1
40
1
40
1
40
1
41
1
10
69.7857375027627
20
2.85261555163612
30
0
41
1
10
69.7516417797478
20
2.84336890224333
30
0
41
1
10
69.7174242456308
20
2.83299367435177
30
0
41
1
10
69.6487272168948
20
2.8098256286689
30
0
41
1
10
69.6142529097662
20
2.79699817699904
30
0
41
1
10
69.5796428939956
20
2.78295982885146
30
0
0
SPLINE
5
164
100
AcDbEntity
8
1
62
256
6
ByLayer
370
18
48
1
60
0
100
AcDbSpline
70
4
71
3
72
10
73
6
40
0
40
0
40
0
40
0
40
0.5
40
0.5
40
1
40
1
40
1
40
1
41
1
10
69.7857375027627
20
2.85261555163609
30
0
41
1
10
69.904621505951
20
2.71550849313081
30
0
41
1
10
70.0250569548845
20
2.57915930784205
30
0
41
1
10
70.2693983021643
20
2.30851503679227
30
0
41
1
10
70.3933504647885
20
2.17425586843146
30
0
41
1
10
70.5190259013164
20
2.04115837182849
30
0
0
SPLINE
5
165
100
AcDbEntity
8
1
62
256
6
ByLayer
370
18
48
1
60
0
100
AcDbSpline
70
4
71
3
72
8
73
4
40
0
40
0
40
0
40
0
40
1
40
1
40
1
40
1
41
1
10
70.5695318221428
20
1.94976303870141
30
0
41
1
10
70.5526695297729
20
1.98008308641704
30
0
41
1
10
70.5358384138119
20
2.01055640872139
30
0
41
1
10
70.5190259013164
20
2.04115837182849
30
0
0
SPLINE
5
166
100
AcDbEntity
8
1
62
256
6
ByLayer
370
18
48
1
60
0
100
AcDbSpline
70
4
71
3
72
30
73
26
40
0
40
0
40
0
40
0
40
0.0624999999999812
40
0.0624999999999812
40
0.124999999999962
40
0.124999999999962
40
0.249999999999985
40
0.249999999999985
40
0.312499999999966
40
0.312499999999966
40
0.374999999999946
40
0.374999999999946
40
0.499999999999909
40
0.499999999999909
40
0.562499999999921
40
0.562499999999921
40
0.624999999999932
40
0.624999999999932
40
0.749999999999956
40
0.749999999999956
40
0.812499999999967
40
0.812499999999967
40
0.874999999999978
40
0.874999999999978
40
1
40
1
40
1
40
1
41
1
10
70.8920234027477
20
1.6541513818199
30
0
41
1
10
70.8864291050133
20
1.65539991091697
30
0
41
1
10
70.8804261240542
20
1.65732464256231
30
0
41
1
10
70.8677240744456
20
1.66232286812445
30
0
41
1
10
70.8609784666393
20
1.6654252891118
30
0
41
1
10
70.8403942324541
20
1.6759757913436
30
0
41
1
10
70.8260749579954
20
1.68467777039305
30
0
41
1
10
70.8039196949442
20
1.69967669601684
30
0
41
1
10
70.7964148743016
20
1.70501415881429
30
0
41
1
10
70.7814946347148
20
1.71608548318872
30
0
41
1
10
70.7740397845996
20
1.72184544560554
30
0
41
1
10
70.7516960163311
20
1.73974650342416
30
0
41
1
10
70.736827254309
20
1.75250108098291
30
0
41
1
10
70.7145944537554
20
1.77283168086356
30
0
41
1
10
70.7072017462186
20
1.77980687322571
30
0
41
1
10
70.6926852726534
20
1.79393782369107
30
0
41
1
10
70.6855308583968
20
1.80112116707485
30
0
41
1
10
70.6643870883544
20
1.82303193627027
30
0
41
1
10
70.6507124859468
20
1.83811470865851
30
0
41
1
10
70.6309387747858
20
1.86156573151101
30
0
41
1
10
70.6244733384104
20
1.86952403825322
30
0
41
1
10
70.6120799802531
20
1.88541506261862
30
0
41
1
10
70.6061181865076
20
1.89338680168271
30
0
41
1
10
70.5889973474698
20
1.91738839348028
30
0
41
1
10
70.5785745882591
20
1.93350326250311
30
0
41
1
10
70.5695318221428
20
1.94976303870166
30
0
0
SPLINE
5
167
100
AcDbEntity
8
1
62
256
6
ByLayer
370
18
48
1
60
0
100
AcDbSpline
70
4
71
3
72
12
73
8
40
0
40
0
40
0
40
0
40
0.5
40
0.5
40
0.75
40
0.75
40
1
40
1
40
1
40
1
41
1
10
70.8920234027477
20
1.65415138182013
30
0
41
1
10
71.0706835960606
20
1.47234066473035
30
0
41
1
10
71.2516979057099
20
1.29268393329525
30
0
41
1
10
71.5263462840747
20
1.02629581454511
30
0
41
1
10
71.6184119423778
20
0.938010691702004
30
0
41
1
10
71.8034976334296
20
0.76242375149161
30
0
41
1
10
71.8965421515739
20
0.675146588870973
30
0
41
1
10
71.9899381253404
20
0.588252770836363
30
0
0
SPLINE
5
168
100
AcDbEntity
8
1
62
256
6
ByLayer
370
18
48
1
60
0
100
AcDbSpline
70
4
71
3
72
14
73
10
40
0
40
0
40
0
40
0
40
0.25
40
0.25
40
0.5
40
0.5
40
0.75
40
0.75
40
1
40
1
40
1
40
1
41
1
10
71.9899381253404
20
0.588252770836334
30
0
41
1
10
72.0360175762322
20
0.532940304038988
30
0
41
1
10
72.0829457093562
20
0.479330303498898
30
0
41
1
10
72.1788090186552
20
0.375656492880978
30
0
41
1
10
72.2276846353136
20
0.325666625133209
30
0
41
1
10
72.3275578696732
20
0.229486888160238
30
0
41
1
10
72.3785011243841
20
0.183348125760432
30
0
41
1
10
72.4825272581223
20
0.0950724515773231
30
0
41
1
10
72.535635753464
20
0.0529124863971902
30
0
41
1
10
72.5899999999999
20
0.0126696279017722
30
0
0
SPLINE
5
169
100
AcDbEntity
8
1
62
256
6
ByLayer
370
18
48
1
60
0
100
AcDbSpline
70
4
71
3
72
55
73
51
40
0
40
0
40
0
40
0
40
0.0312499999999997
40
0.0312499999999997
40
0.0624999999999995
40
0.0624999999999995
40
0.0937499999999994
40
0.0937499999999994
40
0.124999999999999
40
0.124999999999999
40
0.140624999999999
40
0.140624999999999
40
0.156249999999999
40
0.1875
40
0.1875
40
0.25
40
0.25
40
0.3125
40
0.375
40
0.375
40
0.390625000000001
40
0.390625000000001
40
0.406250000000001
40
0.437500000000001
40
0.437500000000001
40
0.500000000000001
40
0.500000000000001
40
0.562500000000001
40
0.562500000000001
40
0.625000000000001
40
0.625000000000001
40
0.640625000000001
40
0.640625000000001
40
0.656250000000001
40
0.656250000000001
40
0.687500000000001
40
0.687500000000001
40
0.750000000000001
40
0.750000000000001
40
0.812500000000001
40
0.812500000000001
40
0.843750000000001
40
0.843750000000001
40
0.875000000000001
40
0.875000000000001
40
0.90625
40
0.90625
40
0.9375
40
0.9375
40
1
40
1
40
1
40
1
41
1
10
72.59
20
0.0126696279017722
30
0
41
1
10
72.59
20
0.0184328564197358
30
0
41
1
10
72.59
20
0.0268341317851934
30
0
41
1
10
72.59
20
0.0486024519802584
30
0
41
1
10
72.59
20
0.0619681983308453
30
0
41
1
10
72.59
20
0.0938637621616749
30
0
41
1
10
72.59
20
0.112484666736805
30
0
41
1
10
72.59
20
0.15174856424025
30
0
41
1
10
72.59
20
0.172412182866822
30
0
41
1
10
72.59
20
0.205440141363084
30
0
41
1
10
72.59
20
0.216766441360022
30
0
41
1
10
72.59
20
0.239981218596824
30
0
41
1
10
72.59
20
0.275675077030144
30
0
41
1
10
72.5900000000001
20
0.313945254011344
30
0
41
1
10
72.59
20
0.393850497036226
30
0
41
1
10
72.59
20
0.451598401320467
30
0
41
1
10
72.59
20
0.575921378310454
30
0
41
1
10
72.5899999999999
20
0.709054482013272
30
0
41
1
10
72.59
20
0.859854881040462
30
0
41
1
10
72.59
20
0.959853628219037
30
0
41
1
10
72.5899999999999
20
0.980163298305769
30
0
41
1
10
72.5899999999999
20
1.02124508132815
30
0
41
1
10
72.5899999999999
20
1.08351891440248
30
0
41
1
10
72.59
20
1.14772038424889
30
0
41
1
10
72.59
20
1.27864999181969
30
0
41
1
10
72.59
20
1.36929767776604
30
0
41
1
10
72.59
20
1.55728296314788
30
0
41
1
10
72.59
20
1.654614643652
30
0
41
1
10
72.59
20
1.85592139144285
30
0
41
1
10
72.59
20
1.9598956346064
30
0
41
1
10
72.59
20
2.09415773192345
30
0
41
1
10
72.59
20
2.12122538732098
30
0
41
1
10
72.59
20
2.17579342933541
30
0
41
1
10
72.59
20
2.20329997187415
30
0
41
1
10
72.59
20
2.28608744819078
30
0
41
1
10
72.59
20
2.34176093253882
30
0
41
1
10
72.59
20
2.51019917030078
30
0
41
1
10
72.59
20
2.62437713745624
30
0
41
1
10
72.59
20
2.85646920995373
30
0
41
1
10
72.59
20
2.97438288860766
30
0
41
1
10
72.5900000000001
20
3.15406954172798
30
0
41
1
10
72.5900000000001
20
3.21443353846144
30
0
41
1
10
72.5900000000001
20
3.3360597697546
30
0
41
1
10
72.59
20
3.39730953184218
30
0
41
1
10
72.59
20
3.52072524744673
30
0
41
1
10
72.5900000000001
20
3.5829160786536
30
0
41
1
10
72.5900000000001
20
3.70969671707331
30
0
41
1
10
72.59
20
3.77313924358987
30
0
41
1
10
72.59
20
3.96318265302145
30
0
41
1
10
72.59
20
4.0896959090307
30
0
41
1
10
72.59
20
4.21602800765641
30
0
0
SPLINE
5
16A
100
AcDbEntity
8
1
62
256
6
ByLayer
370
18
48
1
60
0
100
AcDbSpline
70
4
71
3
72
14
73
10
40
0
40
0
40
0
40
0
40
0.499999999999987
40
0.499999999999987
40
0.749999999999993
40
0.749999999999993
40
0.874999999999997
40
0.874999999999997
40
1
40
1
40
1
40
1
41
1
10
72.5899999999999
20
4.21602800765641
30
0
41
1
10
72.4893636088061
20
4.31060863464438
30
0
41
1
10
72.3893171091054
20
4.40647148908252
30
0
41
1
10
72.2395026675492
20
4.55234901343692
30
0
41
1
10
72.1896052338685
20
4.60132876296021
30
0
41
1
10
72.1147519983924
20
4.67538460468151
30
0
41
1
10
72.089799617302
20
4.70016803974784
30
0
41
1
10
72.0398832755469
20
4.74994108078067
30
0
41
1
10
72.0149004730371
20
4.77495134857972
30
0
41
1
10
71.9899783375731
20
4.79999346515586
30
0
0
SPLINE
5
16B
100
AcDbEntity
8
1
62
256
6
ByLayer
370
18
48
1
60
0
100
AcDbSpline
70
4
71
3
72
8
73
4
40
0
40
0
40
0
40
0
40
1
40
1
40
1
40
1
41
1
10
71.9899783375731
20
4.79999346515586
30
0
41
1
10
71.9210421438848
20
4.80070494889057
30
0
41
1
10
71.8519303898934
20
4.80155072017558
30
0
41
1
10
71.7826942335682
20
4.80256473135066
30
0
0
SPLINE
5
16C
100
AcDbEntity
8
1
62
256
6
ByLayer
370
18
48
1
60
0
100
AcDbSpline
70
4
71
3
72
10
73
6
40
0
40
0
40
0
40
0
40
0.5
40
0.5
40
1
40
1
40
1
40
1
41
1
10
71.7034983381618
20
4.80379765526365
30
0
41
1
10
71.7168192993283
20
4.80089376881074
30
0
41
1
10
71.7300982062248
20
4.79945513544516
30
0
41
1
10
71.7565551757198
20
4.79911923847243
30
0
41
1
10
71.7698130419552
20
4.80025037908425
30
0
41
1
10
71.7826942335682
20
4.80256473135071
30
0
0
SPLINE
5
16D
100
AcDbEntity
8
1
62
256
6
ByLayer
370
18
48
1
60
0
100
AcDbSpline
70
4
71
3
72
10
73
6
40
0
40
0
40
0
40
0
40
0.5
40
0.5
40
1
40
1
40
1
40
1
41
1
10
71.7034983381618
20
4.80379765526368
30
0
41
1
10
71.5288292594025
20
4.80668011990312
30
0
41
1
10
71.353535124999
20
4.81076041465914
30
0
41
1
10
71.0043240513846
20
4.82056456348931
30
0
41
1
10
70.8304496619054
20
4.82623276303423
30
0
41
1
10
70.6580722148638
20
4.83157878620784
30
0
0
SPLINE
5
16E
100
AcDbEntity
8
1
62
256
6
ByLayer
370
18
48
1
60
0
100
AcDbSpline
70
4
71
3
72
8
73
4
40
0
40
0
40
0
40
0
40
1
40
1
40
1
40
1
41
1
10
70.5997806487163
20
4.71879733232589
30
0
41
1
10
70.6192434235206
20
4.75655527636641
30
0
41
1
10
70.6386757375851
20
4.79415216358663
30
0
41
1
10
70.6580722148638
20
4.83157878620784
30
0
0
SPLINE
5
16F
100
AcDbEntity
8
1
62
256
6
ByLayer
370
18
48
1
60
0
100
AcDbSpline
70
4
71
3
72
28
73
24
40
0
40
0
40
0
40
0
40
0.0625000000000284
40
0.0625000000000284
40
0.125000000000057
40
0.125000000000057
40
0.250000000000062
40
0.250000000000062
40
0.312500000000034
40
0.312500000000034
40
0.375000000000008
40
0.375000000000008
40
0.499999999999954
40
0.499999999999954
40
0.624999999999901
40
0.624999999999901
40
0.687499999999901
40
0.687499999999901
40
0.749999999999901
40
0.749999999999901
40
0.87499999999995
40
0.87499999999995
40
1
40
1
40
1
40
1
41
1
10
70.2669392455876
20
4.62244812183081
30
0
41
1
10
70.2722567767239
20
4.61493656220793
30
0
41
1
10
70.278119829148
20
4.60844539979252
30
0
41
1
10
70.2907236387728
20
4.59709605270925
30
0
41
1
10
70.2974845830614
20
4.59223255294822
30
0
41
1
10
70.3188205556875
20
4.57987433204428
30
0
41
1
10
70.3337917147767
20
4.57487834725907
30
0
41
1
10
70.3570092265564
20
4.57085404829161
30
0
41
1
10
70.3649037769263
20
4.57011444910856
30
0
41
1
10
70.3805787663672
20
4.56972948927819
30
0
41
1
10
70.3884018362177
20
4.57007388420308
30
0
41
1
10
70.4118239991474
20
4.57254007164249
30
0
41
1
10
70.4273768725898
20
4.57607653014242
30
0
41
1
10
70.4583221273774
20
4.58661367777447
30
0
41
1
10
70.4733492860433
20
4.59349342762664
30
0
41
1
10
70.4952072155651
20
4.60607464282219
30
0
41
1
10
70.5023795762132
20
4.61064980110945
30
0
41
1
10
70.5164857973347
20
4.62058671474824
30
0
41
1
10
70.5234473282515
20
4.62597285453501
30
0
41
1
10
70.5437046749068
20
4.64319225004189
30
0
41
1
10
70.5563756236799
20
4.65603645077957
30
0
41
1
10
70.5797913356497
20
4.68488215572356
30
0
41
1
10
70.5906177835349
20
4.70102129811451
30
0
41
1
10
70.5997806487163
20
4.71879733232589
30
0
0
SPLINE
5
170
100
AcDbEntity
8
1
62
256
6
ByLayer
370
18
48
1
60
0
100
AcDbSpline
70
4
71
3
72
8
73
4
40
0
40
0
40
0
40
0
40
1
40
1
40
1
40
1
41
1
10
70.1058771667931
20
4.84599739886778
30
0
41
1
10
70.1592991946801
20
4.77318380714837
30
0
41
1
10
70.2129658984269
20
4.6986910257001
30
0
41
1
10
70.2669392455877
20
4.62244812183081
30
0
0
SPLINE
5
171
100
AcDbEntity
8
1
62
256
6
ByLayer
370
18
48
1
60
0
100
AcDbSpline
70
4
71
3
72
8
73
4
40
0
40
0
40
0
40
0
40
1
40
1
40
1
40
1
41
1
10
70.1058771667931
20
4.84599739886778
30
0
41
1
10
69.9264183686399
20
4.84919805398667
30
0
41
1
10
69.7493758066722
20
4.85022887850246
30
0
41
1
10
69.5750504548571
20
4.84717040779927
30
0
0
SPLINE
5
172
100
AcDbEntity
8
1
62
256
6
ByLayer
370
18
48
1
60
0
100
AcDbSpline
70
4
71
3
72
10
73
6
40
0
40
0
40
0
40
0
40
0.5
40
0.5
40
1
40
1
40
1
40
1
41
1
10
69.2771177021859
20
4.22223769867531
30
0
41
1
10
69.3272142559388
20
4.32728984120749
30
0
41
1
10
69.3770708733733
20
4.43191577180002
30
0
41
1
10
69.4763701403408
20
4.64028081263211
30
0
41
1
10
69.5258256179141
20
4.74403602653354
30
0
41
1
10
69.5750504548571
20
4.84717040779933
30
0
0
SPLINE
5
173
100
AcDbEntity
8
1
62
256
6
ByLayer
370
18
48
1
60
0
100
AcDbSpline
70
4
71
3
72
30
73
26
40
0
40
0
40
0
40
0
40
0.062499999999986
40
0.062499999999986
40
0.124999999999972
40
0.124999999999972
40
0.249999999999998
40
0.249999999999998
40
0.31250000000001
40
0.31250000000001
40
0.375000000000023
40
0.375000000000023
40
0.500000000000048
40
0.500000000000048
40
0.625000000000072
40
0.625000000000072
40
0.687500000000085
40
0.687500000000085
40
0.750000000000098
40
0.750000000000098
40
0.875000000000073
40
0.875000000000073
40
0.937500000000037
40
0.937500000000037
40
1
40
1
40
1
40
1
41
1
10
68.9442848729952
20
4.05084808925199
30
0
41
1
10
68.9495941143794
20
4.04508127227143
30
0
41
1
10
68.9554469007013
20
4.04039412569992
30
0
41
1
10
68.9680273220816
20
4.03274607368621
30
0
41
1
10
68.9747724359841
20
4.02978575802169
30
0
41
1
10
68.9960748242816
20
4.02322559188491
30
0
41
1
10
69.0110242751189
20
4.02205026726932
30
0
41
1
10
69.0342153142242
20
4.02371732156647
30
0
41
1
10
69.042105216347
20
4.02487418969335
30
0
41
1
10
69.0577765159828
20
4.02819406195096
30
0
41
1
10
69.0655984541209
20
4.03035688539185
30
0
41
1
10
69.0890185472401
20
4.03819078451582
30
0
41
1
10
69.1045717312606
20
4.04519006722353
30
0
41
1
10
69.1355193461986
20
4.06245537690563
30
0
41
1
10
69.1505668514228
20
4.07253330463342
30
0
41
1
10
69.172439476385
20
4.08965746072013
30
0
41
1
10
69.1796165986206
20
4.09570573398619
30
0
41
1
10
69.1937323191507
20
4.10850497575015
30
0
41
1
10
69.200698229207
20
4.1152851467624
30
0
41
1
10
69.2209852606329
20
4.13652353029261
30
0
41
1
10
69.2336728337775
20
4.15180712744538
30
0
41
1
10
69.2512523389312
20
4.1766813286807
30
0
41
1
10
69.2568678110109
20
4.18530087328583
30
0
41
1
10
69.2675295920473
20
4.20330644460719
30
0
41
1
10
69.2725329098849
20
4.21262341948326
30
0
41
1
10
69.2771177021867
20
4.2222376986758
30
0
0
SPLINE
5
174
100
AcDbEntity
8
1
62
256
6
ByLayer
370
18
48
1
60
0
100
AcDbSpline
70
4
71
3
72
10
73
6
40
0
40
0
40
0
40
0
40
0.5
40
0.5
40
1
40
1
40
1
40
1
41
1
10
68.9615541626782
20
0.21606702241877
30
0
41
1
10
69.0311718197707
20
0.1591514728851
30
0
41
1
10
69.1013244988523
20
0.106660270267923
30
0
41
1
10
69.2425859079044
20
0.0111010806130594
30
0
41
1
10
69.3136244828582
20
-0.0319681560326046
30
0
41
1
10
69.3852057388426
20
-0.0700687541934712
30
0
0
SPLINE
5
175
100
AcDbEntity
8
1
62
256
6
ByLayer
370
18
48
1
60
0
100
AcDbSpline
70
4
71
3
72
8
73
4
40
0
40
0
40
0
40
0
40
1
40
1
40
1
40
1
41
1
10
68.9615541626782
20
0.21606702241877
30
0
41
1
10
68.9182513879345
20
0.263969888946122
30
0
41
1
10
68.8749915179807
20
0.311799720902599
30
0
41
1
10
68.8317670451118
20
0.359550257288277
30
0
0
SPLINE
5
176
100
AcDbEntity
8
1
62
256
6
ByLayer
370
18
48
1
60
0
100
AcDbSpline
70
4
71
3
72
10
73
6
40
0
40
0
40
0
40
0
40
0.5
40
0.5
40
1
40
1
40
1
40
1
41
1
10
68.3952550976533
20
0.881385420839223
30
0
41
1
10
68.4689197748133
20
0.804384114615516
30
0
41
1
10
68.5420867598418
20
0.722253255245079
30
0
41
1
10
68.6876252505944
20
0.548045269780999
30
0
41
1
10
68.7599275793062
20
0.456071053803896
30
0
41
1
10
68.8317670451118
20
0.359550257288305
30
0
0
SPLINE
5
177
100
AcDbEntity
8
1
62
256
6
ByLayer
370
18
48
1
60
0
100
AcDbSpline
70
4
71
3
72
30
73
26
40
0
40
0
40
0
40
0
40
0.0625000000000443
40
0.0625000000000443
40
0.125000000000089
40
0.125000000000089
40
0.25000000000018
40
0.25000000000018
40
0.312500000000195
40
0.312500000000195
40
0.375000000000211
40
0.375000000000211
40
0.500000000000182
40
0.500000000000182
40
0.625000000000154
40
0.625000000000154
40
0.687500000000112
40
0.687500000000112
40
0.750000000000069
40
0.750000000000069
40
0.875000000000036
40
0.875000000000036
40
0.937500000000018
40
0.937500000000018
40
1
40
1
40
1
40
1
41
1
10
68.0624092062798
20
1.19579165952939
30
0
41
1
10
68.067721956535
20
1.19072548368609
30
0
41
1
10
68.0735787346611
20
1.18518655107167
30
0
41
1
10
68.0861674392959
20
1.17335751160962
30
0
41
1
10
68.0929178176553
20
1.16705015125242
30
0
41
1
10
68.1142296926737
20
1.14722190149732
30
0
41
1
10
68.1291833475836
20
1.13341470468518
30
0
41
1
10
68.1523796072486
20
1.11204340024759
30
0
41
1
10
68.1602702120218
20
1.1047808123262
30
0
41
1
10
68.1759414206724
20
1.0903551464537
30
0
41
1
10
68.1837630609802
20
1.08315435489007
30
0
41
1
10
68.2071812803406
20
1.06157388047481
30
0
41
1
10
68.2227318588796
20
1.04721593255101
30
0
41
1
10
68.2536718846962
20
1.01850042212232
30
0
41
1
10
68.2687129424335
20
1.00446553992486
30
0
41
1
10
68.2905789768769
20
0.983888176208268
30
0
41
1
10
68.2977541150227
20
0.977106000013379
30
0
41
1
10
68.3118666132
20
0.96369636166105
30
0
41
1
10
68.3188312922817
20
0.957042600065819
30
0
41
1
10
68.3391160248941
20
0.937543282448331
30
0
41
1
10
68.3518036544246
20
0.925184117255355
30
0
41
1
10
68.3693846617757
20
0.907753061412279
30
0
41
1
10
68.3750008835441
20
0.902129409659381
30
0
41
1
10
68.3856645051416
20
0.891320920620331
30
0
41
1
10
68.390669094725
20
0.88617914599277
30
0
41
1
10
68.3952550976533
20
0.881385420839223
30
0
0
SPLINE
5
178
100
AcDbEntity
8
1
62
256
6
ByLayer
370
18
48
1
60
0
100
AcDbSpline
70
4
71
3
72
10
73
6
40
0
40
0
40
0
40
0
40
0.5
40
0.5
40
1
40
1
40
1
40
1
41
1
10
67.6388862769045
20
1.65561503409677
30
0
41
1
10
67.7084908652728
20
1.57091834762289
30
0
41
1
10
67.7786303520901
20
1.49004851447461
30
0
41
1
10
67.9198519006389
20
1.33657680385289
30
0
41
1
10
67.9908662790969
20
1.26401414920738
30
0
41
1
10
68.0624092062798
20
1.19579165952936
30
0
0
SPLINE
5
179
100
AcDbEntity
8
1
62
256
6
ByLayer
370
18
48
1
60
0
100
AcDbSpline
70
4
71
3
72
8
73
4
40
0
40
0
40
0
40
0
40
1
40
1
40
1
40
1
41
1
10
67.6388862769045
20
1.65561503409674
30
0
41
1
10
67.5957772145232
20
1.70122702314373
30
0
41
1
10
67.5526317293379
20
1.74669591334413
30
0
41
1
10
67.5094417314148
20
1.79201403368464
30
0
0
SPLINE
5
17A
100
AcDbEntity
8
1
62
256
6
ByLayer
370
18
48
1
60
0
100
AcDbSpline
70
4
71
3
72
10
73
6
40
0
40
0
40
0
40
0
40
0.5
40
0.5
40
1
40
1
40
1
40
1
41
1
10
67.0725479221045
20
2.09363219839284
30
0
41
1
10
67.1463228593706
20
2.05454760393593
30
0
41
1
10
67.2195785958102
20
2.00977046054291
30
0
41
1
10
67.3652494391307
20
1.9090608286499
30
0
41
1
10
67.4375906624049
20
1.85317872379443
30
0
41
1
10
67.5094417314149
20
1.79201403368461
30
0
0
SPLINE
5
17B
100
AcDbEntity
8
1
62
256
6
ByLayer
370
18
48
1
60
0
100
AcDbSpline
70
4
71
3
72
30
73
26
40
0
40
0
40
0
40
0
40
0.0624999999999943
40
0.0624999999999943
40
0.124999999999989
40
0.124999999999989
40
0.249999999999925
40
0.249999999999925
40
0.312499999999893
40
0.312499999999893
40
0.374999999999861
40
0.374999999999861
40
0.499999999999856
40
0.499999999999856
40
0.624999999999852
40
0.624999999999852
40
0.687499999999851
40
0.687499999999851
40
0.749999999999851
40
0.749999999999851
40
0.874999999999904
40
0.874999999999904
40
0.937499999999952
40
0.937499999999952
40
1
40
1
40
1
40
1
41
1
10
66.7397126866886
20
2.3797836409841
30
0
41
1
10
66.745021817945
20
2.37282196615007
30
0
41
1
10
66.7508734842388
20
2.36565740426735
30
0
41
1
10
66.7634493457399
20
2.35100915060335
30
0
41
1
10
66.7701903280817
20
2.34350901740237
30
0
41
1
10
66.7914811437382
20
2.32067917724928
30
0
41
1
10
66.8064197337521
20
2.30571737120675
30
0
41
1
10
66.8295943409642
20
2.28352081173662
30
0
41
1
10
66.8374801684591
20
2.27613891746742
30
0
41
1
10
66.8531459758271
20
2.26175563192757
30
0
41
1
10
66.8609654418273
20
2.2547155774314
30
0
41
1
10
66.8843781874838
20
2.23398983346218
30
0
41
1
10
66.8999264556106
20
2.22069360165267
30
0
41
1
10
66.9308638309391
20
2.19500210366047
30
0
41
1
10
66.9459179419378
20
2.18288610811783
30
0
41
1
10
66.9677932412632
20
2.16578090146942
30
0
41
1
10
66.9749715306439
20
2.16025500801732
30
0
41
1
10
66.9890906780842
20
2.14956222823199
30
0
41
1
10
66.9960582632854
20
2.14437607364926
30
0
41
1
10
67.016365427897
20
2.1295458159683
30
0
41
1
10
67.0290650944286
20
2.12065193253469
30
0
41
1
10
67.0466596323495
20
2.10902690115472
30
0
41
1
10
67.0522796044688
20
2.10544099112505
30
0
41
1
10
67.0629491371481
20
2.0989467570987
30
0
41
1
10
67.0679590412257
20
2.09606330243452
30
0
41
1
10
67.0725479221045
20
2.09363219839287
30
0
0
SPLINE
5
17C
100
AcDbEntity
8
1
62
256
6
ByLayer
370
18
48
1
60
0
100
AcDbSpline
70
4
71
3
72
10
73
6
40
0
40
0
40
0
40
0
40
0.5
40
0.5
40
1
40
1
40
1
40
1
41
1
10
66.3160619064391
20
2.98307629070462
30
0
41
1
10
66.3856825610643
20
2.87626397968867
30
0
41
1
10
66.4558380366881
20
2.77233176486456
30
0
41
1
10
66.5970986733442
20
2.57098006733526
30
0
41
1
10
66.6681389504667
20
2.47363573357106
30
0
41
1
10
66.7397126866886
20
2.3797836409841
30
0
0
SPLINE
5
17D
100
AcDbEntity
8
1
62
256
6
ByLayer
370
18
48
1
60
0
100
AcDbSpline
70
4
71
3
72
8
73
4
40
0
40
0
40
0
40
0
40
1
40
1
40
1
40
1
41
1
10
66.3160619064432
20
2.98307629070251
30
0
41
1
10
66.2726961108652
20
3.02374616972256
30
0
41
1
10
66.2293541255669
20
3.0640662182675
30
0
41
1
10
66.1860279318398
20
3.10403128666041
30
0
0
SPLINE
5
17E
100
AcDbEntity
8
1
62
256
6
ByLayer
370
18
48
1
60
0
100
AcDbSpline
70
4
71
3
72
10
73
6
40
0
40
0
40
0
40
0
40
0.5
40
0.5
40
1
40
1
40
1
40
1
41
1
10
65.7497845321844
20
3.16546006200125
30
0
41
1
10
65.823403995755
20
3.16697917984297
30
0
41
1
10
65.8965075488993
20
3.16251146545233
30
0
41
1
10
66.0419494985175
20
3.14189039805458
30
0
41
1
10
66.114214882798
20
3.12574476713365
30
0
41
1
10
66.1860279318398
20
3.10403128666041
30
0
0
SPLINE
5
17F
100
AcDbEntity
8
1
62
256
6
ByLayer
370
18
48
1
60
0
100
AcDbSpline
70
4
71
3
72
30
73
26
40
0
40
0
40
0
40
0
40
0.0624999999999817
40
0.0624999999999817
40
0.124999999999963
40
0.124999999999963
40
0.249999999999927
40
0.249999999999927
40
0.312499999999937
40
0.312499999999937
40
0.374999999999946
40
0.374999999999946
40
0.499999999999965
40
0.499999999999965
40
0.624999999999983
40
0.624999999999983
40
0.687499999999993
40
0.687499999999993
40
0.750000000000003
40
0.750000000000003
40
0.875000000000023
40
0.875000000000023
40
0.937500000000012
40
0.937500000000012
40
1
40
1
40
1
40
1
41
1
10
65.4169352702557
20
3.40337830163853
30
0
41
1
10
65.4222450841828
20
3.39500353164257
30
0
41
1
10
65.4280981311086
20
3.38670905379766
30
0
41
1
10
65.4406784695637
20
3.37025354310506
30
0
41
1
10
65.4474235591647
20
3.36207534098145
30
0
41
1
10
65.4687231381498
20
3.33782532189093
30
0
41
1
10
65.4836692254314
20
3.32274614154633
30
0
41
1
10
65.5068574490897
20
3.3012622766922
30
0
41
1
10
65.5147468999072
20
3.29427522481887
30
0
41
1
10
65.5304186693407
20
3.28094080095968
30
0
41
1
10
65.5382413987556
20
3.27455430838225
30
0
41
1
10
65.5616639505553
20
3.25613456878384
30
0
41
1
10
65.5772187009562
20
3.24483164321282
30
0
41
1
10
65.6081669685956
20
3.22396356006993
30
0
41
1
10
65.6232148212785
20
3.21463362588997
30
0
41
1
10
65.6450884659801
20
3.20220716111214
30
0
41
1
10
65.6522662306712
20
3.19832683099901
30
0
41
1
10
65.6663841819664
20
3.19110270130409
30
0
41
1
10
65.6733516376804
20
3.18774691347198
30
0
41
1
10
65.6936451956117
20
3.17863958219561
30
0
41
1
10
65.7063363416783
20
3.1738372018437
30
0
41
1
10
65.7239186099572
20
3.16882748678796
30
0
41
1
10
65.7295345841686
20
3.1675271757654
30
0
41
1
10
65.7401963898135
20
3.16579193701571
30
0
41
1
10
65.7452001080961
20
3.1653654636425
30
0
41
1
10
65.7497845321844
20
3.16546006200127
30
0
0
SPLINE
5
180
100
AcDbEntity
8
1
62
256
6
ByLayer
370
18
48
1
60
0
100
AcDbSpline
70
4
71
3
72
10
73
6
40
0
40
0
40
0
40
0
40
0.5
40
0.5
40
1
40
1
40
1
40
1
41
1
10
64.9931918896103
20
4.10851105423146
30
0
41
1
10
65.06283549344
20
3.98685579812701
30
0
41
1
10
65.1330084652199
20
3.86698450556895
30
0
41
1
10
65.2742981202028
20
3.63164893542748
30
0
41
1
10
65.3453491182254
20
3.51628575308314
30
0
41
1
10
65.4169352702557
20
3.40337830163853
30
0
0
SPLINE
5
181
100
AcDbEntity
8
1
62
256
6
ByLayer
370
18
48
1
60
0
100
AcDbSpline
70
4
71
3
72
8
73
4
40
0
40
0
40
0
40
0
40
1
40
1
40
1
40
1
41
1
10
64.9931918896103
20
4.10851105423146
30
0
41
1
10
64.9496404992523
20
4.14134449452214
30
0
41
1
10
64.9060319768718
20
4.17376544213704
30
0
41
1
10
64.8623585512839
20
4.20576587930645
30
0
0
SPLINE
5
182
100
AcDbEntity
8
1
62
256
6
ByLayer
370
18
48
1
60
0
100
AcDbSpline
70
4
71
3
72
10
73
6
40
0
40
0
40
0
40
0
40
0.5
40
0.5
40
1
40
1
40
1
40
1
41
1
10
64.4270175622925
20
4.02217015910335
30
0
41
1
10
64.5004831444149
20
4.06399086442477
30
0
41
1
10
64.5734323297702
20
4.10013528332058
30
0
41
1
10
64.7185680381974
20
4.16130803406074
30
0
41
1
10
64.7906784448318
20
4.18629930515911
30
0
41
1
10
64.8623585512839
20
4.20576587930648
30
0
0
SPLINE
5
183
100
AcDbEntity
8
1
62
256
6
ByLayer
370
18
48
1
60
0
100
AcDbSpline
70
4
71
3
72
30
73
26
40
0
40
0
40
0
40
0
40
0.0625000000000108
40
0.0625000000000108
40
0.125000000000022
40
0.125000000000022
40
0.250000000000047
40
0.250000000000047
40
0.31250000000006
40
0.31250000000006
40
0.375000000000073
40
0.375000000000073
40
0.500000000000039
40
0.500000000000039
40
0.625000000000006
40
0.625000000000006
40
0.687499999999988
40
0.687499999999988
40
0.74999999999997
40
0.74999999999997
40
0.874999999999985
40
0.874999999999985
40
0.937499999999992
40
0.937499999999992
40
1
40
1
40
1
40
1
41
1
10
64.0941579875674
20
4.19621330570683
30
0
41
1
10
64.0994730598858
20
4.18698552007913
30
0
41
1
10
64.1053322403056
20
4.17811609151852
30
0
41
1
10
64.1179258353957
20
4.16095417675473
30
0
41
1
10
64.1246794426954
20
4.15264449996025
30
0
41
1
10
64.1459966736689
20
4.12859731084291
30
0
41
1
10
64.1609531753847
20
4.11440829197667
30
0
41
1
10
64.1841548328979
20
4.09506898288137
30
0
41
1
10
64.1920468708779
20
4.0889418407977
30
0
41
1
10
64.2077210056356
20
4.07754122370628
30
0
41
1
10
64.2155445356216
20
4.0722310593307
30
0
41
1
10
64.2389686328494
20
4.05733434287535
30
0
41
1
10
64.25452306322
20
4.04876833344193
30
0
41
1
10
64.2854682321698
20
4.034092232826
30
0
41
1
10
64.3005053322289
20
4.02815258915737
30
0
41
1
10
64.322370503686
20
4.02120919778361
30
0
41
1
10
64.3295455631735
20
4.01922479916135
30
0
41
1
10
64.3436583267853
20
4.01593396558982
30
0
41
1
10
64.3506235639328
20
4.01462417796259
30
0
41
1
10
64.3709034030039
20
4.01181520856923
30
0
41
1
10
64.3835874358304
20
4.01140481381228
30
0
41
1
10
64.4011617960402
20
4.01331936791669
30
0
41
1
10
64.4067755962869
20
4.01438374846077
30
0
41
1
10
64.4174339399374
20
4.01751002958002
30
0
41
1
10
64.4224347416189
20
4.01956136206681
30
0
41
1
10
64.4270175622925
20
4.02217015910335
30
0
0
SPLINE
5
184
100
AcDbEntity
8
1
62
256
6
ByLayer
370
18
48
1
60
0
100
AcDbSpline
70
4
71
3
72
10
73
6
40
0
40
0
40
0
40
0
40
0.5
40
0.5
40
1
40
1
40
1
40
1
41
1
10
63.6699953063152
20
4.95568133767623
30
0
41
1
10
63.7396913045538
20
4.82738628796977
30
0
41
1
10
63.8099296563212
20
4.69967417891348
30
0
41
1
10
63.9513654994043
20
4.44623752292776
30
0
41
1
10
64.0224966261188
20
4.32062848608842
30
0
41
1
10
64.0941579875674
20
4.19621330570683
30
0
0
SPLINE
5
185
100
AcDbEntity
8
1
62
256
6
ByLayer
370
18
48
1
60
0
100
AcDbSpline
70
4
71
3
72
8
73
4
40
0
40
0
40
0
40
0
40
1
40
1
40
1
40
1
41
1
10
63.6699953063192
20
4.95568133767793
30
0
41
1
10
63.6266432779426
20
4.97818723302879
30
0
41
1
10
63.5832938506903
20
5.00014699328855
30
0
41
1
10
63.5399394133065
20
5.02155744485356
30
0
0
SPLINE
5
186
100
AcDbEntity
8
1
62
256
6
ByLayer
370
18
48
1
60
0
100
AcDbSpline
70
4
71
3
72
10
73
6
40
0
40
0
40
0
40
0
40
0.5
40
0.5
40
1
40
1
40
1
40
1
41
1
10
63.104274057276
20
4.60602443733649
30
0
41
1
10
63.1777790301563
20
4.68534789905428
30
0
41
1
10
63.2507932230066
20
4.75965042192357
30
0
41
1
10
63.3960543991751
20
4.89824871410238
30
0
41
1
10
63.4682253693516
20
4.96246689953821
30
0
41
1
10
63.5399394133065
20
5.02155744485356
30
0
0
SPLINE
5
187
100
AcDbEntity
8
1
62
256
6
ByLayer
370
18
48
1
60
0
100
AcDbSpline
70
4
71
3
72
30
73
26
40
0
40
0
40
0
40
0
40
0.0624999999999878
40
0.0624999999999878
40
0.124999999999976
40
0.124999999999976
40
0.249999999999955
40
0.249999999999955
40
0.312499999999915
40
0.312499999999915
40
0.374999999999875
40
0.374999999999875
40
0.499999999999857
40
0.499999999999857
40
0.624999999999839
40
0.624999999999839
40
0.687499999999858
40
0.687499999999858
40
0.749999999999877
40
0.749999999999877
40
0.874999999999916
40
0.874999999999916
40
0.937499999999958
40
0.937499999999958
40
1
40
1
40
1
40
1
41
1
10
62.7714138915183
20
4.70454540333742
30
0
41
1
10
62.7767301358745
20
4.69509068558537
30
0
41
1
10
62.7825898287868
20
4.6862492409156
30
0
41
1
10
62.7951826328614
20
4.66954882148511
30
0
41
1
10
62.8019348092017
20
4.66167550815914
30
0
41
1
10
62.8232456038069
20
4.63946476286762
30
0
41
1
10
62.8381948106074
20
4.62712889882181
30
0
41
1
10
62.8613825828578
20
4.61124396457501
30
0
41
1
10
62.8692700779159
20
4.6063893922084
30
0
41
1
10
62.8849361932255
20
4.59768713286354
30
0
41
1
10
62.892755733915
20
4.5938087234565
30
0
41
1
10
62.9161682254346
20
4.58343000668117
30
0
41
1
10
62.9317154563948
20
4.57817018311977
30
0
41
1
10
62.9626481788809
20
4.57065598076267
30
0
41
1
10
62.9776901540602
20
4.56848954595222
30
0
41
1
10
62.9995575037469
20
4.56747777648994
30
0
41
1
10
63.0067336113531
20
4.56751669355177
30
0
41
1
10
63.0208490601046
20
4.56836853640723
30
0
41
1
10
63.0278154018214
20
4.56918677591187
30
0
41
1
10
63.0481121265011
20
4.57284737820416
30
0
41
1
10
63.0608068942279
20
4.57684831261761
30
0
41
1
10
63.0783953477248
20
4.58555039565212
30
0
41
1
10
63.0840135045875
20
4.58890596471679
30
0
41
1
10
63.094679575241
20
4.59668100352883
30
0
41
1
10
63.0996870149476
20
4.60107429502261
30
0
41
1
10
63.104274057276
20
4.60602443733649
30
0
0
SPLINE
5
188
100
AcDbEntity
8
1
62
256
6
ByLayer
370
18
48
1
60
0
100
AcDbSpline
70
4
71
3
72
8
73
4
40
0
40
0
40
0
40
0
40
1
40
1
40
1
40
1
41
1
10
62.42290018966
20
5.32965400572297
30
0
41
1
10
62.5377604172432
20
5.12222717044151
30
0
41
1
10
62.6539900320042
20
4.91337881555702
30
0
41
1
10
62.7714138915182
20
4.70454540333742
30
0
0
SPLINE
5
189
100
AcDbEntity
8
1
62
256
6
ByLayer
370
18
48
1
60
0
100
AcDbSpline
70
4
71
3
72
8
73
4
40
0
40
0
40
0
40
0
40
1
40
1
40
1
40
1
41
1
10
62.1131215496567
20
5.35711497407675
30
0
41
1
10
62.2166758010492
20
5.35164510066889
30
0
41
1
10
62.319890876062
20
5.3424867886786
30
0
41
1
10
62.42290018966
20
5.32965400572292
30
0
0
SPLINE
5
18A
100
AcDbEntity
8
1
62
256
6
ByLayer
370
18
48
1
60
0
100
AcDbSpline
70
4
71
3
72
10
73
6
40
0
40
0
40
0
40
0
40
0.5
40
0.5
40
1
40
1
40
1
40
1
41
1
10
61.7814834382514
20
4.87863912150195
30
0
41
1
10
61.8372901436245
20
4.96316383678697
30
0
41
1
10
61.8927988844889
20
5.04531634724611
30
0
41
1
10
62.0033600702815
20
5.20488858813366
30
0
41
1
10
62.0583701949149
20
5.28224189992366
30
0
41
1
10
62.1131215496567
20
5.35711497407678
30
0
0
SPLINE
5
18B
100
AcDbEntity
8
1
62
256
6
ByLayer
370
18
48
1
60
0
100
AcDbSpline
70
4
71
3
72
30
73
26
40
0
40
0
40
0
40
0
40
0.0624999999999928
40
0.0624999999999928
40
0.124999999999986
40
0.124999999999986
40
0.249999999999968
40
0.249999999999968
40
0.31249999999996
40
0.31249999999996
40
0.374999999999951
40
0.374999999999951
40
0.499999999999994
40
0.499999999999994
40
0.625000000000037
40
0.625000000000037
40
0.687500000000031
40
0.687500000000031
40
0.750000000000025
40
0.750000000000025
40
0.875000000000012
40
0.875000000000012
40
0.937500000000006
40
0.937500000000006
40
1
40
1
40
1
40
1
41
1
10
61.4486452640505
20
4.89500178809681
30
0
41
1
10
61.4539550074174
20
4.88597564744961
30
0
41
1
10
61.459806906515
20
4.87777229316782
30
0
41
1
10
61.4723822324022
20
4.86268193376776
30
0
41
1
10
61.4791228680938
20
4.85578577350844
30
0
41
1
10
61.5004091700709
20
4.83692236918566
30
0
41
1
10
61.5153432580315
20
4.82727145826306
30
0
41
1
10
61.5385114558076
20
4.81590643756903
30
0
41
1
10
61.5463950151741
20
4.81264841662193
30
0
41
1
10
61.5620574410617
20
4.80722433304661
30
0
41
1
10
61.5698757873249
20
4.80503565519638
30
0
41
1
10
61.5932864346464
20
4.79986447286905
30
0
41
1
10
61.6088347554127
20
4.79825914643365
30
0
41
1
10
61.6397731935062
20
4.79840300607611
30
0
41
1
10
61.6548299500307
20
4.80015697167019
30
0
41
1
10
61.6767099865972
20
4.80514384693328
30
0
41
1
10
61.6838901789516
20
4.80720314344941
30
0
41
1
10
61.6980133671685
20
4.81213939886854
30
0
41
1
10
61.7049828557392
20
4.81502964736566
30
0
41
1
10
61.7252978962586
20
4.82491611742563
30
0
41
1
10
61.7380014277088
20
4.83305840964562
30
0
41
1
10
61.7555979320804
20
4.84795330015706
30
0
41
1
10
61.7612179218607
20
4.85336985787632
30
0
41
1
10
61.7718860280576
20
4.86525785233178
30
0
41
1
10
61.7768957246675
20
4.87169058042798
30
0
41
1
10
61.7814834382514
20
4.87863912150195
30
0
0
SPLINE
5
18C
100
AcDbEntity
8
1
62
256
6
ByLayer
370
18
48
1
60
0
100
AcDbSpline
70
4
71
3
72
8
73
4
40
0
40
0
40
0
40
0
40
1
40
1
40
1
40
1
41
1
10
61.2023884146169
20
5.31112434363976
30
0
41
1
10
61.2838421555575
20
5.17443441260909
30
0
41
1
10
61.3659309132208
20
5.03560959388562
30
0
41
1
10
61.4486452640505
20
4.89500178809681
30
0
0
SPLINE
5
18D
100
AcDbEntity
8
1
62
256
6
ByLayer
370
18
48
1
60
0
100
AcDbSpline
70
4
71
3
72
8
73
4
40
0
40
0
40
0
40
0
40
1
40
1
40
1
40
1
41
1
10
60.6662872839273
20
5.19862978298875
30
0
41
1
10
60.8458797675636
20
5.24652096088721
30
0
41
1
10
61.0243623502784
20
5.28405181448906
30
0
41
1
10
61.2023884146169
20
5.31112434363965
30
0
0
SPLINE
5
18E
100
AcDbEntity
8
1
62
256
6
ByLayer
370
18
48
1
60
0
100
AcDbSpline
70
4
71
3
72
8
73
4
40
0
40
0
40
0
40
0
40
1
40
1
40
1
40
1
41
1
10
60.4587199725509
20
4.82093357129884
30
0
41
1
10
60.5283027181052
20
4.94941286836115
30
0
41
1
10
60.5974893607509
20
5.07537626233173
30
0
41
1
10
60.6662872839273
20
5.19862978298875
30
0
0
SPLINE
5
18F
100
AcDbEntity
8
1
62
256
6
ByLayer
370
18
48
1
60
0
100
AcDbSpline
70
4
71
3
72
30
73
26
40
0
40
0
40
0
40
0
40
0.0624999999999752
40
0.0624999999999752
40
0.12499999999995
40
0.12499999999995
40
0.249999999999901
40
0.249999999999901
40
0.312499999999875
40
0.312499999999875
40
0.37499999999985
40
0.37499999999985
40
0.499999999999861
40
0.499999999999861
40
0.624999999999871
40
0.624999999999871
40
0.687499999999876
40
0.687499999999876
40
0.74999999999988
40
0.74999999999988
40
0.87499999999994
40
0.87499999999994
40
0.93749999999997
40
0.93749999999997
40
1
40
1
40
1
40
1
41
1
10
60.1258830945154
20
4.75416022539201
30
0
41
1
10
60.1311917027323
20
4.74616300817971
30
0
41
1
10
60.1370427494736
20
4.7391432612549
30
0
41
1
10
60.14961680099
20
4.72666740992483
30
0
41
1
10
60.1563570639354
20
4.72120591512407
30
0
41
1
10
60.1776428649999
20
4.70695455604783
30
0
41
1
10
60.1925774512029
20
4.70063931573773
30
0
41
1
10
60.2157471296538
20
4.6945634109947
30
0
41
1
10
60.2236311777411
20
4.69312453747088
30
0
41
1
10
60.2392944049287
20
4.69135132798831
30
0
41
1
10
60.2471131766899
20
4.69100326707317
30
0
41
1
10
60.2705250725066
20
4.69139717213963
30
0
41
1
10
60.2860741821465
20
4.69355905298869
30
0
41
1
10
60.3170137246148
20
4.70135528232044
30
0
41
1
10
60.3320695917725
20
4.70691180974137
30
0
41
1
10
60.353949181538
20
4.71755465792432
30
0
41
1
10
60.3611292096158
20
4.72149247809296
30
0
41
1
10
60.3752520574249
20
4.73017278364054
30
0
41
1
10
60.382221454977
20
4.73493588811578
30
0
41
1
10
60.402534746556
20
4.75036347864568
30
0
41
1
10
60.4152375509969
20
4.76208269991116
30
0
41
1
10
60.4328338071749
20
4.78214285336287
30
0
41
1
10
60.4384538535525
20
4.78924743096289
30
0
41
1
10
60.4491223408828
20
4.80443254879242
30
0
41
1
10
60.4541319511027
20
4.81246213537207
30
0
41
1
10
60.4587199725509
20
4.82093357129884
30
0
0
SPLINE
5
190
100
AcDbEntity
8
1
62
256
6
ByLayer
370
18
48
1
60
0
100
AcDbSpline
70
4
71
3
72
8
73
4
40
0
40
0
40
0
40
0
40
1
40
1
40
1
40
1
41
1
10
59.9818275245831
20
4.9685847638959
30
0
41
1
10
60.0296379628984
20
4.89830333202824
30
0
41
1
10
60.0776442828161
20
4.82683016814505
30
0
41
1
10
60.1258830945154
20
4.75416022539198
30
0
0
SPLINE
5
191
100
AcDbEntity
8
1
62
256
6
ByLayer
370
18
48
1
60
0
100
AcDbSpline
70
4
71
3
72
8
73
4
40
0
40
0
40
0
40
0
40
1
40
1
40
1
40
1
41
1
10
59.2205467587512
20
4.60783660814167
30
0
41
1
10
59.4761077951168
20
4.74618489730801
30
0
41
1
10
59.7293201666096
20
4.86667026569791
30
0
41
1
10
59.9818275245831
20
4.96858476389588
30
0
0
SPLINE
5
192
100
AcDbEntity
8
1
62
256
6
ByLayer
370
18
48
1
60
0
100
AcDbSpline
70
4
71
3
72
8
73
4
40
0
40
0
40
0
40
0
40
1
40
1
40
1
40
1
41
1
10
59.1359391912582
20
4.43422125524197
30
0
41
1
10
59.164213097911
20
4.49229692183107
30
0
41
1
10
59.1924126351708
20
4.5501692336515
30
0
41
1
10
59.2205467587512
20
4.60783660814167
30
0
0
SPLINE
5
193
100
AcDbEntity
8
1
62
256
6
ByLayer
370
18
48
1
60
0
100
AcDbSpline
70
4
71
3
72
30
73
26
40
0
40
0
40
0
40
0
40
0.0624999999999964
40
0.0624999999999964
40
0.124999999999993
40
0.124999999999993
40
0.249999999999984
40
0.249999999999984
40
0.31249999999998
40
0.31249999999998
40
0.374999999999977
40
0.374999999999977
40
0.500000000000028
40
0.500000000000028
40
0.625000000000079
40
0.625000000000079
40
0.687500000000075
40
0.687500000000075
40
0.75000000000007
40
0.75000000000007
40
0.875000000000057
40
0.875000000000057
40
0.937500000000028
40
0.937500000000028
40
1
40
1
40
1
40
1
41
1
10
58.8030969739702
20
4.28872656430784
30
0
41
1
10
58.808405675124
20
4.28230424892107
30
0
41
1
10
58.8142560506446
20
4.27694851299003
30
0
41
1
10
58.8268268105969
20
4.26794140021133
30
0
41
1
10
58.8335635558375
20
4.26428927591331
30
0
41
1
10
58.854841388098
20
4.2556248904724
30
0
41
1
10
58.869768713921
20
4.25307622465516
30
0
41
1
10
58.8929260720916
20
4.2527008198233
30
0
41
1
10
58.9008069516735
20
4.25317762174734
30
0
41
1
10
58.9164660228227
20
4.25517301819306
30
0
41
1
10
58.9242828128687
20
4.25668761403264
30
0
41
1
10
58.9476891829073
20
4.26261467874681
30
0
41
1
10
58.9632351739595
20
4.26839298685957
30
0
41
1
10
58.9941700803446
20
4.28330514551789
30
0
41
1
10
59.0092339570022
20
4.29228979739008
30
0
41
1
10
59.0311183162355
20
4.30786937303031
30
0
41
1
10
59.0382999480434
20
4.31341990771116
30
0
41
1
10
59.0524260195724
20
4.32525890831431
30
0
41
1
10
59.0593962501927
20
4.33157297876821
30
0
41
1
10
59.0797238365086
20
4.35151314874372
30
0
41
1
10
59.0924343364101
20
4.36602818954083
30
0
41
1
10
59.1100395229361
20
4.38991424709906
30
0
41
1
10
59.1156621066259
20
4.3982321402201
30
0
41
1
10
59.1263347773069
20
4.41569835211288
30
0
41
1
10
59.1313485839234
20
4.42479197529457
30
0
41
1
10
59.1359391912595
20
4.43422125524384
30
0
0
SPLINE
5
194
100
AcDbEntity
8
1
62
256
6
ByLayer
370
18
48
1
60
0
100
AcDbSpline
70
4
71
3
72
8
73
4
40
0
40
0
40
0
40
0
40
1
40
1
40
1
40
1
41
1
10
58.7596788264298
20
4.34088057995453
30
0
41
1
10
58.7741328129651
20
4.32364279769462
30
0
41
1
10
58.7886052047161
20
4.30625829381597
30
0
41
1
10
58.8030969739706
20
4.28872656430835
30
0
0
SPLINE
5
195
100
AcDbEntity
8
1
62
256
6
ByLayer
370
18
48
1
60
0
100
AcDbSpline
70
4
71
3
72
10
73
6
40
0
40
0
40
0
40
0
40
0.5
40
0.5
40
1
40
1
40
1
40
1
41
1
10
57.7332137091933
20
3.63487238775889
30
0
41
1
10
57.9060763278052
20
3.76513672915931
30
0
41
1
10
58.0778522579916
20
3.88924510654263
30
0
41
1
10
58.4197083617411
20
4.12480354288041
30
0
41
1
10
58.5897961519566
20
4.23623942519313
30
0
41
1
10
58.7596788264299
20
4.34088057995453
30
0
0
SPLINE
5
196
100
AcDbEntity
8
1
62
256
6
ByLayer
370
18
48
1
60
0
100
AcDbSpline
70
4
71
3
72
51
73
47
40
0
40
0
40
0
40
0
40
0.0354042889343667
40
0.0354042889343667
40
0.071130056010873
40
0.071130056010873
40
0.142581590163883
40
0.142581590163883
40
0.178307357240387
40
0.178307357240387
40
0.214033124316892
40
0.214033124316892
40
0.249758891393397
40
0.249758891393397
40
0.285484658469902
40
0.285484658469902
40
0.356936192622912
40
0.356936192622912
40
0.374799076161165
40
0.374799076161165
40
0.392661959699418
40
0.392661959699418
40
0.428387726775924
40
0.428387726775924
40
0.499839260928934
40
0.499839260928934
40
0.571290795081943
40
0.571290795081943
40
0.642742329234952
40
0.642742329234952
40
0.678468096311457
40
0.678468096311457
40
0.69633097984971
40
0.69633097984971
40
0.714193863387962
40
0.749919630464467
40
0.749919630464467
40
0.785645397540972
40
0.785645397540972
40
0.857096931693981
40
0.857096931693981
40
0.892822698770485
40
0.892822698770485
40
0.92854846584699
40
0.92854846584699
40
1
40
1
40
1
40
1
41
1
10
45.5565874501142
20
-3.95199999940479
30
0
41
1
10
45.456693603825
20
-3.95200087150366
30
0
41
1
10
45.3565114469451
20
-3.94968180424544
30
0
41
1
10
45.1546068878843
20
-3.94031475193469
30
0
41
1
10
45.0534730359517
20
-3.93325299418711
30
0
41
1
10
44.7507640131485
20
-3.90514405958035
30
0
41
1
10
44.5498695047569
20
-3.87718550171817
30
0
41
1
10
44.2493504306039
20
-3.8218003111223
30
0
41
1
10
44.1493165924109
20
-3.80109412878048
30
0
41
1
10
43.9494508678375
20
-3.75521783380088
30
0
41
1
10
43.8496340332661
20
-3.73003930178521
30
0
41
1
10
43.6499340627394
20
-3.67531261598788
30
0
41
1
10
43.5500470828957
20
-3.6457660392341
30
0
41
1
10
43.3498877907798
20
-3.582467499795
30
0
41
1
10
43.2496231948676
20
-3.54871511183478
30
0
41
1
10
42.9482542341825
20
-3.44115141356136
30
0
41
1
10
42.7466079327432
20
-3.36102630977607
30
0
41
1
10
42.4932836944762
20
-3.25025594954636
30
0
41
1
10
42.4425238843207
20
-3.22755569662769
30
0
41
1
10
42.3412739178718
20
-3.18127723482527
30
0
41
1
10
42.2907390855822
20
-3.15767834621479
30
0
41
1
10
42.139370002577
20
-3.08553683581769
30
0
41
1
10
42.0387681974127
20
-3.03565132656891
30
0
41
1
10
41.7375574781613
20
-2.88095266608099
30
0
41
1
10
41.5375366329413
20
-2.77109865089122
30
0
41
1
10
41.1373613412914
20
-2.53975837563584
30
0
41
1
10
40.9372423514611
20
-2.41826398011347
30
0
41
1
10
40.5368703819364
20
-2.16369124600095
30
0
41
1
10
40.3366921053159
20
-2.03050531297754
30
0
41
1
10
40.0350341319405
20
-1.82322621966983
30
0
41
1
10
39.9342588077289
20
-1.75287500007192
30
0
41
1
10
39.7826438820942
20
-1.64557026250589
30
0
41
1
10
39.7320198171981
20
-1.60949845311754
30
0
41
1
10
39.6306420073493
20
-1.53681252485205
30
0
41
1
10
39.4787921071626
20
-1.42726532804312
30
0
41
1
10
39.3274950069275
20
-1.31629189193137
30
0
41
1
10
39.1260887428859
20
-1.16728126638492
30
0
41
1
10
39.0255480144114
20
-1.09225217305476
30
0
41
1
10
38.7243799366646
20
-0.865646659195619
30
0
41
1
10
38.5242532692409
20
-0.712494984704307
30
0
41
1
10
38.2247006582661
20
-0.480072963622916
30
0
41
1
10
38.1249145661566
20
-0.402202086622282
30
0
41
1
10
37.925127504059
20
-0.24610946337566
30
0
41
1
10
37.825106146773
20
-0.167914448584099
30
0
41
1
10
37.5244337201911
20
0.0668227759052797
30
0
41
1
10
37.3232272988478
20
0.223583199843461
30
0
41
1
10
37.121059444843
20
0.380369134342118
30
0
0
SPLINE
5
197
100
AcDbEntity
8
1
62
256
6
ByLayer
370
18
48
1
60
0
100
AcDbSpline
70
4
71
3
72
54
73
50
40
0
40
0
40
0
40
0
40
0.0896499185668379
40
0.0896499185668379
40
0.134474877850258
40
0.134474877850258
40
0.179299837133678
40
0.179299837133678
40
0.224124796417097
40
0.224124796417097
40
0.268949755700517
40
0.268949755700517
40
0.313774714983937
40
0.313774714983937
40
0.336187194625649
40
0.336187194625649
40
0.35859967426736
40
0.35859967426736
40
0.403424633550787
40
0.403424633550787
40
0.448249592834213
40
0.448249592834213
40
0.493074552117639
40
0.493074552117639
40
0.515487031759353
40
0.515487031759353
40
0.537899511401066
40
0.537899511401066
40
0.582724470684492
40
0.582724470684492
40
0.627549429967919
40
0.627549429967919
40
0.672374389251345
40
0.672374389251345
40
0.694786868893056
40
0.694786868893056
40
0.717199348534768
40
0.717199348534768
40
0.806849267101614
40
0.806849267101614
40
0.851674226385037
40
0.851674226385037
40
0.89649918566846
40
0.89649918566846
40
0.941324144951883
40
0.941324144951883
40
0.986149104235306
40
0.986149104235306
40
1
40
1
40
1
40
1
41
1
10
33.9820167199149
20
-2.76389171437358
30
0
41
1
10
34.2164894053401
20
-2.89420494698697
30
0
41
1
10
34.4503412537759
20
-3.01441268063419
30
0
41
1
10
34.8003471036659
20
-3.17995916712448
30
0
41
1
10
34.916876651892
20
-3.2326814947653
30
0
41
1
10
35.149565754845
20
-3.33324467774241
30
0
41
1
10
35.2656916235869
20
-3.38110359737794
30
0
41
1
10
35.4979343413909
20
-3.47159879032392
30
0
41
1
10
35.6140547661767
20
-3.51423046164442
30
0
41
1
10
35.8469025207344
20
-3.59384910831466
30
0
41
1
10
35.9636839419353
20
-3.63080904737433
30
0
41
1
10
36.1982412362014
20
-3.6988911592459
30
0
41
1
10
36.3159871513696
20
-3.73003261236164
30
0
41
1
10
36.4932744584031
20
-3.7723703283996
30
0
41
1
10
36.5523326415374
20
-3.78571733897812
30
0
41
1
10
36.6701769188094
20
-3.81085783856096
30
0
41
1
10
36.7289920475269
20
-3.82265834662732
30
0
41
1
10
36.905084277756
20
-3.85577174409931
30
0
41
1
10
37.0219577840537
20
-3.87481120227994
30
0
41
1
10
37.2549019238044
20
-3.90672869528447
30
0
41
1
10
37.3710023565485
20
-3.91959473402676
30
0
41
1
10
37.6030429559813
20
-3.93904989733218
30
0
41
1
10
37.7189834282832
20
-3.94563730769141
30
0
41
1
10
37.8932990947176
20
-3.95083306199524
30
0
41
1
10
37.9514747610736
20
-3.95178521488367
30
0
41
1
10
38.0680516413806
20
-3.95214991667686
30
0
41
1
10
38.1264436122245
20
-3.95156380824568
30
0
41
1
10
38.3017942883231
20
-3.94751880725289
30
0
41
1
10
38.4189313687183
20
-3.94178725432226
30
0
41
1
10
38.6527583930892
20
-3.9240543361276
30
0
41
1
10
38.7694841377307
20
-3.91203430892048
30
0
41
1
10
39.0032099168037
20
-3.88156300194885
30
0
41
1
10
39.1202112763535
20
-3.86310955673127
30
0
41
1
10
39.2965113894994
20
-3.83065657618252
30
0
41
1
10
39.355291500093
20
-3.81907023146439
30
0
41
1
10
39.4726726374917
20
-3.79444636038181
30
0
41
1
10
39.5313092773602
20
-3.78140053008249
30
0
41
1
10
39.8242663921595
20
-3.71257307017433
30
0
41
1
10
40.0579326011614
20
-3.64603954795317
30
0
41
1
10
40.4079582524049
20
-3.5299113393819
30
0
41
1
10
40.5245567922991
20
-3.48848009923927
30
0
41
1
10
40.7573330934889
20
-3.39998891593763
30
0
41
1
10
40.8734507556349
20
-3.35288055604781
30
0
41
1
10
41.1056555823944
20
-3.25318438539142
30
0
41
1
10
41.2217505349119
20
-3.20059905054811
30
0
41
1
10
41.4546698670301
20
-3.09048959225737
30
0
41
1
10
41.5715591463173
20
-3.03302564674036
30
0
41
1
10
41.7251922842057
20
-2.95472076240583
30
0
41
1
10
41.7615027715752
20
-2.93601033205448
30
0
41
1
10
41.7978558112637
20
-2.9170715090421
30
0
0
SPLINE
5
198
100
AcDbEntity
8
1
62
256
6
ByLayer
370
18
48
1
60
0
100
AcDbSpline
70
4
71
3
72
18
73
14
40
0
40
0
40
0
40
0
40
0.125364284171125
40
0.125364284171125
40
0.41690952278075
40
0.41690952278075
40
0.562682142085563
40
0.562682142085563
40
0.708454761390374
40
0.708454761390374
40
0.854227380695187
40
0.854227380695187
40
1
40
1
40
1
40
1
41
1
10
54.0106128615153
20
3.9519999960051
30
0
41
1
10
54.1108882572792
20
3.95200106166621
30
0
41
1
10
54.2108911871754
20
3.9497043739762
30
0
41
1
10
54.542816256553
20
3.93444143034674
30
0
41
1
10
54.7738864909275
20
3.91132464746519
30
0
41
1
10
55.1214856097283
20
3.85855594035544
30
0
41
1
10
55.23756586428
20
3.83797687240914
30
0
41
1
10
55.470189874699
20
3.79088944247172
30
0
41
1
10
55.5867248240593
20
3.76438106642951
30
0
41
1
10
55.8200832869474
20
3.70530576228035
30
0
41
1
10
55.9368566588486
20
3.67271351495634
30
0
41
1
10
56.1707036869395
20
3.60127657363154
30
0
41
1
10
56.2878168919367
20
3.56244478285814
30
0
41
1
10
56.4054275132664
20
3.52058700650124
30
0
0
SPLINE
5
199
100
AcDbEntity
8
1
62
256
6
ByLayer
370
18
48
1
60
0
100
AcDbSpline
70
4
71
3
72
28
73
24
40
0
40
0
40
0
40
0
40
0.125000000000018
40
0.125000000000018
40
0.250000000000035
40
0.250000000000035
40
0.375000000000053
40
0.375000000000053
40
0.500000000000071
40
0.500000000000071
40
0.56250000000007
40
0.56250000000007
40
0.625000000000069
40
0.625000000000069
40
0.750000000000068
40
0.750000000000068
40
0.812500000000059
40
0.812500000000059
40
0.843750000000054
40
0.843750000000054
40
0.875000000000049
40
0.875000000000049
40
1
40
1
40
1
40
1
41
1
10
56.4054275132664
20
3.52058700650124
30
0
41
1
10
56.4559592962656
20
3.50260267780897
30
0
41
1
10
56.5058730325835
20
3.48689363956933
30
0
41
1
10
56.6043651748375
20
3.45961757079326
30
0
41
1
10
56.6529445895524
20
3.44805042477745
30
0
41
1
10
56.7487059920632
20
3.42892759323354
30
0
41
1
10
56.7958921188204
20
3.42137458750986
30
0
41
1
10
56.8887737254035
20
3.41040545086511
30
0
41
1
10
56.9344686080777
20
3.40698348708341
30
0
41
1
10
57.0018143499522
20
3.40530938969235
30
0
41
1
10
57.0240981485348
20
3.40533466164621
30
0
41
1
10
57.0678531101926
20
3.40663510846116
30
0
41
1
10
57.0893680503926
20
3.40790726350906
30
0
41
1
10
57.1528039948963
20
3.41373079268595
30
0
41
1
10
57.1936212345917
20
3.42026291490677
30
0
41
1
10
57.2524587391021
20
3.4349652922121
30
0
41
1
10
57.2716719349495
20
3.44068904945235
30
0
41
1
10
57.2998551748995
20
3.45069485160445
30
0
41
1
10
57.309143367479
20
3.45426739955795
30
0
41
1
10
57.3274992092628
20
3.46192645799422
30
0
41
1
10
57.3365780859009
20
3.46601907174249
30
0
41
1
10
57.3811484002951
20
3.48775535472521
30
0
41
1
10
57.4143344594234
20
3.5092031025053
30
0
41
1
10
57.4446579978077
20
3.53612475480099
30
0
0
SPLINE
5
19A
100
AcDbEntity
8
1
62
256
6
ByLayer
370
18
48
1
60
0
100
AcDbSpline
70
4
71
3
72
11
73
7
40
0
40
0
40
0
40
0
40
0.499999999999999
40
0.75
40
0.75
40
1
40
1
40
1
40
1
41
1
10
57.4446579978077
20
3.53612475480097
30
0
41
1
10
57.4686546756441
20
3.55742933373153
30
0
41
1
10
57.5048327144376
20
3.58995027829306
30
0
41
1
10
57.5412630782155
20
3.62332530415435
30
0
41
1
10
57.5656034917458
20
3.64576367160967
30
0
41
1
10
57.5777996711408
20
3.65707350754013
30
0
41
1
10
57.59
20
3.66836197652603
30
0
0
SPLINE
5
19B
100
AcDbEntity
8
1
62
256
6
ByLayer
370
18
48
1
60
0
100
AcDbSpline
70
4
71
3
72
8
73
4
40
0
40
0
40
0
40
0
40
1
40
1
40
1
40
1
41
1
10
57.8379613368148
20
3.54279203618921
30
0
41
1
10
57.7555908036688
20
3.58640980133708
30
0
41
1
10
57.6729212610844
20
3.62824210193881
30
0
41
1
10
57.59
20
3.66836197652606
30
0
0
SPLINE
5
19C
100
AcDbEntity
8
1
62
256
6
ByLayer
370
18
48
1
60
0
100
AcDbSpline
70
4
71
3
72
24
73
20
40
0
40
0
40
0
40
0
40
0.0624999999999687
40
0.0624999999999687
40
0.124999999999937
40
0.124999999999937
40
0.249999999999946
40
0.249999999999946
40
0.374999999999955
40
0.374999999999955
40
0.499999999999964
40
0.499999999999964
40
0.624999999999973
40
0.624999999999973
40
0.749999999999982
40
0.749999999999982
40
0.874999999999991
40
0.874999999999991
40
1
40
1
40
1
40
1
41
1
10
58.1020827616294
20
3.39656431683463
30
0
41
1
10
58.0975494516466
20
3.39497407275849
30
0
41
1
10
58.092776147192
20
3.39386010449672
30
0
41
1
10
58.0828032775874
20
3.39247773307972
30
0
41
1
10
58.0775702934652
20
3.39221287656088
30
0
41
1
10
58.0616149309652
20
3.3925744922187
30
0
41
1
10
58.0506019537689
20
3.39430985717661
30
0
41
1
10
58.0279950234496
20
3.40012425756228
30
0
41
1
10
58.0163096651883
20
3.40425938337964
30
0
41
1
10
57.9930554335239
20
3.41435979275477
30
0
41
1
10
57.9814457893293
20
3.42032231924074
30
0
41
1
10
57.9582729056413
20
3.43386229390214
30
0
41
1
10
57.9467096084267
20
3.44144185117062
30
0
41
1
10
57.9236477046607
20
3.45819070698613
30
0
41
1
10
57.9122700739539
20
3.46727906363404
30
0
41
1
10
57.8901063791848
20
3.48663512453709
30
0
41
1
10
57.879275974674
20
3.49693445818983
30
0
41
1
10
57.8581627889748
20
3.51884914131918
30
0
41
1
10
57.8478273496901
20
3.53052949096039
30
0
41
1
10
57.8379613368148
20
3.54279203618921
30
0
0
SPLINE
5
19D
100
AcDbEntity
8
1
62
256
6
ByLayer
370
18
48
1
60
0
100
AcDbSpline
70
4
71
3
72
12
73
8
40
0
40
0
40
0
40
0
40
0.499999999999988
40
0.499999999999988
40
0.749999999999994
40
0.749999999999994
40
1
40
1
40
1
40
1
41
1
10
59.037964919644
20
2.79073409445283
30
0
41
1
10
58.8822924690373
20
2.90232676362155
30
0
41
1
10
58.7264675918778
20
3.00851956954921
30
0
41
1
10
58.4924906851218
20
3.15992823501009
30
0
41
1
10
58.4144686594271
20
3.20909198700565
30
0
41
1
10
58.2583860922964
20
3.30483732870138
30
0
41
1
10
58.1803317494387
20
3.35142214178578
30
0
41
1
10
58.10208276163
20
3.39656431684901
30
0
0
SPLINE
5
19E
100
AcDbEntity
8
1
62
256
6
ByLayer
370
18
48
1
60
0
100
AcDbSpline
70
4
71
3
72
8
73
4
40
0
40
0
40
0
40
0
40
1
40
1
40
1
40
1
41
1
10
59.1063978281719
20
2.65569168569294
30
0
41
1
10
59.0835454852065
20
2.70052079621382
30
0
41
1
10
59.0607382553167
20
2.74553982689625
30
0
41
1
10
59.037964919644
20
2.79073409445286
30
0
0
SPLINE
5
19F
100
AcDbEntity
8
1
62
256
6
ByLayer
370
18
48
1
60
0
100
AcDbSpline
70
4
71
3
72
30
73
26
40
0
40
0
40
0
40
0
40
0.0625000000000066
40
0.0625000000000066
40
0.125000000000013
40
0.125000000000013
40
0.24999999999997
40
0.24999999999997
40
0.312499999999949
40
0.312499999999949
40
0.374999999999927
40
0.374999999999927
40
0.499999999999945
40
0.499999999999945
40
0.562499999999926
40
0.562499999999926
40
0.624999999999906
40
0.624999999999906
40
0.749999999999924
40
0.749999999999924
40
0.812499999999932
40
0.812499999999932
40
0.87499999999994
40
0.87499999999994
40
1
40
1
40
1
40
1
41
1
10
59.4391793334119
20
2.38107347158359
30
0
41
1
10
59.4339280181198
20
2.37970999868284
30
0
41
1
10
59.4281564995433
20
2.37929864913707
30
0
41
1
10
59.4157815870292
20
2.3799937070755
30
0
41
1
10
59.4091758311056
20
2.38110452377546
30
0
41
1
10
59.3882618212308
20
2.38643865193848
30
0
41
1
10
59.3735210304936
20
2.39244725832461
30
0
41
1
10
59.3507011494826
20
2.40405116474014
30
0
41
1
10
59.3429220837727
20
2.40839319842578
30
0
41
1
10
59.3273549258953
20
2.41777081935089
30
0
41
1
10
59.3195784713252
20
2.4227946608863
30
0
41
1
10
59.2962751340921
20
2.43876774163795
30
0
41
1
10
59.2807735752695
20
2.45060676206344
30
0
41
1
10
59.2576020592443
20
2.47003338093504
30
0
41
1
10
59.2498727418814
20
2.47680999650854
30
0
41
1
10
59.2346959320676
20
2.49070840341079
30
0
41
1
10
59.2272195403058
20
2.49785295357214
30
0
41
1
10
59.2051318782132
20
2.51987320719436
30
0
41
1
10
59.1908569400993
20
2.53532630271468
30
0
41
1
10
59.1702254852672
20
2.55981681283328
30
0
41
1
10
59.163491541943
20
2.56819207543131
30
0
41
1
10
59.1505895970478
20
2.58506974714822
30
0
41
1
10
59.1443864578489
20
2.59361257043906
30
0
41
1
10
59.1265832394622
20
2.61957981257203
30
0
41
1
10
59.115757660694
20
2.63733063767182
30
0
41
1
10
59.1063978281719
20
2.65569168569334
30
0
0
SPLINE
5
1A0
100
AcDbEntity
8
1
62
256
6
ByLayer
370
18
48
1
60
0
100
AcDbSpline
70
4
71
3
72
8
73
4
40
0
40
0
40
0
40
0
40
1
40
1
40
1
40
1
41
1
10
59.5487776190738
20
2.40544273945042
30
0
41
1
10
59.5123864224184
20
2.39872070144767
30
0
41
1
10
59.4758590600789
20
2.39059714527957
30
0
41
1
10
59.4391793334119
20
2.38107347158356
30
0
0
SPLINE
5
1A1
100
AcDbEntity
8
1
62
256
6
ByLayer
370
18
48
1
60
0
100
AcDbSpline
70
4
71
3
72
10
73
6
40
0
40
0
40
0
40
0
40
0.5
40
0.5
40
1
40
1
40
1
40
1
41
1
10
60.2570619369318
20
1.80995495772379
30
0
41
1
10
60.1394953897371
20
1.91428215557454
30
0
41
1
10
60.0218306530541
20
2.01617790299454
30
0
41
1
10
59.7858625705955
20
2.21476652657421
30
0
41
1
10
59.6675545668462
20
2.31145566809391
30
0
41
1
10
59.5487776190738
20
2.40544273945036
30
0
0
SPLINE
5
1A2
100
AcDbEntity
8
1
62
256
6
ByLayer
370
18
48
1
60
0
100
AcDbSpline
70
4
71
3
72
8
73
4
40
0
40
0
40
0
40
0
40
1
40
1
40
1
40
1
41
1
10
60.4290643638491
20
1.50692885960248
30
0
41
1
10
60.3714597877189
20
1.60602942776586
30
0
41
1
10
60.3141354109954
20
1.70702591637823
30
0
41
1
10
60.2570619369318
20
1.80995495772382
30
0
0
SPLINE
5
1A3
100
AcDbEntity
8
1
62
256
6
ByLayer
370
18
48
1
60
0
100
AcDbSpline
70
4
71
3
72
32
73
28
40
0
40
0
40
0
40
0
40
0.0625000000000222
40
0.0625000000000222
40
0.125000000000044
40
0.125000000000044
40
0.187500000000067
40
0.187500000000067
40
0.250000000000089
40
0.250000000000089
40
0.312500000000111
40
0.312500000000111
40
0.375000000000133
40
0.375000000000133
40
0.500000000000116
40
0.500000000000116
40
0.562500000000108
40
0.562500000000108
40
0.6250000000001
40
0.6250000000001
40
0.750000000000083
40
0.750000000000083
40
0.812500000000074
40
0.812500000000074
40
0.875000000000066
40
0.875000000000066
40
1
40
1
40
1
40
1
41
1
10
60.7619002276712
20
1.19790895718177
30
0
41
1
10
60.7566450565311
20
1.19903538760303
30
0
41
1
10
60.7508698818144
20
1.20097571193662
30
0
41
1
10
60.7384891050906
20
1.20615338497669
30
0
41
1
10
60.7318811312359
20
1.20939451860448
30
0
41
1
10
60.7179363650895
20
1.21701718084253
30
0
41
1
10
60.710742714782
20
1.22132146601609
30
0
41
1
10
60.6960915871198
20
1.23068171532265
30
0
41
1
10
60.6886161044682
20
1.23574877868927
30
0
41
1
10
60.6734062373546
20
1.24656378451291
30
0
41
1
10
60.6656304464044
20
1.25234482438049
30
0
41
1
10
60.650065491099
20
1.2643700482019
30
0
41
1
10
60.6422908132041
20
1.27060000017124
30
0
41
1
10
60.6189948479573
20
1.28987763838063
30
0
41
1
10
60.6035009500093
20
1.30350531442866
30
0
41
1
10
60.5803445196833
20
1.32504736376498
30
0
41
1
10
60.5726179112966
20
1.33243669566053
30
0
41
1
10
60.557442676662
20
1.34735698495416
30
0
41
1
10
60.5499673057384
20
1.3549116963743
30
0
41
1
10
60.5278830044492
20
1.37786480685551
30
0
41
1
10
60.5136107071951
20
1.39354784222564
30
0
41
1
10
60.4929822144903
20
1.41773515004357
30
0
41
1
10
60.486239399109
20
1.42591049320765
30
0
41
1
10
60.4733209637137
20
1.44216325696249
30
0
41
1
10
60.4671095026058
20
1.450281569537
30
0
41
1
10
60.4492813443215
20
1.47461131978488
30
0
41
1
10
60.4384389529602
20
1.49080119805893
30
0
41
1
10
60.4290643638491
20
1.50692885960291
30
0
0
SPLINE
5
1A4
100
AcDbEntity
8
1
62
256
6
ByLayer
370
18
48
1
60
0
100
AcDbSpline
70
4
71
3
72
8
73
4
40
0
40
0
40
0
40
0
40
1
40
1
40
1
40
1
41
1
10
60.9909017630579
20
1.13045433153815
30
0
41
1
10
60.9151454828311
20
1.15864715933455
30
0
41
1
10
60.838841380115
20
1.18141684827592
30
0
41
1
10
60.7619002276712
20
1.19790895718171
30
0
0
SPLINE
5
1A5
100
AcDbEntity
8
1
62
256
6
ByLayer
370
18
48
1
60
0
100
AcDbSpline
70
4
71
3
72
8
73
4
40
0
40
0
40
0
40
0
40
1
40
1
40
1
40
1
41
1
10
61.4748029870293
20
0.656245820185973
30
0
41
1
10
61.3139481542229
20
0.817358889866455
30
0
41
1
10
61.1525987964591
20
0.975356674173497
30
0
41
1
10
60.9909017630578
20
1.13045433153817
30
0
0
SPLINE
5
1A6
100
AcDbEntity
8
1
62
256
6
ByLayer
370
18
48
1
60
0
100
AcDbSpline
70
4
71
3
72
10
73
6
40
0
40
0
40
0
40
0
40
0.5
40
0.5
40
1
40
1
40
1
40
1
41
1
10
61.7515709701029
20
0.258460350672237
30
0
41
1
10
61.7051281309725
20
0.321572756590882
30
0
41
1
10
61.6588401702466
20
0.386275297082818
30
0
41
1
10
61.5665413621622
20
0.518858701676805
30
0
41
1
10
61.5205741797433
20
0.586731582420413
30
0
41
1
10
61.4748029870293
20
0.656245820185973
30
0
0
SPLINE
5
1A7
100
AcDbEntity
8
1
62
256
6
ByLayer
370
18
48
1
60
0
100
AcDbSpline
70
4
71
3
72
32
73
28
40
0
40
0
40
0
40
0
40
0.0624999999999896
40
0.0624999999999896
40
0.124999999999979
40
0.124999999999979
40
0.187499999999969
40
0.187499999999969
40
0.249999999999958
40
0.249999999999958
40
0.312499999999948
40
0.312499999999948
40
0.374999999999937
40
0.374999999999937
40
0.499999999999916
40
0.499999999999916
40
0.562499999999906
40
0.562499999999906
40
0.624999999999896
40
0.624999999999896
40
0.74999999999993
40
0.74999999999993
40
0.812499999999948
40
0.812499999999948
40
0.874999999999965
40
0.874999999999965
40
1
40
1
40
1
40
1
41
1
10
62.0844894781865
20
-0.0646436275621056
30
0
41
1
10
62.0792332603872
20
-0.0610707953638041
30
0
41
1
10
62.0734602688431
20
-0.056876798075649
30
0
41
1
10
62.061091332869
20
-0.0475031359691798
30
0
41
1
10
62.0544929891118
20
-0.0423205138280309
30
0
41
1
10
62.0405755299459
20
-0.0310913910882107
30
0
41
1
10
62.0333928111637
20
-0.0251544280815494
30
0
41
1
10
62.0187714960508
20
-0.0128413323251948
30
0
41
1
10
62.0113126674577
20
-0.006448437922387
30
0
41
1
10
61.996139099547
20
0.006753846697336
30
0
41
1
10
61.9883852508213
20
0.013598591219619
30
0
41
1
10
61.9728439129712
20
0.0274992044642204
30
0
41
1
10
61.9650807439714
20
0.0345322119761136
30
0
41
1
10
61.9418177140411
20
0.0558588962444162
30
0
41
1
10
61.9263436047409
20
0.0703769131707759
30
0
41
1
10
61.9032117592408
20
0.0926003353451108
30
0
41
1
10
61.895486218304
20
0.100111802971696
30
0
41
1
10
61.8802965908327
20
0.11506925878868
30
0
41
1
10
61.8728135329658
20
0.122532794370159
30
0
41
1
10
61.8507049244438
20
0.144888104458602
30
0
41
1
10
61.8364146885329
20
0.159745381729976
30
0
41
1
10
61.8157589571773
20
0.181989621222243
30
0
41
1
10
61.8089872150222
20
0.189418390115605
30
0
41
1
10
61.7960083323267
20
0.203961215998533
30
0
41
1
10
61.789768438185
20
0.211109666469696
30
0
41
1
10
61.771861598551
20
0.232158050991757
30
0
41
1
10
61.7609753061607
20
0.245680548968096
30
0
41
1
10
61.7515709701028
20
0.258460350672493
30
0
0
SPLINE
5
1A8
100
AcDbEntity
8
1
62
256
6
ByLayer
370
18
48
1
60
0
100
AcDbSpline
70
4
71
3
72
32
73
28
40
0
40
0
40
0
40
0
40
0.0625000000000183
40
0.0625000000000183
40
0.125000000000036
40
0.125000000000036
40
0.187500000000055
40
0.187500000000055
40
0.250000000000073
40
0.250000000000073
40
0.312500000000091
40
0.312500000000091
40
0.37500000000011
40
0.37500000000011
40
0.500000000000146
40
0.500000000000146
40
0.562500000000164
40
0.562500000000164
40
0.625000000000182
40
0.625000000000182
40
0.750000000000159
40
0.750000000000159
40
0.81250000000012
40
0.81250000000012
40
0.875000000000081
40
0.875000000000081
40
1
40
1
40
1
40
1
41
1
10
63.4070958445473
20
-1.32187677208179
30
0
41
1
10
63.4018575387377
20
-1.31620155020229
30
0
41
1
10
63.3961034383257
20
-1.31014642488111
30
0
41
1
10
63.3837709028874
20
-1.29743293509847
30
0
41
1
10
63.3771901242498
20
-1.29077278162328
30
0
41
1
10
63.3633046297272
20
-1.27692307746582
30
0
41
1
10
63.3561312997743
20
-1.26986490540307
30
0
41
1
10
63.3415281238644
20
-1.25564704644626
30
0
41
1
10
63.3340761473173
20
-1.24846558390576
30
0
41
1
10
63.3189119251184
20
-1.23397232296753
30
0
41
1
10
63.3111607960766
20
-1.22662416920482
30
0
41
1
10
63.2956171716406
20
-1.21198770483514
30
0
41
1
10
63.2878513971909
20
-1.20472393124263
30
0
41
1
10
63.2645768118837
20
-1.18307115735453
30
0
41
1
10
63.2490900369599
20
-1.16881937991968
30
0
41
1
10
63.2259338403689
20
-1.14765899728192
30
0
41
1
10
63.2182001025853
20
-1.14061730034896
30
0
41
1
10
63.2029983581243
20
-1.12681317376638
30
0
41
1
10
63.195509300285
20
-1.12003134051017
30
0
41
1
10
63.1733831784888
20
-1.100031719459
30
0
41
1
10
63.1590819481975
20
-1.08715394578931
30
0
41
1
10
63.1384113958165
20
-1.06855671872577
30
0
41
1
10
63.1316412745675
20
-1.06246879801242
30
0
41
1
10
63.1186719590561
20
-1.05080641226294
30
0
41
1
10
63.1124375870668
20
-1.04520019218288
30
0
41
1
10
63.0945488158691
20
-1.02910943666831
30
0
41
1
10
63.0836767316196
20
-1.01931899656208
30
0
41
1
10
63.0742856943497
20
-1.01088029467652
30
0
0
SPLINE
5
1A9
100
AcDbEntity
8
1
62
256
6
ByLayer
370
18
48
1
60
0
100
AcDbSpline
70
4
71
3
72
12
73
8
40
0
40
0
40
0
40
0
40
0.500000000000011
40
0.500000000000011
40
0.750000000000006
40
0.750000000000006
40
1
40
1
40
1
40
1
41
1
10
63.8314090540557
20
-1.83951074968783
30
0
41
1
10
63.7617528625022
20
-1.74562059048586
30
0
41
1
10
63.6915960789202
20
-1.65528184738434
30
0
41
1
10
63.5855194630199
20
-1.52548976867843
30
0
41
1
10
63.5500326029128
20
-1.48320895684159
30
0
41
1
10
63.4787715428819
20
-1.4008318999158
30
0
41
1
10
63.4430079380413
20
-1.36078421776037
30
0
41
1
10
63.4070958445473
20
-1.32187677208177
30
0
0
SPLINE
5
1AA
100
AcDbEntity
8
1
62
256
6
ByLayer
370
18
48
1
60
0
100
AcDbSpline
70
4
71
3
72
8
73
4
40
0
40
0
40
0
40
0
40
1
40
1
40
1
40
1
41
1
10
63.8314090540562
20
-1.83951074969107
30
0
41
1
10
63.8750285063172
20
-1.88526323681205
30
0
41
1
10
63.9186801455758
20
-1.93083709755723
30
0
41
1
10
63.9623751933247
20
-1.97622206326119
30
0
0
SPLINE
5
1AB
100
AcDbEntity
8
1
62
256
6
ByLayer
370
18
48
1
60
0
100
AcDbSpline
70
4
71
3
72
10
73
6
40
0
40
0
40
0
40
0
40
0.5
40
0.5
40
1
40
1
40
1
40
1
41
1
10
64.3970449989719
20
-2.21226178411055
30
0
41
1
10
64.3236735374736
20
-2.18373389831208
30
0
41
1
10
64.2507559459607
20
-2.1499532356886
30
0
41
1
10
64.1057737106707
20
-2.07134232195745
30
0
41
1
10
64.0338210899639
20
-2.02644728996844
30
0
41
1
10
63.9623751933247
20
-1.97622206326119
30
0
0
SPLINE
5
1AC
100
AcDbEntity
8
1
62
256
6
ByLayer
370
18
48
1
60
0
100
AcDbSpline
70
4
71
3
72
32
73
28
40
0
40
0
40
0
40
0
40
0.0625000000000058
40
0.0625000000000058
40
0.125000000000012
40
0.125000000000012
40
0.187500000000017
40
0.187500000000017
40
0.250000000000023
40
0.250000000000023
40
0.312500000000029
40
0.312500000000029
40
0.375000000000035
40
0.375000000000035
40
0.500000000000108
40
0.500000000000108
40
0.562500000000114
40
0.562500000000114
40
0.62500000000012
40
0.62500000000012
40
0.750000000000077
40
0.750000000000077
40
0.812500000000058
40
0.812500000000058
40
0.875000000000038
40
0.875000000000038
40
1
40
1
40
1
40
1
41
1
10
64.7298942126878
20
-2.49372383721124
30
0
41
1
10
64.724647822727
20
-2.48626612720867
30
0
41
1
10
64.7188843060263
20
-2.47868925452318
30
0
41
1
10
64.7065314074389
20
-2.46334705853431
30
0
41
1
10
64.6999396673033
20
-2.455581154095
30
0
41
1
10
64.6860313791773
20
-2.43988343497838
30
0
41
1
10
64.6788489982658
20
-2.43210417637917
30
0
41
1
10
64.6642266834887
20
-2.41678263653517
30
0
41
1
10
64.6567655420712
20
-2.40921757644443
30
0
41
1
10
64.6415841188794
20
-2.39425153211295
30
0
41
1
10
64.6338242830338
20
-2.38681437958829
30
0
41
1
10
64.6182707883435
20
-2.37227670407472
30
0
41
1
10
64.6105010068487
20
-2.36519616882251
30
0
41
1
10
64.5872172977936
20
-2.3444508063408
30
0
41
1
10
64.5717283255543
20
-2.33127626792455
30
0
41
1
10
64.5485747436713
20
-2.31238325013345
30
0
41
1
10
64.5408438640994
20
-2.30621214744264
30
0
41
1
10
64.5256512965774
20
-2.29434327308368
30
0
41
1
10
64.5181673012985
20
-2.28862638719502
30
0
41
1
10
64.4960573861898
20
-2.2721106725287
30
0
41
1
10
64.4817683501053
20
-2.26193618794301
30
0
41
1
10
64.4611160255942
20
-2.24803019482496
30
0
41
1
10
64.4543541658119
20
-2.24361941775146
30
0
41
1
10
64.4413999132182
20
-2.23547326645351
30
0
41
1
10
64.4351721230157
20
-2.23171321017301
30
0
41
1
10
64.4172998614509
20
-2.22144835636925
30
0
41
1
10
64.4064343963
20
-2.21591251764102
30
0
41
1
10
64.3970449989719
20
-2.21226178411024
30
0
0
SPLINE
5
1AD
100
AcDbEntity
8
1
62
256
6
ByLayer
370
18
48
1
60
0
100
AcDbSpline
70
4
71
3
72
12
73
8
40
0
40
0
40
0
40
0
40
0.499999999999989
40
0.499999999999989
40
0.749999999999994
40
0.749999999999994
40
1
40
1
40
1
40
1
41
1
10
65.1549500643257
20
-3.14492354084803
30
0
41
1
10
65.085143741835
20
-3.03078554146714
30
0
41
1
10
65.0148347718647
20
-2.91926127129787
30
0
41
1
10
64.9085671619367
20
-2.75613189814231
30
0
41
1
10
64.8730223011999
20
-2.70247985609967
30
0
41
1
10
64.8016574161343
20
-2.59680753256063
30
0
41
1
10
64.7658474815683
20
-2.54483118053858
30
0
41
1
10
64.7298942126878
20
-2.49372383721121
30
0
0
SPLINE
5
1AE
100
AcDbEntity
8
1
62
256
6
ByLayer
370
18
48
1
60
0
100
AcDbSpline
70
4
71
3
72
8
73
4
40
0
40
0
40
0
40
0
40
1
40
1
40
1
40
1
41
1
10
65.1549500643256
20
-3.144923540848
30
0
41
1
10
65.1981622934503
20
-3.18435877967951
30
0
41
1
10
65.2413383963132
20
-3.22343035970854
30
0
41
1
10
65.2844719642084
20
-3.26214399307017
30
0
0
SPLINE
5
1AF
100
AcDbEntity
8
1
62
256
6
ByLayer
370
18
48
1
60
0
100
AcDbSpline
70
4
71
3
72
12
73
8
40
0
40
0
40
0
40
0
40
0.249999999999995
40
0.249999999999995
40
0.49999999999999
40
0.49999999999999
40
1
40
1
40
1
40
1
41
1
10
65.7197453439238
20
-3.26173410750798
30
0
41
1
10
65.6830279746995
20
-3.26713472675235
30
0
41
1
10
65.6464347791434
20
-3.27117903088163
30
0
41
1
10
65.5734374742839
20
-3.2766801616408
30
0
41
1
10
65.5370395601852
20
-3.27810514200075
30
0
41
1
10
65.4281611182508
20
-3.27828234726107
30
0
41
1
10
65.356073178791
20
-3.27290269435122
30
0
41
1
10
65.2844719642084
20
-3.2621439930702
30
0
0
SPLINE
5
1B0
100
AcDbEntity
8
1
62
256
6
ByLayer
370
18
48
1
60
0
100
AcDbSpline
70
4
71
3
72
32
73
28
40
0
40
0
40
0
40
0
40
0.0625000000000121
40
0.0625000000000121
40
0.125000000000024
40
0.125000000000024
40
0.187500000000036
40
0.187500000000036
40
0.250000000000048
40
0.250000000000048
40
0.31250000000006
40
0.31250000000006
40
0.375000000000072
40
0.375000000000072
40
0.500000000000036
40
0.500000000000036
40
0.562500000000047
40
0.562500000000047
40
0.625000000000059
40
0.625000000000059
40
0.750000000000023
40
0.750000000000023
40
0.812500000000006
40
0.812500000000006
40
0.874999999999989
40
0.874999999999989
40
1
40
1
40
1
40
1
41
1
10
66.0526282039881
20
-3.49512011474303
30
0
41
1
10
66.0473776195569
20
-3.48637356572198
30
0
41
1
10
66.0416111019649
20
-3.4777777023393
30
0
41
1
10
66.0292557603063
20
-3.46082683676676
30
0
41
1
10
66.0226645556434
20
-3.45247251407841
30
0
41
1
10
66.0087616039132
20
-3.43597457120143
30
0
41
1
10
66.0015811787712
20
-3.42798882643041
30
0
41
1
10
65.9869671018833
20
-3.4125813590905
30
0
41
1
10
65.9795113321504
20
-3.40513525333182
30
0
41
1
10
65.9643430487283
20
-3.39069079214767
30
0
41
1
10
65.9565923206205
20
-3.38366052972864
30
0
41
1
10
65.9410481987716
20
-3.37017681505049
30
0
41
1
10
65.9332834908384
20
-3.36374455195539
30
0
41
1
10
65.9100157861564
20
-3.34526906565827
30
0
41
1
10
65.894538512662
20
-3.33403700173341
30
0
41
1
10
65.8714027470659
20
-3.31865336205251
30
0
41
1
10
65.8636753340496
20
-3.31375610814968
30
0
41
1
10
65.8484806252713
20
-3.30459223233177
30
0
41
1
10
65.8409955373674
20
-3.30031192705923
30
0
41
1
10
65.8188821646798
20
-3.2883561767201
30
0
41
1
10
65.8045905422744
20
-3.28155141810538
30
0
41
1
10
65.783934249259
20
-3.27325022145888
30
0
41
1
10
65.777161989552
20
-3.27080130545446
30
0
41
1
10
65.7641823186694
20
-3.26669854291077
30
0
41
1
10
65.7579423369609
20
-3.26502961043863
30
0
41
1
10
65.7400355885223
20
-3.26126332288936
30
0
41
1
10
65.7291497495826
20
-3.26035084897762
30
0
41
1
10
65.7197453439238
20
-3.26173410750775
30
0
0
SPLINE
5
1B1
100
AcDbEntity
8
1
62
256
6
ByLayer
370
18
48
1
60
0
100
AcDbSpline
70
4
71
3
72
12
73
8
40
0
40
0
40
0
40
0
40
0.5
40
0.5
40
0.75
40
0.75
40
1
40
1
40
1
40
1
41
1
10
66.4782165205405
20
-4.23869885250934
30
0
41
1
10
66.4083170701059
20
-4.11143913543924
30
0
41
1
10
66.3379249057582
20
-3.98564512975264
30
0
41
1
10
66.2315287103756
20
-3.79945004172043
30
0
41
1
10
66.1959401946
20
-3.73783175893698
30
0
41
1
10
66.1244855479571
20
-3.6156328280754
30
0
41
1
10
66.0886294238152
20
-3.55509180706707
30
0
41
1
10
66.0526282039881
20
-3.495120114743
30
0
0
SPLINE
5
1B2
100
AcDbEntity
8
1
62
256
6
ByLayer
370
18
48
1
60
0
100
AcDbSpline
70
4
71
3
72
8
73
4
40
0
40
0
40
0
40
0
40
1
40
1
40
1
40
1
41
1
10
66.4782165205405
20
-4.23869885250934
30
0
41
1
10
66.5210134439198
20
-4.26961463311585
30
0
41
1
10
66.5638762315594
20
-4.30010357615092
30
0
41
1
10
66.6068062041066
20
-4.33016281801966
30
0
0
SPLINE
5
1B3
100
AcDbEntity
8
1
62
256
6
ByLayer
370
18
48
1
60
0
100
AcDbSpline
70
4
71
3
72
12
73
8
40
0
40
0
40
0
40
0
40
0.25
40
0.25
40
0.500000000000001
40
0.500000000000001
40
1
40
1
40
1
40
1
41
1
10
67.0423258264706
20
-4.09119456121135
30
0
41
1
10
67.0055620189035
20
-4.11622417694602
30
0
41
1
10
66.9689243779088
20
-4.13998186481254
30
0
41
1
10
66.8958427927387
20
-4.18506926717885
30
0
41
1
10
66.8594072081476
20
-4.2063639099884
30
0
41
1
10
66.7504468646986
20
-4.26630245097599
30
0
41
1
10
66.6783568892698
20
-4.30090232519456
30
0
41
1
10
66.6068062041066
20
-4.33016281801966
30
0
0
SPLINE
5
1B4
100
AcDbEntity
8
1
62
256
6
ByLayer
370
18
48
1
60
0
100
AcDbSpline
70
4
71
3
72
32
73
28
40
0
40
0
40
0
40
0
40
0.0624999999999833
40
0.0624999999999833
40
0.124999999999967
40
0.124999999999967
40
0.18749999999995
40
0.18749999999995
40
0.249999999999933
40
0.249999999999933
40
0.312499999999917
40
0.312499999999917
40
0.3749999999999
40
0.3749999999999
40
0.499999999999923
40
0.499999999999923
40
0.562499999999932
40
0.562499999999932
40
0.624999999999942
40
0.624999999999942
40
0.749999999999961
40
0.749999999999961
40
0.812499999999971
40
0.812499999999971
40
0.874999999999981
40
0.874999999999981
40
1
40
1
40
1
40
1
41
1
10
67.3751191287084
20
-4.25861888642433
30
0
41
1
10
67.3698878320521
20
-4.24923841945869
30
0
41
1
10
67.3641443350958
20
-4.24026372397324
30
0
41
1
10
67.351839443859
20
-4.22296197332915
30
0
41
1
10
67.3452757071983
20
-4.21463677819656
30
0
41
1
10
67.3314302749251
20
-4.19855480937645
30
0
41
1
10
67.3242697375455
20
-4.19094232756174
30
0
41
1
10
67.309699746537
20
-4.17657214844721
30
0
41
1
10
67.3022647846308
20
-4.16978703630673
30
0
41
1
10
67.287134818233
20
-4.15691549274374
30
0
41
1
10
67.279404580913
20
-4.15080452450394
30
0
41
1
10
67.2638751874927
20
-4.13935295249391
30
0
41
1
10
67.2561157015264
20
-4.13403714430112
30
0
41
1
10
67.232857630723
20
-4.11918191166828
30
0
41
1
10
67.2173787208629
20
-4.11072111272185
30
0
41
1
10
67.1942303288185
20
-4.09999656053154
30
0
41
1
10
67.1864948736695
20
-4.09674292146431
30
0
41
1
10
67.1712740819853
20
-4.09098646478731
30
0
41
1
10
67.1637758331242
20
-4.08847474288425
30
0
41
1
10
67.1416233513538
20
-4.0820179004117
30
0
41
1
10
67.1273061519577
20
-4.0791337026736
30
0
41
1
10
67.1066152509428
20
-4.07713725793636
30
0
41
1
10
67.0998276042235
20
-4.0768682843169
30
0
41
1
10
67.0868180537473
20
-4.07719312349448
30
0
41
1
10
67.0805655724227
20
-4.07778084547513
30
0
41
1
10
67.062628457741
20
-4.08092120985737
30
0
41
1
10
67.051731943586
20
-4.08479066802027
30
0
41
1
10
67.0423258264706
20
-4.09119456121121
30
0
0
SPLINE
5
1B5
100
AcDbEntity
8
1
62
256
6
ByLayer
370
18
48
1
60
0
100
AcDbSpline
70
4
71
3
72
12
73
8
40
0
40
0
40
0
40
0
40
0.5
40
0.5
40
0.75
40
0.75
40
1
40
1
40
1
40
1
41
1
10
67.8005129970206
20
-5.04276579845984
30
0
41
1
10
67.7306963459182
20
-4.91117328744727
30
0
41
1
10
67.6603845385924
20
-4.77982741500543
30
0
41
1
10
67.5540488264362
20
-4.58351834135638
30
0
41
1
10
67.5184710914806
20
-4.51822987199552
30
0
41
1
10
67.4470136569739
20
-4.38805953919999
30
0
41
1
10
67.4111436860027
20
-4.32321609661022
30
0
41
1
10
67.3751191287084
20
-4.25861888642433
30
0
0
SPLINE
5
1B6
100
AcDbEntity
8
1
62
256
6
ByLayer
370
18
48
1
60
0
100
AcDbSpline
70
4
71
3
72
8
73
4
40
0
40
0
40
0
40
0
40
1
40
1
40
1
40
1
41
1
10
67.8005129970206
20
-5.04276579845975
30
0
41
1
10
67.8435597518422
20
-5.06375610569245
30
0
41
1
10
67.8866258630935
20
-5.08417815454743
30
0
41
1
10
67.9297202310802
20
-5.10403099004776
30
0
0
SPLINE
5
1B7
100
AcDbEntity
8
1
62
256
6
ByLayer
370
18
48
1
60
0
100
AcDbSpline
70
4
71
3
72
12
73
8
40
0
40
0
40
0
40
0
40
0.249999999999995
40
0.249999999999995
40
0.499999999999991
40
0.499999999999991
40
1
40
1
40
1
40
1
41
1
10
68.3651092655907
20
-4.64627594808283
30
0
41
1
10
68.328331714285
20
-4.68902187688349
30
0
41
1
10
68.2916848133528
20
-4.73064017970745
30
0
41
1
10
68.2186010885267
20
-4.81168785600823
30
0
41
1
10
68.1821710633288
20
-4.85109319895193
30
0
41
1
10
68.0732443106066
20
-4.96576639738268
30
0
41
1
10
68.0012019947549
20
-5.03736213648693
30
0
41
1
10
67.9297202310802
20
-5.10403099004779
30
0
0
SPLINE
5
1B8
100
AcDbEntity
8
1
62
256
6
ByLayer
370
18
48
1
60
0
100
AcDbSpline
70
4
71
3
72
32
73
28
40
0
40
0
40
0
40
0
40
0.0625000000000148
40
0.0625000000000148
40
0.12500000000003
40
0.12500000000003
40
0.187500000000044
40
0.187500000000044
40
0.250000000000059
40
0.250000000000059
40
0.312500000000074
40
0.312500000000074
40
0.375000000000089
40
0.375000000000089
40
0.500000000000118
40
0.500000000000118
40
0.562500000000132
40
0.562500000000132
40
0.625000000000146
40
0.625000000000146
40
0.750000000000118
40
0.750000000000118
40
0.812500000000077
40
0.812500000000077
40
0.875000000000037
40
0.875000000000037
40
1
40
1
40
1
40
1
41
1
10
68.6978570361365
20
-4.73708411116337
30
0
41
1
10
68.6926289069671
20
-4.72769184021101
30
0
41
1
10
68.686887346678
20
-4.71893165795078
30
0
41
1
10
68.6745830973167
20
-4.70242056740528
30
0
41
1
10
68.6680180886376
20
-4.69467254116793
30
0
41
1
10
68.6541667155592
20
-4.68006307640826
30
0
41
1
10
68.6470024153742
20
-4.67333450521875
30
0
41
1
10
68.6324229495563
20
-4.66095754989223
30
0
41
1
10
68.6249824339771
20
-4.65528508789598
30
0
41
1
10
68.6098403323668
20
-4.64484304776741
30
0
41
1
10
68.6021023927238
20
-4.64005500261001
30
0
41
1
10
68.5865643450078
20
-4.63141303275847
30
0
41
1
10
68.5788008022816
20
-4.62757399643885
30
0
41
1
10
68.5555316422004
20
-4.61734279727844
30
0
41
1
10
68.5400468212943
20
-4.61222038895113
30
0
41
1
10
68.5168920294075
20
-4.60686267742787
30
0
41
1
10
68.5091560353149
20
-4.60546695672568
30
0
41
1
10
68.4939418663259
20
-4.60349631396568
30
0
41
1
10
68.4864471172007
20
-4.60291435682984
30
0
41
1
10
68.4643053378194
20
-4.6023584129594
30
0
41
1
10
68.449995576048
20
-4.60355505704919
30
0
41
1
10
68.4293142451312
20
-4.60793458194459
30
0
41
1
10
68.4225348198553
20
-4.60984106067005
30
0
41
1
10
68.4095459033949
20
-4.61451897808317
30
0
41
1
10
68.4033029067866
20
-4.61729420986404
30
0
41
1
10
68.3853912600871
20
-4.62703448436727
30
0
41
1
10
68.3745077319658
20
-4.63535226882067
30
0
41
1
10
68.3651092655907
20
-4.64627594808272
30
0
0
SPLINE
5
1B9
100
AcDbEntity
8
1
62
256
6
ByLayer
370
18
48
1
60
0
100
AcDbSpline
70
4
71
3
72
12
73
8
40
0
40
0
40
0
40
0
40
0.5
40
0.5
40
0.75
40
0.75
40
1
40
1
40
1
40
1
41
1
10
69.0958191667223
20
-5.45628335017892
30
0
41
1
10
69.0304656398603
20
-5.33783886152076
30
0
41
1
10
68.9646312490725
20
-5.21852409197629
30
0
41
1
10
68.8651438749172
20
-5.03857564782635
30
0
41
1
10
68.8318601319189
20
-4.97843588337895
30
0
41
1
10
68.7650439911289
20
-4.85791609969513
30
0
41
1
10
68.7315140639758
20
-4.79754855545542
30
0
41
1
10
68.6978570361365
20
-4.73708411116337
30
0
0
SPLINE
5
1BA
100
AcDbEntity
8
1
62
256
6
ByLayer
370
18
48
1
60
0
100
AcDbSpline
70
4
71
3
72
8
73
4
40
0
40
0
40
0
40
0
40
1
40
1
40
1
40
1
41
1
10
69.0958191667223
20
-5.45628335017895
30
0
41
1
10
69.1833598594023
20
-5.43240132632423
30
0
41
1
10
69.2717561647345
20
-5.40643165421352
30
0
41
1
10
69.3611229894726
20
-5.37853850659488
30
0
0
SPLINE
5
1BB
100
AcDbEntity
8
1
62
256
6
ByLayer
370
18
48
1
60
0
100
AcDbSpline
70
4
71
3
72
10
73
6
40
0
40
0
40
0
40
0
40
0.5
40
0.5
40
1
40
1
40
1
40
1
41
1
10
69.6877160355725
20
-4.88724667629444
30
0
41
1
10
69.6327676326725
20
-4.97312917937376
30
0
41
1
10
69.5780957014177
20
-5.05704380472721
30
0
41
1
10
69.4692060461585
20
-5.22092427478856
30
0
41
1
10
69.4150146514897
20
-5.30083181637275
30
0
41
1
10
69.3611229894726
20
-5.37853850659485
30
0
0
SPLINE
5
1BC
100
AcDbEntity
8
1
62
256
6
ByLayer
370
18
48
1
60
0
100
AcDbSpline
70
4
71
3
72
32
73
28
40
0
40
0
40
0
40
0
40
0.0625000000000053
40
0.0625000000000053
40
0.125000000000011
40
0.125000000000011
40
0.187500000000016
40
0.187500000000016
40
0.250000000000021
40
0.250000000000021
40
0.312500000000027
40
0.312500000000027
40
0.375000000000032
40
0.375000000000032
40
0.499999999999982
40
0.499999999999982
40
0.562499999999957
40
0.562499999999957
40
0.624999999999933
40
0.624999999999933
40
0.74999999999994
40
0.74999999999994
40
0.812499999999943
40
0.812499999999943
40
0.874999999999947
40
0.874999999999947
40
1
40
1
40
1
40
1
41
1
10
70.0205704950456
20
-4.89582885932577
30
0
41
1
10
70.0153317376361
20
-4.887032634181
30
0
41
1
10
70.0095795772856
20
-4.87905939686348
30
0
41
1
10
69.9972561837475
20
-4.8644236143071
30
0
41
1
10
69.9906825989011
20
-4.85776488462611
30
0
41
1
10
69.9768173386966
20
-4.84559701220775
30
0
41
1
10
69.9696480303301
20
-4.84019966030428
30
0
41
1
10
69.9550612030729
20
-4.83063875287496
30
0
41
1
10
69.9476184739385
20
-4.82645604117059
30
0
41
1
10
69.9324750641247
20
-4.81913649989167
30
0
41
1
10
69.9247388472218
20
-4.81598946327668
30
0
41
1
10
69.909202147605
20
-4.81072228090957
30
0
41
1
10
69.9014402338135
20
-4.80860947004942
30
0
41
1
10
69.8781785730777
20
-4.8036617086963
30
0
41
1
10
69.8627022288961
20
-4.80219982128526
30
0
41
1
10
69.8395644594058
20
-4.80252935509088
30
0
41
1
10
69.8318337304307
20
-4.80307024631722
30
0
41
1
10
69.8166221222233
20
-4.80498567382148
30
0
41
1
10
69.8091288830573
20
-4.80635654253658
30
0
41
1
10
69.7869920551969
20
-4.81169043810664
30
0
41
1
10
69.7726861423056
20
-4.81685506724386
30
0
41
1
10
69.7520106627117
20
-4.82726347902224
30
0
41
1
10
69.7452266355215
20
-4.83120177285281
30
0
41
1
10
69.7322200321759
20
-4.83989757523253
30
0
41
1
10
69.7259681343071
20
-4.84466545482726
30
0
41
1
10
69.7080300780819
20
-4.86033196809549
30
0
41
1
10
69.6971291540935
20
-4.87253428907837
30
0
41
1
10
69.6877160355725
20
-4.88724667629444
30
0
0
SPLINE
5
1BD
100
AcDbEntity
8
1
62
256
6
ByLayer
370
18
48
1
60
0
100
AcDbSpline
70
4
71
3
72
8
73
4
40
0
40
0
40
0
40
0
40
1
40
1
40
1
40
1
41
1
10
70.1434166749086
20
-5.10119406551763
30
0
41
1
10
70.1026538976994
20
-5.0333680271448
30
0
41
1
10
70.0617146206969
20
-4.96491260654298
30
0
41
1
10
70.0205704950457
20
-4.89582885932577
30
0
0
SPLINE
5
1BE
100
AcDbEntity
8
1
62
256
6
ByLayer
370
18
48
1
60
0
100
AcDbSpline
70
4
71
3
72
12
73
8
40
0
40
0
40
0
40
0
40
0.499999999999989
40
0.499999999999989
40
0.749999999999995
40
0.749999999999995
40
1
40
1
40
1
40
1
41
1
10
70.1434166749086
20
-5.10119406551763
30
0
41
1
10
70.2909306584525
20
-5.0441993755239
30
0
41
1
10
70.4410621224168
20
-4.98442475415686
30
0
41
1
10
70.66993769723
20
-4.89255299990444
30
0
41
1
10
70.7468243052676
20
-4.86156407887188
30
0
41
1
10
70.901521908063
20
-4.7992123269479
30
0
41
1
10
70.9793416950423
20
-4.76784250055198
30
0
41
1
10
71.0575805147946
20
-4.73640216115106
30
0
0
SPLINE
5
1BF
100
AcDbEntity
8
1
62
256
6
ByLayer
370
18
48
1
60
0
100
AcDbSpline
70
4
71
3
72
18
73
14
40
0
40
0
40
0
40
0
40
0.250000000000146
40
0.250000000000146
40
0.375000000000161
40
0.375000000000161
40
0.500000000000175
40
0.500000000000175
40
0.75000000000009
40
0.75000000000009
40
0.875000000000045
40
0.875000000000045
40
1
40
1
40
1
40
1
41
1
10
71.233566941749
20
-4.66589366618189
30
0
41
1
10
71.2181820289463
20
-4.66490892873952
30
0
41
1
10
71.2028205022422
20
-4.66588477670828
30
0
41
1
10
71.1798357112636
20
-4.66987344318531
30
0
41
1
10
71.1721838384379
20
-4.67162997519316
30
0
41
1
10
71.1569052804396
20
-4.67598900278929
30
0
41
1
10
71.1492667168466
20
-4.67860010911255
30
0
41
1
10
71.1267760153614
20
-4.68757004750444
30
0
41
1
10
71.1122188227872
20
-4.69507875194151
30
0
41
1
10
71.0910977411983
20
-4.70871544724258
30
0
41
1
10
71.0841775194945
20
-4.71366026374085
30
0
41
1
10
71.0706026419167
20
-4.72441655783652
30
0
41
1
10
71.0639478407659
20
-4.73023588832729
30
0
41
1
10
71.0575805147944
20
-4.73640216114987
30
0
0
SPLINE
5
1C0
100
AcDbEntity
8
1
62
256
6
ByLayer
370
18
48
1
60
0
100
AcDbSpline
70
4
71
3
72
10
73
6
40
0
40
0
40
0
40
0
40
0.5
40
0.5
40
1
40
1
40
1
40
1
41
1
10
71.233566941749
20
-4.66589366618189
30
0
41
1
10
71.357723897997
20
-4.61633006130154
30
0
41
1
10
71.4829085360598
20
-4.56680333223073
30
0
41
1
10
71.7351123078368
20
-4.46862330790904
30
0
41
1
10
71.8621815152156
20
-4.4199885527903
30
0
41
1
10
71.9899381253404
20
-4.3720841085109
30
0
0
SPLINE
5
1C1
100
AcDbEntity
8
1
62
256
6
ByLayer
370
18
48
1
60
0
100
AcDbSpline
70
4
71
3
72
14
73
10
40
0
40
0
40
0
40
0
40
0.25
40
0.25
40
0.5
40
0.5
40
0.75
40
0.75
40
1
40
1
40
1
40
1
41
1
10
71.9899381253404
20
-4.3720841085109
30
0
41
1
10
72.0360175762322
20
-4.31023411633052
30
0
41
1
10
72.0829457093563
20
-4.24815010917638
30
0
41
1
10
72.1788090186552
20
-4.12373363769302
30
0
41
1
10
72.2276846353136
20
-4.06148237137558
30
0
41
1
10
72.3275578696732
20
-3.9372442805932
30
0
41
1
10
72.3785011243841
20
-3.8753246474981
30
0
41
1
10
72.4825272581223
20
-3.75239958826845
30
0
41
1
10
72.535635753464
20
-3.69136210034887
30
0
41
1
10
72.59
20
-3.63092929820263
30
0
0
SPLINE
5
1C2
100
AcDbEntity
8
1
62
256
6
ByLayer
370
18
48
1
60
0
100
AcDbSpline
70
4
71
3
72
55
73
51
40
0
40
0
40
0
40
0
40
0.0313515773289525
40
0.0313515773289525
40
0.062703154657905
40
0.062703154657905
40
0.0940547319868575
40
0.0940547319868575
40
0.12540630931581
40
0.12540630931581
40
0.188109463973715
40
0.188109463973715
40
0.203785252638191
40
0.203785252638191
40
0.219461041302667
40
0.219461041302667
40
0.25081261863162
40
0.25081261863162
40
0.313515773289525
40
0.313515773289525
40
0.37621892794743
40
0.37621892794743
40
0.438922082605335
40
0.438922082605335
40
0.470273659934287
40
0.470273659934287
40
0.485949448598763
40
0.485949448598763
40
0.501625237263239
40
0.501625237263239
40
0.564328391921144
40
0.627031546579049
40
0.627031546579049
40
0.689734701236954
40
0.689734701236954
40
0.721086278565906
40
0.721086278565906
40
0.752437855894858
40
0.752437855894858
40
0.815141010552763
40
0.815141010552763
40
0.846492587881715
40
0.846492587881715
40
0.877844165210667
40
0.877844165210667
40
0.90919574253962
40
0.90919574253962
40
0.940547319868572
40
0.940547319868572
40
1
40
1
40
1
40
1
41
1
10
72.59
20
-3.63092929820263
30
0
41
1
10
72.59
20
-3.57911387387827
30
0
41
1
10
72.59
20
-3.5285257379758
30
0
41
1
10
72.59
20
-3.42980144673038
30
0
41
1
10
72.59
20
-3.38238066257
30
0
41
1
10
72.5900000000001
20
-3.29168076048845
30
0
41
1
10
72.59
20
-3.2483961032315
30
0
41
1
10
72.5899999999999
20
-3.16330814798235
30
0
41
1
10
72.59
20
-3.12155919754915
30
0
41
1
10
72.59
20
-2.99937602914392
30
0
41
1
10
72.59
20
-2.92191619145069
30
0
41
1
10
72.59
20
-2.83005503935868
30
0
41
1
10
72.5900000000001
20
-2.8119317275129
30
0
41
1
10
72.59
20
-2.7761850737204
30
0
41
1
10
72.59
20
-2.75854453341435
30
0
41
1
10
72.59
20
-2.70653847117171
30
0
41
1
10
72.59
20
-2.67307849484908
30
0
41
1
10
72.59
20
-2.57626803855987
30
0
41
1
10
72.59
20
-2.51646848544704
30
0
41
1
10
72.59
20
-2.40612294857885
30
0
41
1
10
72.59
20
-2.3555793019064
30
0
41
1
10
72.59
20
-2.26386978739561
30
0
41
1
10
72.59
20
-2.22268974699722
30
0
41
1
10
72.59
20
-2.16800530331707
30
0
41
1
10
72.59
20
-2.15096093431515
30
0
41
1
10
72.59
20
-2.12720605466458
30
0
41
1
10
72.59
20
-2.11958971029159
30
0
41
1
10
72.59
20
-2.105033683062
30
0
41
1
10
72.59
20
-2.09808469893497
30
0
41
1
10
72.5899999999999
20
-2.06497558960115
30
0
41
1
10
72.59
20
-2.02242365624835
30
0
41
1
10
72.59
20
-2.00004669928521
30
0
41
1
10
72.59
20
-1.98781937756712
30
0
41
1
10
72.59
20
-1.98677817701116
30
0
41
1
10
72.59
20
-1.99287154321036
30
0
41
1
10
72.59
20
-1.99618134536541
30
0
41
1
10
72.59
20
-2.00540276691035
30
0
41
1
10
72.59
20
-2.01132929232685
30
0
41
1
10
72.59
20
-2.03294847634501
30
0
41
1
10
72.59
20
-2.05247323149706
30
0
41
1
10
72.59
20
-2.08936089177246
30
0
41
1
10
72.5900000000001
20
-2.10292117352068
30
0
41
1
10
72.5900000000001
20
-2.13244938165741
30
0
41
1
10
72.59
20
-2.14838310030086
30
0
41
1
10
72.59
20
-2.18269501183949
30
0
41
1
10
72.59
20
-2.2011529316722
30
0
41
1
10
72.5900000000001
20
-2.24438022752003
30
0
41
1
10
72.59
20
-2.26855972916786
30
0
41
1
10
72.59
20
-2.34601678992684
30
0
41
1
10
72.5900000000001
20
-2.40583543450453
30
0
41
1
10
72.59
20
-2.4748354277705
30
0
0
SPLINE
5
1C3
100
AcDbEntity
8
1
62
256
6
ByLayer
370
18
48
1
60
0
100
AcDbSpline
70
4
71
3
72
14
73
10
40
0
40
0
40
0
40
0
40
0.500000000000013
40
0.500000000000013
40
0.750000000000006
40
0.750000000000006
40
0.875000000000003
40
0.875000000000003
40
1
40
1
40
1
40
1
41
1
10
72.5899999999999
20
-2.4862351471937
30
0
41
1
10
72.4893636088061
20
-2.46790044211778
30
0
41
1
10
72.3893171091054
20
-2.45091741202558
30
0
41
1
10
72.2395026675492
20
-2.42856003112197
30
0
41
1
10
72.1896052338685
20
-2.42164401917586
30
0
41
1
10
72.1147519983925
20
-2.41228796029029
30
0
41
1
10
72.089799617302
20
-2.40933812876
30
0
41
1
10
72.0398832755468
20
-2.40380388588721
30
0
41
1
10
72.0149004730371
20
-2.40127757952172
30
0
41
1
10
71.9899783375731
20
-2.39873183576515
30
0
0
SPLINE
5
1C4
100
AcDbEntity
8
1
62
256
6
ByLayer
370
18
48
1
60
0
100
AcDbSpline
70
4
71
3
72
10
73
6
40
0
40
0
40
0
40
0
40
0.5
40
0.5
40
1
40
1
40
1
40
1
41
1
10
71.9899783375731
20
-2.39873183576515
30
0
41
1
10
71.8330735723392
20
-2.27111396672257
30
0
41
1
10
71.6752185417628
20
-2.14475376189122
30
0
41
1
10
71.3591512004077
20
-1.89336376528249
30
0
41
1
10
71.2010095509441
20
-1.76826475569919
30
0
41
1
10
71.0436632437048
20
-1.64267031514171
30
0
0
SPLINE
5
1C5
100
AcDbEntity
8
1
62
256
6
ByLayer
370
18
48
1
60
0
100
AcDbSpline
70
4
71
3
72
8
73
4
40
0
40
0
40
0
40
0
40
1
40
1
40
1
40
1
41
1
10
71.0407799005364
20
-1.63739285135387
30
0
41
1
10
71.041741080025
20
-1.63915153920473
30
0
41
1
10
71.0427021955254
20
-1.64091069142648
30
0
41
1
10
71.0436632437045
20
-1.64267031514166
30
0
0
SPLINE
5
1C6
100
AcDbEntity
8
1
62
256
6
ByLayer
370
18
48
1
60
0
100
AcDbSpline
70
4
71
3
72
30
73
26
40
0
40
0
40
0
40
0
40
0.0625000000000559
40
0.0625000000000559
40
0.125000000000112
40
0.125000000000112
40
0.250000000000171
40
0.250000000000171
40
0.312500000000171
40
0.312500000000171
40
0.375000000000171
40
0.375000000000171
40
0.50000000000017
40
0.50000000000017
40
0.62500000000017
40
0.62500000000017
40
0.687500000000141
40
0.687500000000141
40
0.750000000000112
40
0.750000000000112
40
0.875000000000056
40
0.875000000000056
40
0.937500000000028
40
0.937500000000028
40
1
40
1
40
1
40
1
41
1
10
70.7079256814902
20
-1.33086444454224
30
0
41
1
10
70.7132397294883
20
-1.33127435046845
30
0
41
1
10
70.7190983469567
20
-1.33258239222178
30
0
41
1
10
70.7316918313439
20
-1.33663162392264
30
0
41
1
10
70.7384456848276
20
-1.33938506564181
30
0
41
1
10
70.7597662949063
20
-1.34950084334247
30
0
41
1
10
70.7747273477554
20
-1.35834767922677
30
0
41
1
10
70.797930105613
20
-1.37390163884314
30
0
41
1
10
70.8058213954953
20
-1.37950088957737
30
0
41
1
10
70.8214925433045
20
-1.39116350152955
30
0
41
1
10
70.8293141345705
20
-1.39725326008511
30
0
41
1
10
70.852733279891
20
-1.41621991677963
30
0
41
1
10
70.8682860558699
20
-1.42978502891398
30
0
41
1
10
70.8992347784622
20
-1.45864360570741
30
0
41
1
10
70.9142746676876
20
-1.4736079381486
30
0
41
1
10
70.9361441520215
20
-1.4967985713121
30
0
41
1
10
70.9433203569774
20
-1.50465641780545
30
0
41
1
10
70.9574339798475
20
-1.52063941953367
30
0
41
1
10
70.964398942234
20
-1.52879849693744
30
0
41
1
10
70.9846742709539
20
-1.55342793909378
30
0
41
1
10
70.9973539745725
20
-1.57000770739353
30
0
41
1
10
71.0149252073692
20
-1.59515207043668
30
0
41
1
10
71.0205383509208
20
-1.60357982881706
30
0
41
1
10
71.0311963498025
20
-1.62054167285092
30
0
41
1
10
71.0361967386548
20
-1.62900695546571
30
0
41
1
10
71.0407799005363
20
-1.63739285135199
30
0
0
SPLINE
5
1C7
100
AcDbEntity
8
1
62
256
6
ByLayer
370
18
48
1
60
0
100
AcDbSpline
70
4
71
3
72
8
73
4
40
0
40
0
40
0
40
0
40
1
40
1
40
1
40
1
41
1
10
70.6499500500923
20
-1.32522939234681
30
0
41
1
10
70.6692411820204
20
-1.32747829855694
30
0
41
1
10
70.688564052616
20
-1.32937096040197
30
0
41
1
10
70.7079256814911
20
-1.33086444454435
30
0
0
SPLINE
5
1C8
100
AcDbEntity
8
1
62
256
6
ByLayer
370
18
48
1
60
0
100
AcDbSpline
70
4
71
3
72
10
73
6
40
0
40
0
40
0
40
0
40
0.5
40
0.5
40
1
40
1
40
1
40
1
41
1
10
70.6499500500924
20
-1.32522939234687
30
0
41
1
10
70.5275333753132
20
-1.22529595152548
30
0
41
1
10
70.4058419932776
20
-1.12458329387758
30
0
41
1
10
70.1643252261281
20
-0.920848751780426
30
0
41
1
10
70.0445274449513
20
-0.817847143909148
30
0
41
1
10
69.9258682999123
20
-0.7132707002892
30
0
0
SPLINE
5
1C9
100
AcDbEntity
8
1
62
256
6
ByLayer
370
18
48
1
60
0
100
AcDbSpline
70
4
71
3
72
8
73
4
40
0
40
0
40
0
40
0
40
1
40
1
40
1
40
1
41
1
10
69.7180362804346
20
-0.39095918803747
30
0
41
1
10
69.7877396511289
20
-0.494634525588253
30
0
41
1
10
69.8569826410949
20
-0.602096947171134
30
0
41
1
10
69.9258682999123
20
-0.7132707002892
30
0
0
SPLINE
5
1CA
100
AcDbEntity
8
1
62
256
6
ByLayer
370
18
48
1
60
0
100
AcDbSpline
70
4
71
3
72
30
73
26
40
0
40
0
40
0
40
0
40
0.0624999999999785
40
0.0624999999999785
40
0.124999999999957
40
0.124999999999957
40
0.249999999999967
40
0.249999999999967
40
0.312499999999942
40
0.312499999999942
40
0.374999999999918
40
0.374999999999918
40
0.499999999999931
40
0.499999999999931
40
0.624999999999943
40
0.624999999999943
40
0.687499999999977
40
0.687499999999977
40
0.750000000000011
40
0.750000000000011
40
0.875000000000028
40
0.875000000000028
40
0.937500000000014
40
0.937500000000014
40
1
40
1
40
1
40
1
41
1
10
69.3852057388426
20
-0.0700687541934428
30
0
41
1
10
69.3905162987899
20
-0.0728954091295577
30
0
41
1
10
69.3963709929295
20
-0.0764297840167103
30
0
41
1
10
69.4089562709189
20
-0.0846266057355081
30
0
41
1
10
69.4157049797296
20
-0.0893039161262834
30
0
41
1
10
69.4370154320641
20
-0.104764895757086
30
0
41
1
10
69.4519707900844
20
-0.116463085249734
30
0
41
1
10
69.4751697181467
20
-0.135532896541719
30
0
41
1
10
69.4830612769373
20
-0.142176228655245
30
0
41
1
10
69.4987343579789
20
-0.155652665695186
30
0
41
1
10
69.5065570207128
20
-0.162518688611726
30
0
41
1
10
69.5299789501415
20
-0.183467250400213
30
0
41
1
10
69.5455329266517
20
-0.197895620247749
30
0
41
1
10
69.5764814702264
20
-0.22764916195743
30
0
41
1
10
69.5915235562519
20
-0.242637400572676
30
0
41
1
10
69.6133924306841
20
-0.265261130012334
30
0
41
1
10
69.620568293699
20
-0.272828979922537
30
0
41
1
10
69.6346813990821
20
-0.288023790330982
30
0
41
1
10
69.6416461353691
20
-0.29568197484457
30
0
41
1
10
69.6619238730211
20
-0.318496510651244
30
0
41
1
10
69.6746061226851
20
-0.33345906758197
30
0
41
1
10
69.6921794840875
20
-0.355475403843713
30
0
41
1
10
69.6977931917269
20
-0.362742082604257
30
0
41
1
10
69.7084520437442
20
-0.377104606606224
30
0
41
1
10
69.713452918673
20
-0.384141991494175
30
0
41
1
10
69.7180362804346
20
-0.390959188037414
30
0
0
SPLINE
5
1CB
100
AcDbEntity
8
1
62
256
6
ByLayer
370
18
48
1
60
0
100
AcDbSpline
70
4
71
3
72
10
73
6
40
0
40
0
40
0
40
0
40
0.5
40
0.5
40
1
40
1
40
1
40
1
41
1
10
62.4343001258577
20
-0.34403752324522
30
0
41
1
10
62.3766507991913
20
-0.291589067834366
30
0
41
1
10
62.3186818942726
20
-0.241903824112683
30
0
41
1
10
62.2021143005566
20
-0.148426862438271
30
0
41
1
10
62.1434944488529
20
-0.104751337536044
30
0
41
1
10
62.0844894781866
20
-0.064643627562134
30
0
0
SPLINE
5
1CC
100
AcDbEntity
8
1
62
256
6
ByLayer
370
13
48
1
60
0
100
AcDbSpline
70
4
71
3
72
9
73
5
40
0
40
0
40
0
40
0
40
0.643987568745165
40
1
40
1
40
1
40
1
41
1.04
10
62.0844894781866
20
-0.0646436275621417
30
0
41
1.04
10
62.1152306039608
20
-0.808290823412359
30
0
41
1.04
10
62.1618000453954
20
-1.92729910346775
30
0
41
1.04
10
62.2065903619707
20
-2.8430650004203
30
0
41
1.04
10
62.2223289655128
20
-3.13638634945531
30
0
0
SPLINE
5
1CD
100
AcDbEntity
8
1
62
256
6
ByLayer
370
18
48
1
60
0
100
AcDbSpline
70
4
71
3
72
10
73
6
40
0
40
0
40
0
40
0
40
0.5
40
0.5
40
1
40
1
40
1
40
1
41
1
10
62.2223289655128
20
-3.13638634945531
30
0
41
1
10
62.2852514113391
20
-3.26787310046984
30
0
41
1
10
62.3477699163498
20
-3.4001833653619
30
0
41
1
10
62.4722357024694
20
-3.66630131331024
30
0
41
1
10
62.5341171673504
20
-3.79996712696533
30
0
41
1
10
62.5956856417955
20
-3.93403229213024
30
0
0
SPLINE
5
1CE
100
AcDbEntity
8
1
62
256
6
ByLayer
370
18
48
1
60
0
100
AcDbSpline
70
4
71
3
72
8
73
4
40
0
40
0
40
0
40
0
40
1
40
1
40
1
40
1
41
1
10
62.6934937869965
20
-0.620617650949953
30
0
41
1
10
62.607102428412
20
-0.528238492732527
30
0
41
1
10
62.5206941549904
20
-0.436055376001349
30
0
41
1
10
62.4343001258577
20
-0.34403752324522
30
0
0
SPLINE
5
1CF
100
AcDbEntity
8
1
62
256
6
ByLayer
370
18
48
1
60
0
100
AcDbSpline
70
4
71
3
72
27
73
23
40
0
40
0
40
0
40
0
40
0.125000000000001
40
0.125000000000001
40
0.250000000000002
40
0.375000000000003
40
0.375000000000003
40
0.406250000000003
40
0.406250000000003
40
0.437500000000004
40
0.437500000000004
40
0.500000000000003
40
0.500000000000003
40
0.625000000000002
40
0.625000000000002
40
0.750000000000001
40
0.750000000000001
40
0.875000000000001
40
0.875000000000001
40
0.9375
40
0.9375
40
1
40
1
40
1
40
1
41
1
10
62.5956856417955
20
-3.93403229213027
30
0
41
1
10
62.5890027683
20
-3.81541713595465
30
0
41
1
10
62.5823887282062
20
-3.69205267133995
30
0
41
1
10
62.5691276475295
20
-3.43604445726842
30
0
41
1
10
62.5558259810789
20
-3.17075520979088
30
0
41
1
10
62.5423030613724
20
-2.88688737134945
30
0
41
1
10
62.5337992907851
20
-2.7035135274509
30
0
41
1
10
62.532096150872
20
-2.66654033886181
30
0
41
1
10
62.5286863327192
20
-2.59199087761118
30
0
41
1
10
62.5269803568449
20
-2.55442904200922
30
0
41
1
10
62.5218860483852
20
-2.44142560241215
30
0
41
1
10
62.5185156075406
20
-2.36547502639385
30
0
41
1
10
62.5084610961472
20
-2.13581101857937
30
0
41
1
10
62.5018210240781
20
-1.98028893540257
30
0
41
1
10
62.4885006896465
20
-1.66449815487511
30
0
41
1
10
62.4818213085209
20
-1.50422941226756
30
0
41
1
10
62.4683482717753
20
-1.17890525952134
30
0
41
1
10
62.461555250954
20
-1.01385029910577
30
0
41
1
10
62.4512749824648
20
-0.762554972928257
30
0
41
1
10
62.4478582471748
20
-0.678772450193236
30
0
41
1
10
62.441055954439
20
-0.511345138280149
30
0
41
1
10
62.437669251773
20
-0.427671613745417
30
0
41
1
10
62.4343001258577
20
-0.344037523245191
30
0
0
SPLINE
5
1D0
100
AcDbEntity
8
1
62
256
6
ByLayer
370
18
48
1
60
0
100
AcDbSpline
70
4
71
3
72
8
73
4
40
0
40
0
40
0
40
0
40
1
40
1
40
1
40
1
41
1
10
62.5956856417955
20
-3.93403229213027
30
0
41
1
10
62.6738907357716
20
-4.00301252138343
30
0
41
1
10
62.751976665481
20
-4.07075520445264
30
0
41
1
10
62.8299957201269
20
-4.13722062194216
30
0
0
SPLINE
5
1D1
100
AcDbEntity
8
1
62
256
6
ByLayer
370
13
48
1
60
0
100
AcDbSpline
70
4
71
3
72
9
73
5
40
0
40
0
40
0
40
0
40
0.591257664216579
40
1
40
1
40
1
40
1
41
1
10
63.0742856943497
20
-1.01088029467604
30
0
41
1
10
63.103447957885
20
-1.70116040325112
30
0
41
1
10
63.1503629912165
20
-2.75463288417265
30
0
41
1
10
63.1946120298608
20
-3.53717846342818
30
0
41
1
10
63.212283251366
20
-3.80669736027889
30
0
0
SPLINE
5
1D2
100
AcDbEntity
8
1
62
256
6
ByLayer
370
18
48
1
60
0
100
AcDbSpline
70
4
71
3
72
10
73
6
40
0
40
0
40
0
40
0
40
0.5
40
0.5
40
1
40
1
40
1
40
1
41
1
10
63.0742856943497
20
-1.01088029467607
30
0
41
1
10
63.0101653585043
20
-0.953262335823041
30
0
41
1
10
62.9463569778473
20
-0.892022428513854
30
0
41
1
10
62.8193236719008
20
-0.761985445840821
30
0
41
1
10
62.7562210387499
20
-0.693178355756743
30
0
41
1
10
62.6934937869965
20
-0.620617650949953
30
0
0
SPLINE
5
1D3
100
AcDbEntity
8
1
62
256
6
ByLayer
370
18
48
1
60
0
100
AcDbSpline
70
4
71
3
72
26
73
22
40
0
40
0
40
0
40
0
40
0.125
40
0.125
40
0.1875
40
0.1875
40
0.249999999999999
40
0.249999999999999
40
0.374999999999999
40
0.499999999999998
40
0.499999999999998
40
0.624999999999998
40
0.624999999999998
40
0.656249999999998
40
0.656249999999998
40
0.687499999999998
40
0.749999999999998
40
0.749999999999998
40
0.874999999999999
40
0.874999999999999
40
1
40
1
40
1
40
1
41
1
10
62.6934937869965
20
-0.620617650949953
30
0
41
1
10
62.6994318212761
20
-0.787326652081276
30
0
41
1
10
62.7053846213359
20
-0.953460967960723
30
0
41
1
10
62.7142338113003
20
-1.20178414391981
30
0
41
1
10
62.7171758282711
20
-1.28445273718967
30
0
41
1
10
62.7230392239294
20
-1.44932238255515
30
0
41
1
10
62.7259406333074
20
-1.53096057987616
30
0
41
1
10
62.7345676296225
20
-1.77353290870189
30
0
41
1
10
62.7458621013008
20
-2.0907265279719
30
0
41
1
10
62.7569418453703
20
-2.39570667277309
30
0
41
1
10
62.7680274910885
20
-2.69455662497515
30
0
41
1
10
62.7735741085679
20
-2.84091694761102
30
0
41
1
10
62.780576350838
20
-3.01992398746702
30
0
41
1
10
62.7819820041176
20
-3.05557331017621
30
0
41
1
10
62.7847911371197
20
-3.12621546482705
30
0
41
1
10
62.7890006106443
20
-3.23116761116424
30
0
41
1
10
62.7932006819427
20
-3.33312000954302
30
0
41
1
10
62.8016050349928
20
-3.5330896447216
30
0
41
1
10
62.807214930041
20
-3.66116395992336
30
0
41
1
10
62.818526526027
20
-3.90697529873685
30
0
41
1
10
62.8242291206601
20
-4.02471236235471
30
0
41
1
10
62.8299957201269
20
-4.13722062194213
30
0
0
SPLINE
5
1D4
100
AcDbEntity
8
1
62
256
6
ByLayer
370
18
48
1
60
0
100
AcDbSpline
70
4
71
3
72
10
73
6
40
0
40
0
40
0
40
0
40
0.5
40
0.5
40
1
40
1
40
1
40
1
41
1
10
62.8299957201268
20
-4.13722062194219
30
0
41
1
10
62.8929173162046
20
-4.08897522964674
30
0
41
1
10
62.9562522429288
20
-4.03729482374672
30
0
41
1
10
63.0837171303048
20
-3.92709512676277
30
0
41
1
10
63.1477966671869
20
-3.86861755355653
30
0
41
1
10
63.2122832513661
20
-3.80669736027895
30
0
0
SPLINE
5
1D5
100
AcDbEntity
8
1
62
256
6
ByLayer
370
18
48
1
60
0
100
AcDbSpline
70
4
71
3
72
99
73
95
40
0
40
0
40
0
40
0
40
0.0625000000000139
40
0.0625000000000139
40
0.0937500000000208
40
0.0937500000000208
40
0.125000000000028
40
0.125000000000028
40
0.140625000000029
40
0.140625000000029
40
0.156250000000031
40
0.156250000000031
40
0.187500000000034
40
0.187500000000034
40
0.203125000000034
40
0.203125000000034
40
0.218750000000033
40
0.218750000000033
40
0.250000000000036
40
0.250000000000036
40
0.28125000000004
40
0.28125000000004
40
0.312500000000043
40
0.312500000000043
40
0.343750000000046
40
0.343750000000046
40
0.359375000000047
40
0.359375000000047
40
0.375000000000047
40
0.375000000000047
40
0.406250000000046
40
0.406250000000046
40
0.421875000000047
40
0.421875000000047
40
0.437500000000047
40
0.437500000000047
40
0.468750000000051
40
0.468750000000051
40
0.484375000000052
40
0.484375000000052
40
0.492187500000052
40
0.492187500000052
40
0.500000000000052
40
0.500000000000052
40
0.515625000000053
40
0.515625000000053
40
0.531250000000055
40
0.531250000000055
40
0.535156250000055
40
0.535156250000055
40
0.539062500000055
40
0.546875000000055
40
0.546875000000055
40
0.562500000000053
40
0.562500000000053
40
0.570312500000052
40
0.570312500000052
40
0.57812500000005
40
0.57812500000005
40
0.593750000000048
40
0.593750000000048
40
0.597656250000048
40
0.597656250000048
40
0.601562500000047
40
0.601562500000047
40
0.609375000000046
40
0.609375000000046
40
0.625000000000044
40
0.625000000000044
40
0.640625000000043
40
0.640625000000043
40
0.648437500000042
40
0.648437500000042
40
0.656250000000041
40
0.656250000000041
40
0.687500000000036
40
0.687500000000036
40
0.703125000000034
40
0.703125000000034
40
0.718750000000032
40
0.718750000000032
40
0.750000000000028
40
0.750000000000028
40
0.781250000000025
40
0.781250000000025
40
0.812500000000021
40
0.812500000000021
40
0.843750000000018
40
0.843750000000018
40
0.875000000000014
40
0.875000000000014
40
0.937500000000007
40
0.937500000000007
40
1
40
1
40
1
40
1
41
1
10
37.121067008803
20
0.380371010716914
30
0
41
1
10
36.9429520150323
20
0.499249564357115
30
0
41
1
10
36.761537849545
20
0.609952729430574
30
0
41
1
10
36.4829618915333
20
0.761236631206629
30
0
41
1
10
36.3890420698979
20
0.809233986642937
30
0
41
1
10
36.198731391314
20
0.899754565115813
30
0
41
1
10
36.1023495463602
20
0.942298575660914
30
0
41
1
10
35.9562947166199
20
1.00285384876847
30
0
41
1
10
35.9073642153283
20
1.02249818081958
30
0
41
1
10
35.8090868469047
20
1.06086844104269
30
0
41
1
10
35.7597255614041
20
1.07956461077094
30
0
41
1
10
35.6109185088216
20
1.13408605647677
30
0
41
1
10
35.5107549599005
20
1.16835532483253
30
0
41
1
10
35.3589011733046
20
1.21634857280347
30
0
41
1
10
35.3080140586681
20
1.23177564032602
30
0
41
1
10
35.2056675003804
20
1.26142841155334
30
0
41
1
10
35.1542050995706
20
1.27565853857823
30
0
41
1
10
34.9996768102348
20
1.31630923858828
30
0
41
1
10
34.8962278962801
20
1.34075628116048
30
0
41
1
10
34.6883909767247
20
1.38399281171559
30
0
41
1
10
34.5840046606014
20
1.40279241685843
30
0
41
1
10
34.3742072117825
20
1.43432894765885
30
0
41
1
10
34.2687993792596
20
1.44708534573357
30
0
41
1
10
34.0568380240052
20
1.4659033887931
30
0
41
1
10
33.9502868523403
20
1.47197917237517
30
0
41
1
10
33.7894669795082
20
1.47532298827619
30
0
41
1
10
33.7356608118232
20
1.47547495183295
30
0
41
1
10
33.628494879899
20
1.47375917857846
30
0
41
1
10
33.5750409018618
20
1.4718957576371
30
0
41
1
10
33.4150964898921
20
1.4630449252073
30
0
41
1
10
33.3090227076754
20
1.45280699958846
30
0
41
1
10
33.1508742937837
20
1.42986996563349
30
0
41
1
10
33.0983197852509
20
1.42095042074439
30
0
41
1
10
32.9935664951773
20
1.40028658635055
30
0
41
1
10
32.9413292719283
20
1.38851479071008
30
0
41
1
10
32.7854739690105
20
1.34843166447274
30
0
41
1
10
32.6841474031554
20
1.31584907502628
30
0
41
1
10
32.5370448520863
20
1.25561631813764
30
0
41
1
10
32.4888265213208
20
1.23364101696689
30
0
41
1
10
32.417927228408
20
1.19731408603039
30
0
41
1
10
32.3945327973174
20
1.18464280782288
30
0
41
1
10
32.3482649560471
20
1.1580644984889
30
0
41
1
10
32.3254454205354
20
1.14418397602202
30
0
41
1
10
32.2585251594504
20
1.10097770160516
30
0
41
1
10
32.2157687998446
20
1.06996107250504
30
0
41
1
10
32.1344251071758
20
1.00289052357491
30
0
41
1
10
32.0958327634004
20
0.966843027730476
30
0
41
1
10
32.0506552474992
20
0.918032101139374
30
0
41
1
10
32.0417571295979
20
0.908059660486032
30
0
41
1
10
32.0243859861172
20
0.887844592911677
30
0
41
1
10
31.9989628931716
20
0.857121322580838
30
0
41
1
10
31.9754643282765
20
0.825176694989068
30
0
41
1
10
31.9311039935519
20
0.75960156369112
30
0
41
1
10
31.9050426167482
20
0.713639666395636
30
0
41
1
10
31.8715587898741
20
0.641056343955967
30
0
41
1
10
31.8612974164667
20
0.616139818353759
30
0
41
1
10
31.8429988644186
20
0.565887481014329
30
0
41
1
10
31.8349265756911
20
0.540501137564064
30
0
41
1
10
31.8137941647892
20
0.463588623476369
30
0
41
1
10
31.8038137673773
20
0.411309974386029
30
0
41
1
10
31.7960644745747
20
0.344780485751329
30
0
41
1
10
31.7947513013516
20
0.331415449516754
30
0
41
1
10
31.7925895437426
20
0.304568628217595
30
0
41
1
10
31.791740173335
20
0.291059941100713
30
0
41
1
10
31.7898850080626
20
0.250612054292389
30
0
41
1
10
31.7895663313572
20
0.223738880318109
30
0
41
1
10
31.7911235752764
20
0.143370427290876
30
0
41
1
10
31.7955040328214
20
0.0901253072524923
30
0
41
1
10
31.8099179737974
20
-0.0158050796867713
30
0
41
1
10
31.8199543821137
20
-0.0684900405703956
30
0
41
1
10
31.8386653115666
20
-0.147158674927766
30
0
41
1
10
31.8455120873835
20
-0.173301830329393
30
0
41
1
10
31.8601856572951
20
-0.224969889429786
30
0
41
1
10
31.8680279142591
20
-0.250562570536914
30
0
41
1
10
31.9095119861116
20
-0.377432951399868
30
0
41
1
10
31.949859659573
20
-0.4754818348448
30
0
41
1
10
32.0178655053858
20
-0.618838817861302
30
0
41
1
10
32.0418158609314
20
-0.665990148299045
30
0
41
1
10
32.0919366428967
20
-0.759177638762083
30
0
41
1
10
32.1181686637169
20
-0.805308846240592
30
0
41
1
10
32.1990572278314
20
-0.941006742494494
30
0
41
1
10
32.2560273769668
20
-1.02821735017022
30
0
41
1
10
32.374437299518
20
-1.19757049308615
30
0
41
1
10
32.4357354569624
20
-1.27980800042238
30
0
41
1
10
32.561911694287
20
-1.44001489150057
30
0
41
1
10
32.6268146540795
20
-1.5179667703616
30
0
41
1
10
32.7597569865461
20
-1.6700404828255
30
0
41
1
10
32.8277942689149
20
-1.74416347054992
30
0
41
1
10
32.9665326682298
20
-1.88898709292562
30
0
41
1
10
33.0367926778133
20
-1.95922389627836
30
0
41
1
10
33.2494405067251
20
-2.16412237560667
30
0
41
1
10
33.3937156804474
20
-2.29309707048503
30
0
41
1
10
33.6854741888998
20
-2.53809927860934
30
0
41
1
10
33.8329753018959
20
-2.65409670900891
30
0
41
1
10
33.9818665790326
20
-2.76387639948709
30
0
0
SPLINE
5
1D6
100
AcDbEntity
8
1
62
256
6
ByLayer
370
18
48
1
60
0
100
AcDbSpline
70
4
71
3
72
40
73
36
40
0
40
0
40
0
40
0
40
0.0305894975202529
40
0.0305894975202529
40
0.086198073012737
40
0.086198073012737
40
0.141806648505221
40
0.141806648505221
40
0.197415223997705
40
0.197415223997705
40
0.253023799490189
40
0.253023799490189
40
0.308632374982673
40
0.308632374982673
40
0.364240950475157
40
0.364240950475157
40
0.419849525967641
40
0.419849525967641
40
0.475458101460125
40
0.475458101460125
40
0.531066676952609
40
0.531066676952609
40
0.586675252445094
40
0.586675252445094
40
0.642283827937578
40
0.642283827937578
40
0.753500978922548
40
0.753500978922548
40
0.864718129907518
40
0.864718129907518
40
0.920326705400003
40
0.920326705400003
40
0.975935280892488
40
0.975935280892488
40
1
40
1
40
1
40
1
41
1
10
37.1210670088629
20
0.380371010688066
30
0
41
1
10
37.0935436828053
20
0.39361726187326
30
0
41
1
10
37.0648354067562
20
0.405110734512903
30
0
41
1
10
36.9804642841046
20
0.432359215782014
30
0
41
1
10
36.9214770488978
20
0.443910013443741
30
0
41
1
10
36.7964890655503
20
0.453112273127914
30
0
41
1
10
36.7307899344656
20
0.450347725158849
30
0
41
1
10
36.5958286136503
20
0.43663042314148
30
0
41
1
10
36.5263774390749
20
0.425243366150767
30
0
41
1
10
36.3830021617629
20
0.392190090022382
30
0
41
1
10
36.3086219257648
20
0.370310659523341
30
0
41
1
10
36.1584173968068
20
0.31621869137777
30
0
41
1
10
36.0823361759241
20
0.284000834432192
30
0
41
1
10
35.9280902134015
20
0.208557782069079
30
0
41
1
10
35.849927335044
20
0.165342430460384
30
0
41
1
10
35.6912750276099
20
0.0666204500149092
30
0
41
1
10
35.6101772528087
20
0.0105904628377402
30
0
41
1
10
35.4509169174395
20
-0.111129533758714
30
0
41
1
10
35.3722503805345
20
-0.177042498456188
30
0
41
1
10
35.2169010067019
20
-0.319270305357691
30
0
41
1
10
35.1395304962243
20
-0.396359886288195
30
0
41
1
10
34.9909211390382
20
-0.557438552685824
30
0
41
1
10
34.919729368192
20
-0.641229090753285
30
0
41
1
10
34.7834254152565
20
-0.815159853474825
30
0
41
1
10
34.717976126382
20
-0.905815405062469
30
0
41
1
10
34.5332065927158
20
-1.1840193124626
30
0
41
1
10
34.4283791360837
20
-1.37289164312938
30
0
41
1
10
34.2498197407665
20
-1.75536688780045
30
0
41
1
10
34.1795196276565
20
-1.94146787306607
30
0
41
1
10
34.0953143689817
20
-2.21486962567101
30
0
41
1
10
34.0708706485285
20
-2.30502255419941
30
0
41
1
10
34.0284218397438
20
-2.48358585907604
30
0
41
1
10
34.0096939793279
20
-2.57136056506718
30
0
41
1
10
33.9905818618208
20
-2.69244237844274
30
0
41
1
10
33.9857638453218
20
-2.72843622803777
30
0
41
1
10
33.9818670261421
20
-2.76387233361953
30
0
0
SPLINE
5
1D7
100
AcDbEntity
8
SK1
62
256
6
ByLayer
370
18
48
1
60
0
100
AcDbSpline
70
4
71
3
72
23
73
19
40
0
40
0
40
0
40
0
40
0.12505294666793
40
0.12505294666793
40
0.250105893335861
40
0.250105893335861
40
0.375158840003791
40
0.375158840003791
40
0.500211786671721
40
0.625264733339651
40
0.750317680007582
40
0.750317680007582
40
0.781580916674565
40
0.781580916674565
40
0.812844153341547
40
0.875370626675512
40
0.875370626675512
40
1
40
1
40
1
40
1
41
1
10
-26.01
20
3.07499999999996
30
0
41
1
10
-26.0682148550651
20
3.07499999999996
30
0
41
1
10
-26.1250658154559
20
3.07499999999996
30
0
41
1
10
-26.2354151777124
20
3.07499999999996
30
0
41
1
10
-26.2889874199618
20
3.07499999999996
30
0
41
1
10
-26.3911970848274
20
3.07499999999996
30
0
41
1
10
-26.4399162371142
20
3.07499999999996
30
0
41
1
10
-26.5316039801916
20
3.07499999999996
30
0
41
1
10
-26.6175425211512
20
3.07499999999996
30
0
41
1
10
-26.7256494542928
20
3.07499999999996
30
0
41
1
10
-26.7810307085825
20
3.07499999999996
30
0
41
1
10
-26.8094095338454
20
3.07499999999996
30
0
41
1
10
-26.8147676078568
20
3.07499999999996
30
0
41
1
10
-26.8247823113628
20
3.07499999999996
30
0
41
1
10
-26.8387751984791
20
3.07499999999996
30
0
41
1
10
-26.8496299118954
20
3.07499999999996
30
0
41
1
10
-26.867008633338
20
3.07499999999996
30
0
41
1
10
-26.8728863214064
20
3.0749999999999
30
0
41
1
10
-26.8729200000013
20
3.0749999999999
30
0
0
SPLINE
5
1D8
100
AcDbEntity
8
SK1
62
256
6
ByLayer
370
18
48
1
60
0
100
AcDbSpline
70
4
71
3
72
23
73
19
40
0
40
0
40
0
40
0
40
0.124629526135507
40
0.124629526135507
40
0.187155988554399
40
0.218419219763846
40
0.218419219763846
40
0.249682450973292
40
0.249682450973292
40
0.374735375811077
40
0.499788300648861
40
0.624841225486646
40
0.624841225486646
40
0.749894150324431
40
0.749894150324431
40
0.874947075162215
40
0.874947075162215
40
1
40
1
40
1
40
1
41
1
10
-26.8729200001428
20
-3.07499999999996
30
0
41
1
10
-26.872886337872
20
-3.07499999999996
30
0
41
1
10
-26.8670086495478
20
-3.07500000000002
30
0
41
1
10
-26.8496299118953
20
-3.07500000000002
30
0
41
1
10
-26.8387751984791
20
-3.07500000000002
30
0
41
1
10
-26.8247823113628
20
-3.07500000000002
30
0
41
1
10
-26.8147676078568
20
-3.07500000000002
30
0
41
1
10
-26.8094095338454
20
-3.07500000000002
30
0
41
1
10
-26.7810307085825
20
-3.07500000000002
30
0
41
1
10
-26.7256494542928
20
-3.07500000000002
30
0
41
1
10
-26.6175425211512
20
-3.07500000000002
30
0
41
1
10
-26.5316039801915
20
-3.07500000000002
30
0
41
1
10
-26.4399162371141
20
-3.07500000000002
30
0
41
1
10
-26.3911970848273
20
-3.07500000000005
30
0
41
1
10
-26.2889874199618
20
-3.07500000000005
30
0
41
1
10
-26.2354151777124
20
-3.07500000000005
30
0
41
1
10
-26.1250658154559
20
-3.07500000000005
30
0
41
1
10
-26.0682148550651
20
-3.07500000000005
30
0
41
1
10
-26.01
20
-3.07500000000002
30
0
0
SPLINE
5
1D9
100
AcDbEntity
8
SK1
62
256
6
ByLayer
370
18
48
1
60
0
100
AcDbSpline
70
4
71
3
72
42
73
38
40
0
40
0
40
0
40
0
40
0.0624999999999999
40
0.0624999999999999
40
0.125
40
0.125
40
0.15625
40
0.15625
40
0.1875
40
0.1875
40
0.25
40
0.25
40
0.375
40
0.375
40
0.40625
40
0.40625
40
0.421875
40
0.421875
40
0.4375
40
0.4375
40
0.5
40
0.562500000000001
40
0.562500000000001
40
0.593750000000001
40
0.609375000000001
40
0.609375000000001
40
0.625000000000001
40
0.625000000000001
40
0.687500000000001
40
0.750000000000001
40
0.812500000000001
40
0.812500000000001
40
0.875
40
0.875
40
0.9375
40
0.9375
40
1
40
1
40
1
40
1
41
1
10
-26.01
20
-2.4599977492673
30
0
41
1
10
-26.0679540661729
20
-2.3672259260689
30
0
41
1
10
-26.1245450317026
20
-2.27345129836814
30
0
41
1
10
-26.2343840777406
20
-2.08344275269559
30
0
41
1
10
-26.2876341436208
20
-1.98721029532018
30
0
41
1
10
-26.3644011633633
20
-1.84057506078514
30
0
41
1
10
-26.3894964799223
20
-1.79126120749754
30
0
41
1
10
-26.4384000316881
20
-1.69203107927228
30
0
41
1
10
-26.4621733928458
20
-1.64218851729959
30
0
41
1
10
-26.5312669462799
20
-1.49191419248879
30
0
41
1
10
-26.57436654768
20
-1.39073778238168
30
0
41
1
10
-26.6930380704064
20
-1.08364482665203
30
0
41
1
10
-26.7580634619915
20
-0.874191634701049
30
0
41
1
10
-26.8145926139307
20
-0.604074675318714
30
0
41
1
10
-26.8246547507205
20
-0.549634226409694
30
0
41
1
10
-26.8377337841841
20
-0.467298125849084
30
0
41
1
10
-26.8417580561212
20
-0.439728314075779
30
0
41
1
10
-26.8490707799248
20
-0.384688779872448
30
0
41
1
10
-26.8523660635797
20
-0.357178970802778
30
0
41
1
10
-26.8670236957705
20
-0.219680085025487
30
0
41
1
10
-26.8788044513233
20
-3.7501791894E-06
30
0
41
1
10
-26.8670479650675
20
0.219023460526074
30
0
41
1
10
-26.8496299118954
20
0.383056673620814
30
0
41
1
10
-26.8387751984791
20
0.465014105132639
30
0
41
1
10
-26.8247823113628
20
0.54688499021205
30
0
41
1
10
-26.8147676078568
20
0.601446658255014
30
0
41
1
10
-26.8094095338454
20
0.628753424513661
30
0
41
1
10
-26.7810307085825
20
0.764780718187581
30
0
41
1
10
-26.7256494542928
20
0.978521363510083
30
0
41
1
10
-26.6175425211512
20
1.2893367314698
30
0
41
1
10
-26.5316039801916
20
1.49112106204038
30
0
41
1
10
-26.4399162371142
20
1.69065587121742
30
0
41
1
10
-26.3911970848273
20
1.78929824916349
30
0
41
1
10
-26.2889874199618
20
1.98471608911964
30
0
41
1
10
-26.2354151777124
20
2.0816196022796
30
0
41
1
10
-26.1250658154559
20
2.27258932263879
30
0
41
1
10
-26.0682148550651
20
2.36680845991677
30
0
41
1
10
-26.01
20
2.45999774926722
30
0
0
SPLINE
5
1DA
100
AcDbEntity
8
1
62
256
6
ByLayer
370
18
48
1
60
0
100
AcDbSpline
70
4
71
1
72
4
73
2
40
0
40
0
40
1
40
1
41
1
10
72.5899999999999
20
4.2299464220784
30
0
41
1
10
72.1457038369133
20
4.64732867674729
30
0
0
SPLINE
5
1DB
100
AcDbEntity
8
1
62
256
6
ByLayer
370
18
48
1
60
0
100
AcDbSpline
70
4
71
2
72
6
73
3
40
0
40
0
40
0
40
1
40
1
40
1
41
1
10
69.3997145570878
20
-5.42635398666138
30
0
41
1
10
69.55613151279
20
-5.15613775920022
30
0
41
1
10
69.7126054350572
20
-4.8860137931332
30
0
0
SPLINE
5
1DC
100
AcDbEntity
8
1
62
256
6
ByLayer
370
18
48
1
60
0
100
AcDbSpline
70
4
71
1
72
4
73
2
40
0
40
0
40
1
40
1
41
1
10
69.1402948320934
20
-5.55559890985376
30
0
41
1
10
69.4004802982906
20
-5.42571564080396
30
0
0
SPLINE
5
1DD
100
AcDbEntity
8
1
62
256
6
ByLayer
370
18
48
1
60
0
100
AcDbSpline
70
4
71
2
72
6
73
3
40
0
40
0
40
0
40
1
40
1
40
1
41
1
10
65.0760427058374
20
5.21679433200327
30
0
41
1
10
64.9636700531942
20
5.41080472834477
30
0
41
1
10
64.8513893138617
20
5.60486622064005
30
0
0
SPLINE
5
1DE
100
AcDbEntity
8
1
62
256
6
ByLayer
370
18
48
1
60
0
100
AcDbSpline
70
4
71
2
72
6
73
3
40
0
40
0
40
0
40
1
40
1
40
1
41
1
10
59.4617312413985
20
-5.04228885641484
30
0
41
1
10
59.5079144510749
20
-4.96255624623629
30
0
41
1
10
59.5541095085411
20
-4.88282967216563
30
0
0
SPLINE
5
1DF
100
AcDbEntity
8
1
62
256
6
ByLayer
370
18
48
1
60
0
100
AcDbSpline
70
4
71
2
72
6
73
3
40
0
40
0
40
0
40
1
40
1
40
1
41
1
10
69.7183951798822
20
-4.87511277115792
30
0
41
1
10
69.78326970854
20
-4.77067076247477
30
0
41
1
10
69.8874388741441
20
-4.82165779645379
30
0
0
SPLINE
5
1E0
100
AcDbEntity
8
1
62
256
6
ByLayer
370
18
48
1
60
0
100
AcDbSpline
70
4
71
2
72
6
73
3
40
0
40
0
40
0
40
1
40
1
40
1
41
1
10
58.574739702811
20
-4.88287320135328
30
0
41
1
10
58.5856173713978
20
-4.90165127437595
30
0
41
1
10
58.5964941403887
20
-4.9204299113895
30
0
0
SPLINE
5
1E1
100
AcDbEntity
8
1
62
256
6
ByLayer
370
18
48
1
60
0
100
AcDbSpline
70
4
71
2
72
6
73
3
40
0
40
0
40
0
40
1
40
1
40
1
41
1
10
62.0692791137967
20
5.4344370417904
30
0
41
1
10
61.9109052793627
20
5.16080695842177
30
0
41
1
10
61.7524459253898
20
4.887185418477
30
0
0
SPLINE
5
1E2
100
AcDbEntity
8
1
62
256
6
ByLayer
370
18
48
1
60
0
100
AcDbSpline
70
4
71
3
72
11
73
7
40
0
40
0
40
0
40
0
40
0.248677074511815
40
0.500644298503815
40
0.755267106918559
40
1
40
1
40
1
40
1
41
1
10
58.284267372316
20
-4.88286028115388
30
0
41
1
10
58.2909744609049
20
-4.8662722215164
30
0
41
1
10
58.3172086848414
20
-4.83891042310816
30
0
41
1
10
58.3988660471828
20
-4.79486510175227
30
0
41
1
10
58.5121906873417
20
-4.81168300033653
30
0
41
1
10
58.558193654356
20
-4.85682633595871
30
0
41
1
10
58.5777814331926
20
-4.88757639145885
30
0
0
SPLINE
5
1E3
100
AcDbEntity
8
1
62
256
6
ByLayer
370
18
48
1
60
0
100
AcDbSpline
70
4
71
2
72
6
73
3
40
0
40
0
40
0
40
1
40
1
40
1
41
1
10
68.7358376006064
20
-4.88559957909504
30
0
41
1
10
68.9307170094742
20
-5.22225217988947
30
0
41
1
10
69.1255358665604
20
-5.5590676018121
30
0
0
SPLINE
5
1E4
100
AcDbEntity
8
1
62
256
6
ByLayer
370
18
48
1
60
0
100
AcDbSpline
70
4
71
2
72
6
73
3
40
0
40
0
40
0
40
1
40
1
40
1
41
1
10
62.7300392950279
20
4.88104591473709
30
0
41
1
10
62.5585390472274
20
5.17701532590445
30
0
41
1
10
62.3871144654829
20
5.47314947817591
30
0
0
SPLINE
5
1E5
100
AcDbEntity
8
1
62
256
6
ByLayer
370
18
48
1
60
0
100
AcDbSpline
70
4
71
3
72
10
73
6
40
0
40
0
40
0
40
0
40
0.270592905195061
40
0.532676252850216
40
1
40
1
40
1
40
1
41
1
10
68.444029430467
20
-4.88444622522374
30
0
41
1
10
68.46141230265
20
-4.85553348412256
30
0
41
1
10
68.5034326965269
20
-4.81404165149249
30
0
41
1
10
68.651538080358
20
-4.79596808865324
30
0
41
1
10
68.706371240535
20
-4.83399946949717
30
0
41
1
10
68.7329398248603
20
-4.88031432992628
30
0
0
SPLINE
5
1E6
100
AcDbEntity
8
1
62
256
6
ByLayer
370
18
48
1
60
0
100
AcDbSpline
70
4
71
3
72
11
73
7
40
0
40
0
40
0
40
0
40
0.278645602510631
40
0.543557432391996
40
0.784872811981382
40
1
40
1
40
1
40
1
41
1
10
63.0194370338642
20
4.88362344213684
30
0
41
1
10
63.002456187822
20
4.85460180220181
30
0
41
1
10
62.9599721720301
20
4.81493895945852
30
0
41
1
10
62.8485613576702
20
4.79464093662011
30
0
41
1
10
62.7652309861369
20
4.83576806540825
30
0
41
1
10
62.7376191915891
20
4.86555832802406
30
0
41
1
10
62.7290906550925
20
4.88276650677051
30
0
0
SPLINE
5
1E7
100
AcDbEntity
8
1
62
256
6
ByLayer
370
18
48
1
60
0
100
AcDbSpline
70
4
71
2
72
6
73
3
40
0
40
0
40
0
40
1
40
1
40
1
41
1
10
68.0259642209467
20
-5.60667750852514
30
0
41
1
10
68.2354658889534
20
-5.24457240168084
30
0
41
1
10
68.4449060889957
20
-4.88288243426319
30
0
0
SPLINE
5
1E8
100
AcDbEntity
8
1
62
256
6
ByLayer
370
18
48
1
60
0
100
AcDbSpline
70
4
71
2
72
6
73
3
40
0
40
0
40
0
40
1
40
1
40
1
41
1
10
67.4632931398081
20
-4.88030226222
30
0
41
1
10
67.6730136256744
20
-5.24248442908274
30
0
41
1
10
67.8823422872119
20
-5.60425862921014
30
0
0
SPLINE
5
1E9
100
AcDbEntity
8
1
62
256
6
ByLayer
370
18
48
1
60
0
100
AcDbSpline
70
4
71
2
72
6
73
3
40
0
40
0
40
0
40
1
40
1
40
1
41
1
10
63.4354495465629
20
5.60208768805214
30
0
41
1
10
63.2270394634481
20
5.24179707453121
30
0
41
1
10
63.0184686459227
20
4.88166188117577
30
0
0
SPLINE
5
1EA
100
AcDbEntity
8
1
62
256
6
ByLayer
370
18
48
1
60
0
100
AcDbSpline
70
4
71
2
72
6
73
3
40
0
40
0
40
0
40
1
40
1
40
1
41
1
10
63.998963418722
20
4.88464787732411
30
0
41
1
10
63.7897999848746
20
5.24571134274026
30
0
41
1
10
63.5808026871328
20
5.60686816735748
30
0
0
SPLINE
5
1EB
100
AcDbEntity
8
1
62
256
6
ByLayer
370
18
48
1
60
0
100
AcDbSpline
70
4
71
3
72
11
73
7
40
0
40
0
40
0
40
0
40
0.243339362047434
40
0.500210502860061
40
0.756952557676545
40
1
40
1
40
1
40
1
41
1
10
67.1667535998085
20
-4.89250625047694
30
0
41
1
10
67.1804773811695
20
-4.86657216337167
30
0
41
1
10
67.2177672604866
20
-4.82600399091498
30
0
41
1
10
67.3169042908127
20
-4.79178301160826
30
0
41
1
10
67.4160793895206
20
-4.8231772393066
30
0
41
1
10
67.4533773397607
20
-4.86175237005134
30
0
41
1
10
67.4671120977006
20
-4.88668240286495
30
0
0
SPLINE
5
1EC
100
AcDbEntity
8
1
62
256
6
ByLayer
370
18
48
1
60
0
100
AcDbSpline
70
4
71
3
72
11
73
7
40
0
40
0
40
0
40
0
40
0.241356479672222
40
0.498775626855495
40
0.756810259268695
40
1
40
1
40
1
40
1
41
1
10
64.2993437875232
20
4.89517442823225
30
0
41
1
10
64.2852914403691
20
4.8687605062577
30
0
41
1
10
64.2474681139183
20
4.8270858275221
30
0
41
1
10
64.1481481600691
20
4.79261296964469
30
0
41
1
10
64.0489350888047
20
4.82352708179025
30
0
41
1
10
64.0112351664573
20
4.86230379805343
30
0
41
1
10
63.9972892040631
20
4.88733506523224
30
0
0
SPLINE
5
1ED
100
AcDbEntity
8
1
62
256
6
ByLayer
370
18
48
1
60
0
100
AcDbSpline
70
4
71
2
72
6
73
3
40
0
40
0
40
0
40
1
40
1
40
1
41
1
10
66.8686650235777
20
-5.41047543895291
30
0
41
1
10
67.0213916584999
20
-5.14665953228504
30
0
41
1
10
67.1742429414086
20
-4.88291580622908
30
0
0
SPLINE
5
1EE
100
AcDbEntity
8
1
62
256
6
ByLayer
370
18
48
1
60
0
100
AcDbSpline
70
4
71
2
72
6
73
3
40
0
40
0
40
0
40
1
40
1
40
1
41
1
10
66.186263680575
20
-4.86276197374082
30
0
41
1
10
66.3947882748836
20
-5.22161672541219
30
0
41
1
10
66.6032779167249
20
-5.58085296820587
30
0
0
SPLINE
5
1EF
100
AcDbEntity
8
1
62
256
6
ByLayer
370
18
48
1
60
0
100
AcDbSpline
70
4
71
1
72
4
73
2
40
0
40
0
40
1
40
1
41
1
10
64.3365109927118
20
4.9645385213216
30
0
41
1
10
64.2900902501774
20
4.88434777682934
30
0
0
LINE
5
82
100
AcDbEntity
8
80
62
256
6
ByLayer
370
18
48
1
60
0
100
AcDbLine
10
0
20
0
30
0
11
-5
21
0
31
0
39
0
210
0
220
0
230
1
0
LINE
5
83
100
AcDbEntity
8
4
62
256
6
ByLayer
370
18
48
0.05
60
0
100
AcDbLine
10
-5
20
0
30
0
11
77.59
21
0
31
0
39
0
210
0
220
0
230
1
0
LINE
5
85
100
AcDbEntity
8
81
62
256
6
ByLayer
370
18
48
1
60
0
100
AcDbLine
10
72.59
20
0
30
0
11
77.59
21
0
31
0
39
0
210
0
220
0
230
1
0
LINE
5
86
100
AcDbEntity
8
SK4
62
256
6
ByLayer
370
18
48
0.05
60
0
100
AcDbLine
10
-32.41
20
0
30
0
11
77.59
21
0
31
0
39
0
210
0
220
0
230
1
0
LINE
5
88
100
AcDbEntity
8
1
62
256
6
ByLayer
370
18
48
1
60
0
100
AcDbLine
10
0
20
4.102
30
0
11
0
21
-4.102
31
0
39
0
210
0
220
0
230
1
0
LINE
5
89
100
AcDbEntity
8
1
62
256
6
ByLayer
370
18
48
1
60
0
100
AcDbLine
10
61.442828
20
4.895554
30
0
11
61.448645
21
4.895002
31
0
39
0
210
0
220
0
230
1
0
LINE
5
8A
100
AcDbEntity
8
1
62
256
6
ByLayer
370
18
48
1
60
0
100
AcDbLine
10
61.748203
20
4.880008
30
0
11
61.752436
21
4.887171
31
0
39
0
210
0
220
0
230
1
0
LINE
5
8B
100
AcDbEntity
8
1
62
256
6
ByLayer
370
18
48
1
60
0
100
AcDbLine
10
58.574776
20
-4.882935
30
0
11
58.578304
21
-4.888274
31
0
39
0
210
0
220
0
230
1
0
LINE
5
8C
100
AcDbEntity
8
1
62
256
6
ByLayer
370
18
48
1
60
0
100
AcDbLine
10
68.733003
20
-4.880441
30
0
11
68.735816
21
-4.885564
31
0
39
0
210
0
220
0
230
1
0
LINE
5
8D
100
AcDbEntity
8
1
62
256
6
ByLayer
370
18
48
1
60
0
100
AcDbLine
10
57.59
20
-4.80374
30
0
11
57.59
21
-4.520122
31
0
39
0
210
0
220
0
230
1
0
LINE
5
8E
100
AcDbEntity
8
1
62
256
6
ByLayer
370
18
48
1
60
0
100
AcDbLine
10
62.728335
20
4.884062
30
0
11
62.73006
21
4.881007
31
0
39
0
210
0
220
0
230
1
0
LINE
5
8F
100
AcDbEntity
8
1
62
256
6
ByLayer
370
13
48
1
60
0
100
AcDbLine
10
57.444658
20
-4.552
30
0
11
57.444658
21
-4.250479
31
0
39
0
210
0
220
0
230
1
0
LINE
5
90
100
AcDbEntity
8
1
62
256
6
ByLayer
370
18
48
1
60
0
100
AcDbLine
10
68.443258
20
-4.885746
30
0
11
68.444824
21
-4.883032
31
0
39
0
210
0
220
0
230
1
0
LINE
5
91
100
AcDbEntity
8
1
62
256
6
ByLayer
370
18
48
1
60
0
100
AcDbLine
10
63.017299
20
4.879667
30
0
11
63.01956
21
4.883835
31
0
39
0
210
0
220
0
230
1
0
LINE
5
92
100
AcDbEntity
8
1
62
256
6
ByLayer
370
18
48
1
60
0
100
AcDbLine
10
67.46331
20
-4.880334
30
0
11
67.467866
21
-4.887738
31
0
39
0
210
0
220
0
230
1
0
LINE
5
93
100
AcDbEntity
8
1
62
256
6
ByLayer
370
18
48
1
60
0
100
AcDbLine
10
63.996875
20
4.887947
30
0
11
63.998891
21
4.884771
31
0
39
0
210
0
220
0
230
1
0
LINE
5
94
100
AcDbEntity
8
1
62
256
6
ByLayer
370
13
48
1
60
0
100
AcDbLine
10
56.405428
20
-3.952
30
0
11
56.405428
21
-3.31523
31
0
39
0
210
0
220
0
230
1
0
LINE
5
95
100
AcDbEntity
8
1
62
256
6
ByLayer
370
13
48
1
60
0
100
AcDbLine
10
25.170948
20
-3.952
30
0
11
25.170948
21
3.952
31
0
39
0
210
0
220
0
230
1
0
LINE
5
96
100
AcDbEntity
8
1
62
256
6
ByLayer
370
18
48
1
60
0
100
AcDbLine
10
24.59
20
4.102
30
0
11
24.59
21
-4.102
31
0
39
0
210
0
220
0
230
1
0
LINE
5
97
100
AcDbEntity
8
1
62
256
6
ByLayer
370
13
48
1
60
0
100
AcDbLine
10
56.405428
20
1.802014
30
0
11
56.405428
21
3.520587
31
0
39
0
210
0
220
0
230
1
0
LINE
5
98
100
AcDbEntity
8
1
62
256
6
ByLayer
370
13
48
1
60
0
100
AcDbLine
10
57.444658
20
3.536125
30
0
11
57.444658
21
1.186549
31
0
39
0
210
0
220
0
230
1
0
LINE
5
99
100
AcDbEntity
8
1
62
256
6
ByLayer
370
18
48
1
60
0
100
AcDbLine
10
57.59
20
3.668362
30
0
11
57.59
21
1.062686
31
0
39
0
210
0
220
0
230
1
0
LINE
5
9A
100
AcDbEntity
8
SK1
62
256
6
ByLayer
370
18
48
1
60
0
100
AcDbLine
10
-27.41
20
2.53792
30
0
11
-27.41
21
-2.53792
31
0
39
0
210
0
220
0
230
1
0
LINE
5
9C
100
AcDbEntity
8
SK1
62
256
6
ByLayer
370
18
48
1
60
0
100
AcDbLine
10
-17
20
2.459998
30
0
11
-17
21
-2.459998
31
0
39
0
210
0
220
0
230
1
0
LINE
5
9D
100
AcDbEntity
8
SK1
62
256
6
ByLayer
370
18
48
1
60
0
100
AcDbLine
10
-17
20
3.075
30
0
11
-16.13708
21
3.93792
31
0
39
0
210
0
220
0
230
1
0
LINE
5
9E
100
AcDbEntity
8
SK1
62
256
6
ByLayer
370
18
48
1
60
0
100
AcDbLine
10
-26.01
20
3.075
30
0
11
-17
21
3.075
31
0
39
0
210
0
220
0
230
1
0
LINE
5
9F
100
AcDbEntity
8
SK1
62
256
6
ByLayer
370
18
48
1
60
0
100
AcDbLine
10
-26.01
20
2.459998
30
0
11
-26.01
21
3.075
31
0
39
0
210
0
220
0
230
1
0
LINE
5
A0
100
AcDbEntity
8
SK1
62
256
6
ByLayer
370
18
48
1
60
0
100
AcDbLine
10
-17
20
2.459998
30
0
11
-26.01
21
2.459998
31
0
39
0
210
0
220
0
230
1
0
LINE
5
A1
100
AcDbEntity
8
SK1
62
256
6
ByLayer
370
18
48
1
60
0
100
AcDbLine
10
-26.01
20
-2.459998
30
0
11
-17
21
-2.459998
31
0
39
0
210
0
220
0
230
1
0
LINE
5
A2
100
AcDbEntity
8
SK1
62
256
6
ByLayer
370
18
48
1
60
0
100
AcDbLine
10
-26.01
20
-3.075
30
0
11
-26.01
21
-2.459998
31
0
39
0
210
0
220
0
230
1
0
LINE
5
A3
100
AcDbEntity
8
SK1
62
256
6
ByLayer
370
18
48
1
60
0
100
AcDbLine
10
-17
20
-3.075
30
0
11
-26.01
21
-3.075
31
0
39
0
210
0
220
0
230
1
0
LINE
5
A4
100
AcDbEntity
8
SK1
62
256
6
ByLayer
370
18
48
1
60
0
100
AcDbLine
10
-17
20
-3.075
30
0
11
-16.13708
21
-3.93792
31
0
39
0
210
0
220
0
230
1
0
LINE
5
A5
100
AcDbEntity
8
SK1
62
256
6
ByLayer
370
18
48
1
60
0
100
AcDbLine
10
-14.918
20
3.93792
30
0
11
-14.918
21
-3.93792
31
0
39
0
210
0
220
0
230
1
0
LINE
5
A6
100
AcDbEntity
8
SK1
62
256
6
ByLayer
370
18
48
1
60
0
100
AcDbLine
10
0
20
4.102
30
0
11
0
21
-4.102
31
0
39
0
210
0
220
0
230
1
0
LINE
5
A7
100
AcDbEntity
8
SK1
62
256
6
ByLayer
370
18
48
1
60
0
100
AcDbLine
10
-14.75392
20
-4.102
30
0
11
-14.75392
21
4.102
31
0
39
0
210
0
220
0
230
1
0
LINE
5
A8
100
AcDbEntity
8
1
62
256
6
ByLayer
370
18
48
1
60
0
100
AcDbLine
10
58.619278
20
-4.948395
30
0
11
59.389347
21
-5.056621
31
0
39
0
210
0
220
0
230
1
0
LINE
5
A9
100
AcDbEntity
8
1
62
256
6
ByLayer
370
18
48
1
60
0
100
AcDbLine
10
24.59
20
4.102
30
0
11
0
21
4.102
31
0
39
0
210
0
220
0
230
1
0
LINE
5
AA
100
AcDbEntity
8
1
62
256
6
ByLayer
370
18
48
1
60
0
100
AcDbLine
10
0
20
-4.102
30
0
11
24.59
21
-4.102
31
0
39
0
210
0
220
0
230
1
0
LINE
5
AB
100
AcDbEntity
8
1
62
256
6
ByLayer
370
18
48
1
60
0
100
AcDbLine
10
62.377403
20
5.476565
30
0
11
62.073525
21
5.433858
31
0
39
0
210
0
220
0
230
1
0
LINE
5
AC
100
AcDbEntity
8
1
62
256
6
ByLayer
370
18
48
1
60
0
100
AcDbLine
10
57.59
20
-4.80374
30
0
11
58.26584
21
-4.898723
31
0
39
0
210
0
220
0
230
1
0
LINE
5
AD
100
AcDbEntity
8
1
62
256
6
ByLayer
370
18
48
1
60
0
100
AcDbLine
10
57.444658
20
-4.552
30
0
11
57.59
21
-4.80374
31
0
39
0
210
0
220
0
230
1
0
LINE
5
AE
100
AcDbEntity
8
1
62
256
6
ByLayer
370
18
48
1
60
0
100
AcDbLine
10
67.892369
20
-5.610597
30
0
11
68.017283
21
-5.610597
31
0
39
0
210
0
220
0
230
1
0
LINE
5
AF
100
AcDbEntity
8
1
62
256
6
ByLayer
370
18
48
1
60
0
100
AcDbLine
10
63.572235
20
5.610597
30
0
11
63.447032
21
5.610597
31
0
39
0
210
0
220
0
230
1
0
LINE
5
B0
100
AcDbEntity
8
1
62
256
6
ByLayer
370
18
48
1
60
0
100
AcDbLine
10
66.622902
20
-5.610597
30
0
11
66.746564
21
-5.610597
31
0
39
0
210
0
220
0
230
1
0
LINE
5
B1
100
AcDbEntity
8
1
62
256
6
ByLayer
370
18
48
1
60
0
100
AcDbLine
10
64.791511
20
5.610597
30
0
11
64.716602
21
5.610597
31
0
39
0
210
0
220
0
230
1
0
LINE
5
B2
100
AcDbEntity
8
1
62
256
6
ByLayer
370
18
48
1
60
0
100
AcDbLine
10
25.170948
20
-3.952
30
0
11
38.031539
21
-3.952
31
0
39
0
210
0
220
0
230
1
0
LINE
5
B3
100
AcDbEntity
8
1
62
256
6
ByLayer
370
18
48
1
60
0
100
AcDbLine
10
45.55631
20
-3.952
30
0
11
48.683755
21
-3.952
31
0
39
0
210
0
220
0
230
1
0
LINE
5
B4
100
AcDbEntity
8
1
62
256
6
ByLayer
370
18
48
1
60
0
100
AcDbLine
10
56.151423
20
-3.952
30
0
11
56.405428
21
-3.952
31
0
39
0
210
0
220
0
230
1
0
LINE
5
B5
100
AcDbEntity
8
1
62
256
6
ByLayer
370
18
48
1
60
0
100
AcDbLine
10
54.010563
20
3.952
30
0
11
50.854527
21
3.952
31
0
39
0
210
0
220
0
230
1
0
LINE
5
B6
100
AcDbEntity
8
1
62
256
6
ByLayer
370
18
48
1
60
0
100
AcDbLine
10
43.356278
20
3.952
30
0
11
40.258218
21
3.952
31
0
39
0
210
0
220
0
230
1
0
LINE
5
B7
100
AcDbEntity
8
1
62
256
6
ByLayer
370
18
48
1
60
0
100
AcDbLine
10
33.059826
20
3.952
30
0
11
25.170948
21
3.952
31
0
39
0
210
0
220
0
230
1
0
LINE
5
B8
100
AcDbEntity
8
SK1
62
256
6
ByLayer
370
18
48
1
60
0
100
AcDbLine
10
-27.41
20
-2.53792
30
0
11
-26.87292
21
-3.075
31
0
39
0
210
0
220
0
230
1
0
LINE
5
B9
100
AcDbEntity
8
SK1
62
256
6
ByLayer
370
18
48
1
60
0
100
AcDbLine
10
-26.87292
20
3.075
30
0
11
-27.41
21
2.53792
31
0
39
0
210
0
220
0
230
1
0
LINE
5
BA
100
AcDbEntity
8
SK1
62
256
6
ByLayer
370
18
48
1
60
0
100
AcDbLine
10
-14.918
20
3.93792
30
0
11
-16.13708
21
3.93792
31
0
39
0
210
0
220
0
230
1
0
LINE
5
BB
100
AcDbEntity
8
SK1
62
256
6
ByLayer
370
18
48
1
60
0
100
AcDbLine
10
-16.13708
20
-3.93792
30
0
11
-14.918
21
-3.93792
31
0
39
0
210
0
220
0
230
1
0
LINE
5
BC
100
AcDbEntity
8
SK1
62
256
6
ByLayer
370
18
48
1
60
0
100
AcDbLine
10
-14.918
20
-3.93792
30
0
11
-14.75392
21
-4.102
31
0
39
0
210
0
220
0
230
1
0
LINE
5
BD
100
AcDbEntity
8
SK1
62
256
6
ByLayer
370
18
48
1
60
0
100
AcDbLine
10
-14.75392
20
4.102
30
0
11
-14.918
21
3.93792
31
0
39
0
210
0
220
0
230
1
0
LINE
5
BE
100
AcDbEntity
8
SK1
62
256
6
ByLayer
370
18
48
1
60
0
100
AcDbLine
10
0
20
4.102
30
0
11
-14.75392
21
4.102
31
0
39
0
210
0
220
0
230
1
0
LINE
5
BF
100
AcDbEntity
8
SK1
62
256
6
ByLayer
370
18
48
1
60
0
100
AcDbLine
10
-14.75392
20
-4.102
30
0
11
0
21
-4.102
31
0
39
0
210
0
220
0
230
1
0
LINE
5
C0
100
AcDbEntity
8
SK2
62
256
6
ByLayer
370
13
48
1
60
0
100
AcDbLine
10
22.34
20
-4.102
30
0
11
22.34
21
60.925194
31
0
39
0
210
0
220
0
230
1
0
LINE
5
C2
100
AcDbEntity
8
SK2
62
256
6
ByLayer
370
13
48
1
60
0
100
AcDbLine
10
22.1775
20
4.102
30
0
11
24.34
21
4.102
31
0
39
0
210
0
220
0
230
1
0
LINE
5
C3
100
AcDbEntity
8
SK2
62
256
6
ByLayer
370
13
48
1
60
0
100
AcDbLine
10
22.1775
20
-4.102
30
0
11
24.34
21
-4.102
31
0
39
0
210
0
220
0
230
1
0
LINE
5
C4
100
AcDbEntity
8
1
62
256
6
ByLayer
370
18
48
1
60
1
100
AcDbLine
10
22.34
20
4.102
30
0
11
22.800784
21
0.602002
31
0
39
0
210
0
220
0
230
1
0
LINE
5
C5
100
AcDbEntity
8
1
62
256
6
ByLayer
370
18
48
1
60
1
100
AcDbLine
10
22.800784
20
0.602002
30
0
11
21.879216
21
0.601998
31
0
39
0
210
0
220
0
230
1
0
LINE
5
C6
100
AcDbEntity
8
1
62
256
6
ByLayer
370
18
48
1
60
1
100
AcDbLine
10
21.879216
20
0.601998
30
0
11
22.34
21
4.102
31
0
39
0
210
0
220
0
230
1
0
LINE
5
C7
100
AcDbEntity
8
1
62
256
6
ByLayer
370
18
48
1
60
1
100
AcDbLine
10
22.34
20
-4.102
30
0
11
21.879216
21
-0.602002
31
0
39
0
210
0
220
0
230
1
0
LINE
5
C8
100
AcDbEntity
8
1
62
256
6
ByLayer
370
18
48
1
60
1
100
AcDbLine
10
21.879216
20
-0.602002
30
0
11
22.800784
21
-0.601998
31
0
39
0
210
0
220
0
230
1
0
LINE
5
C9
100
AcDbEntity
8
1
62
256
6
ByLayer
370
18
48
1
60
1
100
AcDbLine
10
22.800784
20
-0.601998
30
0
11
22.34
21
-4.102
31
0
39
0
210
0
220
0
230
1
0
LINE
5
1F5
100
AcDbEntity
8
1
62
256
6
ByLayer
370
18
48
1
60
1
100
AcDbLine
10
22.34
20
4.102
30
0
11
22.800784
21
0.602002
31
0
39
0
210
0
220
0
230
1
0
LINE
5
1F6
100
AcDbEntity
8
1
62
256
6
ByLayer
370
18
48
1
60
1
100
AcDbLine
10
22.800784
20
0.602002
30
0
11
21.879216
21
0.601998
31
0
39
0
210
0
220
0
230
1
0
LINE
5
1F7
100
AcDbEntity
8
1
62
256
6
ByLayer
370
18
48
1
60
1
100
AcDbLine
10
21.879216
20
0.601998
30
0
11
22.34
21
4.102
31
0
39
0
210
0
220
0
230
1
0
LINE
5
1F9
100
AcDbEntity
8
1
62
256
6
ByLayer
370
18
48
1
60
1
100
AcDbLine
10
22.34
20
-4.102
30
0
11
21.879216
21
-0.602002
31
0
39
0
210
0
220
0
230
1
0
LINE
5
1FA
100
AcDbEntity
8
1
62
256
6
ByLayer
370
18
48
1
60
1
100
AcDbLine
10
21.879216
20
-0.602002
30
0
11
22.800784
21
-0.601998
31
0
39
0
210
0
220
0
230
1
0
LINE
5
1FB
100
AcDbEntity
8
1
62
256
6
ByLayer
370
18
48
1
60
1
100
AcDbLine
10
22.800784
20
-0.601998
30
0
11
22.34
21
-4.102
31
0
39
0
210
0
220
0
230
1
0
MTEXT
5
1F0
100
AcDbEntity
8
SK2
62
256
6
ByLayer
370
18
48
1
60
0
100
AcDbMText
10
20.775366
20
12.832844
30
0
210
0
220
0
230
1
1
%%c
40
3.5
41
0
44
1.084337
50
90
71
7
72
5
7
iso_b_vert
0
MTEXT
5
1F3
100
AcDbEntity
8
SK2
62
256
6
ByLayer
370
18
48
1
60
0
100
AcDbMText
10
20.775366
20
34.503898
30
0
210
0
220
0
230
1
1
\W0.8220;ASME-B94.9
40
3.5
41
0
44
1.084337
50
90
71
7
72
5
7
iso_b_vert
0
MTEXT
5
1F4
100
AcDbEntity
8
SK2
62
256
6
ByLayer
370
18
48
1
60
0
100
AcDbMText
10
20.775366
20
19.8055
30
0
210
0
220
0
230
1
1
\W0.7607;8.204
40
3.5
41
0
44
1.084337
50
90
71
7
72
5
7
iso_b_vert
0
MTEXT
5
1FD
100
AcDbEntity
8
SK6
62
256
6
ByLayer
370
18
48
1
60
0
100
AcDbMText
10
31.23939
20
-68.614886
30
0
210
0
220
0
230
1
1
\W0.7538;T300-PM101AF-7/16 P1PM
40
3
41
0
44
1.084337
50
0
71
7
72
5
7
iso_b_vert
0
HATCH
5
1F8
100
AcDbEntity
8
SK2
62
256
6
ByLayer
370
13
48
1
60
0
100
AcDbHatch
10
0
20
0
30
0
210
0
220
0
230
1
2
ANSI31
70
0
71
0
91
1
92
5
93
3
72
1
10
22.34
20
4.102
11
22.8007837415528
21
0.602001692553188
72
1
10
22.8007837415528
20
0.602001692553188
11
21.8792162584473
21
0.60199830744682
72
1
10
21.8792162584473
20
0.60199830744682
11
22.34
21
4.102
97
0
75
0
76
1
52
0
41
0.0062
77
0
78
1
53
45
43
0
44
0
45
-0.0139193969876572
46
0.0139193969876572
79
0
47
0
98
1
10
0
20
0
0
HATCH
5
1FC
100
AcDbEntity
8
SK2
62
256
6
ByLayer
370
13
48
1
60
0
100
AcDbHatch
10
0
20
0
30
0
210
0
220
0
230
1
2
ANSI31
70
0
71
0
91
1
92
5
93
3
72
1
10
22.34
20
-4.10199999999998
11
21.8792162584473
21
-0.602001692553159
72
1
10
21.8792162584473
20
-0.602001692553159
11
22.8007837415528
21
-0.601998307446792
72
1
10
22.8007837415528
20
-0.601998307446792
11
22.34
21
-4.10199999999998
97
0
75
0
76
1
52
0
41
0.0062
77
0
78
1
53
45
43
0
44
0
45
-0.0139193969876572
46
0.0139193969876572
79
0
47
0
98
1
10
0
20
0
0
DIMENSION
5
200
100
AcDbEntity
8
SK2
62
256
6
ByLayer
370
18
48
1
60
0
100
AcDbDimension
2
_U0
10
72.59
20
-51.507865
30
0
11
22.59
21
-51.507865
31
0
70
32
71
1
72
1
41
1
210
0
220
0
230
1
3
Standard
100
AcDbAlignedDimension
13
-27.41
23
0
33
0
14
72.59
24
0
34
0
50
0
100
AcDbRotatedDimension
1001
ACAD
1000
DSTYLE
1002
{
1070
   371
1070
    13
1070
   372
1070
    13
1070
     3
1000

1070
   170
1070
     0
1070
   144
1040
1.0
1070
   277
1070
     2
1070
   284
1070
     8
1070
   278
1070
    46
1070
   146
1040
1.0
1070
   345
1005
16
1070
   347
1005
16
1070
   346
1005
16
1070
   344
1005
0
1070
   343
1005
0
1070
   172
1070
     1
1070
    76
1070
     0
1070
    75
1070
     0
1070
   282
1070
     0
1070
   281
1070
     0
1070
    71
1070
     0
1070
    74
1070
     0
1070
   279
1070
     0
1070
   173
1070
     1
1070
   340
1005
1F1
1070
   271
1070
     2
1070
   272
1070
     2
1070
    77
1070
     1
1070
    73
1070
     1
1070
   171
1070
     3
1070
   274
1070
     4
1070
   177
1070
     2
1070
   176
1070
     2
1070
   178
1070
     2
1070
    78
1070
     8
1070
    48
1040
-0.1
1070
    41
1040
3.5
1070
   147
1040
1.75
1070
    42
1040
1.5875
1070
    44
1040
2.0
1070
   140
1040
3.5
1002
}
1001
ACAD_DSTYLE_DIM_LINETYPE
1070
   380
1005
16
1001
ACAD_DSTYLE_DIM_EXT1_LINETYPE
1070
   381
1005
16
1001
ACAD_DSTYLE_DIM_EXT2_LINETYPE
1070
   382
1005
16
0
DIMENSION
5
219
100
AcDbEntity
8
SK2
62
256
6
ByLayer
370
18
48
1
60
0
100
AcDbDimension
2
_U1
10
24.59
20
-43.507865
30
0
11
48.59
21
-43.507865
31
0
70
32
71
1
72
1
41
1
210
0
220
0
230
1
3
Standard
100
AcDbAlignedDimension
13
72.59
23
0
33
0
14
24.59
24
0
34
0
50
0
100
AcDbRotatedDimension
1001
ACAD
1000
DSTYLE
1002
{
1070
   371
1070
    13
1070
   372
1070
    13
1070
     3
1000

1070
   170
1070
     0
1070
   144
1040
1.0
1070
   277
1070
     2
1070
   284
1070
     8
1070
   278
1070
    46
1070
   146
1040
1.0
1070
   345
1005
16
1070
   347
1005
16
1070
   346
1005
16
1070
   344
1005
0
1070
   343
1005
0
1070
   172
1070
     1
1070
    76
1070
     0
1070
    75
1070
     0
1070
   282
1070
     0
1070
   281
1070
     0
1070
    71
1070
     0
1070
    74
1070
     0
1070
   279
1070
     0
1070
   173
1070
     1
1070
   340
1005
1F1
1070
   271
1070
     2
1070
   272
1070
     2
1070
    77
1070
     1
1070
    73
1070
     1
1070
   171
1070
     3
1070
   274
1070
     4
1070
   177
1070
     2
1070
   176
1070
     2
1070
   178
1070
     2
1070
    78
1070
     8
1070
    48
1040
-0.1
1070
    41
1040
3.5
1070
   147
1040
1.75
1070
    42
1040
1.5875
1070
    44
1040
2.0
1070
   140
1040
3.5
1002
}
1001
ACAD_DSTYLE_DIM_LINETYPE
1070
   380
1005
16
1001
ACAD_DSTYLE_DIM_EXT1_LINETYPE
1070
   381
1005
16
1001
ACAD_DSTYLE_DIM_EXT2_LINETYPE
1070
   382
1005
16
0
DIMENSION
5
231
100
AcDbEntity
8
2
62
256
6
ByLayer
370
18
48
1
60
0
100
AcDbDimension
2
_U2
10
31.79
20
-35.507865
30
0
11
52.19
21
-35.507865
31
0
70
32
71
1
72
1
41
1
210
0
220
0
230
1
3
Standard
100
AcDbAlignedDimension
13
72.59
23
0
33
0
14
31.79
24
0
34
0
50
0
100
AcDbRotatedDimension
1001
ACAD
1000
DSTYLE
1002
{
1070
   371
1070
    13
1070
   372
1070
    13
1070
     3
1000

1070
   170
1070
     0
1070
   144
1040
1.0
1070
   277
1070
     2
1070
   284
1070
     8
1070
   278
1070
    46
1070
   146
1040
1.0
1070
   345
1005
16
1070
   347
1005
16
1070
   346
1005
16
1070
   344
1005
0
1070
   343
1005
0
1070
   172
1070
     1
1070
    76
1070
     0
1070
    75
1070
     0
1070
   282
1070
     0
1070
   281
1070
     0
1070
    71
1070
     0
1070
    74
1070
     0
1070
   279
1070
     0
1070
   173
1070
     1
1070
   340
1005
1F1
1070
   271
1070
     2
1070
   272
1070
     2
1070
    77
1070
     1
1070
    73
1070
     1
1070
   171
1070
     3
1070
   274
1070
     4
1070
   177
1070
     2
1070
   176
1070
     2
1070
   178
1070
     2
1070
    78
1070
     8
1070
    48
1040
-0.1
1070
    41
1040
3.5
1070
   147
1040
1.75
1070
    42
1040
1.5875
1070
    44
1040
2.0
1070
   140
1040
3.5
1002
}
1001
ACAD_DSTYLE_DIM_LINETYPE
1070
   380
1005
16
1001
ACAD_DSTYLE_DIM_EXT1_LINETYPE
1070
   381
1005
16
1001
ACAD_DSTYLE_DIM_EXT2_LINETYPE
1070
   382
1005
16
0
DIMENSION
5
24A
100
AcDbEntity
8
SK2
62
256
6
ByLayer
370
18
48
1
60
0
100
AcDbDimension
2
_U3
10
57.59
20
-27.507865
30
0
11
65.09
21
-27.507865
31
0
70
32
71
1
72
1
41
1
210
0
220
0
230
1
3
Standard
100
AcDbAlignedDimension
13
72.59
23
0
33
0
14
57.59
24
0
34
0
50
0
100
AcDbRotatedDimension
1001
ACAD
1000
DSTYLE
1002
{
1070
   371
1070
    13
1070
   372
1070
    13
1070
     3
1000

1070
   170
1070
     0
1070
   144
1040
1.0
1070
   277
1070
     2
1070
   284
1070
     8
1070
   278
1070
    46
1070
   146
1040
1.0
1070
   345
1005
16
1070
   347
1005
16
1070
   346
1005
16
1070
   344
1005
0
1070
   343
1005
0
1070
   172
1070
     1
1070
    76
1070
     0
1070
    75
1070
     0
1070
   282
1070
     0
1070
   281
1070
     0
1070
    71
1070
     0
1070
    74
1070
     0
1070
   279
1070
     0
1070
   173
1070
     1
1070
   340
1005
1F1
1070
   271
1070
     2
1070
   272
1070
     2
1070
    77
1070
     1
1070
    73
1070
     1
1070
   171
1070
     3
1070
   274
1070
     4
1070
   177
1070
     2
1070
   176
1070
     2
1070
   178
1070
     2
1070
    78
1070
     8
1070
    48
1040
-0.1
1070
    41
1040
3.5
1070
   147
1040
1.75
1070
    42
1040
1.5875
1070
    44
1040
2.0
1070
   140
1040
3.5
1002
}
1001
ACAD_DSTYLE_DIM_LINETYPE
1070
   380
1005
16
1001
ACAD_DSTYLE_DIM_EXT1_LINETYPE
1070
   381
1005
16
1001
ACAD_DSTYLE_DIM_EXT2_LINETYPE
1070
   382
1005
16
0
DIMENSION
5
263
100
AcDbEntity
8
SK2
62
256
6
ByLayer
370
18
48
1
60
0
100
AcDbDimension
2
_U4
10
69.1
20
11.471194
30
0
11
70.845
21
11.471194
31
0
70
32
71
1
72
1
41
1
210
0
220
0
230
1
3
Standard
100
AcDbAlignedDimension
13
72.59
23
0
33
0
14
69.1
24
0
34
0
50
0
100
AcDbRotatedDimension
1001
ACAD
1000
DSTYLE
1002
{
1070
   371
1070
    13
1070
   372
1070
    13
1070
     3
1000

1070
   170
1070
     0
1070
   144
1040
1.0
1070
   277
1070
     2
1070
   284
1070
     8
1070
   278
1070
    46
1070
   146
1040
1.0
1070
   345
1005
16
1070
   347
1005
16
1070
   346
1005
16
1070
   344
1005
0
1070
   343
1005
0
1070
   172
1070
     1
1070
    76
1070
     0
1070
    75
1070
     0
1070
   282
1070
     0
1070
   281
1070
     0
1070
    71
1070
     0
1070
    74
1070
     0
1070
   279
1070
     0
1070
   173
1070
     1
1070
   340
1005
1F1
1070
   271
1070
     2
1070
   272
1070
     2
1070
    77
1070
     1
1070
    73
1070
     1
1070
   171
1070
     3
1070
   274
1070
     4
1070
   177
1070
     2
1070
   176
1070
     2
1070
   178
1070
     2
1070
    78
1070
     8
1070
    48
1040
-0.1
1070
    41
1040
3.5
1070
   147
1040
1.75
1070
    42
1040
1.5875
1070
    44
1040
2.0
1070
   140
1040
3.5
1002
}
1001
ACAD_DSTYLE_DIM_LINETYPE
1070
   380
1005
16
1001
ACAD_DSTYLE_DIM_EXT1_LINETYPE
1070
   381
1005
16
1001
ACAD_DSTYLE_DIM_EXT2_LINETYPE
1070
   382
1005
16
0
DIMENSION
5
27D
100
AcDbEntity
8
2
62
256
6
ByLayer
370
18
48
1
60
0
100
AcDbDimension
2
_U5
10
89.34
20
5.610597
30
0
11
89.34
21
0
31
0
70
32
71
1
72
1
41
1
210
0
220
0
230
1
3
Standard
100
AcDbAlignedDimension
13
72.59
23
-5.610597
33
0
14
72.59
24
5.610597
34
0
50
90
100
AcDbRotatedDimension
1001
ACAD
1000
DSTYLE
1002
{
1070
   371
1070
    13
1070
   372
1070
    13
1070
     3
1000

1070
   170
1070
     0
1070
   144
1040
1.0
1070
   277
1070
     2
1070
   284
1070
     8
1070
   278
1070
    46
1070
   146
1040
1.0
1070
   345
1005
16
1070
   347
1005
16
1070
   346
1005
16
1070
   344
1005
0
1070
   343
1005
0
1070
   172
1070
     1
1070
    76
1070
     0
1070
    75
1070
     0
1070
   282
1070
     0
1070
   281
1070
     0
1070
    71
1070
     0
1070
    74
1070
     0
1070
   279
1070
     0
1070
   173
1070
     1
1070
   340
1005
1F1
1070
   271
1070
     2
1070
   272
1070
     2
1070
    77
1070
     1
1070
    73
1070
     0
1070
   171
1070
     3
1070
   274
1070
     4
1070
   177
1070
     2
1070
   176
1070
     2
1070
   178
1070
     2
1070
    78
1070
     8
1070
    48
1040
-0.1
1070
    41
1040
3.5
1070
   147
1040
1.75
1070
    42
1040
1.5875
1070
    44
1040
2.0
1070
   140
1040
3.5
1002
}
1001
ACAD_DSTYLE_DIM_LINETYPE
1070
   380
1005
16
1001
ACAD_DSTYLE_DIM_EXT1_LINETYPE
1070
   381
1005
16
1001
ACAD_DSTYLE_DIM_EXT2_LINETYPE
1070
   382
1005
16
0
ENDSEC
0
SECTION
2
OBJECTS
0
DICTIONARY
5
307
330
0
100
AcDbDictionary
280
0
281
1
3
ACAD_GROUP
350
308
3
ACAD_MLINESTYLE
350
309
0
DICTIONARY
5
308
330
0
100
AcDbDictionary
280
0
281
1
0
DICTIONARY
5
309
330
0
100
AcDbDictionary
280
0
281
1
3
Standard
350
18
0
MLINESTYLE
5
18
330
309
100
AcDbMlineStyle
2
Standard
70
0
3

62
256
51
90
52
90
71
2
49
-0.5
62
256
6
ByLayer
49
0.5
62
256
6
ByLayer
0
RASTERVARIABLES
5
2f5
330

100
AcDbRasterVariables
90
0
70
1
71
1
72
1
0
ENDSEC
0
EOF
