0
SECTION
2
HEADER
9
$ACADVER
1
AC1015
9
$DWGCODEPAGE
3
ANSI_1252
9
$HANDSEED
5
2e8
9
$ANGBASE
50
0
9
$ANGDIR
70
0
9
$ATTMODE
70
1
9
$AUNITS
70
0
9
$AUPREC
70
0
9
$CECOLOR
62
256
9
$CELTSCALE
40
1
9
$CELTYPE
6
ByLayer
9
$CELWEIGHT
370
18
9
$CLAYER
8
0
9
$CMLJUST
70
0
9
$CMLSCALE
40
1
9
$CMLSTYLE
2
Standard
9
$DIMSTYLE
2
Standard
9
$TEXTSIZE
40
0.2
9
$TEXTSTYLE
7
Standard
9
$LUNITS
70
2
9
$LUPREC
70
4
9
$EXTNAMES
290
1
9
$INSUNITS
70
4
9
$LTSCALE
40
1
9
$LWDISPLAY
290
1
9
$PDMODE
70
0
9
$PDSIZE
40
0
9
$PLINEGEN
70
0
0
ENDSEC
0
SECTION
2
CLASSES
0
CLASS
1
RASTERVARIABLES
2
AcDbRasterVariables
3
ISM
90
0
280
0
281
0
0
ENDSEC
0
SECTION
2
TABLES
0
TABLE
2
VPORT
5
2de
100
AcDbSymbolTable
0
VPORT
5
1
100
AcDbSymbolTableRecord
100
AcDbViewportTableRecord
2
*Active
70
0
10
0
20
0
11
1
21
1
12
-1
22
1
13
0
23
0
14
0.5
24
0.5
15
10
25
10
16
0
26
0
36
1
17
0
27
0
37
0
0
ENDTAB
0
TABLE
2
LTYPE
5
2df
100
AcDbSymbolTable
0
LTYPE
5
14
100
AcDbSymbolTableRecord
100
AcDbLinetypeTableRecord
70
0
2
ByBlock
3

72
65
73
0
40
0
0
LTYPE
5
15
100
AcDbSymbolTableRecord
100
AcDbLinetypeTableRecord
70
0
2
ByLayer
3

72
65
73
0
40
0
0
LTYPE
5
16
100
AcDbSymbolTableRecord
100
AcDbLinetypeTableRecord
70
0
2
Continuous
3
Solid line
72
65
73
0
40
0
0
LTYPE
5
6E
100
AcDbSymbolTableRecord
100
AcDbLinetypeTableRecord
70
0
2
CENTER
3
____ _ ____ _ ____ _ ____
72
65
73
4
40
47.5
49
22
74
0
49
-8.5
74
0
49
8.5
74
0
49
-8.5
74
0
0
LTYPE
5
6F
100
AcDbSymbolTableRecord
100
AcDbLinetypeTableRecord
70
0
2
DASHED
3
__ __ __ __ __ __ __ __ __
72
65
73
2
40
25.72
49
12.86
74
0
49
-12.86
74
0
0
ENDTAB
0
TABLE
2
LAYER
5
2e0
100
AcDbSymbolTable
0
LAYER
5
10
100
AcDbSymbolTableRecord
100
AcDbLayerTableRecord
2
0
70
0
62
7
6
Continuous
290
1
370
-3
390
0
0
LAYER
5
71
100
AcDbSymbolTableRecord
100
AcDbLayerTableRecord
2
80
70
0
62
-6
6
Continuous
290
1
370
-3
390
0
0
LAYER
5
73
100
AcDbSymbolTableRecord
100
AcDbLayerTableRecord
2
81
70
0
62
-3
6
Continuous
290
1
370
-3
390
0
0
LAYER
5
75
100
AcDbSymbolTableRecord
100
AcDbLayerTableRecord
2
1
70
0
62
4
6
Continuous
290
1
370
-3
390
0
0
LAYER
5
87
100
AcDbSymbolTableRecord
100
AcDbLayerTableRecord
2
4
70
0
62
-2
6
CENTER
290
1
370
-3
390
0
0
LAYER
5
1D7
100
AcDbSymbolTableRecord
100
AcDbLayerTableRecord
2
Defpoints
70
0
62
7
6
Continuous
290
0
370
-3
390
0
0
LAYER
5
214
100
AcDbSymbolTableRecord
100
AcDbLayerTableRecord
2
2
70
0
62
7
6
Continuous
290
1
370
-3
390
0
0
LAYER
5
2ca
100
AcDbSymbolTableRecord
100
AcDbLayerTableRecord
2
SK4
70
0
62
2
6
CENTER
290
1
370
-3
390
0
0
LAYER
5
2cb
100
AcDbSymbolTableRecord
100
AcDbLayerTableRecord
2
SK1
70
0
62
4
6
Continuous
290
1
370
-3
390
0
0
LAYER
5
2cc
100
AcDbSymbolTableRecord
100
AcDbLayerTableRecord
2
SK2
70
0
62
7
6
Continuous
290
1
370
-3
390
0
0
LAYER
5
2cd
100
AcDbSymbolTableRecord
100
AcDbLayerTableRecord
2
SK6
70
0
62
5
6
Continuous
290
1
370
-3
390
0
0
ENDTAB
0
TABLE
2
STYLE
5
2e1
100
AcDbSymbolTable
0
STYLE
5
11
100
AcDbSymbolTableRecord
100
AcDbTextStyleTableRecord
2
Standard
3
txt
70
0
71
0
40
0
41
1
42
0
50
0
0
STYLE
5
1C5
100
AcDbSymbolTableRecord
100
AcDbTextStyleTableRecord
2
iso_b_vert
3
simplex.shx
70
0
71
0
40
0
41
1
42
0
50
0
0
STYLE
5
1C6
100
AcDbSymbolTableRecord
100
AcDbTextStyleTableRecord
2
DWGDirectTextStyle
3
simplex
70
0
71
0
40
0
41
1
42
0
50
0
0
ENDTAB
0
TABLE
2
DIMSTYLE
5
2e2
100
AcDbSymbolTable
100
AcDbDimStyleTable
0
DIMSTYLE
105
27
100
AcDbSymbolTableRecord
100
AcDbDimStyleTableRecord
2
Standard
70
0
3
<>
41
0.18
42
0.0625
44
0.18
140
0.18
147
0.09
73
0
74
0
77
1
271
2
275
0
278
52
280
0
340
11
0
ENDTAB
0
TABLE
2
VIEW
5
2e3
100
AcDbSymbolTable
0
ENDTAB
0
TABLE
2
UCS
5
2e4
100
AcDbSymbolTable
0
ENDTAB
0
TABLE
2
APPID
5
2e5
100
AcDbSymbolTable
0
APPID
5
12
100
AcDbSymbolTableRecord
100
AcDbRegAppTableRecord
2
ACAD
70
0
0
APPID
5
1D3
100
AcDbSymbolTableRecord
100
AcDbRegAppTableRecord
2
ACAD_DSTYLE_DIMBREAK
70
0
0
APPID
5
289
100
AcDbSymbolTableRecord
100
AcDbRegAppTableRecord
2
ACAD_DSTYLE_DIM_LINETYPE
70
0
0
APPID
5
28A
100
AcDbSymbolTableRecord
100
AcDbRegAppTableRecord
2
ACAD_DSTYLE_DIM_EXT1_LINETYPE
70
0
0
APPID
5
28B
100
AcDbSymbolTableRecord
100
AcDbRegAppTableRecord
2
ACAD_DSTYLE_DIM_EXT2_LINETYPE
70
0
0
APPID
5
2C6
100
AcDbSymbolTableRecord
100
AcDbRegAppTableRecord
2
ACAD_MLEADERVER
70
0
0
ENDTAB
0
TABLE
2
BLOCK_RECORD
5
2e6
100
AcDbSymbolTable
0
BLOCK_RECORD
5
1F
100
AcDbSymbolTableRecord
100
AcDbBlockTableRecord
2
*Model_Space
340
0
70
0
0
BLOCK_RECORD
5
1B
100
AcDbSymbolTableRecord
100
AcDbBlockTableRecord
2
*Paper_Space
340
0
70
0
0
BLOCK_RECORD
5
23
100
AcDbSymbolTableRecord
100
AcDbBlockTableRecord
2
*Paper_Space0
340
0
70
0
0
BLOCK_RECORD
5
1D8
100
AcDbSymbolTableRecord
100
AcDbBlockTableRecord
2
*D1
340
0
70
0
0
BLOCK_RECORD
5
1E4
100
AcDbSymbolTableRecord
100
AcDbBlockTableRecord
2
_U0
340
0
70
0
0
BLOCK_RECORD
5
1F0
100
AcDbSymbolTableRecord
100
AcDbBlockTableRecord
2
*D3
340
0
70
0
0
BLOCK_RECORD
5
1FC
100
AcDbSymbolTableRecord
100
AcDbBlockTableRecord
2
_U1
340
0
70
0
0
BLOCK_RECORD
5
208
100
AcDbSymbolTableRecord
100
AcDbBlockTableRecord
2
*D5
340
0
70
0
0
BLOCK_RECORD
5
215
100
AcDbSymbolTableRecord
100
AcDbBlockTableRecord
2
_U2
340
0
70
0
0
BLOCK_RECORD
5
221
100
AcDbSymbolTableRecord
100
AcDbBlockTableRecord
2
*D7
340
0
70
0
0
BLOCK_RECORD
5
22E
100
AcDbSymbolTableRecord
100
AcDbBlockTableRecord
2
_U3
340
0
70
0
0
BLOCK_RECORD
5
23A
100
AcDbSymbolTableRecord
100
AcDbBlockTableRecord
2
*D9
340
0
70
0
0
BLOCK_RECORD
5
247
100
AcDbSymbolTableRecord
100
AcDbBlockTableRecord
2
_U4
340
0
70
0
0
BLOCK_RECORD
5
254
100
AcDbSymbolTableRecord
100
AcDbBlockTableRecord
2
*D11
340
0
70
0
0
BLOCK_RECORD
5
261
100
AcDbSymbolTableRecord
100
AcDbBlockTableRecord
2
_U5
340
0
70
0
0
ENDTAB
0
ENDSEC
0
SECTION
2
BLOCKS
0
BLOCK
5
20
100
AcDbEntity
8
0
100
AcDbBlockBegin
2
*Model_Space
70
0
10
0
20
0
30
0
3
*Model_Space
0
ENDBLK
5
21
100
AcDbEntity
8
0
100
AcDbBlockEnd
0
BLOCK
5
1C
100
AcDbEntity
8
0
100
AcDbBlockBegin
2
*Paper_Space
70
0
10
0
20
0
30
0
3
*Paper_Space
0
ENDBLK
5
1D
100
AcDbEntity
8
0
100
AcDbBlockEnd
0
BLOCK
5
24
100
AcDbEntity
8
0
100
AcDbBlockBegin
2
*Paper_Space0
70
0
10
0
20
0
30
0
3
*Paper_Space0
0
ENDBLK
5
25
100
AcDbEntity
8
0
100
AcDbBlockEnd
0
BLOCK
5
1D9
100
AcDbEntity
8
0
100
AcDbBlockBegin
2
*D1
70
1
10
0
20
0
30
0
3
*D1
0
LINE
5
1DB
100
AcDbEntity
8
0
62
256
6
ByLayer
370
-2
48
1
60
0
100
AcDbLine
10
-28
20
-1.5875
30
0
11
-28
21
-52.581355
31
0
39
0
210
0
220
0
230
1
0
LINE
5
1DC
100
AcDbEntity
8
0
62
256
6
ByLayer
370
-2
48
1
60
0
100
AcDbLine
10
72
20
-1.5875
30
0
11
72
21
-52.581355
31
0
39
0
210
0
220
0
230
1
0
LINE
5
1DD
100
AcDbEntity
8
0
62
256
6
ByLayer
370
-2
48
1
60
0
100
AcDbLine
10
-24.5
20
-50.581355
30
0
11
68.5
21
-50.581355
31
0
39
0
210
0
220
0
230
1
0
SOLID
5
1DE
100
AcDbEntity
8
0
62
256
6
ByLayer
370
-1
48
1
60
0
100
AcDbTrace
10
-24.5
20
-49.998021
30
0
11
-24.5
21
-51.164688
31
0
12
-28
22
-50.581355
32
0
13
-28
23
-50.581355
33
0
39
0
210
0
220
0
230
1
0
SOLID
5
1DF
100
AcDbEntity
8
0
62
256
6
ByLayer
370
-1
48
1
60
0
100
AcDbTrace
10
68.5
20
-51.164688
30
0
11
68.5
21
-49.998021
31
0
12
72
22
-50.581355
32
0
13
72
23
-50.581355
33
0
39
0
210
0
220
0
230
1
0
MTEXT
5
1E0
100
AcDbEntity
8
0
62
256
6
ByLayer
370
18
48
1
60
0
100
AcDbMText
10
22
20
-43.581355
30
0
210
0
220
0
230
1
1
\A1;100
40
3.5
41
0
44
1
50
0
71
5
72
5
7
iso_b_vert
0
POINT
5
1E1
100
AcDbEntity
8
Defpoints
62
0
6
ByLayer
370
-1
48
1
60
0
100
AcDbPoint
10
-28
20
0
30
0
39
0
210
0
220
0
230
1
50
360
0
POINT
5
1E2
100
AcDbEntity
8
Defpoints
62
0
6
ByLayer
370
-1
48
1
60
0
100
AcDbPoint
10
72
20
0
30
0
39
0
210
0
220
0
230
1
50
360
0
POINT
5
1E3
100
AcDbEntity
8
Defpoints
62
0
6
ByLayer
370
-1
48
1
60
0
100
AcDbPoint
10
72
20
-50.581355
30
0
39
0
210
0
220
0
230
1
50
360
0
ENDBLK
5
1DA
100
AcDbEntity
8
0
100
AcDbBlockEnd
0
BLOCK
5
1EB
100
AcDbEntity
8
0
100
AcDbBlockBegin
2
_U0
70
0
10
0
20
0
30
0
3
_U0
0
MTEXT
5
1E5
100
AcDbEntity
8
SK2
62
256
6
ByLayer
370
18
48
1
60
0
100
AcDbMText
10
17.208001
20
-49.548721
30
0
210
0
220
0
230
1
1
\W0.6864;100.0
40
3.5
41
0
44
1.084337
50
0
71
7
72
5
7
iso_b_vert
0
LINE
5
1E6
100
AcDbEntity
8
SK2
62
256
6
ByLayer
370
13
48
1
60
0
100
AcDbLine
10
-28
20
-1.5875
30
0
11
-28
21
-52.581355
31
0
39
0
210
0
220
0
230
1
0
LINE
5
1E7
100
AcDbEntity
8
SK2
62
256
6
ByLayer
370
13
48
1
60
0
100
AcDbLine
10
72
20
-1.5875
30
0
11
72
21
-52.581355
31
0
39
0
210
0
220
0
230
1
0
LINE
5
1E8
100
AcDbEntity
8
SK2
62
256
6
ByLayer
370
13
48
1
60
0
100
AcDbLine
10
-28
20
-50.581355
30
0
11
72
21
-50.581355
31
0
39
0
210
0
220
0
230
1
0
SOLID
5
1E9
100
AcDbEntity
8
SK2
62
256
6
ByLayer
370
18
48
1
60
0
100
AcDbTrace
10
-28
20
-50.581355
30
0
11
-24.500002
21
-50.120571
31
0
12
-24.499998
22
-51.042138
32
0
13
-24.499998
23
-51.042138
33
0
39
0
210
0
220
0
230
1
0
SOLID
5
1EA
100
AcDbEntity
8
SK2
62
256
6
ByLayer
370
18
48
1
60
0
100
AcDbTrace
10
72
20
-50.581355
30
0
11
68.500002
21
-51.042138
31
0
12
68.499998
22
-50.120571
32
0
13
68.499998
23
-50.120571
33
0
39
0
210
0
220
0
230
1
0
ENDBLK
5
1EC
100
AcDbEntity
8
0
100
AcDbBlockEnd
0
BLOCK
5
1F1
100
AcDbEntity
8
0
100
AcDbBlockBegin
2
*D3
70
1
10
0
20
0
30
0
3
*D3
0
LINE
5
1F3
100
AcDbEntity
8
0
62
256
6
ByLayer
370
-2
48
1
60
0
100
AcDbLine
10
72
20
-1.5875
30
0
11
72
21
-44.581355
31
0
39
0
210
0
220
0
230
1
0
LINE
5
1F4
100
AcDbEntity
8
0
62
256
6
ByLayer
370
-2
48
1
60
0
100
AcDbLine
10
33
20
-1.5875
30
0
11
33
21
-44.581355
31
0
39
0
210
0
220
0
230
1
0
LINE
5
1F5
100
AcDbEntity
8
0
62
256
6
ByLayer
370
-2
48
1
60
0
100
AcDbLine
10
68.5
20
-42.581355
30
0
11
36.5
21
-42.581355
31
0
39
0
210
0
220
0
230
1
0
SOLID
5
1F6
100
AcDbEntity
8
0
62
256
6
ByLayer
370
-1
48
1
60
0
100
AcDbTrace
10
68.5
20
-43.164688
30
0
11
68.5
21
-41.998021
31
0
12
72
22
-42.581355
32
0
13
72
23
-42.581355
33
0
39
0
210
0
220
0
230
1
0
SOLID
5
1F7
100
AcDbEntity
8
0
62
256
6
ByLayer
370
-1
48
1
60
0
100
AcDbTrace
10
36.5
20
-41.998021
30
0
11
36.5
21
-43.164688
31
0
12
33
22
-42.581355
32
0
13
33
23
-42.581355
33
0
39
0
210
0
220
0
230
1
0
MTEXT
5
1F8
100
AcDbEntity
8
0
62
256
6
ByLayer
370
18
48
1
60
0
100
AcDbMText
10
52.5
20
-35.581355
30
0
210
0
220
0
230
1
1
\A1;39
40
3.5
41
0
44
1
50
0
71
5
72
5
7
iso_b_vert
0
POINT
5
1F9
100
AcDbEntity
8
Defpoints
62
0
6
ByLayer
370
-1
48
1
60
0
100
AcDbPoint
10
72
20
0
30
0
39
0
210
0
220
0
230
1
50
360
0
POINT
5
1FA
100
AcDbEntity
8
Defpoints
62
0
6
ByLayer
370
-1
48
1
60
0
100
AcDbPoint
10
33
20
0
30
0
39
0
210
0
220
0
230
1
50
360
0
POINT
5
1FB
100
AcDbEntity
8
Defpoints
62
0
6
ByLayer
370
-1
48
1
60
0
100
AcDbPoint
10
33
20
-42.581355
30
0
39
0
210
0
220
0
230
1
50
360
0
ENDBLK
5
1F2
100
AcDbEntity
8
0
100
AcDbBlockEnd
0
BLOCK
5
203
100
AcDbEntity
8
0
100
AcDbBlockBegin
2
_U1
70
0
10
0
20
0
30
0
3
_U1
0
MTEXT
5
1FD
100
AcDbEntity
8
SK2
62
256
6
ByLayer
370
18
48
1
60
0
100
AcDbMText
10
48.578301
20
-41.548721
30
0
210
0
220
0
230
1
1
\W0.7346;39.0
40
3.5
41
0
44
1.084337
50
0
71
7
72
5
7
iso_b_vert
0
LINE
5
1FE
100
AcDbEntity
8
SK2
62
256
6
ByLayer
370
13
48
1
60
0
100
AcDbLine
10
72
20
-1.5875
30
0
11
72
21
-44.581355
31
0
39
0
210
0
220
0
230
1
0
LINE
5
1FF
100
AcDbEntity
8
SK2
62
256
6
ByLayer
370
13
48
1
60
0
100
AcDbLine
10
33
20
-1.5875
30
0
11
33
21
-44.581355
31
0
39
0
210
0
220
0
230
1
0
LINE
5
200
100
AcDbEntity
8
SK2
62
256
6
ByLayer
370
13
48
1
60
0
100
AcDbLine
10
72
20
-42.581355
30
0
11
33
21
-42.581355
31
0
39
0
210
0
220
0
230
1
0
SOLID
5
201
100
AcDbEntity
8
SK2
62
256
6
ByLayer
370
18
48
1
60
0
100
AcDbTrace
10
72
20
-42.581355
30
0
11
68.500002
21
-43.042138
31
0
12
68.499998
22
-42.120571
32
0
13
68.499998
23
-42.120571
33
0
39
0
210
0
220
0
230
1
0
SOLID
5
202
100
AcDbEntity
8
SK2
62
256
6
ByLayer
370
18
48
1
60
0
100
AcDbTrace
10
33
20
-42.581355
30
0
11
36.499998
21
-42.120571
31
0
12
36.500002
22
-43.042138
32
0
13
36.500002
23
-43.042138
33
0
39
0
210
0
220
0
230
1
0
ENDBLK
5
204
100
AcDbEntity
8
0
100
AcDbBlockEnd
0
BLOCK
5
209
100
AcDbEntity
8
0
100
AcDbBlockBegin
2
*D5
70
1
10
0
20
0
30
0
3
*D5
0
LINE
5
20B
100
AcDbEntity
8
0
62
256
6
ByLayer
370
-2
48
1
60
0
100
AcDbLine
10
72
20
-1.5875
30
0
11
72
21
-36.581355
31
0
39
0
210
0
220
0
230
1
0
LINE
5
20C
100
AcDbEntity
8
0
62
256
6
ByLayer
370
-2
48
1
60
0
100
AcDbLine
10
38.85
20
-1.5875
30
0
11
38.85
21
-36.581355
31
0
39
0
210
0
220
0
230
1
0
LINE
5
20D
100
AcDbEntity
8
0
62
256
6
ByLayer
370
-2
48
1
60
0
100
AcDbLine
10
68.5
20
-34.581355
30
0
11
42.35
21
-34.581355
31
0
39
0
210
0
220
0
230
1
0
SOLID
5
20E
100
AcDbEntity
8
0
62
256
6
ByLayer
370
-1
48
1
60
0
100
AcDbTrace
10
68.5
20
-35.164688
30
0
11
68.5
21
-33.998021
31
0
12
72
22
-34.581355
32
0
13
72
23
-34.581355
33
0
39
0
210
0
220
0
230
1
0
SOLID
5
20F
100
AcDbEntity
8
0
62
256
6
ByLayer
370
-1
48
1
60
0
100
AcDbTrace
10
42.35
20
-33.998021
30
0
11
42.35
21
-35.164688
31
0
12
38.85
22
-34.581355
32
0
13
38.85
23
-34.581355
33
0
39
0
210
0
220
0
230
1
0
MTEXT
5
210
100
AcDbEntity
8
0
62
256
6
ByLayer
370
18
48
1
60
0
100
AcDbMText
10
55.425
20
-27.581355
30
0
210
0
220
0
230
1
1
\A1;33.15
40
3.5
41
0
44
1
50
0
71
5
72
5
7
iso_b_vert
0
POINT
5
211
100
AcDbEntity
8
Defpoints
62
0
6
ByLayer
370
-1
48
1
60
0
100
AcDbPoint
10
72
20
0
30
0
39
0
210
0
220
0
230
1
50
360
0
POINT
5
212
100
AcDbEntity
8
Defpoints
62
0
6
ByLayer
370
-1
48
1
60
0
100
AcDbPoint
10
38.85
20
0
30
0
39
0
210
0
220
0
230
1
50
360
0
POINT
5
213
100
AcDbEntity
8
Defpoints
62
0
6
ByLayer
370
-1
48
1
60
0
100
AcDbPoint
10
38.85
20
-34.581355
30
0
39
0
210
0
220
0
230
1
50
360
0
ENDBLK
5
20A
100
AcDbEntity
8
0
100
AcDbBlockEnd
0
BLOCK
5
21C
100
AcDbEntity
8
0
100
AcDbBlockBegin
2
_U2
70
0
10
0
20
0
30
0
3
_U2
0
MTEXT
5
216
100
AcDbEntity
8
2
62
256
6
ByLayer
370
18
48
1
60
0
100
AcDbMText
10
51.503301
20
-33.548721
30
0
210
0
220
0
230
1
1
\W0.7346;33.2
40
3.5
41
0
44
1.084337
50
0
71
7
72
5
7
iso_b_vert
0
LINE
5
217
100
AcDbEntity
8
2
62
256
6
ByLayer
370
13
48
1
60
0
100
AcDbLine
10
72
20
-1.5875
30
0
11
72
21
-36.581355
31
0
39
0
210
0
220
0
230
1
0
LINE
5
218
100
AcDbEntity
8
2
62
256
6
ByLayer
370
13
48
1
60
0
100
AcDbLine
10
38.85
20
-1.5875
30
0
11
38.85
21
-36.581355
31
0
39
0
210
0
220
0
230
1
0
LINE
5
219
100
AcDbEntity
8
2
62
256
6
ByLayer
370
13
48
1
60
0
100
AcDbLine
10
72
20
-34.581355
30
0
11
38.85
21
-34.581355
31
0
39
0
210
0
220
0
230
1
0
SOLID
5
21A
100
AcDbEntity
8
2
62
256
6
ByLayer
370
18
48
1
60
0
100
AcDbTrace
10
72
20
-34.581355
30
0
11
68.500002
21
-35.042138
31
0
12
68.499998
22
-34.120571
32
0
13
68.499998
23
-34.120571
33
0
39
0
210
0
220
0
230
1
0
SOLID
5
21B
100
AcDbEntity
8
2
62
256
6
ByLayer
370
18
48
1
60
0
100
AcDbTrace
10
38.85
20
-34.581355
30
0
11
42.349998
21
-34.120571
31
0
12
42.350002
22
-35.042138
32
0
13
42.350002
23
-35.042138
33
0
39
0
210
0
220
0
230
1
0
ENDBLK
5
21D
100
AcDbEntity
8
0
100
AcDbBlockEnd
0
BLOCK
5
222
100
AcDbEntity
8
0
100
AcDbBlockBegin
2
*D7
70
1
10
0
20
0
30
0
3
*D7
0
LINE
5
224
100
AcDbEntity
8
0
62
256
6
ByLayer
370
-2
48
1
60
0
100
AcDbLine
10
72
20
-1.5875
30
0
11
72
21
-28.581355
31
0
39
0
210
0
220
0
230
1
0
LINE
5
225
100
AcDbEntity
8
0
62
256
6
ByLayer
370
-2
48
1
60
0
100
AcDbLine
10
57
20
-1.5875
30
0
11
57
21
-28.581355
31
0
39
0
210
0
220
0
230
1
0
LINE
5
226
100
AcDbEntity
8
0
62
256
6
ByLayer
370
-2
48
1
60
0
100
AcDbLine
10
75.5
20
-26.581355
30
0
11
79
21
-26.581355
31
0
39
0
210
0
220
0
230
1
0
LINE
5
227
100
AcDbEntity
8
0
62
256
6
ByLayer
370
-2
48
1
60
0
100
AcDbLine
10
53.5
20
-26.581355
30
0
11
50
21
-26.581355
31
0
39
0
210
0
220
0
230
1
0
SOLID
5
228
100
AcDbEntity
8
0
62
256
6
ByLayer
370
-1
48
1
60
0
100
AcDbTrace
10
75.5
20
-25.998021
30
0
11
75.5
21
-27.164688
31
0
12
72
22
-26.581355
32
0
13
72
23
-26.581355
33
0
39
0
210
0
220
0
230
1
0
SOLID
5
229
100
AcDbEntity
8
0
62
256
6
ByLayer
370
-1
48
1
60
0
100
AcDbTrace
10
53.5
20
-27.164688
30
0
11
53.5
21
-25.998021
31
0
12
57
22
-26.581355
32
0
13
57
23
-26.581355
33
0
39
0
210
0
220
0
230
1
0
MTEXT
5
22A
100
AcDbEntity
8
0
62
256
6
ByLayer
370
18
48
1
60
0
100
AcDbMText
10
64.5
20
-19.581355
30
0
210
0
220
0
230
1
1
\A1;15
40
3.5
41
0
44
1
50
0
71
5
72
5
7
iso_b_vert
0
POINT
5
22B
100
AcDbEntity
8
Defpoints
62
0
6
ByLayer
370
-1
48
1
60
0
100
AcDbPoint
10
72
20
0
30
0
39
0
210
0
220
0
230
1
50
360
0
POINT
5
22C
100
AcDbEntity
8
Defpoints
62
0
6
ByLayer
370
-1
48
1
60
0
100
AcDbPoint
10
57
20
0
30
0
39
0
210
0
220
0
230
1
50
360
0
POINT
5
22D
100
AcDbEntity
8
Defpoints
62
0
6
ByLayer
370
-1
48
1
60
0
100
AcDbPoint
10
57
20
-26.581355
30
0
39
0
210
0
220
0
230
1
50
360
0
ENDBLK
5
223
100
AcDbEntity
8
0
100
AcDbBlockEnd
0
BLOCK
5
235
100
AcDbEntity
8
0
100
AcDbBlockBegin
2
_U3
70
0
10
0
20
0
30
0
3
_U3
0
MTEXT
5
22F
100
AcDbEntity
8
SK2
62
256
6
ByLayer
370
18
48
1
60
0
100
AcDbMText
10
61.015734
20
-25.548721
30
0
210
0
220
0
230
1
1
\W0.6563;15.0
40
3.5
41
0
44
1.084337
50
0
71
7
72
5
7
iso_b_vert
0
LINE
5
230
100
AcDbEntity
8
SK2
62
256
6
ByLayer
370
13
48
1
60
0
100
AcDbLine
10
72
20
-1.5875
30
0
11
72
21
-28.581355
31
0
39
0
210
0
220
0
230
1
0
LINE
5
231
100
AcDbEntity
8
SK2
62
256
6
ByLayer
370
13
48
1
60
0
100
AcDbLine
10
57
20
-1.5875
30
0
11
57
21
-28.581355
31
0
39
0
210
0
220
0
230
1
0
LINE
5
232
100
AcDbEntity
8
SK2
62
256
6
ByLayer
370
13
48
1
60
0
100
AcDbLine
10
72
20
-26.581355
30
0
11
57
21
-26.581355
31
0
39
0
210
0
220
0
230
1
0
SOLID
5
233
100
AcDbEntity
8
SK2
62
256
6
ByLayer
370
18
48
1
60
0
100
AcDbTrace
10
72
20
-26.581355
30
0
11
68.500002
21
-27.042138
31
0
12
68.499998
22
-26.120571
32
0
13
68.499998
23
-26.120571
33
0
39
0
210
0
220
0
230
1
0
SOLID
5
234
100
AcDbEntity
8
SK2
62
256
6
ByLayer
370
18
48
1
60
0
100
AcDbTrace
10
57
20
-26.581355
30
0
11
60.499998
21
-26.120571
31
0
12
60.500002
22
-27.042138
32
0
13
60.500002
23
-27.042138
33
0
39
0
210
0
220
0
230
1
0
ENDBLK
5
236
100
AcDbEntity
8
0
100
AcDbBlockEnd
0
BLOCK
5
23B
100
AcDbEntity
8
0
100
AcDbBlockBegin
2
*D9
70
1
10
0
20
0
30
0
3
*D9
0
LINE
5
23D
100
AcDbEntity
8
0
62
256
6
ByLayer
370
-2
48
1
60
0
100
AcDbLine
10
72
20
1.5875
30
0
11
72
21
12.401374
31
0
39
0
210
0
220
0
230
1
0
LINE
5
23E
100
AcDbEntity
8
0
62
256
6
ByLayer
370
-2
48
1
60
0
100
AcDbLine
10
67.87
20
1.5875
30
0
11
67.87
21
12.401374
31
0
39
0
210
0
220
0
230
1
0
LINE
5
23F
100
AcDbEntity
8
0
62
256
6
ByLayer
370
-2
48
1
60
0
100
AcDbLine
10
75.5
20
10.401374
30
0
11
79
21
10.401374
31
0
39
0
210
0
220
0
230
1
0
LINE
5
240
100
AcDbEntity
8
0
62
256
6
ByLayer
370
-2
48
1
60
0
100
AcDbLine
10
64.37
20
10.401374
30
0
11
60.87
21
10.401374
31
0
39
0
210
0
220
0
230
1
0
SOLID
5
241
100
AcDbEntity
8
0
62
256
6
ByLayer
370
-1
48
1
60
0
100
AcDbTrace
10
75.5
20
10.984707
30
0
11
75.5
21
9.81804
31
0
12
72
22
10.401374
32
0
13
72
23
10.401374
33
0
39
0
210
0
220
0
230
1
0
SOLID
5
242
100
AcDbEntity
8
0
62
256
6
ByLayer
370
-1
48
1
60
0
100
AcDbTrace
10
64.37
20
9.81804
30
0
11
64.37
21
10.984707
31
0
12
67.87
22
10.401374
32
0
13
67.87
23
10.401374
33
0
39
0
210
0
220
0
230
1
0
MTEXT
5
243
100
AcDbEntity
8
0
62
256
6
ByLayer
370
18
48
1
60
0
100
AcDbMText
10
69.935
20
17.401374
30
0
210
0
220
0
230
1
1
\A1;4.13
40
3.5
41
0
44
1
50
0
71
5
72
5
7
iso_b_vert
0
POINT
5
244
100
AcDbEntity
8
Defpoints
62
0
6
ByLayer
370
-1
48
1
60
0
100
AcDbPoint
10
72
20
0
30
0
39
0
210
0
220
0
230
1
50
360
0
POINT
5
245
100
AcDbEntity
8
Defpoints
62
0
6
ByLayer
370
-1
48
1
60
0
100
AcDbPoint
10
67.87
20
0
30
0
39
0
210
0
220
0
230
1
50
360
0
POINT
5
246
100
AcDbEntity
8
Defpoints
62
0
6
ByLayer
370
-1
48
1
60
0
100
AcDbPoint
10
67.87
20
10.401374
30
0
39
0
210
0
220
0
230
1
50
360
0
ENDBLK
5
23C
100
AcDbEntity
8
0
100
AcDbBlockEnd
0
BLOCK
5
24F
100
AcDbEntity
8
0
100
AcDbBlockBegin
2
_U4
70
0
10
0
20
0
30
0
3
_U4
0
MTEXT
5
248
100
AcDbEntity
8
SK2
62
256
6
ByLayer
370
18
48
1
60
0
100
AcDbMText
10
66.266467
20
18.434007
30
0
210
0
220
0
230
1
1
\W0.6856;4.13
40
3.5
41
0
44
1.084337
50
0
71
7
72
5
7
iso_b_vert
0
MTEXT
5
249
100
AcDbEntity
8
SK2
62
256
6
ByLayer
370
18
48
1
60
0
100
AcDbMText
10
66.266467
20
11.434007
30
0
210
0
220
0
230
1
1
\W0.6474;'C'
40
3.5
41
0
44
1.084337
50
0
71
7
72
5
7
iso_b_vert
0
LINE
5
24A
100
AcDbEntity
8
SK2
62
256
6
ByLayer
370
13
48
1
60
0
100
AcDbLine
10
72
20
1.5875
30
0
11
72
21
12.401374
31
0
39
0
210
0
220
0
230
1
0
LINE
5
24B
100
AcDbEntity
8
SK2
62
256
6
ByLayer
370
13
48
1
60
0
100
AcDbLine
10
67.87
20
1.5875
30
0
11
67.87
21
12.401374
31
0
39
0
210
0
220
0
230
1
0
LINE
5
24C
100
AcDbEntity
8
SK2
62
256
6
ByLayer
370
13
48
1
60
0
100
AcDbLine
10
80.75
20
10.401374
30
0
11
59.12
21
10.401374
31
0
39
0
210
0
220
0
230
1
0
SOLID
5
24D
100
AcDbEntity
8
SK2
62
256
6
ByLayer
370
18
48
1
60
0
100
AcDbTrace
10
72
20
10.401374
30
0
11
75.499998
21
10.862157
31
0
12
75.500002
22
9.94059
32
0
13
75.500002
23
9.94059
33
0
39
0
210
0
220
0
230
1
0
SOLID
5
24E
100
AcDbEntity
8
SK2
62
256
6
ByLayer
370
18
48
1
60
0
100
AcDbTrace
10
67.87
20
10.401374
30
0
11
64.370002
21
9.94059
31
0
12
64.369998
22
10.862157
32
0
13
64.369998
23
10.862157
33
0
39
0
210
0
220
0
230
1
0
ENDBLK
5
250
100
AcDbEntity
8
0
100
AcDbBlockEnd
0
BLOCK
5
255
100
AcDbEntity
8
0
100
AcDbBlockBegin
2
*D11
70
1
10
0
20
0
30
0
3
*D11
0
LINE
5
257
100
AcDbEntity
8
0
62
256
6
ByLayer
370
-2
48
1
60
0
100
AcDbLine
10
73.5875
20
-5.075687
30
0
11
90.75
21
-5.075687
31
0
39
0
210
0
220
0
230
1
0
LINE
5
258
100
AcDbEntity
8
0
62
256
6
ByLayer
370
-2
48
1
60
0
100
AcDbLine
10
73.5875
20
5.075687
30
0
11
90.75
21
5.075687
31
0
39
0
210
0
220
0
230
1
0
LINE
5
259
100
AcDbEntity
8
0
62
256
6
ByLayer
370
-2
48
1
60
0
100
AcDbLine
10
88.75
20
-8.575687
30
0
11
88.75
21
-12.075687
31
0
39
0
210
0
220
0
230
1
0
LINE
5
25A
100
AcDbEntity
8
0
62
256
6
ByLayer
370
-2
48
1
60
0
100
AcDbLine
10
88.75
20
8.575687
30
0
11
88.75
21
12.075687
31
0
39
0
210
0
220
0
230
1
0
SOLID
5
25B
100
AcDbEntity
8
0
62
256
6
ByLayer
370
-1
48
1
60
0
100
AcDbTrace
10
89.333333
20
-8.575687
30
0
11
88.166667
21
-8.575687
31
0
12
88.75
22
-5.075687
32
0
13
88.75
23
-5.075687
33
0
39
0
210
0
220
0
230
1
0
SOLID
5
25C
100
AcDbEntity
8
0
62
256
6
ByLayer
370
-1
48
1
60
0
100
AcDbTrace
10
88.166667
20
8.575687
30
0
11
89.333333
21
8.575687
31
0
12
88.75
22
5.075687
32
0
13
88.75
23
5.075687
33
0
39
0
210
0
220
0
230
1
0
MTEXT
5
25D
100
AcDbEntity
8
0
62
256
6
ByLayer
370
18
48
1
60
0
100
AcDbMText
10
81.75
20
0
30
0
210
0
220
0
230
1
1
\A1;10.15
40
3.5
41
0
44
1
50
90
71
5
72
5
7
iso_b_vert
0
POINT
5
25E
100
AcDbEntity
8
Defpoints
62
0
6
ByLayer
370
-1
48
1
60
0
100
AcDbPoint
10
72
20
-5.075687
30
0
39
0
210
0
220
0
230
1
50
360
0
POINT
5
25F
100
AcDbEntity
8
Defpoints
62
0
6
ByLayer
370
-1
48
1
60
0
100
AcDbPoint
10
72
20
5.075687
30
0
39
0
210
0
220
0
230
1
50
360
0
POINT
5
260
100
AcDbEntity
8
Defpoints
62
0
6
ByLayer
370
-1
48
1
60
0
100
AcDbPoint
10
88.75
20
5.075687
30
0
39
0
210
0
220
0
230
1
50
360
0
ENDBLK
5
256
100
AcDbEntity
8
0
100
AcDbBlockEnd
0
BLOCK
5
269
100
AcDbEntity
8
0
100
AcDbBlockBegin
2
_U5
70
0
10
0
20
0
30
0
3
_U5
0
MTEXT
5
262
100
AcDbEntity
8
2
62
256
6
ByLayer
370
18
48
1
60
0
100
AcDbMText
10
88.060366
20
-9.973299
30
0
210
0
220
0
230
1
1
\W0.6563;M10
40
3.5
41
0
44
1.084337
50
90
71
7
72
5
7
iso_b_vert
0
MTEXT
5
263
100
AcDbEntity
8
2
62
256
6
ByLayer
370
18
48
1
60
0
100
AcDbMText
10
88.060366
20
0.231233
30
0
210
0
220
0
230
1
1
\W0.7506; 6HX
40
3.5
41
0
44
1.084337
50
90
71
7
72
5
7
iso_b_vert
0
LINE
5
264
100
AcDbEntity
8
2
62
256
6
ByLayer
370
13
48
1
60
0
100
AcDbLine
10
73.5875
20
-5.075687
30
0
11
90.75
21
-5.075687
31
0
39
0
210
0
220
0
230
1
0
LINE
5
265
100
AcDbEntity
8
2
62
256
6
ByLayer
370
13
48
1
60
0
100
AcDbLine
10
73.5875
20
5.075687
30
0
11
90.75
21
5.075687
31
0
39
0
210
0
220
0
230
1
0
LINE
5
266
100
AcDbEntity
8
2
62
256
6
ByLayer
370
13
48
1
60
0
100
AcDbLine
10
88.75
20
10.130799
30
0
11
88.75
21
-10.130799
31
0
39
0
210
0
220
0
230
1
0
SOLID
5
267
100
AcDbEntity
8
2
62
256
6
ByLayer
370
18
48
1
60
0
100
AcDbTrace
10
88.75
20
-5.075687
30
0
11
88.289216
21
-1.575689
31
0
12
89.210784
22
-1.575685
32
0
13
89.210784
23
-1.575685
33
0
39
0
210
0
220
0
230
1
0
SOLID
5
268
100
AcDbEntity
8
2
62
256
6
ByLayer
370
18
48
1
60
0
100
AcDbTrace
10
88.75
20
5.075687
30
0
11
89.210784
21
1.575689
31
0
12
88.289216
22
1.575685
32
0
13
88.289216
23
1.575685
33
0
39
0
210
0
220
0
230
1
0
ENDBLK
5
26A
100
AcDbEntity
8
0
100
AcDbBlockEnd
0
ENDSEC
0
SECTION
2
ENTITIES
0
ARC
5
C8
100
AcDbEntity
8
SK1
62
256
6
ByLayer
370
18
48
1
60
0
100
AcDbCircle
39
0
10
-21
20
0
30
0
40
4.79999999999972
210
0
220
0
230
1
100
AcDbArc
50
326.44269
51
33.55731
0
ARC
5
C9
100
AcDbEntity
8
1
62
256
6
ByLayer
370
18
48
1
60
0
100
AcDbCircle
39
0
10
33.096238
20
-5.0406
30
0
40
1.1
210
0
220
0
230
1
100
AcDbArc
50
90
51
100
0
ARC
5
CA
100
AcDbEntity
8
1
62
256
6
ByLayer
370
18
48
1
60
0
100
AcDbCircle
39
0
10
33.096238
20
5.0406
30
0
40
1.1
210
0
220
0
230
1
100
AcDbArc
50
260
51
270
0
POINT
5
70
100
AcDbEntity
8
80
62
256
6
ByLayer
370
18
48
1
60
0
100
AcDbPoint
10
0
20
0
30
0
39
0
210
0
220
0
230
1
50
360
0
POINT
5
72
100
AcDbEntity
8
81
62
256
6
ByLayer
370
18
48
1
60
0
100
AcDbPoint
10
72
20
0
30
0
39
0
210
0
220
0
230
1
50
360
0
POINT
5
74
100
AcDbEntity
8
1
62
256
6
ByLayer
370
18
48
1
60
0
100
AcDbPoint
10
-28
20
0
30
0
39
0
210
0
220
0
230
1
50
360
0
POINT
5
76
100
AcDbEntity
8
1
62
256
6
ByLayer
370
18
48
1
60
1
100
AcDbPoint
10
-28
20
0
30
0
39
0
210
0
220
0
230
1
50
360
0
POINT
5
77
100
AcDbEntity
8
1
62
256
6
ByLayer
370
18
48
1
60
1
100
AcDbPoint
10
72
20
0
30
0
39
0
210
0
220
0
230
1
50
360
0
POINT
5
78
100
AcDbEntity
8
1
62
256
6
ByLayer
370
18
48
1
60
1
100
AcDbPoint
10
72
20
0
30
0
39
0
210
0
220
0
230
1
50
360
0
POINT
5
79
100
AcDbEntity
8
1
62
256
6
ByLayer
370
18
48
1
60
1
100
AcDbPoint
10
33
20
0
30
0
39
0
210
0
220
0
230
1
50
360
0
POINT
5
7A
100
AcDbEntity
8
1
62
256
6
ByLayer
370
18
48
1
60
1
100
AcDbPoint
10
72
20
0
30
0
39
0
210
0
220
0
230
1
50
360
0
POINT
5
7B
100
AcDbEntity
8
1
62
256
6
ByLayer
370
18
48
1
60
1
100
AcDbPoint
10
38.85
20
0
30
0
39
0
210
0
220
0
230
1
50
360
0
POINT
5
7C
100
AcDbEntity
8
1
62
256
6
ByLayer
370
18
48
1
60
1
100
AcDbPoint
10
72
20
0
30
0
39
0
210
0
220
0
230
1
50
360
0
POINT
5
7D
100
AcDbEntity
8
1
62
256
6
ByLayer
370
18
48
1
60
1
100
AcDbPoint
10
57
20
0
30
0
39
0
210
0
220
0
230
1
50
360
0
POINT
5
7E
100
AcDbEntity
8
1
62
256
6
ByLayer
370
18
48
1
60
1
100
AcDbPoint
10
72
20
0
30
0
39
0
210
0
220
0
230
1
50
360
0
POINT
5
7F
100
AcDbEntity
8
1
62
256
6
ByLayer
370
18
48
1
60
1
100
AcDbPoint
10
67.87
20
0
30
0
39
0
210
0
220
0
230
1
50
360
0
POINT
5
80
100
AcDbEntity
8
1
62
256
6
ByLayer
370
18
48
1
60
1
100
AcDbPoint
10
72
20
-5.075687
30
0
39
0
210
0
220
0
230
1
50
360
0
POINT
5
81
100
AcDbEntity
8
1
62
256
6
ByLayer
370
18
48
1
60
1
100
AcDbPoint
10
72
20
5.075687
30
0
39
0
210
0
220
0
230
1
50
360
0
SPLINE
5
CB
100
AcDbEntity
8
1
62
256
6
ByLayer
370
18
48
1
60
0
100
AcDbSpline
70
4
71
3
72
8
73
4
40
0
40
0
40
0
40
0
40
1
40
1
40
1
40
1
41
1
10
71.5999872972492
20
4.13493199337316
30
0
41
1
10
71.5999872513472
20
4.13347873567162
30
0
41
1
10
71.5999860877112
20
4.12997034277131
30
0
41
1
10
71.599984193259
20
4.12441299385193
30
0
0
SPLINE
5
CC
100
AcDbEntity
8
1
62
256
6
ByLayer
370
18
48
1
60
0
100
AcDbSpline
70
4
71
3
72
10
73
6
40
0
40
0
40
0
40
0
40
0.343705169358788
40
0.343705169358788
40
1
40
1
40
1
40
1
41
1
10
69.1418574911154
20
-4.43151003565777
30
0
41
1
10
69.1403474519249
20
-4.43223667231109
30
0
41
1
10
69.1388377261701
20
-4.43265924558918
30
0
41
1
10
69.1344452681541
20
-4.43299664172983
30
0
41
1
10
69.1315607412266
20
-4.43209869682039
30
0
41
1
10
69.1286765833093
20
-4.43005951058743
30
0
0
SPLINE
5
CD
100
AcDbEntity
8
1
62
256
6
ByLayer
370
18
48
1
60
0
100
AcDbSpline
70
4
71
3
72
8
73
4
40
0
40
0
40
0
40
0
40
1
40
1
40
1
40
1
41
1
10
69.1175913301416
20
-4.41658115327144
30
0
41
1
10
69.1147710265592
20
-4.41171483877923
30
0
41
1
10
69.111954221551
20
-4.40575801971201
30
0
41
1
10
69.109136479369
20
-4.3987166049352
30
0
0
SPLINE
5
CE
100
AcDbEntity
8
1
62
256
6
ByLayer
370
13
48
1
60
0
100
AcDbSpline
70
4
71
3
72
8
73
4
40
0
40
0
40
0
40
0
40
1
40
1
40
1
40
1
41
1
10
59.614407763464
20
-4.19464870473371
30
0
41
1
10
59.6311145511962
20
-4.22998489294724
30
0
41
1
10
59.6477642654872
20
-4.23477754919907
30
0
41
1
10
59.6643794236409
20
-4.20938644370821
30
0
0
SPLINE
5
CF
100
AcDbEntity
8
1
62
256
6
ByLayer
370
13
48
1
60
0
100
AcDbSpline
70
4
71
3
72
8
73
4
40
0
40
0
40
0
40
0
40
1
40
1
40
1
40
1
41
1.04
10
62.2471169557856
20
4.20820871864455
30
0
41
1.04
10
62.2577423870766
20
4.22553102536845
30
0
41
1.04
10
62.2683253418153
20
4.23040930212478
30
0
41
1.04
10
62.2788770253803
20
4.22296053617932
30
0
0
SPLINE
5
D0
100
AcDbEntity
8
1
62
256
6
ByLayer
370
13
48
1
60
0
100
AcDbSpline
70
4
71
3
72
8
73
4
40
0
40
0
40
0
40
0
40
1
40
1
40
1
40
1
41
1.04
10
68.9833720813002
20
-4.17934608197049
30
0
41
1.04
10
68.9876099644703
20
-4.19060644317235
30
0
41
1.04
10
68.9918386572008
20
-4.19987412567843
30
0
41
1.04
10
68.996058422872
20
-4.20714444203914
30
0
0
SPLINE
5
D1
100
AcDbEntity
8
1
62
256
6
ByLayer
370
18
48
1
60
0
100
AcDbSpline
70
4
71
3
72
15
73
11
40
0
40
0
40
0
40
0
40
0.241020868918159
40
0.241020868918159
40
0.361531303377237
40
0.361531303377237
40
0.482041737836315
40
0.482041737836315
40
0.964083475672621
40
1
40
1
40
1
40
1
41
1
10
62.7722069267214
20
4.92981298684202
30
0
41
1
10
62.7682668108653
20
4.94371455272287
30
0
41
1
10
62.7643385178646
20
4.95593462007469
30
0
41
1
10
62.7584430142311
20
4.97169416147437
30
0
41
1
10
62.7564750137357
20
4.97652377264748
30
0
41
1
10
62.752546609696
20
4.9852898235886
30
0
41
1
10
62.7505879914024
20
4.98922349247161
30
0
41
1
10
62.7408150334259
20
5.00666757029481
30
0
41
1
10
62.7324804250285
20
5.01403002588714
30
0
41
1
10
62.7241269807313
20
5.0133895786476
30
0
41
1
10
62.7235476206317
20
5.01330668811568
30
0
0
SPLINE
5
D2
100
AcDbEntity
8
1
62
256
6
ByLayer
370
18
48
1
60
0
100
AcDbSpline
70
4
71
3
72
10
73
6
40
0
40
0
40
0
40
0
40
0.386553378318041
40
0.386553378318041
40
1
40
1
40
1
40
1
41
1
10
62.9426576581612
20
5.0245497397224
30
0
41
1
10
62.94684766563
20
5.01667057826251
30
0
41
1
10
62.9509785081369
20
5.00605442955737
30
0
41
1
10
62.9614836384188
20
4.97158918413552
30
0
41
1
10
62.9677497904992
20
4.94362932987406
30
0
41
1
10
62.9740841983877
20
4.90884757024949
30
0
0
SPLINE
5
D3
100
AcDbEntity
8
1
62
256
6
ByLayer
370
18
48
1
60
0
100
AcDbSpline
70
4
71
3
72
14
73
10
40
0
40
0
40
0
40
0
40
0.240731969887198
40
0.240731969887198
40
0.361097954830797
40
0.361097954830797
40
0.481463939774395
40
0.96292787954879
40
1
40
1
40
1
40
1
41
1
10
59.4143385518802
20
-4.47545173736191
30
0
41
1
10
59.4174418393014
20
-4.48753806448033
30
0
41
1
10
59.4205564520688
20
-4.49826879957504
30
0
41
1
10
59.4252559422696
20
-4.51229565280914
30
0
41
1
10
59.4268272480157
20
-4.51662571397199
30
0
41
1
10
59.4299652240896
20
-4.52455361930873
30
0
41
1
10
59.4378077827246
20
-4.54257049446642
30
0
41
1
10
59.4461437434683
20
-4.55224969012843
30
0
41
1
10
59.452953886071
20
-4.55365562578555
30
0
41
1
10
59.453441003381
20
-4.5537231782661
30
0
0
SPLINE
5
D4
100
AcDbEntity
8
1
62
256
6
ByLayer
370
18
48
1
60
0
100
AcDbSpline
70
4
71
3
72
12
73
8
40
0
40
0
40
0
40
0
40
0.085889930712597
40
0.085889930712597
40
0.390593287141731
40
0.695296643570866
40
1
40
1
40
1
40
1
41
1
10
58.6205235513337
20
-4.42040686161874
30
0
41
1
10
58.6184435663139
20
-4.41705130314452
30
0
41
1
10
58.6163567410483
20
-4.41326320891039
30
0
41
1
10
58.6068643437525
20
-4.39412422518811
30
0
41
1
10
58.5919804408872
20
-4.35365835234651
30
0
41
1
10
58.5693825714151
20
-4.26198758889231
30
0
41
1
10
58.5542453943451
20
-4.18034301123794
30
0
41
1
10
58.5467158404008
20
-4.13430812374037
30
0
0
SPLINE
5
D5
100
AcDbEntity
8
1
62
256
6
ByLayer
370
13
48
1
60
0
100
AcDbSpline
70
4
71
3
72
9
73
5
40
0
40
0
40
0
40
0
40
0.240464470855625
40
1
40
1
40
1
40
1
41
1
10
63.4155849645171
20
4.20952758867392
30
0
41
1
10
63.4195727932311
20
4.20290858334644
30
0
41
1
10
63.4361974287421
20
4.1677614387618
30
0
41
1
10
63.4529959599629
20
4.10023906416438
30
0
41
1
10
63.465749906725
20
4.03227902809712
30
0
0
SPLINE
5
D6
100
AcDbEntity
8
1
62
256
6
ByLayer
370
13
48
1
60
0
100
AcDbSpline
70
4
71
3
72
9
73
5
40
0
40
0
40
0
40
0
40
0.574276239381812
40
1
40
1
40
1
40
1
41
1
10
68.5869135015274
20
-4.10842424627876
30
0
41
1
10
68.6020114167152
20
-4.17114351455123
30
0
41
1
10
68.6280918641486
20
-4.23712367045357
30
0
41
1
10
68.6538421299726
20
-4.22725619789583
30
0
41
1
10
68.6647554557333
20
-4.2099033336502
30
0
0
SPLINE
5
D7
100
AcDbEntity
8
1
62
256
6
ByLayer
370
13
48
1
60
0
100
AcDbSpline
70
4
71
3
72
8
73
4
40
0
40
0
40
0
40
0
40
1
40
1
40
1
40
1
41
1.04
10
58.427607001353
20
-3.92127720993201
30
0
41
1.04
10
58.4511262088483
20
-4.07637310938207
30
0
41
1.04
10
58.4744406455261
20
-4.17139073853937
30
0
41
1.04
10
58.4974561817207
20
-4.20839161312444
30
0
0
SPLINE
5
D8
100
AcDbEntity
8
1
62
256
6
ByLayer
370
13
48
1
60
0
100
AcDbSpline
70
4
71
3
72
9
73
5
40
0
40
0
40
0
40
0
40
0.101128534901661
40
1
40
1
40
1
40
1
41
1
10
58.0309405956456
20
-3.7673327497659
30
0
41
1
10
58.0355469669815
20
-3.80444168922244
30
0
41
1
10
58.0810722471759
20
-4.15012296090717
30
0
41
1
10
58.1258768541155
20
-4.27103141245672
30
0
41
1
10
58.1650776539555
20
-4.20933109057674
30
0
0
SPLINE
5
D9
100
AcDbEntity
8
1
62
256
6
ByLayer
370
18
48
1
60
0
100
AcDbSpline
70
4
71
3
72
15
73
11
40
0
40
0
40
0
40
0
40
0.504002395194057
40
0.504002395194057
40
0.756003592791086
40
0.756003592791086
40
0.819003892190343
40
0.819003892190343
40
0.882004191589601
40
1
40
1
40
1
40
1
41
1
10
68.1930724293753
20
-4.57192180007166
30
0
41
1
10
68.211002749163
20
-4.66491503147716
30
0
41
1
10
68.2289567064661
20
-4.73232345894991
30
0
41
1
10
68.2564674523014
20
-4.79509431515186
30
0
41
1
10
68.2656897563213
20
-4.80965607870124
30
0
41
1
10
68.2771977586482
20
-4.81975923356853
30
0
41
1
10
68.2795000610516
20
-4.8213736781137
30
0
41
1
10
68.2840782212461
20
-4.82377380016206
30
0
41
1
10
68.2906225419017
20
-4.826039648473
30
0
41
1
10
68.2970831579018
20
-4.82493862182631
30
0
41
1
10
68.3012727397571
20
-4.82279781887729
30
0
0
SPLINE
5
DA
100
AcDbEntity
8
1
62
256
6
ByLayer
370
18
48
1
60
0
100
AcDbSpline
70
4
71
3
72
15
73
11
40
0
40
0
40
0
40
0
40
0.197590554938446
40
0.465060369958964
40
0.465060369958964
40
0.732530184979482
40
0.732530184979482
40
0.866265092489741
40
0.866265092489741
40
1
40
1
40
1
40
1
41
1
10
67.9514276383411
20
-4.99245979223221
30
0
41
1
10
67.9468791251687
20
-4.98459298108003
30
0
41
1
10
67.9362189792668
20
-4.95745229008406
30
0
41
1
10
67.9256711546878
20
-4.91028485510205
30
0
41
1
10
67.9135504899768
20
-4.84258099830475
30
0
41
1
10
67.9074825907455
20
-4.80198143749874
30
0
41
1
10
67.8983635348495
20
-4.73064493008567
30
0
41
1
10
67.895335272281
20
-4.70522575344324
30
0
41
1
10
67.8893140995534
20
-4.651252787262
30
0
41
1
10
67.88631896481
20
-4.62268151775268
30
0
41
1
10
67.883336287024
20
-4.59253263163114
30
0
0
SPLINE
5
DB
100
AcDbEntity
8
1
62
256
6
ByLayer
370
13
48
1
60
0
100
AcDbSpline
70
4
71
3
72
9
73
5
40
0
40
0
40
0
40
0
40
0.122253703402347
40
1
40
1
40
1
40
1
41
1.04
10
67.3998806806551
20
-3.71138685932929
30
0
41
1.04
10
67.4039454746942
20
-3.74602240288794
30
0
41
1.04
10
67.437043830525
20
-4.01466898675734
30
0
41
1.04
10
67.4689703108101
20
-4.16215703529252
30
0
41
1.04
10
67.4963710599392
20
-4.20776551945624
30
0
0
SPLINE
5
DC
100
AcDbEntity
8
1
62
256
6
ByLayer
370
13
48
1
60
0
100
AcDbSpline
70
4
71
3
72
9
73
5
40
0
40
0
40
0
40
0
40
0.474924881133226
40
1
40
1
40
1
40
1
41
1.04
10
63.7486267721625
20
4.21181678748381
30
0
41
1.04
10
63.7662803974821
20
4.23905354716088
30
0
41
1.04
10
63.8038327668765
20
4.22416872539448
30
0
41
1.04
10
63.8422882432339
20
4.04111591648104
30
0
41
1.04
10
63.8623169020982
20
3.90638409854276
30
0
0
SPLINE
5
DD
100
AcDbEntity
8
1
62
256
6
ByLayer
370
18
48
1
60
0
100
AcDbSpline
70
4
71
3
72
19
73
15
40
0
40
0
40
0
40
0
40
0.169305610548155
40
0.169305610548155
40
0.33861122109631
40
0.33861122109631
40
0.423264026370388
40
0.465590429007426
40
0.465590429007426
40
0.507916831644465
40
0.507916831644465
40
0.677222442192619
40
0.846528052740774
40
1
40
1
40
1
40
1
41
1
10
57.9584703396304
20
-3.82838675826741
30
0
41
1
10
57.9647203651507
20
-3.88619119530659
30
0
41
1
10
57.9709544013144
20
-3.93940074672358
30
0
41
1
10
57.9832058740381
20
-4.03668932234791
30
0
41
1
10
57.9892261058835
20
-4.08076846168802
30
0
41
1
10
57.9982315180148
20
-4.13996996244629
30
0
41
1
10
58.0027277752773
20
-4.16783918760612
30
0
41
1
10
58.0072371308835
20
-4.19307712492966
30
0
41
1
10
58.0102486310208
20
-4.20931236814371
30
0
41
1
10
58.0117586872928
20
-4.21714319455683
30
0
41
1
10
58.0193064063504
20
-4.25470237461815
30
0
41
1
10
58.0313355229063
20
-4.30445993360573
30
0
41
1
10
58.0490024889262
20
-4.34766654384489
30
0
41
1
10
58.060808621974
20
-4.35799760802988
30
0
41
1
10
58.0664694909774
20
-4.35879707861349
30
0
0
SPLINE
5
DE
100
AcDbEntity
8
1
62
256
6
ByLayer
370
18
48
1
60
0
100
AcDbSpline
70
4
71
3
72
41
73
37
40
0
40
0
40
0
40
0
40
0.250000000000428
40
0.250000000000428
40
0.375000000000642
40
0.375000000000642
40
0.437500000000754
40
0.437500000000754
40
0.500000000000866
40
0.500000000000866
40
0.531250000000921
40
0.531250000000921
40
0.562500000000977
40
0.562500000000977
40
0.578125000000995
40
0.578125000000995
40
0.585937500000989
40
0.585937500000989
40
0.589843750000987
40
0.589843750000987
40
0.593750000000984
40
0.593750000000984
40
0.601562500000977
40
0.601562500000977
40
0.609375000000971
40
0.609375000000971
40
0.625000000000937
40
0.625000000000937
40
0.656250000000856
40
0.656250000000856
40
0.687500000000775
40
0.75000000000062
40
0.75000000000062
40
0.87500000000031
40
0.87500000000031
40
1
40
1
40
1
40
1
41
1
10
56.9779652594878
20
-4.18131880338231
30
0
41
1
10
56.9706418842346
20
-4.17145418776283
30
0
41
1
10
56.9628409777181
20
-4.15972176630072
30
0
41
1
10
56.949394995387
20
-4.1387593279745
30
0
41
1
10
56.9446282280031
20
-4.13121951270048
30
0
41
1
10
56.9366204385684
20
-4.11887526446668
30
0
41
1
10
56.9338058996711
20
-4.1145862652894
30
0
41
1
10
56.9276808209452
20
-4.10555391652579
30
0
41
1
10
56.9243912938827
20
-4.1008215243402
30
0
41
1
10
56.9186503605185
20
-4.09315668350075
30
0
41
1
10
56.916602601194
20
-4.09050753924095
30
0
41
1
10
56.9119640988194
20
-4.08487770504425
30
0
41
1
10
56.9094443661048
20
-4.08194159903479
30
0
41
1
10
56.9045347667119
20
-4.07696848687115
30
0
41
1
10
56.9027355895896
20
-4.07522795507094
30
0
41
1
10
56.8992151607875
20
-4.07228290237808
30
0
41
1
10
56.8978733229211
20
-4.07121774807635
30
0
41
1
10
56.895397862266
20
-4.06950808236419
30
0
41
1
10
56.8945001626402
20
-4.06892667569949
30
0
41
1
10
56.8926299573555
20
-4.06782577691919
30
0
41
1
10
56.8916762940731
20
-4.06732044381192
30
0
41
1
10
56.88906820924
20
-4.06608153439541
30
0
41
1
10
56.8876805736164
20
-4.06560570628966
30
0
41
1
10
56.8853878400148
20
-4.06495858316219
30
0
41
1
10
56.8844428247032
20
-4.06477925254768
30
0
41
1
10
56.8818775304683
20
-4.06442903598096
30
0
41
1
10
56.8805769957813
20
-4.0644519292093
30
0
41
1
10
56.87708628481
20
-4.06476455317829
30
0
41
1
10
56.8753533778557
20
-4.06533094907351
30
0
41
1
10
56.8722945089801
20
-4.06665486205998
30
0
41
1
10
56.8684211338867
20
-4.06899200194417
30
0
41
1
10
56.8656739637277
20
-4.07177011753512
30
0
41
1
10
56.8608498530929
20
-4.07741320177121
30
0
41
1
10
56.8585437829951
20
-4.08130140272377
30
0
41
1
10
56.8546576062619
20
-4.08865277529313
30
0
41
1
10
56.8531166090151
20
-4.09214280317073
30
0
41
1
10
56.8518065781489
20
-4.09534714297075
30
0
0
SPLINE
5
DF
100
AcDbEntity
8
1
62
256
6
ByLayer
370
18
48
1
60
0
100
AcDbSpline
70
4
71
3
72
21
73
17
40
0
40
0
40
0
40
0
40
0.166861361777166
40
0.166861361777166
40
0.333722723554332
40
0.500584085331497
40
0.500584085331497
40
0.542299425775789
40
0.542299425775789
40
0.584014766220081
40
0.584014766220081
40
0.667445447108663
40
0.667445447108663
40
0.834306808885828
40
0.834306808885828
40
1
40
1
40
1
40
1
41
1
10
64.390106200519
20
4.32794702360621
30
0
41
1
10
64.383032382443
20
4.4095794862416
30
0
41
1
10
64.3761699116039
20
4.48451983589379
30
0
41
1
10
64.3623209636966
20
4.62137272474189
30
0
41
1
10
64.3483458511798
20
4.7451964396852
30
0
41
1
10
64.3335886901164
20
4.84302822221093
30
0
41
1
10
64.3241184315799
20
4.89586932546905
30
0
41
1
10
64.32221264926
20
4.90602150310824
30
0
41
1
10
64.3183801477103
20
4.92548577075573
30
0
41
1
10
64.3164512020108
20
4.93480790740787
30
0
41
1
10
64.3106549720198
20
4.96142504898916
30
0
41
1
10
64.3067863009318
20
4.97733753441378
30
0
41
1
10
64.2952325493345
20
5.01968546449396
30
0
41
1
10
64.2876393521842
20
5.04074304390096
30
0
41
1
10
64.2729014091444
20
5.0686899805456
30
0
41
1
10
64.2657093315313
20
5.07567661950568
30
0
41
1
10
64.2585707928698
20
5.07568685038819
30
0
0
SPLINE
5
E0
100
AcDbEntity
8
1
62
256
6
ByLayer
370
18
48
1
60
0
100
AcDbSpline
70
4
71
3
72
25
73
21
40
0
40
0
40
0
40
0
40
0.0977361197100174
40
0.0977361197100174
40
0.142849313724517
40
0.142849313724517
40
0.187962507739016
40
0.187962507739016
40
0.278188895768014
40
0.278188895768014
40
0.458641671826011
40
0.458641671826011
40
0.639094447884007
40
0.639094447884007
40
0.819547223942004
40
0.819547223942004
40
0.864660417956503
40
0.864660417956503
40
0.909773611971002
40
1
40
1
40
1
40
1
41
1
10
64.4192650306663
20
5.06194309880982
30
0
41
1
10
64.4231943350151
20
5.0557666930327
30
0
41
1
10
64.4271503589891
20
5.04749753539048
30
0
41
1
10
64.4329817953471
20
5.03231600238891
30
0
41
1
10
64.4348304918865
20
5.02706938069613
30
0
41
1
10
64.4385428670106
20
5.01566313240065
30
0
41
1
10
64.4404085224352
20
5.00949639977867
30
0
41
1
10
64.4460146811665
20
4.98966193737891
30
0
41
1
10
64.4497538780369
20
4.97470258911028
30
0
41
1
10
64.4609755314577
20
4.9247171802765
30
0
41
1
10
64.468465080738
20
4.88459451265698
30
0
41
1
10
64.4833863421343
20
4.79101920152203
30
0
41
1
10
64.4907988557457
20
4.73756582035588
30
0
41
1
10
64.5055170426069
20
4.61725665420448
30
0
41
1
10
64.5128343101326
20
4.55040203099961
30
0
41
1
10
64.5219947866656
20
4.45819896804269
30
0
41
1
10
64.5238291061806
20
4.43930974922426
30
0
41
1
10
64.5274881969871
20
4.40079437160259
30
0
41
1
10
64.5329660095797
20
4.34188239506707
30
0
41
1
10
64.5384199735739
20
4.27956955055478
30
0
41
1
10
64.5420528844465
20
4.2365211647558
30
0
0
SPLINE
5
E1
100
AcDbEntity
8
1
62
256
6
ByLayer
370
18
48
1
60
0
100
AcDbSpline
70
4
71
3
72
8
73
4
40
0
40
0
40
0
40
0
40
1
40
1
40
1
40
1
41
1
10
64.9137556747266
20
4.20994990432396
30
0
41
1
10
64.9170259138716
20
4.20500727254981
30
0
41
1
10
64.9202881664858
20
4.19890947843146
30
0
41
1
10
64.9235425755165
20
4.19167671837937
30
0
0
SPLINE
5
E2
100
AcDbEntity
8
1
62
256
6
ByLayer
370
13
48
1
60
0
100
AcDbSpline
70
4
71
3
72
9
73
5
40
0
40
0
40
0
40
0
40
0.399831860862856
40
1
40
1
40
1
40
1
41
1
10
64.9235425755165
20
4.19167671837934
30
0
41
1
10
64.9407864662228
20
4.15335304035776
30
0
41
1
10
64.9833635604465
20
3.97780844442701
30
0
41
1
10
65.024696190791
20
3.62173583474677
30
0
41
1
10
65.0492537528895
20
3.35725393807684
30
0
0
SPLINE
5
E3
100
AcDbEntity
8
1
62
256
6
ByLayer
370
13
48
1
60
0
100
AcDbSpline
70
4
71
3
72
9
73
5
40
0
40
0
40
0
40
0
40
0.216802921654441
40
1
40
1
40
1
40
1
41
1
10
67.0034824389019
20
-3.52094022957047
30
0
41
1
10
67.0149509571513
20
-3.63375869887963
30
0
41
1
10
67.067140237786
20
-4.09149870219773
30
0
41
1
10
67.1164601746738
20
-4.25225788564407
30
0
41
1
10
67.1540901606294
20
-4.22215208484621
30
0
0
SPLINE
5
E4
100
AcDbEntity
8
1
62
256
6
ByLayer
370
18
48
1
60
0
100
AcDbSpline
70
4
71
3
72
27
73
23
40
0
40
0
40
0
40
0
40
0.124999999999999
40
0.249999999999999
40
0.249999999999999
40
0.374999999999998
40
0.374999999999998
40
0.406249999999998
40
0.406249999999998
40
0.437499999999998
40
0.437499999999998
40
0.499999999999998
40
0.499999999999998
40
0.624999999999999
40
0.749999999999999
40
0.749999999999999
40
0.875
40
0.875
40
0.90625
40
0.90625
40
0.9375
40
1
40
1
40
1
40
1
41
1
10
66.477316233509
20
-3.77435859084977
30
0
41
1
10
66.484532490383
20
-3.878845825257
30
0
41
1
10
66.4989279204851
20
-4.07567521054563
30
0
41
1
10
66.513490097527
20
-4.2488813204948
30
0
41
1
10
66.528193435792
20
-4.41030921897311
30
0
41
1
10
66.5356169272032
20
-4.48513456623544
30
0
41
1
10
66.5449650883475
20
-4.57114059582338
30
0
41
1
10
66.5468378658778
20
-4.58796476165821
30
0
41
1
10
66.5505880571019
20
-4.62085176457296
30
0
41
1
10
66.55246746991
20
-4.63693071074536
30
0
41
1
10
66.5580987756487
20
-4.68389798431056
30
0
41
1
10
66.5618324552841
20
-4.71342813526095
30
0
41
1
10
66.57297526537
20
-4.79677853741794
30
0
41
1
10
66.5876739526523
20
-4.89396126772087
30
0
41
1
10
66.6021693676113
20
-4.96378844085277
30
0
41
1
10
66.6166535681506
20
-5.01986531668541
30
0
41
1
10
66.6238905354862
20
-5.04102963416054
30
0
41
1
10
66.6329988950056
20
-5.05862519699554
30
0
41
1
10
66.6348252085413
20
-5.06170199747245
30
0
41
1
10
66.6384731143085
20
-5.06694113431368
30
0
41
1
10
66.643941144987
20
-5.07343638512779
30
0
41
1
10
66.6494053558274
20
-5.07586009983783
30
0
41
1
10
66.6530526023374
20
-5.07567218480037
30
0
0
SPLINE
5
E5
100
AcDbEntity
8
1
62
256
6
ByLayer
370
18
48
1
60
0
100
AcDbSpline
70
4
71
3
72
27
73
23
40
0
40
0
40
0
40
0
40
0.0573657548202136
40
0.0573657548202136
40
0.192027789845896
40
0.326689824871579
40
0.326689824871579
40
0.360355333628
40
0.360355333628
40
0.394020842384421
40
0.394020842384421
40
0.461351859897264
40
0.461351859897264
40
0.596013894922948
40
0.730675929948632
40
0.730675929948632
40
0.865337964974315
40
0.865337964974315
40
0.899003473730736
40
0.899003473730736
40
0.932668982487157
40
1
40
1
40
1
40
1
41
1
10
66.4893935523106
20
-5.05790878519295
30
0
41
1
10
66.4861951447095
20
-5.05237574870179
30
0
41
1
10
66.4830079919479
20
-5.04556276045599
30
0
41
1
10
66.4723977207734
20
-5.01852326920377
30
0
41
1
10
66.4576913411761
20
-4.96665896228339
30
0
41
1
10
66.4431685268954
20
-4.88698828223329
30
0
41
1
10
66.4340812567684
20
-4.82830682172951
30
0
41
1
10
66.43226322662
20
-4.8161252683918
30
0
41
1
10
66.4286241342541
20
-4.79086299406276
30
0
41
1
10
66.4268009649097
20
-4.77776647414058
30
0
41
1
10
66.4213397088376
20
-4.73723039655218
30
0
41
1
10
66.4177175935245
20
-4.70860735459024
30
0
41
1
10
66.4068841494718
20
-4.61803460101163
30
0
41
1
10
66.3925259665792
20
-4.48474750791698
30
0
41
1
10
66.3781212553681
20
-4.32690805504743
30
0
41
1
10
66.363605948637
20
-4.15672781705194
30
0
41
1
10
66.3562929410375
20
-4.06546845387294
30
0
41
1
10
66.3470443365297
20
-3.94344275515371
30
0
41
1
10
66.3451879536402
20
-3.91862025016033
30
0
41
1
10
66.3414777747804
20
-3.86835865377023
30
0
41
1
10
66.3359122542431
20
-3.7919875365836
30
0
41
1
10
66.3303439706452
20
-3.71269490241889
30
0
41
1
10
66.3266299084539
20
-3.6585398227499
30
0
0
SPLINE
5
E6
100
AcDbEntity
8
1
62
256
6
ByLayer
370
13
48
1
60
0
100
AcDbSpline
70
4
71
3
72
8
73
4
40
0
40
0
40
0
40
0
40
1
40
1
40
1
40
1
41
1.04
10
65.8166427203712
20
-2.79629910957807
30
0
41
1.04
10
65.8684581469711
20
-3.48440138500279
30
0
41
1.04
10
65.9201482649273
20
-3.97311192353632
30
0
41
1.04
10
65.9737229920591
20
-4.15137080454576
30
0
0
SPLINE
5
E7
100
AcDbEntity
8
1
62
256
6
ByLayer
370
18
48
1
60
0
100
AcDbSpline
70
4
71
3
72
24
73
20
40
0
40
0
40
0
40
0
40
0.125
40
0.125
40
0.1875
40
0.1875
40
0.25
40
0.25
40
0.375
40
0.5
40
0.5
40
0.624999999999999
40
0.624999999999999
40
0.656249999999999
40
0.656249999999999
40
0.687499999999999
40
0.749999999999999
40
0.749999999999999
40
1
40
1
40
1
40
1
41
1
10
57.4720764890357
20
3.84797785063893
30
0
41
1
10
57.4780869102119
20
3.79748402107845
30
0
41
1
10
57.4841577577979
20
3.74244723398229
30
0
41
1
10
57.4934012134423
20
3.65287011504407
30
0
41
1
10
57.4964874619922
20
3.62200842324421
30
0
41
1
10
57.5026619655843
20
3.55843431315981
30
0
41
1
10
57.5057522027166
20
3.52570268657428
30
0
41
1
10
57.5150343518181
20
3.4247124369532
30
0
41
1
10
57.5274433496971
20
3.2826141493303
30
0
41
1
10
57.5398876938305
20
3.12579355335018
30
0
41
1
10
57.5522937354567
20
2.96153890255539
30
0
41
1
10
57.5584704749243
20
2.87569401924299
30
0
41
1
10
57.5661261998024
20
2.76359693895441
30
0
41
1
10
57.5676560411588
20
2.74092232812376
30
0
41
1
10
57.5706990623714
20
2.69529999815811
30
0
41
1
10
57.5752434334716
20
2.62638689758276
30
0
41
1
10
57.5797364397684
20
2.55604976246806
30
0
41
1
10
57.5946370752726
20
2.31847730914529
30
0
41
1
10
57.6063255110965
20
2.11851336324105
30
0
41
1
10
57.6181812379931
20
1.90875222738489
30
0
0
SPLINE
5
E8
100
AcDbEntity
8
1
62
256
6
ByLayer
370
18
48
1
60
0
100
AcDbSpline
70
4
71
3
72
108
73
104
40
0
40
0
40
0
40
0
40
0.0156249999999977
40
0.0156249999999977
40
0.0312499999999954
40
0.0312499999999954
40
0.0624999999999877
40
0.0624999999999877
40
0.124999999999976
40
0.124999999999976
40
0.156249999999971
40
0.156249999999971
40
0.164062499999971
40
0.164062499999971
40
0.171874999999971
40
0.187499999999974
40
0.187499999999974
40
0.21874999999998
40
0.21874999999998
40
0.249999999999986
40
0.249999999999986
40
0.281249999999992
40
0.281249999999992
40
0.296874999999997
40
0.296874999999997
40
0.312500000000002
40
0.312500000000002
40
0.343750000000011
40
0.343750000000011
40
0.375000000000021
40
0.375000000000021
40
0.406250000000031
40
0.406250000000031
40
0.414062500000034
40
0.414062500000034
40
0.421875000000038
40
0.421875000000038
40
0.437500000000045
40
0.437500000000045
40
0.468750000000058
40
0.468750000000058
40
0.476562500000061
40
0.476562500000061
40
0.484375000000063
40
0.484375000000063
40
0.500000000000065
40
0.500000000000065
40
0.515625000000067
40
0.515625000000067
40
0.531250000000069
40
0.531250000000069
40
0.539062500000068
40
0.539062500000068
40
0.546875000000068
40
0.546875000000068
40
0.562500000000064
40
0.562500000000064
40
0.570312500000064
40
0.570312500000064
40
0.574218750000063
40
0.574218750000063
40
0.578125000000063
40
0.59375000000006
40
0.59375000000006
40
0.601562500000059
40
0.601562500000059
40
0.605468750000058
40
0.605468750000058
40
0.609375000000057
40
0.609375000000057
40
0.625000000000054
40
0.625000000000054
40
0.640625000000051
40
0.640625000000051
40
0.64843750000005
40
0.64843750000005
40
0.656250000000049
40
0.656250000000049
40
0.671875000000047
40
0.671875000000047
40
0.687500000000045
40
0.687500000000045
40
0.695312500000045
40
0.695312500000045
40
0.703125000000045
40
0.703125000000045
40
0.718750000000043
40
0.718750000000043
40
0.750000000000039
40
0.750000000000039
40
0.781250000000035
40
0.781250000000035
40
0.81250000000003
40
0.81250000000003
40
0.828125000000028
40
0.828125000000028
40
0.843750000000026
40
0.843750000000026
40
0.875000000000022
40
0.875000000000022
40
0.937500000000011
40
0.937500000000011
40
1
40
1
40
1
40
1
41
1
10
44.346064277078
20
3.81638198242837
30
0
41
1
10
44.3040105716977
20
3.82560730146551
30
0
41
1
10
44.2617593450016
20
3.83423847274236
30
0
41
1
10
44.1766507432222
20
3.85031060176701
30
0
41
1
10
44.1338161458759
20
3.85775992075639
30
0
41
1
10
44.0043989480582
20
3.87843819277819
30
0
41
1
10
43.9169086957523
20
3.88999775203985
30
0
41
1
10
43.65023608008
20
3.91877181394432
30
0
41
1
10
43.4668904965706
20
3.93005671392518
30
0
41
1
10
43.1808221657865
20
3.93861226014388
30
0
41
1
10
43.0835972569424
20
3.94007370666088
30
0
41
1
10
42.9593848516718
20
3.94058138491448
30
0
41
1
10
42.9343886849318
20
3.94061702996348
30
0
41
1
10
42.8842759776095
20
3.94056810664003
30
0
41
1
10
42.8088927556214
20
3.94031483924843
30
0
41
1
10
42.7328468012977
20
3.93958085198602
30
0
41
1
10
42.57982470466
20
3.93762671577704
30
0
41
1
10
42.4765655776586
20
3.93567805019063
30
0
41
1
10
42.2673055924615
20
3.93128328946832
30
0
41
1
10
42.1613150943068
20
3.92883302547185
30
0
41
1
10
41.9460234590819
20
3.92424661793655
30
0
41
1
10
41.8367240817754
20
3.92211450598634
30
0
41
1
10
41.6698197055575
20
3.91971526579076
30
0
41
1
10
41.6136841817536
20
3.91901460294037
30
0
41
1
10
41.5016866216974
20
3.91782355210492
30
0
41
1
10
41.4457291002717
20
3.91733338671403
30
0
41
1
10
41.2779646383366
20
3.9161660283641
30
0
41
1
10
41.1662579789747
20
3.91577202880779
30
0
41
1
10
40.9431631787464
20
3.91594676275946
30
0
41
1
10
40.8317732294314
20
3.91651225887711
30
0
41
1
10
40.6093451018805
20
3.91860353464571
30
0
41
1
10
40.4983050939659
20
3.92012779841292
30
0
41
1
10
40.3597609148218
20
3.92252627469577
30
0
41
1
10
40.3320651031297
20
3.92303047032553
30
0
41
1
10
40.2767006854858
20
3.92408222542562
30
0
41
1
10
40.2490096269903
20
3.9246302933289
30
0
41
1
10
40.1663847355646
20
3.92632156409354
30
0
41
1
10
40.1117808981536
20
3.92751446108113
30
0
41
1
10
39.9495838578078
20
3.93118563188767
30
0
41
1
10
39.843561272874
20
3.93377472898467
30
0
41
1
10
39.714392025561
20
3.9365440103584
30
0
41
1
10
39.6887061827036
20
3.93707303502441
30
0
41
1
10
39.6377928273055
20
3.9380536681247
30
0
41
1
10
39.6126790829195
20
3.93850309478566
30
0
41
1
10
39.5384150194739
20
3.9396885255245
30
0
41
1
10
39.4903391138591
20
3.94026407701148
30
0
41
1
10
39.3973693824174
20
3.94072154860811
30
0
41
1
10
39.3524787699966
20
3.94060475493023
30
0
41
1
10
39.2663182951786
20
3.93932337955187
30
0
41
1
10
39.2250299983164
20
3.93816156010522
30
0
41
1
10
39.166268350616
20
3.93526367782795
30
0
41
1
10
39.1471569293304
20
3.93409741899961
30
0
41
1
10
39.1106624694916
20
3.93134290416668
30
0
41
1
10
39.0932183685468
20
3.92975330611716
30
0
41
1
10
39.0433419142973
20
3.92426704876505
30
0
41
1
10
39.0133606973426
20
3.91965584528106
30
0
41
1
10
38.973557232723
20
3.91094143055133
30
0
41
1
10
38.9611519293742
20
3.90773634750536
30
0
41
1
10
38.9438820855814
20
3.90242512936277
30
0
41
1
10
38.9383509951369
20
3.90057057997473
30
0
41
1
10
38.9278304748894
20
3.89671988568199
30
0
41
1
10
38.9028201639848
20
3.88672019425724
30
0
41
1
10
38.8841244463095
20
3.87481653075363
30
0
41
1
10
38.8673704300056
20
3.85854985030159
30
0
41
1
10
38.8626348086989
20
3.85280219896859
30
0
41
1
10
38.8570371866136
20
3.84365944401449
30
0
41
1
10
38.8554247242957
20
3.84052479508583
30
0
41
1
10
38.8527507897821
20
3.83407477288677
30
0
41
1
10
38.851688002372
20
3.83075032168387
30
0
41
1
10
38.8478831518125
20
3.8138073365651
30
0
41
1
10
38.8496783297195
20
3.79920501866425
30
0
41
1
10
38.8630454463571
20
3.76805776534414
30
0
41
1
10
38.8742888197546
20
3.75150368815721
30
0
41
1
10
38.8962728228422
20
3.72522266916002
30
0
41
1
10
38.9044822158915
20
3.71621496269267
30
0
41
1
10
38.922205075671
20
3.69796726827909
30
0
41
1
10
38.9317431626215
20
3.68869655319179
30
0
41
1
10
38.962101351022
20
3.66044858836409
30
0
41
1
10
38.9846519635076
20
3.6410356715393
30
0
41
1
10
39.0333122735427
20
3.60107140015447
30
0
41
1
10
39.0594370728613
20
3.58052150210838
30
0
41
1
10
39.1008089749732
20
3.54886338676064
30
0
41
1
10
39.1149654641355
20
3.53817169046232
30
0
41
1
10
39.1439431514699
20
3.51651219003884
30
0
41
1
10
39.1587742266308
20
3.50553740432528
30
0
41
1
10
39.2039342247013
20
3.4723780512542
30
0
41
1
10
39.235001242069
20
3.44990180705224
30
0
41
1
10
39.3305091582255
20
3.38135190798934
30
0
41
1
10
39.3972275290756
20
3.33415770400342
30
0
41
1
10
39.5347918186952
20
3.23670954378005
30
0
41
1
10
39.6056554622185
20
3.18645567769309
30
0
41
1
10
39.7503712832512
20
3.08279710798709
30
0
41
1
10
39.8242279651988
20
3.02939025962331
30
0
41
1
10
39.9367620698608
20
2.94686334523661
30
0
41
1
10
39.9745983923674
20
2.91892652367736
30
0
41
1
10
40.0504858381267
20
2.86245802326411
30
0
41
1
10
40.0885662735901
20
2.83390521977867
30
0
41
1
10
40.2031370092148
20
2.74727496483757
30
0
41
1
10
40.2799534533868
20
2.68822609760699
30
0
41
1
10
40.5112054731032
20
2.507045467605
30
0
41
1
10
40.6664005032943
20
2.38087584519695
30
0
41
1
10
40.9772816587401
20
2.11690416322054
30
0
41
1
10
41.1329673592255
20
1.97909153468279
30
0
41
1
10
41.2886027959283
20
1.83496587362265
30
0
0
SPLINE
5
E9
100
AcDbEntity
8
1
62
256
6
ByLayer
370
13
48
1
60
0
100
AcDbSpline
70
4
71
3
72
9
73
5
40
0
40
0
40
0
40
0
40
0.572533932902828
40
1
40
1
40
1
40
1
41
1
10
57.5031535601759
20
3.7860329587879
30
0
41
1
10
57.5336234979539
20
3.54623525358286
30
0
41
1
10
57.586183129933
20
2.97341431175533
30
0
41
1
10
57.6377524283087
20
2.20773010827804
30
0
41
1
10
57.6596841660203
20
1.85858131555369
30
0
0
SPLINE
5
EA
100
AcDbEntity
8
1
62
256
6
ByLayer
370
13
48
1
60
0
100
AcDbSpline
70
4
71
3
72
9
73
5
40
0
40
0
40
0
40
0
40
0.376045025043174
40
1
40
1
40
1
40
1
41
1.04
10
65.2890010848817
20
4.21069447203781
30
0
41
1.04
10
65.3093688181797
20
4.18058789460216
30
0
41
1.04
10
65.3627084497198
20
3.98131803600733
30
0
41
1.04
10
65.4141029527727
20
3.49921538122555
30
0
41
1.04
10
65.4458511366217
20
3.11946571310627
30
0
0
SPLINE
5
EB
100
AcDbEntity
8
1
62
256
6
ByLayer
370
18
48
1
60
0
100
AcDbSpline
70
4
71
3
72
26
73
22
40
0
40
0
40
0
40
0
40
0.125
40
0.25
40
0.375
40
0.375
40
0.40625
40
0.40625
40
0.4375
40
0.4375
40
0.5
40
0.5
40
0.625
40
0.75
40
0.75
40
0.875000000000001
40
0.875000000000001
40
0.906250000000001
40
0.906250000000001
40
0.9375
40
1
40
1
40
1
40
1
41
1
10
65.9742606066229
20
3.15650753407579
30
0
41
1
10
65.9669578081294
20
3.27890311705349
30
0
41
1
10
65.9524287842765
20
3.5130613939057
30
0
41
1
10
65.9305662187491
20
3.83326857104015
30
0
41
1
10
65.9158280456041
20
4.02610786934491
30
0
41
1
10
65.9065477308144
20
4.14003840258306
30
0
41
1
10
65.904688279682
20
4.16249414165191
30
0
41
1
10
65.9009623640342
20
4.2067384715358
30
0
41
1
10
65.8990938076088
20
4.22855093972751
30
0
41
1
10
65.8934927061089
20
4.29280095554975
30
0
41
1
10
65.8897736949193
20
4.33395253153353
30
0
41
1
10
65.8786609560084
20
4.45245991825459
30
0
41
1
10
65.8639614089453
20
4.59729792461471
30
0
41
1
10
65.8495039991358
20
4.71630643231808
30
0
41
1
10
65.8351636218025
20
4.82232960678871
30
0
41
1
10
65.8280660511272
20
4.86884959173099
30
0
41
1
10
65.8191269772802
20
4.91862882340885
30
0
41
1
10
65.8173343763518
20
4.92817165342169
30
0
41
1
10
65.8137520394149
20
4.94634408003589
30
0
41
1
10
65.8083791171592
20
4.97225574666894
30
0
41
1
10
65.8029937274274
20
4.99414639159949
30
0
41
1
10
65.7993881414837
20
5.00696000837686
30
0
0
SPLINE
5
EC
100
AcDbEntity
8
1
62
256
6
ByLayer
370
18
48
1
60
0
100
AcDbSpline
70
4
71
3
72
28
73
24
40
0
40
0
40
0
40
0
40
0.125
40
0.125
40
0.249999999999999
40
0.374999999999999
40
0.374999999999999
40
0.406249999999998
40
0.406249999999998
40
0.437499999999998
40
0.437499999999998
40
0.499999999999998
40
0.499999999999998
40
0.624999999999998
40
0.624999999999998
40
0.749999999999999
40
0.749999999999999
40
0.874999999999999
40
0.874999999999999
40
0.90625
40
0.90625
40
0.9375
40
1
40
1
40
1
40
1
41
1
10
65.9498495501919
20
4.97667164355155
30
0
41
1
10
65.95704272216
20
4.94594124048984
30
0
41
1
10
65.9641812457252
20
4.90835483705402
30
0
41
1
10
65.9785064384496
20
4.81985432777799
30
0
41
1
10
65.9928803675861
20
4.71802442361286
30
0
41
1
10
66.0075673118333
20
4.58961970532204
30
0
41
1
10
66.0168742481035
20
4.50087734498572
30
0
41
1
10
66.0187418302309
20
4.4827035209301
30
0
41
1
10
66.0224893866761
20
4.44549696764625
30
0
41
1
10
66.0243713152279
20
4.42644398399941
30
0
41
1
10
66.0300213085501
20
4.36812598194996
30
0
41
1
10
66.0337825339448
20
4.32782185191195
30
0
41
1
10
66.0450381916763
20
4.20271628038623
30
0
41
1
10
66.0525077260154
20
4.11373056908417
30
0
41
1
10
66.0672442148224
20
3.92481163032968
30
0
41
1
10
66.0744789067673
20
3.82487697027031
30
0
41
1
10
66.0888339316859
20
3.6140032588377
30
0
41
1
10
66.0959636331776
20
3.50306532091491
30
0
41
1
10
66.1049436173817
20
3.35730690052378
30
0
41
1
10
66.1067444291635
20
3.32777564207993
30
0
41
1
10
66.1103430444273
20
3.26820669563261
30
0
41
1
10
66.1157397516585
20
3.17804040465484
30
0
41
1
10
66.1211453790999
20
3.08544719752277
30
0
41
1
10
66.1247624837029
20
3.02264361617026
30
0
0
SPLINE
5
ED
100
AcDbEntity
8
1
62
256
6
ByLayer
370
13
48
1
60
0
100
AcDbSpline
70
4
71
3
72
9
73
5
40
0
40
0
40
0
40
0
40
0.491226681890883
40
1
40
1
40
1
40
1
41
1
10
66.4758028937705
20
3.97651106248668
30
0
41
1
10
66.5022783252338
20
3.81759854408199
30
0
41
1
10
66.555313994378
20
3.35136514436789
30
0
41
1
10
66.6068641231062
20
2.65943516587802
30
0
41
1
10
66.6326831163131
20
2.27395693188623
30
0
0
SPLINE
5
EE
100
AcDbEntity
8
1
62
256
6
ByLayer
370
18
48
1
60
0
100
AcDbSpline
70
4
71
3
72
10
73
6
40
0
40
0
40
0
40
0
40
0.5
40
0.5
40
1
40
1
40
1
40
1
41
1
10
71.6143995515769
20
-2.0669589847943
30
0
41
1
10
71.612086024966
20
-1.98825398780025
30
0
41
1
10
71.6096983138746
20
-1.90807273572847
30
0
41
1
10
71.6048611284654
20
-1.74475741777917
30
0
41
1
10
71.6024179674423
20
-1.66183915036674
30
0
41
1
10
71.5999730839549
20
-1.57765057549634
30
0
0
SPLINE
5
EF
100
AcDbEntity
8
1
62
256
6
ByLayer
370
18
48
1
60
0
100
AcDbSpline
70
4
71
3
72
10
73
6
40
0
40
0
40
0
40
0
40
0.130302688448038
40
0.590343293810127
40
1
40
1
40
1
40
1
41
1
10
72
20
-0.0244053229629628
30
0
41
1
10
72.0000000000001
20
-0.119104829831969
30
0
41
1
10
72.0000000000001
20
-0.5489807234529
30
0
41
1
10
71.9999999999999
20
-1.27406253995417
30
0
41
1
10
72
20
-1.84975194801899
30
0
41
1
10
72
20
-2.100514265762
30
0
0
SPLINE
5
F0
100
AcDbEntity
8
1
62
256
6
ByLayer
370
13
48
1
60
0
100
AcDbSpline
70
4
71
3
72
9
73
5
40
0
40
0
40
0
40
0
40
0.4323191268353
40
1
40
1
40
1
40
1
41
1.04
10
57.8997113543412
20
3.60781582467644
30
0
41
1.04
10
57.9226960595644
20
3.39629641348695
30
0
41
1.04
10
57.9753760690051
20
2.79726699445888
30
0
41
1.04
10
58.027056012683
20
2.00233173149125
30
0
41
1.04
10
58.0562344244339
20
1.51972812485736
30
0
0
SPLINE
5
F1
100
AcDbEntity
8
1
62
256
6
ByLayer
370
18
48
1
60
0
100
AcDbSpline
70
4
71
3
72
25
73
21
40
0
40
0
40
0
40
0
40
0.124999999999999
40
0.124999999999999
40
0.187499999999999
40
0.187499999999999
40
0.25
40
0.25
40
0.375
40
0.375
40
0.5
40
0.5
40
0.625
40
0.625
40
0.65625
40
0.65625
40
0.6875
40
0.75
40
0.75
40
1
40
1
40
1
40
1
41
1
10
70.1490781471734
20
-0.8505921316833
30
0
41
1
10
70.1419466565924
20
-0.738291435712114
30
0
41
1
10
70.1348503199389
20
-0.625199732658814
30
0
41
1
10
70.124271958872
20
-0.454379283099797
30
0
41
1
10
70.1207699765847
20
-0.39744082623352
30
0
41
1
10
70.1138207211984
20
-0.283742304816116
30
0
41
1
10
70.1103710296988
20
-0.226953686561274
30
0
41
1
10
70.1000751080071
20
-0.0567685053697744
30
0
41
1
10
70.0932835230536
20
0.0564478575049634
30
0
41
1
10
70.0796892304918
20
0.282394349256748
30
0
41
1
10
70.0728815387283
20
0.395123961981255
30
0
41
1
10
70.0590750194928
20
0.620078761536803
30
0
41
1
10
70.0520938943554
20
0.732305877364553
30
0
41
1
10
70.0432888517592
20
0.872272118261947
30
0
41
1
10
70.041521935019
20
0.900279165679137
30
0
41
1
10
70.0379900812868
20
0.956104222487284
30
0
41
1
10
70.0326981486974
20
1.03951279360061
30
0
41
1
10
70.0274239595601
20
1.12194392455717
30
0
41
1
10
70.009879033962
20
1.39456960469508
30
0
41
1
10
69.9959091682547
20
1.60584453763357
30
0
41
1
10
69.9820395003671
20
1.8102305622561
30
0
0
SPLINE
5
F2
100
AcDbEntity
8
1
62
256
6
ByLayer
370
18
48
1
60
0
100
AcDbSpline
70
4
71
3
72
37
73
33
40
0
40
0
40
0
40
0
40
0.0312499999999705
40
0.0312499999999705
40
0.062499999999941
40
0.062499999999941
40
0.0781249999999397
40
0.0781249999999397
40
0.0937499999999384
40
0.0937499999999384
40
0.101562499999938
40
0.101562499999938
40
0.109374999999937
40
0.109374999999937
40
0.117187499999936
40
0.117187499999936
40
0.124999999999936
40
0.124999999999936
40
0.140624999999936
40
0.140624999999936
40
0.156249999999936
40
0.187499999999937
40
0.187499999999937
40
0.249999999999939
40
0.249999999999939
40
0.374999999999949
40
0.374999999999949
40
0.49999999999996
40
0.49999999999996
40
0.74999999999998
40
0.74999999999998
40
1
40
1
40
1
40
1
41
1
10
71.599973083955
20
-1.57765057550932
30
0
41
1
10
71.5982512024597
20
-1.57192363751634
30
0
41
1
10
71.5964336784754
20
-1.56621650905225
30
0
41
1
10
71.5924697013501
20
-1.5548769824525
30
0
41
1
10
71.5903361485497
20
-1.54924079917967
30
0
41
1
10
71.5866177557209
20
-1.54095775086998
30
0
41
1
10
71.5852923338724
20
-1.53822759841793
30
0
41
1
10
71.5823175314507
20
-1.53290729017425
30
0
41
1
10
71.5806850964806
20
-1.53029875648542
30
0
41
1
10
71.5776708879895
20
-1.5267830922873
30
0
41
1
10
71.5765630059043
20
-1.52567024884331
30
0
41
1
10
71.5740021034719
20
-1.52385984540024
30
0
41
1
10
71.5724879815218
20
-1.52316356377162
30
0
41
1
10
71.5693553308022
20
-1.523008571785
30
0
41
1
10
71.567826309544
20
-1.52358767757428
30
0
41
1
10
71.5653548707364
20
-1.5253002281998
30
0
41
1
10
71.5643296881202
20
-1.52641008371333
30
0
41
1
10
71.5616488089438
20
-1.52989924569044
30
0
41
1
10
71.5603112882535
20
-1.53250487542985
30
0
41
1
10
71.5579422475072
20
-1.53782665961452
30
0
41
1
10
71.5549479994724
20
-1.54596595600356
30
0
41
1
10
71.5527826761512
20
-1.55433116926406
30
0
41
1
10
71.5489153208859
20
-1.57117820736488
30
0
41
1
10
71.5469743822631
20
-1.5825663116417
30
0
41
1
10
71.5418855835983
20
-1.61667132872924
30
0
41
1
10
71.5395030122511
20
-1.63945707170271
30
0
41
1
10
71.5354264127169
20
-1.68494538075862
30
0
41
1
10
71.5337888638044
20
-1.70765925033123
30
0
41
1
10
71.5295384047995
20
-1.77560212782913
30
0
41
1
10
71.5275850832421
20
-1.82054395705603
30
0
41
1
10
71.5245112572723
20
-1.90965515543124
30
0
41
1
10
71.5234199760051
20
-1.95382664976643
30
0
41
1
10
71.5226184282292
20
-1.99760117670652
30
0
0
SPLINE
5
F3
100
AcDbEntity
8
1
62
256
6
ByLayer
370
18
48
1
60
0
100
AcDbSpline
70
4
71
3
72
10
73
6
40
0
40
0
40
0
40
0
40
0.292121102467469
40
0.854899470624076
40
1
40
1
40
1
40
1
41
1
10
71.5999730839549
20
-1.57765057549636
30
0
41
1
10
71.5999649643612
20
-1.39832781279446
30
0
41
1
10
71.5999375273659
20
-0.858319261105464
30
0
41
1
10
71.5999574361557
20
-0.193954794240852
30
0
41
1
10
71.5999579414585
20
0.270433436525906
30
0
41
1
10
71.5999577037896
20
0.365150461117309
30
0
0
SPLINE
5
F4
100
AcDbEntity
8
1
62
256
6
ByLayer
370
13
48
1
60
0
100
AcDbSpline
70
4
71
3
72
9
73
5
40
0
40
0
40
0
40
0
40
0.0370456827254858
40
1
40
1
40
1
40
1
41
1
10
65.4202011023571
20
-2.51035444960974
30
0
41
1
10
65.4221281722384
20
-2.53781332097154
30
0
41
1
10
65.4741339937883
20
-3.27221886214107
30
0
41
1
10
65.5258049088739
20
-3.81666255812627
30
0
41
1
10
65.5770593879775
20
-4.06541599572884
30
0
0
SPLINE
5
F5
100
AcDbEntity
8
1
62
256
6
ByLayer
370
13
48
1
60
0
100
AcDbSpline
70
4
71
3
72
10
73
6
40
0
40
0
40
0
40
0
40
0.0609126663537658
40
0.955431604748508
40
1
40
1
40
1
40
1
41
1
10
69.6424242795717
20
2.127617410981
30
0
41
1
10
69.6455669565547
20
2.07958484445439
30
0
41
1
10
69.6948899342987
20
1.31688255435654
30
0
41
1
10
69.7470295078023
20
0.372866032726336
30
0
41
1
10
69.7973138098929
20
-0.511551493967232
30
0
41
1
10
69.7997035671489
20
-0.55350428419473
30
0
0
SPLINE
5
F6
100
AcDbEntity
8
1
62
256
6
ByLayer
370
18
48
1
60
0
100
AcDbSpline
70
4
71
3
72
27
73
23
40
0
40
0
40
0
40
0
40
0.125000000000001
40
0.250000000000002
40
0.250000000000002
40
0.375000000000003
40
0.375000000000003
40
0.406250000000003
40
0.406250000000003
40
0.437500000000003
40
0.437500000000003
40
0.500000000000002
40
0.500000000000002
40
0.625000000000002
40
0.750000000000001
40
0.750000000000001
40
0.875
40
0.875
40
0.90625
40
0.90625
40
0.9375
40
1
40
1
40
1
40
1
41
1
10
64.8941039482912
20
-2.38359046919192
30
0
41
1
10
64.9015204294089
20
-2.52153416762565
30
0
41
1
10
64.9163051371119
20
-2.78876305582767
30
0
41
1
10
64.9309646301992
20
-3.03915685670293
30
0
41
1
10
64.9454975971898
20
-3.28115961893803
30
0
41
1
10
64.9527075638399
20
-3.39796547609819
30
0
41
1
10
64.9617506265314
20
-3.53860658104222
30
0
41
1
10
64.9635607223059
20
-3.56646595341874
30
0
41
1
10
64.967186224723
20
-3.62164173937799
30
0
41
1
10
64.9690034056778
20
-3.64898445944263
30
0
41
1
10
64.9744539338257
20
-3.73000513884446
30
0
41
1
10
64.978074237779
20
-3.78249870675339
30
0
41
1
10
64.9889192621896
20
-3.93550722433136
30
0
41
1
10
65.0033396562708
20
-4.12761163292356
30
0
41
1
10
65.0178726076629
20
-4.296369989808
30
0
41
1
10
65.0325226145454
20
-4.45339550275435
30
0
41
1
10
65.0399058674478
20
-4.52604274403248
30
0
41
1
10
65.0492287320535
20
-4.60929341526494
30
0
41
1
10
65.0510995535745
20
-4.62557804284296
30
0
41
1
10
65.0548379402746
20
-4.65727392954639
30
0
41
1
10
65.0604435859696
20
-4.70353611089473
30
0
41
1
10
65.0660441324854
20
-4.74597116749652
30
0
41
1
10
65.0697757018787
20
-4.77256583191957
30
0
0
SPLINE
5
F7
100
AcDbEntity
8
1
62
256
6
ByLayer
370
18
48
1
60
0
100
AcDbSpline
70
4
71
3
72
27
73
23
40
0
40
0
40
0
40
0
40
0.124999999999999
40
0.124999999999999
40
0.249999999999998
40
0.374999999999998
40
0.374999999999998
40
0.406249999999997
40
0.406249999999997
40
0.437499999999997
40
0.437499999999997
40
0.499999999999998
40
0.499999999999998
40
0.624999999999999
40
0.75
40
0.75
40
0.875000000000001
40
0.875000000000001
40
0.906250000000001
40
0.906250000000001
40
0.937500000000001
40
1
40
1
40
1
40
1
41
1
10
64.9185819522021
20
-4.71220066227559
30
0
41
1
10
64.9110623981273
20
-4.65413218537438
30
0
41
1
10
64.9036027078625
20
-4.58977561163482
30
0
41
1
10
64.8889367025552
20
-4.44882961755084
30
0
41
1
10
64.8744651848289
20
-4.2956495781616
30
0
41
1
10
64.8600712273678
20
-4.11807445792482
30
0
41
1
10
64.8510115822592
20
-3.99929542476732
30
0
41
1
10
64.8491965258298
20
-3.97514910189761
30
0
41
1
10
64.8455581518392
20
-3.92606789730118
30
0
41
1
10
64.843732746563
20
-3.90110397645978
30
0
41
1
10
64.8382567150639
20
-3.82523094094597
30
0
41
1
10
64.8346143678231
20
-3.77345818026359
30
0
41
1
10
64.8236930660182
20
-3.6146376724721
30
0
41
1
10
64.8091437806082
20
-3.39355267271776
30
0
41
1
10
64.7944836829625
20
-3.1541889658335
30
0
41
1
10
64.7797433897053
20
-2.90563810209019
30
0
41
1
10
64.7723331797051
20
-2.77676981786342
30
0
41
1
10
64.7630306955841
20
-2.60976352455813
30
0
41
1
10
64.7611669116205
20
-2.57603964382395
30
0
41
1
10
64.7574499823129
20
-2.50824387516502
30
0
41
1
10
64.7518865053093
20
-2.40595609970342
30
0
41
1
10
64.7463621655733
20
-2.30189460352418
30
0
41
1
10
64.74270069227
20
-2.23173481556944
30
0
0
SPLINE
5
F8
100
AcDbEntity
8
1
62
256
6
ByLayer
370
13
48
1
60
0
100
AcDbSpline
70
4
71
3
72
9
73
5
40
0
40
0
40
0
40
0
40
0.128202175542381
40
1
40
1
40
1
40
1
41
1.04
10
64.2332172932505
20
-1.54265053904537
30
0
41
1.04
10
64.2399338351423
20
-1.65350818343558
30
0
41
1.04
10
64.2922630651871
20
-2.50278102496505
30
0
41
1.04
10
64.3442822346262
20
-3.20857651623195
30
0
41
1.04
10
64.390205414277
20
-3.62631720304348
30
0
0
SPLINE
5
F9
100
AcDbEntity
8
1
62
256
6
ByLayer
370
18
48
1
60
0
100
AcDbSpline
70
4
71
3
72
25
73
21
40
0
40
0
40
0
40
0
40
0.125
40
0.250000000000001
40
0.250000000000001
40
0.312500000000001
40
0.312500000000001
40
0.375
40
0.375
40
0.5
40
0.5
40
0.624999999999999
40
0.624999999999999
40
0.749999999999999
40
0.749999999999999
40
0.812499999999999
40
0.812499999999999
40
0.875
40
0.875
40
1
40
1
40
1
40
1
41
1
10
58.1463291803759
20
1.45590293537282
30
0
41
1
10
58.1391055462449
20
1.57034242585198
30
0
41
1
10
58.1245753598838
20
1.79535057115743
30
0
41
1
10
58.1097956465821
20
2.01260939670627
30
0
41
1
10
58.0986113913971
20
2.17258531485601
30
0
41
1
10
58.0948669838548
20
2.22541529295088
30
0
41
1
10
58.0873474939793
20
2.3300661440737
30
0
41
1
10
58.0835959772414
20
2.38155863060052
30
0
41
1
10
58.0723882484308
20
2.53336239184111
30
0
41
1
10
58.0649711735593
20
2.63110308727482
30
0
41
1
10
58.0502959193719
20
2.81981597066653
30
0
41
1
10
58.0430454439625
20
2.91078894289754
30
0
41
1
10
58.0287343664274
20
3.08597234479908
30
0
41
1
10
58.0216514907619
20
3.17017988244461
30
0
41
1
10
58.0109866901811
20
3.29128847626376
30
0
41
1
10
58.007425338833
20
3.33078979969471
30
0
41
1
10
58.0002686071556
20
3.40802089004961
30
0
41
1
10
57.9966914448871
20
3.4455511679742
30
0
41
1
10
57.9859709695095
20
3.55458270489194
30
0
41
1
10
57.9788226397287
20
3.62268667657773
30
0
41
1
10
57.9716238523741
20
3.68630147868652
30
0
0
SPLINE
5
FA
100
AcDbEntity
8
1
62
256
6
ByLayer
370
13
48
1
60
0
100
AcDbSpline
70
4
71
3
72
10
73
6
40
0
40
0
40
0
40
0
40
0.351147709590349
40
0.759787771703639
40
1
40
1
40
1
40
1
41
1
10
59.0865763525026
20
2.91539278926572
30
0
41
1
10
59.1043719992539
20
2.68751036523122
30
0
41
1
10
59.1433429550816
20
2.13671764121287
30
0
41
1
10
59.1962358713047
20
1.26634222299808
30
0
41
1
10
59.2304608244519
20
0.668689552131497
30
0
41
1
10
59.2431222709057
20
0.445695069264843
30
0
0
SPLINE
5
FB
100
AcDbEntity
8
1
62
256
6
ByLayer
370
18
48
1
60
0
100
AcDbSpline
70
4
71
3
72
26
73
22
40
0
40
0
40
0
40
0
40
0.125000000000001
40
0.250000000000002
40
0.250000000000002
40
0.312500000000003
40
0.312500000000003
40
0.343750000000003
40
0.343750000000003
40
0.375000000000003
40
0.500000000000002
40
0.500000000000002
40
0.625
40
0.749999999999999
40
0.749999999999999
40
0.812499999999998
40
0.812499999999998
40
0.843749999999998
40
0.843749999999998
40
0.874999999999998
40
1
40
1
40
1
40
1
41
1
10
58.9287873807881
20
3.23507432679588
30
0
41
1
10
58.9350477089735
20
3.14789497318952
30
0
41
1
10
58.9475900509846
20
2.96615092889309
30
0
41
1
10
58.9602186295926
20
2.76970656951903
30
0
41
1
10
58.9697269037089
20
2.61676486801133
30
0
41
1
10
58.9729023766283
20
2.56484828593514
30
0
41
1
10
58.977674793186
20
2.48554531797941
30
0
41
1
10
58.9792690485774
20
2.45884039238959
30
0
41
1
10
58.9824498328949
20
2.40513251834037
30
0
41
1
10
58.9903830674251
20
2.27015320713642
30
0
41
1
10
58.9981959129764
20
2.13166826437262
30
0
41
1
10
59.0107088729078
20
1.90573298736962
30
0
41
1
10
59.0232414718301
20
1.67543865414777
30
0
41
1
10
59.0359034010854
20
1.43646539529601
30
0
41
1
10
59.0453789379982
20
1.25391405667003
30
0
41
1
10
59.0485320658821
20
1.19250907442256
30
0
41
1
10
59.053239071472
20
1.09955357944713
30
0
41
1
10
59.0548067029229
20
1.06839310181391
30
0
41
1
10
59.0579250868613
20
1.00605643191969
30
0
41
1
10
59.0656837896599
20
0.850072819870803
30
0
41
1
10
59.0732947620604
20
0.693390546753477
30
0
41
1
10
59.0793657188762
20
0.567612733614965
30
0
0
SPLINE
5
FC
100
AcDbEntity
8
1
62
256
6
ByLayer
370
13
48
1
60
0
100
AcDbSpline
70
4
71
3
72
9
73
5
40
0
40
0
40
0
40
0
40
0.351711039330612
40
1
40
1
40
1
40
1
41
1.04
10
66.8723231817111
20
3.8367012757611
30
0
41
1.04
10
66.8912854411362
20
3.69605884726697
30
0
41
1.04
10
66.944598649743
20
3.19830281752361
30
0
41
1.04
10
66.996399205598
20
2.46968407803177
30
0
41
1.04
10
67.029294593207
20
1.95332166211382
30
0
0
SPLINE
5
FD
100
AcDbEntity
8
1
62
256
6
ByLayer
370
18
48
1
60
0
100
AcDbSpline
70
4
71
3
72
24
73
20
40
0
40
0
40
0
40
0
40
0.124999999999998
40
0.124999999999998
40
0.187499999999997
40
0.218749999999997
40
0.218749999999997
40
0.249999999999997
40
0.249999999999997
40
0.374999999999998
40
0.499999999999998
40
0.499999999999998
40
0.624999999999998
40
0.624999999999998
40
0.749999999999999
40
0.749999999999999
40
0.874999999999999
40
0.874999999999999
40
1
40
1
40
1
40
1
41
1
10
69.6228304308851
20
2.16436377421414
30
0
41
1
10
69.6296284030371
20
2.06331176656846
30
0
41
1
10
69.6363527310388
20
1.95988584515411
30
0
41
1
10
69.6463704775936
20
1.8011484088743
30
0
41
1
10
69.6513641810929
20
1.72088165936418
30
0
41
1
10
69.6563467296076
20
1.63925964676452
30
0
41
1
10
69.6596674616684
20
1.58454181510803
30
0
41
1
10
69.6613287598694
20
1.55700739947574
30
0
41
1
10
69.6696041137204
20
1.41911831275777
30
0
41
1
10
69.6826837265546
20
1.19647188085838
30
0
41
1
10
69.6956802388063
20
0.969890834796814
30
0
41
1
10
69.7087762210805
20
0.741341091109888
30
0
41
1
10
69.7153879571808
20
0.626077708664383
30
0
41
1
10
69.7287172121931
20
0.393572599029369
30
0
41
1
10
69.7354309563826
20
0.276329148359622
30
0
41
1
10
69.7489320093331
20
0.0398276319197066
30
0
41
1
10
69.7556475691026
20
-0.0781833042771325
30
0
41
1
10
69.7690174839065
20
-0.313729479682223
30
0
41
1
10
69.7756726001813
20
-0.431264379081966
30
0
41
1
10
69.782321631284
20
-0.548555698052326
30
0
0
SPLINE
5
FE
100
AcDbEntity
8
1
62
256
6
ByLayer
370
18
48
1
60
0
100
AcDbSpline
70
4
71
3
72
26
73
22
40
0
40
0
40
0
40
0
40
0.124999999999999
40
0.124999999999999
40
0.249999999999999
40
0.249999999999999
40
0.374999999999998
40
0.374999999999998
40
0.437499999999998
40
0.437499999999998
40
0.499999999999998
40
0.499999999999998
40
0.624999999999998
40
0.624999999999998
40
0.749999999999999
40
0.749999999999999
40
0.812499999999999
40
0.812499999999999
40
0.874999999999999
40
0.874999999999999
40
1
40
1
40
1
40
1
41
1
10
68.8388537261873
20
0.27854224938298
30
0
41
1
10
68.8325316433186
20
0.410902370704548
30
0
41
1
10
68.8261567342443
20
0.542429787309032
30
0
41
1
10
68.813348608362
20
0.803850353685419
30
0
41
1
10
68.8069194980766
20
0.933744572279466
30
0
41
1
10
68.7940859911535
20
1.19188746115952
30
0
41
1
10
68.7876819808465
20
1.32013630757277
30
0
41
1
10
68.7781444867576
20
1.51122518224008
30
0
41
1
10
68.7749949172141
20
1.57434117656945
30
0
41
1
10
68.7687759920406
20
1.69909789023578
30
0
41
1
10
68.7657036693827
20
1.76079064454038
30
0
41
1
10
68.756618283934
20
1.94384744293018
30
0
41
1
10
68.750709665295
20
2.06320176716938
30
0
41
1
10
68.7388262813137
20
2.29670176774709
30
0
41
1
10
68.7328523966736
20
2.41084724349514
30
0
41
1
10
68.723704743014
20
2.57812764229547
30
0
41
1
10
68.720625674149
20
2.63322994576316
30
0
41
1
10
68.7144011646909
20
2.74209427813116
30
0
41
1
10
68.711252356091
20
2.79590783376298
30
0
41
1
10
68.7017371039155
20
2.95493846690656
30
0
41
1
10
68.6953640096846
20
3.05712388090814
30
0
41
1
10
68.6890279915889
20
3.15549822489399
30
0
0
SPLINE
5
FF
100
AcDbEntity
8
1
62
256
6
ByLayer
370
13
48
1
60
0
100
AcDbSpline
70
4
71
3
72
10
73
6
40
0
40
0
40
0
40
0
40
0.151373311742499
40
0.594535813058503
40
1
40
1
40
1
40
1
41
1.04
10
68.4557111912788
20
2.99938737971787
30
0
41
1.04
10
68.4633462788419
20
2.90427528413095
30
0
41
1.04
10
68.4937109827757
20
2.50768111279412
30
0
41
1.04
10
68.5474596828081
20
1.68559203778423
30
0
41
1.04
10
68.5919020422709
20
0.91888319208478
30
0
41
1.04
10
68.6128124837917
20
0.55137794029471
30
0
0
SPLINE
5
100
100
AcDbEntity
8
1
62
256
6
ByLayer
370
13
48
1
60
0
100
AcDbSpline
70
4
71
3
72
10
73
6
40
0
40
0
40
0
40
0
40
0.208352551034703
40
0.618942100970617
40
1
40
1
40
1
40
1
41
1.04
10
59.4831231698367
20
2.637687284576
30
0
41
1.04
10
59.493740597644
20
2.49106014333172
30
0
41
1.04
10
59.5255232175472
20
2.02902740708354
30
0
41
1.04
10
59.5781650029247
20
1.16449068347543
30
0
41
1.04
10
59.6196990443495
20
0.430667431604694
30
0
41
1.04
10
59.6396746607343
20
0.0769117748347981
30
0
0
SPLINE
5
101
100
AcDbEntity
8
1
62
256
6
ByLayer
370
18
48
1
60
0
100
AcDbSpline
70
4
71
3
72
29
73
25
40
0
40
0
40
0
40
0
40
0.125
40
0.125
40
0.15625
40
0.15625
40
0.1875
40
0.1875
40
0.25
40
0.25
40
0.375
40
0.375
40
0.499999999999999
40
0.499999999999999
40
0.624999999999999
40
0.624999999999999
40
0.656249999999999
40
0.656249999999999
40
0.687499999999999
40
0.749999999999999
40
0.749999999999999
40
0.875
40
0.875
40
1
40
1
40
1
40
1
41
1
10
59.8819679760364
20
-0.26066348306847
30
0
41
1
10
59.8744670520853
20
-0.127513422783608
30
0
41
1
10
59.8668759045315
20
0.00623940075684
30
0
41
1
10
59.8572533207909
20
0.174203037159288
30
0
41
1
10
59.8553222450025
20
0.207834472211374
30
0
41
1
10
59.8514469525304
20
0.275175556375586
30
0
41
1
10
59.8495052641357
20
0.308841106027984
30
0
41
1
10
59.8436886807176
20
0.409475575923409
30
0
41
1
10
59.8398142686952
20
0.476219788712513
30
0
41
1
10
59.8282084869539
20
0.67543433688644
30
0
41
1
10
59.8204931627216
20
0.806888382219398
30
0
41
1
10
59.8051826288463
20
1.06713677009367
30
0
41
1
10
59.7975980793861
20
1.19593199102636
30
0
41
1
10
59.7826205785138
20
1.45085255491651
30
0
41
1
10
59.7751890738934
20
1.57697466566773
30
0
41
1
10
59.7658030810434
20
1.73289087651946
30
0
41
1
10
59.7639191267933
20
1.76402483165276
30
0
41
1
10
59.7601521268325
20
1.82591188225428
30
0
41
1
10
59.7545057054674
20
1.91813097635458
30
0
41
1
10
59.7488619326698
20
2.00853394565917
30
0
41
1
10
59.7375694040049
20
2.18695532390245
30
0
41
1
10
59.7300304411933
20
2.30272752522859
30
0
41
1
10
59.7150194087172
20
2.52802123187507
30
0
41
1
10
59.7075417139104
20
2.63754188975145
30
0
41
1
10
59.7000435203759
20
2.74390326573754
30
0
0
SPLINE
5
102
100
AcDbEntity
8
1
62
256
6
ByLayer
370
13
48
1
60
0
100
AcDbSpline
70
4
71
3
72
10
73
6
40
0
40
0
40
0
40
0
40
0.116285548062781
40
0.731215696840009
40
1
40
1
40
1
40
1
41
1
10
60.6699301929486
20
1.6938437567797
30
0
41
1
10
60.6758664752402
20
1.59785150748769
30
0
41
1
10
60.7134003508499
20
0.980779424816802
30
0
41
1
10
60.766456497936
20
0.0289238607813616
30
0
41
1
10
60.812591043321
20
-0.781123107422815
30
0
41
1
10
60.8266074728335
20
-1.0218729055947
30
0
0
SPLINE
5
103
100
AcDbEntity
8
1
62
256
6
ByLayer
370
18
48
1
60
0
100
AcDbSpline
70
4
71
3
72
27
73
23
40
0
40
0
40
0
40
0
40
0.0312500000000002
40
0.0312500000000002
40
0.0625000000000004
40
0.0625000000000004
40
0.125
40
0.125
40
0.250000000000001
40
0.250000000000001
40
0.375000000000001
40
0.500000000000001
40
0.500000000000001
40
0.562500000000001
40
0.562500000000001
40
0.625000000000001
40
0.625000000000001
40
0.750000000000001
40
0.750000000000001
40
0.875
40
0.875
40
1
40
1
40
1
40
1
41
1
10
60.3860583134339
20
2.2174340380476
30
0
41
1
10
60.387726679802
20
2.18726926612959
30
0
41
1
10
60.3893959646972
20
2.15687782079939
30
0
41
1
10
60.3927349021074
20
2.09563694053244
30
0
41
1
10
60.394405945044
20
2.06476110220223
30
0
41
1
10
60.3993933409731
20
1.97188626339746
30
0
41
1
10
60.4026908680196
20
1.9095152695175
30
0
41
1
10
60.4124828809959
20
1.72106148470346
30
0
41
1
10
60.4188682277792
20
1.59363972041655
30
0
41
1
10
60.4313088262301
20
1.33528385486201
30
0
41
1
10
60.4435041335945
20
1.07342229984161
30
0
41
1
10
60.4559087292972
20
0.80457729529212
30
0
41
1
10
60.465437895829
20
0.600264437138918
30
0
41
1
10
60.4686554133002
20
0.531616466803399
30
0
41
1
10
60.4751111685369
20
0.394740293113102
30
0
41
1
10
60.4783563535252
20
0.326361601625678
30
0
41
1
10
60.4881419550092
20
0.121400813730276
30
0
41
1
10
60.4947369649265
20
-0.0150061294317538
30
0
41
1
10
60.5079484862226
20
-0.287364830324719
30
0
41
1
10
60.5145406824149
20
-0.423317618253776
30
0
41
1
10
60.5276317893054
20
-0.694769224679391
30
0
41
1
10
60.5341466360692
20
-0.830267397036693
30
0
41
1
10
60.540664565383
20
-0.965529269218848
30
0
0
SPLINE
5
104
100
AcDbEntity
8
1
62
256
6
ByLayer
370
18
48
1
60
0
100
AcDbSpline
70
4
71
3
72
27
73
23
40
0
40
0
40
0
40
0
40
0.125000000000001
40
0.125000000000001
40
0.250000000000002
40
0.375000000000003
40
0.375000000000003
40
0.406250000000003
40
0.406250000000003
40
0.437500000000003
40
0.437500000000003
40
0.500000000000003
40
0.500000000000003
40
0.625000000000001
40
0.75
40
0.75
40
0.874999999999999
40
0.874999999999999
40
0.906249999999999
40
0.906249999999999
40
0.937499999999999
40
1
40
1
40
1
40
1
41
1
10
67.5573714631498
20
1.60355249837977
30
0
41
1
10
67.550075706794
20
1.75190582713776
30
0
41
1
10
67.5429015368548
20
1.89697047364524
30
0
41
1
10
67.5286363512776
20
2.18069714652515
30
0
41
1
10
67.5144165018773
20
2.45801842707036
30
0
41
1
10
67.4999106607308
20
2.72254986631
30
0
41
1
10
67.4906963746464
20
2.88379251215005
30
0
41
1
10
67.4888463177718
20
2.91583616140238
30
0
41
1
10
67.4851311305644
20
2.97950970917003
30
0
41
1
10
67.4832638523021
20
3.01117552745211
30
0
41
1
10
67.4776547872681
20
3.10527853603585
30
0
41
1
10
67.4739139373869
20
3.16668605010077
30
0
41
1
10
67.4626901163168
20
3.34700270274368
30
0
41
1
10
67.4477177150956
20
3.57702574071033
30
0
41
1
10
67.4328621126775
20
3.78666137794673
30
0
41
1
10
67.4181735650862
20
3.98605036428484
30
0
41
1
10
67.4109465456804
20
4.08062321713021
30
0
41
1
10
67.40194676647
20
4.19223194617246
30
0
41
1
10
67.4001461106122
20
4.21423770187809
30
0
41
1
10
67.3965550474509
20
4.2574198081652
30
0
41
1
10
67.3911798005417
20
4.32100109506817
30
0
41
1
10
67.3858200641019
20
4.38102396050272
30
0
41
1
10
67.3822403458621
20
4.41946355464577
30
0
0
SPLINE
5
105
100
AcDbEntity
8
1
62
256
6
ByLayer
370
18
48
1
60
0
100
AcDbSpline
70
4
71
3
72
24
73
20
40
0
40
0
40
0
40
0
40
0.124999999999999
40
0.124999999999999
40
0.249999999999997
40
0.374999999999996
40
0.374999999999996
40
0.437499999999996
40
0.437499999999996
40
0.468749999999996
40
0.468749999999996
40
0.499999999999997
40
0.624999999999997
40
0.749999999999998
40
0.874999999999998
40
0.874999999999998
40
0.937499999999999
40
0.937499999999999
40
1
40
1
40
1
40
1
41
1
10
63.3103619434624
20
-0.70439834189412
30
0
41
1
10
63.3176870061867
20
-0.859372470779334
30
0
41
1
10
63.3250009485998
20
-1.01218550097815
30
0
41
1
10
63.3396669451748
20
-1.31362196445738
30
0
41
1
10
63.3543709578286
20
-1.61086805486988
30
0
41
1
10
63.3691718685541
20
-1.89978637368006
30
0
41
1
10
63.3802774462064
20
-2.11329447965647
30
0
41
1
10
63.3839797041384
20
-2.18393293099476
30
0
41
1
10
63.3895258006976
20
-2.28907922690183
30
0
41
1
10
63.391373482102
20
-2.32400303768412
30
0
41
1
10
63.3950481562159
20
-2.39321631050751
30
0
41
1
10
63.4041955702584
20
-2.56488921876317
30
0
41
1
10
63.420382053742
20
-2.86181844522923
30
0
41
1
10
63.4418607187311
20
-3.23252933536796
30
0
41
1
10
63.4563598909514
20
-3.46283758857203
30
0
41
1
10
63.4673678360504
20
-3.62908313805389
30
0
41
1
10
63.471065326225
20
-3.68350103579334
30
0
41
1
10
63.4784619067244
20
-3.78941705849539
30
0
41
1
10
63.4821648894938
20
-3.84097896372
30
0
41
1
10
63.4858744204977
20
-3.89115048050257
30
0
0
SPLINE
5
106
100
AcDbEntity
8
1
62
256
6
ByLayer
370
13
48
1
60
0
100
AcDbSpline
70
4
71
3
72
9
73
5
40
0
40
0
40
0
40
0
40
0.267452803059836
40
1
40
1
40
1
40
1
41
1
10
63.836756129536
20
-1.19425969850553
30
0
41
1
10
63.8507997217216
20
-1.43304959667822
30
0
41
1
10
63.9031333011279
20
-2.30004551732199
30
0
41
1
10
63.955157270371
20
-3.02250097394756
30
0
41
1
10
63.9935798285703
20
-3.42198609125174
30
0
0
SPLINE
5
107
100
AcDbEntity
8
1
62
256
6
ByLayer
370
18
48
1
60
0
100
AcDbSpline
70
4
71
3
72
25
73
21
40
0
40
0
40
0
40
0
40
0.125
40
0.125
40
0.250000000000001
40
0.375000000000001
40
0.375000000000001
40
0.437500000000001
40
0.437500000000001
40
0.500000000000001
40
0.500000000000001
40
0.625000000000001
40
0.750000000000001
40
0.875
40
0.875
40
0.9375
40
0.9375
40
0.96875
40
0.96875
40
1
40
1
40
1
40
1
41
1
10
63.3349246263614
20
-3.78031590428003
30
0
41
1
10
63.3278831255059
20
-3.68040146006288
30
0
41
1
10
63.3209199697937
20
-3.5762679768859
30
0
41
1
10
63.3070493601534
20
-3.35981908137219
30
0
41
1
10
63.2932061002409
20
-3.1351880300613
30
0
41
1
10
63.279198086915
20
-2.89431831175796
30
0
41
1
10
63.2686301133814
20
-2.7074801711926
30
0
41
1
10
63.2650980852952
20
-2.64416828354837
30
0
41
1
10
63.2580274437943
20
-2.5154441957088
30
0
41
1
10
63.2544849487418
20
-2.44991848757351
30
0
41
1
10
63.2439407594398
20
-2.25204997103515
30
0
41
1
10
63.2300425178513
20
-1.98373729405498
30
0
41
1
10
63.209377261362
20
-1.56817181997414
30
0
41
1
10
63.1955275165635
20
-1.28243717735893
30
0
41
1
10
63.1850485741795
20
-1.06481653801117
30
0
41
1
10
63.1815404248527
20
-0.991722250513448
30
0
41
1
10
63.1762485624209
20
-0.881234475501856
30
0
41
1
10
63.1744796783265
20
-0.844264047558681
30
0
41
1
10
63.1709441260663
20
-0.770312146350705
30
0
41
1
10
63.1691758332907
20
-0.733296778083229
30
0
41
1
10
63.167406638377
20
-0.69624215059622
30
0
0
SPLINE
5
108
100
AcDbEntity
8
1
62
256
6
ByLayer
370
18
48
1
60
0
100
AcDbSpline
70
4
71
3
72
8
73
4
40
0
40
0
40
0
40
0
40
1
40
1
40
1
40
1
41
1
10
63.1674066383771
20
-0.696242150596191
30
0
41
1
10
63.1646308229187
20
-0.642768574622636
30
0
41
1
10
63.1618533247479
20
-0.589232800272356
30
0
41
1
10
63.1590731568597
20
-0.535635119266288
30
0
0
SPLINE
5
109
100
AcDbEntity
8
1
62
256
6
ByLayer
370
13
48
1
60
0
100
AcDbSpline
70
4
71
3
72
9
73
5
40
0
40
0
40
0
40
0
40
0.775325873183456
40
1
40
1
40
1
40
1
41
1.04
10
62.649846977848
20
-0.103183580492792
30
0
41
1.04
10
62.6895225672431
20
-0.805847206990479
30
0
41
1.04
10
62.7411999946073
20
-1.71520991131894
30
0
41
1.04
10
62.7946334784439
20
-2.49591406301872
30
0
41
1.04
10
62.8067041409034
20
-2.66208241124037
30
0
0
SPLINE
5
10A
100
AcDbEntity
8
1
62
256
6
ByLayer
370
18
48
1
60
0
100
AcDbSpline
70
4
71
3
72
29
73
25
40
0
40
0
40
0
40
0
40
0.125000000000001
40
0.125000000000001
40
0.250000000000001
40
0.250000000000001
40
0.375000000000002
40
0.375000000000002
40
0.406250000000002
40
0.406250000000002
40
0.437500000000002
40
0.437500000000002
40
0.500000000000002
40
0.500000000000002
40
0.625000000000002
40
0.625000000000002
40
0.750000000000001
40
0.750000000000001
40
0.875
40
0.875
40
0.90625
40
0.90625
40
0.9375
40
1
40
1
40
1
40
1
41
1
10
67.5332846074932
20
4.33386856720998
30
0
41
1
10
67.5407423202714
20
4.25243447955165
30
0
41
1
10
67.5481465963292
20
4.16539989629169
30
0
41
1
10
67.5628413505553
20
3.98044299524341
30
0
41
1
10
67.5701307138177
20
3.88251990547082
30
0
41
1
10
67.5846090885532
20
3.67581695890715
30
0
41
1
10
67.59179699752
20
3.56703747951843
30
0
41
1
10
67.6007622736227
20
3.42412661549295
30
0
41
1
10
67.6025545303091
20
3.39519692107964
30
0
41
1
10
67.6061393601424
20
3.33663583918875
30
0
41
1
10
67.6079336823815
20
3.3069751238113
30
0
41
1
10
67.6133083565929
20
3.21713329423139
30
0
41
1
10
67.6168643129557
20
3.15629578853418
30
0
41
1
10
67.6275385563127
20
2.97101302240796
30
0
41
1
10
67.6346937401131
20
2.84380441837081
30
0
41
1
10
67.6493759517026
20
2.58217381868496
30
0
41
1
10
67.656900930233
20
2.44775167198071
30
0
41
1
10
67.6721686901267
20
2.17165235225119
30
0
41
1
10
67.6799113835856
20
2.02997589722676
30
0
41
1
10
67.6893585649769
20
1.84818922833495
30
0
41
1
10
67.6912388238673
20
1.81156635057039
30
0
41
1
10
67.6949692437308
20
1.73810399935644
30
0
41
1
10
67.7005231902605
20
1.627520670427
30
0
41
1
10
67.7059733922209
20
1.51577413221821
30
0
41
1
10
67.709579131843
20
1.44076186509778
30
0
0
SPLINE
5
10B
100
AcDbEntity
8
1
62
256
6
ByLayer
370
13
48
1
60
0
100
AcDbSpline
70
4
71
3
72
10
73
6
40
0
40
0
40
0
40
0
40
0.29744639496934
40
0.737747811522141
40
1
40
1
40
1
40
1
41
1
10
68.0590090369985
20
3.24905512091902
30
0
41
1
10
68.0737515784409
20
3.08248740913288
30
0
41
1
10
68.111180766993
20
2.61364811956659
30
0
41
1
10
68.1652787335203
20
1.78387721274072
30
0
41
1
10
68.2024729576444
20
1.15370596798337
30
0
41
1
10
68.2162281811406
20
0.915913121669888
30
0
0
SPLINE
5
10C
100
AcDbEntity
8
1
62
256
6
ByLayer
370
13
48
1
60
0
100
AcDbSpline
70
4
71
3
72
9
73
5
40
0
40
0
40
0
40
0
40
0.589622439712622
40
1
40
1
40
1
40
1
41
1.04
10
61.0665265447469
20
1.34936447282791
30
0
41
1.04
10
61.0969615528465
20
0.839016397848843
30
0
41
1.04
10
61.1498805324648
20
-0.109223821707698
30
0
41
1.04
10
61.2018407109093
20
-1.01921384226655
30
0
41
1.04
10
61.2231936362608
20
-1.37647135883017
30
0
0
SPLINE
5
10D
100
AcDbEntity
8
1
62
256
6
ByLayer
370
18
48
1
60
0
100
AcDbSpline
70
4
71
3
72
12
73
8
40
0
40
0
40
0
40
0
40
0.500000000000001
40
0.500000000000001
40
0.75
40
0.75
40
1
40
1
40
1
40
1
41
1
10
66.6530526023399
20
-5.07567218479576
30
0
41
1
10
66.7360954213702
20
-4.93696549969152
30
0
41
1
10
66.8199968228254
20
-4.79546798247708
30
0
41
1
10
66.9469579022451
20
-4.580034903773
30
0
41
1
10
66.9894258492618
20
-4.50775653893751
30
0
41
1
10
67.0747219982205
20
-4.36227255896844
30
0
41
1
10
67.1175577109171
20
-4.28905202008806
30
0
41
1
10
67.1606038531681
20
-4.21537507741613
30
0
0
SPLINE
5
10E
100
AcDbEntity
8
1
62
256
6
ByLayer
370
18
48
1
60
0
100
AcDbSpline
70
4
71
3
72
8
73
4
40
0
40
0
40
0
40
0
40
1
40
1
40
1
40
1
41
1
10
66.6530526023436
20
-5.07567218480037
30
0
41
1
10
66.6027874241928
20
-5.07580772650635
30
0
41
1
10
66.5525647950605
20
-5.07500434565918
30
0
41
1
10
66.502368518547
20
-5.07326609159659
30
0
0
SPLINE
5
10F
100
AcDbEntity
8
1
62
256
6
ByLayer
370
18
48
1
60
0
100
AcDbSpline
70
4
71
3
72
12
73
8
40
0
40
0
40
0
40
0
40
0.401223725303936
40
0.401223725303936
40
0.802447450607873
40
0.802447450607873
40
1
40
1
40
1
40
1
41
1
10
65.9737229920592
20
-4.15137080454573
30
0
41
1
10
66.0185024200421
20
-4.23302193644153
30
0
41
1
10
66.0630676443583
20
-4.3135034249901
30
0
41
1
10
66.1518778792191
20
-4.47216599431511
30
0
41
1
10
66.1961192409408
20
-4.55034413551132
30
0
41
1
10
66.2619066114318
20
-4.66519360371893
30
0
41
1
10
66.2835611051894
20
-4.70276881097209
30
0
41
1
10
66.3051692611571
20
-4.74002846443238
30
0
0
SPLINE
5
110
100
AcDbEntity
8
1
62
256
6
ByLayer
370
18
48
1
60
0
100
AcDbSpline
70
4
71
3
72
30
73
26
40
0
40
0
40
0
40
0
40
0.0624999999999661
40
0.0624999999999661
40
0.124999999999932
40
0.124999999999932
40
0.24999999999991
40
0.24999999999991
40
0.312499999999899
40
0.312499999999899
40
0.374999999999888
40
0.374999999999888
40
0.499999999999916
40
0.499999999999916
40
0.624999999999945
40
0.624999999999945
40
0.687499999999961
40
0.687499999999961
40
0.749999999999976
40
0.749999999999976
40
0.875000000000008
40
0.875000000000008
40
0.937500000000004
40
0.937500000000004
40
1
40
1
40
1
40
1
41
1
10
65.5770593879775
20
-4.06541599572884
30
0
41
1
10
65.5833552135099
20
-4.05612260710134
30
0
41
1
10
65.5903119072145
20
-4.04799527744623
30
0
41
1
10
65.6052913678872
20
-4.03361220995652
30
0
41
1
10
65.6133449487258
20
-4.02734425212935
30
0
41
1
10
65.6387445342459
20
-4.0111376745248
30
0
41
1
10
65.6565911295323
20
-4.00412297929199
30
0
41
1
10
65.6843004973846
20
-3.99762905645554
30
0
41
1
10
65.6937177563833
20
-3.99616381190364
30
0
41
1
10
65.712416635849
20
-3.99452598008833
30
0
41
1
10
65.7217528447751
20
-3.9943382102725
30
0
41
1
10
65.7497125941146
20
-3.99545836072642
30
0
41
1
10
65.768305847662
20
-3.99843338209115
30
0
41
1
10
65.8052263427516
20
-4.00842137586127
30
0
41
1
10
65.8231482954419
20
-4.01532312031082
30
0
41
1
10
65.8492231961201
20
-4.02835514077049
30
0
41
1
10
65.8577789235394
20
-4.03315053016129
30
0
41
1
10
65.8746032552195
20
-4.04367065048521
30
0
41
1
10
65.8829037414102
20
-4.04942147324508
30
0
41
1
10
65.9070199436864
20
-4.06791938436467
30
0
41
1
10
65.9220998039608
20
-4.08188964745275
30
0
41
1
10
65.9429863905816
20
-4.10566834814554
30
0
41
1
10
65.9496570505598
20
-4.11406996175643
30
0
41
1
10
65.9623223762639
20
-4.13198054841786
30
0
41
1
10
65.9682683739901
20
-4.14142481462454
30
0
41
1
10
65.9737229920591
20
-4.15137080454573
30
0
0
SPLINE
5
111
100
AcDbEntity
8
1
62
256
6
ByLayer
370
18
48
1
60
0
100
AcDbSpline
70
4
71
3
72
10
73
6
40
0
40
0
40
0
40
0
40
0.5
40
0.5
40
1
40
1
40
1
40
1
41
1
10
65.0697757018814
20
-4.77256583191263
30
0
41
1
10
65.1527862494956
20
-4.66424913485366
30
0
41
1
10
65.236654290914
20
-4.55085842688442
30
0
41
1
10
65.4058508556534
20
-4.31482652405396
30
0
41
1
10
65.4910304054789
20
-4.19240502416878
30
0
41
1
10
65.5770593879775
20
-4.06541599572884
30
0
0
SPLINE
5
112
100
AcDbEntity
8
1
62
256
6
ByLayer
370
18
48
1
60
0
100
AcDbSpline
70
4
71
3
72
8
73
4
40
0
40
0
40
0
40
0
40
1
40
1
40
1
40
1
41
1
10
65.0697757018856
20
-4.77256583191945
30
0
41
1
10
65.0192912382391
20
-4.75329537605595
30
0
41
1
10
64.9688990074695
20
-4.73316910319861
30
0
41
1
10
64.9185819522021
20
-4.71220066227559
30
0
0
SPLINE
5
113
100
AcDbEntity
8
1
62
256
6
ByLayer
370
18
48
1
60
0
100
AcDbSpline
70
4
71
3
72
12
73
8
40
0
40
0
40
0
40
0
40
0.499999999999993
40
0.499999999999993
40
0.749999999999996
40
0.749999999999996
40
1
40
1
40
1
40
1
41
1
10
64.3902054142769
20
-3.62631720304344
30
0
41
1
10
64.4797209145163
20
-3.81087624464226
30
0
41
1
10
64.5684099283584
20
-3.99395043543211
30
0
41
1
10
64.7005716332299
20
-4.26593240848851
30
0
41
1
10
64.744421747221
20
-4.35602951738613
30
0
41
1
10
64.8317900810914
20
-4.5350830299636
30
0
41
1
10
64.8752857200663
20
-4.6239961701574
30
0
41
1
10
64.9185819522021
20
-4.71220066227559
30
0
0
SPLINE
5
114
100
AcDbEntity
8
1
62
256
6
ByLayer
370
18
48
1
60
0
100
AcDbSpline
70
4
71
3
72
30
73
26
40
0
40
0
40
0
40
0
40
0.0624999999999977
40
0.0624999999999977
40
0.124999999999995
40
0.124999999999995
40
0.24999999999999
40
0.24999999999999
40
0.312499999999989
40
0.312499999999989
40
0.374999999999987
40
0.374999999999987
40
0.499999999999982
40
0.499999999999982
40
0.624999999999977
40
0.624999999999977
40
0.687499999999974
40
0.687499999999974
40
0.74999999999997
40
0.74999999999997
40
0.874999999999967
40
0.874999999999967
40
0.937499999999983
40
0.937499999999983
40
1
40
1
40
1
40
1
41
1
10
63.9935798285701
20
-3.42198609125009
30
0
41
1
10
63.9998748936368
20
-3.41530245400168
30
0
41
1
10
64.0068308724256
20
-3.40989323542627
30
0
41
1
10
64.0218093416912
20
-3.40111910845954
30
0
41
1
10
64.0298624989078
20
-3.39775227541511
30
0
41
1
10
64.0552627771259
20
-3.39041810854067
30
0
41
1
10
64.0731110985348
20
-3.38929724275423
30
0
41
1
10
64.1008245877711
20
-3.39163675185722
30
0
41
1
10
64.1102433871839
20
-3.39312012156842
30
0
41
1
10
64.1289451541693
20
-3.39725130434621
30
0
41
1
10
64.1382828066571
20
-3.39990150698304
30
0
41
1
10
64.1662467438391
20
-3.40941700798132
30
0
41
1
10
64.1848445701678
20
-3.41783857344313
30
0
41
1
10
64.2217650550991
20
-3.4384385327759
30
0
41
1
10
64.2396861033829
20
-3.45039102867682
30
0
41
1
10
64.2657583125142
20
-3.4706602775197
30
0
41
1
10
64.2743129254997
20
-3.47781089665324
30
0
41
1
10
64.2911345745748
20
-3.49292645133127
30
0
41
1
10
64.2994331938324
20
-3.50092579797479
30
0
41
1
10
64.3235387258762
20
-3.52589789375733
30
0
41
1
10
64.3386111501583
20
-3.54384482177747
30
0
41
1
10
64.3594870110185
20
-3.57300782700187
30
0
41
1
10
64.3661541727452
20
-3.58310632479828
30
0
41
1
10
64.378812890781
20
-3.60418141360248
30
0
41
1
10
64.3847542300996
20
-3.61507819611546
30
0
41
1
10
64.3902054142771
20
-3.62631720304375
30
0
0
SPLINE
5
115
100
AcDbEntity
8
1
62
256
6
ByLayer
370
18
48
1
60
0
100
AcDbSpline
70
4
71
3
72
10
73
6
40
0
40
0
40
0
40
0
40
0.5
40
0.5
40
1
40
1
40
1
40
1
41
1
10
63.4858744205006
20
-3.89115048049433
30
0
41
1
10
63.5689411513138
20
-3.82620061388158
30
0
41
1
10
63.6528696056301
20
-3.75454590741546
30
0
41
1
10
63.8222064075322
20
-3.59807091888965
30
0
41
1
10
63.9074621537232
20
-3.51341950667245
30
0
41
1
10
63.9935798285701
20
-3.42198609125009
30
0
0
SPLINE
5
116
100
AcDbEntity
8
1
62
256
6
ByLayer
370
18
48
1
60
0
100
AcDbSpline
70
4
71
3
72
8
73
4
40
0
40
0
40
0
40
0
40
1
40
1
40
1
40
1
41
1
10
63.4858744205049
20
-3.89115048050235
30
0
41
1
10
63.4356339923326
20
-3.85497715656328
30
0
41
1
10
63.3853230958877
20
-3.81803154799314
30
0
41
1
10
63.3349246263614
20
-3.78031590428003
30
0
0
SPLINE
5
117
100
AcDbEntity
8
1
62
256
6
ByLayer
370
18
48
1
60
0
100
AcDbSpline
70
4
71
3
72
12
73
8
40
0
40
0
40
0
40
0
40
0.499999999999993
40
0.499999999999993
40
0.749999999999996
40
0.749999999999996
40
1
40
1
40
1
40
1
41
1
10
62.8067041409026
20
-2.66208241124028
30
0
41
1
10
62.8962600439548
20
-2.84550416906674
30
0
41
1
10
62.9849557149123
20
-3.0307339038566
30
0
41
1
10
63.117064864178
20
-3.31085018170325
30
0
41
1
10
63.1608875517647
20
-3.40447378547819
30
0
41
1
10
63.2481949903618
20
-3.59217846827878
30
0
41
1
10
63.2916580670117
20
-3.68621447436038
30
0
41
1
10
63.3349246263613
20
-3.78031590428003
30
0
0
SPLINE
5
118
100
AcDbEntity
8
1
62
256
6
ByLayer
370
18
48
1
60
0
100
AcDbSpline
70
4
71
3
72
30
73
26
40
0
40
0
40
0
40
0
40
0.0624999999999981
40
0.0624999999999981
40
0.124999999999996
40
0.124999999999996
40
0.249999999999991
40
0.249999999999991
40
0.312499999999963
40
0.312499999999963
40
0.374999999999934
40
0.374999999999934
40
0.499999999999929
40
0.499999999999929
40
0.624999999999924
40
0.624999999999924
40
0.687499999999945
40
0.687499999999945
40
0.749999999999966
40
0.749999999999966
40
0.874999999999964
40
0.874999999999964
40
0.937499999999982
40
0.937499999999982
40
1
40
1
40
1
40
1
41
1
10
62.4101382121948
20
-2.36486090233748
30
0
41
1
10
62.4164283271073
20
-2.36159239468285
30
0
41
1
10
62.4233782384838
20
-2.35954943101308
30
0
41
1
10
62.4383429568572
20
-2.35742790661595
30
0
41
1
10
62.4463867114757
20
-2.35735761799086
30
0
41
1
10
62.4717681656856
20
-2.35974170947529
30
0
41
1
10
62.4896048853018
20
-2.36461558810629
30
0
41
1
10
62.5173024620133
20
-2.37544578591991
30
0
41
1
10
62.5267187374669
20
-2.37967808441516
30
0
41
1
10
62.5454175929703
20
-2.38903821840182
30
0
41
1
10
62.5547540764093
20
-2.3941851768688
30
0
41
1
10
62.5827151163173
20
-2.41088198016715
30
0
41
1
10
62.6013065607518
20
-2.42368323754803
30
0
41
1
10
62.6382366453201
20
-2.45232456542141
30
0
41
1
10
62.6561613793386
20
-2.46784318999587
30
0
41
1
10
62.6822374728692
20
-2.49284060190001
30
0
41
1
10
62.6907931054791
20
-2.50146257664827
30
0
41
1
10
62.7076163261881
20
-2.51930763929923
30
0
41
1
10
62.7159159916222
20
-2.52856979741881
30
0
41
1
10
62.740029891844
20
-2.55695395006182
30
0
41
1
10
62.7551054627329
20
-2.57668051946837
30
0
41
1
10
62.7759836359803
20
-2.60766307611192
30
0
41
1
10
62.7826511633639
20
-2.61822488801516
30
0
41
1
10
62.795309980573
20
-2.63989175951926
30
0
41
1
10
62.8012527004234
20
-2.6509171752115
30
0
41
1
10
62.8067041409036
20
-2.66208241124264
30
0
0
SPLINE
5
119
100
AcDbEntity
8
1
62
256
6
ByLayer
370
18
48
1
60
0
100
AcDbSpline
70
4
71
3
72
12
73
8
40
0
40
0
40
0
40
0
40
0.5
40
0.5
40
0.75
40
0.75
40
1
40
1
40
1
40
1
41
1
10
61.2231936362608
20
-1.37647135883017
30
0
41
1
10
61.2894922901917
20
-1.49491921143942
30
0
41
1
10
61.3553376776032
20
-1.61602682095827
30
0
41
1
10
61.4535887642425
20
-1.80159293582813
30
0
41
1
10
61.4862470296558
20
-1.86408878853189
30
0
41
1
10
61.5513151823292
20
-1.99014681772772
30
0
41
1
10
61.5837384877797
20
-2.05373420900415
30
0
41
1
10
61.6160675982101
20
-2.11786692731749
30
0
0
SPLINE
5
11A
100
AcDbEntity
8
1
62
256
6
ByLayer
370
18
48
1
60
0
100
AcDbSpline
70
4
71
3
72
30
73
26
40
0
40
0
40
0
40
0
40
0.0624999999999774
40
0.0624999999999774
40
0.124999999999955
40
0.124999999999955
40
0.249999999999955
40
0.249999999999955
40
0.312499999999955
40
0.312499999999955
40
0.374999999999955
40
0.374999999999955
40
0.499999999999957
40
0.499999999999957
40
0.624999999999958
40
0.624999999999958
40
0.687499999999959
40
0.687499999999959
40
0.749999999999959
40
0.749999999999959
40
0.87499999999996
40
0.87499999999996
40
0.93749999999998
40
0.93749999999998
40
1
40
1
40
1
40
1
41
1
10
60.8266074728335
20
-1.0218729055947
30
0
41
1
10
60.8328966339508
20
-1.02241655451817
30
0
41
1
10
60.8398457334948
20
-1.02399104536011
30
0
41
1
10
60.8548093357382
20
-1.02879120751919
30
0
41
1
10
60.8628526493006
20
-1.03203387135346
30
0
41
1
10
60.8882343519398
20
-1.04388111231145
30
0
41
1
10
60.9060720943012
20
-1.05418825279787
30
0
41
1
10
60.9337713152871
20
-1.07224532014587
30
0
41
1
10
60.9431882223065
20
-1.07873049161282
30
0
41
1
10
60.9618882481796
20
-1.09221803184283
30
0
41
1
10
60.9712252603122
20
-1.09925428294025
30
0
41
1
10
60.9991876251589
20
-1.12115707448723
30
0
41
1
10
61.0177792404986
20
-1.13682044039925
30
0
41
1
10
61.05471021931
20
-1.170085116303
30
0
41
1
10
61.0726353041485
20
-1.18731318610895
30
0
41
1
10
61.0987119738786
20
-1.21404226568848
30
0
41
1
10
61.1072678081046
20
-1.22310116126451
30
0
41
1
10
61.1240914962448
20
-1.24153307847942
30
0
41
1
10
61.1323914450757
20
-1.25094477053813
30
0
41
1
10
61.1565074593143
20
-1.27932160403904
30
0
41
1
10
61.1715848843277
20
-1.29844942545947
30
0
41
1
10
61.1924664045911
20
-1.32751412643469
30
0
41
1
10
61.1991351406276
20
-1.33726487903667
30
0
41
1
10
61.2117965028322
20
-1.35690876137573
30
0
41
1
10
61.2177408185668
20
-1.36672946350709
30
0
41
1
10
61.2231936362607
20
-1.3764713588281
30
0
0
SPLINE
5
11B
100
AcDbEntity
8
1
62
256
6
ByLayer
370
18
48
1
60
0
100
AcDbSpline
70
4
71
3
72
10
73
6
40
0
40
0
40
0
40
0
40
0.5
40
0.5
40
1
40
1
40
1
40
1
41
1
10
60.5406645653907
20
-0.965529269217939
30
0
41
1
10
60.5878650495879
20
-0.979985294286934
30
0
41
1
10
60.6353169865527
20
-0.991983199685222
30
0
41
1
10
60.7306356554112
20
-1.01085659494009
30
0
41
1
10
60.7784958202921
20
-1.01771402850085
30
0
41
1
10
60.8266074728335
20
-1.02187290559476
30
0
0
SPLINE
5
11C
100
AcDbEntity
8
1
62
256
6
ByLayer
370
18
48
1
60
0
100
AcDbSpline
70
4
71
3
72
8
73
4
40
0
40
0
40
0
40
0
40
1
40
1
40
1
40
1
41
1
10
59.8819679760364
20
-0.260663483068498
30
0
41
1
10
60.1026410164633
20
-0.494040359785146
30
0
41
1
10
60.3216597190804
20
-0.729511105485813
30
0
41
1
10
60.5406645653875
20
-0.965529269220582
30
0
0
SPLINE
5
11D
100
AcDbEntity
8
1
62
256
6
ByLayer
370
18
48
1
60
0
100
AcDbSpline
70
4
71
3
72
8
73
4
40
0
40
0
40
0
40
0
40
1
40
1
40
1
40
1
41
1
10
59.6396746607343
20
0.0769117748348265
30
0
41
1
10
59.7210749792816
20
-0.0295838388111349
30
0
41
1
10
59.8018514322321
20
-0.142254341239152
30
0
41
1
10
59.8819679760364
20
-0.260663483068498
30
0
0
SPLINE
5
11E
100
AcDbEntity
8
1
62
256
6
ByLayer
370
18
48
1
60
0
100
AcDbSpline
70
4
71
3
72
30
73
26
40
0
40
0
40
0
40
0
40
0.062500000000014
40
0.062500000000014
40
0.125000000000028
40
0.125000000000028
40
0.250000000000058
40
0.250000000000058
40
0.312500000000073
40
0.312500000000073
40
0.375000000000088
40
0.375000000000088
40
0.500000000000117
40
0.500000000000117
40
0.625000000000146
40
0.625000000000146
40
0.687500000000136
40
0.687500000000136
40
0.750000000000126
40
0.750000000000126
40
0.875000000000062
40
0.875000000000062
40
0.937500000000031
40
0.937500000000031
40
1
40
1
40
1
40
1
41
1
10
59.2431222709057
20
0.445695069264843
30
0
41
1
10
59.249406000902
20
0.441408808585834
30
0
41
1
10
59.2563481598754
20
0.436412426092261
30
0
41
1
10
59.2712954902431
20
0.425284476259975
30
0
41
1
10
59.2793273738365
20
0.419130877086531
30
0
41
1
10
59.3046855471307
20
0.399277213149816
30
0
41
1
10
59.322508047871
20
0.384802384447596
30
0
41
1
10
59.3501863597261
20
0.361734693350797
30
0
41
1
10
59.3595996351997
20
0.353789898912908
30
0
41
1
10
59.3782956068618
20
0.337822345474052
30
0
41
1
10
59.3876310633337
20
0.329756038680358
30
0
41
1
10
59.4155899855502
20
0.305321214922856
30
0
41
1
10
59.4341738961517
20
0.288713234242692
30
0
41
1
10
59.4711206459458
20
0.254868219304768
30
0
41
1
10
59.4890529352625
20
0.238025024376839
30
0
41
1
10
59.5151392113869
20
0.212813271175122
30
0
41
1
10
59.5236980477562
20
0.204418541515452
30
0
41
1
10
59.5405273201029
20
0.187639915502643
30
0
41
1
10
59.5488303287053
20
0.179222013320782
30
0
41
1
10
59.5729631761433
20
0.154291714955661
30
0
41
1
10
59.5880485242886
20
0.138082717609933
30
0
41
1
10
59.608937992306
20
0.114463559829062
30
0
41
1
10
59.6156087185781
20
0.106707743991734
30
0
41
1
10
59.6282729024137
20
0.0914727556855723
30
0
41
1
10
59.634220378464
20
0.0840475839784176
30
0
41
1
10
59.6396746607343
20
0.0769117748347981
30
0
0
SPLINE
5
11F
100
AcDbEntity
8
1
62
256
6
ByLayer
370
18
48
1
60
0
100
AcDbSpline
70
4
71
3
72
8
73
4
40
0
40
0
40
0
40
0
40
1
40
1
40
1
40
1
41
1
10
59.0793657188762
20
0.567612733614965
30
0
41
1
10
59.1336636682219
20
0.523856045411037
30
0
41
1
10
59.1882224104894
20
0.483143386287764
30
0
41
1
10
59.2431222709057
20
0.445695069264843
30
0
0
SPLINE
5
120
100
AcDbEntity
8
1
62
256
6
ByLayer
370
18
48
1
60
0
100
AcDbSpline
70
4
71
3
72
13
73
9
40
0
40
0
40
0
40
0
40
0.5
40
0.5
40
0.75
40
0.875
40
0.875
40
1
40
1
40
1
40
1
41
1
10
58.1463291803759
20
1.45590293537285
30
0
41
1
10
58.3024543052777
20
1.31617728986112
30
0
41
1
10
58.4579656597217
20
1.17203481113171
30
0
41
1
10
58.690995031828
20
0.949732404986236
30
0
41
1
10
58.8074528092384
20
0.837060380523013
30
0
41
1
10
58.9239830413874
20
0.722230136978624
30
0
41
1
10
59.0017032658143
20
0.645209936563703
30
0
41
1
10
59.040567387657
20
0.606478837937743
30
0
41
1
10
59.0793657188762
20
0.567612733614965
30
0
0
SPLINE
5
121
100
AcDbEntity
8
1
62
256
6
ByLayer
370
18
48
1
60
0
100
AcDbSpline
70
4
71
3
72
8
73
4
40
0
40
0
40
0
40
0
40
1
40
1
40
1
40
1
41
1
10
58.0562344203469
20
1.51972819245481
30
0
41
1
10
58.086353859496
20
1.49945729027436
30
0
41
1
10
58.116380702101
20
1.47817603657756
30
0
41
1
10
58.1463291803759
20
1.45590293537282
30
0
0
SPLINE
5
122
100
AcDbEntity
8
1
62
256
6
ByLayer
370
18
48
1
60
0
100
AcDbSpline
70
4
71
3
72
30
73
26
40
0
40
0
40
0
40
0
40
0.0625000000000315
40
0.0625000000000315
40
0.125000000000063
40
0.125000000000063
40
0.250000000000079
40
0.250000000000079
40
0.312500000000087
40
0.312500000000087
40
0.375000000000095
40
0.375000000000095
40
0.500000000000112
40
0.500000000000112
40
0.625000000000128
40
0.625000000000128
40
0.687500000000113
40
0.687500000000113
40
0.750000000000098
40
0.750000000000098
40
0.875000000000068
40
0.875000000000068
40
0.937500000000034
40
0.937500000000034
40
1
40
1
40
1
40
1
41
1
10
57.6596841660202
20
1.85858131555369
30
0
41
1
10
57.6659700837781
20
1.85106849093936
30
0
41
1
10
57.6729150102356
20
1.84324928159109
30
0
41
1
10
57.6878688730403
20
1.8271238063233
30
0
41
1
10
57.6959049806623
20
1.81879165816539
30
0
41
1
10
57.7212741143749
20
1.79329884928981
30
0
41
1
10
57.7391042643803
20
1.77637873063526
30
0
41
1
10
57.7667930499758
20
1.75104113340427
30
0
41
1
10
57.7762088132441
20
1.74258283967828
30
0
41
1
10
57.7949082334588
20
1.72603887600727
30
0
41
1
10
57.8042450448201
20
1.71790400732991
30
0
41
1
10
57.8322069643388
20
1.69384954233945
30
0
41
1
10
57.8507944575859
20
1.67826733467339
30
0
41
1
10
57.8877337496547
20
1.64789471025711
30
0
41
1
10
57.9056616881758
20
1.63345242044815
30
0
41
1
10
57.9317412380989
20
1.61277543082289
30
0
41
1
10
57.9402977994193
20
1.60604953668815
30
0
41
1
10
57.9571225792348
20
1.59293232799337
30
0
41
1
10
57.9654231530145
20
1.58651635503273
30
0
41
1
10
57.9895443681223
20
1.5680327230686
30
0
41
1
10
58.0046235075523
20
1.55669141950943
30
0
41
1
10
58.0255062356788
20
1.54135619437821
30
0
41
1
10
58.0321751438951
20
1.53652710546964
30
0
41
1
10
58.0448365595117
20
1.52753103623027
30
0
41
1
10
58.0507815114704
20
1.52339809420451
30
0
41
1
10
58.0562344203469
20
1.51972819245478
30
0
0
SPLINE
5
123
100
AcDbEntity
8
1
62
256
6
ByLayer
370
18
48
1
60
0
100
AcDbSpline
70
4
71
3
72
8
73
4
40
0
40
0
40
0
40
0
40
1
40
1
40
1
40
1
41
1
10
57.6181812379931
20
1.90875222738489
30
0
41
1
10
57.6319970004703
20
1.89185968529407
30
0
41
1
10
57.6458312738802
20
1.87513806240563
30
0
41
1
10
57.6596841660203
20
1.85858131555358
30
0
0
SPLINE
5
124
100
AcDbEntity
8
1
62
256
6
ByLayer
370
18
48
1
60
0
100
AcDbSpline
70
4
71
3
72
8
73
4
40
0
40
0
40
0
40
0
40
1
40
1
40
1
40
1
41
1
10
57
20
2.38408518489879
30
0
41
1
10
57.2075149235488
20
2.23527195855442
30
0
41
1
10
57.4131942181004
20
2.07650084777285
30
0
41
1
10
57.6181812379932
20
1.90875222738489
30
0
0
SPLINE
5
125
100
AcDbEntity
8
1
62
256
6
ByLayer
370
18
48
1
60
0
100
AcDbSpline
70
4
71
3
72
8
73
4
40
0
40
0
40
0
40
0
40
1
40
1
40
1
40
1
41
1
10
57.0000000000001
20
2.38408518489874
30
0
41
1
10
56.9305209112629
20
2.42307772851328
30
0
41
1
10
56.8607506489329
20
2.45958309460155
30
0
41
1
10
56.7905217445221
20
2.49345263170446
30
0
0
SPLINE
5
126
100
AcDbEntity
8
1
62
256
6
ByLayer
370
18
48
1
60
0
100
AcDbSpline
70
4
71
3
72
12
73
8
40
0
40
0
40
0
40
0
40
0.249999999999991
40
0.249999999999991
40
0.499999999999981
40
0.499999999999981
40
1
40
1
40
1
40
1
41
1
10
56.7905217445221
20
2.49345263170443
30
0
41
1
10
56.7488147196715
20
2.51356682311155
30
0
41
1
10
56.705944112415
20
2.53469841443055
30
0
41
1
10
56.6179994325804
20
2.57896188452423
30
0
41
1
10
56.5729242629847
20
2.60209975497366
30
0
41
1
10
56.4348204530543
20
2.67509282966776
30
0
41
1
10
56.3389689656834
20
2.72852612996005
30
0
41
1
10
56.2405217445221
20
2.7889234529454
30
0
0
SPLINE
5
127
100
AcDbEntity
8
1
62
256
6
ByLayer
370
18
48
1
60
0
100
AcDbSpline
70
4
71
3
72
45
73
41
40
0
40
0
40
0
40
0
40
0.0533561003780241
40
0.0533561003780241
40
0.106712200756048
40
0.106712200756048
40
0.160068301134072
40
0.160068301134072
40
0.213424401512096
40
0.213424401512096
40
0.320136602268141
40
0.320136602268141
40
0.346814652457153
40
0.346814652457153
40
0.373492702646164
40
0.42684880302419
40
0.42684880302419
40
0.480204903402216
40
0.480204903402216
40
0.533561003780241
40
0.533561003780241
40
0.640273204536293
40
0.640273204536293
40
0.666951254725309
40
0.666951254725309
40
0.680290279819816
40
0.680290279819816
40
0.693629304914324
40
0.746985405292358
40
0.746985405292358
40
0.800341505670393
40
0.800341505670393
40
0.853697606048427
40
0.853697606048427
40
0.907053706426462
40
0.907053706426462
40
0.960409806804496
40
0.960409806804496
40
0.987087856993515
40
1
40
1
40
1
40
1
41
1
10
56.2405217445221
20
2.7889234529454
30
0
41
1
10
56.1153322904937
20
2.86572712297408
30
0
41
1
10
55.9907269433136
20
2.93900982309617
30
0
41
1
10
55.7425293660446
20
3.07855479665349
30
0
41
1
10
55.6189113128781
20
3.14479127178146
30
0
41
1
10
55.3720700614144
20
3.2698704202991
30
0
41
1
10
55.2488289813965
20
3.32870201026805
30
0
41
1
10
55.0022207588161
20
3.43870929794252
30
0
41
1
10
54.8788780941505
20
3.48990271356658
30
0
41
1
10
54.5083583993991
20
3.63183635865065
30
0
41
1
10
54.2607311567907
20
3.71098296453786
30
0
41
1
10
53.9489813623791
20
3.78923646901058
30
0
41
1
10
53.8864271237376
20
3.80386425120469
30
0
41
1
10
53.7616945427514
20
3.83085077669941
30
0
41
1
10
53.5750036833899
20
3.86797565911462
30
0
41
1
10
53.3892358906523
20
3.89507614606333
30
0
41
1
10
53.1418439188658
20
3.92238388051402
30
0
41
1
10
53.018290048291
20
3.93163094448292
30
0
41
1
10
52.7714268863141
20
3.94139494879133
30
0
41
1
10
52.6481447811795
20
3.94190747899464
30
0
41
1
10
52.2781420566042
20
3.93027175887704
30
0
41
1
10
52.0312664743095
20
3.90495486853914
30
0
41
1
10
51.7201916493812
20
3.85103485692505
30
0
41
1
10
51.657846534046
20
3.83913799807638
30
0
41
1
10
51.5640902397473
20
3.81961712355434
30
0
41
1
10
51.5328091400668
20
3.81283236698417
30
0
41
1
10
51.4703536885564
20
3.79874723856898
30
0
41
1
10
51.3143673771339
20
3.76222073252455
30
0
41
1
10
51.1590842241974
20
3.7191984680027
30
0
41
1
10
50.911307847186
20
3.64228477130615
30
0
41
1
10
50.7877707339227
20
3.59978256278109
30
0
41
1
10
50.5411315628307
20
3.50685597724404
30
0
41
1
10
50.4180066852389
20
3.45643888547605
30
0
41
1
10
50.1715808126424
20
3.3480108941055
30
0
41
1
10
50.0482554232745
20
3.2900163367415
30
0
41
1
10
49.8009607653015
20
3.16671554260969
30
0
41
1
10
49.677015544975
20
3.10139650261135
30
0
41
1
10
49.4905024869695
20
2.99794090151653
30
0
41
1
10
49.3980937810144
20
2.94540899069247
30
0
41
1
10
49.3054394999184
20
2.89085929657091
30
0
41
1
10
49.275193143768
20
2.87285297508342
30
0
0
SPLINE
5
128
100
AcDbEntity
8
1
62
256
6
ByLayer
370
18
48
1
60
0
100
AcDbSpline
70
4
71
3
72
72
73
68
40
0
40
0
40
0
40
0
40
0.0098564195977033
40
0.0098564195977033
40
0.0323596827886658
40
0.0323596827886658
40
0.0548629459796283
40
0.0548629459796283
40
0.0773662091705909
40
0.0773662091705909
40
0.0998694723615534
40
0.0998694723615534
40
0.144875998743481
40
0.144875998743481
40
0.167379261934443
40
0.167379261934443
40
0.178630893529925
40
0.178630893529925
40
0.189882525125406
40
0.279895577889265
40
0.279895577889265
40
0.324902104271195
40
0.324902104271195
40
0.369908630653125
40
0.369908630653125
40
0.392411893844088
40
0.392411893844088
40
0.40366352543957
40
0.40366352543957
40
0.414915157035052
40
0.414915157035052
40
0.459921683416972
40
0.459921683416972
40
0.482424946607933
40
0.482424946607933
40
0.504928209798893
40
0.504928209798893
40
0.549934736180811
40
0.549934736180811
40
0.57243799937177
40
0.57243799937177
40
0.59494126256273
40
0.617444525753688
40
0.617444525753688
40
0.628696157349169
40
0.628696157349169
40
0.63994778894465
40
0.63994778894465
40
0.684954315326568
40
0.684954315326568
40
0.729960841708486
40
0.729960841708486
40
0.774967368090404
40
0.774967368090404
40
0.819973894472323
40
0.819973894472323
40
0.842477157663283
40
0.842477157663283
40
0.864980420854243
40
0.864980420854243
40
0.909986947236161
40
0.909986947236161
40
0.954993473618079
40
0.954993473618079
40
0.97749673680904
40
0.97749673680904
40
1
40
1
40
1
40
1
41
1
10
45.8611486467942
20
3.94060179471993
30
0
41
1
10
45.8952603404605
20
3.94059968486022
30
0
41
1
10
45.9293402437492
20
3.94026526673664
30
0
41
1
10
46.0411227552156
20
3.9380809314278
30
0
41
1
10
46.1186658798673
20
3.93483222102861
30
0
41
1
10
46.2733901799264
20
3.92485963884107
30
0
41
1
10
46.3505927130534
20
3.91813461032362
30
0
41
1
10
46.5050036331681
20
3.90123924098651
30
0
41
1
10
46.5822340966721
20
3.89107280443469
30
0
41
1
10
46.7370007996189
20
3.86737396759693
30
0
41
1
10
46.8145135387643
20
3.85383904964883
30
0
41
1
10
47.0474724977007
20
3.80820950274776
30
0
41
1
10
47.2033567567052
20
3.77111424442185
30
0
41
1
10
47.4378762685251
20
3.70524157394203
30
0
41
1
10
47.516142246952
20
3.68156484321364
30
0
41
1
10
47.6337437922921
20
3.64343921655367
30
0
41
1
10
47.6730187466619
20
3.63028345856614
30
0
41
1
10
47.751440249795
20
3.60318336481905
30
0
41
1
10
48.1037491294836
20
3.47769764290905
30
0
41
1
10
48.4518054032193
20
3.32102869507381
30
0
41
1
10
48.9172599353419
20
3.08047427232506
30
0
41
1
10
49.0725953232811
20
2.99501123226284
30
0
41
1
10
49.3830870085931
20
2.81304028872904
30
0
41
1
10
49.538231650405
20
2.71649589389224
30
0
41
1
10
49.7717289642999
20
2.56386039679117
30
0
41
1
10
49.8496971477394
20
2.51168403481833
30
0
41
1
10
49.9670190697139
20
2.43159453449025
30
0
41
1
10
50.0062230131128
20
2.40457011790699
30
0
41
1
10
50.0846090285526
20
2.35006356627596
30
0
41
1
10
50.1237668003256
20
2.32259936488543
30
0
41
1
10
50.3194598491751
20
2.18431292482415
30
0
41
1
10
50.4757171818338
20
2.07061465573471
30
0
41
1
10
50.7094237554255
20
1.89537239509014
30
0
41
1
10
50.7872019064687
20
1.8361630700002
30
0
41
1
10
50.942417745006
20
1.71605813338078
30
0
41
1
10
51.0198687996924
20
1.65517552009032
30
0
41
1
10
51.2519778591179
20
1.47026534862158
30
0
41
1
10
51.406375981509
20
1.34395385722297
30
0
41
1
10
51.6386724425954
20
1.15122269253803
30
0
41
1
10
51.7162348199369
20
1.08645127424262
30
0
41
1
10
51.8718006915234
20
0.956058086060921
30
0
41
1
10
52.0277722061055
20
0.824775904600642
30
0
41
1
10
52.1845031936398
20
0.691644859720896
30
0
41
1
10
52.3022983466285
20
0.591044161173301
30
0
41
1
10
52.3416349595913
20
0.557356419337481
30
0
41
1
10
52.4202464556528
20
0.489869620808577
30
0
41
1
10
52.4594857504977
20
0.456101592922011
30
0
41
1
10
52.6553784255462
20
0.287170654075283
30
0
41
1
10
52.8111074320102
20
0.151719259278849
30
0
41
1
10
53.1212559574625
20
-0.119037660663111
30
0
41
1
10
53.2757624902249
20
-0.254238432138379
30
0
41
1
10
53.5854154307381
20
-0.522242186906396
30
0
41
1
10
53.7404762187811
20
-0.655148009797699
30
0
41
1
10
54.051282065354
20
-0.918528868818584
30
0
41
1
10
54.2069672917804
20
-1.04907277031694
30
0
41
1
10
54.4409888631897
20
-1.24305749910144
30
0
41
1
10
54.519098110268
20
-1.30739102409927
30
0
41
1
10
54.6756533050687
20
-1.43524461199948
30
0
41
1
10
54.7541681767187
20
-1.49881769105522
30
0
41
1
10
54.9889894228104
20
-1.68687351529883
30
0
41
1
10
55.1450121949935
20
-1.80906663645638
30
0
41
1
10
55.457468704103
20
-2.04572194523888
30
0
41
1
10
55.6139552798535
20
-2.16014826874044
30
0
41
1
10
55.8488835450159
20
-2.32615089073852
30
0
41
1
10
55.9272182636836
20
-2.38055105148584
30
0
41
1
10
56.0838411650448
20
-2.48754777629787
30
0
41
1
10
56.1621370388459
20
-2.5401357130911
30
0
41
1
10
56.2405217445222
20
-2.59170171818337
30
0
0
SPLINE
5
129
100
AcDbEntity
8
1
62
256
6
ByLayer
370
18
48
1
60
0
100
AcDbSpline
70
4
71
3
72
14
73
10
40
0
40
0
40
0
40
0
40
0.25
40
0.25
40
0.5
40
0.5
40
0.75
40
0.75
40
1
40
1
40
1
40
1
41
1
10
56.2405217445221
20
-2.59170171818334
30
0
41
1
10
56.2872922777392
20
-2.6224700872578
30
0
41
1
10
56.3339333318651
20
-2.6544435426257
30
0
41
1
10
56.4267710695601
20
-2.72100214048905
30
0
41
1
10
56.4729685682273
20
-2.7555851440228
30
0
41
1
10
56.5647924623879
20
-2.82762654437525
30
0
41
1
10
56.6104197349234
20
-2.86508162859323
30
0
41
1
10
56.7010086197214
20
-2.94327473169824
30
0
41
1
10
56.7459818554167
20
-2.9840021335217
30
0
41
1
10
56.7905217445221
20
-3.02674065830124
30
0
0
SPLINE
5
12A
100
AcDbEntity
8
1
62
256
6
ByLayer
370
18
48
1
60
0
100
AcDbSpline
70
4
71
3
72
8
73
4
40
0
40
0
40
0
40
0
40
1
40
1
40
1
40
1
41
1
10
56.7905217445221
20
-3.02674065830124
30
0
41
1
10
56.860547236261
20
-3.09393404997766
30
0
41
1
10
56.9304734856937
20
-3.16088645586393
30
0
41
1
10
57.0000000000001
20
-3.22778274678726
30
0
0
SPLINE
5
12B
100
AcDbEntity
8
1
62
256
6
ByLayer
370
18
48
1
60
0
100
AcDbSpline
70
4
71
3
72
10
73
6
40
0
40
0
40
0
40
0
40
0.5
40
0.5
40
1
40
1
40
1
40
1
41
1
10
57.9584703396304
20
-3.82838675826744
30
0
41
1
10
57.8002283234617
20
-3.73890518628309
30
0
41
1
10
57.6415520688753
20
-3.64380862973499
30
0
41
1
10
57.3222391422236
20
-3.44338678207774
30
0
41
1
10
57.161547488005
20
-3.33810912815886
30
0
41
1
10
56.9999999999999
20
-3.22778274678717
30
0
0
SPLINE
5
12C
100
AcDbEntity
8
1
62
256
6
ByLayer
370
18
48
1
60
0
100
AcDbSpline
70
4
71
3
72
8
73
4
40
0
40
0
40
0
40
0
40
1
40
1
40
1
40
1
41
1
10
58.0309405956456
20
-3.76733274976587
30
0
41
1
10
58.0067440471959
20
-3.78822318389524
30
0
41
1
10
57.9825826306021
20
-3.80859383779884
30
0
41
1
10
57.9584703396304
20
-3.82838675826744
30
0
0
SPLINE
5
12D
100
AcDbEntity
8
1
62
256
6
ByLayer
370
18
48
1
60
0
100
AcDbSpline
70
4
71
3
72
32
73
28
40
0
40
0
40
0
40
0
40
0.0624999999999925
40
0.0624999999999925
40
0.124999999999985
40
0.124999999999985
40
0.187499999999978
40
0.187499999999978
40
0.24999999999997
40
0.24999999999997
40
0.312499999999963
40
0.312499999999963
40
0.374999999999955
40
0.374999999999955
40
0.499999999999939
40
0.499999999999939
40
0.56249999999993
40
0.56249999999993
40
0.624999999999922
40
0.624999999999922
40
0.749999999999905
40
0.749999999999905
40
0.812499999999918
40
0.812499999999918
40
0.874999999999932
40
0.874999999999932
40
1
40
1
40
1
40
1
41
1
10
58.427607001353
20
-3.92127720993201
30
0
41
1
10
58.4213790568734
20
-3.91020742375787
30
0
41
1
10
58.4145226051085
20
-3.89975526532282
30
0
41
1
10
58.3998041447787
20
-3.87983956157447
30
0
41
1
10
58.3919393590336
20
-3.87037874858419
30
0
41
1
10
58.3753281474765
20
-3.85232505791905
30
0
41
1
10
58.3667548208144
20
-3.84392231962758
30
0
41
1
10
58.3492850863323
20
-3.82824324672129
30
0
41
1
10
58.3403679401229
20
-3.8209476115635
30
0
41
1
10
58.322220917343
20
-3.8073032200349
30
0
41
1
10
58.3129413447962
20
-3.8009256599031
30
0
41
1
10
58.2943706948134
20
-3.78921024899807
30
0
41
1
10
58.2850937298981
20
-3.78387409555023
30
0
41
1
10
58.2572963608858
20
-3.76924914086638
30
0
41
1
10
58.238808546434
20
-3.76132641748427
30
0
41
1
10
58.211189140056
20
-3.75191339474992
30
0
41
1
10
58.201974778763
20
-3.74918843841482
30
0
41
1
10
58.1838776485619
20
-3.74464208825242
30
0
41
1
10
58.1749642679242
20
-3.7428079378387
30
0
41
1
10
58.1486383278589
20
-3.73859504966794
30
0
41
1
10
58.1316340538986
20
-3.73748498366524
30
0
41
1
10
58.1070784656978
20
-3.73859843102176
30
0
41
1
10
58.0990485288386
20
-3.73944483462668
30
0
41
1
10
58.0836619503693
20
-3.74211014897793
30
0
41
1
10
58.076264059642
20
-3.74392856162103
30
0
41
1
10
58.0550304221513
20
-3.75096159519816
30
0
41
1
10
58.0421180170289
20
-3.75768256409452
30
0
41
1
10
58.0309405956456
20
-3.7673327497657
30
0
0
SPLINE
5
12E
100
AcDbEntity
8
1
62
256
6
ByLayer
370
18
48
1
60
0
100
AcDbSpline
70
4
71
3
72
8
73
4
40
0
40
0
40
0
40
0
40
1
40
1
40
1
40
1
41
1
10
58.5467158404008
20
-4.13430812374037
30
0
41
1
10
58.5071704351546
20
-4.06320514841573
30
0
41
1
10
58.4674964392187
20
-3.99217821896025
30
0
41
1
10
58.427607001353
20
-3.92127720993201
30
0
0
SPLINE
5
12F
100
AcDbEntity
8
1
62
256
6
ByLayer
370
18
48
1
60
0
100
AcDbSpline
70
4
71
3
72
10
73
6
40
0
40
0
40
0
40
0
40
0.5
40
0.5
40
1
40
1
40
1
40
1
41
1
10
59.4143385518802
20
-4.47545173736191
30
0
41
1
10
59.2699979817125
20
-4.43029755485429
30
0
41
1
10
59.1254538414562
20
-4.37911164481889
30
0
41
1
10
58.8362022582186
20
-4.26526567980756
30
0
41
1
10
58.6915249326955
20
-4.20259224148859
30
0
41
1
10
58.5467158404008
20
-4.13430812374034
30
0
0
SPLINE
5
130
100
AcDbEntity
8
1
62
256
6
ByLayer
370
18
48
1
60
0
100
AcDbSpline
70
4
71
3
72
10
73
6
40
0
40
0
40
0
40
0
40
0.5
40
0.5
40
1
40
1
40
1
40
1
41
1
10
59.6144077634639
20
-4.19464870473371
30
0
41
1
10
59.5808591810088
20
-4.24314419454998
30
0
41
1
10
59.5473934747249
20
-4.29086335783666
30
0
41
1
10
59.4806941058826
20
-4.38451702288586
30
0
41
1
10
59.4474673135526
20
-4.43043201023426
30
0
41
1
10
59.4143385518802
20
-4.47545173736199
30
0
0
SPLINE
5
131
100
AcDbEntity
8
1
62
256
6
ByLayer
370
18
48
1
60
0
100
AcDbSpline
70
4
71
3
72
32
73
28
40
0
40
0
40
0
40
0
40
0.0625000000000105
40
0.0625000000000105
40
0.125000000000021
40
0.125000000000021
40
0.187500000000032
40
0.187500000000032
40
0.250000000000042
40
0.250000000000042
40
0.312500000000053
40
0.312500000000053
40
0.375000000000063
40
0.375000000000063
40
0.500000000000083
40
0.500000000000083
40
0.562500000000068
40
0.562500000000068
40
0.625000000000053
40
0.625000000000053
40
0.750000000000023
40
0.750000000000023
40
0.812500000000007
40
0.812500000000007
40
0.874999999999992
40
0.874999999999992
40
1
40
1
40
1
40
1
41
1
10
60.0110680078314
20
-4.22309726972267
30
0
41
1
10
60.0048377695487
20
-4.21256805542231
30
0
41
1
10
59.9979788842822
20
-4.20297302302063
30
0
41
1
10
59.9832554462667
20
-4.18527934594727
30
0
41
1
10
59.9753881113907
20
-4.1771848435753
30
0
41
1
10
59.9587715669705
20
-4.16231209543258
30
0
41
1
10
59.9501955848235
20
-4.15569124981326
30
0
41
1
10
59.9327203925253
20
-4.14386820815849
30
0
41
1
10
59.9238004503253
20
-4.13865115740848
30
0
41
1
10
59.9056477011029
20
-4.12942988530739
30
0
41
1
10
59.8963649731636
20
-4.12541034962385
30
0
41
1
10
59.8777897409178
20
-4.11858918169818
30
0
41
1
10
59.8685106601006
20
-4.11578403156318
30
0
41
1
10
59.8407072682788
20
-4.10898050388636
30
0
41
1
10
59.8222158662767
20
-4.10657375108482
30
0
41
1
10
59.7945910545029
20
-4.10586785627777
30
0
41
1
10
59.7853762603568
20
-4.10612779465004
30
0
41
1
10
59.767280919304
20
-4.10760652353764
30
0
41
1
10
59.7583685277847
20
-4.10882185355456
30
0
41
1
10
59.7320457031583
20
-4.11387140490655
30
0
41
1
10
59.7150436915665
20
-4.11908675038256
30
0
41
1
10
59.6904915741792
20
-4.12995199132212
30
0
41
1
10
59.6824677189636
20
-4.13409438083855
30
0
41
1
10
59.6670929834531
20
-4.14331326419637
30
0
41
1
10
59.6597006817375
20
-4.14840547734139
30
0
41
1
10
59.6384825776609
20
-4.16524985621001
30
0
41
1
10
59.6255789267464
20
-4.17850045060331
30
0
41
1
10
59.6144077634639
20
-4.19464870473365
30
0
0
SPLINE
5
132
100
AcDbEntity
8
1
62
256
6
ByLayer
370
18
48
1
60
0
100
AcDbSpline
70
4
71
3
72
10
73
6
40
0
40
0
40
0
40
0
40
0.5
40
0.5
40
1
40
1
40
1
40
1
41
1
10
60.2772959211532
20
-4.6693874076438
30
0
41
1
10
60.2333311703999
20
-4.59637000992217
30
0
41
1
10
60.1891654233134
20
-4.52262978088677
30
0
41
1
10
60.1004133786551
20
-4.37381302151135
30
0
41
1
10
60.0558769478124
20
-4.29882518095494
30
0
41
1
10
60.0110680078315
20
-4.22309726972267
30
0
0
SPLINE
5
133
100
AcDbEntity
8
1
62
256
6
ByLayer
370
18
48
1
60
0
100
AcDbSpline
70
4
71
3
72
10
73
6
40
0
40
0
40
0
40
0
40
0.5
40
0.5
40
1
40
1
40
1
40
1
41
1
10
60.8714247512079
20
-4.70992678363947
30
0
41
1
10
60.7725814422489
20
-4.70975681033292
30
0
41
1
10
60.6736591596228
20
-4.70622550896294
30
0
41
1
10
60.4755803340391
20
-4.69264662922967
30
0
41
1
10
60.3764572972418
20
-4.68260778118582
30
0
41
1
10
60.2772959211532
20
-4.66938740764377
30
0
0
SPLINE
5
134
100
AcDbEntity
8
1
62
256
6
ByLayer
370
18
48
1
60
0
100
AcDbSpline
70
4
71
3
72
10
73
6
40
0
40
0
40
0
40
0
40
0.5
40
0.5
40
1
40
1
40
1
40
1
41
1
10
61.1977939928191
20
-4.11707996669062
30
0
41
1
10
61.1428288559408
20
-4.21866558878691
30
0
41
1
10
61.0880947428521
20
-4.31901881117673
30
0
41
1
10
60.9792730920237
20
-4.51679673914876
30
0
41
1
10
60.9252114949633
20
-4.61414639691662
30
0
41
1
10
60.871424751208
20
-4.7099267836395
30
0
0
SPLINE
5
135
100
AcDbEntity
8
1
62
256
6
ByLayer
370
18
48
1
60
0
100
AcDbSpline
70
4
71
3
72
32
73
28
40
0
40
0
40
0
40
0
40
0.0624999999999978
40
0.0624999999999978
40
0.124999999999996
40
0.124999999999996
40
0.187499999999994
40
0.187499999999994
40
0.249999999999991
40
0.249999999999991
40
0.312499999999989
40
0.312499999999989
40
0.374999999999987
40
0.374999999999987
40
0.500000000000035
40
0.500000000000035
40
0.562500000000035
40
0.562500000000035
40
0.625000000000034
40
0.625000000000034
40
0.750000000000035
40
0.750000000000035
40
0.812500000000036
40
0.812500000000036
40
0.875000000000037
40
0.875000000000037
40
1
40
1
40
1
40
1
41
1
10
61.5944217848329
20
-4.01744073057444
30
0
41
1
10
61.5881992921118
20
-4.00874576774643
30
0
41
1
10
61.5813505844399
20
-4.00118424667775
30
0
41
1
10
61.5666512030328
20
-3.98787650832057
30
0
41
1
10
61.558797758842
20
-3.98213532637806
30
0
41
1
10
61.5422120815819
20
-3.97225042004928
30
0
41
1
10
61.5336458487977
20
-3.96820876841522
30
0
41
1
10
61.5161949243941
20
-3.9616613682216
30
0
41
1
10
61.5072869050477
20
-3.95914535613977
30
0
41
1
10
61.489157376118
20
-3.95543933685531
30
0
41
1
10
61.479887131194
20
-3.95424918565189
30
0
41
1
10
61.4613208796884
20
-3.95311104335536
30
0
41
1
10
61.4520454866755
20
-3.95315608744545
30
0
41
1
10
61.4242509752463
20
-3.95493111244284
30
0
41
1
10
61.4057625800103
20
-3.95828016010572
30
0
41
1
10
61.3781388509366
20
-3.96628020107494
30
0
41
1
10
61.3689202377718
20
-3.96946364735285
30
0
41
1
10
61.3508114353328
20
-3.97672987951921
30
0
41
1
10
61.3418924859895
20
-3.98081785702235
30
0
41
1
10
61.3155507301904
20
-3.99442814549269
30
0
41
1
10
61.2985370937996
20
-4.00527559334594
30
0
41
1
10
61.2739698919316
20
-4.02448135688732
30
0
41
1
10
61.2659332701933
20
-4.03139285483317
30
0
41
1
10
61.250535232699
20
-4.046002797912
30
0
41
1
10
61.243132657576
20
-4.05373017680731
30
0
41
1
10
61.2218878177805
20
-4.07828340589566
30
0
41
1
10
61.2089717211458
20
-4.09642148114546
30
0
41
1
10
61.1977939928191
20
-4.11707996669068
30
0
0
SPLINE
5
136
100
AcDbEntity
8
1
62
256
6
ByLayer
370
18
48
1
60
0
100
AcDbSpline
70
4
71
3
72
12
73
8
40
0
40
0
40
0
40
0
40
0.499999999999987
40
0.499999999999987
40
0.749999999999994
40
0.749999999999994
40
1
40
1
40
1
40
1
41
1
10
62.0061075211314
20
-4.56167012921193
30
0
41
1
10
61.9385095188921
20
-4.47754417961221
30
0
41
1
10
61.8703913932794
20
-4.39002245982073
30
0
41
1
10
61.7674698778824
20
-4.2539126446444
30
0
41
1
10
61.7330257707902
20
-4.20772163837958
30
0
41
1
10
61.663922758982
20
-4.11383341563763
30
0
41
1
10
61.6292585517555
20
-4.06611967758397
30
0
41
1
10
61.5944217848329
20
-4.01744073057446
30
0
0
SPLINE
5
137
100
AcDbEntity
8
1
62
256
6
ByLayer
370
18
48
1
60
0
100
AcDbSpline
70
4
71
3
72
8
73
4
40
0
40
0
40
0
40
0
40
1
40
1
40
1
40
1
41
1
10
62.3278396090749
20
-4.4653215181184
30
0
41
1
10
62.2206028453043
20
-4.50145533634037
30
0
41
1
10
62.1133515813997
20
-4.53353651476095
30
0
41
1
10
62.0061075211314
20
-4.5616701292119
30
0
0
SPLINE
5
138
100
AcDbEntity
8
1
62
256
6
ByLayer
370
18
48
1
60
0
100
AcDbSpline
70
4
71
3
72
12
73
8
40
0
40
0
40
0
40
0
40
0.249999999999996
40
0.249999999999996
40
0.499999999999991
40
0.499999999999991
40
1
40
1
40
1
40
1
41
1
10
62.7810811186549
20
-3.54272374334079
30
0
41
1
10
62.7427641507036
20
-3.62026132384173
30
0
41
1
10
62.7045479933758
20
-3.69767286323298
30
0
41
1
10
62.6284237771653
20
-3.85223061942233
30
0
41
1
10
62.590517062689
20
-3.92937615415664
30
0
41
1
10
62.4771488282041
20
-4.16038211559635
30
0
41
1
10
62.4022301371905
20
-4.31341530247664
30
0
41
1
10
62.3278396090749
20
-4.4653215181184
30
0
0
SPLINE
5
139
100
AcDbEntity
8
1
62
256
6
ByLayer
370
18
48
1
60
0
100
AcDbSpline
70
4
71
3
72
28
73
24
40
0
40
0
40
0
40
0
40
0.0190537229486275
40
0.0190537229486275
40
0.0945111288756786
40
0.0945111288756786
40
0.16996853480273
40
0.16996853480273
40
0.245425940729781
40
0.245425940729781
40
0.396340752583822
40
0.396340752583822
40
0.471798158510844
40
0.471798158510844
40
0.547255564437866
40
0.547255564437866
40
0.69817037629191
40
0.69817037629191
40
0.773627782218932
40
0.773627782218932
40
0.849085188145954
40
0.849085188145954
40
1
40
1
40
1
40
1
41
1
10
63.1148608563701
20
-3.3021264750729
30
0
41
1
10
63.1126815041267
20
-3.30197205278688
30
0
41
1
10
63.1104901817779
20
-3.30186668143267
30
0
41
1
10
63.0995707871942
20
-3.30157531141023
30
0
41
1
10
63.0906702562037
20
-3.30207165431426
30
0
41
1
10
63.0725557400344
20
-3.30434202507288
30
0
41
1
10
63.0632939270631
20
-3.30613058860854
30
0
41
1
10
63.0447350845911
20
-3.31082942539243
30
0
41
1
10
63.0354629981655
20
-3.31372623700219
30
0
41
1
10
63.0076772431413
20
-3.32388243040688
30
0
41
1
10
62.9891931355596
20
-3.33258872884011
30
0
41
1
10
62.961573608826
20
-3.34832795274568
30
0
41
1
10
62.9523538349339
20
-3.35404993763788
30
0
41
1
10
62.9342370647011
20
-3.36622434448472
30
0
41
1
10
62.9253139829825
20
-3.3726885046182
30
0
41
1
10
62.8989594617037
20
-3.39320238304561
30
0
41
1
10
62.8819368129188
20
-3.40835605702398
30
0
41
1
10
62.8573558451658
20
-3.43355046131251
30
0
41
1
10
62.8493084996735
20
-3.44238657219754
30
0
41
1
10
62.8338883313843
20
-3.46060255947091
30
0
41
1
10
62.8264753615369
20
-3.47002016092947
30
0
41
1
10
62.8052017591279
20
-3.49927835175529
30
0
41
1
10
62.7922695684101
20
-3.52008298208102
30
0
41
1
10
62.7810811186539
20
-3.54272374334258
30
0
0
SPLINE
5
13A
100
AcDbEntity
8
1
62
256
6
ByLayer
370
18
48
1
60
0
100
AcDbSpline
70
4
71
3
72
8
73
4
40
0
40
0
40
0
40
0
40
1
40
1
40
1
40
1
41
1
10
63.6874259353159
20
-3.72736618803995
30
0
41
1
10
63.7379755479554
20
-3.68902157984533
30
0
41
1
10
63.7884976480897
20
-3.650038661758
30
0
41
1
10
63.8389951920294
20
-3.61042355830241
30
0
0
SPLINE
5
13B
100
AcDbEntity
8
1
62
256
6
ByLayer
370
18
48
1
60
0
100
AcDbSpline
70
4
71
3
72
8
73
4
40
0
40
0
40
0
40
0
40
1
40
1
40
1
40
1
41
1
10
63.8710056299452
20
-3.54289096593754
30
0
41
1
10
63.8603225301135
20
-3.56538505661291
30
0
41
1
10
63.8496523316633
20
-3.58789654874909
30
0
41
1
10
63.8389951920294
20
-3.61042355830241
30
0
0
SPLINE
5
13C
100
AcDbEntity
8
1
62
256
6
ByLayer
370
18
48
1
60
0
100
AcDbSpline
70
4
71
3
72
8
73
4
40
0
40
0
40
0
40
0
40
1
40
1
40
1
40
1
41
1
10
56.9999999999999
20
-4.19592734158601
30
0
41
1
10
57.1142204606953
20
-4.22059849648926
30
0
41
1
10
57.2277455491921
20
-4.24088337708767
30
0
41
1
10
57.3407768609449
20
-4.25680909179638
30
0
0
SPLINE
5
13D
100
AcDbEntity
8
1
62
256
6
ByLayer
370
18
48
1
60
0
100
AcDbSpline
70
4
71
3
72
8
73
4
40
0
40
0
40
0
40
0
40
1
40
1
40
1
40
1
41
1
10
57.0000000000001
20
-4.19592734158604
30
0
41
1
10
56.9926584317766
20
-4.19108062474547
30
0
41
1
10
56.9853135777191
20
-4.18621111240373
30
0
41
1
10
56.9779652594879
20
-4.1813188033824
30
0
0
SPLINE
5
13E
100
AcDbEntity
8
1
62
256
6
ByLayer
370
18
48
1
60
0
100
AcDbSpline
70
4
71
3
72
8
73
4
40
0
40
0
40
0
40
0
40
1
40
1
40
1
40
1
41
1
10
56.8518065781489
20
-4.09534714297078
30
0
41
1
10
56.8314145084849
20
-4.08113682094935
30
0
41
1
10
56.8109877348623
20
-4.06675296774927
30
0
41
1
10
56.7905217445221
20
-4.05219546147885
30
0
0
SPLINE
5
13F
100
AcDbEntity
8
1
62
256
6
ByLayer
370
18
48
1
60
0
100
AcDbSpline
70
4
71
3
72
12
73
8
40
0
40
0
40
0
40
0
40
0.24999999999999
40
0.24999999999999
40
0.499999999999981
40
0.499999999999981
40
1
40
1
40
1
40
1
41
1
10
56.7905217445221
20
-4.05219546147885
30
0
41
1
10
56.7488147196714
20
-4.02252915822692
30
0
41
1
10
56.705944112415
20
-3.99515964354799
30
0
41
1
10
56.6179994325804
20
-3.94484821243083
30
0
41
1
10
56.5729242629847
20
-3.92191380438564
30
0
41
1
10
56.4348204530543
20
-3.85992038547937
30
0
41
1
10
56.3389689656834
20
-3.82761174678731
30
0
41
1
10
56.2405217445221
20
-3.80541086534063
30
0
0
SPLINE
5
140
100
AcDbEntity
8
1
62
256
6
ByLayer
370
18
48
1
60
0
100
AcDbSpline
70
4
71
3
72
78
73
74
40
0
40
0
40
0
40
0
40
0.0312500000000001
40
0.0312500000000001
40
0.0625000000000002
40
0.0625000000000002
40
0.0937500000000003
40
0.0937500000000003
40
0.125
40
0.125
40
0.187499999999999
40
0.187499999999999
40
0.203124999999998
40
0.203124999999998
40
0.218749999999998
40
0.249999999999997
40
0.249999999999997
40
0.281249999999996
40
0.281249999999996
40
0.312499999999995
40
0.312499999999995
40
0.374999999999993
40
0.374999999999993
40
0.390624999999992
40
0.390624999999992
40
0.398437499999992
40
0.398437499999992
40
0.406249999999991
40
0.437499999999991
40
0.437499999999991
40
0.468749999999991
40
0.468749999999991
40
0.499999999999991
40
0.499999999999991
40
0.531249999999991
40
0.531249999999991
40
0.562499999999992
40
0.562499999999992
40
0.578124999999991
40
0.58593749999999
40
0.58593749999999
40
0.59374999999999
40
0.59374999999999
40
0.624999999999988
40
0.624999999999988
40
0.656249999999986
40
0.656249999999986
40
0.687499999999984
40
0.687499999999984
40
0.74999999999998
40
0.74999999999998
40
0.781249999999977
40
0.781249999999977
40
0.789062499999977
40
0.789062499999977
40
0.796874999999977
40
0.812499999999978
40
0.812499999999978
40
0.843749999999981
40
0.843749999999981
40
0.874999999999984
40
0.874999999999984
40
0.906249999999987
40
0.906249999999987
40
0.93749999999999
40
0.93749999999999
40
0.968749999999993
40
0.968749999999993
40
0.976562499999994
40
0.976562499999994
40
0.984374999999996
40
0.984374999999996
40
1
40
1
40
1
40
1
41
1
10
56.2405217445221
20
-3.80541086534063
30
0
41
1
10
56.1153322904937
20
-3.77717932975767
30
0
41
1
10
55.9907269433136
20
-3.74473405155206
30
0
41
1
10
55.7425293660446
20
-3.671618123379
30
0
41
1
10
55.6189113128781
20
-3.63095163671613
30
0
41
1
10
55.3720700614144
20
-3.54173816055601
30
0
41
1
10
55.2488289813966
20
-3.49320086004292
30
0
41
1
10
55.0022207588161
20
-3.38858901533658
30
0
41
1
10
54.8788780941505
20
-3.33250376350853
30
0
41
1
10
54.5083583993991
20
-3.1531309951709
30
0
41
1
10
54.2607311567907
20
-3.01873134896931
30
0
41
1
10
53.948981362379
20
-2.83255515745253
30
0
41
1
10
53.8864271237375
20
-2.79435948185872
30
0
41
1
10
53.7616945427514
20
-2.71661248409302
30
0
41
1
10
53.5750036833898
20
-2.5978723759884
30
0
41
1
10
53.3892358906523
20
-2.47309672369096
30
0
41
1
10
53.1418439188659
20
-2.30193238901444
30
0
41
1
10
53.0182900482911
20
-2.21396217859223
30
0
41
1
10
52.7714268863142
20
-2.03332808844519
30
0
41
1
10
52.6481447811796
20
-1.94063461506093
30
0
41
1
10
52.2781420566043
20
-1.65600025852603
30
0
41
1
10
52.0312664743094
20
-1.45750636366964
30
0
41
1
10
51.7201916493812
20
-1.20053634363538
30
0
41
1
10
51.657846534046
20
-1.14870630341855
30
0
41
1
10
51.5640902397473
20
-1.07034763057538
30
0
41
1
10
51.5328091400667
20
-1.04413351302543
30
0
41
1
10
51.4703536885564
20
-0.991662783760859
30
0
41
1
10
51.3143673771339
20
-0.860282908272779
30
0
41
1
10
51.1590842241973
20
-0.727956511652081
30
0
41
1
10
50.9113078471859
20
-0.51528465302107
30
0
41
1
10
50.7877707339227
20
-0.408459123547772
30
0
41
1
10
50.5411315628307
20
-0.194139628341361
30
0
41
1
10
50.4180066852389
20
-0.0866720623567403
30
0
41
1
10
50.1715808126423
20
0.128221624801114
30
0
41
1
10
50.0482554232746
20
0.23561934311428
30
0
41
1
10
49.8009607653015
20
0.449829372840895
30
0
41
1
10
49.677015544975
20
0.556669613997173
30
0
41
1
10
49.4905024869695
20
0.716361600118262
30
0
41
1
10
49.3970973822054
20
0.796065792166047
30
0
41
1
10
49.3034413779108
20
0.875525159893755
30
0
41
1
10
49.2409449678062
20
0.928439876835824
30
0
41
1
10
49.2096583515079
20
0.954875540732047
30
0
41
1
10
49.0535426423606
20
1.08650007909483
30
0
41
1
10
48.9293124806296
20
1.190352890328
30
0
41
1
10
48.6815435587848
20
1.39452525680801
30
0
41
1
10
48.5579839950561
20
1.49482284264818
30
0
41
1
10
48.3110401025283
20
1.69139563741723
30
0
41
1
10
48.1876847537496
20
1.78770335280677
30
0
41
1
10
47.8176007796143
20
2.07034667183083
30
0
41
1
10
47.5708475020492
20
2.25041165117401
30
0
41
1
10
47.1989824316971
20
2.50604862125653
30
0
41
1
10
47.0747289603575
20
2.58883615737784
30
0
41
1
10
46.9187082861102
20
2.68892674448355
30
0
41
1
10
46.8874471855804
20
2.70878839029459
30
0
41
1
10
46.8250145461894
20
2.74805644229343
30
0
41
1
10
46.7314615901859
20
2.80630111444589
30
0
41
1
10
46.6381556352007
20
2.86255437617129
30
0
41
1
10
46.4517633019574
20
2.97235613437093
30
0
41
1
10
46.3277519848172
20
3.0419245540578
30
0
41
1
10
46.0802757378572
20
3.17397471812868
30
0
41
1
10
45.9568760436173
20
3.23649714390376
30
0
41
1
10
45.7103699815297
20
3.35427624891076
30
0
41
1
10
45.587226753473
20
3.40950690033506
30
0
41
1
10
45.3405861862919
20
3.51229163664706
30
0
41
1
10
45.2171050791316
20
3.55985804558949
30
0
41
1
10
44.9694854071652
20
3.64710077764079
30
0
41
1
10
44.845346271269
20
3.68677604783036
30
0
41
1
10
44.6895042466454
20
3.73124469608368
30
0
41
1
10
44.6583021366979
20
3.73988197888619
30
0
41
1
10
44.5958266526345
20
3.75663947047895
30
0
41
1
10
44.5645295372354
20
3.76476553314112
30
0
41
1
10
44.4707294332815
20
3.78831108406825
30
0
41
1
10
44.4083330904546
20
3.80289633596834
30
0
41
1
10
44.346061292069
20
3.8163794174686
30
0
0
SPLINE
5
141
100
AcDbEntity
8
1
62
256
6
ByLayer
370
18
48
1
60
0
100
AcDbSpline
70
4
71
3
72
32
73
28
40
0
40
0
40
0
40
0
40
0.0047003964412779
40
0.0047003964412779
40
0.0805892262411502
40
0.0805892262411502
40
0.232366885840896
40
0.232366885840896
40
0.30825571564077
40
0.30825571564077
40
0.384144545440643
40
0.384144545440643
40
0.460033375240515
40
0.460033375240515
40
0.535922205040388
40
0.535922205040388
40
0.687699864640138
40
0.687699864640138
40
0.763588694440015
40
0.763588694440015
40
0.839477524239891
40
0.839477524239891
40
0.915366354039768
40
0.915366354039768
40
0.991255183839645
40
0.991255183839645
40
1
40
1
40
1
40
1
41
1
10
44.3460642754582
20
3.81638197888245
30
0
41
1
10
44.3440300630999
20
3.81192887836411
30
0
41
1
10
44.3419842266272
20
3.807470579403
30
0
41
1
10
44.3066973183471
20
3.73093924307338
30
0
41
1
10
44.2694023339749
20
3.65710454692089
30
0
41
1
10
44.145734796456
20
3.43048001198534
30
0
41
1
10
44.0462103366296
20
3.27041482499431
30
0
41
1
10
43.8779473075874
20
3.03134096303913
30
0
41
1
10
43.8185980314294
20
2.95154358746865
30
0
41
1
10
43.6925016533756
20
2.79170821134386
30
0
41
1
10
43.6249427820698
20
2.71075278993715
30
0
41
1
10
43.4864989638173
20
2.55490503616423
30
0
41
1
10
43.4153962402369
20
2.47977282566291
30
0
41
1
10
43.2690213819181
20
2.33569700287614
30
0
41
1
10
43.1940103926059
20
2.26574902139163
30
0
41
1
10
42.9673474917296
20
2.06232446116991
30
0
41
1
10
42.8176487375363
20
1.93984230196852
30
0
41
1
10
42.5952864542974
20
1.77648255586649
30
0
41
1
10
42.5209714989145
20
1.72513009007022
30
0
41
1
10
42.3770184689534
20
1.63245893465009
30
0
41
1
10
42.3071790961644
20
1.59093571810664
30
0
41
1
10
42.1717423337475
20
1.51744127230134
30
0
41
1
10
42.1061461660878
20
1.48547279463574
30
0
41
1
10
41.9792313834353
20
1.43116792107392
30
0
41
1
10
41.9181018538133
20
1.40898238159716
30
0
41
1
10
41.8541626868479
20
1.39008089229122
30
0
41
1
10
41.8475980052919
20
1.38819409257201
30
0
41
1
10
41.8410751166537
20
1.38637287994641
30
0
0
SPLINE
5
142
100
AcDbEntity
8
1
62
256
6
ByLayer
370
18
48
1
60
0
100
AcDbSpline
70
4
71
3
72
89
73
85
40
0
40
0
40
0
40
0
40
0.0366649544355979
40
0.0366649544355979
40
0.0549974316533969
40
0.0549974316533969
40
0.0733299088711958
40
0.0733299088711958
40
0.109994863306794
40
0.109994863306794
40
0.128327340524593
40
0.128327340524593
40
0.137493579133492
40
0.137493579133492
40
0.146659817742392
40
0.146659817742392
40
0.183324772177986
40
0.183324772177986
40
0.21998972661358
40
0.21998972661358
40
0.256654681049174
40
0.256654681049174
40
0.274987158266972
40
0.274987158266972
40
0.293319635484769
40
0.311652112702566
40
0.311652112702566
40
0.320818351311464
40
0.320818351311464
40
0.329984589920361
40
0.329984589920361
40
0.366649544355952
40
0.366649544355952
40
0.384982021573748
40
0.384982021573748
40
0.403314498791544
40
0.403314498791544
40
0.42164697600934
40
0.42164697600934
40
0.439979453227137
40
0.439979453227137
40
0.476644407662729
40
0.476644407662729
40
0.494976884880526
40
0.494976884880526
40
0.504143123489424
40
0.504143123489424
40
0.513309362098321
40
0.586639270969502
40
0.586639270969502
40
0.623304225405094
40
0.623304225405094
40
0.659969179840685
40
0.659969179840685
40
0.678301657058482
40
0.678301657058482
40
0.68746789566738
40
0.68746789566738
40
0.696634134276278
40
0.696634134276278
40
0.73329908871187
40
0.73329908871187
40
0.751631565929665
40
0.751631565929665
40
0.769964043147459
40
0.769964043147459
40
0.806628997583051
40
0.806628997583051
40
0.824961474800847
40
0.824961474800847
40
0.843293952018644
40
0.861626429236441
40
0.861626429236441
40
0.87079266784534
40
0.87079266784534
40
0.879958906454239
40
0.879958906454239
40
0.91662386088984
40
0.91662386088984
40
0.953288815325441
40
0.953288815325441
40
0.989953769761041
40
0.989953769761041
40
1
40
1
40
1
40
1
41
1
10
41.288563388029
20
1.83493195807856
30
0
41
1
10
41.4448516810845
20
1.71458474791146
30
0
41
1
10
41.6003543198772
20
1.5911400444711
30
0
41
1
10
41.8334964556162
20
1.40249492633239
30
0
41
1
10
41.9112056547678
20
1.3390490123962
30
0
41
1
10
42.0667859470644
20
1.21122504502406
30
0
41
1
10
42.1446450983225
20
1.14683435195255
30
0
41
1
10
42.378462449256
20
0.952269872377599
30
0
41
1
10
42.5346782093505
20
0.820729905602093
30
0
41
1
10
42.7693107448159
20
0.620395254519195
30
0
41
1
10
42.8475516082106
20
0.553086157928362
30
0
41
1
10
42.9650565163222
20
0.451422992004069
30
0
41
1
10
43.0042823125981
20
0.417392209487701
30
0
41
1
10
43.0825684044884
20
0.349336121127834
30
0
41
1
10
43.121644894997
20
0.315296975764255
30
0
41
1
10
43.3167630932972
20
0.145125326741919
30
0
41
1
10
43.4719849650023
20
0.0090363762280106
30
0
41
1
10
43.7828749718209
20
-0.260535566912608
30
0
41
1
10
43.9386813418146
20
-0.393868646585503
30
0
41
1
10
44.2491609021777
20
-0.659815938107755
30
0
41
1
10
44.4037653883645
20
-0.792498903974433
30
0
41
1
10
44.6359851239773
20
-0.989605025071057
30
0
41
1
10
44.7134507944448
20
-1.05497983468098
30
0
41
1
10
44.8687589388478
20
-1.18478018323458
30
0
41
1
10
45.0244237287007
20
-1.31365456218666
30
0
41
1
10
45.1809216550336
20
-1.44053680712307
30
0
41
1
10
45.2986580561328
20
-1.53489106742833
30
0
41
1
10
45.3380007787416
20
-1.56623674778848
30
0
41
1
10
45.4165704009227
20
-1.62845368667428
30
0
41
1
10
45.4558076844046
20
-1.65933366540901
30
0
41
1
10
45.6517792982118
20
-1.8125788286867
30
0
41
1
10
45.8079185586134
20
-1.9314393304235
30
0
41
1
10
46.0411227552155
20
-2.10429993401615
30
0
41
1
10
46.1186658798672
20
-2.16103671870553
30
0
41
1
10
46.2733901799263
20
-2.27271196070072
30
0
41
1
10
46.3505927130533
20
-2.32762793658563
30
0
41
1
10
46.5050036331681
20
-2.43530544237964
30
0
41
1
10
46.5822340966721
20
-2.48804691454504
30
0
41
1
10
46.7370007996188
20
-2.59111932184521
30
0
41
1
10
46.8145135387642
20
-2.64147263000947
30
0
41
1
10
47.0474724977006
20
-2.78897044722763
30
0
41
1
10
47.2033567567051
20
-2.88255029378109
30
0
41
1
10
47.4378762685249
20
-3.01583463378861
30
0
41
1
10
47.5161422469517
20
-3.05909612144575
30
0
41
1
10
47.6337437922919
20
-3.12215404320045
30
0
41
1
10
47.6730187466617
20
-3.14288470836448
30
0
41
1
10
47.7514402497948
20
-3.18359100957022
30
0
41
1
10
48.1037491294834
20
-3.36338216559415
30
0
41
1
10
48.4518054032193
20
-3.51210882963906
30
0
41
1
10
48.9172599353418
20
-3.67161576300879
30
0
41
1
10
49.072595323281
20
-3.71837612628207
30
0
41
1
10
49.383087008593
20
-3.79920447046828
30
0
41
1
10
49.5382316504048
20
-3.83324460196275
30
0
41
1
10
49.7717289642997
20
-3.87416472220846
30
0
41
1
10
49.8496971477392
20
-3.88611369529599
30
0
41
1
10
49.9670190697136
20
-3.90143171217031
30
0
41
1
10
50.0062230131125
20
-3.90610716755458
30
0
41
1
10
50.0846090285523
20
-3.91456148908301
30
0
41
1
10
50.1237668003255
20
-3.91833859328324
30
0
41
1
10
50.319459849175
20
-3.93499295898655
30
0
41
1
10
50.4757171818337
20
-3.94120405350202
30
0
41
1
10
50.7094237554254
20
-3.9402289637913
30
0
41
1
10
50.7872019064686
20
-3.93818408664504
30
0
41
1
10
50.942417745006
20
-3.93064991855607
30
0
41
1
10
51.0198687996923
20
-3.9251590875069
30
0
41
1
10
51.2519778591178
20
-3.90350947722649
30
0
41
1
10
51.4063759815089
20
-3.88215930870569
30
0
41
1
10
51.6386724425953
20
-3.83991554616296
30
0
41
1
10
51.7162348199367
20
-3.82413732045566
30
0
41
1
10
51.8718006915232
20
-3.78924157839808
30
0
41
1
10
52.0277722525824
20
-3.75099964411072
30
0
41
1
10
52.1845031936396
20
-3.70601993045224
30
0
41
1
10
52.3022983466282
20
-3.66970516359339
30
0
41
1
10
52.3416349595911
20
-3.65715877758853
30
0
41
1
10
52.4202464556526
20
-3.63125086142503
30
0
41
1
10
52.4594857504974
20
-3.61790195099201
30
0
41
1
10
52.655378425546
20
-3.54920616124338
30
0
41
1
10
52.8111074320101
20
-3.48800381646817
30
0
41
1
10
53.1212559574624
20
-3.35359771154688
30
0
41
1
10
53.2757624902248
20
-3.28042649436745
30
0
41
1
10
53.585415430738
20
-3.12344578838835
30
0
41
1
10
53.7404762187809
20
-3.03960270202901
30
0
41
1
10
53.9384596817456
20
-2.92610758704515
30
0
41
1
10
53.9810614157524
20
-2.90130120064001
30
0
41
1
10
54.0236853078685
20
-2.87609586831255
30
0
0
SPLINE
5
143
100
AcDbEntity
8
1
62
256
6
ByLayer
370
18
48
1
60
0
100
AcDbSpline
70
4
71
3
72
24
73
20
40
0
40
0
40
0
40
0
40
0.105619063144463
40
0.105619063144463
40
0.211238126288925
40
0.211238126288925
40
0.316857189433388
40
0.316857189433388
40
0.422476252577851
40
0.422476252577851
40
0.528095315722314
40
0.528095315722314
40
0.633714378866777
40
0.633714378866777
40
0.844952505155614
40
0.844952505155614
40
0.950571568300077
40
0.950571568300077
40
1
40
1
40
1
40
1
41
1
10
65.2890010848816
20
4.2106944720378
30
0
41
1
10
65.2827826479546
20
4.20066580912038
30
0
41
1
10
65.2759383990997
20
4.19164736676734
30
0
41
1
10
65.2612479368256
20
4.17522997099334
30
0
41
1
10
65.2533989703126
20
4.16783547268565
30
0
41
1
10
65.2368220932312
20
4.1544720522254
30
0
41
1
10
65.2282565218381
20
4.14863754843137
30
0
41
1
10
65.2108090868281
20
4.13844948626132
30
0
41
1
10
65.2019024797814
20
4.1340796316191
30
0
41
1
10
65.1837757292633
20
4.12660640665609
30
0
41
1
10
65.1745072763242
20
4.1234928030633
30
0
41
1
10
65.1559397138809
20
4.11850323816003
30
0
41
1
10
65.146663891307
20
4.1166254025193
30
0
41
1
10
65.1188688260578
20
4.11263615777355
30
0
41
1
10
65.1003810735082
20
4.11214825950819
30
0
41
1
10
65.0727594703646
20
4.11438614235777
30
0
41
1
10
65.063541030651
20
4.11564165438813
30
0
41
1
10
65.0502487022287
20
4.11818488634475
30
0
41
1
10
65.0460408797498
20
4.11909991244818
30
0
41
1
10
65.0418630526489
20
4.12011840797123
30
0
0
SPLINE
5
144
100
AcDbEntity
8
1
62
256
6
ByLayer
370
18
48
1
60
0
100
AcDbSpline
70
4
71
3
72
12
73
8
40
0
40
0
40
0
40
0
40
0.50000000000001
40
0.50000000000001
40
0.750000000000005
40
0.750000000000005
40
1
40
1
40
1
40
1
41
1
10
65.7993881414766
20
5.00696000836459
30
0
41
1
10
65.7159740959058
20
4.88187563982871
30
0
41
1
10
65.6316449197777
20
4.7525435930884
30
0
41
1
10
65.5039883521094
20
4.5531624346398
30
0
41
1
10
65.4612704656234
20
4.48584711630824
30
0
41
1
10
65.375458049268
20
4.34957382725699
30
0
41
1
10
65.3323735646744
20
4.28064259321977
30
0
41
1
10
65.2890010848816
20
4.2106944720378
30
0
0
SPLINE
5
145
100
AcDbEntity
8
1
62
256
6
ByLayer
370
18
48
1
60
0
100
AcDbSpline
70
4
71
3
72
8
73
4
40
0
40
0
40
0
40
0
40
1
40
1
40
1
40
1
41
1
10
65.7993881414781
20
5.00696000837684
30
0
41
1
10
65.8496181719891
20
4.99777440158798
30
0
41
1
10
65.8997764315258
20
4.98767887362467
30
0
41
1
10
65.9498495501919
20
4.97667164355155
30
0
0
SPLINE
5
146
100
AcDbEntity
8
1
62
256
6
ByLayer
370
18
48
1
60
0
100
AcDbSpline
70
4
71
3
72
14
73
10
40
0
40
0
40
0
40
0
40
0.25
40
0.25
40
0.5
40
0.5
40
0.75
40
0.75
40
1
40
1
40
1
40
1
41
1
10
66.4758028937705
20
3.97651106248668
30
0
41
1
10
66.4311629114039
20
4.06276587064806
30
0
41
1
10
66.3867056097287
20
4.14839219311463
30
0
41
1
10
66.2982743111139
20
4.31819462479626
30
0
41
1
10
66.2542807755206
20
4.40238949179897
30
0
41
1
10
66.166620133147
20
4.56934895555654
30
0
41
1
10
66.1230152666759
20
4.65199790619383
30
0
41
1
10
66.0361460537833
20
4.81565708658309
30
0
41
1
10
65.9928979933931
20
4.89663749007926
30
0
41
1
10
65.9498495501919
20
4.97667164355155
30
0
0
SPLINE
5
147
100
AcDbEntity
8
1
62
256
6
ByLayer
370
18
48
1
60
0
100
AcDbSpline
70
4
71
3
72
32
73
28
40
0
40
0
40
0
40
0
40
0.062499999999979
40
0.062499999999979
40
0.124999999999958
40
0.124999999999958
40
0.187499999999937
40
0.187499999999937
40
0.249999999999916
40
0.249999999999916
40
0.312499999999895
40
0.312499999999895
40
0.374999999999874
40
0.374999999999874
40
0.499999999999884
40
0.499999999999884
40
0.562499999999863
40
0.562499999999863
40
0.624999999999843
40
0.624999999999843
40
0.74999999999985
40
0.74999999999985
40
0.812499999999876
40
0.812499999999876
40
0.874999999999903
40
0.874999999999903
40
1
40
1
40
1
40
1
41
1
10
66.8723231817113
20
3.83670127575988
30
0
41
1
10
66.8661161557392
20
3.82889034609175
30
0
41
1
10
66.8592846873959
20
3.82223721862914
30
0
41
1
10
66.844620420351
20
3.81078958742359
30
0
41
1
10
66.8367849006757
20
3.80600014890453
30
0
41
1
10
66.8202344461651
20
3.79805993885753
30
0
41
1
10
66.8116754707126
20
3.79498810768277
30
0
41
1
10
66.7942431694443
20
3.79037613556665
30
0
41
1
10
66.7853427645146
20
3.78882641641067
30
0
41
1
10
66.76722573641
20
3.78705344723852
30
0
41
1
10
66.7579617004502
20
3.78683470745116
30
0
41
1
10
66.7393905178859
20
3.78761694596616
30
0
41
1
10
66.730111951747
20
3.78860902996655
30
0
41
1
10
66.7023069451324
20
3.79319240816034
30
0
41
1
10
66.6838103223466
20
3.79837047416785
30
0
41
1
10
66.6561756204513
20
3.80906240098082
30
0
41
1
10
66.6469518925808
20
3.81313781396966
30
0
41
1
10
66.6288317802
20
3.82214600634922
30
0
41
1
10
66.6199082452115
20
3.82708598341193
30
0
41
1
10
66.5935557081002
20
3.84319707326674
30
0
41
1
10
66.5765389310723
20
3.8556390522769
30
0
41
1
10
66.5519707694575
20
3.87711926427673
30
0
41
1
10
66.5439334398707
20
3.88477071232146
30
0
41
1
10
66.5285356137342
20
3.90078743974561
30
0
41
1
10
66.5211339186758
20
3.90918546100485
30
0
41
1
10
66.4998924439031
20
3.93564429049843
30
0
41
1
10
66.4869792500265
20
3.95491574784512
30
0
41
1
10
66.4758028937705
20
3.97651106248679
30
0
0
SPLINE
5
148
100
AcDbEntity
8
1
62
256
6
ByLayer
370
18
48
1
60
0
100
AcDbSpline
70
4
71
3
72
14
73
10
40
0
40
0
40
0
40
0
40
0.25
40
0.25
40
0.5
40
0.5
40
0.75
40
0.75
40
1
40
1
40
1
40
1
41
1
10
67.3822403458623
20
4.41946355464611
30
0
41
1
10
67.3406107204325
20
4.37691006686393
30
0
41
1
10
67.2987877118478
20
4.33285026745855
30
0
41
1
10
67.2146829345713
20
4.2416817963416
30
0
41
1
10
67.1723795550899
20
4.19454821371602
30
0
41
1
10
67.0873451917658
20
4.09729865798823
30
0
41
1
10
67.0446197132081
20
4.04717995975608
30
0
41
1
10
66.9587666192245
20
3.94411970115141
30
0
41
1
10
66.9156768011425
20
3.89125752762024
30
0
41
1
10
66.8723231817112
20
3.83670127575991
30
0
0
SPLINE
5
149
100
AcDbEntity
8
1
62
256
6
ByLayer
370
18
48
1
60
0
100
AcDbSpline
70
4
71
3
72
8
73
4
40
0
40
0
40
0
40
0
40
1
40
1
40
1
40
1
41
1
10
67.3822403458623
20
4.4194635546458
30
0
41
1
10
67.4327010642725
20
4.39170601510588
30
0
41
1
10
67.4830440507135
20
4.3631700830347
30
0
41
1
10
67.5332846074931
20
4.33386856720998
30
0
0
SPLINE
5
14A
100
AcDbEntity
8
1
62
256
6
ByLayer
370
18
48
1
60
0
100
AcDbSpline
70
4
71
3
72
14
73
10
40
0
40
0
40
0
40
0
40
0.25
40
0.25
40
0.5
40
0.5
40
0.75
40
0.75
40
1
40
1
40
1
40
1
41
1
10
68.0590090369983
20
3.24905512091902
30
0
41
1
10
68.0144365350411
20
3.33935005294256
30
0
41
1
10
67.9700184231586
20
3.4297052565299
30
0
41
1
10
67.8816313885941
20
3.61059894008548
30
0
41
1
10
67.8376432679124
20
3.70113755720962
30
0
41
1
10
67.7499840453885
20
3.88229848981754
30
0
41
1
10
67.7063775115653
20
3.97279513870282
30
0
41
1
10
67.6195290578421
20
4.15358821625091
30
0
41
1
10
67.5763030684852
20
4.24385176224237
30
0
41
1
10
67.5332846074932
20
4.33386856720998
30
0
0
SPLINE
5
14B
100
AcDbEntity
8
1
62
256
6
ByLayer
370
18
48
1
60
0
100
AcDbSpline
70
4
71
3
72
32
73
28
40
0
40
0
40
0
40
0
40
0.0625000000000159
40
0.0625000000000159
40
0.125000000000032
40
0.125000000000032
40
0.187500000000048
40
0.187500000000048
40
0.250000000000064
40
0.250000000000064
40
0.31250000000008
40
0.31250000000008
40
0.375000000000095
40
0.375000000000095
40
0.500000000000126
40
0.500000000000126
40
0.562500000000115
40
0.562500000000115
40
0.625000000000105
40
0.625000000000105
40
0.750000000000083
40
0.750000000000083
40
0.812500000000072
40
0.812500000000072
40
0.875000000000062
40
0.875000000000062
40
1
40
1
40
1
40
1
41
1
10
68.4557111912788
20
2.99938737971783
30
0
41
1
10
68.449494843583
20
2.99476137565256
30
0
41
1
10
68.4426543552219
20
2.99131294163735
30
0
41
1
10
68.4279746197256
20
2.98630396912566
30
0
41
1
10
68.4201326252929
20
2.98474863280541
30
0
41
1
10
68.4035731834446
20
2.98330115698775
30
0
41
1
10
68.3950121281944
20
2.98342611736322
30
0
41
1
10
68.3775789292111
20
2.9850705546329
30
0
41
1
10
68.3686799502956
20
2.98659053989158
30
0
41
1
10
68.3505695389812
20
2.99085504768092
30
0
41
1
10
68.3413115027016
20
2.99361820128576
30
0
41
1
10
68.3227501652113
20
3.00019767155453
30
0
41
1
10
68.3134775160408
20
3.00399675691565
30
0
41
1
10
68.2856922283412
20
3.01675905524076
30
0
41
1
10
68.2672112826393
20
3.0270696197598
30
0
41
1
10
68.2395996450924
20
3.0450356545503
30
0
41
1
10
68.2303809861371
20
3.05147307892722
30
0
41
1
10
68.212260631679
20
3.06500315769034
30
0
41
1
10
68.2033361916528
20
3.07210739320624
30
0
41
1
10
68.176978237292
20
3.09443101195117
30
0
41
1
10
68.159954147432
20
3.11064563247274
30
0
41
1
10
68.1353698566526
20
3.13719562500953
30
0
41
1
10
68.1273154396667
20
3.1464505407445
30
0
41
1
10
68.1118779710235
20
3.16540793296923
30
0
41
1
10
68.104456594855
20
3.17514811661988
30
0
41
1
10
68.0831584691556
20
3.2052180943131
30
0
41
1
10
68.0702105880804
20
3.2263630294031
30
0
41
1
10
68.0590090369984
20
3.24905512091897
30
0
0
SPLINE
5
14C
100
AcDbEntity
8
1
62
256
6
ByLayer
370
18
48
1
60
0
100
AcDbSpline
70
4
71
3
72
10
73
6
40
0
40
0
40
0
40
0
40
0.5
40
0.5
40
1
40
1
40
1
40
1
41
1
10
68.6890279915889
20
3.15549822489396
30
0
41
1
10
68.6504574471147
20
3.13245576637735
30
0
41
1
10
68.6117193791644
20
3.10791501563051
30
0
41
1
10
68.5339524965874
20
3.05596524614714
30
0
41
1
10
68.4949375224334
20
3.02857834139922
30
0
41
1
10
68.4557111912788
20
2.99938737971783
30
0
0
SPLINE
5
14D
100
AcDbEntity
8
1
62
256
6
ByLayer
370
18
48
1
60
0
100
AcDbSpline
70
4
71
3
72
14
73
10
40
0
40
0
40
0
40
0
40
0.25000000000001
40
0.25000000000001
40
0.375000000000015
40
0.375000000000015
40
0.50000000000002
40
0.50000000000002
40
1
40
1
40
1
40
1
41
1
10
68.6890279915889
20
3.15549822489399
30
0
41
1
10
68.763749444753
20
3.07259004800528
30
0
41
1
10
68.8393231809318
20
2.98958785484743
30
0
41
1
10
68.9539345032161
20
2.86507090976761
30
0
41
1
10
68.9923454875631
20
2.82356244883019
30
0
41
1
10
69.0695717826176
20
2.74055804228536
30
0
41
1
10
69.1084054866438
20
2.69904462895289
30
0
41
1
10
69.3033419504981
20
2.49183446932912
30
0
41
1
10
69.4616297650159
20
2.32712750223533
30
0
41
1
10
69.6228304308851
20
2.16436377421419
30
0
0
SPLINE
5
14E
100
AcDbEntity
8
1
62
256
6
ByLayer
370
18
48
1
60
0
100
AcDbSpline
70
4
71
3
72
8
73
4
40
0
40
0
40
0
40
0
40
1
40
1
40
1
40
1
41
1
10
69.6424242795717
20
2.12761741098103
30
0
41
1
10
69.6358893376855
20
2.13984973459711
30
0
41
1
10
69.6293582415127
20
2.1520988182005
30
0
41
1
10
69.6228304308851
20
2.16436377421417
30
0
0
SPLINE
5
14F
100
AcDbEntity
8
1
62
256
6
ByLayer
370
18
48
1
60
0
100
AcDbSpline
70
4
71
3
72
28
73
24
40
0
40
0
40
0
40
0
40
0.125000000000072
40
0.125000000000072
40
0.187500000000108
40
0.187500000000108
40
0.250000000000144
40
0.250000000000144
40
0.375000000000217
40
0.375000000000217
40
0.437500000000223
40
0.437500000000223
40
0.500000000000229
40
0.500000000000229
40
0.62500000000024
40
0.62500000000024
40
0.687500000000218
40
0.687500000000218
40
0.750000000000195
40
0.750000000000195
40
0.875000000000097
40
0.875000000000097
40
1
40
1
40
1
40
1
41
1
10
69.9820395003663
20
1.81023056225612
30
0
41
1
10
69.9676892366449
20
1.81571116053539
30
0
41
1
10
69.9527764974902
20
1.82287669567148
30
0
41
1
10
69.929765579029
20
1.83562478174991
30
0
41
1
10
69.921950972433
20
1.84023622529304
30
0
41
1
10
69.9063287418888
20
1.84997038449615
30
0
41
1
10
69.898522566088
20
1.85508902860187
30
0
41
1
10
69.8751242365164
20
1.87113390724392
30
0
41
1
10
69.8595518649109
20
1.88274224922981
30
0
41
1
10
69.8362603092166
20
1.901425379796
30
0
41
1
10
69.8285077168869
20
1.90786676545721
30
0
41
1
10
69.8130309617268
20
1.92118141690986
30
0
41
1
10
69.8053356848954
20
1.92803134444145
30
0
41
1
10
69.7826073400216
20
1.94895561742641
30
0
41
1
10
69.7678392449443
20
1.96347723845287
30
0
41
1
10
69.7463061072764
20
1.98616097226338
30
0
41
1
10
69.7392321780954
20
1.99387338168998
30
0
41
1
10
69.725307524709
20
2.00962084065816
30
0
41
1
10
69.7184329401715
20
2.01768504154566
30
0
41
1
10
69.6983510400051
20
2.04219765924287
30
0
41
1
10
69.6857890852965
20
2.05881846975686
30
0
41
1
10
69.6625505271004
20
2.09269751610393
30
0
41
1
10
69.6518615723881
20
2.10995236945527
30
0
41
1
10
69.6424242795717
20
2.12761741098123
30
0
0
SPLINE
5
150
100
AcDbEntity
8
1
62
256
6
ByLayer
370
18
48
1
60
0
100
AcDbSpline
70
4
71
3
72
14
73
10
40
0
40
0
40
0
40
0
40
0.25
40
0.25
40
0.5
40
0.5
40
0.75
40
0.75
40
1
40
1
40
1
40
1
41
1
10
69.9820395003663
20
1.81023056225612
30
0
41
1
10
70.1121416422976
20
1.68508445891055
30
0
41
1
10
70.24421513499
20
1.56147239123243
30
0
41
1
10
70.511424005557
20
1.31732466930319
30
0
41
1
10
70.6464951860092
20
1.19681732922501
30
0
41
1
10
70.917944441415
20
0.957529995991592
30
0
41
1
10
71.0543153963053
20
0.838739589897102
30
0
41
1
10
71.3271504379083
20
0.601668047028653
30
0
41
1
10
71.4635612173891
20
0.483320396292356
30
0
41
1
10
71.5999577037896
20
0.365150461117906
30
0
0
SPLINE
5
151
100
AcDbEntity
8
1
62
256
6
ByLayer
370
18
48
1
60
0
100
AcDbSpline
70
4
71
3
72
12
73
8
40
0
40
0
40
0
40
0
40
0.24999999999999
40
0.24999999999999
40
0.499999999999981
40
0.499999999999981
40
1
40
1
40
1
40
1
41
1
10
71.5999577037896
20
0.365150461117878
30
0
41
1
10
71.6313409368399
20
0.328808508800478
30
0
41
1
10
71.6631240469445
20
0.293306252211977
30
0
41
1
10
71.7277077139782
20
0.224221999146096
30
0
41
1
10
71.7604736186993
20
0.190656118675776
30
0
41
1
10
71.8603943052699
20
0.0930392597181537
30
0
41
1
10
71.929010550192
20
0.032247803510927
30
0
41
1
10
72
20
-0.0244053229629628
30
0
0
SPLINE
5
152
100
AcDbEntity
8
1
62
256
6
ByLayer
370
18
48
1
60
0
100
AcDbSpline
70
4
71
3
72
62
73
58
40
0
40
0
40
0
40
0
40
0.0312500000000002
40
0.0625000000000003
40
0.0625000000000003
40
0.0781250000000004
40
0.0781250000000004
40
0.0937500000000005
40
0.0937500000000005
40
0.125
40
0.125
40
0.15625
40
0.15625
40
0.1875
40
0.1875
40
0.203125
40
0.203125
40
0.21875
40
0.21875
40
0.234375
40
0.234375
40
0.25
40
0.374999999999999
40
0.374999999999999
40
0.499999999999998
40
0.499999999999998
40
0.562499999999998
40
0.562499999999998
40
0.593749999999998
40
0.593749999999998
40
0.624999999999997
40
0.687499999999997
40
0.687499999999997
40
0.718749999999997
40
0.718749999999997
40
0.749999999999997
40
0.749999999999997
40
0.765624999999997
40
0.765624999999997
40
0.781249999999997
40
0.781249999999997
40
0.812499999999997
40
0.812499999999997
40
0.843749999999997
40
0.843749999999997
40
0.859374999999998
40
0.859374999999998
40
0.874999999999998
40
0.874999999999998
40
0.906249999999998
40
0.937499999999999
40
0.937499999999999
40
0.96875
40
0.96875
40
0.984375
40
0.984375
40
1
40
1
40
1
40
1
41
1
10
72
20
-0.0244053229629344
30
0
41
1
10
72.0000000000001
20
-0.0235989679800923
30
0
41
1
10
72.0000000000001
20
-0.0172864864312032
30
0
41
1
10
72
20
-0.0017079203514925
30
0
41
1
10
72
20
0.0135583653886044
30
0
41
1
10
72
20
0.0192539229507247
30
0
41
1
10
72
20
0.0318460583068543
30
0
41
1
10
72
20
0.0387138164562373
30
0
41
1
10
72
20
0.0610328432493361
30
0
41
1
10
72
20
0.0782100428687897
30
0
41
1
10
72
20
0.116972756199544
30
0
41
1
10
72
20
0.138556606661723
30
0
41
1
10
72
20
0.18608694911407
30
0
41
1
10
72
20
0.212018624492543
30
0
41
1
10
72
20
0.254362845034081
30
0
41
1
10
72
20
0.269068306557358
30
0
41
1
10
72.0000000000001
20
0.299649870359048
30
0
41
1
10
72.0000000000001
20
0.31541964080526
30
0
41
1
10
72.0000000000001
20
0.34767207662486
30
0
41
1
10
72
20
0.364152253913517
30
0
41
1
10
71.9999999999999
20
0.397398009158337
30
0
41
1
10
72.0000000000001
20
0.548131707960749
30
0
41
1
10
72
20
0.709030764155131
30
0
41
1
10
72.0000000000001
20
1.01090372477009
30
0
41
1
10
71.9999999999999
20
1.16973486821453
30
0
41
1
10
72
20
1.42011916192015
30
0
41
1
10
72.0000000000001
20
1.50560162236829
30
0
41
1
10
72
20
1.63686667248808
30
0
41
1
10
71.9999999999999
20
1.68115291018887
30
0
41
1
10
72
20
1.7704695857243
30
0
41
1
10
72
20
1.905647138071
30
0
41
1
10
72.0000000000001
20
2.04440526131864
30
0
41
1
10
72.0000000000001
20
2.18561681707155
30
0
41
1
10
72
20
2.23309714255805
30
0
41
1
10
72
20
2.32890015358527
30
0
41
1
10
72
20
2.37725188816367
30
0
41
1
10
72
20
2.45031104399604
30
0
41
1
10
72
20
2.47477257429151
30
0
41
1
10
72
20
2.52418401093013
30
0
41
1
10
72
20
2.54913258028992
30
0
41
1
10
72.0000000000001
20
2.62489786011275
30
0
41
1
10
72
20
2.6765707433143
30
0
41
1
10
72
20
2.78200048463935
30
0
41
1
10
72
20
2.83576631090719
30
0
41
1
10
72
20
2.91802568224051
30
0
41
1
10
72
20
2.94571467754648
30
0
41
1
10
72.0000000000001
20
3.00164638717206
30
0
41
1
10
72
20
3.0298822985925
30
0
41
1
10
72
20
3.11448586842059
30
0
41
1
10
72
20
3.22763563693394
30
0
41
1
10
72
20
3.34144483519421
30
0
41
1
10
72
20
3.45558620182911
30
0
41
1
10
72
20
3.51282412696781
30
0
41
1
10
72
20
3.59893235781121
30
0
41
1
10
71.9999999999999
20
3.62767705241168
30
0
41
1
10
71.9999999999999
20
3.68525161445928
30
0
41
1
10
72
20
3.71401920967409
30
0
41
1
10
72
20
3.74260813259517
30
0
0
SPLINE
5
153
100
AcDbEntity
8
1
62
256
6
ByLayer
370
18
48
1
60
0
100
AcDbSpline
70
4
71
3
72
12
73
8
40
0
40
0
40
0
40
0
40
0.499999999999999
40
0.499999999999999
40
0.749999999999999
40
0.749999999999999
40
1
40
1
40
1
40
1
41
1
10
72
20
3.74260813259517
30
0
41
1
10
71.9331158401935
20
3.80649745216687
30
0
41
1
10
71.8664645314717
20
3.87105719705278
30
0
41
1
10
71.7664632649239
20
3.96915151797106
30
0
41
1
10
71.7331069210854
20
4.00208001429596
30
0
41
1
10
71.6664303333977
20
4.06831951208119
30
0
41
1
10
71.6331052859237
20
4.10163903446627
30
0
41
1
10
71.5999872972492
20
4.13493199337316
30
0
0
SPLINE
5
154
100
AcDbEntity
8
1
62
256
6
ByLayer
370
18
48
1
60
0
100
AcDbSpline
70
4
71
3
72
14
73
10
40
0
40
0
40
0
40
0
40
0.25
40
0.25
40
0.5
40
0.5
40
0.75
40
0.75
40
1
40
1
40
1
40
1
41
1
10
71.5999872972492
20
4.13493199337316
30
0
41
1
10
71.44563693354
20
4.1137876186294
30
0
41
1
10
71.2890468909955
20
4.09257082455332
30
0
41
1
10
70.9733311546606
20
4.05229029569625
30
0
41
1
10
70.8141849316257
20
4.0332265731887
30
0
41
1
10
70.495177558703
20
3.99790521721104
30
0
41
1
10
70.335318772783
20
3.98164297786619
30
0
41
1
10
70.0166801481776
20
3.9509757776506
30
0
41
1
10
69.857913236251
20
3.93656541711181
30
0
41
1
10
69.7004759650656
20
3.92195006400007
30
0
0
SPLINE
5
155
100
AcDbEntity
8
1
62
256
6
ByLayer
370
18
48
1
60
0
100
AcDbSpline
70
4
71
3
72
8
73
4
40
0
40
0
40
0
40
0
40
1
40
1
40
1
40
1
41
1
10
69.6684543825831
20
3.85762896516869
30
0
41
1
10
69.6791423603391
20
3.87910881639039
30
0
41
1
10
69.6898151762519
20
3.90054870398674
30
0
41
1
10
69.7004759650655
20
3.92195006400007
30
0
0
SPLINE
5
156
100
AcDbEntity
8
1
62
256
6
ByLayer
370
18
48
1
60
0
100
AcDbSpline
70
4
71
3
72
30
73
26
40
0
40
0
40
0
40
0
40
0.0625000000000169
40
0.0625000000000169
40
0.125000000000034
40
0.125000000000034
40
0.250000000000066
40
0.250000000000066
40
0.312500000000082
40
0.312500000000082
40
0.375000000000099
40
0.375000000000099
40
0.500000000000079
40
0.500000000000079
40
0.62500000000006
40
0.62500000000006
40
0.68750000000005
40
0.68750000000005
40
0.75000000000004
40
0.75000000000004
40
0.875000000000021
40
0.875000000000021
40
0.93750000000001
40
0.93750000000001
40
1
40
1
40
1
40
1
41
1
10
69.271878545777
20
3.69136345699425
30
0
41
1
10
69.27817178757
20
3.68367990882231
30
0
41
1
10
69.2851265977427
20
3.67725036377638
30
0
41
1
10
69.3001047726813
20
3.66640395813343
30
0
41
1
10
69.3081596078682
20
3.66198126601162
30
0
41
1
10
69.3335635208274
20
3.65146241660924
30
0
41
1
10
69.3514176036536
20
3.64827961888992
30
0
41
1
10
69.3791448952123
20
3.64759045408644
30
0
41
1
10
69.3885673685902
20
3.64807360827427
30
0
41
1
10
69.4072759105964
20
3.65026647073051
30
0
41
1
10
69.4166172380373
20
3.6519726419547
30
0
41
1
10
69.4445925553032
20
3.65872193702271
30
0
41
1
10
69.4632056851504
20
3.66538784376058
30
0
41
1
10
69.5001268101551
20
3.68262045716219
30
0
41
1
10
69.518047532717
20
3.69300311918013
30
0
41
1
10
69.5441164514398
20
3.7110707183098
30
0
41
1
10
69.5526695578833
20
3.71751324153226
30
0
41
1
10
69.5694873152969
20
3.73126454669298
30
0
41
1
10
69.5777823366647
20
3.73860450588771
30
0
41
1
10
69.6018639916725
20
3.76169172919254
30
0
41
1
10
69.6169206834101
20
3.77851670390089
30
0
41
1
10
69.6377742708875
20
3.80622578966012
30
0
41
1
10
69.6444342388263
20
3.81587824211707
30
0
41
1
10
69.6570794064452
20
3.8361512314552
30
0
41
1
10
69.6630104045519
20
3.846688089277
30
0
41
1
10
69.668454382583
20
3.85762896516869
30
0
0
SPLINE
5
157
100
AcDbEntity
8
1
62
256
6
ByLayer
370
18
48
1
60
0
100
AcDbSpline
70
4
71
3
72
10
73
6
40
0
40
0
40
0
40
0
40
0.5
40
0.5
40
1
40
1
40
1
40
1
41
1
10
69.1268261369557
20
3.8635997651981
30
0
41
1
10
69.1508787313711
20
3.83586580596213
30
0
41
1
10
69.1749874367081
20
3.80765827649373
30
0
41
1
10
69.2233338543319
20
3.75025247956666
30
0
41
1
10
69.2475742333334
20
3.72103709128135
30
0
41
1
10
69.271878545777
20
3.69136345699428
30
0
0
SPLINE
5
158
100
AcDbEntity
8
1
62
256
6
ByLayer
370
18
48
1
60
0
100
AcDbSpline
70
4
71
3
72
10
73
6
40
0
40
0
40
0
40
0
40
0.5
40
0.5
40
1
40
1
40
1
40
1
41
1
10
69.1268261369556
20
3.86359976519822
30
0
41
1
10
69.0078430524376
20
3.84969182371731
30
0
41
1
10
68.8900629187889
20
3.83436357450256
30
0
41
1
10
68.6572306566269
20
3.79957175075896
30
0
41
1
10
68.5423456595691
20
3.78013007450019
30
0
41
1
10
68.4289709833845
20
3.75807457751859
30
0
0
SPLINE
5
159
100
AcDbEntity
8
1
62
256
6
ByLayer
370
18
48
1
60
0
100
AcDbSpline
70
4
71
3
72
10
73
6
40
0
40
0
40
0
40
0
40
0.414294746902532
40
0.414294746902532
40
1
40
1
40
1
40
1
41
1
10
68.1358082429341
20
3.13746385293061
30
0
41
1
10
68.1766707677887
20
3.22290956951227
30
0
41
1
10
68.21735548149
20
3.30848787192443
30
0
41
1
10
68.3152200267057
20
3.515325115769
30
0
41
1
10
68.3722713160487
20
3.63676344124775
30
0
41
1
10
68.4289709833845
20
3.75807457751859
30
0
0
SPLINE
5
15A
100
AcDbEntity
8
1
62
256
6
ByLayer
370
18
48
1
60
0
100
AcDbSpline
70
4
71
3
72
12
73
8
40
0
40
0
40
0
40
0
40
0.49999999999999
40
0.49999999999999
40
0.749999999999995
40
0.749999999999995
40
1
40
1
40
1
40
1
41
1
10
67.7095791318456
20
1.44076186510199
30
0
41
1
10
67.7924678618758
20
1.34017959248314
30
0
41
1
10
67.8762110389435
20
1.24559387735997
30
0
41
1
10
68.0029466993538
20
1.11396370715263
30
0
41
1
10
68.0453406382309
20
1.07182925778218
30
0
41
1
10
68.1304910442936
20
0.991128479994103
30
0
41
1
10
68.1732554751242
20
0.95262589330676
30
0
41
1
10
68.2162281811407
20
0.915913121669206
30
0
0
SPLINE
5
15B
100
AcDbEntity
8
1
62
256
6
ByLayer
370
18
48
1
60
0
100
AcDbSpline
70
4
71
3
72
8
73
4
40
0
40
0
40
0
40
0
40
1
40
1
40
1
40
1
41
1
10
67.7095791318496
20
1.44076186509807
30
0
41
1
10
67.658910060221
20
1.49523634277483
30
0
41
1
10
67.6081797222206
20
1.54950511575083
30
0
41
1
10
67.5573714631498
20
1.60355249837977
30
0
0
SPLINE
5
15C
100
AcDbEntity
8
1
62
256
6
ByLayer
370
18
48
1
60
0
100
AcDbSpline
70
4
71
3
72
14
73
10
40
0
40
0
40
0
40
0
40
0.25
40
0.25
40
0.5
40
0.5
40
0.75
40
0.75
40
1
40
1
40
1
40
1
41
1
10
67.0292945932071
20
1.95332166211381
30
0
41
1
10
67.0740423841991
20
1.93313272625801
30
0
41
1
10
67.1185613207842
20
1.91062483405926
30
0
41
1
10
67.2072705227812
20
1.86119296849421
30
0
41
1
10
67.2514555959798
20
1.83420794659892
30
0
41
1
10
67.3395058687817
20
1.77576848680906
30
0
41
1
10
67.3833234954913
20
1.74434811970434
30
0
41
1
10
67.4706306056834
20
1.67715571438615
30
0
41
1
10
67.5140983274368
20
1.64139904791551
30
0
41
1
10
67.5573714631498
20
1.6035524983798
30
0
0
SPLINE
5
15D
100
AcDbEntity
8
1
62
256
6
ByLayer
370
18
48
1
60
0
100
AcDbSpline
70
4
71
3
72
30
73
26
40
0
40
0
40
0
40
0
40
0.0625000000000238
40
0.0625000000000238
40
0.125000000000048
40
0.125000000000048
40
0.250000000000048
40
0.250000000000048
40
0.312500000000049
40
0.312500000000049
40
0.375000000000049
40
0.375000000000049
40
0.500000000000049
40
0.500000000000049
40
0.625000000000049
40
0.625000000000049
40
0.68750000000005
40
0.68750000000005
40
0.75000000000005
40
0.75000000000005
40
0.875000000000005
40
0.875000000000005
40
0.937500000000003
40
0.937500000000003
40
1
40
1
40
1
40
1
41
1
10
66.632683116313
20
2.27395693188626
30
0
41
1
10
66.638981841303
20
2.26558863143703
30
0
41
1
10
66.6459424637167
20
2.25704860038164
30
0
41
1
10
66.6609316006117
20
2.23969808557428
30
0
41
1
10
66.6689920118926
20
2.23085634432104
30
0
41
1
10
66.6944076479434
20
2.20416263014644
30
0
41
1
10
66.7122659003349
20
2.18686312764359
30
0
41
1
10
66.7399933935744
20
2.16140679529826
30
0
41
1
10
66.7494146579479
20
2.15299369218283
30
0
41
1
10
66.7681194478898
20
2.13667936572259
30
0
41
1
10
66.7774582586301
20
2.12872671387896
30
0
41
1
10
66.8054247695106
20
2.10539950984221
30
0
41
1
10
66.824028701413
20
2.09052948985018
30
0
41
1
10
66.8609365062844
20
2.0620673937878
30
0
41
1
10
66.8788510726461
20
2.04877432227863
30
0
41
1
10
66.9049139282982
20
2.03009704614726
30
0
41
1
10
66.9134654814224
20
2.02408417595456
30
0
41
1
10
66.9302812636192
20
2.01248903657583
30
0
41
1
10
66.9385762810956
20
2.00688682749219
30
0
41
1
10
66.9626636438211
20
1.99097747282835
30
0
41
1
10
66.9777263380702
20
1.98150799404692
30
0
41
1
10
66.9985913528598
20
1.96924949309283
30
0
41
1
10
67.0052555244029
20
1.96549123998287
30
0
41
1
10
67.0179095393869
20
1.95874194339584
30
0
41
1
10
67.0238459932763
20
1.95577991607598
30
0
41
1
10
67.0292945932071
20
1.95332166211378
30
0
0
SPLINE
5
15E
100
AcDbEntity
8
1
62
256
6
ByLayer
370
18
48
1
60
0
100
AcDbSpline
70
4
71
3
72
12
73
8
40
0
40
0
40
0
40
0
40
0.500000000000009
40
0.500000000000009
40
0.750000000000005
40
0.750000000000005
40
1
40
1
40
1
40
1
41
1
10
66.1247624837056
20
3.0226436161721
30
0
41
1
10
66.2078312490399
20
2.88856946820314
30
0
41
1
10
66.2917804571959
20
2.7585338518949
30
0
41
1
10
66.4188449849509
20
2.57090458633434
30
0
41
1
10
66.4613511226843
20
2.50965090339275
30
0
41
1
10
66.5467250453537
20
2.3897762490063
30
0
41
1
10
66.5895996110796
20
2.33119640761805
30
0
41
1
10
66.632683116313
20
2.27395693188623
30
0
0
SPLINE
5
15F
100
AcDbEntity
8
1
62
256
6
ByLayer
370
18
48
1
60
0
100
AcDbSpline
70
4
71
3
72
8
73
4
40
0
40
0
40
0
40
0
40
1
40
1
40
1
40
1
41
1
10
66.1247624837098
20
3.02264361617051
30
0
41
1
10
66.0746134050996
20
3.06781531729612
30
0
41
1
10
66.0244511700618
20
3.1124406407445
30
0
41
1
10
65.9742606066229
20
3.15650753407579
30
0
0
SPLINE
5
160
100
AcDbEntity
8
1
62
256
6
ByLayer
370
18
48
1
60
0
100
AcDbSpline
70
4
71
3
72
14
73
10
40
0
40
0
40
0
40
0
40
0.25
40
0.25
40
0.5
40
0.5
40
0.75
40
0.75
40
1
40
1
40
1
40
1
41
1
10
65.4458511366217
20
3.11946571310628
30
0
41
1
10
65.4906316299216
20
3.13173920606945
30
0
41
1
10
65.5351881676342
20
3.14165927926283
30
0
41
1
10
65.6239667542134
20
3.15697708620922
30
0
41
1
10
65.6681860457993
20
3.16233052172782
30
0
41
1
10
65.7562993944917
20
3.1684608033222
30
0
41
1
10
65.800145913794
20
3.16923610197466
30
0
41
1
10
65.8874960091432
20
3.16625739387087
30
0
41
1
10
65.9309784681124
20
3.16250249160143
30
0
41
1
10
65.9742606066229
20
3.15650753407579
30
0
0
SPLINE
5
161
100
AcDbEntity
8
1
62
256
6
ByLayer
370
18
48
1
60
0
100
AcDbSpline
70
4
71
3
72
30
73
26
40
0
40
0
40
0
40
0
40
0.0625000000000295
40
0.0625000000000295
40
0.125000000000059
40
0.125000000000059
40
0.250000000000118
40
0.250000000000118
40
0.312500000000123
40
0.312500000000123
40
0.375000000000127
40
0.375000000000127
40
0.500000000000083
40
0.500000000000083
40
0.625000000000039
40
0.625000000000039
40
0.687500000000018
40
0.687500000000018
40
0.749999999999997
40
0.749999999999997
40
0.874999999999998
40
0.874999999999998
40
0.937499999999999
40
0.937499999999999
40
1
40
1
40
1
40
1
41
1
10
65.0492537528898
20
3.35725393807331
30
0
41
1
10
65.0555478527129
20
3.34692690645429
30
0
41
1
10
65.0625031824394
20
3.33687287300427
30
0
41
1
10
65.0774810578055
20
3.31720774373881
30
0
41
1
10
65.0855341615494
20
3.30756730762937
30
0
41
1
10
65.110935997997
20
3.27942623132608
30
0
41
1
10
65.1287866083975
20
3.26243582095265
30
0
41
1
10
65.1565036608661
20
3.23880398574869
30
0
41
1
10
65.1659235725753
20
3.23123598124545
30
0
41
1
10
65.184626938721
20
3.21699029371146
30
0
41
1
10
65.1939651674013
20
3.21026446114587
30
0
41
1
10
65.2219300944385
20
3.1911334027148
30
0
41
1
10
65.240528835697
20
3.17974992284553
30
0
41
1
10
65.277444162314
20
3.1594830663241
30
0
41
1
10
65.2953618445908
20
3.15081705333861
30
0
41
1
10
65.3214287108947
20
3.13983218099162
30
0
41
1
10
65.3299814927918
20
3.13651007046678
30
0
41
1
10
65.3467995957353
20
3.13055838511408
30
0
41
1
10
65.3550962795368
20
3.12792101343547
30
0
41
1
10
65.379194098918
20
3.12120002011045
30
0
41
1
10
65.3942626195606
20
3.11825696202015
30
0
41
1
10
65.4151352029841
20
3.11648212275071
30
0
41
1
10
65.4218016983284
20
3.11633524378414
30
0
41
1
10
65.4344599806722
20
3.11708064757087
30
0
41
1
10
65.4404001330659
20
3.11797169531292
30
0
41
1
10
65.4458511366217
20
3.11946571310628
30
0
0
SPLINE
5
162
100
AcDbEntity
8
1
62
256
6
ByLayer
370
18
48
1
60
0
100
AcDbSpline
70
4
71
3
72
10
73
6
40
0
40
0
40
0
40
0
40
0.500000000000001
40
0.500000000000001
40
1
40
1
40
1
40
1
41
1
10
64.542052884449
20
4.23652116475495
30
0
41
1
10
64.6250208665383
20
4.08565336460885
30
0
41
1
10
64.7088561742292
20
3.93632806391932
30
0
41
1
10
64.8780260565413
20
3.64258979194537
30
0
41
1
10
64.9632089308962
20
3.49843180661185
30
0
41
1
10
65.0492537528899
20
3.35725393807331
30
0
0
SPLINE
5
163
100
AcDbEntity
8
1
62
256
6
ByLayer
370
18
48
1
60
0
100
AcDbSpline
70
4
71
3
72
8
73
4
40
0
40
0
40
0
40
0
40
1
40
1
40
1
40
1
41
1
10
64.542052884453
20
4.23652116475597
30
0
41
1
10
64.4913738367744
20
4.26781770383644
30
0
41
1
10
64.4407302930105
20
4.29829459896143
30
0
41
1
10
64.390106200519
20
4.32794702360624
30
0
0
SPLINE
5
164
100
AcDbEntity
8
1
62
256
6
ByLayer
370
18
48
1
60
0
100
AcDbSpline
70
4
71
3
72
14
73
10
40
0
40
0
40
0
40
0
40
0.25
40
0.25
40
0.499999999999999
40
0.499999999999999
40
0.75
40
0.75
40
1
40
1
40
1
40
1
41
1
10
63.8623169020982
20
3.90638409854276
30
0
41
1
10
63.9070820052621
20
3.94978579660602
30
0
41
1
10
63.9516093616657
20
3.99111465806547
30
0
41
1
10
64.0403003800756
20
4.06973136693463
30
0
41
1
10
64.0844627658349
20
4.10699278256521
30
0
41
1
10
64.1724501924608
20
4.17737178032814
30
0
41
1
10
64.2162278889168
20
4.21045272360377
30
0
41
1
10
64.3034480848925
20
4.27240134923224
30
0
41
1
10
64.3468702043008
20
4.30125108098744
30
0
41
1
10
64.390106200519
20
4.32794702360627
30
0
0
SPLINE
5
165
100
AcDbEntity
8
1
62
256
6
ByLayer
370
18
48
1
60
0
100
AcDbSpline
70
4
71
3
72
30
73
26
40
0
40
0
40
0
40
0
40
0.0624999999999999
40
0.0624999999999999
40
0.125
40
0.125
40
0.25
40
0.25
40
0.3125
40
0.3125
40
0.375
40
0.375
40
0.500000000000001
40
0.500000000000001
40
0.625000000000002
40
0.625000000000002
40
0.687500000000002
40
0.687500000000002
40
0.750000000000002
40
0.750000000000002
40
0.875000000000001
40
0.875000000000001
40
0.937500000000001
40
0.937500000000001
40
1
40
1
40
1
40
1
41
1
10
63.465749906725
20
4.03227902809712
30
0
41
1
10
63.4720434159079
20
4.02123875018421
30
0
41
1
10
63.4789974475166
20
4.01088203032495
30
0
41
1
10
63.4939714409418
20
3.99126945515278
30
0
41
1
10
63.5020210967717
20
3.98198920664734
30
0
41
1
10
63.5274168657185
20
3.95578440965491
30
0
41
1
10
63.5452632936811
20
3.94114361245411
30
0
41
1
10
63.5729754217688
20
3.92217559516263
30
0
41
1
10
63.5823951996234
20
3.9163631514424
30
0
41
1
10
63.6010993860844
20
3.90590207117455
30
0
41
1
10
63.610438229139
20
3.90121406520001
30
0
41
1
10
63.638405544327
20
3.8885893413854
30
0
41
1
10
63.657005523892
20
3.88206869740861
30
0
41
1
10
63.6939288699583
20
3.87247273421718
30
0
41
1
10
63.7118494967
20
3.86950012580024
30
0
41
1
10
63.7379190606984
20
3.86757201427915
30
0
41
1
10
63.7464724551834
20
3.86735578706509
30
0
41
1
10
63.7632911946807
20
3.86779667097815
30
0
41
1
10
63.7715879462268
20
3.86845956915136
30
0
41
1
10
63.7956839031449
20
3.87179529076394
30
0
41
1
10
63.8107491339131
20
3.87577423775878
30
0
41
1
10
63.8316150023008
20
3.88475684946528
30
0
41
1
10
63.8382789646894
20
3.88825875072661
30
0
41
1
10
63.85093188349
20
3.89644675508993
30
0
41
1
10
63.856868761812
20
3.90110189157806
30
0
41
1
10
63.8623169020982
20
3.90638409854276
30
0
0
SPLINE
5
166
100
AcDbEntity
8
1
62
256
6
ByLayer
370
18
48
1
60
0
100
AcDbSpline
70
4
71
3
72
10
73
6
40
0
40
0
40
0
40
0
40
0.5
40
0.5
40
1
40
1
40
1
40
1
41
1
10
62.9740841983877
20
4.90884757024952
30
0
41
1
10
63.0545330184433
20
4.76375177957178
30
0
41
1
10
63.1357721523658
20
4.61772121620709
30
0
41
1
10
63.2997926682875
20
4.32493769365911
30
0
41
1
10
63.3823689150381
20
4.17854866783438
30
0
41
1
10
63.465749906725
20
4.03227902809712
30
0
0
SPLINE
5
167
100
AcDbEntity
8
1
62
256
6
ByLayer
370
18
48
1
60
0
100
AcDbSpline
70
4
71
3
72
8
73
4
40
0
40
0
40
0
40
0
40
1
40
1
40
1
40
1
41
1
10
62.7722069267214
20
4.92981298684202
30
0
41
1
10
62.8396415778719
20
4.92462090245763
30
0
41
1
10
62.9069199419917
20
4.91763052032002
30
0
41
1
10
62.9740841983877
20
4.90884757024952
30
0
0
SPLINE
5
168
100
AcDbEntity
8
1
62
256
6
ByLayer
370
18
48
1
60
0
100
AcDbSpline
70
4
71
3
72
12
73
8
40
0
40
0
40
0
40
0
40
0.500000000000001
40
0.500000000000001
40
0.75
40
0.75
40
1
40
1
40
1
40
1
41
1
10
62.2788770253803
20
4.2229605361793
30
0
41
1
10
62.3624009442163
20
4.35200450769685
30
0
41
1
10
62.4451756961355
20
4.47555039413311
30
0
41
1
10
62.5685698600146
20
4.65254423714657
30
0
41
1
10
62.6095509503904
20
4.71011963803412
30
0
41
1
10
62.6911212940275
20
4.82221029643819
30
0
41
1
10
62.7317336468567
20
4.87675890980691
30
0
41
1
10
62.7722069267214
20
4.92981298684202
30
0
0
SPLINE
5
169
100
AcDbEntity
8
1
62
256
6
ByLayer
370
18
48
1
60
0
100
AcDbSpline
70
4
71
3
72
30
73
26
40
0
40
0
40
0
40
0
40
0.0624999999999656
40
0.0624999999999656
40
0.124999999999931
40
0.124999999999931
40
0.249999999999911
40
0.249999999999911
40
0.312499999999901
40
0.312499999999901
40
0.374999999999891
40
0.374999999999891
40
0.499999999999925
40
0.499999999999925
40
0.624999999999958
40
0.624999999999958
40
0.68749999999995
40
0.68749999999995
40
0.749999999999942
40
0.749999999999942
40
0.874999999999971
40
0.874999999999971
40
0.937499999999986
40
0.937499999999986
40
1
40
1
40
1
40
1
41
1
10
61.882272677109
20
4.22147836069476
30
0
41
1
10
61.8885701001261
20
4.21106531608595
30
0
41
1
10
61.8955290491358
20
4.20166649298679
30
0
41
1
10
61.9105143467478
20
4.18449899245823
30
0
41
1
10
61.918571814496
20
4.17671180128019
30
0
41
1
10
61.9439830421717
20
4.15566308733167
30
0
41
1
10
61.9618387584732
20
4.1451826111919
30
0
41
1
10
61.989562146362
20
4.13323265151806
30
0
41
1
10
61.9989831793036
20
4.12990076095858
30
0
41
1
10
62.01768800021
20
4.12453108458618
30
0
41
1
10
62.0270267661436
20
4.12246733148714
30
0
41
1
10
62.0549928017639
20
4.11792924428192
30
0
41
1
10
62.0735931066862
20
4.11708873258007
30
0
41
1
10
62.1105041542087
20
4.1193664836039
30
0
41
1
10
62.1284194855498
20
4.12245765293628
30
0
41
1
10
62.1544825353627
20
4.12982237530809
30
0
41
1
10
62.1630339968997
20
4.13273690385321
30
0
41
1
10
62.1798493698801
20
4.13951031447417
30
0
41
1
10
62.188144458154
20
4.14338774120853
30
0
41
1
10
62.2122359087263
20
4.15635401063543
30
0
41
1
10
62.2273006329392
20
4.16675182358509
30
0
41
1
10
62.2481682402712
20
4.18536858346326
30
0
41
1
10
62.2548331982603
20
4.19208275721218
30
0
41
1
10
62.2674886726716
20
4.20669708999523
30
0
41
1
10
62.2734272358559
20
4.21454064288451
30
0
41
1
10
62.2788770253803
20
4.2229605361793
30
0
0
SPLINE
5
16A
100
AcDbEntity
8
1
62
256
6
ByLayer
370
18
48
1
60
0
100
AcDbSpline
70
4
71
3
72
10
73
6
40
0
40
0
40
0
40
0
40
0.5
40
0.5
40
1
40
1
40
1
40
1
41
1
10
61.5135909893739
20
4.82107137977493
30
0
41
1
10
61.5742632967415
20
4.72429163182568
30
0
41
1
10
61.6353832930495
20
4.62573468708862
30
0
41
1
10
61.7582581610454
20
4.42580132610891
30
0
41
1
10
61.8200408799896
20
4.32438116359293
30
0
41
1
10
61.882272677109
20
4.22147836069476
30
0
0
SPLINE
5
16B
100
AcDbEntity
8
1
62
256
6
ByLayer
370
18
48
1
60
0
100
AcDbSpline
70
4
71
3
72
8
73
4
40
0
40
0
40
0
40
0
40
1
40
1
40
1
40
1
41
1
10
61.0378286313562
20
4.6774578495542
30
0
41
1
10
61.1972553970386
20
4.734450936575
30
0
41
1
10
61.3556685262569
20
4.78235954090391
30
0
41
1
10
61.5135909893739
20
4.82107137977491
30
0
0
SPLINE
5
16C
100
AcDbEntity
8
1
62
256
6
ByLayer
370
18
48
1
60
0
100
AcDbSpline
70
4
71
3
72
10
73
6
40
0
40
0
40
0
40
0
40
0.5
40
0.5
40
1
40
1
40
1
40
1
41
1
10
60.6954169972119
20
4.02763094998789
30
0
41
1
10
60.7530708023
20
4.13896479533412
30
0
41
1
10
60.8104067985053
20
4.24884414421444
30
0
41
1
10
60.9245785675467
20
4.46562025743705
30
0
41
1
10
60.9813606978828
20
4.57241682463012
30
0
41
1
10
61.0378286313562
20
4.67745784955417
30
0
0
SPLINE
5
16D
100
AcDbEntity
8
1
62
256
6
ByLayer
370
18
48
1
60
0
100
AcDbSpline
70
4
71
3
72
30
73
26
40
0
40
0
40
0
40
0
40
0.0625000000000193
40
0.0625000000000193
40
0.125000000000039
40
0.125000000000039
40
0.250000000000031
40
0.250000000000031
40
0.312500000000028
40
0.312500000000028
40
0.375000000000024
40
0.375000000000024
40
0.500000000000016
40
0.500000000000016
40
0.625000000000008
40
0.625000000000008
40
0.687500000000005
40
0.687500000000005
40
0.750000000000002
40
0.750000000000002
40
0.875
40
0.875
40
0.9375
40
0.9375
40
1
40
1
40
1
40
1
41
1
10
60.2987664951979
20
3.89947639875871
30
0
41
1
10
60.305062984403
20
3.8909589561498
30
0
41
1
10
60.3120203101155
20
3.88366076026208
30
0
41
1
10
60.3270008713121
20
3.87102133354304
30
0
41
1
10
60.3350544641222
20
3.86567149041357
30
0
41
1
10
60.3604566045675
20
3.85231219249206
30
0
41
1
10
60.3783048052083
20
3.8472410019051
30
0
41
1
10
60.4060150501438
20
3.84371625798386
30
0
41
1
10
60.4154329480908
20
3.84325189292943
30
0
41
1
10
60.4341327523967
20
3.84358963232532
30
0
41
1
10
60.4434690945989
20
3.8443823942298
30
0
41
1
10
60.4714282128892
20
3.84842642868807
30
0
41
1
10
60.4900183423463
20
3.85332866520056
30
0
41
1
10
60.5269355061411
20
3.86713154201001
30
0
41
1
10
60.5448547018589
20
3.87587841659709
30
0
41
1
10
60.5709248224875
20
3.89159661465888
30
0
41
1
10
60.5794788506706
20
3.89727364135592
30
0
41
1
10
60.5962997589497
20
3.90952960765861
30
0
41
1
10
60.6045985993466
20
3.91613797367319
30
0
41
1
10
60.6287122926387
20
3.93713505508188
30
0
41
1
10
60.6437909723578
20
3.95267637396589
30
0
41
1
10
60.664677294492
20
3.97865078211169
30
0
41
1
10
60.6713481153784
20
3.98775718420816
30
0
41
1
10
60.6840142840076
20
4.007014240876
30
0
41
1
10
60.6899614192049
20
4.01709581744663
30
0
41
1
10
60.6954169972119
20
4.02763094998789
30
0
0
SPLINE
5
16E
100
AcDbEntity
8
1
62
256
6
ByLayer
370
18
48
1
60
0
100
AcDbSpline
70
4
71
3
72
8
73
4
40
0
40
0
40
0
40
0
40
1
40
1
40
1
40
1
41
1
10
60.0533489744778
20
4.21963643359203
30
0
41
1
10
60.1344902773376
20
4.11777759159722
30
0
41
1
10
60.2163094895268
20
4.01101836931332
30
0
41
1
10
60.2987664951979
20
3.89947639875871
30
0
0
SPLINE
5
16F
100
AcDbEntity
8
1
62
256
6
ByLayer
370
18
48
1
60
0
100
AcDbSpline
70
4
71
3
72
8
73
4
40
0
40
0
40
0
40
0
40
1
40
1
40
1
40
1
41
1
10
59.3028140632525
20
3.74330730958749
30
0
41
1
10
59.5551419258831
20
3.91966633795204
30
0
41
1
10
59.8047550505176
20
4.07877909205902
30
0
41
1
10
60.0533489744748
20
4.21963643360539
30
0
0
SPLINE
5
170
100
AcDbEntity
8
1
62
256
6
ByLayer
370
18
48
1
60
0
100
AcDbSpline
70
4
71
3
72
8
73
4
40
0
40
0
40
0
40
0
40
1
40
1
40
1
40
1
41
1
10
59.1118697155215
20
3.34294686734944
30
0
41
1
10
59.1759159086134
20
3.47660648678601
30
0
41
1
10
59.2395325170475
20
3.61007554808498
30
0
41
1
10
59.3028140632525
20
3.74330730958747
30
0
0
SPLINE
5
171
100
AcDbEntity
8
1
62
256
6
ByLayer
370
18
48
1
60
0
100
AcDbSpline
70
4
71
3
72
18
73
14
40
0
40
0
40
0
40
0
40
0.0820794323595046
40
0.0820794323595046
40
0.235066193632905
40
0.235066193632905
40
0.388052954906306
40
0.388052954906306
40
0.694026477453106
40
0.694026477453106
40
0.847013238726553
40
0.847013238726553
40
1
40
1
40
1
40
1
41
1
10
58.9646629049565
20
3.16126066679973
30
0
41
1
10
58.9694021406097
20
3.16502590403567
30
0
41
1
10
58.9741024816134
20
3.16889619897705
30
0
41
1
10
58.9874523619648
20
3.18027672666682
30
0
41
1
10
58.9960044648751
20
3.18804681610567
30
0
41
1
10
59.0128209830407
20
3.20433852453937
30
0
41
1
10
59.0211169246476
20
3.21289648159316
30
0
41
1
10
59.0452145555993
20
3.23942369976285
30
0
41
1
10
59.0602824957075
20
3.25825318440508
30
0
41
1
10
59.0811540690725
20
3.28847594219192
30
0
41
1
10
59.0878202035549
20
3.29888319821879
30
0
41
1
10
59.1004777807993
20
3.32047199089592
30
0
41
1
10
59.1064185633387
20
3.33157072005525
30
0
41
1
10
59.1118697155215
20
3.34294686734941
30
0
0
SPLINE
5
172
100
AcDbEntity
8
1
62
256
6
ByLayer
370
18
48
1
60
0
100
AcDbSpline
70
4
71
3
72
31
73
27
40
0
40
0
40
0
40
0
40
0.174065552761983
40
0.174065552761983
40
0.277307358666717
40
0.277307358666717
40
0.303117810142903
40
0.303117810142903
40
0.328928261619088
40
0.380549164571465
40
0.380549164571465
40
0.483790970476225
40
0.483790970476225
40
0.587032776380985
40
0.587032776380985
40
0.690274582285746
40
0.690274582285746
40
0.793516388190506
40
0.793516388190506
40
0.896758194095266
40
0.896758194095266
40
0.922568645571451
40
0.922568645571451
40
0.948379097047636
40
0.948379097047636
40
1
40
1
40
1
40
1
41
1
10
47.9481099650348
20
-3.9406024960069
30
0
41
1
10
47.7400914215483
20
-3.94062341113084
30
0
41
1
10
47.5319254662107
20
-3.92820576621983
30
0
41
1
10
47.1989824316971
20
-3.88832002631236
30
0
41
1
10
47.0747289603575
20
-3.86902011373138
30
0
41
1
10
46.9187082861102
20
-3.83926922302661
30
0
41
1
10
46.8874471855804
20
-3.83303308062261
30
0
41
1
10
46.8250145461895
20
-3.8200333263363
30
0
41
1
10
46.7314615901859
20
-3.79973640149467
30
0
41
1
10
46.6381556352008
20
-3.77707626506026
30
0
41
1
10
46.4517633019574
20
-3.72868366486034
30
0
41
1
10
46.3277519848172
20
-3.69234847711706
30
0
41
1
10
46.0802757378572
20
-3.61166267646172
30
0
41
1
10
45.9568760436174
20
-3.5672770095002
30
0
41
1
10
45.7103699815298
20
-3.47060412824243
30
0
41
1
10
45.5872267534729
20
-3.41833355854334
30
0
41
1
10
45.3405861862919
20
-3.30623141587932
30
0
41
1
10
45.2171050791315
20
-3.24639340969642
30
0
41
1
10
44.9694854071652
20
-3.11929408064805
30
0
41
1
10
44.845346271269
20
-3.05203234025188
30
0
41
1
10
44.6895042466454
20
-2.96341870805489
30
0
41
1
10
44.6583021366979
20
-2.94546933242148
30
0
41
1
10
44.5958266526345
20
-2.90911750647197
30
0
41
1
10
44.5645295372354
20
-2.8907008228889
30
0
41
1
10
44.4707294332815
20
-2.83489211893345
30
0
41
1
10
44.4083330904546
20
-2.79695255457415
30
0
41
1
10
44.346061292069
20
-2.75829698222495
30
0
0
SPLINE
5
173
100
AcDbEntity
8
1
62
256
6
ByLayer
370
18
48
1
60
0
100
AcDbSpline
70
4
71
3
72
26
73
22
40
0
40
0
40
0
40
0
40
0.144216893198097
40
0.144216893198097
40
0.216325339797145
40
0.216325339797145
40
0.288433786396194
40
0.288433786396194
40
0.432650679594291
40
0.432650679594291
40
0.504759126193343
40
0.504759126193343
40
0.540813349492873
40
0.540813349492873
40
0.576867572792402
40
0.576867572792402
40
0.721084465990529
40
0.721084465990529
40
0.865301359188655
40
0.865301359188655
40
1
40
1
40
1
40
1
41
1
10
41.288563388029
20
-3.93756776572064
30
0
41
1
10
41.4448516810845
20
-3.93223393697554
30
0
41
1
10
41.6003543198772
20
-3.91986470011611
30
0
41
1
10
41.8334964556162
20
-3.89098785110949
30
0
41
1
10
41.9112056547678
20
-3.87964583360838
30
0
41
1
10
42.0667859470644
20
-3.85359167078616
30
0
41
1
10
42.1446450983225
20
-3.83887829591757
30
0
41
1
10
42.3784624492559
20
-3.78971006789641
30
0
41
1
10
42.5346782093503
20
-3.75025202473583
30
0
41
1
10
42.7693107448158
20
-3.68081002826509
30
0
41
1
10
42.8475516082104
20
-3.65593891823616
30
0
41
1
10
42.9650565163221
20
-3.61603357210805
30
0
41
1
10
43.004282312598
20
-3.60228724190927
30
0
41
1
10
43.0825684044883
20
-3.57402038189073
30
0
41
1
10
43.1216448949968
20
-3.55949509421305
30
0
41
1
10
43.3167630932971
20
-3.48495499908754
30
0
41
1
10
43.4719849650022
20
-3.41916668552446
30
0
41
1
10
43.7828749718209
20
-3.27692703291669
30
0
41
1
10
43.9386813418146
20
-3.20062358467035
30
0
41
1
10
44.238915144032
20
-3.04199197670948
30
0
41
1
10
44.3833549630249
20
-2.96030334380649
30
0
41
1
10
44.5279282260659
20
-2.87395881875085
30
0
0
SPLINE
5
174
100
AcDbEntity
8
1
62
256
6
ByLayer
370
18
48
1
60
0
100
AcDbSpline
70
4
71
3
72
12
73
8
40
0
40
0
40
0
40
0
40
0.467376892088606
40
0.467376892088606
40
0.733688446044302
40
0.733688446044302
40
1
40
1
40
1
40
1
41
1
10
55.3586656295311
20
3.94060078978146
30
0
41
1
10
55.4958098324829
20
3.94059007237229
30
0
41
1
10
55.6331410543896
20
3.93520126486612
30
0
41
1
10
55.8488835450159
20
3.91833422220907
30
0
41
1
10
55.9272182636836
20
3.91046845403764
30
0
41
1
10
56.0838411650448
20
3.89118707731473
30
0
41
1
10
56.1621370388459
20
3.87976970184215
30
0
41
1
10
56.2405217445222
20
3.86656241875261
30
0
0
SPLINE
5
175
100
AcDbEntity
8
1
62
256
6
ByLayer
370
18
48
1
60
0
100
AcDbSpline
70
4
71
3
72
14
73
10
40
0
40
0
40
0
40
0
40
0.25
40
0.25
40
0.5
40
0.5
40
0.75
40
0.75
40
1
40
1
40
1
40
1
41
1
10
56.2405217445221
20
3.86656241875264
30
0
41
1
10
56.2872922777392
20
3.85868190600314
30
0
41
1
10
56.333933331865
20
3.85318240457514
30
0
41
1
10
56.42677106956
20
3.84699000605826
30
0
41
1
10
56.4729685682273
20
3.84629414646517
30
0
41
1
10
56.5647924623878
20
3.85001761237595
30
0
41
1
10
56.6104197349234
20
3.85443151798063
30
0
41
1
10
56.7010086197214
20
3.8690701207687
30
0
41
1
10
56.7459818554167
20
3.8792964736034
30
0
41
1
10
56.7905217445221
20
3.89302731861753
30
0
0
SPLINE
5
176
100
AcDbEntity
8
1
62
256
6
ByLayer
370
18
48
1
60
0
100
AcDbSpline
70
4
71
3
72
8
73
4
40
0
40
0
40
0
40
0
40
1
40
1
40
1
40
1
41
1
10
56.7905217445221
20
3.8930273186175
30
0
41
1
10
56.860547236261
20
3.91461491556524
30
0
41
1
10
56.9304734856936
20
3.93479557720656
30
0
41
1
10
57.0000000000001
20
3.95318274417105
30
0
0
SPLINE
5
177
100
AcDbEntity
8
1
62
256
6
ByLayer
370
18
48
1
60
0
100
AcDbSpline
70
4
71
3
72
8
73
4
40
0
40
0
40
0
40
0
40
1
40
1
40
1
40
1
41
1
10
57.4720764890357
20
3.84797785063893
30
0
41
1
10
57.3154460574587
20
3.89045896390238
30
0
41
1
10
57.1580284078452
20
3.92542895953835
30
0
41
1
10
56.9999999999999
20
3.95318274417105
30
0
0
SPLINE
5
178
100
AcDbEntity
8
1
62
256
6
ByLayer
370
18
48
1
60
0
100
AcDbSpline
70
4
71
3
72
8
73
4
40
0
40
0
40
0
40
0
40
1
40
1
40
1
40
1
41
1
10
57.5031535601759
20
3.78603295878793
30
0
41
1
10
57.4927875451813
20
3.80669968818358
30
0
41
1
10
57.482428549247
20
3.82734805591241
30
0
41
1
10
57.4720764890357
20
3.84797785063893
30
0
0
SPLINE
5
179
100
AcDbEntity
8
1
62
256
6
ByLayer
370
18
48
1
60
0
100
AcDbSpline
70
4
71
3
72
32
73
28
40
0
40
0
40
0
40
0
40
0.0625000000000073
40
0.0625000000000073
40
0.125000000000015
40
0.125000000000015
40
0.187500000000022
40
0.187500000000022
40
0.250000000000029
40
0.250000000000029
40
0.312500000000037
40
0.312500000000037
40
0.375000000000044
40
0.375000000000044
40
0.500000000000059
40
0.500000000000059
40
0.56250000000004
40
0.56250000000004
40
0.625000000000022
40
0.625000000000022
40
0.749999999999984
40
0.749999999999984
40
0.812499999999988
40
0.812499999999988
40
0.874999999999992
40
0.874999999999992
40
1
40
1
40
1
40
1
41
1
10
57.8997113543413
20
3.60781582467646
30
0
41
1
10
57.8934933334125
20
3.60090375217999
30
0
41
1
10
57.8866481584668
20
3.59518343793061
30
0
41
1
10
57.871952895524
20
3.5856528184583
30
0
41
1
10
57.864100049212
20
3.58184778881648
30
0
41
1
10
57.8475117039907
20
3.57592015373845
30
0
41
1
10
57.8389462450575
20
3.57386089822666
30
0
41
1
10
57.8214916637958
20
3.57125384629694
30
0
41
1
10
57.812580644064
20
3.57070164449783
30
0
41
1
10
57.7944426474301
20
3.57091427687962
30
0
41
1
10
57.7851658763855
20
3.57168925990837
30
0
41
1
10
57.7665957170543
20
3.57441950563134
30
0
41
1
10
57.7573176783576
20
3.5763644495718
30
0
41
1
10
57.7295131757289
20
3.58375109482802
30
0
41
1
10
57.7110153540141
20
3.59072474045851
30
0
41
1
10
57.6833739681647
20
3.60401819160486
30
0
41
1
10
57.6741528185784
20
3.60894533165356
30
0
41
1
10
57.6560455684167
20
3.6195946322045
30
0
41
1
10
57.6471270389917
20
3.62532977625369
30
0
41
1
10
57.6207859448073
20
3.64375450401508
30
0
41
1
10
57.6037719512002
20
3.6576443577232
30
0
41
1
10
57.5792048551452
20
3.68115102898656
30
0
41
1
10
57.5711803123158
20
3.68944101527478
30
0
41
1
10
57.5558068645231
20
3.70665159008485
30
0
41
1
10
57.5484163381454
20
3.71560953234089
30
0
41
1
10
57.5272066298412
20
3.74362764627074
30
0
41
1
10
57.5143129013956
20
3.76378457449138
30
0
41
1
10
57.5031535601759
20
3.78603295878767
30
0
0
SPLINE
5
17A
100
AcDbEntity
8
1
62
256
6
ByLayer
370
18
48
1
60
0
100
AcDbSpline
70
4
71
3
72
8
73
4
40
0
40
0
40
0
40
0
40
1
40
1
40
1
40
1
41
1
10
57.9716238523741
20
3.68630147868649
30
0
41
1
10
57.9477201372916
20
3.66067985387758
30
0
41
1
10
57.9237554074433
20
3.63454365979538
30
0
41
1
10
57.8997113543412
20
3.60781582467646
30
0
0
SPLINE
5
17B
100
AcDbEntity
8
1
62
256
6
ByLayer
370
18
48
1
60
0
100
AcDbSpline
70
4
71
3
72
12
73
8
40
0
40
0
40
0
40
0
40
0.250000000000006
40
0.250000000000006
40
0.500000000000011
40
0.500000000000011
40
1
40
1
40
1
40
1
41
1
10
58.9287873807881
20
3.23507432679588
30
0
41
1
10
58.8490943690373
20
3.27987456691588
30
0
41
1
10
58.7694346684366
20
3.32288090490749
30
0
41
1
10
58.6101758088374
20
3.40536220451136
30
0
41
1
10
58.5305892894283
20
3.44484617507533
30
0
41
1
10
58.2916791250024
20
3.55786335391105
30
0
41
1
10
58.1321708024051
20
3.62592927100997
30
0
41
1
10
57.9716238523741
20
3.68630147868652
30
0
0
SPLINE
5
17C
100
AcDbEntity
8
1
62
256
6
ByLayer
370
18
48
1
60
0
100
AcDbSpline
70
4
71
3
72
8
73
4
40
0
40
0
40
0
40
0
40
1
40
1
40
1
40
1
41
1
10
59.0865763525026
20
2.91539278926572
30
0
41
1
10
59.0337395938841
20
3.02147887398894
30
0
41
1
10
58.9811079523129
20
3.12799723945042
30
0
41
1
10
58.928787380788
20
3.23507432679591
30
0
0
SPLINE
5
17D
100
AcDbEntity
8
1
62
256
6
ByLayer
370
18
48
1
60
0
100
AcDbSpline
70
4
71
3
72
32
73
28
40
0
40
0
40
0
40
0
40
0.0624999999999909
40
0.0624999999999909
40
0.124999999999982
40
0.124999999999982
40
0.187499999999973
40
0.187499999999973
40
0.249999999999964
40
0.249999999999964
40
0.312499999999954
40
0.312499999999954
40
0.374999999999945
40
0.374999999999945
40
0.499999999999926
40
0.499999999999926
40
0.562499999999917
40
0.562499999999917
40
0.624999999999907
40
0.624999999999907
40
0.749999999999938
40
0.749999999999938
40
0.812499999999953
40
0.812499999999953
40
0.874999999999969
40
0.874999999999969
40
1
40
1
40
1
40
1
41
1
10
59.4831231698367
20
2.63768728457597
30
0
41
1
10
59.4769111090702
20
2.6341606599664
30
0
41
1
10
59.4700733907846
20
2.63179193715496
30
0
41
1
10
59.4553952606868
20
2.62890982081572
30
0
41
1
10
59.4475521030097
20
2.62840155181249
30
0
41
1
10
59.4309850312129
20
2.62901924193474
30
0
41
1
10
59.4224264959589
20
2.63014148514773
30
0
41
1
10
59.4049887750228
20
2.63370523652196
30
0
41
1
10
59.3960860210013
20
2.63615029508469
30
0
41
1
10
59.3779639876694
20
2.64220479714513
30
0
41
1
10
59.368695750007
20
2.64583812663324
30
0
41
1
10
59.3501316843171
20
2.65407131585158
30
0
41
1
10
59.3408559442556
20
2.6586558939394
30
0
41
1
10
59.3130564076919
20
2.67366693544906
30
0
41
1
10
59.2945594126445
20
2.68533447849472
30
0
41
1
10
59.2669173299995
20
2.70515440653549
30
0
41
1
10
59.2576929687544
20
2.71217713657893
30
0
41
1
10
59.2395755413824
20
2.72678728548732
30
0
41
1
10
59.2306521241919
20
2.73439407940438
30
0
41
1
10
59.2042971753455
20
2.75811713079955
30
0
41
1
10
59.1872750626072
20
2.77512227732964
30
0
41
1
10
59.1626976259913
20
2.8026297595224
30
0
41
1
10
59.1546635776947
20
2.8121455526724
30
0
41
1
10
59.1392733003811
20
2.83151671529498
30
0
41
1
10
59.1318752756674
20
2.84141648405159
30
0
41
1
10
59.1106456571286
20
2.8718110023126
30
0
41
1
10
59.0977420070369
20
2.89297429494712
30
0
41
1
10
59.0865763525026
20
2.91539278926598
30
0
0
SPLINE
5
17E
100
AcDbEntity
8
1
62
256
6
ByLayer
370
18
48
1
60
0
100
AcDbSpline
70
4
71
3
72
10
73
6
40
0
40
0
40
0
40
0
40
0.5
40
0.5
40
1
40
1
40
1
40
1
41
1
10
59.7000435203759
20
2.74390326573754
30
0
41
1
10
59.6641619434925
20
2.7289693647898
30
0
41
1
10
59.628160142782
20
2.71267398739551
30
0
41
1
10
59.5558833065695
20
2.67739398976585
30
0
41
1
10
59.5196076724847
20
2.65839975822038
30
0
41
1
10
59.4831231698367
20
2.63768728457595
30
0
0
SPLINE
5
17F
100
AcDbEntity
8
1
62
256
6
ByLayer
370
18
48
1
60
0
100
AcDbSpline
70
4
71
3
72
10
73
6
40
0
40
0
40
0
40
0
40
0.5
40
0.5
40
1
40
1
40
1
40
1
41
1
10
60.3860583134338
20
2.21743403804757
30
0
41
1
10
60.2716923907343
20
2.31105374594924
30
0
41
1
10
60.1573824423497
20
2.40174591400918
30
0
41
1
10
59.9288730527208
20
2.57736785214641
30
0
41
1
10
59.8146791670839
20
2.6622940162454
30
0
41
1
10
59.7000435203759
20
2.74390326573754
30
0
0
SPLINE
5
180
100
AcDbEntity
8
1
62
256
6
ByLayer
370
18
48
1
60
0
100
AcDbSpline
70
4
71
3
72
10
73
6
40
0
40
0
40
0
40
0
40
0.5
40
0.5
40
1
40
1
40
1
40
1
41
1
10
60.6699301929486
20
1.6938437567797
30
0
41
1
10
60.6222265561373
20
1.77871077206808
30
0
41
1
10
60.5746590828779
20
1.86465610809452
30
0
41
1
10
60.4799931748995
20
2.03926238993992
30
0
41
1
10
60.4329165435652
20
2.12778248022792
30
0
41
1
10
60.3860583134338
20
2.21743403804766
30
0
0
SPLINE
5
181
100
AcDbEntity
8
1
62
256
6
ByLayer
370
18
48
1
60
0
100
AcDbSpline
70
4
71
3
72
32
73
28
40
0
40
0
40
0
40
0
40
0.0624999999999917
40
0.0624999999999917
40
0.124999999999983
40
0.124999999999983
40
0.187499999999975
40
0.187499999999975
40
0.249999999999967
40
0.249999999999967
40
0.312499999999958
40
0.312499999999958
40
0.37499999999995
40
0.37499999999995
40
0.499999999999933
40
0.499999999999933
40
0.562499999999925
40
0.562499999999925
40
0.624999999999916
40
0.624999999999916
40
0.7499999999999
40
0.7499999999999
40
0.812499999999915
40
0.812499999999915
40
0.87499999999993
40
0.87499999999993
40
1
40
1
40
1
40
1
41
1
10
61.0665265447469
20
1.34936447282794
30
0
41
1
10
61.0603112074149
20
1.34965726359553
30
0
41
1
10
61.053469676371
20
1.35093756777312
30
0
41
1
10
61.0387833714213
20
1.35508069169117
30
0
41
1
10
61.0309358499252
20
1.3579478814689
30
0
41
1
10
61.014360138907
20
1.36507667872215
30
0
41
1
10
61.0057990952723
20
1.36926788626141
30
0
41
1
10
60.9883563125367
20
1.37862007321922
30
0
41
1
10
60.9794516366415
20
1.38379256174463
30
0
41
1
10
60.9613273294037
20
1.39501079443323
30
0
41
1
10
60.9520586920471
20
1.40109176178882
30
0
41
1
10
60.9334972012999
20
1.41388759303456
30
0
41
1
10
60.9242234051149
20
1.42058521366448
30
0
41
1
10
60.8964314039493
20
1.44148820664185
30
0
41
1
10
60.8779416298196
20
1.45649286384815
30
0
41
1
10
60.8503118565358
20
1.48051765385569
30
0
41
1
10
60.8410912299
20
1.48881008451346
30
0
41
1
10
60.8229788638005
20
1.50565730038869
30
0
41
1
10
60.8140576252985
20
1.51423608597997
30
0
41
1
10
60.7877079070089
20
1.54044544551272
30
0
41
1
10
60.7706875085463
20
1.5585421353303
30
0
41
1
10
60.7461095576313
20
1.58676542238558
30
0
41
1
10
60.7380709092316
20
1.59636704614806
30
0
41
1
10
60.7226701725729
20
1.6155755363192
30
0
41
1
10
60.7152666033683
20
1.6252282348554
30
0
41
1
10
60.6940201476515
20
1.65434440298324
30
0
41
1
10
60.6811048622691
20
1.6739634940692
30
0
41
1
10
60.6699301929485
20
1.69384375678004
30
0
0
SPLINE
5
182
100
AcDbEntity
8
1
62
256
6
ByLayer
370
18
48
1
60
0
100
AcDbSpline
70
4
71
3
72
12
73
8
40
0
40
0
40
0
40
0
40
0.5
40
0.5
40
0.75
40
0.75
40
1
40
1
40
1
40
1
41
1
10
61.4293286718355
20
1.28027185148221
30
0
41
1
10
61.3696506236001
20
1.29981809829073
30
0
41
1
10
61.3095459127806
20
1.31547610096391
30
0
41
1
10
61.218851114847
20
1.33285532975964
30
0
41
1
10
61.1885339720696
20
1.33764734649955
30
0
41
1
10
61.1277040472856
20
1.34519698172531
30
0
41
1
10
61.0971871616317
20
1.34792011911495
30
0
41
1
10
61.0665265447469
20
1.34936447282792
30
0
0
SPLINE
5
183
100
AcDbEntity
8
1
62
256
6
ByLayer
370
18
48
1
60
0
100
AcDbSpline
70
4
71
3
72
32
73
28
40
0
40
0
40
0
40
0
40
0.0625000000000135
40
0.0625000000000135
40
0.125000000000027
40
0.125000000000027
40
0.187500000000041
40
0.187500000000041
40
0.250000000000054
40
0.250000000000054
40
0.312500000000068
40
0.312500000000068
40
0.375000000000081
40
0.375000000000081
40
0.500000000000056
40
0.500000000000056
40
0.562500000000043
40
0.562500000000043
40
0.625000000000031
40
0.625000000000031
40
0.750000000000006
40
0.750000000000006
40
0.812499999999994
40
0.812499999999994
40
0.874999999999982
40
0.874999999999982
40
1
40
1
40
1
40
1
41
1
10
62.6498469777158
20
-0.103183578106069
30
0
41
1
10
62.6436390255806
20
-0.0991285197034983
30
0
41
1
10
62.6368061856022
20
-0.0943806456241987
30
0
41
1
10
62.6221384958492
20
-0.0837740368792765
30
0
41
1
10
62.6143009156127
20
-0.0779122411817355
30
0
41
1
10
62.5977453646299
20
-0.0652084442664602
30
0
41
1
10
62.5891899195854
20
-0.058490598021649
30
0
41
1
10
62.5717600425737
20
-0.0445552314493227
30
0
41
1
10
62.5628609781812
20
-0.0373184004030236
30
0
41
1
10
62.5447460487386
20
-0.0223674983984665
30
0
41
1
10
62.5354815900377
20
-0.0146117925064004
30
0
41
1
10
62.5169204598822
20
0.0011324609359917
30
0
41
1
10
62.507646160629
20
0.0091007028618151
30
0
41
1
10
62.4798507687939
20
0.0332739242151661
30
0
41
1
10
62.4613561264633
20
0.0497432240648266
30
0
41
1
10
62.4337169918771
20
0.0749925594099068
30
0
41
1
10
62.4244927623996
20
0.0835285193656432
30
0
41
1
10
62.4063743425795
20
0.100530411413985
30
0
41
1
10
62.3974504782509
20
0.109022781832749
30
0
41
1
10
62.3710942276494
20
0.134490994638554
30
0
41
1
10
62.3540713065351
20
0.151458829502246
30
0
41
1
10
62.3294921901179
20
0.176947253257879
30
0
41
1
10
62.321456171007
20
0.185455487888987
30
0
41
1
10
62.306062398168
20
0.202142007762603
30
0
41
1
10
62.298662820726
20
0.21036290358947
30
0
41
1
10
62.2774291015983
20
0.234629227164021
30
0
41
1
10
62.2645233619386
20
0.250300539716477
30
0
41
1
10
62.253356964548
20
0.265207182381261
30
0
0
SPLINE
5
184
100
AcDbEntity
8
1
62
256
6
ByLayer
370
18
48
1
60
0
100
AcDbSpline
70
4
71
3
72
12
73
8
40
0
40
0
40
0
40
0
40
0.500000000000008
40
0.500000000000008
40
0.750000000000004
40
0.750000000000004
40
1
40
1
40
1
40
1
41
1
10
63.1590731568597
20
-0.535635119266288
30
0
41
1
10
63.0758594955329
20
-0.449460762474303
30
0
41
1
10
62.9918090691182
20
-0.369838784614387
30
0
41
1
10
62.8644355190638
20
-0.261317645155259
30
0
41
1
10
62.8217915409291
20
-0.2270006055181
30
0
41
1
10
62.736145303093
20
-0.162110436350446
30
0
41
1
10
62.6931420872326
20
-0.131464111489606
30
0
41
1
10
62.6498469777129
20
-0.103183578098509
30
0
0
SPLINE
5
185
100
AcDbEntity
8
1
62
256
6
ByLayer
370
18
48
1
60
0
100
AcDbSpline
70
4
71
3
72
8
73
4
40
0
40
0
40
0
40
0
40
1
40
1
40
1
40
1
41
1
10
63.1674066383633
20
-0.544896618211283
30
0
41
1
10
63.1646289351157
20
-0.541809194496523
30
0
41
1
10
63.1618511096969
20
-0.538722026592467
30
0
41
1
10
63.1590731568597
20
-0.535635119266288
30
0
0
SPLINE
5
186
100
AcDbEntity
8
1
62
256
6
ByLayer
370
18
48
1
60
0
100
AcDbSpline
70
4
71
3
72
8
73
4
40
0
40
0
40
0
40
0
40
1
40
1
40
1
40
1
41
1
10
63.1674066383637
20
-0.544896618211567
30
0
41
1
10
63.2151399607349
20
-0.598273473867039
30
0
41
1
10
63.2627823222145
20
-0.651448138575887
30
0
41
1
10
63.3103619434624
20
-0.704398341894148
30
0
0
SPLINE
5
187
100
AcDbEntity
8
1
62
256
6
ByLayer
370
18
48
1
60
0
100
AcDbSpline
70
4
71
3
72
14
73
10
40
0
40
0
40
0
40
0
40
0.25
40
0.25
40
0.5
40
0.5
40
0.75
40
0.75
40
1
40
1
40
1
40
1
41
1
10
63.836756129536
20
-1.19425969850556
30
0
41
1
10
63.7920460760237
20
-1.16166681894708
30
0
41
1
10
63.7474973723467
20
-1.12725300907806
30
0
41
1
10
63.658890365497
20
-1.05396164951114
30
0
41
1
10
63.614815770058
20
-1.01513713426857
30
0
41
1
10
63.5270177819995
20
-0.933272631606059
30
0
41
1
10
63.4833567097094
20
-0.890276095764989
30
0
41
1
10
63.3965330003196
20
-0.80031308748363
30
0
41
1
10
63.3533536657614
20
-0.753332618412458
30
0
41
1
10
63.3103619434624
20
-0.704398341894148
30
0
0
SPLINE
5
188
100
AcDbEntity
8
1
62
256
6
ByLayer
370
18
48
1
60
0
100
AcDbSpline
70
4
71
3
72
32
73
28
40
0
40
0
40
0
40
0
40
0.0625000000000191
40
0.0625000000000191
40
0.125000000000038
40
0.125000000000038
40
0.187500000000057
40
0.187500000000057
40
0.250000000000076
40
0.250000000000076
40
0.312500000000095
40
0.312500000000095
40
0.375000000000115
40
0.375000000000115
40
0.500000000000101
40
0.500000000000101
40
0.56250000000012
40
0.56250000000012
40
0.625000000000138
40
0.625000000000138
40
0.750000000000124
40
0.750000000000124
40
0.812500000000093
40
0.812500000000093
40
0.875000000000062
40
0.875000000000062
40
1
40
1
40
1
40
1
41
1
10
64.2332172932505
20
-1.54265053904541
30
0
41
1
10
64.2270176819819
20
-1.5353231563501
30
0
41
1
10
64.2201950654647
20
-1.52767877735576
30
0
41
1
10
64.2055505472777
20
-1.51188168686716
30
0
41
1
10
64.1977259316888
20
-1.50372756943392
30
0
41
1
10
64.1811986855706
20
-1.48696960610198
30
0
41
1
10
64.172651241302
20
-1.47852394306696
30
0
41
1
10
64.1552420892685
20
-1.46166614485017
30
0
41
1
10
64.146353144746
20
-1.45322721963001
30
0
41
1
10
64.128258124524
20
-1.4363255084219
30
0
41
1
10
64.1190050165871
20
-1.42782061955501
30
0
41
1
10
64.1004508371618
20
-1.41099819380511
30
0
41
1
10
64.0911796051911
20
-1.40270624361159
30
0
41
1
10
64.0633925707354
20
-1.37813664959307
30
0
41
1
10
64.0449025052269
20
-1.36216204097906
30
0
41
1
10
64.0172683626078
20
-1.3386974499839
30
0
41
1
10
64.0080424873312
20
-1.33093379923972
30
0
41
1
10
63.9899143341926
20
-1.31579685992139
30
0
41
1
10
63.9809857496298
20
-1.30840077859057
30
0
41
1
10
63.9546155826466
20
-1.28670570447531
30
0
41
1
10
63.9375836944333
20
-1.27289134445803
30
0
41
1
10
63.9129911572402
20
-1.25318639945036
30
0
41
1
10
63.9049434231212
20
-1.24678162261671
30
0
41
1
10
63.8895268806948
20
-1.23459871201911
30
0
41
1
10
63.8821168533742
20
-1.22878721619608
30
0
41
1
10
63.860854558706
20
-1.21226016946861
30
0
41
1
10
63.847933317502
20
-1.20240768117495
30
0
41
1
10
63.836756129536
20
-1.19425969850522
30
0
0
SPLINE
5
189
100
AcDbEntity
8
1
62
256
6
ByLayer
370
18
48
1
60
0
100
AcDbSpline
70
4
71
3
72
14
73
10
40
0
40
0
40
0
40
0
40
0.25
40
0.25
40
0.5
40
0.5
40
0.75
40
0.75
40
1
40
1
40
1
40
1
41
1
10
64.7427006922702
20
-2.23173481556961
30
0
41
1
10
64.7011007430393
20
-2.16885515924
30
0
41
1
10
64.6593130545422
20
-2.10723680711186
30
0
41
1
10
64.5752826973123
20
-1.98661936506534
30
0
41
1
10
64.5330177810193
20
-1.92759036051402
30
0
41
1
10
64.4480619471528
20
-1.812410374113
30
0
41
1
10
64.4053768023167
20
-1.75627798011956
30
0
41
1
10
64.3195982939538
20
-1.64700707019008
30
0
41
1
10
64.2765433702051
20
-1.59385806364267
30
0
41
1
10
64.2332172932506
20
-1.54265053904538
30
0
0
SPLINE
5
18A
100
AcDbEntity
8
1
62
256
6
ByLayer
370
18
48
1
60
0
100
AcDbSpline
70
4
71
3
72
8
73
4
40
0
40
0
40
0
40
0
40
1
40
1
40
1
40
1
41
1
10
64.7427006922702
20
-2.2317348155695
30
0
41
1
10
64.7931075457368
20
-2.28271729015458
30
0
41
1
10
64.8435637514252
20
-2.33334599191767
30
0
41
1
10
64.8941039482912
20
-2.38359046919192
30
0
0
SPLINE
5
18B
100
AcDbEntity
8
1
62
256
6
ByLayer
370
18
48
1
60
0
100
AcDbSpline
70
4
71
3
72
14
73
10
40
0
40
0
40
0
40
0
40
0.25
40
0.25
40
0.5
40
0.5
40
0.75
40
0.75
40
1
40
1
40
1
40
1
41
1
10
65.4202011023571
20
-2.51035444960971
30
0
41
1
10
65.3755325386765
20
-2.50879990990509
30
0
41
1
10
65.3310208640156
20
-2.50526313596092
30
0
41
1
10
65.2424836004024
20
-2.49333984958469
30
0
41
1
10
65.1984371609901
20
-2.48500902668383
30
0
41
1
10
65.1107087191887
20
-2.46374803325509
30
0
41
1
10
65.0670934504529
20
-2.45082865592073
30
0
41
1
10
64.9802670575908
20
-2.42051936080168
30
0
41
1
10
64.9370732129345
20
-2.40313367750022
30
0
41
1
10
64.8941039482912
20
-2.38359046919189
30
0
0
SPLINE
5
18C
100
AcDbEntity
8
1
62
256
6
ByLayer
370
18
48
1
60
0
100
AcDbSpline
70
4
71
3
72
32
73
28
40
0
40
0
40
0
40
0
40
0.0624999999999705
40
0.0624999999999705
40
0.124999999999941
40
0.124999999999941
40
0.187499999999912
40
0.187499999999912
40
0.249999999999882
40
0.249999999999882
40
0.312499999999853
40
0.312499999999853
40
0.374999999999823
40
0.374999999999823
40
0.499999999999816
40
0.499999999999816
40
0.562499999999838
40
0.562499999999838
40
0.62499999999986
40
0.62499999999986
40
0.749999999999905
40
0.749999999999905
40
0.812499999999928
40
0.812499999999928
40
0.874999999999952
40
0.874999999999952
40
1
40
1
40
1
40
1
41
1
10
65.8166427203712
20
-2.79629910957797
30
0
41
1
10
65.8104439963918
20
-2.78659112885865
30
0
41
1
10
65.803621919286
20
-2.77697749440071
30
0
41
1
10
65.7889773287686
20
-2.75790167415073
30
0
41
1
10
65.7811521104137
20
-2.74843988600097
30
0
41
1
10
65.7646223046579
20
-2.72964782934545
30
0
41
1
10
65.756073626622
20
-2.7204970004812
30
0
41
1
10
65.7386609235271
20
-2.70275301545109
30
0
41
1
10
65.7297698691177
20
-2.69413109342219
30
0
41
1
10
65.7116701093423
20
-2.6773195801002
30
0
41
1
10
65.7024139871665
20
-2.66909086227506
30
0
41
1
10
65.6838566911138
20
-2.65323415707127
30
0
41
1
10
65.6745839382521
20
-2.64562638982105
30
0
41
1
10
65.6467926432704
20
-2.62364806895209
30
0
41
1
10
65.6283001542863
20
-2.61011238146807
30
0
41
1
10
65.6006635826713
20
-2.59128901959784
30
0
41
1
10
65.5914379388146
20
-2.58524620783382
30
0
41
1
10
65.5733125567582
20
-2.57383030515811
30
0
41
1
10
65.5643854302433
20
-2.56843700977993
30
0
41
1
10
65.5380197734883
20
-2.553172678214
30
0
41
1
10
65.5209910945807
20
-2.54420196961593
30
0
41
1
10
65.4964029268597
20
-2.53268854889919
30
0
41
1
10
65.4883591691047
20
-2.5291782010612
30
0
41
1
10
65.4729505764666
20
-2.52300337498483
30
0
41
1
10
65.465544164075
20
-2.5203180133868
30
0
41
1
10
65.444291546952
20
-2.51356636234485
30
0
41
1
10
65.4313751831533
20
-2.51074332605475
30
0
41
1
10
65.4202011023571
20
-2.51035444960945
30
0
0
SPLINE
5
18D
100
AcDbEntity
8
1
62
256
6
ByLayer
370
18
48
1
60
0
100
AcDbSpline
70
4
71
3
72
14
73
10
40
0
40
0
40
0
40
0
40
0.25
40
0.25
40
0.5
40
0.5
40
0.75
40
0.75
40
1
40
1
40
1
40
1
41
1
10
66.3266299084541
20
-3.65853982275016
30
0
41
1
10
66.2850167723889
20
-3.5834917685489
30
0
41
1
10
66.2432128586044
20
-3.50913108475641
30
0
41
1
10
66.1591322608596
20
-3.36188858487102
30
0
41
1
10
66.1168320241032
20
-3.2889673645885
30
0
41
1
10
66.0317820665565
20
-3.14490901563536
30
0
41
1
10
65.9890400227678
20
-3.07378938896144
30
0
41
1
10
65.9031428725947
20
-2.93344774493417
30
0
41
1
10
65.8600268910228
20
-2.86424417272505
30
0
41
1
10
65.8166427203712
20
-2.79629910957797
30
0
0
SPLINE
5
18E
100
AcDbEntity
8
1
62
256
6
ByLayer
370
18
48
1
60
0
100
AcDbSpline
70
4
71
3
72
8
73
4
40
0
40
0
40
0
40
0
40
1
40
1
40
1
40
1
41
1
10
66.3266299084541
20
-3.6585398227499
30
0
41
1
10
66.3768284369743
20
-3.69783696455673
30
0
41
1
10
66.4270314849862
20
-3.73645890755958
30
0
41
1
10
66.4773162335089
20
-3.77435859084977
30
0
0
SPLINE
5
18F
100
AcDbEntity
8
1
62
256
6
ByLayer
370
18
48
1
60
0
100
AcDbSpline
70
4
71
3
72
14
73
10
40
0
40
0
40
0
40
0
40
0.25
40
0.25
40
0.5
40
0.5
40
0.75
40
0.75
40
1
40
1
40
1
40
1
41
1
10
67.0034824389019
20
-3.5209402295705
30
0
41
1
10
66.9587833334835
20
-3.55056298064369
30
0
41
1
10
66.914241925371
20
-3.57836104225518
30
0
41
1
10
66.8256507401522
20
-3.62945604358623
30
0
41
1
10
66.7815819428589
20
-3.65280101930625
30
0
41
1
10
66.6938225785717
20
-3.69514441747049
30
0
41
1
10
66.6501999016782
20
-3.71410201412294
30
0
41
1
10
66.5633944688058
20
-3.74757874446379
30
0
41
1
10
66.5202322649321
20
-3.76208007579254
30
0
41
1
10
66.4773162335089
20
-3.77435859084977
30
0
0
SPLINE
5
190
100
AcDbEntity
8
1
62
256
6
ByLayer
370
18
48
1
60
0
100
AcDbSpline
70
4
71
3
72
32
73
28
40
0
40
0
40
0
40
0
40
0.062500000000013
40
0.062500000000013
40
0.125000000000026
40
0.125000000000026
40
0.187500000000039
40
0.187500000000039
40
0.250000000000052
40
0.250000000000052
40
0.312500000000065
40
0.312500000000065
40
0.375000000000078
40
0.375000000000078
40
0.500000000000102
40
0.500000000000102
40
0.562500000000088
40
0.562500000000088
40
0.625000000000075
40
0.625000000000075
40
0.750000000000049
40
0.750000000000049
40
0.812500000000036
40
0.812500000000036
40
0.875000000000024
40
0.875000000000024
40
1
40
1
40
1
40
1
41
1
10
67.3998806806551
20
-3.71138685932931
30
0
41
1
10
67.393688459539
20
-3.70045802427555
30
0
41
1
10
67.3868765680284
20
-3.69002111703256
30
0
41
1
10
67.3722594772962
20
-3.6699358198787
30
0
41
1
10
67.3644515710479
20
-3.6602895804844
30
0
41
1
10
67.3479634285112
20
-3.64168974168666
30
0
41
1
10
67.3394297852768
20
-3.63290554170757
30
0
41
1
10
67.3220551874412
20
-3.61635498204956
30
0
41
1
10
67.3131841317508
20
-3.60855743358266
30
0
41
1
10
67.2951256414576
20
-3.59379499054998
30
0
41
1
10
67.2858939841517
20
-3.5868007498407
30
0
41
1
10
67.2673601535723
20
-3.57373193400818
30
0
41
1
10
67.2580983828504
20
-3.56768024192613
30
0
41
1
10
67.230337224223
20
-3.55080678994992
30
0
41
1
10
67.2118610504142
20
-3.54125088461748
30
0
41
1
10
67.184241491134
20
-3.52920651206219
30
0
41
1
10
67.1750157185603
20
-3.52556711727831
30
0
41
1
10
67.1568740771856
20
-3.51915588737495
30
0
41
1
10
67.1479384510971
20
-3.51637237907832
30
0
41
1
10
67.1215463639124
20
-3.50925883475395
30
0
41
1
10
67.1044987532213
20
-3.50614585309685
30
0
41
1
10
67.0798822836089
20
-3.50412870157007
30
0
41
1
10
67.0718156007571
20
-3.50390831929798
30
0
41
1
10
67.0563586992847
20
-3.50444143989651
30
0
41
1
10
67.0489303404871
20
-3.50518863531167
30
0
41
1
10
67.0276191983343
20
-3.50898674893443
30
0
41
1
10
67.0146734418555
20
-3.5135237881974
30
0
41
1
10
67.0034824389019
20
-3.52094022957033
30
0
0
SPLINE
5
191
100
AcDbEntity
8
1
62
256
6
ByLayer
370
18
48
1
60
0
100
AcDbSpline
70
4
71
3
72
14
73
10
40
0
40
0
40
0
40
0
40
0.25
40
0.25
40
0.5
40
0.5
40
0.75
40
0.75
40
1
40
1
40
1
40
1
41
1
10
67.8833362870241
20
-4.59253263163103
30
0
41
1
10
67.8438331683344
20
-4.51867283589408
30
0
41
1
10
67.8041488670759
20
-4.44485008954442
30
0
41
1
10
67.7243570687436
20
-4.29730966181921
30
0
41
1
10
67.6842278582572
20
-4.2235522840615
30
0
41
1
10
67.6036166931927
20
-4.07642418977784
30
0
41
1
10
67.5631190755784
20
-4.00302857122051
30
0
41
1
10
67.4817752546446
20
-3.85673956934252
30
0
41
1
10
67.4409504563881
20
-3.78387212693585
30
0
41
1
10
67.3998806806551
20
-3.71138685932928
30
0
0
SPLINE
5
192
100
AcDbEntity
8
1
62
256
6
ByLayer
370
18
48
1
60
0
100
AcDbSpline
70
4
71
3
72
8
73
4
40
0
40
0
40
0
40
0
40
1
40
1
40
1
40
1
41
1
10
67.8833362870243
20
-4.59253263163095
30
0
41
1
10
67.9853260208944
20
-4.58969687061378
30
0
41
1
10
68.0884324988194
20
-4.58278167716756
30
0
41
1
10
68.1930724293753
20
-4.57192180007169
30
0
0
SPLINE
5
193
100
AcDbEntity
8
1
62
256
6
ByLayer
370
18
48
1
60
0
100
AcDbSpline
70
4
71
3
72
14
73
10
40
0
40
0
40
0
40
0
40
0.25
40
0.25
40
0.5
40
0.5
40
0.75
40
0.75
40
1
40
1
40
1
40
1
41
1
10
68.5869135015274
20
-4.10842424627876
30
0
41
1
10
68.5536205422342
20
-4.15093556038565
30
0
41
1
10
68.520419948433
20
-4.19259700881341
30
0
41
1
10
68.4542768168165
20
-4.27394257233286
30
0
41
1
10
68.4213421475742
20
-4.31360194807974
30
0
41
1
10
68.3557073175479
20
-4.39090385568795
30
0
41
1
10
68.3229916247802
20
-4.42856736099785
30
0
41
1
10
68.2578377651182
20
-4.50180101135143
30
0
41
1
10
68.2253974709566
20
-4.53737519610829
30
0
41
1
10
68.1930724293753
20
-4.57192180007172
30
0
0
SPLINE
5
194
100
AcDbEntity
8
1
62
256
6
ByLayer
370
18
48
1
60
0
100
AcDbSpline
70
4
71
3
72
32
73
28
40
0
40
0
40
0
40
0
40
0.0624999999999788
40
0.0624999999999788
40
0.124999999999958
40
0.124999999999958
40
0.187499999999936
40
0.187499999999936
40
0.249999999999915
40
0.249999999999915
40
0.312499999999894
40
0.312499999999894
40
0.374999999999873
40
0.374999999999873
40
0.499999999999831
40
0.499999999999831
40
0.562499999999835
40
0.562499999999835
40
0.624999999999839
40
0.624999999999839
40
0.749999999999848
40
0.749999999999848
40
0.812499999999876
40
0.812499999999876
40
0.874999999999903
40
0.874999999999903
40
1
40
1
40
1
40
1
41
1
10
68.9833720813005
20
-4.17934608197112
30
0
41
1
10
68.9771806134757
20
-4.16854472253729
30
0
41
1
10
68.9703691616045
20
-4.15857178505519
30
0
41
1
10
68.9557517868622
20
-4.13995439456446
30
0
41
1
10
68.9479431647628
20
-4.13131356332195
30
0
41
1
10
68.9314521721708
20
-4.11520076003768
30
0
41
1
10
68.922915303863
20
-4.10787596557429
30
0
41
1
10
68.9055338772688
20
-4.0945754046825
30
0
41
1
10
68.8966587722594
20
-4.08857310239321
30
0
41
1
10
68.8785912163263
20
-4.07770145366041
30
0
41
1
10
68.8693545871132
20
-4.07281373350529
30
0
41
1
10
68.8508096507733
20
-4.06418626605972
30
0
41
1
10
68.8415423371227
20
-4.06045878080374
30
0
41
1
10
68.8137651972527
20
-4.05083783889168
30
0
41
1
10
68.7952792632357
20
-4.0464864259088
30
0
41
1
10
68.7676483742666
20
-4.04277224341809
30
0
41
1
10
68.7584195904146
20
-4.04200970730616
30
0
41
1
10
68.7402743821919
20
-4.04144745608301
30
0
41
1
10
68.7313376206743
20
-4.04164123749754
30
0
41
1
10
68.7049439638162
20
-4.04362001393591
30
0
41
1
10
68.6878978130232
20
-4.0467801045603
30
0
41
1
10
68.6632858500848
20
-4.05453732839834
30
0
41
1
10
68.6552224604674
20
-4.05764657614574
30
0
41
1
10
68.6397728435363
20
-4.06483922251439
30
0
41
1
10
68.6323478953857
20
-4.06893092309517
30
0
41
1
10
68.6110455753854
20
-4.08281186308707
30
0
41
1
10
68.5981037545089
20
-4.09413556874662
30
0
41
1
10
68.5869135015274
20
-4.1084242462787
30
0
0
SPLINE
5
195
100
AcDbEntity
8
1
62
256
6
ByLayer
370
18
48
1
60
0
100
AcDbSpline
70
4
71
3
72
8
73
4
40
0
40
0
40
0
40
0
40
1
40
1
40
1
40
1
41
1
10
69.109136479369
20
-4.3987166049352
30
0
41
1
10
69.0674159632715
20
-4.32598717374799
30
0
41
1
10
69.0255277164756
20
-4.25288892844512
30
0
41
1
10
68.9833720813005
20
-4.17934608197112
30
0
0
SPLINE
5
196
100
AcDbEntity
8
1
62
256
6
ByLayer
370
18
48
1
60
0
100
AcDbSpline
70
4
71
3
72
22
73
18
40
0
40
0
40
0
40
0
40
0.125
40
0.125
40
0.25
40
0.25
40
0.375
40
0.375
40
0.5
40
0.5
40
0.625
40
0.625
40
0.75
40
0.75
40
0.875
40
0.875
40
1
40
1
40
1
40
1
41
1
10
69.109136479369
20
-4.3987166049352
30
0
41
1
10
69.2054680362902
20
-4.37434368942783
30
0
41
1
10
69.3027187983631
20
-4.34839184989553
30
0
41
1
10
69.4991916732036
20
-4.29407063081069
30
0
41
1
10
69.5984264771002
20
-4.26568977904395
30
0
41
1
10
69.7992698869367
20
-4.20724464746823
30
0
41
1
10
69.9008823024118
20
-4.17718715620509
30
0
41
1
10
70.1064937441651
20
-4.116369301839
30
0
41
1
10
70.2104959108789
20
-4.08561513694085
30
0
41
1
10
70.4205726800164
20
-4.02435939062491
30
0
41
1
10
70.5265763872842
20
-3.99388781326238
30
0
41
1
10
70.7398044870783
20
-3.93390476252128
30
0
41
1
10
70.8469957086734
20
-3.90438868263888
30
0
41
1
10
71.0618400688352
20
-3.84652155342315
30
0
41
1
10
71.169497499793
20
-3.81816792433909
30
0
41
1
10
71.3847477677576
20
-3.76252326747374
30
0
41
1
10
71.4923523492259
20
-3.735223183356
30
0
41
1
10
71.5999577037896
20
-3.70844988794062
30
0
0
SPLINE
5
197
100
AcDbEntity
8
1
62
256
6
ByLayer
370
18
48
1
60
0
100
AcDbSpline
70
4
71
3
72
12
73
8
40
0
40
0
40
0
40
0
40
0.25
40
0.25
40
0.500000000000001
40
0.500000000000001
40
1
40
1
40
1
40
1
41
1
10
71.5999577037896
20
-3.7084498879405
30
0
41
1
10
71.6313409368399
20
-3.66586761626166
30
0
41
1
10
71.6631240469445
20
-3.62319375630224
30
0
41
1
10
71.7277077139782
20
-3.53773514542939
30
0
41
1
10
71.7604736186993
20
-3.4949879649117
30
0
41
1
10
71.8603943052699
20
-3.36687502374332
30
0
41
1
10
71.929010550192
20
-3.28184526956554
30
0
41
1
10
72
20
-3.19771690444153
30
0
0
SPLINE
5
198
100
AcDbEntity
8
1
62
256
6
ByLayer
370
18
48
1
60
0
100
AcDbSpline
70
4
71
3
72
32
73
28
40
0
40
0
40
0
40
0
40
0.0477122197801328
40
0.0477122197801328
40
0.0954244395602657
40
0.0954244395602657
40
0.190848879120531
40
0.190848879120531
40
0.381697758241064
40
0.381697758241064
40
0.429409978021197
40
0.429409978021197
40
0.47712219780133
40
0.47712219780133
40
0.572546637361597
40
0.572546637361597
40
0.62025885714173
40
0.62025885714173
40
0.667971076921863
40
0.715683296701996
40
0.715683296701996
40
0.763395516482129
40
0.858819956042395
40
0.858819956042395
40
0.954244395602662
40
0.954244395602662
40
1
40
1
40
1
40
1
41
1
10
72
20
-3.19771690444156
30
0
41
1
10
72
20
-3.17283560694659
30
0
41
1
10
72.0000000000001
20
-3.14815552051019
30
0
41
1
10
72.0000000000001
20
-3.09944077703938
30
0
41
1
10
71.9999999999999
20
-3.07549481706627
30
0
41
1
10
71.9999999999999
20
-3.00486394161575
30
0
41
1
10
72
20
-2.9593817163323
30
0
41
1
10
72
20
-2.82769980759679
30
0
41
1
10
72
20
-2.74630539804059
30
0
41
1
10
71.9999999999999
20
-2.65290983291411
30
0
41
1
10
72
20
-2.63463736490598
30
0
41
1
10
72
20
-2.59896018751874
30
0
41
1
10
72.0000000000001
20
-2.58167320883587
30
0
41
1
10
72
20
-2.53142883671614
30
0
41
1
10
72
20
-2.50006948908188
30
0
41
1
10
72.0000000000001
20
-2.45628562350274
30
0
41
1
10
72.0000000000001
20
-2.44224775363074
30
0
41
1
10
72
20
-2.41524815586939
30
0
41
1
10
72
20
-2.38934191345135
30
0
41
1
10
72
20
-2.36506127665786
30
0
41
1
10
72
20
-2.34109473572337
30
0
41
1
10
72
20
-2.30558835480616
30
0
41
1
10
72
20
-2.27141837628926
30
0
41
1
10
72
20
-2.2270596170124
30
0
41
1
10
71.9999999999999
20
-2.20546829603893
30
0
41
1
10
71.9999999999999
20
-2.17446378046668
30
0
41
1
10
71.9999999999999
20
-2.16456825437305
30
0
41
1
10
71.9999999999999
20
-2.15482490444648
30
0
0
SPLINE
5
199
100
AcDbEntity
8
1
62
256
6
ByLayer
370
18
48
1
60
0
100
AcDbSpline
70
4
71
3
72
12
73
8
40
0
40
0
40
0
40
0
40
0.499999999999977
40
0.499999999999977
40
0.749999999999988
40
0.749999999999988
40
1
40
1
40
1
40
1
41
1
10
72
20
-2.10051426576197
30
0
41
1
10
71.9355392815835
20
-2.0927176023919
30
0
41
1
10
71.8712938345201
20
-2.08570945557176
30
0
41
1
10
71.774918612755
20
-2.07723823861301
30
0
41
1
10
71.7427760459279
20
-2.07480829907348
30
0
41
1
10
71.6785061521779
20
-2.07062058218682
30
0
41
1
10
71.6463717763885
20
-2.06888627848815
30
0
41
1
10
71.6143995515769
20
-2.06695898479433
30
0
0
SPLINE
5
19A
100
AcDbEntity
8
1
62
256
6
ByLayer
370
18
48
1
60
0
100
AcDbSpline
70
4
71
3
72
10
73
6
40
0
40
0
40
0
40
0
40
0.5
40
0.5
40
1
40
1
40
1
40
1
41
1
10
71.5226184282291
20
-1.99760117670635
30
0
41
1
10
71.53805474977
20
-2.00718038836584
30
0
41
1
10
71.5534518055587
20
-2.01783020754667
30
0
41
1
10
71.5841353399775
20
-2.04104885271258
30
0
41
1
10
71.5994920148588
20
-2.05369288915401
30
0
41
1
10
71.6143995515769
20
-2.06695898479427
30
0
0
SPLINE
5
19B
100
AcDbEntity
8
1
62
256
6
ByLayer
370
18
48
1
60
0
100
AcDbSpline
70
4
71
3
72
14
73
10
40
0
40
0
40
0
40
0
40
0.25
40
0.25
40
0.5
40
0.5
40
0.75
40
0.75
40
1
40
1
40
1
40
1
41
1
10
71.522618428229
20
-1.99760117670652
30
0
41
1
10
71.4105980323766
20
-1.8989364404087
30
0
41
1
10
71.2974832475759
20
-1.80135426810406
30
0
41
1
10
71.0698313699414
20
-1.6079447515927
30
0
41
1
10
70.9552856481594
20
-1.5121251915524
30
0
41
1
10
70.7254338759101
20
-1.32175877187547
30
0
41
1
10
70.6101348811344
20
-1.22720453286235
30
0
41
1
10
70.3794799389585
20
-1.03867369022021
30
0
41
1
10
70.264125877544
20
-0.944690428068412
30
0
41
1
10
70.1490781471734
20
-0.8505921316833
30
0
0
SPLINE
5
19C
100
AcDbEntity
8
1
62
256
6
ByLayer
370
18
48
1
60
0
100
AcDbSpline
70
4
71
3
72
30
73
26
40
0
40
0
40
0
40
0
40
0.124999999999933
40
0.124999999999933
40
0.187499999999926
40
0.187499999999926
40
0.249999999999919
40
0.249999999999919
40
0.312499999999912
40
0.312499999999912
40
0.374999999999905
40
0.374999999999905
40
0.499999999999889
40
0.499999999999889
40
0.562499999999881
40
0.562499999999881
40
0.624999999999873
40
0.624999999999873
40
0.749999999999915
40
0.749999999999915
40
0.812499999999937
40
0.812499999999937
40
0.874999999999958
40
0.874999999999958
40
1
40
1
40
1
40
1
41
1
10
69.7997035671489
20
-0.55350428419473
30
0
41
1
10
69.8103700288833
20
-0.556475492779043
30
0
41
1
10
69.822904480585
20
-0.562121496464528
30
0
41
1
10
69.8437580913696
20
-0.573501553301497
30
0
41
1
10
69.8510425836798
20
-0.57778941418303
30
0
41
1
10
69.865796466423
20
-0.586983142484399
30
0
41
1
10
69.8733215206422
20
-0.591919232357156
30
0
41
1
10
69.8886245665002
20
-0.602382342848131
30
0
41
1
10
69.8964028136853
20
-0.607909960111328
30
0
41
1
10
69.9121849352305
20
-0.619508155825599
30
0
41
1
10
69.9201451757265
20
-0.625548243851114
30
0
41
1
10
69.9438989620105
20
-0.64408569018002
30
0
41
1
10
69.9596955202213
20
-0.657089748073503
30
0
41
1
10
69.9833075922455
20
-0.677453022668828
30
0
41
1
10
69.9911644278145
20
-0.684385228529464
30
0
41
1
10
70.0068453658436
20
-0.698535806694423
30
0
41
1
10
70.0146745911258
20
-0.705760329084853
30
0
41
1
10
70.0377924225986
20
-0.727570251729276
30
0
41
1
10
70.0528218313621
20
-0.74238630131029
30
0
41
1
10
70.0747798497569
20
-0.76504286280371
30
0
41
1
10
70.0820009314442
20
-0.772667514911547
30
0
41
1
10
70.0962367852979
20
-0.788070198921531
30
0
41
1
10
70.1032747106508
20
-0.795874915433615
30
0
41
1
10
70.1238564408229
20
-0.819310116331508
30
0
41
1
10
70.1368630842395
20
-0.834942578257426
30
0
41
1
10
70.1490781471734
20
-0.8505921316833
30
0
0
SPLINE
5
19D
100
AcDbEntity
8
1
62
256
6
ByLayer
370
18
48
1
60
0
100
AcDbSpline
70
4
71
3
72
8
73
4
40
0
40
0
40
0
40
0
40
1
40
1
40
1
40
1
41
1
10
69.782321631284
20
-0.548555698052326
30
0
41
1
10
69.7881125385169
20
-0.550240563733695
30
0
41
1
10
69.7939065566827
20
-0.55188949123999
30
0
41
1
10
69.7997035671489
20
-0.553504284194702
30
0
0
SPLINE
5
19E
100
AcDbEntity
8
1
62
256
6
ByLayer
370
18
48
1
60
0
100
AcDbSpline
70
4
71
3
72
10
73
6
40
0
40
0
40
0
40
0
40
0.5
40
0.5
40
1
40
1
40
1
40
1
41
1
10
69.782321631284
20
-0.548555698052326
30
0
41
1
10
69.6215716654652
20
-0.414895515403998
30
0
41
1
10
69.4620595232814
20
-0.280107037885671
30
0
41
1
10
69.1472575149219
20
-0.0051699888443579
30
0
41
1
10
68.9919693130171
20
0.135003809886626
30
0
41
1
10
68.8388537261873
20
0.278542249382923
30
0
0
SPLINE
5
19F
100
AcDbEntity
8
1
62
256
6
ByLayer
370
18
48
1
60
0
100
AcDbSpline
70
4
71
3
72
10
73
6
40
0
40
0
40
0
40
0
40
0.5
40
0.5
40
1
40
1
40
1
40
1
41
1
10
68.6128124837917
20
0.551377940294742
30
0
41
1
10
68.6507744799762
20
0.508719374185716
30
0
41
1
10
68.6885634670956
20
0.464594035108377
30
0
41
1
10
68.7639000128019
20
0.373648069231706
30
0
41
1
10
68.8014342007509
20
0.326785358205456
30
0
41
1
10
68.8388537261873
20
0.278542249382923
30
0
0
SPLINE
5
1A0
100
AcDbEntity
8
1
62
256
6
ByLayer
370
18
48
1
60
0
100
AcDbSpline
70
4
71
3
72
30
73
26
40
0
40
0
40
0
40
0
40
0.0624999999999779
40
0.0624999999999779
40
0.124999999999956
40
0.124999999999956
40
0.24999999999991
40
0.24999999999991
40
0.312499999999886
40
0.312499999999886
40
0.374999999999863
40
0.374999999999863
40
0.499999999999868
40
0.499999999999868
40
0.624999999999874
40
0.624999999999874
40
0.687499999999901
40
0.687499999999901
40
0.749999999999929
40
0.749999999999929
40
0.874999999999984
40
0.874999999999984
40
0.937499999999992
40
0.937499999999992
40
1
40
1
40
1
40
1
41
1
10
68.2162281811407
20
0.915913121669206
30
0
41
1
10
68.2225180409346
20
0.910539520431257
30
0
41
1
10
68.2294685261434
20
0.904571458617255
30
0
41
1
10
68.2444359410722
20
0.891686023599021
30
0
41
1
10
68.2524825367515
20
0.884742667580156
30
0
41
1
10
68.2778698499698
20
0.862795110561791
30
0
41
1
10
68.2957115512237
20
0.847321814024554
30
0
41
1
10
68.3234163212088
20
0.82317823613684
30
0
41
1
10
68.3328336636972
20
0.814951496970735
30
0
41
1
10
68.3515333895738
20
0.798564611701664
30
0
41
1
10
68.3608701359191
20
0.790357210675552
30
0
41
1
10
68.3888315171119
20
0.765682093335641
30
0
41
1
10
68.4074260487022
20
0.749145983468111
30
0
41
1
10
68.4443485684119
20
0.715926982056942
30
0
41
1
10
68.4622703645216
20
0.699609079744164
30
0
41
1
10
68.4883438273524
20
0.675484042882204
30
0
41
1
10
68.4968988944315
20
0.667501898888048
30
0
41
1
10
68.5137216861872
20
0.651652171578206
30
0
41
1
10
68.5220211599243
20
0.643753765943188
30
0
41
1
10
68.5461308518947
20
0.62054067288895
30
0
41
1
10
68.5612060087219
20
0.605662917925258
30
0
41
1
10
68.5820864675972
20
0.584362153254887
30
0
41
1
10
68.588755239589
20
0.577433262478138
30
0
41
1
10
68.6014173437613
20
0.563978114389244
30
0
41
1
10
68.6073599398716
20
0.557505060274138
30
0
41
1
10
68.6128124837917
20
0.551377940294742
30
0
0
SPLINE
5
1A1
100
AcDbEntity
8
1
62
256
6
ByLayer
370
18
48
1
60
0
100
AcDbSpline
70
4
71
3
72
8
73
4
40
0
40
0
40
0
40
0
40
1
40
1
40
1
40
1
41
1
10
61.8426693872885
20
0.868896299508151
30
0
41
1
10
61.7049287085795
20
1.00864787959102
30
0
41
1
10
61.5673650767041
20
1.14597327262382
30
0
41
1
10
61.4293286718355
20
1.28027185148218
30
0
0
SPLINE
5
1A2
100
AcDbEntity
8
1
62
256
6
ByLayer
370
18
48
1
60
0
100
AcDbSpline
70
4
71
3
72
30
73
26
40
0
40
0
40
0
40
0
40
0.0312500000000004
40
0.0312500000000004
40
0.0625000000000007
40
0.125000000000001
40
0.125000000000001
40
0.250000000000001
40
0.375000000000001
40
0.375000000000001
40
0.437500000000001
40
0.468750000000001
40
0.468750000000001
40
0.500000000000001
40
0.500000000000001
40
0.625000000000001
40
0.625000000000001
40
0.750000000000001
40
0.875
40
0.875
40
0.9375
40
0.9375
40
0.96875
40
0.96875
40
1
40
1
40
1
40
1
41
1
10
61.6160675982101
20
-2.11786692731752
30
0
41
1
10
61.6140838891372
20
-2.08486137944337
30
0
41
1
10
61.6120942869243
20
-2.0515781817453
30
0
41
1
10
61.6081226786892
20
-1.98478731248764
30
0
41
1
10
61.6021774112477
20
-1.88427853504064
30
0
41
1
10
61.5962660514244
20
-1.78281280606882
30
0
41
1
10
61.5844823971833
20
-1.57862550164327
30
0
41
1
10
61.5688746041224
20
-1.3030318108155
30
0
41
1
10
61.5534178768876
20
-1.02083903848512
30
0
41
1
10
61.5418621726694
20
-0.806693483317588
30
0
41
1
10
61.5360935348568
20
-0.698994537132194
30
0
41
1
10
61.5303346543736
20
-0.590342682378093
30
0
41
1
10
61.5264970598386
20
-0.517694196363351
30
0
41
1
10
61.5245768572646
20
-0.48122034046682
30
0
41
1
10
61.5150069846722
20
-0.298851156294489
30
0
41
1
10
61.5075054272454
20
-0.153481219821685
30
0
41
1
10
61.4924891808593
20
0.136220821794069
30
0
41
1
10
61.4774239961224
20
0.424882530666025
30
0
41
1
10
61.461765254766
20
0.711448384342816
30
0
41
1
10
61.449757990352
20
0.925571755900933
30
0
41
1
10
61.44571320456
20
0.996812610229057
30
0
41
1
10
61.4395921221341
20
1.10347067042213
30
0
41
1
10
61.4375409357693
20
1.13902310049082
30
0
41
1
10
61.433432860324
20
1.20990372083574
30
0
41
1
10
61.4313794380702
20
1.24517252603226
30
0
41
1
10
61.4293286718355
20
1.28027185148218
30
0
0
SPLINE
5
1A3
100
AcDbEntity
8
1
62
256
6
ByLayer
370
18
48
1
60
0
100
AcDbSpline
70
4
71
3
72
8
73
4
40
0
40
0
40
0
40
0
40
1
40
1
40
1
40
1
41
1
10
61.6160675982101
20
-2.11786692731749
30
0
41
1
10
61.7446879024494
20
-2.25352605865649
30
0
41
1
10
61.8728863470122
20
-2.38743266318005
30
0
41
1
10
62.0009681545062
20
-2.51931622257251
30
0
0
SPLINE
5
1A4
100
AcDbEntity
8
1
62
256
6
ByLayer
370
13
48
1
60
0
100
AcDbSpline
70
4
71
3
72
9
73
5
40
0
40
0
40
0
40
0
40
0.912780115551311
40
1
40
1
40
1
40
1
41
1
10
62.25335696666
20
0.265207145044144
30
0
41
1
10
62.3002052880497
20
-0.563015726767588
30
0
41
1
10
62.3519431837939
20
-1.49539340635292
30
0
41
1
10
62.4054584702035
20
-2.29618030509442
30
0
41
1
10
62.4101382121948
20
-2.36486090233748
30
0
0
SPLINE
5
1A5
100
AcDbEntity
8
1
62
256
6
ByLayer
370
18
48
1
60
0
100
AcDbSpline
70
4
71
3
72
12
73
8
40
0
40
0
40
0
40
0
40
0.25
40
0.25
40
0.500000000000001
40
0.500000000000001
40
1
40
1
40
1
40
1
41
1
10
62.2533569645481
20
0.265207182380891
30
0
41
1
10
62.2186687265709
20
0.311514433512372
30
0
41
1
10
62.1840651143055
20
0.358705855192653
30
0
41
1
10
62.1151097529507
20
0.455202549869227
30
0
41
1
10
62.080764033269
20
0.504529880517623
30
0
41
1
10
61.978042687935
20
0.655665563418296
30
0
41
1
10
61.9101244908796
20
0.760378363144213
30
0
41
1
10
61.8426693872885
20
0.868896299508151
30
0
0
SPLINE
5
1A6
100
AcDbEntity
8
1
62
256
6
ByLayer
370
18
48
1
60
0
100
AcDbSpline
70
4
71
3
72
26
73
22
40
0
40
0
40
0
40
0
40
0.125000000000001
40
0.125000000000001
40
0.187500000000001
40
0.218750000000001
40
0.218750000000001
40
0.250000000000002
40
0.250000000000002
40
0.375000000000002
40
0.375000000000002
40
0.500000000000003
40
0.625000000000003
40
0.625000000000003
40
0.687500000000003
40
0.687500000000003
40
0.718750000000003
40
0.718750000000003
40
0.750000000000003
40
0.875000000000002
40
1
40
1
40
1
40
1
41
1
10
61.8426693872885
20
0.868896299508151
30
0
41
1
10
61.8493597442857
20
0.725585178129933
30
0
41
1
10
61.8559845826361
20
0.581108437531981
30
0
41
1
10
61.8658493801728
20
0.362628096608944
30
0
41
1
10
61.8707700073136
20
0.252946411487727
30
0
41
1
10
61.8756946223433
20
0.142594354592916
30
0
41
1
10
61.8789808010791
20
0.0688759821310896
30
0
41
1
10
61.8806274108764
20
0.0318975848457796
30
0
41
1
10
61.8888483679816
20
-0.152805695586068
30
0
41
1
10
61.8953679931869
20
-0.299508563098669
30
0
41
1
10
61.9084044798449
20
-0.590858911645114
30
0
41
1
10
61.9214377590463
20
-0.880153512458207
30
0
41
1
10
61.9346052511469
20
-1.16536475784622
30
0
41
1
10
61.9445616702012
20
-1.3777160805557
30
0
41
1
10
61.94789373478
20
-1.44823995596659
30
0
41
1
10
61.9529139548417
20
-1.55362905993096
30
0
41
1
10
61.9545929549066
20
-1.58873244497465
30
0
41
1
10
61.9579489863248
20
-1.65860587825284
30
0
41
1
10
61.9663258002292
20
-1.83228502991514
30
0
41
1
10
61.9812911518296
20
-2.13599191417976
30
0
41
1
10
61.9944356694665
20
-2.39359727134979
30
0
41
1
10
62.0009681545062
20
-2.51931622257251
30
0
0
SPLINE
5
1A7
100
AcDbEntity
8
1
62
256
6
ByLayer
370
18
48
1
60
0
100
AcDbSpline
70
4
71
3
72
12
73
8
40
0
40
0
40
0
40
0
40
0.499999999999999
40
0.499999999999999
40
0.75
40
0.75
40
1
40
1
40
1
40
1
41
1
10
62.0009681545062
20
-2.51931622257251
30
0
41
1
10
62.0681776910832
20
-2.50354088024113
30
0
41
1
10
62.1359136776829
20
-2.48285632586752
30
0
41
1
10
62.2382208603294
20
-2.44432261086263
30
0
41
1
10
62.2724576239642
20
-2.43022259751658
30
0
41
1
10
62.3411257964171
20
-2.39949065808614
30
0
41
1
10
62.3755700247062
20
-2.38282343354498
30
0
41
1
10
62.4101382121949
20
-2.36486090233751
30
0
0
SPLINE
5
1A8
100
AcDbEntity
8
1
62
256
6
ByLayer
370
18
48
1
60
0
100
AcDbSpline
70
4
71
3
72
108
73
104
40
0
40
0
40
0
40
0
40
0.0156250000000023
40
0.0156250000000023
40
0.0312500000000047
40
0.0312500000000047
40
0.0625000000000124
40
0.0625000000000124
40
0.125000000000025
40
0.125000000000025
40
0.156250000000031
40
0.156250000000031
40
0.164062500000032
40
0.164062500000032
40
0.171875000000032
40
0.187500000000034
40
0.187500000000034
40
0.21875000000004
40
0.21875000000004
40
0.250000000000046
40
0.250000000000046
40
0.281250000000053
40
0.281250000000053
40
0.296875000000056
40
0.296875000000056
40
0.312500000000059
40
0.312500000000059
40
0.343750000000065
40
0.343750000000065
40
0.375000000000071
40
0.375000000000071
40
0.406250000000077
40
0.406250000000077
40
0.414062500000079
40
0.414062500000079
40
0.421875000000081
40
0.421875000000081
40
0.43750000000008
40
0.43750000000008
40
0.468750000000079
40
0.468750000000079
40
0.476562500000079
40
0.476562500000079
40
0.48437500000008
40
0.48437500000008
40
0.500000000000081
40
0.500000000000081
40
0.515625000000082
40
0.515625000000082
40
0.531250000000083
40
0.531250000000083
40
0.539062500000084
40
0.539062500000084
40
0.546875000000084
40
0.546875000000084
40
0.562500000000084
40
0.562500000000084
40
0.570312500000084
40
0.570312500000084
40
0.574218750000084
40
0.574218750000084
40
0.578125000000084
40
0.593750000000084
40
0.593750000000084
40
0.601562500000083
40
0.601562500000083
40
0.605468750000083
40
0.605468750000083
40
0.609375000000083
40
0.609375000000083
40
0.625000000000082
40
0.625000000000082
40
0.640625000000082
40
0.640625000000082
40
0.648437500000081
40
0.648437500000081
40
0.656250000000081
40
0.656250000000081
40
0.67187500000008
40
0.67187500000008
40
0.68750000000008
40
0.68750000000008
40
0.695312500000079
40
0.695312500000079
40
0.703125000000077
40
0.703125000000077
40
0.718750000000073
40
0.718750000000073
40
0.750000000000064
40
0.750000000000064
40
0.781250000000055
40
0.781250000000055
40
0.812500000000045
40
0.812500000000045
40
0.828125000000042
40
0.828125000000042
40
0.843750000000039
40
0.843750000000039
40
0.875000000000032
40
0.875000000000032
40
0.937500000000016
40
0.937500000000016
40
1
40
1
40
1
40
1
41
1
10
44.3460642770779
20
-2.75828962851881
30
0
41
1
10
44.3040105716976
20
-2.73184059136142
30
0
41
1
10
44.2617593450016
20
-2.70527567660238
30
0
41
1
10
44.1766507432222
20
-2.65217681095842
30
0
41
1
10
44.1338161458758
20
-2.62561949241302
30
0
41
1
10
44.0043989480582
20
-2.54606981871118
30
0
41
1
10
43.9169086957523
20
-2.49319273063261
30
0
41
1
10
43.65023608008
20
-2.33620858973148
30
0
41
1
10
43.4668904965706
20
-2.23368510357699
30
0
41
1
10
43.1808221657866
20
-2.08860091331607
30
0
41
1
10
43.0835972569425
20
-2.04172660588273
30
0
41
1
10
42.9593848516719
20
-1.98567994896342
30
0
41
1
10
42.9343886849319
20
-1.97458851990641
30
0
41
1
10
42.8842759776097
20
-1.95274841049263
30
0
41
1
10
42.8088927556215
20
-1.9204859941253
30
0
41
1
10
42.7328468012977
20
-1.88979850490455
30
0
41
1
10
42.57982470466
20
-1.83072000844345
30
0
41
1
10
42.4765655776586
20
-1.79440859386696
30
0
41
1
10
42.2673055924615
20
-1.72898118331182
30
0
41
1
10
42.1613150943068
20
-1.69983524072018
30
0
41
1
10
41.9460234590818
20
-1.65064888427116
30
0
41
1
10
41.8367240817754
20
-1.63060554461464
30
0
41
1
10
41.6698197055576
20
-1.6089051804521
30
0
41
1
10
41.6136841817536
20
-1.60276738154445
30
0
41
1
10
41.5016866216974
20
-1.59249135502952
30
0
41
1
10
41.4457291002718
20
-1.58835586446347
30
0
41
1
10
41.2779646383366
20
-1.57858736639386
30
0
41
1
10
41.1662579789747
20
-1.57540230082938
30
0
41
1
10
40.9431631787464
20
-1.57683372092683
30
0
41
1
10
40.8317732294314
20
-1.58140683741542
30
0
41
1
10
40.6093451018806
20
-1.59912632667513
30
0
41
1
10
40.498305093966
20
-1.61222955188145
30
0
41
1
10
40.3597609148219
20
-1.63475837647505
30
0
41
1
10
40.3320651031298
20
-1.63957697099488
30
0
41
1
10
40.2767006854859
20
-1.64986437537271
30
0
41
1
10
40.2490096269905
20
-1.65533858336832
30
0
41
1
10
40.1663847355647
20
-1.67269962957153
30
0
41
1
10
40.1117808981537
20
-1.68553838562337
30
0
41
1
10
39.9495838578079
20
-1.7282570529396
30
0
41
1
10
39.8435612728741
20
-1.7622344569732
30
0
41
1
10
39.7143920255611
20
-1.8131572028357
30
0
41
1
10
39.6887061827037
20
-1.82377725634865
30
0
41
1
10
39.6377928273058
20
-1.84588753790874
30
0
41
1
10
39.6126790829196
20
-1.85732786177067
30
0
41
1
10
39.5384150194741
20
-1.89284127639999
30
0
41
1
10
39.4903391138592
20
-1.91810476213925
30
0
41
1
10
39.3973693824175
20
-1.97204665036861
30
0
41
1
10
39.3524787699967
20
-2.00072950795632
30
0
41
1
10
39.2663182951787
20
-2.06184991945315
30
0
41
1
10
39.2250299983164
20
-2.09426705361054
30
0
41
1
10
39.1662683506162
20
-2.1460604843945
30
0
41
1
10
39.1471569293305
20
-2.16392549319292
30
0
41
1
10
39.1106624694916
20
-2.2002126467286
30
0
41
1
10
39.0932183685468
20
-2.21867972862805
30
0
41
1
10
39.0433419142974
20
-2.27503036516663
30
0
41
1
10
39.0133606973427
20
-2.31386239052515
30
0
41
1
10
38.973557232723
20
-2.37394026432511
30
0
41
1
10
38.9611519293742
20
-2.39427142628742
30
0
41
1
10
38.9438820855814
20
-2.42521960186767
30
0
41
1
10
38.9383509951369
20
-2.43560930324182
30
0
41
1
10
38.9278304748894
20
-2.45635416944455
30
0
41
1
10
38.9028201639848
20
-2.50824334679774
30
0
41
1
10
38.8841244463096
20
-2.56021165835824
30
0
41
1
10
38.8673704300057
20
-2.62246580701051
30
0
41
1
10
38.862634808699
20
-2.64318170071948
30
0
41
1
10
38.8570371866137
20
-2.67422972597859
30
0
41
1
10
38.8554247242957
20
-2.68457516290511
30
0
41
1
10
38.8527507897821
20
-2.70526324651289
30
0
41
1
10
38.8516880023721
20
-2.71563279333245
30
0
41
1
10
38.8478831518125
20
-2.76703966240922
30
0
41
1
10
38.8496783297196
20
-2.80685488640421
30
0
41
1
10
38.8630454463571
20
-2.88396961284457
30
0
41
1
10
38.8742888197546
20
-2.92129759414195
30
0
41
1
10
38.8962728228422
20
-2.9756463590399
30
0
41
1
10
38.9044822158916
20
-2.99349240232146
30
0
41
1
10
38.922205075671
20
-3.02820698768025
30
0
41
1
10
38.9317431626215
20
-3.0451409866601
30
0
41
1
10
38.962101351022
20
-3.09480232803517
30
0
41
1
10
38.9846519635077
20
-3.12639501363802
30
0
41
1
10
39.0333122735428
20
-3.18703645845636
30
0
41
1
10
39.0594370728612
20
-3.21607987794101
30
0
41
1
10
39.1008089749732
20
-3.25796679990967
30
0
41
1
10
39.1149654641355
20
-3.2716485479412
30
0
41
1
10
39.1439431514698
20
-3.29848184858551
30
0
41
1
10
39.1587742266308
20
-3.3116403663596
30
0
41
1
10
39.2039342247013
20
-3.35016087575093
30
0
41
1
10
39.235001242069
20
-3.37464376154864
30
0
41
1
10
39.3305091582254
20
-3.4449619010046
30
0
41
1
10
39.3972275290756
20
-3.48769157647303
30
0
41
1
10
39.5347918186953
20
-3.56639734991114
30
0
41
1
10
39.6056554622186
20
-3.60235891374293
30
0
41
1
10
39.7503712832512
20
-3.6683691717457
30
0
41
1
10
39.8242279651988
20
-3.69841180182536
30
0
41
1
10
39.9367620698608
20
-3.73938900871036
30
0
41
1
10
39.9745983923674
20
-3.75237444190469
30
0
41
1
10
40.0504858381267
20
-3.77692534032218
30
0
41
1
10
40.0885662735901
20
-3.78850272728903
30
0
41
1
10
40.2031370092147
20
-3.82122356100797
30
0
41
1
10
40.2799534533868
20
-3.84036080642846
30
0
41
1
10
40.5112054731031
20
-3.89018607652915
30
0
41
1
10
40.6664005032942
20
-3.91333981905345
30
0
41
1
10
40.9772816587401
20
-3.94023272093804
30
0
41
1
10
41.1329673592255
20
-3.94395541637633
30
0
41
1
10
41.2886027959283
20
-3.93756926868659
30
0
0
SPLINE
5
1A9
100
AcDbEntity
8
1
62
256
6
ByLayer
370
18
48
1
60
0
100
AcDbSpline
70
4
71
3
72
22
73
18
40
0
40
0
40
0
40
0
40
0.0708938838812792
40
0.0708938838812792
40
0.185153927002418
40
0.185153927002418
40
0.413674013244695
40
0.413674013244695
40
0.527934056365833
40
0.527934056365833
40
0.64219409948697
40
0.64219409948697
40
0.870714185729244
40
0.870714185729244
40
0.984974228850382
40
0.984974228850382
40
1
40
1
40
1
40
1
41
1
10
42.1632734050313
20
-1.70277002475868
30
0
41
1
10
42.1222577974324
20
-1.73149273272176
30
0
41
1
10
42.0820616019478
20
-1.76270923064658
30
0
41
1
10
41.9792313834353
20
-1.85078201115482
30
0
41
1
10
41.9181018538133
20
-1.91162921095182
30
0
41
1
10
41.746103997488
20
-2.10758721740876
30
0
41
1
10
41.6440507141407
20
-2.25853010509553
30
0
41
1
10
41.5093105877673
20
-2.50603542833147
30
0
41
1
10
41.4671842274998
20
-2.59078239719679
30
0
41
1
10
41.3974656959653
20
-2.77198494729561
30
0
41
1
10
41.3688770608378
20
-2.86829838834771
30
0
41
1
10
41.3007061834235
20
-3.16703026814307
30
0
41
1
10
41.2799574499332
20
-3.37275744078053
30
0
41
1
10
41.2752739179822
20
-3.68811689536253
30
0
41
1
10
41.2782737319915
20
-3.7926331055103
30
0
41
1
10
41.2864477864587
20
-3.91026116484321
30
0
41
1
10
41.2874868691498
20
-3.92392026665857
30
0
41
1
10
41.2886027902771
20
-3.93756919956655
30
0
0
SPLINE
5
1AA
100
AcDbEntity
8
SK1
62
256
6
ByLayer
370
18
48
1
60
0
100
AcDbSpline
70
4
71
3
72
25
73
21
40
0
40
0
40
0
40
0
40
0.0624911309496966
40
0.0624911309496966
40
0.124982261899393
40
0.124982261899393
40
0.249964523798787
40
0.249964523798787
40
0.499929047597574
40
0.499929047597574
40
0.624911309496968
40
0.624911309496968
40
0.687402440446665
40
0.687402440446665
40
0.749893571396362
40
0.749893571396362
40
0.874875833295756
40
0.874875833295756
40
0.999858095195149
40
1
40
1
40
1
40
1
41
1
10
-26.6
20
3.99999999999997
30
0
41
1
10
-26.6283317627322
20
3.99999999999997
30
0
41
1
10
-26.6562643308211
20
3.99999999999997
30
0
41
1
10
-26.7110666479687
20
3.99999999999997
30
0
41
1
10
-26.737959342392
20
3.99999999999997
30
0
41
1
10
-26.8169929964967
20
3.99999999999997
30
0
41
1
10
-26.8674930803063
20
3.99999999999997
30
0
41
1
10
-27.0113525868834
20
3.99999999999997
30
0
41
1
10
-27.0971352747749
20
3.99999999999997
30
0
41
1
10
-27.2052465276026
20
3.99999999999997
30
0
41
1
10
-27.237840514736
20
3.99999999999997
30
0
41
1
10
-27.2807541784904
20
3.99999999999997
30
0
41
1
10
-27.2940615568609
20
3.99999999999997
30
0
41
1
10
-27.3185359592893
20
3.99999999999997
30
0
41
1
10
-27.3297140257202
20
3.99999999999997
30
0
41
1
10
-27.3595680314471
20
3.99999999999997
30
0
41
1
10
-27.3746632622382
20
3.99999999999997
30
0
41
1
10
-27.3948651379692
20
3.99999999999997
30
0
41
1
10
-27.3999766851467
20
3.99999999999997
30
0
41
1
10
-27.3999994900056
20
3.99999999999997
30
0
41
1
10
-27.4000004901056
20
3.99999999999997
30
0
0
SPLINE
5
1AB
100
AcDbEntity
8
SK1
62
256
6
ByLayer
370
18
48
1
60
0
100
AcDbSpline
70
4
71
3
72
25
73
21
40
0
40
0
40
0
40
0
40
0.0001418779600804
40
0.125124143215071
40
0.125124143215071
40
0.25010640847006
40
0.25010640847006
40
0.312597541097556
40
0.312597541097556
40
0.375088673725051
40
0.375088673725051
40
0.500070938980041
40
0.500070938980041
40
0.750035469490021
40
0.750035469490021
40
0.87501773474501
40
0.87501773474501
40
0.937508867372505
40
0.937508867372505
40
1
40
1
40
1
40
1
41
1
10
-27.4000004900949
20
-4.00000000000003
30
0
41
1
10
-27.3999994899949
20
-4.00000000000003
30
0
41
1
10
-27.3999766840499
20
-4.00000000000003
30
0
41
1
10
-27.3948651379692
20
-4.00000000000003
30
0
41
1
10
-27.3746632622382
20
-4.00000000000003
30
0
41
1
10
-27.3595680314471
20
-4.00000000000003
30
0
41
1
10
-27.3297140257202
20
-4.00000000000003
30
0
41
1
10
-27.3185359592893
20
-4.00000000000003
30
0
41
1
10
-27.2940615568609
20
-4.00000000000003
30
0
41
1
10
-27.2807541784904
20
-4.00000000000003
30
0
41
1
10
-27.237840514736
20
-4.00000000000003
30
0
41
1
10
-27.2052465276027
20
-4.00000000000003
30
0
41
1
10
-27.0971352747749
20
-4.00000000000003
30
0
41
1
10
-27.0113525868834
20
-4.00000000000003
30
0
41
1
10
-26.8674930803063
20
-4.00000000000003
30
0
41
1
10
-26.8169929964967
20
-4.00000000000003
30
0
41
1
10
-26.737959342392
20
-4.00000000000003
30
0
41
1
10
-26.7110666479687
20
-4.00000000000003
30
0
41
1
10
-26.6562643308211
20
-4.00000000000003
30
0
41
1
10
-26.6283317627322
20
-4.00000000000003
30
0
41
1
10
-26.6
20
-4.00000000000003
30
0
0
SPLINE
5
1AC
100
AcDbEntity
8
SK1
62
256
6
ByLayer
370
18
48
1
60
0
100
AcDbSpline
70
4
71
3
72
40
73
36
40
0
40
0
40
0
40
0
40
0.03125
40
0.03125
40
0.0625000000000001
40
0.0625000000000001
40
0.125
40
0.125
40
0.25
40
0.25
40
0.375
40
0.375
40
0.390625
40
0.390625
40
0.40625
40
0.4375
40
0.4375
40
0.5
40
0.5625
40
0.5625
40
0.625
40
0.625
40
0.65625
40
0.65625
40
0.6875
40
0.6875
40
0.75
40
0.75
40
0.875
40
0.875
40
0.9375
40
0.9375
40
0.96875
40
0.96875
40
1
40
1
40
1
40
1
41
1
10
-26.5999999999999
20
-2.65329983228457
30
0
41
1
10
-26.6282295270017
20
-2.60223069642595
30
0
41
1
10
-26.6560584360805
20
-2.5508632880092
30
0
41
1
10
-26.7108403326679
20
-2.44747632020494
30
0
41
1
10
-26.7378072191618
20
-2.3954292926004
30
0
41
1
10
-26.8171780972791
20
-2.23839595975562
30
0
41
1
10
-26.8678480909849
20
-2.13293290519914
30
0
41
1
10
-27.012056092629
20
-1.81385201739309
30
0
41
1
10
-27.0978486134983
20
-1.59756195018468
30
0
41
1
10
-27.2417193148033
20
-1.15542022190161
30
0
41
1
10
-27.2997815074192
20
-0.929563044944587
30
0
41
1
10
-27.3446381375532
20
-0.668413761645894
30
0
41
1
10
-27.349342295642
20
-0.639263426553924
30
0
41
1
10
-27.3581304448549
20
-0.580981403716152
30
0
41
1
10
-27.3703872878578
20
-0.493575227391403
30
0
41
1
10
-27.3798443637048
20
-0.40622005524051
30
0
41
1
10
-27.3949812685901
20
-0.231578522144161
30
0
41
1
10
-27.4050766381913
20
0.0010930943988683
30
0
41
1
10
-27.3948651379693
20
0.233394774778958
30
0
41
1
10
-27.3746632622382
20
0.465514457578195
30
0
41
1
10
-27.3595680314471
20
0.581483316488743
30
0
41
1
10
-27.3297140257202
20
0.755305237060611
30
0
41
1
10
-27.3185359592893
20
0.813331433943375
30
0
41
1
10
-27.2940615568609
20
0.928380204804654
30
0
41
1
10
-27.2807541784904
20
0.98549487009106
30
0
41
1
10
-27.237840514736
20
1.15569355132644
30
0
41
1
10
-27.2052465276027
20
1.26763371778793
30
0
41
1
10
-27.0971352747749
20
1.59949962073117
30
0
41
1
10
-27.0113525868834
20
1.81549521327489
30
0
41
1
10
-26.8674930803063
20
2.13367480307187
30
0
41
1
10
-26.8169929964967
20
2.23875957323745
30
0
41
1
10
-26.737959342392
20
2.39512962098939
30
0
41
1
10
-26.7110666479687
20
2.44704311222699
30
0
41
1
10
-26.6562643308211
20
2.55048076102256
30
0
41
1
10
-26.6283317627322
20
2.60204574503041
30
0
41
1
10
-26.6
20
2.65329983228429
30
0
0
SPLINE
5
1AD
100
AcDbEntity
8
1
62
256
6
ByLayer
370
18
48
1
60
0
100
AcDbSpline
70
4
71
1
72
4
73
2
40
0
40
0
40
1
40
1
41
1
10
71.5999841844949
20
4.12438728505805
30
0
41
1
10
71.4124574862327
20
4.11149760247088
30
0
0
SPLINE
5
1AE
100
AcDbEntity
8
1
62
256
6
ByLayer
370
18
48
1
60
0
100
AcDbSpline
70
4
71
1
72
4
73
2
40
0
40
0
40
1
40
1
41
1
10
72
20
3.74548235769473
30
0
41
1
10
71.7188612805705
20
4.01733363951317
30
0
0
SPLINE
5
1AF
100
AcDbEntity
8
1
62
256
6
ByLayer
370
18
48
1
60
0
100
AcDbSpline
70
4
71
1
72
4
73
2
40
0
40
0
40
1
40
1
41
1
10
69.0942088954732
20
-4.45071634418562
30
0
41
1
10
69.800069415438
20
-4.20730531830549
30
0
0
SPLINE
5
1B0
100
AcDbEntity
8
1
62
256
6
ByLayer
370
18
48
1
60
0
100
AcDbSpline
70
4
71
1
72
4
73
2
40
0
40
0
40
1
40
1
41
1
10
66.3044445517923
20
-4.73881461968426
30
0
41
1
10
66.4929311133308
20
-5.06401221470855
30
0
0
SPLINE
5
1B1
100
AcDbEntity
8
1
62
256
6
ByLayer
370
18
48
1
60
0
100
AcDbSpline
70
4
71
2
72
6
73
3
40
0
40
0
40
0
40
1
40
1
40
1
41
1
10
62.2418916846332
20
4.19869344924396
30
0
41
1
10
62.2089914479108
20
4.13684428786834
30
0
41
1
10
62.1415774215266
20
4.12418362917373
30
0
0
SPLINE
5
1B2
100
AcDbEntity
8
1
62
256
6
ByLayer
370
18
48
1
60
0
100
AcDbSpline
70
4
71
2
72
6
73
3
40
0
40
0
40
0
40
1
40
1
40
1
41
1
10
62.1066171197258
20
4.12093364989164
30
0
41
1
10
62.092271686545
20
4.12080951287737
30
0
41
1
10
62.0766912824779
20
4.12244543667788
30
0
0
SPLINE
5
1B3
100
AcDbEntity
8
1
62
256
6
ByLayer
370
18
48
1
60
0
100
AcDbSpline
70
4
71
3
72
9
73
5
40
0
40
0
40
0
40
0
40
0.484169417088582
40
1
40
1
40
1
40
1
41
1
10
59.6647936179049
20
-4.20874721310662
30
0
41
1
10
59.6807875735352
20
-4.18027080203979
30
0
41
1
10
59.724200708226
20
-4.13628773491791
30
0
41
1
10
59.8000393613168
20
-4.11366267744728
30
0
41
1
10
59.8392026017002
20
-4.11492159623177
30
0
0
SPLINE
5
1B4
100
AcDbEntity
8
1
62
256
6
ByLayer
370
18
48
1
60
0
100
AcDbSpline
70
4
71
2
72
6
73
3
40
0
40
0
40
0
40
1
40
1
40
1
41
1
10
68.9960620745258
20
-4.20715073304993
30
0
41
1
10
69.0575809617819
20
-4.31312955365215
30
0
41
1
10
69.1190693774432
20
-4.41912708889944
30
0
0
SPLINE
5
1B5
100
AcDbEntity
8
1
62
256
6
ByLayer
370
18
48
1
60
0
100
AcDbSpline
70
4
71
2
72
6
73
3
40
0
40
0
40
0
40
1
40
1
40
1
41
1
10
59.4658458736508
20
-4.55132165149627
30
0
41
1
10
59.5668148799996
20
-4.37743530515579
30
0
41
1
10
59.6679453139838
20
-4.20347286145505
30
0
0
SPLINE
5
1B6
100
AcDbEntity
8
1
62
256
6
ByLayer
370
18
48
1
60
0
100
AcDbSpline
70
4
71
2
72
6
73
3
40
0
40
0
40
0
40
1
40
1
40
1
41
1
10
62.7129322626377
20
5.01118464219903
30
0
41
1
10
62.4803532400249
20
4.60996244511603
30
0
41
1
10
62.2471051797105
20
4.20818951541278
30
0
0
SPLINE
5
1B7
100
AcDbEntity
8
1
62
256
6
ByLayer
370
18
48
1
60
0
100
AcDbSpline
70
4
71
3
72
11
73
7
40
0
40
0
40
0
40
0
40
0.240677169834641
40
0.489998408499748
40
0.747097433037319
40
1
40
1
40
1
40
1
41
1
10
68.6665405746388
20
-4.2069469296261
30
0
41
1
10
68.6740085940062
20
-4.18883933695639
30
0
41
1
10
68.7033135343648
20
-4.15854625316538
30
0
41
1
10
68.7972159530078
20
-4.10881814961874
30
0
41
1
10
68.927380028135
20
-4.12913419056341
30
0
41
1
10
68.9786493682508
20
-4.17893875222057
30
0
41
1
10
69.0000979147116
20
-4.2134977585718
30
0
0
SPLINE
5
1B8
100
AcDbEntity
8
1
62
256
6
ByLayer
370
18
48
1
60
0
100
AcDbSpline
70
4
71
2
72
6
73
3
40
0
40
0
40
0
40
1
40
1
40
1
41
1
10
63.4166524009071
20
4.20771246698891
30
0
41
1
10
63.176156857968
20
4.62167175170302
30
0
41
1
10
62.935884478525
20
5.03623476591847
30
0
0
SPLINE
5
1B9
100
AcDbEntity
8
1
62
256
6
ByLayer
370
18
48
1
60
0
100
AcDbSpline
70
4
71
2
72
6
73
3
40
0
40
0
40
0
40
1
40
1
40
1
41
1
10
58.4972750282305
20
-4.20809919401742
30
0
41
1
10
58.5631421685907
20
-4.32152843468427
30
0
41
1
10
58.6289621710996
20
-4.43494907468033
30
0
0
SPLINE
5
1BA
100
AcDbEntity
8
1
62
256
6
ByLayer
370
18
48
1
60
0
100
AcDbSpline
70
4
71
3
72
11
73
7
40
0
40
0
40
0
40
0
40
0.220272790664202
40
0.462514632250903
40
0.725361795779264
40
1
40
1
40
1
40
1
41
1
10
63.7442513746912
20
4.20435894533378
30
0
41
1
10
63.735658064907
20
4.18652928798602
30
0
41
1
10
63.7057657796376
20
4.15586946218451
30
0
41
1
10
63.6112577656888
20
4.10924536959473
30
0
41
1
10
63.4831622256213
20
4.13208041931867
30
0
41
1
10
63.435337471832
20
4.17617679264183
30
0
41
1
10
63.4163303232888
20
4.20826928653551
30
0
0
SPLINE
5
1BB
100
AcDbEntity
8
1
62
256
6
ByLayer
370
18
48
1
60
0
100
AcDbSpline
70
4
71
2
72
6
73
3
40
0
40
0
40
0
40
1
40
1
40
1
41
1
10
68.3257442341168
20
-4.79400113690585
30
0
41
1
10
68.495221630914
20
-4.50177489225357
30
0
41
1
10
68.6647748856979
20
-4.20987242482343
30
0
0
SPLINE
5
1BC
100
AcDbEntity
8
1
62
256
6
ByLayer
370
18
48
1
60
0
100
AcDbSpline
70
4
71
3
72
11
73
7
40
0
40
0
40
0
40
0
40
0.245862212746788
40
0.498661141986183
40
0.751959772054981
40
1
40
1
40
1
40
1
41
1
10
58.1668794018349
20
-4.20637398859415
30
0
41
1
10
58.1806274740308
20
-4.18087487469586
30
0
41
1
10
58.2199242249014
20
-4.14194087012257
30
0
41
1
10
58.3323238930383
20
-4.10545740318619
30
0
41
1
10
58.4439628426109
20
-4.14253759115402
30
0
41
1
10
58.482602595707
20
-4.1806975015335
30
0
41
1
10
58.4958756712662
20
-4.20576029363625
30
0
0
SPLINE
5
1BD
100
AcDbEntity
8
1
62
256
6
ByLayer
370
18
48
1
60
0
100
AcDbSpline
70
4
71
2
72
6
73
3
40
0
40
0
40
0
40
1
40
1
40
1
41
1
10
58.0866836349498
20
-4.34437416359552
30
0
41
1
10
58.1268530875337
20
-4.27523369595397
30
0
41
1
10
58.1670366292337
20
-4.20610443170062
30
0
0
SPLINE
5
1BE
100
AcDbEntity
8
1
62
256
6
ByLayer
370
18
48
1
60
0
100
AcDbSpline
70
4
71
1
72
4
73
2
40
0
40
0
40
1
40
1
41
1
10
67.9714031800647
20
-5.00567523331179
30
0
41
1
10
68.309439244524
20
-4.82129929148854
30
0
0
SPLINE
5
1BF
100
AcDbEntity
8
1
62
256
6
ByLayer
370
18
48
1
60
0
100
AcDbSpline
70
4
71
2
72
6
73
3
40
0
40
0
40
0
40
1
40
1
40
1
41
1
10
67.4962307954186
20
-4.2075313261513
30
0
41
1
10
67.7202545399733
20
-4.59343133717525
30
0
41
1
10
67.9440156831098
20
-4.97968142376831
30
0
0
SPLINE
5
1C0
100
AcDbEntity
8
1
62
256
6
ByLayer
370
18
48
1
60
0
100
AcDbSpline
70
4
71
3
72
11
73
7
40
0
40
0
40
0
40
0
40
0.243413543158224
40
0.499372013837847
40
0.755570324956527
40
1
40
1
40
1
40
1
41
1
10
67.154593408336
20
-4.22174011399585
30
0
41
1
10
67.1698248585561
20
-4.19196410564766
30
0
41
1
10
67.2118630411655
20
-4.14530735033009
30
0
41
1
10
67.3262108973073
20
-4.1044656356928
30
0
41
1
10
67.4405500686803
20
-4.13970163466155
30
0
41
1
10
67.4824493215542
20
-4.18205874423415
30
0
41
1
10
67.4975747557254
20
-4.20971579138626
30
0
0
SPLINE
5
1C1
100
AcDbEntity
8
1
62
256
6
ByLayer
370
18
48
1
60
0
100
AcDbSpline
70
4
71
2
72
6
73
3
40
0
40
0
40
0
40
1
40
1
40
1
41
1
10
64.2464031414677
20
5.0707784541388
30
0
41
1
10
63.9975939219861
20
4.64105528889093
30
0
41
1
10
63.7486149658646
20
4.21179856707212
30
0
0
SPLINE
5
1C2
100
AcDbEntity
8
1
62
256
6
ByLayer
370
18
48
1
60
0
100
AcDbSpline
70
4
71
2
72
6
73
3
40
0
40
0
40
0
40
1
40
1
40
1
41
1
10
64.9138148378576
20
4.20986035796284
30
0
41
1
10
64.6647377684752
20
4.63853413235151
30
0
41
1
10
64.4159840203721
20
5.06759024919469
30
0
0
SPLINE
5
1C3
100
AcDbEntity
8
1
62
256
6
ByLayer
370
18
48
1
60
0
100
AcDbSpline
70
4
71
2
72
6
73
3
40
0
40
0
40
0
40
1
40
1
40
1
41
1
10
65.0439925004625
20
4.12827346355252
30
0
41
1
10
64.9512284070816
20
4.12871049363983
30
0
41
1
10
64.9258878195662
20
4.18626509925653
30
0
0
LINE
5
82
100
AcDbEntity
8
81
62
256
6
ByLayer
370
18
48
1
60
0
100
AcDbLine
10
72
20
0
30
0
11
77
21
0
31
0
39
0
210
0
220
0
230
1
0
LINE
5
83
100
AcDbEntity
8
SK4
62
256
6
ByLayer
370
18
48
0.05
60
0
100
AcDbLine
10
-33
20
0
30
0
11
77
21
0
31
0
39
0
210
0
220
0
230
1
0
LINE
5
85
100
AcDbEntity
8
80
62
256
6
ByLayer
370
18
48
1
60
0
100
AcDbLine
10
0
20
0
30
0
11
-5
21
0
31
0
39
0
210
0
220
0
230
1
0
LINE
5
86
100
AcDbEntity
8
4
62
256
6
ByLayer
370
18
48
0.05
60
0
100
AcDbLine
10
-5
20
0
30
0
11
77
21
0
31
0
39
0
210
0
220
0
230
1
0
LINE
5
88
100
AcDbEntity
8
1
62
256
6
ByLayer
370
18
48
1
60
0
100
AcDbLine
10
0
20
5
30
0
11
0
21
-5
31
0
39
0
210
0
220
0
230
1
0
LINE
5
89
100
AcDbEntity
8
1
62
256
6
ByLayer
370
18
48
1
60
0
100
AcDbLine
10
59.664379
20
-4.209387
30
0
11
59.667806
21
-4.203721
31
0
39
0
210
0
220
0
230
1
0
LINE
5
8A
100
AcDbEntity
8
1
62
256
6
ByLayer
370
18
48
1
60
0
100
AcDbLine
10
68.996058
20
-4.207144
30
0
11
69.001041
21
-4.214806
31
0
39
0
210
0
220
0
230
1
0
LINE
5
8B
100
AcDbEntity
8
1
62
256
6
ByLayer
370
18
48
1
60
0
100
AcDbLine
10
58.165078
20
-4.209331
30
0
11
58.167046
21
-4.206089
31
0
39
0
210
0
220
0
230
1
0
LINE
5
8C
100
AcDbEntity
8
1
62
256
6
ByLayer
370
18
48
1
60
0
100
AcDbLine
10
67.496371
20
-4.207766
30
0
11
67.498344
21
-4.210906
31
0
39
0
210
0
220
0
230
1
0
LINE
5
8D
100
AcDbEntity
8
1
62
256
6
ByLayer
370
18
48
1
60
0
100
AcDbLine
10
63.745638
20
4.206875
30
0
11
63.748627
21
4.211817
31
0
39
0
210
0
220
0
230
1
0
LINE
5
8E
100
AcDbEntity
8
1
62
256
6
ByLayer
370
18
48
1
60
0
100
AcDbLine
10
57
20
-3.227783
30
0
11
57
21
-4.195927
31
0
39
0
210
0
220
0
230
1
0
LINE
5
8F
100
AcDbEntity
8
1
62
256
6
ByLayer
370
13
48
1
60
0
100
AcDbLine
10
56.790522
20
-3.026741
30
0
11
56.790522
21
-4.052195
31
0
39
0
210
0
220
0
230
1
0
LINE
5
90
100
AcDbEntity
8
1
62
256
6
ByLayer
370
18
48
1
60
0
100
AcDbLine
10
67.15409
20
-4.222152
30
0
11
67.160604
21
-4.215375
31
0
39
0
210
0
220
0
230
1
0
LINE
5
91
100
AcDbEntity
8
1
62
256
6
ByLayer
370
13
48
1
60
0
100
AcDbLine
10
56.790522
20
3.893027
30
0
11
56.790522
21
2.493453
31
0
39
0
210
0
220
0
230
1
0
LINE
5
92
100
AcDbEntity
8
1
62
256
6
ByLayer
370
18
48
1
60
0
100
AcDbLine
10
57
20
3.953183
30
0
11
57
21
2.384085
31
0
39
0
210
0
220
0
230
1
0
LINE
5
93
100
AcDbEntity
8
1
62
256
6
ByLayer
370
13
48
1
60
0
100
AcDbLine
10
56.240522
20
-3.805411
30
0
11
56.240522
21
-2.591702
31
0
39
0
210
0
220
0
230
1
0
LINE
5
94
100
AcDbEntity
8
1
62
256
6
ByLayer
370
13
48
1
60
0
100
AcDbLine
10
56.240522
20
2.788923
30
0
11
56.240522
21
3.866562
31
0
39
0
210
0
220
0
230
1
0
LINE
5
95
100
AcDbEntity
8
1
62
256
6
ByLayer
370
13
48
1
60
0
100
AcDbLine
10
33.096238
20
-3.9406
30
0
11
33.096238
21
3.9406
31
0
39
0
210
0
220
0
230
1
0
LINE
5
96
100
AcDbEntity
8
1
62
256
6
ByLayer
370
13
48
1
60
0
100
AcDbLine
10
32.905225
20
3.957311
30
0
11
32.905225
21
-3.957311
31
0
39
0
210
0
220
0
230
1
0
LINE
5
97
100
AcDbEntity
8
1
62
256
6
ByLayer
370
18
48
1
60
0
100
AcDbLine
10
26.991844
20
5
30
0
11
26.991844
21
-5
31
0
39
0
210
0
220
0
230
1
0
LINE
5
98
100
AcDbEntity
8
1
62
256
6
ByLayer
370
18
48
1
60
0
100
AcDbLine
10
63.167407
20
-0.696242
30
0
11
63.167407
21
-0.544897
31
0
39
0
210
0
220
0
230
1
0
LINE
5
99
100
AcDbEntity
8
SK1
62
256
6
ByLayer
370
18
48
1
60
0
100
AcDbLine
10
-28
20
3.4
30
0
11
-28
21
-3.4
31
0
39
0
210
0
220
0
230
1
0
LINE
5
9B
100
AcDbEntity
8
SK1
62
256
6
ByLayer
370
18
48
1
60
0
100
AcDbLine
10
-17
20
4
30
0
11
-16.2
21
4.8
31
0
39
0
210
0
220
0
230
1
0
LINE
5
9C
100
AcDbEntity
8
SK1
62
256
6
ByLayer
370
18
48
1
60
0
100
AcDbLine
10
-26.6
20
4
30
0
11
-17
21
4
31
0
39
0
210
0
220
0
230
1
0
LINE
5
9D
100
AcDbEntity
8
SK1
62
256
6
ByLayer
370
18
48
1
60
0
100
AcDbLine
10
-26.6
20
2.6533
30
0
11
-26.6
21
4
31
0
39
0
210
0
220
0
230
1
0
LINE
5
9E
100
AcDbEntity
8
SK1
62
256
6
ByLayer
370
18
48
1
60
0
100
AcDbLine
10
-17
20
2.6533
30
0
11
-26.6
21
2.6533
31
0
39
0
210
0
220
0
230
1
0
LINE
5
9F
100
AcDbEntity
8
SK1
62
256
6
ByLayer
370
18
48
1
60
0
100
AcDbLine
10
-26.6
20
-2.6533
30
0
11
-17
21
-2.6533
31
0
39
0
210
0
220
0
230
1
0
LINE
5
A0
100
AcDbEntity
8
SK1
62
256
6
ByLayer
370
18
48
1
60
0
100
AcDbLine
10
-26.6
20
-4
30
0
11
-26.6
21
-2.6533
31
0
39
0
210
0
220
0
230
1
0
LINE
5
A1
100
AcDbEntity
8
SK1
62
256
6
ByLayer
370
18
48
1
60
0
100
AcDbLine
10
-17
20
-4
30
0
11
-26.6
21
-4
31
0
39
0
210
0
220
0
230
1
0
LINE
5
A2
100
AcDbEntity
8
SK1
62
256
6
ByLayer
370
18
48
1
60
0
100
AcDbLine
10
-17
20
-4
30
0
11
-16.2
21
-4.8
31
0
39
0
210
0
220
0
230
1
0
LINE
5
A3
100
AcDbEntity
8
SK1
62
256
6
ByLayer
370
18
48
1
60
0
100
AcDbLine
10
-17
20
2.6533
30
0
11
-17
21
-2.6533
31
0
39
0
210
0
220
0
230
1
0
LINE
5
A4
100
AcDbEntity
8
SK1
62
256
6
ByLayer
370
18
48
1
60
0
100
AcDbLine
10
-15.9
20
4.8
30
0
11
-15.9
21
-4.8
31
0
39
0
210
0
220
0
230
1
0
LINE
5
A5
100
AcDbEntity
8
SK1
62
256
6
ByLayer
370
18
48
1
60
0
100
AcDbLine
10
0
20
5
30
0
11
0
21
-5
31
0
39
0
210
0
220
0
230
1
0
LINE
5
A6
100
AcDbEntity
8
SK1
62
256
6
ByLayer
370
18
48
1
60
0
100
AcDbLine
10
-15.7
20
-5
30
0
11
-15.7
21
5
31
0
39
0
210
0
220
0
230
1
0
LINE
5
A7
100
AcDbEntity
8
1
62
256
6
ByLayer
370
18
48
1
60
0
100
AcDbLine
10
26.991844
20
5
30
0
11
0
21
5
31
0
39
0
210
0
220
0
230
1
0
LINE
5
A8
100
AcDbEntity
8
1
62
256
6
ByLayer
370
18
48
1
60
0
100
AcDbLine
10
0
20
-5
30
0
11
26.991844
21
-5
31
0
39
0
210
0
220
0
230
1
0
LINE
5
A9
100
AcDbEntity
8
1
62
256
6
ByLayer
370
18
48
1
60
0
100
AcDbLine
10
62.923021
20
5.041341
30
0
11
62.721767
21
5.013056
31
0
39
0
210
0
220
0
230
1
0
LINE
5
AA
100
AcDbEntity
8
1
62
256
6
ByLayer
370
18
48
1
60
0
100
AcDbLine
10
58.640005
20
-4.439402
30
0
11
59.451996
21
-4.55352
31
0
39
0
210
0
220
0
230
1
0
LINE
5
AB
100
AcDbEntity
8
1
62
256
6
ByLayer
370
18
48
1
60
0
100
AcDbLine
10
73.65
20
0
30
0
11
72
21
1.65
31
0
39
0
210
0
220
0
230
1
0
LINE
5
AC
100
AcDbEntity
8
1
62
256
6
ByLayer
370
18
48
1
60
0
100
AcDbLine
10
72
20
-1.65
30
0
11
73.65
21
0
31
0
39
0
210
0
220
0
230
1
0
LINE
5
AD
100
AcDbEntity
8
1
62
256
6
ByLayer
370
18
48
1
60
0
100
AcDbLine
10
57.339153
20
-4.256579
30
0
11
58.064393
21
-4.358505
31
0
39
0
210
0
220
0
230
1
0
LINE
5
AE
100
AcDbEntity
8
1
62
256
6
ByLayer
370
18
48
1
60
0
100
AcDbLine
10
64.401911
20
5.075687
30
0
11
64.258727
21
5.075687
31
0
39
0
210
0
220
0
230
1
0
LINE
5
AF
100
AcDbEntity
8
1
62
256
6
ByLayer
370
18
48
1
60
0
100
AcDbLine
10
33.096238
20
-3.9406
30
0
11
41.139772
21
-3.9406
31
0
39
0
210
0
220
0
230
1
0
LINE
5
B0
100
AcDbEntity
8
1
62
256
6
ByLayer
370
18
48
1
60
0
100
AcDbLine
10
47.947896
20
-3.9406
30
0
11
50.609368
21
-3.9406
31
0
39
0
210
0
220
0
230
1
0
LINE
5
B1
100
AcDbEntity
8
1
62
256
6
ByLayer
370
18
48
1
60
0
100
AcDbLine
10
55.358766
20
3.9406
30
0
11
52.688522
21
3.9406
31
0
39
0
210
0
220
0
230
1
0
LINE
5
B2
100
AcDbEntity
8
1
62
256
6
ByLayer
370
18
48
1
60
0
100
AcDbLine
10
45.860961
20
3.9406
30
0
11
42.9209
21
3.9406
31
0
39
0
210
0
220
0
230
1
0
LINE
5
B3
100
AcDbEntity
8
1
62
256
6
ByLayer
370
18
48
1
60
0
100
AcDbLine
10
39.402259
20
3.9406
30
0
11
33.096238
21
3.9406
31
0
39
0
210
0
220
0
230
1
0
LINE
5
B4
100
AcDbEntity
8
1
62
256
6
ByLayer
370
18
48
1
60
0
100
AcDbLine
10
32.905225
20
3.957311
30
0
11
26.991844
21
5
31
0
39
0
210
0
220
0
230
1
0
LINE
5
B5
100
AcDbEntity
8
1
62
256
6
ByLayer
370
18
48
1
60
0
100
AcDbLine
10
26.991844
20
-5
30
0
11
32.905225
21
-3.957311
31
0
39
0
210
0
220
0
230
1
0
LINE
5
B6
100
AcDbEntity
8
SK1
62
256
6
ByLayer
370
18
48
1
60
0
100
AcDbLine
10
-28
20
-3.4
30
0
11
-27.4
21
-4
31
0
39
0
210
0
220
0
230
1
0
LINE
5
B7
100
AcDbEntity
8
SK1
62
256
6
ByLayer
370
18
48
1
60
0
100
AcDbLine
10
-27.4
20
4
30
0
11
-28
21
3.4
31
0
39
0
210
0
220
0
230
1
0
LINE
5
B8
100
AcDbEntity
8
SK1
62
256
6
ByLayer
370
18
48
1
60
0
100
AcDbLine
10
-15.9
20
4.8
30
0
11
-16.2
21
4.8
31
0
39
0
210
0
220
0
230
1
0
LINE
5
B9
100
AcDbEntity
8
SK1
62
256
6
ByLayer
370
18
48
1
60
0
100
AcDbLine
10
-16.2
20
-4.8
30
0
11
-15.9
21
-4.8
31
0
39
0
210
0
220
0
230
1
0
LINE
5
BA
100
AcDbEntity
8
SK1
62
256
6
ByLayer
370
18
48
1
60
0
100
AcDbLine
10
-15.9
20
-4.8
30
0
11
-15.7
21
-5
31
0
39
0
210
0
220
0
230
1
0
LINE
5
BB
100
AcDbEntity
8
SK1
62
256
6
ByLayer
370
18
48
1
60
0
100
AcDbLine
10
-15.7
20
5
30
0
11
-15.9
21
4.8
31
0
39
0
210
0
220
0
230
1
0
LINE
5
BC
100
AcDbEntity
8
SK1
62
256
6
ByLayer
370
18
48
1
60
0
100
AcDbLine
10
0
20
5
30
0
11
-15.7
21
5
31
0
39
0
210
0
220
0
230
1
0
LINE
5
BD
100
AcDbEntity
8
SK1
62
256
6
ByLayer
370
18
48
1
60
0
100
AcDbLine
10
-15.7
20
-5
30
0
11
0
21
-5
31
0
39
0
210
0
220
0
230
1
0
LINE
5
BE
100
AcDbEntity
8
SK2
62
256
6
ByLayer
370
13
48
1
60
0
100
AcDbLine
10
21.75
20
-5
30
0
11
21.75
21
36.38593
31
0
39
0
210
0
220
0
230
1
0
LINE
5
C0
100
AcDbEntity
8
SK2
62
256
6
ByLayer
370
13
48
1
60
0
100
AcDbLine
10
21.5875
20
5
30
0
11
23.75
21
5
31
0
39
0
210
0
220
0
230
1
0
LINE
5
C1
100
AcDbEntity
8
SK2
62
256
6
ByLayer
370
13
48
1
60
0
100
AcDbLine
10
21.5875
20
-5
30
0
11
23.75
21
-5
31
0
39
0
210
0
220
0
230
1
0
LINE
5
C2
100
AcDbEntity
8
1
62
256
6
ByLayer
370
18
48
1
60
1
100
AcDbLine
10
21.75
20
5
30
0
11
22.210784
21
1.500002
31
0
39
0
210
0
220
0
230
1
0
LINE
5
C3
100
AcDbEntity
8
1
62
256
6
ByLayer
370
18
48
1
60
1
100
AcDbLine
10
22.210784
20
1.500002
30
0
11
21.289216
21
1.499998
31
0
39
0
210
0
220
0
230
1
0
LINE
5
C4
100
AcDbEntity
8
1
62
256
6
ByLayer
370
18
48
1
60
1
100
AcDbLine
10
21.289216
20
1.499998
30
0
11
21.75
21
5
31
0
39
0
210
0
220
0
230
1
0
LINE
5
C5
100
AcDbEntity
8
1
62
256
6
ByLayer
370
18
48
1
60
1
100
AcDbLine
10
21.75
20
-5
30
0
11
21.289216
21
-1.500002
31
0
39
0
210
0
220
0
230
1
0
LINE
5
C6
100
AcDbEntity
8
1
62
256
6
ByLayer
370
18
48
1
60
1
100
AcDbLine
10
21.289216
20
-1.500002
30
0
11
22.210784
21
-1.499998
31
0
39
0
210
0
220
0
230
1
0
LINE
5
C7
100
AcDbEntity
8
1
62
256
6
ByLayer
370
18
48
1
60
1
100
AcDbLine
10
22.210784
20
-1.499998
30
0
11
21.75
21
-5
31
0
39
0
210
0
220
0
230
1
0
LINE
5
1C9
100
AcDbEntity
8
1
62
256
6
ByLayer
370
18
48
1
60
1
100
AcDbLine
10
21.75
20
5
30
0
11
22.210784
21
1.500002
31
0
39
0
210
0
220
0
230
1
0
LINE
5
1CA
100
AcDbEntity
8
1
62
256
6
ByLayer
370
18
48
1
60
1
100
AcDbLine
10
22.210784
20
1.500002
30
0
11
21.289216
21
1.499998
31
0
39
0
210
0
220
0
230
1
0
LINE
5
1CB
100
AcDbEntity
8
1
62
256
6
ByLayer
370
18
48
1
60
1
100
AcDbLine
10
21.289216
20
1.499998
30
0
11
21.75
21
5
31
0
39
0
210
0
220
0
230
1
0
LINE
5
1CD
100
AcDbEntity
8
1
62
256
6
ByLayer
370
18
48
1
60
1
100
AcDbLine
10
21.75
20
-5
30
0
11
21.289216
21
-1.500002
31
0
39
0
210
0
220
0
230
1
0
LINE
5
1CE
100
AcDbEntity
8
1
62
256
6
ByLayer
370
18
48
1
60
1
100
AcDbLine
10
21.289216
20
-1.500002
30
0
11
22.210784
21
-1.499998
31
0
39
0
210
0
220
0
230
1
0
LINE
5
1CF
100
AcDbEntity
8
1
62
256
6
ByLayer
370
18
48
1
60
1
100
AcDbLine
10
22.210784
20
-1.499998
30
0
11
21.75
21
-5
31
0
39
0
210
0
220
0
230
1
0
MTEXT
5
1C4
100
AcDbEntity
8
SK2
62
256
6
ByLayer
370
18
48
1
60
0
100
AcDbMText
10
20.185366
20
11.934844
30
0
210
0
220
0
230
1
1
%%c
40
3.5
41
0
44
1.084337
50
90
71
7
72
5
7
iso_b_vert
0
MTEXT
5
1C7
100
AcDbEntity
8
SK2
62
256
6
ByLayer
370
18
48
1
60
0
100
AcDbMText
10
20.185366
20
32.362498
30
0
210
0
220
0
230
1
1
\W0.7125;h9
40
3.5
41
0
44
1.084337
50
90
71
7
72
5
7
iso_b_vert
0
MTEXT
5
1C8
100
AcDbEntity
8
SK2
62
256
6
ByLayer
370
18
48
1
60
0
100
AcDbMText
10
20.185366
20
18.9075
30
0
210
0
220
0
230
1
1
\W0.6864;10.00
40
3.5
41
0
44
1.084337
50
90
71
7
72
5
7
iso_b_vert
0
MTEXT
5
1D1
100
AcDbEntity
8
SK6
62
256
6
ByLayer
370
18
48
1
60
0
100
AcDbMText
10
30.613467
20
-68.614886
30
0
210
0
220
0
230
1
1
\W0.7609;T300-PM100DA-M10 P1PM
40
3
41
0
44
1.084337
50
0
71
7
72
5
7
iso_b_vert
0
HATCH
5
1CC
100
AcDbEntity
8
SK2
62
256
6
ByLayer
370
13
48
1
60
0
100
AcDbHatch
10
0
20
0
30
0
210
0
220
0
230
1
2
ANSI31
70
0
71
0
91
1
92
5
93
3
72
1
10
21.75
20
5.00000000000003
11
22.2107837415528
21
1.50000169255321
72
1
10
22.2107837415528
20
1.50000169255321
11
21.2892162584473
21
1.49999830744685
72
1
10
21.2892162584473
20
1.49999830744685
11
21.75
21
5.00000000000003
97
0
75
0
76
1
52
0
41
0.0062
77
0
78
1
53
45
43
0
44
0
45
-0.0139193969876572
46
0.0139193969876572
79
0
47
0
98
1
10
0
20
0
0
HATCH
5
1D0
100
AcDbEntity
8
SK2
62
256
6
ByLayer
370
13
48
1
60
0
100
AcDbHatch
10
0
20
0
30
0
210
0
220
0
230
1
2
ANSI31
70
0
71
0
91
1
92
5
93
3
72
1
10
21.75
20
-4.99999999999997
11
21.2892162584473
21
-1.50000169255315
72
1
10
21.2892162584473
20
-1.50000169255315
11
22.2107837415528
21
-1.49999830744679
72
1
10
22.2107837415528
20
-1.49999830744679
11
21.75
21
-4.99999999999997
97
0
75
0
76
1
52
0
41
0.0062
77
0
78
1
53
45
43
0
44
0
45
-0.0139193969876572
46
0.0139193969876572
79
0
47
0
98
1
10
0
20
0
0
DIMENSION
5
1D4
100
AcDbEntity
8
SK2
62
256
6
ByLayer
370
18
48
1
60
0
100
AcDbDimension
2
_U0
10
72
20
-50.581355
30
0
11
22
21
-50.581355
31
0
70
32
71
1
72
1
41
1
210
0
220
0
230
1
3
Standard
100
AcDbAlignedDimension
13
-28
23
0
33
0
14
72
24
0
34
0
50
0
100
AcDbRotatedDimension
1001
ACAD
1000
DSTYLE
1002
{
1070
   371
1070
    13
1070
   372
1070
    13
1070
     3
1000

1070
   170
1070
     0
1070
   144
1040
1.0
1070
   277
1070
     2
1070
   284
1070
     8
1070
   278
1070
    46
1070
   146
1040
1.0
1070
   345
1005
16
1070
   347
1005
16
1070
   346
1005
16
1070
   344
1005
0
1070
   343
1005
0
1070
   172
1070
     1
1070
    76
1070
     0
1070
    75
1070
     0
1070
   282
1070
     0
1070
   281
1070
     0
1070
    71
1070
     0
1070
    74
1070
     0
1070
   279
1070
     0
1070
   173
1070
     1
1070
   340
1005
1C5
1070
   271
1070
     2
1070
   272
1070
     2
1070
    77
1070
     1
1070
    73
1070
     1
1070
   171
1070
     3
1070
   274
1070
     4
1070
   177
1070
     2
1070
   176
1070
     2
1070
   178
1070
     2
1070
    78
1070
     8
1070
    48
1040
-0.1
1070
    41
1040
3.5
1070
   147
1040
1.75
1070
    42
1040
1.5875
1070
    44
1040
2.0
1070
   140
1040
3.5
1002
}
1001
ACAD_DSTYLE_DIM_LINETYPE
1070
   380
1005
16
1001
ACAD_DSTYLE_DIM_EXT1_LINETYPE
1070
   381
1005
16
1001
ACAD_DSTYLE_DIM_EXT2_LINETYPE
1070
   382
1005
16
0
DIMENSION
5
1ED
100
AcDbEntity
8
SK2
62
256
6
ByLayer
370
18
48
1
60
0
100
AcDbDimension
2
_U1
10
33
20
-42.581355
30
0
11
52.5
21
-42.581355
31
0
70
32
71
1
72
1
41
1
210
0
220
0
230
1
3
Standard
100
AcDbAlignedDimension
13
72
23
0
33
0
14
33
24
0
34
0
50
0
100
AcDbRotatedDimension
1001
ACAD
1000
DSTYLE
1002
{
1070
   371
1070
    13
1070
   372
1070
    13
1070
     3
1000

1070
   170
1070
     0
1070
   144
1040
1.0
1070
   277
1070
     2
1070
   284
1070
     8
1070
   278
1070
    46
1070
   146
1040
1.0
1070
   345
1005
16
1070
   347
1005
16
1070
   346
1005
16
1070
   344
1005
0
1070
   343
1005
0
1070
   172
1070
     1
1070
    76
1070
     0
1070
    75
1070
     0
1070
   282
1070
     0
1070
   281
1070
     0
1070
    71
1070
     0
1070
    74
1070
     0
1070
   279
1070
     0
1070
   173
1070
     1
1070
   340
1005
1C5
1070
   271
1070
     2
1070
   272
1070
     2
1070
    77
1070
     1
1070
    73
1070
     1
1070
   171
1070
     3
1070
   274
1070
     4
1070
   177
1070
     2
1070
   176
1070
     2
1070
   178
1070
     2
1070
    78
1070
     8
1070
    48
1040
-0.1
1070
    41
1040
3.5
1070
   147
1040
1.75
1070
    42
1040
1.5875
1070
    44
1040
2.0
1070
   140
1040
3.5
1002
}
1001
ACAD_DSTYLE_DIM_LINETYPE
1070
   380
1005
16
1001
ACAD_DSTYLE_DIM_EXT1_LINETYPE
1070
   381
1005
16
1001
ACAD_DSTYLE_DIM_EXT2_LINETYPE
1070
   382
1005
16
0
DIMENSION
5
205
100
AcDbEntity
8
2
62
256
6
ByLayer
370
18
48
1
60
0
100
AcDbDimension
2
_U2
10
38.85
20
-34.581355
30
0
11
55.425
21
-34.581355
31
0
70
32
71
1
72
1
41
1
210
0
220
0
230
1
3
Standard
100
AcDbAlignedDimension
13
72
23
0
33
0
14
38.85
24
0
34
0
50
0
100
AcDbRotatedDimension
1001
ACAD
1000
DSTYLE
1002
{
1070
   371
1070
    13
1070
   372
1070
    13
1070
     3
1000

1070
   170
1070
     0
1070
   144
1040
1.0
1070
   277
1070
     2
1070
   284
1070
     8
1070
   278
1070
    46
1070
   146
1040
1.0
1070
   345
1005
16
1070
   347
1005
16
1070
   346
1005
16
1070
   344
1005
0
1070
   343
1005
0
1070
   172
1070
     1
1070
    76
1070
     0
1070
    75
1070
     0
1070
   282
1070
     0
1070
   281
1070
     0
1070
    71
1070
     0
1070
    74
1070
     0
1070
   279
1070
     0
1070
   173
1070
     1
1070
   340
1005
1C5
1070
   271
1070
     2
1070
   272
1070
     2
1070
    77
1070
     1
1070
    73
1070
     1
1070
   171
1070
     3
1070
   274
1070
     4
1070
   177
1070
     2
1070
   176
1070
     2
1070
   178
1070
     2
1070
    78
1070
     8
1070
    48
1040
-0.1
1070
    41
1040
3.5
1070
   147
1040
1.75
1070
    42
1040
1.5875
1070
    44
1040
2.0
1070
   140
1040
3.5
1002
}
1001
ACAD_DSTYLE_DIM_LINETYPE
1070
   380
1005
16
1001
ACAD_DSTYLE_DIM_EXT1_LINETYPE
1070
   381
1005
16
1001
ACAD_DSTYLE_DIM_EXT2_LINETYPE
1070
   382
1005
16
0
DIMENSION
5
21E
100
AcDbEntity
8
SK2
62
256
6
ByLayer
370
18
48
1
60
0
100
AcDbDimension
2
_U3
10
57
20
-26.581355
30
0
11
64.5
21
-26.581355
31
0
70
32
71
1
72
1
41
1
210
0
220
0
230
1
3
Standard
100
AcDbAlignedDimension
13
72
23
0
33
0
14
57
24
0
34
0
50
0
100
AcDbRotatedDimension
1001
ACAD
1000
DSTYLE
1002
{
1070
   371
1070
    13
1070
   372
1070
    13
1070
     3
1000

1070
   170
1070
     0
1070
   144
1040
1.0
1070
   277
1070
     2
1070
   284
1070
     8
1070
   278
1070
    46
1070
   146
1040
1.0
1070
   345
1005
16
1070
   347
1005
16
1070
   346
1005
16
1070
   344
1005
0
1070
   343
1005
0
1070
   172
1070
     1
1070
    76
1070
     0
1070
    75
1070
     0
1070
   282
1070
     0
1070
   281
1070
     0
1070
    71
1070
     0
1070
    74
1070
     0
1070
   279
1070
     0
1070
   173
1070
     1
1070
   340
1005
1C5
1070
   271
1070
     2
1070
   272
1070
     2
1070
    77
1070
     1
1070
    73
1070
     1
1070
   171
1070
     3
1070
   274
1070
     4
1070
   177
1070
     2
1070
   176
1070
     2
1070
   178
1070
     2
1070
    78
1070
     8
1070
    48
1040
-0.1
1070
    41
1040
3.5
1070
   147
1040
1.75
1070
    42
1040
1.5875
1070
    44
1040
2.0
1070
   140
1040
3.5
1002
}
1001
ACAD_DSTYLE_DIM_LINETYPE
1070
   380
1005
16
1001
ACAD_DSTYLE_DIM_EXT1_LINETYPE
1070
   381
1005
16
1001
ACAD_DSTYLE_DIM_EXT2_LINETYPE
1070
   382
1005
16
0
DIMENSION
5
237
100
AcDbEntity
8
SK2
62
256
6
ByLayer
370
18
48
1
60
0
100
AcDbDimension
2
_U4
10
67.87
20
10.401374
30
0
11
69.935
21
10.401374
31
0
70
32
71
1
72
1
41
1
210
0
220
0
230
1
3
Standard
100
AcDbAlignedDimension
13
72
23
0
33
0
14
67.87
24
0
34
0
50
0
100
AcDbRotatedDimension
1001
ACAD
1000
DSTYLE
1002
{
1070
   371
1070
    13
1070
   372
1070
    13
1070
     3
1000

1070
   170
1070
     0
1070
   144
1040
1.0
1070
   277
1070
     2
1070
   284
1070
     8
1070
   278
1070
    46
1070
   146
1040
1.0
1070
   345
1005
16
1070
   347
1005
16
1070
   346
1005
16
1070
   344
1005
0
1070
   343
1005
0
1070
   172
1070
     1
1070
    76
1070
     0
1070
    75
1070
     0
1070
   282
1070
     0
1070
   281
1070
     0
1070
    71
1070
     0
1070
    74
1070
     0
1070
   279
1070
     0
1070
   173
1070
     1
1070
   340
1005
1C5
1070
   271
1070
     2
1070
   272
1070
     2
1070
    77
1070
     1
1070
    73
1070
     1
1070
   171
1070
     3
1070
   274
1070
     4
1070
   177
1070
     2
1070
   176
1070
     2
1070
   178
1070
     2
1070
    78
1070
     8
1070
    48
1040
-0.1
1070
    41
1040
3.5
1070
   147
1040
1.75
1070
    42
1040
1.5875
1070
    44
1040
2.0
1070
   140
1040
3.5
1002
}
1001
ACAD_DSTYLE_DIM_LINETYPE
1070
   380
1005
16
1001
ACAD_DSTYLE_DIM_EXT1_LINETYPE
1070
   381
1005
16
1001
ACAD_DSTYLE_DIM_EXT2_LINETYPE
1070
   382
1005
16
0
DIMENSION
5
251
100
AcDbEntity
8
2
62
256
6
ByLayer
370
18
48
1
60
0
100
AcDbDimension
2
_U5
10
88.75
20
5.075687
30
0
11
88.75
21
0
31
0
70
32
71
1
72
1
41
1
210
0
220
0
230
1
3
Standard
100
AcDbAlignedDimension
13
72
23
-5.075687
33
0
14
72
24
5.075687
34
0
50
90
100
AcDbRotatedDimension
1001
ACAD
1000
DSTYLE
1002
{
1070
   371
1070
    13
1070
   372
1070
    13
1070
     3
1000

1070
   170
1070
     0
1070
   144
1040
1.0
1070
   277
1070
     2
1070
   284
1070
     8
1070
   278
1070
    46
1070
   146
1040
1.0
1070
   345
1005
16
1070
   347
1005
16
1070
   346
1005
16
1070
   344
1005
0
1070
   343
1005
0
1070
   172
1070
     1
1070
    76
1070
     0
1070
    75
1070
     0
1070
   282
1070
     0
1070
   281
1070
     0
1070
    71
1070
     0
1070
    74
1070
     0
1070
   279
1070
     0
1070
   173
1070
     1
1070
   340
1005
1C5
1070
   271
1070
     2
1070
   272
1070
     2
1070
    77
1070
     1
1070
    73
1070
     0
1070
   171
1070
     3
1070
   274
1070
     4
1070
   177
1070
     2
1070
   176
1070
     2
1070
   178
1070
     2
1070
    78
1070
     8
1070
    48
1040
-0.1
1070
    41
1040
3.5
1070
   147
1040
1.75
1070
    42
1040
1.5875
1070
    44
1040
2.0
1070
   140
1040
3.5
1002
}
1001
ACAD_DSTYLE_DIM_LINETYPE
1070
   380
1005
16
1001
ACAD_DSTYLE_DIM_EXT1_LINETYPE
1070
   381
1005
16
1001
ACAD_DSTYLE_DIM_EXT2_LINETYPE
1070
   382
1005
16
0
ENDSEC
0
SECTION
2
OBJECTS
0
DICTIONARY
5
2db
330
0
100
AcDbDictionary
280
0
281
1
3
ACAD_GROUP
350
2dc
3
ACAD_MLINESTYLE
350
2dd
0
DICTIONARY
5
2dc
330
0
100
AcDbDictionary
280
0
281
1
0
DICTIONARY
5
2dd
330
0
100
AcDbDictionary
280
0
281
1
3
Standard
350
18
0
MLINESTYLE
5
18
330
2dd
100
AcDbMlineStyle
2
Standard
70
0
3

62
256
51
90
52
90
71
2
49
-0.5
62
256
6
ByLayer
49
0.5
62
256
6
ByLayer
0
RASTERVARIABLES
5
2c9
330

100
AcDbRasterVariables
90
0
70
1
71
1
72
1
0
ENDSEC
0
EOF
