0
SECTION
2
HEADER
9
$ACADVER
1
AC1015
9
$DWGCODEPAGE
3
ANSI_1252
9
$HANDSEED
5
45a
9
$ANGBASE
50
0
9
$ANGDIR
70
0
9
$ATTMODE
70
1
9
$AUNITS
70
0
9
$AUPREC
70
0
9
$CECOLOR
62
256
9
$CELTSCALE
40
1
9
$CELTYPE
6
ByLayer
9
$CELWEIGHT
370
18
9
$CLAYER
8
0
9
$CMLJUST
70
0
9
$CMLSCALE
40
1
9
$CMLSTYLE
2
Standard
9
$DIMSTYLE
2
Standard
9
$TEXTSIZE
40
0.2
9
$TEXTSTYLE
7
Standard
9
$LUNITS
70
2
9
$LUPREC
70
4
9
$EXTNAMES
290
1
9
$INSUNITS
70
4
9
$LTSCALE
40
1
9
$LWDISPLAY
290
1
9
$PDMODE
70
0
9
$PDSIZE
40
0
9
$PLINEGEN
70
0
0
ENDSEC
0
SECTION
2
CLASSES
0
CLASS
1
RASTERVARIABLES
2
AcDbRasterVariables
3
ISM
90
0
280
0
281
0
0
ENDSEC
0
SECTION
2
TABLES
0
TABLE
2
VPORT
5
450
100
AcDbSymbolTable
0
VPORT
5
1
100
AcDbSymbolTableRecord
100
AcDbViewportTableRecord
2
*Active
70
0
10
0
20
0
11
1
21
1
12
-1
22
1
13
0
23
0
14
0.5
24
0.5
15
10
25
10
16
0
26
0
36
1
17
0
27
0
37
0
0
ENDTAB
0
TABLE
2
LTYPE
5
451
100
AcDbSymbolTable
0
LTYPE
5
14
100
AcDbSymbolTableRecord
100
AcDbLinetypeTableRecord
70
0
2
ByBlock
3

72
65
73
0
40
0
0
LTYPE
5
15
100
AcDbSymbolTableRecord
100
AcDbLinetypeTableRecord
70
0
2
ByLayer
3

72
65
73
0
40
0
0
LTYPE
5
16
100
AcDbSymbolTableRecord
100
AcDbLinetypeTableRecord
70
0
2
Continuous
3
Solid line
72
65
73
0
40
0
0
LTYPE
5
6E
100
AcDbSymbolTableRecord
100
AcDbLinetypeTableRecord
70
0
2
CENTER
3
____ _ ____ _ ____ _ ____
72
65
73
4
40
47.5
49
22
74
0
49
-8.5
74
0
49
8.5
74
0
49
-8.5
74
0
0
LTYPE
5
6F
100
AcDbSymbolTableRecord
100
AcDbLinetypeTableRecord
70
0
2
DASHED
3
__ __ __ __ __ __ __ __ __
72
65
73
2
40
25.72
49
12.86
74
0
49
-12.86
74
0
0
ENDTAB
0
TABLE
2
LAYER
5
452
100
AcDbSymbolTable
0
LAYER
5
10
100
AcDbSymbolTableRecord
100
AcDbLayerTableRecord
2
0
70
0
62
7
6
Continuous
290
1
370
-3
390
0
0
LAYER
5
71
100
AcDbSymbolTableRecord
100
AcDbLayerTableRecord
2
1
70
0
62
4
6
Continuous
290
1
370
-3
390
0
0
LAYER
5
73
100
AcDbSymbolTableRecord
100
AcDbLayerTableRecord
2
80
70
0
62
-6
6
Continuous
290
1
370
-3
390
0
0
LAYER
5
75
100
AcDbSymbolTableRecord
100
AcDbLayerTableRecord
2
81
70
0
62
-3
6
Continuous
290
1
370
-3
390
0
0
LAYER
5
149
100
AcDbSymbolTableRecord
100
AcDbLayerTableRecord
2
4
70
0
62
-2
6
CENTER
290
1
370
-3
390
0
0
LAYER
5
186
100
AcDbSymbolTableRecord
100
AcDbLayerTableRecord
2
2
70
0
62
7
6
Continuous
290
1
370
-3
390
0
0
LAYER
5
364
100
AcDbSymbolTableRecord
100
AcDbLayerTableRecord
2
Defpoints
70
0
62
7
6
Continuous
290
0
370
-3
390
0
0
LAYER
5
43c
100
AcDbSymbolTableRecord
100
AcDbLayerTableRecord
2
SK1
70
0
62
4
6
Continuous
290
1
370
-3
390
0
0
LAYER
5
43d
100
AcDbSymbolTableRecord
100
AcDbLayerTableRecord
2
SK4
70
0
62
2
6
CENTER
290
1
370
-3
390
0
0
LAYER
5
43e
100
AcDbSymbolTableRecord
100
AcDbLayerTableRecord
2
SK2
70
0
62
7
6
Continuous
290
1
370
-3
390
0
0
LAYER
5
43f
100
AcDbSymbolTableRecord
100
AcDbLayerTableRecord
2
SK6
70
0
62
5
6
Continuous
290
1
370
-3
390
0
0
ENDTAB
0
TABLE
2
STYLE
5
453
100
AcDbSymbolTable
0
STYLE
5
11
100
AcDbSymbolTableRecord
100
AcDbTextStyleTableRecord
2
Standard
3
txt
70
0
71
0
40
0
41
1
42
0
50
0
0
STYLE
5
33F
100
AcDbSymbolTableRecord
100
AcDbTextStyleTableRecord
2
iso_b_vert
3
simplex.shx
70
0
71
0
40
0
41
1
42
0
50
0
0
STYLE
5
340
100
AcDbSymbolTableRecord
100
AcDbTextStyleTableRecord
2
DWGDirectTextStyle
3
simplex
70
0
71
0
40
0
41
1
42
0
50
0
0
ENDTAB
0
TABLE
2
DIMSTYLE
5
454
100
AcDbSymbolTable
100
AcDbDimStyleTable
0
DIMSTYLE
105
27
100
AcDbSymbolTableRecord
100
AcDbDimStyleTableRecord
2
Standard
70
0
3
<>
41
0.18
42
0.0625
44
0.18
140
0.18
147
0.09
73
0
74
0
77
1
271
2
275
0
278
52
280
0
340
11
0
ENDTAB
0
TABLE
2
VIEW
5
455
100
AcDbSymbolTable
0
ENDTAB
0
TABLE
2
UCS
5
456
100
AcDbSymbolTable
0
ENDTAB
0
TABLE
2
APPID
5
457
100
AcDbSymbolTable
0
APPID
5
12
100
AcDbSymbolTableRecord
100
AcDbRegAppTableRecord
2
ACAD
70
0
0
APPID
5
360
100
AcDbSymbolTableRecord
100
AcDbRegAppTableRecord
2
ACAD_DSTYLE_DIMBREAK
70
0
0
APPID
5
3FB
100
AcDbSymbolTableRecord
100
AcDbRegAppTableRecord
2
ACAD_DSTYLE_DIM_LINETYPE
70
0
0
APPID
5
3FC
100
AcDbSymbolTableRecord
100
AcDbRegAppTableRecord
2
ACAD_DSTYLE_DIM_EXT1_LINETYPE
70
0
0
APPID
5
3FD
100
AcDbSymbolTableRecord
100
AcDbRegAppTableRecord
2
ACAD_DSTYLE_DIM_EXT2_LINETYPE
70
0
0
APPID
5
438
100
AcDbSymbolTableRecord
100
AcDbRegAppTableRecord
2
ACAD_MLEADERVER
70
0
0
ENDTAB
0
TABLE
2
BLOCK_RECORD
5
458
100
AcDbSymbolTable
0
BLOCK_RECORD
5
1F
100
AcDbSymbolTableRecord
100
AcDbBlockTableRecord
2
*Model_Space
340
0
70
0
0
BLOCK_RECORD
5
1B
100
AcDbSymbolTableRecord
100
AcDbBlockTableRecord
2
*Paper_Space
340
0
70
0
0
BLOCK_RECORD
5
23
100
AcDbSymbolTableRecord
100
AcDbBlockTableRecord
2
*Paper_Space0
340
0
70
0
0
BLOCK_RECORD
5
365
100
AcDbSymbolTableRecord
100
AcDbBlockTableRecord
2
*D1
340
0
70
0
0
BLOCK_RECORD
5
371
100
AcDbSymbolTableRecord
100
AcDbBlockTableRecord
2
_U0
340
0
70
0
0
BLOCK_RECORD
5
37D
100
AcDbSymbolTableRecord
100
AcDbBlockTableRecord
2
*D3
340
0
70
0
0
BLOCK_RECORD
5
38A
100
AcDbSymbolTableRecord
100
AcDbBlockTableRecord
2
_U1
340
0
70
0
0
BLOCK_RECORD
5
396
100
AcDbSymbolTableRecord
100
AcDbBlockTableRecord
2
*D5
340
0
70
0
0
BLOCK_RECORD
5
3A2
100
AcDbSymbolTableRecord
100
AcDbBlockTableRecord
2
_U2
340
0
70
0
0
BLOCK_RECORD
5
3AE
100
AcDbSymbolTableRecord
100
AcDbBlockTableRecord
2
*D7
340
0
70
0
0
BLOCK_RECORD
5
3BA
100
AcDbSymbolTableRecord
100
AcDbBlockTableRecord
2
_U3
340
0
70
0
0
BLOCK_RECORD
5
3C6
100
AcDbSymbolTableRecord
100
AcDbBlockTableRecord
2
*D9
340
0
70
0
0
BLOCK_RECORD
5
3D4
100
AcDbSymbolTableRecord
100
AcDbBlockTableRecord
2
_U4
340
0
70
0
0
ENDTAB
0
ENDSEC
0
SECTION
2
BLOCKS
0
BLOCK
5
20
100
AcDbEntity
8
0
100
AcDbBlockBegin
2
*Model_Space
70
0
10
0
20
0
30
0
3
*Model_Space
0
ENDBLK
5
21
100
AcDbEntity
8
0
100
AcDbBlockEnd
0
BLOCK
5
1C
100
AcDbEntity
8
0
100
AcDbBlockBegin
2
*Paper_Space
70
0
10
0
20
0
30
0
3
*Paper_Space
0
ENDBLK
5
1D
100
AcDbEntity
8
0
100
AcDbBlockEnd
0
BLOCK
5
24
100
AcDbEntity
8
0
100
AcDbBlockBegin
2
*Paper_Space0
70
0
10
0
20
0
30
0
3
*Paper_Space0
0
ENDBLK
5
25
100
AcDbEntity
8
0
100
AcDbBlockEnd
0
BLOCK
5
366
100
AcDbEntity
8
0
100
AcDbBlockBegin
2
*D1
70
1
10
0
20
0
30
0
3
*D1
0
LINE
5
368
100
AcDbEntity
8
0
62
256
6
ByLayer
370
-2
48
1
60
0
100
AcDbLine
10
0
20
-35.5875
30
0
11
0
21
-86.025
31
0
39
0
210
0
220
0
230
1
0
LINE
5
369
100
AcDbEntity
8
0
62
256
6
ByLayer
370
-2
48
1
60
0
100
AcDbLine
10
251
20
-26.5875
30
0
11
251
21
-86.025
31
0
39
0
210
0
220
0
230
1
0
LINE
5
36A
100
AcDbEntity
8
0
62
256
6
ByLayer
370
-2
48
1
60
0
100
AcDbLine
10
4.175
20
-82.85
30
0
11
246.825
21
-82.85
31
0
39
0
210
0
220
0
230
1
0
SOLID
5
36B
100
AcDbEntity
8
0
62
256
6
ByLayer
370
-1
48
1
60
0
100
AcDbTrace
10
4.175
20
-82.154167
30
0
11
4.175
21
-83.545833
31
0
12
0
22
-82.85
32
0
13
0
23
-82.85
33
0
39
0
210
0
220
0
230
1
0
SOLID
5
36C
100
AcDbEntity
8
0
62
256
6
ByLayer
370
-1
48
1
60
0
100
AcDbTrace
10
246.825
20
-83.545833
30
0
11
246.825
21
-82.154167
31
0
12
251
22
-82.85
32
0
13
251
23
-82.85
33
0
39
0
210
0
220
0
230
1
0
MTEXT
5
36D
100
AcDbEntity
8
0
62
256
6
ByLayer
370
18
48
1
60
0
100
AcDbMText
10
125.5
20
-73.45625
30
0
210
0
220
0
230
1
1
\A1;251
40
4.5
41
0
44
1
50
0
71
5
72
5
7
iso_b_vert
0
POINT
5
36E
100
AcDbEntity
8
Defpoints
62
0
6
ByLayer
370
-1
48
1
60
0
100
AcDbPoint
10
0
20
-34
30
0
39
0
210
0
220
0
230
1
50
360
0
POINT
5
36F
100
AcDbEntity
8
Defpoints
62
0
6
ByLayer
370
-1
48
1
60
0
100
AcDbPoint
10
251
20
-25
30
0
39
0
210
0
220
0
230
1
50
360
0
POINT
5
370
100
AcDbEntity
8
Defpoints
62
0
6
ByLayer
370
-1
48
1
60
0
100
AcDbPoint
10
251
20
-82.85
30
0
39
0
210
0
220
0
230
1
50
360
0
ENDBLK
5
367
100
AcDbEntity
8
0
100
AcDbBlockEnd
0
BLOCK
5
378
100
AcDbEntity
8
0
100
AcDbBlockBegin
2
_U0
70
0
10
0
20
0
30
0
3
_U0
0
MTEXT
5
372
100
AcDbEntity
8
2
62
256
6
ByLayer
370
18
48
1
60
0
100
AcDbMText
10
121.931801
20
-81.522328
30
0
210
0
220
0
230
1
1
\W0.6949;251
40
4.5
41
0
44
1.084337
50
0
71
7
72
5
7
iso_b_vert
0
LINE
5
373
100
AcDbEntity
8
2
62
256
6
ByLayer
370
13
48
1
60
0
100
AcDbLine
10
0
20
-35.5875
30
0
11
0
21
-86.025
31
0
39
0
210
0
220
0
230
1
0
LINE
5
374
100
AcDbEntity
8
2
62
256
6
ByLayer
370
13
48
1
60
0
100
AcDbLine
10
251
20
-26.5875
30
0
11
251
21
-86.025
31
0
39
0
210
0
220
0
230
1
0
LINE
5
375
100
AcDbEntity
8
2
62
256
6
ByLayer
370
13
48
1
60
0
100
AcDbLine
10
0
20
-82.85
30
0
11
251
21
-82.85
31
0
39
0
210
0
220
0
230
1
0
SOLID
5
376
100
AcDbEntity
8
2
62
256
6
ByLayer
370
18
48
1
60
0
100
AcDbTrace
10
0
20
-82.85
30
0
11
4.174997
21
-81.924425
31
0
12
4.175003
22
-83.775575
32
0
13
4.175003
23
-83.775575
33
0
39
0
210
0
220
0
230
1
0
SOLID
5
377
100
AcDbEntity
8
2
62
256
6
ByLayer
370
18
48
1
60
0
100
AcDbTrace
10
251
20
-82.85
30
0
11
246.825003
21
-83.775575
31
0
12
246.824997
22
-81.924425
32
0
13
246.824997
23
-81.924425
33
0
39
0
210
0
220
0
230
1
0
ENDBLK
5
379
100
AcDbEntity
8
0
100
AcDbBlockEnd
0
BLOCK
5
37E
100
AcDbEntity
8
0
100
AcDbBlockBegin
2
*D3
70
1
10
0
20
0
30
0
3
*D3
0
LINE
5
380
100
AcDbEntity
8
0
62
256
6
ByLayer
370
-2
48
1
60
0
100
AcDbLine
10
-18
20
-26.5875
30
0
11
-18
21
-86.025
31
0
39
0
210
0
220
0
230
1
0
LINE
5
381
100
AcDbEntity
8
0
62
256
6
ByLayer
370
-2
48
1
60
0
100
AcDbLine
10
0
20
-35.5875
30
0
11
0
21
-86.025
31
0
39
0
210
0
220
0
230
1
0
LINE
5
382
100
AcDbEntity
8
0
62
256
6
ByLayer
370
-2
48
1
60
0
100
AcDbLine
10
-22.175
20
-82.85
30
0
11
-26.35
21
-82.85
31
0
39
0
210
0
220
0
230
1
0
LINE
5
383
100
AcDbEntity
8
0
62
256
6
ByLayer
370
-2
48
1
60
0
100
AcDbLine
10
4.175
20
-82.85
30
0
11
8.35
21
-82.85
31
0
39
0
210
0
220
0
230
1
0
SOLID
5
384
100
AcDbEntity
8
0
62
256
6
ByLayer
370
-1
48
1
60
0
100
AcDbTrace
10
-22.175
20
-83.545833
30
0
11
-22.175
21
-82.154167
31
0
12
-18
22
-82.85
32
0
13
-18
23
-82.85
33
0
39
0
210
0
220
0
230
1
0
SOLID
5
385
100
AcDbEntity
8
0
62
256
6
ByLayer
370
-1
48
1
60
0
100
AcDbTrace
10
4.175
20
-82.154167
30
0
11
4.175
21
-83.545833
31
0
12
0
22
-82.85
32
0
13
0
23
-82.85
33
0
39
0
210
0
220
0
230
1
0
MTEXT
5
386
100
AcDbEntity
8
0
62
256
6
ByLayer
370
18
48
1
60
0
100
AcDbMText
10
-9
20
-73.45625
30
0
210
0
220
0
230
1
1
\A1;18
40
4.5
41
0
44
1
50
0
71
5
72
5
7
iso_b_vert
0
POINT
5
387
100
AcDbEntity
8
Defpoints
62
0
6
ByLayer
370
-1
48
1
60
0
100
AcDbPoint
10
-18
20
-25
30
0
39
0
210
0
220
0
230
1
50
360
0
POINT
5
388
100
AcDbEntity
8
Defpoints
62
0
6
ByLayer
370
-1
48
1
60
0
100
AcDbPoint
10
0
20
-34
30
0
39
0
210
0
220
0
230
1
50
360
0
POINT
5
389
100
AcDbEntity
8
Defpoints
62
0
6
ByLayer
370
-1
48
1
60
0
100
AcDbPoint
10
0
20
-82.85
30
0
39
0
210
0
220
0
230
1
50
360
0
ENDBLK
5
37F
100
AcDbEntity
8
0
100
AcDbBlockEnd
0
BLOCK
5
391
100
AcDbEntity
8
0
100
AcDbBlockBegin
2
_U1
70
0
10
0
20
0
30
0
3
_U1
0
MTEXT
5
38B
100
AcDbEntity
8
SK2
62
256
6
ByLayer
370
18
48
1
60
0
100
AcDbMText
10
-10.886828
20
-81.522328
30
0
210
0
220
0
230
1
1
\W0.5321;18
40
4.5
41
0
44
1.084337
50
0
71
7
72
5
7
iso_b_vert
0
LINE
5
38C
100
AcDbEntity
8
SK2
62
256
6
ByLayer
370
13
48
1
60
0
100
AcDbLine
10
-18
20
-26.5875
30
0
11
-18
21
-86.025
31
0
39
0
210
0
220
0
230
1
0
LINE
5
38D
100
AcDbEntity
8
SK2
62
256
6
ByLayer
370
13
48
1
60
0
100
AcDbLine
10
0
20
-35.5875
30
0
11
0
21
-86.025
31
0
39
0
210
0
220
0
230
1
0
LINE
5
38E
100
AcDbEntity
8
SK2
62
256
6
ByLayer
370
13
48
1
60
0
100
AcDbLine
10
-18
20
-82.85
30
0
11
0
21
-82.85
31
0
39
0
210
0
220
0
230
1
0
SOLID
5
38F
100
AcDbEntity
8
SK2
62
256
6
ByLayer
370
18
48
1
60
0
100
AcDbTrace
10
-18
20
-82.85
30
0
11
-13.825003
21
-81.924425
31
0
12
-13.824997
22
-83.775575
32
0
13
-13.824997
23
-83.775575
33
0
39
0
210
0
220
0
230
1
0
SOLID
5
390
100
AcDbEntity
8
SK2
62
256
6
ByLayer
370
18
48
1
60
0
100
AcDbTrace
10
0
20
-82.85
30
0
11
-4.174997
21
-83.775575
31
0
12
-4.175003
22
-81.924425
32
0
13
-4.175003
23
-81.924425
33
0
39
0
210
0
220
0
230
1
0
ENDBLK
5
392
100
AcDbEntity
8
0
100
AcDbBlockEnd
0
BLOCK
5
397
100
AcDbEntity
8
0
100
AcDbBlockBegin
2
*D5
70
1
10
0
20
0
30
0
3
*D5
0
LINE
5
399
100
AcDbEntity
8
0
62
256
6
ByLayer
370
-2
48
1
60
0
100
AcDbLine
10
251
20
-26.5875
30
0
11
251
21
-76.025
31
0
39
0
210
0
220
0
230
1
0
LINE
5
39A
100
AcDbEntity
8
0
62
256
6
ByLayer
370
-2
48
1
60
0
100
AcDbLine
10
17.7078
20
-35.5875
30
0
11
17.7078
21
-76.025
31
0
39
0
210
0
220
0
230
1
0
LINE
5
39B
100
AcDbEntity
8
0
62
256
6
ByLayer
370
-2
48
1
60
0
100
AcDbLine
10
246.825
20
-72.85
30
0
11
21.8828
21
-72.85
31
0
39
0
210
0
220
0
230
1
0
SOLID
5
39C
100
AcDbEntity
8
0
62
256
6
ByLayer
370
-1
48
1
60
0
100
AcDbTrace
10
246.825
20
-73.545833
30
0
11
246.825
21
-72.154167
31
0
12
251
22
-72.85
32
0
13
251
23
-72.85
33
0
39
0
210
0
220
0
230
1
0
SOLID
5
39D
100
AcDbEntity
8
0
62
256
6
ByLayer
370
-1
48
1
60
0
100
AcDbTrace
10
21.8828
20
-72.154167
30
0
11
21.8828
21
-73.545833
31
0
12
17.7078
22
-72.85
32
0
13
17.7078
23
-72.85
33
0
39
0
210
0
220
0
230
1
0
MTEXT
5
39E
100
AcDbEntity
8
0
62
256
6
ByLayer
370
18
48
1
60
0
100
AcDbMText
10
134.3539
20
-63.45625
30
0
210
0
220
0
230
1
1
\A1;233.3
40
4.5
41
0
44
1
50
0
71
5
72
5
7
iso_b_vert
0
POINT
5
39F
100
AcDbEntity
8
Defpoints
62
0
6
ByLayer
370
-1
48
1
60
0
100
AcDbPoint
10
251
20
-25
30
0
39
0
210
0
220
0
230
1
50
360
0
POINT
5
3A0
100
AcDbEntity
8
Defpoints
62
0
6
ByLayer
370
-1
48
1
60
0
100
AcDbPoint
10
17.7078
20
-34
30
0
39
0
210
0
220
0
230
1
50
360
0
POINT
5
3A1
100
AcDbEntity
8
Defpoints
62
0
6
ByLayer
370
-1
48
1
60
0
100
AcDbPoint
10
17.7078
20
-72.85
30
0
39
0
210
0
220
0
230
1
50
360
0
ENDBLK
5
398
100
AcDbEntity
8
0
100
AcDbBlockEnd
0
BLOCK
5
3A9
100
AcDbEntity
8
0
100
AcDbBlockBegin
2
_U2
70
0
10
0
20
0
30
0
3
_U2
0
MTEXT
5
3A3
100
AcDbEntity
8
SK2
62
256
6
ByLayer
370
18
48
1
60
0
100
AcDbMText
10
127.630344
20
-71.522328
30
0
210
0
220
0
230
1
1
\W0.7468;233.3
40
4.5
41
0
44
1.084337
50
0
71
7
72
5
7
iso_b_vert
0
LINE
5
3A4
100
AcDbEntity
8
SK2
62
256
6
ByLayer
370
13
48
1
60
0
100
AcDbLine
10
251
20
-26.5875
30
0
11
251
21
-76.025
31
0
39
0
210
0
220
0
230
1
0
LINE
5
3A5
100
AcDbEntity
8
SK2
62
256
6
ByLayer
370
13
48
1
60
0
100
AcDbLine
10
17.7078
20
-35.5875
30
0
11
17.7078
21
-76.025
31
0
39
0
210
0
220
0
230
1
0
LINE
5
3A6
100
AcDbEntity
8
SK2
62
256
6
ByLayer
370
13
48
1
60
0
100
AcDbLine
10
251
20
-72.85
30
0
11
17.7078
21
-72.85
31
0
39
0
210
0
220
0
230
1
0
SOLID
5
3A7
100
AcDbEntity
8
SK2
62
256
6
ByLayer
370
18
48
1
60
0
100
AcDbTrace
10
251
20
-72.85
30
0
11
246.825003
21
-73.775575
31
0
12
246.824997
22
-71.924425
32
0
13
246.824997
23
-71.924425
33
0
39
0
210
0
220
0
230
1
0
SOLID
5
3A8
100
AcDbEntity
8
SK2
62
256
6
ByLayer
370
18
48
1
60
0
100
AcDbTrace
10
17.7078
20
-72.85
30
0
11
21.882797
21
-71.924425
31
0
12
21.882803
22
-73.775575
32
0
13
21.882803
23
-73.775575
33
0
39
0
210
0
220
0
230
1
0
ENDBLK
5
3AA
100
AcDbEntity
8
0
100
AcDbBlockEnd
0
BLOCK
5
3AF
100
AcDbEntity
8
0
100
AcDbBlockBegin
2
*D7
70
1
10
0
20
0
30
0
3
*D7
0
LINE
5
3B1
100
AcDbEntity
8
0
62
256
6
ByLayer
370
-2
48
1
60
0
100
AcDbLine
10
46
20
-26.5875
30
0
11
46
21
-66.025
31
0
39
0
210
0
220
0
230
1
0
LINE
5
3B2
100
AcDbEntity
8
0
62
256
6
ByLayer
370
-2
48
1
60
0
100
AcDbLine
10
251
20
-26.5875
30
0
11
251
21
-66.025
31
0
39
0
210
0
220
0
230
1
0
LINE
5
3B3
100
AcDbEntity
8
0
62
256
6
ByLayer
370
-2
48
1
60
0
100
AcDbLine
10
50.175
20
-62.85
30
0
11
246.825
21
-62.85
31
0
39
0
210
0
220
0
230
1
0
SOLID
5
3B4
100
AcDbEntity
8
0
62
256
6
ByLayer
370
-1
48
1
60
0
100
AcDbTrace
10
50.175
20
-62.154167
30
0
11
50.175
21
-63.545833
31
0
12
46
22
-62.85
32
0
13
46
23
-62.85
33
0
39
0
210
0
220
0
230
1
0
SOLID
5
3B5
100
AcDbEntity
8
0
62
256
6
ByLayer
370
-1
48
1
60
0
100
AcDbTrace
10
246.825
20
-63.545833
30
0
11
246.825
21
-62.154167
31
0
12
251
22
-62.85
32
0
13
251
23
-62.85
33
0
39
0
210
0
220
0
230
1
0
MTEXT
5
3B6
100
AcDbEntity
8
0
62
256
6
ByLayer
370
18
48
1
60
0
100
AcDbMText
10
148.5
20
-53.45625
30
0
210
0
220
0
230
1
1
\A1;205
40
4.5
41
0
44
1
50
0
71
5
72
5
7
iso_b_vert
0
POINT
5
3B7
100
AcDbEntity
8
Defpoints
62
0
6
ByLayer
370
-1
48
1
60
0
100
AcDbPoint
10
46
20
-25
30
0
39
0
210
0
220
0
230
1
50
360
0
POINT
5
3B8
100
AcDbEntity
8
Defpoints
62
0
6
ByLayer
370
-1
48
1
60
0
100
AcDbPoint
10
251
20
-25
30
0
39
0
210
0
220
0
230
1
50
360
0
POINT
5
3B9
100
AcDbEntity
8
Defpoints
62
0
6
ByLayer
370
-1
48
1
60
0
100
AcDbPoint
10
251
20
-62.85
30
0
39
0
210
0
220
0
230
1
50
360
0
ENDBLK
5
3B0
100
AcDbEntity
8
0
100
AcDbBlockEnd
0
BLOCK
5
3C1
100
AcDbEntity
8
0
100
AcDbBlockBegin
2
_U3
70
0
10
0
20
0
30
0
3
_U3
0
MTEXT
5
3BB
100
AcDbEntity
8
SK2
62
256
6
ByLayer
370
18
48
1
60
0
100
AcDbMText
10
144.369387
20
-61.522328
30
0
210
0
220
0
230
1
1
\W0.7138;205
40
4.5
41
0
44
1.084337
50
0
71
7
72
5
7
iso_b_vert
0
LINE
5
3BC
100
AcDbEntity
8
SK2
62
256
6
ByLayer
370
13
48
1
60
0
100
AcDbLine
10
46
20
-26.5875
30
0
11
46
21
-66.025
31
0
39
0
210
0
220
0
230
1
0
LINE
5
3BD
100
AcDbEntity
8
SK2
62
256
6
ByLayer
370
13
48
1
60
0
100
AcDbLine
10
251
20
-26.5875
30
0
11
251
21
-66.025
31
0
39
0
210
0
220
0
230
1
0
LINE
5
3BE
100
AcDbEntity
8
SK2
62
256
6
ByLayer
370
13
48
1
60
0
100
AcDbLine
10
46
20
-62.85
30
0
11
251
21
-62.85
31
0
39
0
210
0
220
0
230
1
0
SOLID
5
3BF
100
AcDbEntity
8
SK2
62
256
6
ByLayer
370
18
48
1
60
0
100
AcDbTrace
10
46
20
-62.85
30
0
11
50.174997
21
-61.924425
31
0
12
50.175003
22
-63.775575
32
0
13
50.175003
23
-63.775575
33
0
39
0
210
0
220
0
230
1
0
SOLID
5
3C0
100
AcDbEntity
8
SK2
62
256
6
ByLayer
370
18
48
1
60
0
100
AcDbTrace
10
251
20
-62.85
30
0
11
246.825003
21
-63.775575
31
0
12
246.824997
22
-61.924425
32
0
13
246.824997
23
-61.924425
33
0
39
0
210
0
220
0
230
1
0
ENDBLK
5
3C2
100
AcDbEntity
8
0
100
AcDbBlockEnd
0
BLOCK
5
3C7
100
AcDbEntity
8
0
100
AcDbBlockBegin
2
*D9
70
1
10
0
20
0
30
0
3
*D9
0
LINE
5
3C9
100
AcDbEntity
8
0
62
256
6
ByLayer
370
-2
48
1
60
0
100
AcDbLine
10
249.7234
20
-14.0875
30
0
11
249.7234
21
-56.025
31
0
39
0
210
0
220
0
230
1
0
LINE
5
3CA
100
AcDbEntity
8
0
62
256
6
ByLayer
370
-2
48
1
60
0
100
AcDbLine
10
251
20
-1.5875
30
0
11
251
21
-56.025
31
0
39
0
210
0
220
0
230
1
0
LINE
5
3CB
100
AcDbEntity
8
0
62
256
6
ByLayer
370
-2
48
1
60
0
100
AcDbLine
10
251
20
-52.85
30
0
11
286.708929
21
-52.85
31
0
39
0
210
0
220
0
230
1
0
LINE
5
3CC
100
AcDbEntity
8
0
62
256
6
ByLayer
370
-2
48
1
60
0
100
AcDbLine
10
245.5484
20
-52.85
30
0
11
241.3734
21
-52.85
31
0
39
0
210
0
220
0
230
1
0
LINE
5
3CD
100
AcDbEntity
8
0
62
256
6
ByLayer
370
-2
48
1
60
0
100
AcDbLine
10
255.175
20
-52.85
30
0
11
259.35
21
-52.85
31
0
39
0
210
0
220
0
230
1
0
SOLID
5
3CE
100
AcDbEntity
8
0
62
256
6
ByLayer
370
-1
48
1
60
0
100
AcDbTrace
10
245.5484
20
-53.545833
30
0
11
245.5484
21
-52.154167
31
0
12
249.7234
22
-52.85
32
0
13
249.7234
23
-52.85
33
0
39
0
210
0
220
0
230
1
0
SOLID
5
3CF
100
AcDbEntity
8
0
62
256
6
ByLayer
370
-1
48
1
60
0
100
AcDbTrace
10
255.175
20
-52.154167
30
0
11
255.175
21
-53.545833
31
0
12
251
22
-52.85
32
0
13
251
23
-52.85
33
0
39
0
210
0
220
0
230
1
0
MTEXT
5
3D0
100
AcDbEntity
8
0
62
256
6
ByLayer
370
18
48
1
60
0
100
AcDbMText
10
273.029464
20
-43.45625
30
0
210
0
220
0
230
1
1
\A1;1.28
40
4.5
41
0
44
1
50
0
71
5
72
5
7
iso_b_vert
0
POINT
5
3D1
100
AcDbEntity
8
Defpoints
62
0
6
ByLayer
370
-1
48
1
60
0
100
AcDbPoint
10
249.7234
20
-12.5
30
0
39
0
210
0
220
0
230
1
50
360
0
POINT
5
3D2
100
AcDbEntity
8
Defpoints
62
0
6
ByLayer
370
-1
48
1
60
0
100
AcDbPoint
10
251
20
0
30
0
39
0
210
0
220
0
230
1
50
360
0
POINT
5
3D3
100
AcDbEntity
8
Defpoints
62
0
6
ByLayer
370
-1
48
1
60
0
100
AcDbPoint
10
251
20
-52.85
30
0
39
0
210
0
220
0
230
1
50
360
0
ENDBLK
5
3C8
100
AcDbEntity
8
0
100
AcDbBlockEnd
0
BLOCK
5
3DB
100
AcDbEntity
8
0
100
AcDbBlockBegin
2
_U4
70
0
10
0
20
0
30
0
3
_U4
0
MTEXT
5
3D5
100
AcDbEntity
8
2
62
256
6
ByLayer
370
18
48
1
60
0
100
AcDbMText
10
263.351
20
-51.522328
30
0
210
0
220
0
230
1
1
\W0.6563;1.28
40
4.5
41
0
44
1.084337
50
0
71
7
72
5
7
iso_b_vert
0
LINE
5
3D6
100
AcDbEntity
8
2
62
256
6
ByLayer
370
13
48
1
60
0
100
AcDbLine
10
249.7234
20
-14.0875
30
0
11
249.7234
21
-56.025
31
0
39
0
210
0
220
0
230
1
0
LINE
5
3D7
100
AcDbEntity
8
2
62
256
6
ByLayer
370
13
48
1
60
0
100
AcDbLine
10
251
20
-1.5875
30
0
11
251
21
-56.025
31
0
39
0
210
0
220
0
230
1
0
LINE
5
3D8
100
AcDbEntity
8
2
62
256
6
ByLayer
370
13
48
1
60
0
100
AcDbLine
10
272.549041
20
-52.85
30
0
11
238.4734
21
-52.85
31
0
39
0
210
0
220
0
230
1
0
SOLID
5
3D9
100
AcDbEntity
8
2
62
256
6
ByLayer
370
18
48
1
60
0
100
AcDbTrace
10
249.7234
20
-52.85
30
0
11
245.548403
21
-53.775575
31
0
12
245.548397
22
-51.924425
32
0
13
245.548397
23
-51.924425
33
0
39
0
210
0
220
0
230
1
0
SOLID
5
3DA
100
AcDbEntity
8
2
62
256
6
ByLayer
370
18
48
1
60
0
100
AcDbTrace
10
251
20
-52.85
30
0
11
255.174997
21
-51.924425
31
0
12
255.175003
22
-53.775575
32
0
13
255.175003
23
-53.775575
33
0
39
0
210
0
220
0
230
1
0
ENDBLK
5
3DC
100
AcDbEntity
8
0
100
AcDbBlockEnd
0
ENDSEC
0
SECTION
2
ENTITIES
0
ARC
5
18F
100
AcDbEntity
8
SK1
62
256
6
ByLayer
370
13
48
1
60
0
100
AcDbCircle
39
0
10
-0.3
20
25.4
30
0
40
0.600000000000001
210
0
220
0
230
1
100
AcDbArc
50
270
51
300
0
ARC
5
190
100
AcDbEntity
8
SK1
62
256
6
ByLayer
370
13
48
1
60
0
100
AcDbCircle
39
0
10
-0.3
20
-25.4
30
0
40
0.600000000000001
210
0
220
0
230
1
100
AcDbArc
50
60
51
90
0
ARC
5
191
100
AcDbEntity
8
1
62
256
6
ByLayer
370
13
48
1
60
0
100
AcDbCircle
39
0
10
247.546286
20
23.501491
30
0
40
0.2
210
0
220
0
230
1
100
AcDbArc
50
8.974534
51
93
0
ARC
5
192
100
AcDbEntity
8
1
62
256
6
ByLayer
370
13
48
1
60
0
100
AcDbCircle
39
0
10
247.692333
20
10.680392
30
0
40
0.2
210
0
220
0
230
1
100
AcDbArc
50
273
51
352.543899
0
ARC
5
193
100
AcDbEntity
8
1
62
256
6
ByLayer
370
13
48
1
60
0
100
AcDbCircle
39
0
10
234.925347
20
22.605487
30
0
40
0.2
210
0
220
0
230
1
100
AcDbArc
50
76.847115
51
93
0
ARC
5
194
100
AcDbEntity
8
1
62
256
6
ByLayer
370
13
48
1
60
0
100
AcDbCircle
39
0
10
235.071393
20
9.784388
30
0
40
0.2
210
0
220
0
230
1
100
AcDbArc
50
273
51
304.880681
0
ARC
5
195
100
AcDbEntity
8
1
62
256
6
ByLayer
370
13
48
1
60
0
100
AcDbCircle
39
0
10
7.5
20
-30
30
0
40
0.5
210
0
220
0
230
1
100
AcDbArc
50
90
51
180
0
ARC
5
196
100
AcDbEntity
8
1
62
256
6
ByLayer
370
13
48
1
60
0
100
AcDbCircle
39
0
10
7.5
20
30
30
0
40
0.5
210
0
220
0
230
1
100
AcDbArc
50
180
51
270
0
ELLIPSE
5
197
100
AcDbEntity
8
1
62
256
6
ByLayer
370
18
48
1
60
0
100
AcDbEllipse
10
241.281937
20
16.641529
30
0
11
0.0877359970456743
21
-1.67410255206257
31
0
210
0
220
0
230
1
40
0.995725
41
-0.523598775598308
42
0.523598775598308
0
ELLIPSE
5
198
100
AcDbEntity
8
1
62
256
6
ByLayer
370
18
48
1
60
0
100
AcDbEllipse
10
242.452799
20
15.960224
30
0
11
-0.177667934094749
21
-0.351309387086966
31
0
210
0
220
0
230
1
40
0.48867
41
-2.85504177777499
42
-1.57317835190433
0
ELLIPSE
5
199
100
AcDbEntity
8
1
62
256
6
ByLayer
370
18
48
1
60
0
100
AcDbEllipse
10
241.136653
20
16.633915
30
0
11
-0.0675290843402675
21
1.28853168869383
31
0
210
0
220
0
230
1
40
0.995725
41
-3.03890209425327
42
-2.09439510239319
0
ELLIPSE
5
19A
100
AcDbEntity
8
1
62
256
6
ByLayer
370
18
48
1
60
0
100
AcDbEllipse
10
242.611687
20
16.711219
30
0
11
-0.0206256003553256
21
0.393559899646768
31
0
210
0
220
0
230
1
40
0.48763
41
-2.94566969474579
42
-0.32042239968546
0
ELLIPSE
5
19B
100
AcDbEntity
8
1
62
256
6
ByLayer
370
18
48
1
60
0
100
AcDbEllipse
10
241.059023
20
18.115183
30
0
11
-0.391877312293014
21
-0.0205374196885208
31
0
210
0
220
0
230
1
40
0.491826
41
0.288932900934343
42
1.5707963267949
0
ELLIPSE
5
19C
100
AcDbEntity
8
1
62
256
6
ByLayer
370
18
48
1
60
0
100
AcDbEllipse
10
241.281937
20
16.641529
30
0
11
0.0877359970456743
21
-1.67410255206257
31
0
210
0
220
0
230
1
40
0.995725
41
0.523598775598308
42
1.5707963267949
0
ELLIPSE
5
19D
100
AcDbEntity
8
1
62
256
6
ByLayer
370
18
48
1
60
0
100
AcDbEllipse
10
241.281937
20
16.641529
30
0
11
0.0877359970456743
21
-1.67410255206257
31
0
210
0
220
0
230
1
40
0.995725
41
-1.5707963267949
42
-0.523598775598308
0
ELLIPSE
5
19E
100
AcDbEntity
8
1
62
256
6
ByLayer
370
18
48
1
60
0
100
AcDbEllipse
10
242.375169
20
17.441491
30
0
11
-0.213416480926092
21
0.330813521386241
31
0
210
0
220
0
230
1
40
0.48867
41
1.57317835191168
42
2.85504177777613
0
ELLIPSE
5
19F
100
AcDbEntity
8
1
62
256
6
ByLayer
370
18
48
1
60
0
100
AcDbEllipse
10
241.281937
20
16.641529
30
0
11
0.0877359970456743
21
-1.67410255206257
31
0
210
0
220
0
230
1
40
0.995725
41
1.5707963267949
42
2.6179938779915
0
ELLIPSE
5
1A0
100
AcDbEntity
8
1
62
256
6
ByLayer
370
18
48
1
60
0
100
AcDbEllipse
10
242.452799
20
15.960224
30
0
11
-0.177667934094863
21
-0.351309387091469
31
0
210
0
220
0
230
1
40
0.48867
41
-1.57317835191593
42
-0.291314926056086
0
ELLIPSE
5
1A1
100
AcDbEntity
8
1
62
256
6
ByLayer
370
18
48
1
60
0
100
AcDbEllipse
10
241.136653
20
16.633915
30
0
11
0.067529084340273
21
-1.28853168869383
31
0
210
0
220
0
230
1
40
0.995725
41
1.0471975511966
42
2.09439510239317
0
ELLIPSE
5
1A2
100
AcDbEntity
8
1
62
256
6
ByLayer
370
18
48
1
60
0
100
AcDbEllipse
10
241.281937
20
16.641529
30
0
11
0.0877359970456743
21
-1.67410255206257
31
0
210
0
220
0
230
1
40
0.995725
41
2.6179938779915
42
-2.61799387799147
0
ELLIPSE
5
1A3
100
AcDbEntity
8
1
62
256
6
ByLayer
370
18
48
1
60
0
100
AcDbEllipse
10
241.281937
20
16.641529
30
0
11
0.0877359970456743
21
-1.67410255206257
31
0
210
0
220
0
230
1
40
0.995725
41
-2.61799387799147
42
-1.5707963267949
0
ELLIPSE
5
1A4
100
AcDbEntity
8
1
62
256
6
ByLayer
370
18
48
1
60
0
100
AcDbEllipse
10
241.136653
20
16.633915
30
0
11
0.067529084340273
21
-1.28853168869383
31
0
210
0
220
0
230
1
40
0.995725
41
-0.773927979467122
42
0
0
ELLIPSE
5
1A5
100
AcDbEntity
8
1
62
256
6
ByLayer
370
18
48
1
60
0
100
AcDbEllipse
10
241.281937
20
16.641529
30
0
11
-0.0942047212372952
21
1.79753316255823
31
0
210
0
220
0
230
1
40
0.995725
41
0
42
6.28318530717959
0
ELLIPSE
5
1A6
100
AcDbEntity
8
1
62
256
6
ByLayer
370
18
48
1
60
0
100
AcDbEllipse
10
241.136653
20
16.633915
30
0
11
0.067529084340273
21
-1.28853168869383
31
0
210
0
220
0
230
1
40
0.995725
41
-1.89415109854867
42
-1.23150380240864
0
ELLIPSE
5
1A7
100
AcDbEntity
8
1
62
256
6
ByLayer
370
18
48
1
60
0
100
AcDbEllipse
10
241.136653
20
16.633915
30
0
11
0.067529084340273
21
-1.28853168869383
31
0
210
0
220
0
230
1
40
0.995725
41
2.0943951023932
42
3.14159265358979
0
ELLIPSE
5
1A8
100
AcDbEntity
8
1
62
256
6
ByLayer
370
18
48
1
60
0
100
AcDbEllipse
10
242.375169
20
17.441491
30
0
11
-0.213416480929488
21
0.330813521389674
31
0
210
0
220
0
230
1
40
0.48867
41
0.291314926053758
42
1.57317835190616
0
ELLIPSE
5
1A9
100
AcDbEntity
8
1
62
256
6
ByLayer
370
18
48
1
60
0
100
AcDbEllipse
10
241.941404
20
15.389665
30
0
11
-0.328810806111004
21
-0.214953577526595
31
0
210
0
220
0
230
1
40
0.490768
41
0.673401308867879
42
-2.94809584055996
0
ELLIPSE
5
1AA
100
AcDbEntity
8
1
62
256
6
ByLayer
370
18
48
1
60
0
100
AcDbEllipse
10
241.806936
20
17.955468
30
0
11
-0.349478313243788
21
0.179405951069365
31
0
210
0
220
0
230
1
40
0.490768
41
2.94809584056047
42
-0.625095735375452
0
ELLIPSE
5
1AB
100
AcDbEntity
8
1
62
256
6
ByLayer
370
18
48
1
60
0
100
AcDbEllipse
10
241.136653
20
16.633915
30
0
11
0.067529084340273
21
-1.28853168869383
31
0
210
0
220
0
230
1
40
0.995725
41
3.14159265358979
42
-2.34982975905692
0
ELLIPSE
5
1AC
100
AcDbEntity
8
1
62
256
6
ByLayer
370
18
48
1
60
0
100
AcDbEllipse
10
240.46637
20
15.312362
30
0
11
-0.349478313243799
21
0.179405951069336
31
0
210
0
220
0
230
1
40
0.490768
41
2.51649656479985
42
-2.94329838355338
0
ELLIPSE
5
1AD
100
AcDbEntity
8
1
62
256
6
ByLayer
370
18
48
1
60
0
100
AcDbEllipse
10
241.208142
20
16.637662
30
0
11
-0.149157475292384
21
2.84609417405054
31
0
210
0
220
0
230
1
40
0.995725
41
9.2516345868695E-05
42
3.1415869351611
0
ELLIPSE
5
1AE
100
AcDbEntity
8
1
62
256
6
ByLayer
370
18
48
1
60
0
100
AcDbEllipse
10
241.214283
20
15.152648
30
0
11
-0.391877312293462
21
-0.0205374196886306
31
0
210
0
220
0
230
1
40
0.491826
41
-1.5707963267949
42
-0.288932900934251
0
ELLIPSE
5
1AF
100
AcDbEntity
8
1
62
256
6
ByLayer
370
18
48
1
60
0
100
AcDbEllipse
10
241.274632
20
16.641146
30
0
11
-0.149157475292384
21
2.84609417405054
31
0
210
0
220
0
230
1
40
0.995725
41
0
42
6.28318530717959
0
ELLIPSE
5
1B0
100
AcDbEntity
8
1
62
256
6
ByLayer
370
18
48
1
60
0
100
AcDbEllipse
10
240.331902
20
17.878165
30
0
11
-0.328810806110978
21
-0.214953577526593
31
0
210
0
220
0
230
1
40
0.490768
41
2.94329838355308
42
-2.46819100314326
0
ELLIPSE
5
1B1
100
AcDbEntity
8
1
62
256
6
ByLayer
370
18
48
1
60
0
100
AcDbEllipse
10
242.204527
20
-6.247398
30
0
11
2
21
0
31
0
210
0
220
0
230
1
40
0.994968
41
0.445811882693029
42
2.98549519137788
0
ELLIPSE
5
1B2
100
AcDbEntity
8
1
62
256
6
ByLayer
370
18
48
1
60
0
100
AcDbEllipse
10
242.204527
20
-6.197303
30
0
11
-1.5
21
1.51595858262354E-15
31
0
210
0
220
0
230
1
40
0.994968
41
-3.02918243990069
42
0
0
ELLIPSE
5
1B3
100
AcDbEntity
8
1
62
256
6
ByLayer
370
18
48
1
60
0
100
AcDbEllipse
10
242.204527
20
-6.197303
30
0
11
-1.5
21
1.51595858262354E-15
31
0
210
0
220
0
230
1
40
0.994968
41
0
42
0.231496216527584
0
ELLIPSE
5
1B4
100
AcDbEntity
8
1
62
256
6
ByLayer
370
18
48
1
60
0
100
AcDbEllipse
10
242.204527
20
-6.952914
30
0
11
-2.35
21
2.37500177944355E-15
31
0
210
0
220
0
230
1
40
0.994968
41
-0.653156674233248
42
-0.50825085611364
0
ELLIPSE
5
1B5
100
AcDbEntity
8
1
62
256
6
ByLayer
370
18
48
1
60
0
100
AcDbEllipse
10
242.204527
20
-7.051952
30
0
11
-2.35
21
2.37500177944355E-15
31
0
210
0
220
0
230
1
40
0.994968
41
-0.609665284191395
42
-0.532500096370858
0
ELLIPSE
5
1B6
100
AcDbEntity
8
1
62
256
6
ByLayer
370
13
48
1
60
0
100
AcDbEllipse
10
247.692333
20
10.680392
30
0
11
0.0455100421908601
21
0.194753269702427
31
0
210
0
220
0
230
1
40
0.088753
41
-3.11589220193367
42
-1.54509587511485
0
ELLIPSE
5
1B7
100
AcDbEntity
8
1
62
256
6
ByLayer
370
13
48
1
60
0
100
AcDbEllipse
10
233.931715
20
10.263393
30
0
11
-0.0915879234251477
21
1.74760168582051
31
0
210
0
220
0
230
1
40
0.995725
41
3.11423538092936
42
3.13286600732987
0
ELLIPSE
5
1B8
100
AcDbEntity
8
1
62
256
6
ByLayer
370
13
48
1
60
0
100
AcDbEllipse
10
241.633584
20
10.446443
30
0
11
0.010467191248589
21
-0.199725906950915
31
0
210
0
220
0
230
1
40
0.092371
41
0
42
1.5707963267949
0
ELLIPSE
5
1B9
100
AcDbEntity
8
1
62
256
6
ByLayer
370
13
48
1
60
0
100
AcDbEllipse
10
248.364877
20
24.709933
30
0
11
0.0104671912485892
21
-0.199725906950916
31
0
210
0
220
0
230
1
40
0.995725
41
3.13286600733166
42
-1.87965793449016
0
ELLIPSE
5
1BA
100
AcDbEntity
8
1
62
256
6
ByLayer
370
13
48
1
60
0
100
AcDbEllipse
10
247.692333
20
10.680392
30
0
11
-0.198308915233049
21
0.0259533069008838
31
0
210
0
220
0
230
1
40
0.016833
41
-3.14144018090374
42
-1.66175841710548
0
ELLIPSE
5
1BB
100
AcDbEntity
8
1
62
256
6
ByLayer
370
13
48
1
60
0
100
AcDbEllipse
10
250.134962
20
17.205634
30
0
11
-0.0287847759336179
21
0.549246244115015
31
0
210
0
220
0
230
1
40
0.995725
41
-1.75405589825442
42
-1.46607657167527
0
ELLIPSE
5
1BC
100
AcDbEntity
8
1
62
256
6
ByLayer
370
13
48
1
60
0
100
AcDbEllipse
10
234.595442
20
16.107546
30
0
11
-0.0261679781214708
21
0.499314767377288
31
0
210
0
220
0
230
1
40
0.995725
41
1.38753675533554
42
1.67551608191464
0
ELLIPSE
5
1BD
100
AcDbEntity
8
1
62
256
6
ByLayer
370
13
48
1
60
0
100
AcDbEllipse
10
248.662904
20
23.021277
30
0
11
0.0994383168615969
21
-1.89739611603369
31
0
210
0
220
0
230
1
40
0.995725
41
3.11423538092929
42
3.13286600732986
0
ELLIPSE
5
1BE
100
AcDbEntity
8
1
62
256
6
ByLayer
370
13
48
1
60
0
100
AcDbEllipse
10
231.91667
20
16.150946
30
0
11
-0.148731686424787
21
0.0194649801756628
31
0
210
0
220
0
230
1
40
0.016833
41
0.263181912489624
42
1.47983423648416
0
ELLIPSE
5
1BF
100
AcDbEntity
8
1
62
256
6
ByLayer
370
13
48
1
60
0
100
AcDbEllipse
10
236.257107
20
8.041764
30
0
11
0.107288710298038
21
-2.04719054624687
31
0
210
0
220
0
230
1
40
0.995725
41
-2.36773979636935
42
-1.87965793449082
0
ELLIPSE
5
1C0
100
AcDbEntity
8
1
62
256
6
ByLayer
370
13
48
1
60
0
100
AcDbEllipse
10
234.085272
20
16.028473
30
0
11
-0.197551554484215
21
-0.0311990916673889
31
0
210
0
220
0
230
1
40
0.009655
41
0.0919985744717376
42
1.66279490126937
0
ELLIPSE
5
1C1
100
AcDbEntity
8
1
62
256
6
ByLayer
370
13
48
1
60
0
100
AcDbEllipse
10
234.928933
20
24.645007
30
0
11
-1.72936595006327
21
1.21940905087847
31
0
210
0
220
0
230
1
40
0.74335
41
1.16175109669901
42
1.98390815207478
0
ELLIPSE
5
1C2
100
AcDbEntity
8
1
62
256
6
ByLayer
370
13
48
1
60
0
100
AcDbEllipse
10
234.925347
20
22.605487
30
0
11
-0.0455100421908498
21
-0.194753269702429
31
0
210
0
220
0
230
1
40
0.088753
41
1.59649677847509
42
-3.11589220188231
0
ELLIPSE
5
1C3
100
AcDbEntity
8
1
62
256
6
ByLayer
370
13
48
1
60
0
100
AcDbEllipse
10
233.755897
20
17.261162
30
0
11
-0.457939617125739
21
8.73800842910252
31
0
210
0
220
0
230
1
40
0.995725
41
3.06423017113069
42
3.11423538092938
0
ELLIPSE
5
1C4
100
AcDbEntity
8
1
62
256
6
ByLayer
370
13
48
1
60
0
100
AcDbEllipse
10
248.532407
20
17.257406
30
0
11
0.197551554484216
21
0.0311990916673861
31
0
210
0
220
0
230
1
40
0.009655
41
-1.47879775232198
42
0.000129454865050185
0
ELLIPSE
5
1C5
100
AcDbEntity
8
1
62
256
6
ByLayer
370
13
48
1
60
0
100
AcDbEllipse
10
248.618949
20
24.77072
30
0
11
-0.00373239490690377
21
0.149953556904326
31
0
210
0
220
0
230
1
40
0.092336
41
0.0025375354558029
42
1.57333386224946
0
ELLIPSE
5
1C6
100
AcDbEntity
8
1
62
256
6
ByLayer
370
13
48
1
60
0
100
AcDbEllipse
10
235.071393
20
9.784388
30
0
11
0.010467191248589
21
-0.199725906950915
31
0
210
0
220
0
230
1
40
0.995725
41
-1.46607657167604
42
-1.72590776648407E-05
0
ELLIPSE
5
1C7
100
AcDbEntity
8
1
62
256
6
ByLayer
370
13
48
1
60
0
100
AcDbEllipse
10
232.738912
20
22.398681
30
0
11
0.00785039343644185
21
-0.149794430213186
31
0
210
0
220
0
230
1
40
0.995725
41
-3.03687289847162
42
-1.75405589825509
0
ELLIPSE
5
1C8
100
AcDbEntity
8
1
62
256
6
ByLayer
370
13
48
1
60
0
100
AcDbEllipse
10
249.880274
20
10.899002
30
0
11
-0.0435637040550202
21
-0.259139630111396
31
0
210
0
220
0
230
1
40
0.947521
41
0.308152981472289
42
1.60922962168561
0
ELLIPSE
5
1C9
100
AcDbEntity
8
1
62
256
6
ByLayer
370
13
48
1
60
0
100
AcDbEllipse
10
249.581909
20
24.30672
30
0
11
0.148163665863162
21
0.0233993187505396
31
0
210
0
220
0
230
1
40
0.009655
41
0.0919985744711225
42
1.66279490126845
0
ELLIPSE
5
1CA
100
AcDbEntity
8
1
62
256
6
ByLayer
370
13
48
1
60
0
100
AcDbEllipse
10
241.249051
20
16.639806
30
0
11
0.161488764830072
21
-3.08138919525489
31
0
210
0
220
0
230
1
40
0.995725
41
-0.853733431166173
42
0
0
ELLIPSE
5
1CB
100
AcDbEntity
8
1
62
256
6
ByLayer
370
13
48
1
60
0
100
AcDbEllipse
10
241.249051
20
16.639806
30
0
11
0.161488764830072
21
-3.08138919525489
31
0
210
0
220
0
230
1
40
0.995725
41
0
42
-2.28787053660726
0
ELLIPSE
5
1CC
100
AcDbEntity
8
1
62
256
6
ByLayer
370
13
48
1
60
0
100
AcDbEllipse
10
248.059135
20
17.180267
30
0
11
-0.0261679781214708
21
0.499314767377288
31
0
210
0
220
0
230
1
40
0.995725
41
-1.75405589825431
42
-1.46607657167521
0
ELLIPSE
5
1CD
100
AcDbEntity
8
1
62
256
6
ByLayer
370
13
48
1
60
0
100
AcDbEllipse
10
234.580523
20
22.691698
30
0
11
-0.0427993177777473
21
-0.15858092515424
31
0
210
0
220
0
230
1
40
0.080206
41
-3.11537766648077
42
-1.54458133968265
0
ELLIPSE
5
1CE
100
AcDbEntity
8
1
62
256
6
ByLayer
370
13
48
1
60
0
100
AcDbEllipse
10
234.576993
20
16.106579
30
0
11
0.036635169370062
21
-0.699040674328202
31
0
210
0
220
0
230
1
40
0.995725
41
-1.75405589825427
42
-1.46607657167516
0
ELLIPSE
5
1CF
100
AcDbEntity
8
1
62
256
6
ByLayer
370
13
48
1
60
0
100
AcDbEllipse
10
246.738288
20
8.59106
30
0
11
-1.40394107570582
21
-1.5083737963618
31
0
210
0
220
0
230
1
40
0.735668
41
2.56900210140002
42
-2.89202615041451
0
ELLIPSE
5
1D0
100
AcDbEntity
8
1
62
256
6
ByLayer
370
13
48
1
60
0
100
AcDbEllipse
10
246.660053
20
8.58696
30
0
11
0.0942047212373021
21
-1.79753316255823
31
0
210
0
220
0
230
1
40
0.995725
41
2.08803488229786
42
2.74715904466467
0
ELLIPSE
5
1D1
100
AcDbEntity
8
1
62
256
6
ByLayer
370
13
48
1
60
0
100
AcDbEllipse
10
247.790539
20
23.869891
30
0
11
0.00523359562429529
21
-0.099862953475471
31
0
210
0
220
0
230
1
40
0.995725
41
-2.37978474864572
42
-1.46607657167448
0
ELLIPSE
5
1D2
100
AcDbEntity
8
1
62
256
6
ByLayer
370
13
48
1
60
0
100
AcDbEllipse
10
233.553603
20
9.063867
30
0
11
-0.0287847759336176
21
0.549246244115011
31
0
210
0
220
0
230
1
40
0.995725
41
1.67551608191463
42
3.0642301711306
0
ELLIPSE
5
1D3
100
AcDbEntity
8
1
62
256
6
ByLayer
370
13
48
1
60
0
100
AcDbEllipse
10
248.838721
20
16.023508
30
0
11
0.465790010562217
21
-8.88780285931571
31
0
210
0
220
0
230
1
40
0.995725
41
3.06423017113063
42
3.11423538092933
0
ELLIPSE
5
1D4
100
AcDbEntity
8
1
62
256
6
ByLayer
370
13
48
1
60
0
100
AcDbEllipse
10
232.734299
20
22.39844
30
0
11
-0.148731686424787
21
0.0194649801756628
31
0
210
0
220
0
230
1
40
0.016833
41
-0.0909620903084588
42
1.47983423648171
0
ELLIPSE
5
1D5
100
AcDbEntity
8
1
62
256
6
ByLayer
370
13
48
1
60
0
100
AcDbEllipse
10
241.22396
20
16.638491
30
0
11
0.156043507061199
21
-2.97748748746711
31
0
210
0
220
0
230
1
40
0.995725
41
0
42
6.28318530717959
0
ELLIPSE
5
1D6
100
AcDbEntity
8
1
62
256
6
ByLayer
370
13
48
1
60
0
100
AcDbEllipse
10
234.296351
20
8.563008
30
0
11
-0.14513953236317
21
0.0378750068699708
31
0
210
0
220
0
230
1
40
0.028078
41
1.4826478747345
42
3.05344420152625
0
ELLIPSE
5
1D7
100
AcDbEntity
8
1
62
256
6
ByLayer
370
13
48
1
60
0
100
AcDbEllipse
10
234.306759
20
8.561722
30
0
11
0.012769052312559
21
-0.243648032548682
31
0
210
0
220
0
230
1
40
0.995725
41
0.174532925198822
42
1.26193471909821
0
ELLIPSE
5
1D8
100
AcDbEntity
8
1
62
256
6
ByLayer
370
13
48
1
60
0
100
AcDbEllipse
10
232.737405
20
22.386877
30
0
11
-0.0435637040641019
21
-0.259139630108632
31
0
210
0
220
0
230
1
40
0.947521
41
-2.83343967208322
42
-1.53236303186547
0
ELLIPSE
5
1D9
100
AcDbEntity
8
1
62
256
6
ByLayer
370
13
48
1
60
0
100
AcDbEllipse
10
233.553871
20
8.514773
30
0
11
-0.00379960965785788
21
-0.149951868832795
31
0
210
0
220
0
230
1
40
0.092094
41
-1.56362690568473
42
-0.0717426686096135
0
ELLIPSE
5
1DA
100
AcDbEntity
8
1
62
256
6
ByLayer
370
13
48
1
60
0
100
AcDbEllipse
10
246.342123
20
25.243147
30
0
11
-0.0994383168615891
21
1.89739611603369
31
0
210
0
220
0
230
1
40
0.995725
41
-2.37978474864576
42
-1.87965793449003
0
ELLIPSE
5
1DB
100
AcDbEntity
8
1
62
256
6
ByLayer
370
13
48
1
60
0
100
AcDbEllipse
10
234.558545
20
16.105612
30
0
11
0.0444855628065039
21
-0.848835104541388
31
0
210
0
220
0
230
1
40
0.995725
41
-1.75405589825425
42
-1.46607657167515
0
ELLIPSE
5
1DC
100
AcDbEntity
8
1
62
256
6
ByLayer
370
13
48
1
60
0
100
AcDbEllipse
10
249.045628
20
24.221045
30
0
11
0.0366351693700618
21
-0.699040674328197
31
0
210
0
220
0
230
1
40
0.995725
41
1.67551608191537
42
3.06423017113133
0
ELLIPSE
5
1DD
100
AcDbEntity
8
1
62
256
6
ByLayer
370
13
48
1
60
0
100
AcDbEllipse
10
246.323675
20
25.24218
30
0
11
0.107288710298038
21
-2.04719054624687
31
0
210
0
220
0
230
1
40
0.995725
41
0.773852857220382
42
1.26193471909893
0
ELLIPSE
5
1DE
100
AcDbEntity
8
1
62
256
6
ByLayer
370
13
48
1
60
0
100
AcDbEllipse
10
234.08337
20
16.171952
30
0
11
-0.198308915233049
21
0.0259533069008838
31
0
210
0
220
0
230
1
40
0.016833
41
-1.66175841710477
42
-0.0909620903084502
0
ELLIPSE
5
1DF
100
AcDbEntity
8
1
62
256
6
ByLayer
370
13
48
1
60
0
100
AcDbEllipse
10
248.649067
20
23.020552
30
0
11
-0.0915879234251477
21
1.74760168582051
31
0
210
0
220
0
230
1
40
0.995725
41
-0.0273572726605339
42
-0.00872664625997129
0
ELLIPSE
5
1E0
100
AcDbEntity
8
1
62
256
6
ByLayer
370
13
48
1
60
0
100
AcDbEllipse
10
248.31092
20
24.724157
30
0
11
0.012769052312559
21
-0.243648032548682
31
0
210
0
220
0
230
1
40
0.995725
41
-2.96705972838933
42
-1.87965793449
0
ELLIPSE
5
1E1
100
AcDbEntity
8
1
62
256
6
ByLayer
370
13
48
1
60
0
100
AcDbEllipse
10
249.874155
20
10.886955
30
0
11
0.148731686424788
21
-0.0194649801756525
31
0
210
0
220
0
230
1
40
0.016833
41
-1.66175841710356
42
-0.0909620903112785
0
ELLIPSE
5
1E2
100
AcDbEntity
8
1
62
256
6
ByLayer
370
13
48
1
60
0
100
AcDbEllipse
10
247.546286
20
23.501491
30
0
11
0.010467191248589
21
-0.199725906950915
31
0
210
0
220
0
230
1
40
0.995725
41
3.14157394910468
42
-2.58708947813121
0
ELLIPSE
5
1E3
100
AcDbEntity
8
1
62
256
6
ByLayer
370
13
48
1
60
0
100
AcDbEllipse
10
234.250373
20
8.525751
30
0
11
0.00653729335064122
21
-0.149857478277354
31
0
210
0
220
0
230
1
40
0.092367
41
-1.56998679074977
42
-0.0232440763789894
0
ELLIPSE
5
1E4
100
AcDbEntity
8
1
62
256
6
ByLayer
370
13
48
1
60
0
100
AcDbEllipse
10
234.643186
20
22.751785
30
0
11
0.00523359562429394
21
-0.0998629534754454
31
0
210
0
220
0
230
1
40
0.995725
41
1.38753675533488
42
-3.03687289847066
0
ELLIPSE
5
1E5
100
AcDbEntity
8
1
62
256
6
ByLayer
370
13
48
1
60
0
100
AcDbEllipse
10
233.774346
20
17.262129
30
0
11
0.465790010562217
21
-8.88780285931571
31
0
210
0
220
0
230
1
40
0.995725
41
-0.0773624824599275
42
-0.0273572726612321
0
ELLIPSE
5
1E6
100
AcDbEntity
8
1
62
256
6
ByLayer
370
13
48
1
60
0
100
AcDbEllipse
10
250.148799
20
17.206359
30
0
11
0.036635169370062
21
-0.699040674328201
31
0
210
0
220
0
230
1
40
0.995725
41
1.3875367553354
42
1.67551608191451
0
ELLIPSE
5
1E7
100
AcDbEntity
8
1
62
256
6
ByLayer
370
13
48
1
60
0
100
AcDbEllipse
10
248.843333
20
16.02375
30
0
11
0.465790010562217
21
-8.88780285931571
31
0
210
0
220
0
230
1
40
0.995725
41
3.06423017113146
42
3.11423538093016
0
ELLIPSE
5
1E8
100
AcDbEntity
8
1
62
256
6
ByLayer
370
13
48
1
60
0
100
AcDbEllipse
10
232.734299
20
22.39844
30
0
11
0.0235312926467981
21
-0.148142763125205
31
0
210
0
220
0
230
1
40
0.091865
41
-3.05123893763379
42
-1.58049283525214
0
ELLIPSE
5
1E9
100
AcDbEntity
8
1
62
256
6
ByLayer
370
13
48
1
60
0
100
AcDbEllipse
10
248.040686
20
17.1793
30
0
11
0.036635169370062
21
-0.699040674328202
31
0
210
0
220
0
230
1
40
0.995725
41
1.38753675533548
42
1.67551608191455
0
ELLIPSE
5
1EA
100
AcDbEntity
8
1
62
256
6
ByLayer
370
13
48
1
60
0
100
AcDbEllipse
10
248.667516
20
23.021519
30
0
11
0.0994383168615969
21
-1.89739611603369
31
0
210
0
220
0
230
1
40
0.995725
41
3.1142353809301
42
3.13286600733064
0
ELLIPSE
5
1EB
100
AcDbEntity
8
1
62
256
6
ByLayer
370
13
48
1
60
0
100
AcDbEllipse
10
234.580523
20
22.691698
30
0
11
-0.157381426433032
21
-0.0466723701711185
31
0
210
0
220
0
230
1
40
0.019797
41
-3.05943361682147
42
-1.48863729024676
0
ELLIPSE
5
1EC
100
AcDbEntity
8
1
62
256
6
ByLayer
370
13
48
1
60
0
100
AcDbEllipse
10
233.733221
20
16.217471
30
0
11
-0.148731686424787
21
0.0194649801756628
31
0
210
0
220
0
230
1
40
0.016833
41
1.47983423648359
42
3.05063056327851
0
ELLIPSE
5
1ED
100
AcDbEntity
8
1
62
256
6
ByLayer
370
13
48
1
60
0
100
AcDbEllipse
10
233.572052
20
9.064833
30
0
11
0.0366351693700618
21
-0.699040674328197
31
0
210
0
220
0
230
1
40
0.995725
41
-1.46607657167597
42
-0.0773624824600197
0
ELLIPSE
5
1EE
100
AcDbEntity
8
1
62
256
6
ByLayer
370
13
48
1
60
0
100
AcDbEllipse
10
236.275556
20
8.042731
30
0
11
-0.0994383168615891
21
1.89739611603369
31
0
210
0
220
0
230
1
40
0.995725
41
0.761807904942428
42
1.26193471909816
0
ELLIPSE
5
1EF
100
AcDbEntity
8
1
62
256
6
ByLayer
370
13
48
1
60
0
100
AcDbEllipse
10
235.071393
20
9.784388
30
0
11
0.11437386031597
21
-0.164068949153772
31
0
210
0
220
0
230
1
40
0.07853
41
3.35013625347788E-05
42
1.52199123907656
0
ELLIPSE
5
1F0
100
AcDbEntity
8
1
62
256
6
ByLayer
370
13
48
1
60
0
100
AcDbEllipse
10
248.027931
20
10.593697
30
0
11
-0.15738142640914
21
-0.0466723701634192
31
0
210
0
220
0
230
1
40
0.019797
41
-1.48863729000594
42
0.0821590367507555
0
ELLIPSE
5
1F1
100
AcDbEntity
8
1
62
256
6
ByLayer
370
13
48
1
60
0
100
AcDbEllipse
10
248.346428
20
24.708966
30
0
11
-0.00261679781214713
21
0.0499314767377297
31
0
210
0
220
0
230
1
40
0.995725
41
-0.00872664625809204
42
1.26193471909935
0
ELLIPSE
5
1F2
100
AcDbEntity
8
1
62
256
6
ByLayer
370
13
48
1
60
0
100
AcDbEllipse
10
248.358082
20
24.759644
30
0
11
-0.00653729335064168
21
0.149857478277354
31
0
210
0
220
0
230
1
40
0.092367
41
0.000809536043732892
42
1.57160586284002
0
ELLIPSE
5
1F3
100
AcDbEntity
8
1
62
256
6
ByLayer
370
13
48
1
60
0
100
AcDbEllipse
10
234.02195
20
8.515787
30
0
11
0.00653729335064122
21
-0.149857478277354
31
0
210
0
220
0
230
1
40
0.092367
41
-1.56998679074977
42
0.000809536043604682
0
ELLIPSE
5
1F4
100
AcDbEntity
8
1
62
256
6
ByLayer
370
13
48
1
60
0
100
AcDbEllipse
10
249.425717
20
9.927606
30
0
11
-0.0435637040509149
21
-0.25913963011256
31
0
210
0
220
0
230
1
40
0.947521
41
0.308152981457767
42
1.28542437775667
0
ELLIPSE
5
1F5
100
AcDbEntity
8
1
62
256
6
ByLayer
370
13
48
1
60
0
100
AcDbEllipse
10
236.270944
20
8.04249
30
0
11
-0.0994383168615891
21
1.89739611603369
31
0
210
0
220
0
230
1
40
0.995725
41
0.761807904943253
42
1.26193471909899
0
ELLIPSE
5
1F6
100
AcDbEntity
8
1
62
256
6
ByLayer
370
13
48
1
60
0
100
AcDbEllipse
10
250.691784
20
17.134449
30
0
11
0.148731686424788
21
-0.0194649801756525
31
0
210
0
220
0
230
1
40
0.016833
41
-1.66175841710582
42
-0.0909620903140981
0
ELLIPSE
5
1F7
100
AcDbEntity
8
1
62
256
6
ByLayer
370
13
48
1
60
0
100
AcDbEllipse
10
248.027931
20
10.593697
30
0
11
-0.0427993177804226
21
-0.158580925162356
31
0
210
0
220
0
230
1
40
0.080206
41
-1.54458133963486
42
0.0262149871071252
0
ELLIPSE
5
1F8
100
AcDbEntity
8
1
62
256
6
ByLayer
370
13
48
1
60
0
100
AcDbEllipse
10
233.736455
20
15.973557
30
0
11
-0.148163665863161
21
-0.0233993187505417
31
0
210
0
220
0
230
1
40
0.009655
41
-3.04959407911989
42
-1.4787977523216
0
ELLIPSE
5
1F9
100
AcDbEntity
8
1
62
256
6
ByLayer
370
13
48
1
60
0
100
AcDbEllipse
10
247.974494
20
10.534094
30
0
11
0.00523359562429394
21
-0.0998629534754454
31
0
210
0
220
0
230
1
40
0.995725
41
-1.75405589825318
42
0.104719755120861
0
ELLIPSE
5
1FA
100
AcDbEntity
8
1
62
256
6
ByLayer
370
13
48
1
60
0
100
AcDbEllipse
10
248.097982
20
24.712997
30
0
11
-0.279378559901015
21
-0.215283244306334
31
0
210
0
220
0
230
1
40
0.479615
41
-2.3598338647023
42
-1.27243207082158
0
ELLIPSE
5
1FB
100
AcDbEntity
8
1
62
256
6
ByLayer
370
13
48
1
60
0
100
AcDbEllipse
10
248.872
20
17.311838
30
0
11
0.148163665863162
21
0.0233993187505396
31
0
210
0
220
0
230
1
40
0.009655
41
1.66279490126921
42
2.85602956830955
0
ELLIPSE
5
1FC
100
AcDbEntity
8
1
62
256
6
ByLayer
370
13
48
1
60
0
100
AcDbEllipse
10
247.546286
20
23.501491
30
0
11
-0.114373860315983
21
0.164068949153762
31
0
210
0
220
0
230
1
40
0.07853
41
-1.61960141451338
42
-0.0488050876939189
0
ELLIPSE
5
1FD
100
AcDbEntity
8
1
62
256
6
ByLayer
370
13
48
1
60
0
100
AcDbEllipse
10
248.312104
20
24.722387
30
0
11
0.14513953236317
21
-0.03787500686997
31
0
210
0
220
0
230
1
40
0.028078
41
3.05344420152669
42
-1.6589447788559
0
ELLIPSE
5
1FE
100
AcDbEntity
8
1
62
256
6
ByLayer
370
13
48
1
60
0
100
AcDbEllipse
10
235.071393
20
9.784388
30
0
11
0.197551554484216
21
0.0311990916673861
31
0
210
0
220
0
230
1
40
0.009655
41
-3.04959407911251
42
-1.47879775232099
0
ELLIPSE
5
1FF
100
AcDbEntity
8
1
62
256
6
ByLayer
370
13
48
1
60
0
100
AcDbEllipse
10
248.534309
20
17.113927
30
0
11
0.198308915233051
21
-0.02595330690087
31
0
210
0
220
0
230
1
40
0.016833
41
0.000152472619568548
42
1.47983423648318
0
ELLIPSE
5
200
100
AcDbEntity
8
1
62
256
6
ByLayer
370
13
48
1
60
0
100
AcDbEllipse
10
248.875234
20
17.067924
30
0
11
0.148731686424788
21
-0.0194649801756525
31
0
210
0
220
0
230
1
40
0.016833
41
-2.85804977878646
42
-1.6617584171045
0
ELLIPSE
5
201
100
AcDbEntity
8
1
62
256
6
ByLayer
370
13
48
1
60
0
100
AcDbEllipse
10
232.638498
20
23.329267
30
0
11
-0.0435637040560471
21
-0.259139630111137
31
0
210
0
220
0
230
1
40
0.947521
41
-2.83343967211381
42
-2.19739446868579
0
ELLIPSE
5
202
100
AcDbEntity
8
1
62
256
6
ByLayer
370
13
48
1
60
0
100
AcDbEllipse
10
247.546286
20
23.501491
30
0
11
-0.197551554484215
21
-0.0311990916673889
31
0
210
0
220
0
230
1
40
0.009655
41
1.66279490126838
42
-3.14146319866587
0
ELLIPSE
5
203
100
AcDbEntity
8
1
62
256
6
ByLayer
370
13
48
1
60
0
100
AcDbEllipse
10
235.404162
20
24.669913
30
0
11
-0.0942047212372948
21
1.79753316255823
31
0
210
0
220
0
230
1
40
0.995725
41
2.74104825906058
42
3.14159265358898
0
ELLIPSE
5
204
100
AcDbEntity
8
1
62
256
6
ByLayer
370
13
48
1
60
0
100
AcDbEllipse
10
232.44582
20
16.078311
30
0
11
-0.0287847759336179
21
0.549246244115015
31
0
210
0
220
0
230
1
40
0.995725
41
1.38753675533543
42
1.67551608191458
0
ELLIPSE
5
205
100
AcDbEntity
8
1
62
256
6
ByLayer
370
13
48
1
60
0
100
AcDbEllipse
10
245.788659
20
25.214141
30
0
11
0.0942047212373021
21
-1.79753316255823
31
0
210
0
220
0
230
1
40
0.995725
41
0
42
0.400544394529229
0
ELLIPSE
5
206
100
AcDbEntity
8
1
62
256
6
ByLayer
370
13
48
1
60
0
100
AcDbEllipse
10
233.950163
20
10.264359
30
0
11
0.0994383168615969
21
-1.89739611603369
31
0
210
0
220
0
230
1
40
0.995725
41
-0.0273572726612744
42
-0.00872664626075727
0
ELLIPSE
5
207
100
AcDbEntity
8
1
62
256
6
ByLayer
370
13
48
1
60
0
100
AcDbEllipse
10
234.638574
20
22.751543
30
0
11
0.00523359562429394
21
-0.0998629534754454
31
0
210
0
220
0
230
1
40
0.995725
41
1.38753675533575
42
3.14158141713669
0
ELLIPSE
5
208
100
AcDbEntity
8
1
62
256
6
ByLayer
370
13
48
1
60
0
100
AcDbEllipse
10
248.586505
20
24.769608
30
0
11
-0.00653729335064168
21
0.149857478277354
31
0
210
0
220
0
230
1
40
0.092367
41
0.000809536043732892
42
1.57160586284002
0
ELLIPSE
5
209
100
AcDbEntity
8
1
62
256
6
ByLayer
370
13
48
1
60
0
100
AcDbEllipse
10
250.689692
20
17.292276
30
0
11
0.148163665863162
21
0.0233993187505396
31
0
210
0
220
0
230
1
40
0.009655
41
0.0919985744809805
42
1.66279490126902
0
ELLIPSE
5
20A
100
AcDbEntity
8
1
62
256
6
ByLayer
370
13
48
1
60
0
100
AcDbEllipse
10
249.027179
20
24.220078
30
0
11
-0.0287847759336176
21
0.549246244115011
31
0
210
0
220
0
230
1
40
0.995725
41
-1.46607657167522
42
-0.0773624824592436
0
ELLIPSE
5
20B
100
AcDbEntity
8
1
62
256
6
ByLayer
370
13
48
1
60
0
100
AcDbEllipse
10
233.026546
20
8.978675
30
0
11
-0.148163665863161
21
-0.0233993187505417
31
0
210
0
220
0
230
1
40
0.009655
41
-1.4787977523216
42
-0.264793552091999
0
ELLIPSE
5
20C
100
AcDbEntity
8
1
62
256
6
ByLayer
370
13
48
1
60
0
100
AcDbEllipse
10
234.24819
20
8.575704
30
0
11
0.0104671912485892
21
-0.199725906950916
31
0
210
0
220
0
230
1
40
0.995725
41
0.01140356690544
42
1.26193471909889
0
ELLIPSE
5
20D
100
AcDbEntity
8
1
62
256
6
ByLayer
370
13
48
1
60
0
100
AcDbEllipse
10
234.572381
20
16.106337
30
0
11
-0.0366351693700592
21
0.699040674328202
31
0
210
0
220
0
230
1
40
0.995725
41
1.38753675533552
42
1.67551608191464
0
ELLIPSE
5
20E
100
AcDbEntity
8
1
62
256
6
ByLayer
370
13
48
1
60
0
100
AcDbEllipse
10
234.234354
20
8.574978
30
0
11
-0.00261679781214713
21
0.0499314767377297
31
0
210
0
220
0
230
1
40
0.995725
41
3.13286600733109
42
-1.87965793449105
0
ELLIPSE
5
20F
100
AcDbEntity
8
1
62
256
6
ByLayer
370
13
48
1
60
0
100
AcDbEllipse
10
249.878768
20
10.887197
30
0
11
0.00785039343644185
21
-0.149794430213186
31
0
210
0
220
0
230
1
40
0.995725
41
0.104719755119505
42
1.38753675533644
0
ELLIPSE
5
210
100
AcDbEntity
8
1
62
256
6
ByLayer
370
13
48
1
60
0
100
AcDbEllipse
10
232.464268
20
16.079278
30
0
11
0.036635169370062
21
-0.699040674328201
31
0
210
0
220
0
230
1
40
0.995725
41
-1.75405589825518
42
-1.46607657167606
0
ELLIPSE
5
211
100
AcDbEntity
8
1
62
256
6
ByLayer
370
13
48
1
60
0
100
AcDbEllipse
10
248.022237
20
17.178333
30
0
11
0.0444855628065039
21
-0.848835104541388
31
0
210
0
220
0
230
1
40
0.995725
41
1.38753675533548
42
1.67551608191457
0
ELLIPSE
5
212
100
AcDbEntity
8
1
62
256
6
ByLayer
370
13
48
1
60
0
100
AcDbEllipse
10
236.275556
20
8.042731
30
0
11
-0.0942047212372948
21
1.79753316255823
31
0
210
0
220
0
230
1
40
0.995725
41
0
42
1.26193471909814
0
ELLIPSE
5
213
100
AcDbEntity
8
1
62
256
6
ByLayer
370
13
48
1
60
0
100
AcDbEllipse
10
234.609643
20
24.628273
30
0
11
-2.2158648026785
21
1.36412095095995
31
0
210
0
220
0
230
1
40
0.479614
41
1.27243228463524
42
1.31166557432593
0
ELLIPSE
5
214
100
AcDbEntity
8
1
62
256
6
ByLayer
370
13
48
1
60
0
100
AcDbEllipse
10
247.692333
20
10.680392
30
0
11
0.010467191248589
21
-0.199725906950915
31
0
210
0
220
0
230
1
40
0.995725
41
-0.2807782120864
42
2.11747656402327E-05
0
ELLIPSE
5
215
100
AcDbEntity
8
1
62
256
6
ByLayer
370
13
48
1
60
0
100
AcDbEllipse
10
234.252802
20
8.575945
30
0
11
0.0104671912485892
21
-0.199725906950916
31
0
210
0
220
0
230
1
40
0.995725
41
-0.00872664625984151
42
1.26193471909814
0
ELLIPSE
5
216
100
AcDbEntity
8
1
62
256
6
ByLayer
370
13
48
1
60
0
100
AcDbEllipse
10
234.827141
20
9.415988
30
0
11
0.00523359562429529
21
-0.099862953475471
31
0
210
0
220
0
230
1
40
0.995725
41
0.761807904942364
42
1.67551608191389
0
ELLIPSE
5
217
100
AcDbEntity
8
1
62
256
6
ByLayer
370
13
48
1
60
0
100
AcDbEllipse
10
246.342123
20
25.243147
30
0
11
-0.0942047212372948
21
1.79753316255823
31
0
210
0
220
0
230
1
40
0.995725
41
-3.141592653589
42
-1.87965793449006
0
ELLIPSE
5
218
100
AcDbEntity
8
1
62
256
6
ByLayer
370
13
48
1
60
0
100
AcDbEllipse
10
248.824885
20
16.022783
30
0
11
-0.457939617125739
21
8.73800842910252
31
0
210
0
220
0
230
1
40
0.995725
41
-0.0773624824591612
42
-0.0273572726604669
0
ELLIPSE
5
219
100
AcDbEntity
8
1
62
256
6
ByLayer
370
13
48
1
60
0
100
AcDbEllipse
10
233.989506
20
8.514675
30
0
11
0.00373239490690328
21
-0.149953556904326
31
0
210
0
220
0
230
1
40
0.092336
41
-1.56825879134033
42
-0.0414707750419284
0
ELLIPSE
5
21A
100
AcDbEntity
8
1
62
256
6
ByLayer
370
13
48
1
60
0
100
AcDbEllipse
10
249.874155
20
10.886955
30
0
11
-0.023531292646789
21
0.148142763125207
31
0
210
0
220
0
230
1
40
0.091865
41
1.56109981835433
42
3.13189614514058
0
ELLIPSE
5
21B
100
AcDbEntity
8
1
62
256
6
ByLayer
370
13
48
1
60
0
100
AcDbEllipse
10
231.918763
20
15.993119
30
0
11
-0.148163665863161
21
-0.0233993187505417
31
0
210
0
220
0
230
1
40
0.009655
41
-1.47879775232104
42
-0.264819008248768
0
ELLIPSE
5
21C
100
AcDbEntity
8
1
62
256
6
ByLayer
370
13
48
1
60
0
100
AcDbEllipse
10
246.583176
20
25.255781
30
0
11
-2.06113909109171
21
-1.58827002455547
31
0
210
0
220
0
230
1
40
0.479615
41
1.82992748851713
42
1.8691607426363
0
ELLIPSE
5
21D
100
AcDbEntity
8
1
62
256
6
ByLayer
370
13
48
1
60
0
100
AcDbEllipse
10
250.153411
20
17.206601
30
0
11
0.036635169370062
21
-0.699040674328201
31
0
210
0
220
0
230
1
40
0.995725
41
1.38753675533618
42
1.67551608191533
0
ELLIPSE
5
21E
100
AcDbEntity
8
1
62
256
6
ByLayer
370
13
48
1
60
0
100
AcDbEllipse
10
247.213517
20
8.615965
30
0
11
-0.0942047212372948
21
1.79753316255823
31
0
210
0
220
0
230
1
40
0.995725
41
-0.400544394527605
42
7.92881497022111E-13
0
ELLIPSE
5
21F
100
AcDbEntity
8
1
62
256
6
ByLayer
370
13
48
1
60
0
100
AcDbEllipse
10
240.984095
20
22.839436
30
0
11
0.010467191248589
21
-0.199725906950915
31
0
210
0
220
0
230
1
40
0.092371
41
1.5707963267949
42
3.14159265358979
0
ELLIPSE
5
220
100
AcDbEntity
8
1
62
256
6
ByLayer
370
13
48
1
60
0
100
AcDbEllipse
10
246.263888
20
25.239047
30
0
11
-1.59242934825852
21
-1.39349696569761
31
0
210
0
220
0
230
1
40
0.74335
41
1.15768450151412
42
1.97984155688985
0
ELLIPSE
5
221
100
AcDbEntity
8
1
62
256
6
ByLayer
370
13
48
1
60
0
100
AcDbEllipse
10
249.874155
20
10.886955
30
0
11
0.00785039343644185
21
-0.149794430213186
31
0
210
0
220
0
230
1
40
0.995725
41
0.104719755118906
42
1.38753675533548
0
ELLIPSE
5
222
100
AcDbEntity
8
1
62
256
6
ByLayer
370
13
48
1
60
0
100
AcDbEllipse
10
233.159874
20
23.930124
30
0
11
-0.30035132160951
21
0.184900888628447
31
0
210
0
220
0
230
1
40
0.479615
41
-1.86916058278151
42
-0.781758788886082
0
ELLIPSE
5
223
100
AcDbEntity
8
1
62
256
6
ByLayer
370
13
48
1
60
0
100
AcDbEllipse
10
249.054584
20
24.770622
30
0
11
0.00379960965785723
21
0.149951868832795
31
0
210
0
220
0
230
1
40
0.092094
41
0.00716942111041693
42
1.57796574790525
0
ELLIPSE
5
224
100
AcDbEntity
8
1
62
256
6
ByLayer
370
13
48
1
60
0
100
AcDbEllipse
10
241.327288
20
16.643906
30
0
11
0.164592752017141
21
-3.14061679904831
31
0
210
0
220
0
230
1
40
0.995725
41
0
42
6.28318530717959
0
ELLIPSE
5
225
100
AcDbEntity
8
1
62
256
6
ByLayer
370
13
48
1
60
0
100
AcDbEllipse
10
234.925347
20
22.605487
30
0
11
0.010467191248589
21
-0.199725906950915
31
0
210
0
220
0
230
1
40
0.995725
41
-3.14157313675564
42
-1.75405589825504
0
ELLIPSE
5
226
100
AcDbEntity
8
1
62
256
6
ByLayer
370
13
48
1
60
0
100
AcDbEllipse
10
234.925347
20
22.605487
30
0
11
0.198308915233051
21
-0.02595330690087
31
0
210
0
220
0
230
1
40
0.016833
41
1.47983423648418
42
3.05063056328134
0
ELLIPSE
5
227
100
AcDbEntity
8
1
62
256
6
ByLayer
370
13
48
1
60
0
100
AcDbEllipse
10
234.822528
20
9.415746
30
0
11
0.00523359562429529
21
-0.099862953475471
31
0
210
0
220
0
230
1
40
0.995725
41
0.761807904942754
42
1.67551608191474
0
ELLIPSE
5
228
100
AcDbEntity
8
1
62
256
6
ByLayer
370
13
48
1
60
0
100
AcDbEllipse
10
249.041015
20
24.220803
30
0
11
0.0366351693700618
21
-0.699040674328197
31
0
210
0
220
0
230
1
40
0.995725
41
1.6755160819146
42
3.06423017113055
0
ELLIPSE
5
229
100
AcDbEntity
8
1
62
256
6
ByLayer
370
13
48
1
60
0
100
AcDbEllipse
10
249.530865
20
-1.992309
30
0
11
-2.21013689509583
21
3.45788695538987
31
0
210
0
220
0
230
1
40
0.396026
41
-0.99603474277947
42
-0.852695053381444
0
ELLIPSE
5
22A
100
AcDbEntity
8
1
62
256
6
ByLayer
370
13
48
1
60
0
100
AcDbEllipse
10
244.097669
20
-7.000292
30
0
11
-6.03298604854955
21
-0.0274443871199974
31
0
210
0
220
0
230
1
40
0.989518
41
3.00689888000964
42
-2.98986308283064
0
ELLIPSE
5
22B
100
AcDbEntity
8
1
62
256
6
ByLayer
370
13
48
1
60
0
100
AcDbEllipse
10
255.091475
20
0.671523
30
0
11
-6.0329860936742
21
-0.0274445962053318
31
0
210
0
220
0
230
1
40
0.989518
41
0.0281275493850776
42
0.151729535919554
0
ELLIPSE
5
22C
100
AcDbEntity
8
1
62
256
6
ByLayer
370
13
48
1
60
0
100
AcDbEllipse
10
240.557876
20
-1.446154
30
0
11
0.575695518672402
21
-10.9849248823003
31
0
210
0
220
0
230
1
40
0.995725
41
-3.14159265358978
42
-2.83440246605356
0
ELLIPSE
5
22D
100
AcDbEntity
8
1
62
256
6
ByLayer
370
13
48
1
60
0
100
AcDbEllipse
10
233.546634
20
17.276304
30
0
11
-0.471023606186475
21
8.98766581279117
31
0
210
0
220
0
230
1
40
0.995725
41
-2.91693381338448
42
-2.83440246605356
0
ELLIPSE
5
22E
100
AcDbEntity
8
1
62
256
6
ByLayer
370
13
48
1
60
0
100
AcDbEllipse
10
249.268769
20
-14.34987
30
0
11
-0.0643378446643322
21
-0.516044130815496
31
0
210
0
220
0
230
1
40
0.11245
41
-1.63756361316351
42
-0.0667672863623857
0
ELLIPSE
5
22F
100
AcDbEntity
8
1
62
256
6
ByLayer
370
13
48
1
60
0
100
AcDbEllipse
10
243.491694
20
12.626677
30
0
11
-1.6556419191496
21
-2.05486645248768
31
0
210
0
220
0
230
1
40
0.966608
41
0.713732917254447
42
1.07490334564767
0
ELLIPSE
5
230
100
AcDbEntity
8
1
62
256
6
ByLayer
370
13
48
1
60
0
100
AcDbEllipse
10
233.111055
20
9.178671
30
0
11
-3.96879666750412
21
-0.704906651420463
31
0
210
0
220
0
230
1
40
0.015321
41
-3.01817314066044
42
-2.71671453964355
0
ELLIPSE
5
231
100
AcDbEntity
8
1
62
256
6
ByLayer
370
13
48
1
60
0
100
AcDbEllipse
10
236.793937
20
8.856032
30
0
11
0.353010790461904
21
-0.935619250452587
31
0
210
0
220
0
230
1
40
0.088046
41
-1.59884006173132
42
-0.0280437349367705
0
ELLIPSE
5
232
100
AcDbEntity
8
1
62
256
6
ByLayer
370
13
48
1
60
0
100
AcDbEllipse
10
227
20
6.02319
30
0
11
-4.99935456777446
21
0.0967700357156924
31
0
210
0
220
0
230
1
40
0.830178
41
1.80131604881638
42
1.93206292495198
0
ELLIPSE
5
233
100
AcDbEntity
8
1
62
256
6
ByLayer
370
13
48
1
60
0
100
AcDbEllipse
10
249.590331
20
8.461926
30
0
11
-0.00926263243239544
21
0.500197570300004
31
0
210
0
220
0
230
1
40
0.105082
41
1.92341990723453
42
-2.78896907314516
0
ELLIPSE
5
234
100
AcDbEntity
8
1
62
256
6
ByLayer
370
13
48
1
60
0
100
AcDbEllipse
10
251.591989
20
0
30
0
11
-2.97681034213803
21
-24.3725566549722
31
0
210
0
220
0
230
1
40
0.115936
41
-1.31201140282361
42
-0.081688035385063
0
ELLIPSE
5
235
100
AcDbEntity
8
1
62
256
6
ByLayer
370
13
48
1
60
0
100
AcDbEllipse
10
240.074424
20
9.543606
30
0
11
0.0523359562429457
21
-0.998629534754574
31
0
210
0
220
0
230
1
40
0.092371
41
-1.5707963267949
42
3.07690827536824E-13
0
ELLIPSE
5
236
100
AcDbEntity
8
1
62
256
6
ByLayer
370
13
48
1
60
0
100
AcDbEllipse
10
1643.462055
20
-0.622144
30
0
11
-1534.50883466466
21
0.692500610615383
31
0
210
0
220
0
230
1
40
0.040465
41
-0.400017355769906
42
-0.394967232331966
0
ELLIPSE
5
237
100
AcDbEntity
8
1
62
256
6
ByLayer
370
13
48
1
60
0
100
AcDbEllipse
10
240.867064
20
9.585146
30
0
11
-3.96879667580577
21
-0.704906652930026
31
0
210
0
220
0
230
1
40
0.015321
41
-3.01817314113178
42
-2.7167145400936
0
ELLIPSE
5
238
100
AcDbEntity
8
1
62
256
6
ByLayer
370
13
48
1
60
0
100
AcDbEllipse
10
231.020675
20
8.675084
30
0
11
-0.29369042064903
21
-0.95590058940195
31
0
210
0
220
0
230
1
40
0.0868
41
-1.53907871771946
42
-0.951275232144641
0
ELLIPSE
5
239
100
AcDbEntity
8
1
62
256
6
ByLayer
370
13
48
1
60
0
100
AcDbEllipse
10
234.254478
20
10.540379
30
0
11
0.136073486231659
21
-2.59643679036189
31
0
210
0
220
0
230
1
40
0.995725
41
0.687062733516872
42
1.13806179252795
0
ELLIPSE
5
23A
100
AcDbEntity
8
1
62
256
6
ByLayer
370
13
48
1
60
0
100
AcDbEllipse
10
242.002789
20
-6.059332
30
0
11
2
21
0
31
0
210
0
220
0
230
1
40
0.994968
41
0.748680827309776
42
2.93110619154483
0
ELLIPSE
5
23B
100
AcDbEntity
8
1
62
256
6
ByLayer
370
13
48
1
60
0
100
AcDbEllipse
10
233.546634
20
17.276304
30
0
11
-0.471023606186475
21
8.98766581279117
31
0
210
0
220
0
230
1
40
0.995725
41
2.79252680319576
42
3.02206401946906
0
ELLIPSE
5
23C
100
AcDbEntity
8
1
62
256
6
ByLayer
370
13
48
1
60
0
100
AcDbEllipse
10
233.638878
20
17.281138
30
0
11
0.523359562429457
21
-9.98629534754574
31
0
210
0
220
0
230
1
40
0.995725
41
2.58851807188665E-06
42
0.307190187536233
0
ELLIPSE
5
23D
100
AcDbEntity
8
1
62
256
6
ByLayer
370
13
48
1
60
0
100
AcDbEllipse
10
244.635371
20
9.782635
30
0
11
-0.318392915039065
21
-0.395166392388261
31
0
210
0
220
0
230
1
40
0.966608
41
-2.12586162720054
42
-2.06668865062998
0
ELLIPSE
5
23E
100
AcDbEntity
8
1
62
256
6
ByLayer
370
13
48
1
60
0
100
AcDbEllipse
10
263.087936
20
4.2E-05
30
0
11
-260.419330063419
21
0.118134631206038
31
0
210
0
220
0
230
1
40
0.092638
41
-1.43214592592779
42
-1.42038687491112
0
ELLIPSE
5
23F
100
AcDbEntity
8
1
62
256
6
ByLayer
370
13
48
1
60
0
100
AcDbEllipse
10
234.056594
20
10.530008
30
0
11
-1.65564191870392
21
-2.05486645322774
31
0
210
0
220
0
230
1
40
0.966608
41
1.54124461066411
42
1.85179470946707
0
ELLIPSE
5
240
100
AcDbEntity
8
1
62
256
6
ByLayer
370
13
48
1
60
0
100
AcDbEllipse
10
263.087811
20
0.000145
30
0
11
-263.117414893288
21
0.119347036776315
31
0
210
0
220
0
230
1
40
0.092638
41
-1.45396400209053
42
-1.44507777385762
0
ELLIPSE
5
241
100
AcDbEntity
8
1
62
256
6
ByLayer
370
13
48
1
60
0
100
AcDbEllipse
10
231.487208
20
11.915106
30
0
11
-0.026167978121471
21
0.49931476737729
31
0
210
0
220
0
230
1
40
0.995725
41
-2.08239418575121
42
-1.46607657167532
0
ELLIPSE
5
242
100
AcDbEntity
8
1
62
256
6
ByLayer
370
13
48
1
60
0
100
AcDbEllipse
10
246.965057
20
9.904728
30
0
11
-0.0261679781214708
21
0.499314767377286
31
0
210
0
220
0
230
1
40
0.995725
41
-0.990362103391593
42
-0.927295220885176
0
ELLIPSE
5
243
100
AcDbEntity
8
1
62
256
6
ByLayer
370
13
48
1
60
0
100
AcDbEllipse
10
249.64187
20
9.492095
30
0
11
-0.0190690707679075
21
-0.501607026758683
31
0
210
0
220
0
230
1
40
0.195483
41
-0.786740978470857
42
-0.33135615371263
0
ELLIPSE
5
244
100
AcDbEntity
8
1
62
256
6
ByLayer
370
13
48
1
60
0
100
AcDbEllipse
10
232.604447
20
20.629546
30
0
11
-0.143594274749976
21
2.73994198413667
31
0
210
0
220
0
230
1
40
0.016833
41
0.326127687984524
42
0.836829632722138
0
ELLIPSE
5
245
100
AcDbEntity
8
1
62
256
6
ByLayer
370
13
48
1
60
0
100
AcDbEllipse
10
249.064123
20
10.014736
30
0
11
-0.0185252648509844
21
1.00039514031479
31
0
210
0
220
0
230
1
40
0.105082
41
-3.13803492354461
42
-2.58648450190932
0
ELLIPSE
5
246
100
AcDbEntity
8
1
62
256
6
ByLayer
370
13
48
1
60
0
100
AcDbEllipse
10
233.39719
20
10.495451
30
0
11
-2.29348548674794
21
1.8479014558863
31
0
210
0
220
0
230
1
40
0.775936
41
3.05283506784035
42
-2.77958348577026
0
ELLIPSE
5
247
100
AcDbEntity
8
1
62
256
6
ByLayer
370
13
48
1
60
0
100
AcDbEllipse
10
242.002789
20
-6.059332
30
0
11
-2.1
21
2.12234201567296E-15
31
0
210
0
220
0
230
1
40
0.994968
41
-2.75586412898459
42
-0.300905793326404
0
ELLIPSE
5
248
100
AcDbEntity
8
1
62
256
6
ByLayer
370
13
48
1
60
0
100
AcDbEllipse
10
233.444576
20
0
30
0
11
-1.28851266151392
21
24.3747077569358
31
0
210
0
220
0
230
1
40
0.092638
41
-0.116832703438598
42
-0.00489794805363231
0
ELLIPSE
5
249
100
AcDbEntity
8
1
62
256
6
ByLayer
370
13
48
1
60
0
100
AcDbEllipse
10
233.90823
20
16.373618
30
0
11
0.136073486231659
21
-2.59643679036189
31
0
210
0
220
0
230
1
40
0.995725
41
-2.20424198809737
42
-1.46607657167527
0
ELLIPSE
5
24A
100
AcDbEntity
8
1
62
256
6
ByLayer
370
13
48
1
60
0
100
AcDbEllipse
10
5.5
20
-29.498313
30
0
11
-0.5
21
5.05319527541181E-16
31
0
210
0
220
0
230
1
40
0.5
41
1.5707963267949
42
3.14159265358979
0
ELLIPSE
5
24B
100
AcDbEntity
8
1
62
256
6
ByLayer
370
13
48
1
60
0
100
AcDbEllipse
10
249.604857
20
0.139304
30
0
11
-0.0208358558086358
21
1.01114988969809
31
0
210
0
220
0
230
1
40
0.10238
41
-0.115068312034426
42
1.06863759084622
0
ELLIPSE
5
24C
100
AcDbEntity
8
1
62
256
6
ByLayer
370
13
48
1
60
0
100
AcDbEllipse
10
233.664116
20
10.50944
30
0
11
-0.109905508110177
21
2.0971220229846
31
0
210
0
220
0
230
1
40
0.995725
41
2.21256348619993
42
2.71619434556236
0
ELLIPSE
5
24D
100
AcDbEntity
8
1
62
256
6
ByLayer
370
13
48
1
60
0
100
AcDbEllipse
10
233.664116
20
10.50944
30
0
11
-0.109905508110177
21
2.0971220229846
31
0
210
0
220
0
230
1
40
0.995725
41
-2.74205116610037
42
-2.08304175458192
0
ELLIPSE
5
24E
100
AcDbEntity
8
1
62
256
6
ByLayer
370
13
48
1
60
0
100
AcDbEllipse
10
236.879362
20
9.376159
30
0
11
-0.3183926765502
21
-0.395166625688511
31
0
210
0
220
0
230
1
40
0.966608
41
-2.12586228217809
42
-1.28979794439209
0
ELLIPSE
5
24F
100
AcDbEntity
8
1
62
256
6
ByLayer
370
13
48
1
60
0
100
AcDbEllipse
10
240.65012
20
-1.441319
30
0
11
-0.523359562429416
21
9.98629534754574
31
0
210
0
220
0
230
1
40
0.995725
41
0
42
0.30719018753624
0
ELLIPSE
5
250
100
AcDbEntity
8
1
62
256
6
ByLayer
370
13
48
1
60
0
100
AcDbEllipse
10
227
20
6.980472
30
0
11
-3
21
3.03191716524709E-15
31
0
210
0
220
0
230
1
40
0.760019
41
-3.0223266970532
42
-1.69910946691972
0
ELLIPSE
5
251
100
AcDbEntity
8
1
62
256
6
ByLayer
370
13
48
1
60
0
100
AcDbEllipse
10
249.30569
20
11.729729
30
0
11
-0.0795374649854894
21
2.59922638493875
31
0
210
0
220
0
230
1
40
0.530013
41
2.9601051063312
42
-3.13005350776163
0
ELLIPSE
5
252
100
AcDbEntity
8
1
62
256
6
ByLayer
370
13
48
1
60
0
100
AcDbEllipse
10
249.456071
20
0
30
0
11
-4.12947785978967
21
24.372389529467
31
0
210
0
220
0
230
1
40
0.086386
41
1.60382736581315
42
1.72706148211398
0
ELLIPSE
5
253
100
AcDbEntity
8
1
62
256
6
ByLayer
370
13
48
1
60
0
100
AcDbEllipse
10
256.918609
20
0
30
0
11
-48.689564898309
21
20.2119478750324
31
0
210
0
220
0
230
1
40
0.270523
41
0.802346389858009
42
0.948438704275126
0
ELLIPSE
5
254
100
AcDbEntity
8
1
62
256
6
ByLayer
370
13
48
1
60
0
100
AcDbEllipse
10
242.002789
20
-6.550271
30
0
11
2
21
0
31
0
210
0
220
0
230
1
40
0.994968
41
2.46487375809153
42
2.75331099866671
0
ELLIPSE
5
255
100
AcDbEntity
8
1
62
256
6
ByLayer
370
13
48
1
60
0
100
AcDbEllipse
10
235.628304
20
9.980952
30
0
11
0.0261679781214729
21
-0.499314767377287
31
0
210
0
220
0
230
1
40
0.092371
41
-1.0059478256034
42
-0.630730776736715
0
ELLIPSE
5
256
100
AcDbEntity
8
1
62
256
6
ByLayer
370
13
48
1
60
0
100
AcDbEllipse
10
237.120892
20
9.388817
30
0
11
-0.0261679781214709
21
0.499314767377288
31
0
210
0
220
0
230
1
40
0.995725
41
0.927295218001798
42
1.13806179252791
0
ELLIPSE
5
257
100
AcDbEntity
8
1
62
256
6
ByLayer
370
13
48
1
60
0
100
AcDbEllipse
10
249.500707
20
0.130198
30
0
11
-0.0104179278971285
21
0.505574944526508
31
0
210
0
220
0
230
1
40
0.10238
41
-0.115068312070661
42
0.23054192673772
0
ELLIPSE
5
258
100
AcDbEntity
8
1
62
256
6
ByLayer
370
13
48
1
60
0
100
AcDbEllipse
10
249.453762
20
11.737489
30
0
11
0.136073486231659
21
-2.59643679036189
31
0
210
0
220
0
230
1
40
0.995725
41
-0.990362103391485
42
-0.85813969877669
0
ELLIPSE
5
259
100
AcDbEntity
8
1
62
256
6
ByLayer
370
13
48
1
60
0
100
AcDbEllipse
10
233.710238
20
10.511857
30
0
11
0.136073486231659
21
-2.59643679036189
31
0
210
0
220
0
230
1
40
0.995725
41
0.0555653949272829
42
1.07574208457343
0
ELLIPSE
5
25A
100
AcDbEntity
8
1
62
256
6
ByLayer
370
13
48
1
60
0
100
AcDbEllipse
10
193.706793
20
0
30
0
11
-263.118212663444
21
0.119365049189356
31
0
210
0
220
0
230
1
40
0.092638
41
-1.77481723709363
42
-1.72291695676205
0
ELLIPSE
5
25B
100
AcDbEntity
8
1
62
256
6
ByLayer
370
13
48
1
60
0
100
AcDbEllipse
10
901.410977
20
0
30
0
11
-1026.7606233479
21
18.0357952031047
31
0
210
0
220
0
230
1
40
0.015969
41
0.858471234923283
42
0.880632904228969
0
ELLIPSE
5
25C
100
AcDbEntity
8
1
62
256
6
ByLayer
370
13
48
1
60
0
100
AcDbEllipse
10
248.519379
20
-14.937051
30
0
11
-0.296812576771398
21
-2.48492573204792
31
0
210
0
220
0
230
1
40
0.117945
41
0
42
6.28318530717959
0
ELLIPSE
5
25D
100
AcDbEntity
8
1
62
256
6
ByLayer
370
13
48
1
60
0
100
AcDbEllipse
10
234.254478
20
10.540379
30
0
11
0.136073486231659
21
-2.59643679036189
31
0
210
0
220
0
230
1
40
0.995725
41
-2.08239418575105
42
-0.58193252743229
0
ELLIPSE
5
25E
100
AcDbEntity
8
1
62
256
6
ByLayer
370
13
48
1
60
0
100
AcDbEllipse
10
253.370425
20
2.29725
30
0
11
-5.81865086100916
21
-2.03847196404351
31
0
210
0
220
0
230
1
40
0.865324
41
-0.379448139012338
42
-0.231896069647087
0
ELLIPSE
5
25F
100
AcDbEntity
8
1
62
256
6
ByLayer
370
13
48
1
60
0
100
AcDbEllipse
10
227
20
2.105884
30
0
11
-0.49421357568324
21
13.9658712756776
31
0
210
0
220
0
230
1
40
0.356262
41
-0.537159897582293
42
-0.376825500399916
0
POINT
5
70
100
AcDbEntity
8
1
62
256
6
ByLayer
370
18
48
1
60
0
100
AcDbPoint
10
0
20
0
30
0
39
0
210
0
220
0
230
1
50
360
0
POINT
5
72
100
AcDbEntity
8
80
62
256
6
ByLayer
370
18
48
1
60
0
100
AcDbPoint
10
0
20
0
30
0
39
0
210
0
220
0
230
1
50
360
0
POINT
5
74
100
AcDbEntity
8
81
62
256
6
ByLayer
370
18
48
1
60
0
100
AcDbPoint
10
251
20
0
30
0
39
0
210
0
220
0
230
1
50
360
0
POINT
5
76
100
AcDbEntity
8
1
62
256
6
ByLayer
370
18
48
1
60
1
100
AcDbPoint
10
0
20
-34
30
0
39
0
210
0
220
0
230
1
50
360
0
POINT
5
77
100
AcDbEntity
8
1
62
256
6
ByLayer
370
18
48
1
60
1
100
AcDbPoint
10
251
20
-25
30
0
39
0
210
0
220
0
230
1
50
360
0
POINT
5
78
100
AcDbEntity
8
1
62
256
6
ByLayer
370
18
48
1
60
1
100
AcDbPoint
10
-18
20
-25
30
0
39
0
210
0
220
0
230
1
50
360
0
POINT
5
79
100
AcDbEntity
8
1
62
256
6
ByLayer
370
18
48
1
60
1
100
AcDbPoint
10
0
20
-34
30
0
39
0
210
0
220
0
230
1
50
360
0
POINT
5
7A
100
AcDbEntity
8
1
62
256
6
ByLayer
370
18
48
1
60
1
100
AcDbPoint
10
251
20
-25
30
0
39
0
210
0
220
0
230
1
50
360
0
POINT
5
7B
100
AcDbEntity
8
1
62
256
6
ByLayer
370
18
48
1
60
1
100
AcDbPoint
10
17.7078
20
-34
30
0
39
0
210
0
220
0
230
1
50
360
0
POINT
5
7C
100
AcDbEntity
8
1
62
256
6
ByLayer
370
18
48
1
60
1
100
AcDbPoint
10
46
20
-25
30
0
39
0
210
0
220
0
230
1
50
360
0
POINT
5
7D
100
AcDbEntity
8
1
62
256
6
ByLayer
370
18
48
1
60
1
100
AcDbPoint
10
251
20
-25
30
0
39
0
210
0
220
0
230
1
50
360
0
POINT
5
7E
100
AcDbEntity
8
1
62
256
6
ByLayer
370
18
48
1
60
1
100
AcDbPoint
10
249.7234
20
-12.5
30
0
39
0
210
0
220
0
230
1
50
360
0
SPLINE
5
260
100
AcDbEntity
8
1
62
256
6
ByLayer
370
18
48
1
60
0
100
AcDbSpline
70
4
71
3
72
18
73
14
40
0
40
0
40
0
40
0
40
0.125
40
0.125
40
0.25
40
0.25
40
0.5
40
0.5
40
0.75
40
0.75
40
0.875
40
0.875
40
1
40
1
40
1
40
1
41
1
10
240.820954925372
20
18.0476390323954
30
0
41
1
10
240.83723643454
20
18.0211431768227
30
0
41
1
10
240.862372290311
20
18.0010641609881
30
0
41
1
10
240.919096512
20
17.9689572483696
30
0
41
1
10
240.950698449704
20
17.9571653049194
30
0
41
1
10
241.049744908582
20
17.9308612933383
30
0
41
1
10
241.12164798585
20
17.9251930377407
30
0
41
1
10
241.266189659956
20
17.932781457168
30
0
41
1
10
241.338558847821
20
17.9459599773914
30
0
41
1
10
241.439523700454
20
17.9828164081385
30
0
41
1
10
241.47185601554
20
17.9980094627856
30
0
41
1
10
241.529757311698
20
18.0360592464822
30
0
41
1
10
241.555526947086
20
18.058773804529
30
0
41
1
10
241.572221721022
20
18.0870112568045
30
0
0
SPLINE
5
261
100
AcDbEntity
8
1
62
256
6
ByLayer
370
18
48
1
60
0
100
AcDbSpline
70
4
71
3
72
16
73
12
40
0
40
0
40
0
40
0
40
0.125000000000056
40
0.125000000000056
40
0.250000000000111
40
0.250000000000111
40
0.500000000000074
40
0.500000000000074
40
0.750000000000037
40
0.750000000000037
40
1
40
1
40
1
40
1
41
1
10
241.582670567632
20
18.1046834456743
30
0
41
1
10
241.585361945435
20
18.1241103677969
30
0
41
1
10
241.593355250091
20
18.1427458857224
30
0
41
1
10
241.61972457386
20
18.1735594426711
30
0
41
1
10
241.637993288717
20
18.1855934699988
30
0
41
1
10
241.697418652211
20
18.2101637201903
30
0
41
1
10
241.742410862011
20
18.2131794142439
30
0
41
1
10
241.830710243336
20
18.207313833653
30
0
41
1
10
241.874414328412
20
18.1981053868983
30
0
41
1
10
241.959061690115
20
18.1720843405578
30
0
41
1
10
242.000187401149
20
18.1551112809814
30
0
41
1
10
242.039428321854
20
18.1350251469141
30
0
0
SPLINE
5
262
100
AcDbEntity
8
1
62
256
6
ByLayer
370
18
48
1
60
0
100
AcDbSpline
70
4
71
3
72
20
73
16
40
0
40
0
40
0
40
0
40
0.125
40
0.125
40
0.25
40
0.25
40
0.375
40
0.375
40
0.5
40
0.5
40
0.75
40
0.75
40
0.875
40
0.875
40
1
40
1
40
1
40
1
41
1
10
242.367996584875
20
15.6557108000846
30
0
41
1
10
242.349539847223
20
15.6829189335
30
0
41
1
10
242.340703764333
20
15.7156024364537
30
0
41
1
10
242.333282355908
20
15.7828677837969
30
0
41
1
10
242.334865245712
20
15.8173308911866
30
0
41
1
10
242.344872306323
20
15.8863580386815
30
0
41
1
10
242.353441604393
20
15.9210166748062
30
0
41
1
10
242.375736728929
20
15.9883280013565
30
0
41
1
10
242.389538754432
20
16.0213528301117
30
0
41
1
10
242.43875825694
20
16.1186266428602
30
0
41
1
10
242.480823844107
20
16.1792769093887
30
0
41
1
10
242.556850686083
20
16.2549083964467
30
0
41
1
10
242.584416319433
20
16.2775458092247
30
0
41
1
10
242.644004410264
20
16.3131445661684
30
0
41
1
10
242.6759747606
20
16.3263526685603
30
0
41
1
10
242.709386233797
20
16.3288065658198
30
0
0
SPLINE
5
263
100
AcDbEntity
8
1
62
256
6
ByLayer
370
18
48
1
60
0
100
AcDbSpline
70
4
71
3
72
8
73
4
40
0
40
0
40
0
40
0
40
1
40
1
40
1
40
1
41
1
10
241.572221721022
20
18.0870112568045
30
0
41
1
10
241.575704936117
20
18.0929027483804
30
0
41
1
10
241.579187881695
20
18.0987934683573
30
0
41
1
10
241.582670567632
20
18.1046834456743
30
0
0
SPLINE
5
264
100
AcDbEntity
8
1
62
256
6
ByLayer
370
18
48
1
60
0
100
AcDbSpline
70
4
71
3
72
16
73
12
40
0
40
0
40
0
40
0
40
0.250000000000035
40
0.250000000000035
40
0.50000000000007
40
0.50000000000007
40
0.750000000000105
40
0.750000000000105
40
0.875000000000053
40
0.875000000000053
40
1
40
1
40
1
40
1
41
1
10
240.372483063471
20
18.0476642477359
30
0
41
1
10
240.409435001323
20
18.0717588046516
30
0
41
1
10
240.44827856788
20
18.0928821822975
30
0
41
1
10
240.528953573387
20
18.1276043524519
30
0
41
1
10
240.570749651169
20
18.1412911993836
30
0
41
1
10
240.655866590762
20
18.1562496609813
30
0
41
1
10
240.699393808063
20
18.1579175227055
30
0
41
1
10
240.757452543835
20
18.1391477784856
30
0
41
1
10
240.77493140804
20
18.1290074048159
30
0
41
1
10
240.800368721666
20
18.1010191199375
30
0
41
1
10
240.808118862218
20
18.0833050925265
30
0
41
1
10
240.810760871616
20
18.064229372699
30
0
0
SPLINE
5
265
100
AcDbEntity
8
1
62
256
6
ByLayer
370
18
48
1
60
0
100
AcDbSpline
70
4
71
3
72
16
73
12
40
0
40
0
40
0
40
0
40
0.250000000000036
40
0.250000000000036
40
0.500000000000072
40
0.500000000000072
40
0.750000000000108
40
0.750000000000108
40
0.875000000000054
40
0.875000000000054
40
1
40
1
40
1
40
1
41
1
10
242.19139152639
20
15.235394469661
30
0
41
1
10
242.154439588538
20
15.2112999127452
30
0
41
1
10
242.115403044618
20
15.1901664215843
30
0
41
1
10
242.033847917886
20
15.155398126231
30
0
41
1
10
241.991377322638
20
15.1416759293367
30
0
41
1
10
241.903977237058
20
15.1265978131281
30
0
41
1
10
241.858887127736
20
15.1248480437039
30
0
41
1
10
241.796781762244
20
15.1434057130466
30
0
41
1
10
241.777657553873
20
15.1534598578824
30
0
41
1
10
241.748481052846
20
15.1812521802528
30
0
41
1
10
241.738654169569
20
15.1988573701894
30
0
41
1
10
241.733964367534
20
15.2178257697524
30
0
0
SPLINE
5
266
100
AcDbEntity
8
1
62
256
6
ByLayer
370
18
48
1
60
0
100
AcDbSpline
70
4
71
3
72
8
73
4
40
0
40
0
40
0
40
0
40
1
40
1
40
1
40
1
41
1
10
240.17468385455
20
17.6262371789542
30
0
41
1
10
240.171529478078
20
17.6319272881435
30
0
41
1
10
240.168375712779
20
17.6376166524537
30
0
41
1
10
240.165222535483
20
17.6433052998212
30
0
0
SPLINE
5
267
100
AcDbEntity
8
1
62
256
6
ByLayer
370
18
48
1
60
0
100
AcDbSpline
70
4
71
3
72
8
73
4
40
0
40
0
40
0
40
0
40
1
40
1
40
1
40
1
41
1
10
242.709386233797
20
16.3288065658198
30
0
41
1
10
242.716349168566
20
16.3293179568155
30
0
41
1
10
242.723311372122
20
16.3298292900549
30
0
41
1
10
242.730272871665
20
16.3303405676926
30
0
0
SPLINE
5
268
100
AcDbEntity
8
1
62
256
6
ByLayer
370
18
48
1
60
0
100
AcDbSpline
70
4
71
3
72
8
73
4
40
0
40
0
40
0
40
0
40
1
40
1
40
1
40
1
41
1
10
242.367996584875
20
15.6557108000846
30
0
41
1
10
242.371832270212
20
15.6500563967799
30
0
41
1
10
242.375667639265
20
15.6444027538088
30
0
41
1
10
242.379502703666
20
15.6387498426302
30
0
0
SPLINE
5
269
100
AcDbEntity
8
1
62
256
6
ByLayer
370
18
48
1
60
0
100
AcDbSpline
70
4
71
3
72
16
73
12
40
0
40
0
40
0
40
0
40
0.124999999999995
40
0.124999999999995
40
0.249999999999991
40
0.249999999999991
40
0.499999999999994
40
0.499999999999994
40
0.749999999999997
40
0.749999999999997
40
1
40
1
40
1
40
1
41
1
10
242.730272871665
20
16.3303405676926
30
0
41
1
10
242.749603701477
20
16.3240407262294
30
0
41
1
10
242.770379911955
20
16.3229122040986
30
0
41
1
10
242.810165866619
20
16.3329818993535
30
0
41
1
10
242.82899739937
20
16.3441457367915
30
0
41
1
10
242.876613911858
20
16.3869740112182
30
0
41
1
10
242.898085025489
20
16.4263563885059
30
0
41
1
10
242.929283837687
20
16.5087757371134
30
0
41
1
10
242.938865890144
20
16.5523244043408
30
0
41
1
10
242.949859798379
20
16.6401812058755
30
0
41
1
10
242.95119709191
20
16.6847262305475
30
0
41
1
10
242.948882553313
20
16.7288902578767
30
0
0
SPLINE
5
26A
100
AcDbEntity
8
1
62
256
6
ByLayer
370
18
48
1
60
0
100
AcDbSpline
70
4
71
3
72
8
73
4
40
0
40
0
40
0
40
0
40
1
40
1
40
1
40
1
41
1
10
239.814452367484
20
16.9517145747587
30
0
41
1
10
239.820731979922
20
16.9521901162075
30
0
41
1
10
239.827012579724
20
16.9526657281078
30
0
41
1
10
239.833294205629
20
16.953141413219
30
0
0
SPLINE
5
26B
100
AcDbEntity
8
1
62
256
6
ByLayer
370
18
48
1
60
0
100
AcDbSpline
70
4
71
3
72
16
73
12
40
0
40
0
40
0
40
0
40
0.25
40
0.25
40
0.5
40
0.5
40
0.75
40
0.75
40
0.875
40
0.875
40
1
40
1
40
1
40
1
41
1
10
240.524446268007
20
15.1480335704828
30
0
41
1
10
240.48517818973
20
15.1681336056163
30
0
41
1
10
240.447376608596
20
15.1914396072407
30
0
41
1
10
240.376385238929
20
15.2446050829742
30
0
41
1
10
240.343146969121
20
15.2743848150103
30
0
41
1
10
240.285891765043
20
15.3418427231119
30
0
41
1
10
240.261465216772
20
15.3794843097429
30
0
41
1
10
240.245472094616
20
15.4409576580337
30
0
41
1
10
240.244198859104
20
15.4618765331255
30
0
41
1
10
240.252716234726
20
15.4994623453127
30
0
41
1
10
240.26250884242
20
15.5158744569369
30
0
41
1
10
240.276054115443
20
15.5285127732854
30
0
0
SPLINE
5
26C
100
AcDbEntity
8
1
62
256
6
ByLayer
370
18
48
1
60
0
100
AcDbSpline
70
4
71
3
72
16
73
12
40
0
40
0
40
0
40
0
40
0.250000000000022
40
0.250000000000022
40
0.500000000000045
40
0.500000000000045
40
0.750000000000068
40
0.750000000000068
40
0.875000000000034
40
0.875000000000034
40
1
40
1
40
1
40
1
41
1
10
239.614992036548
20
16.5541684595202
30
0
41
1
10
239.612675896122
20
16.5983630515695
30
0
41
1
10
239.613814370227
20
16.6427974875973
30
0
41
1
10
239.62393806668
20
16.7307081960846
30
0
41
1
10
239.632833133387
20
16.7741924500337
30
0
41
1
10
239.661836441895
20
16.8566686470385
30
0
41
1
10
239.681718556935
20
16.8960190492437
30
0
41
1
10
239.725807485412
20
16.9388286907532
30
0
41
1
10
239.742835786187
20
16.9496503065923
30
0
41
1
10
239.778660069136
20
16.9593458151551
30
0
41
1
10
239.797241188744
20
16.9580983181054
30
0
41
1
10
239.814452367484
20
16.9517145747587
30
0
0
SPLINE
5
26D
100
AcDbEntity
8
1
62
256
6
ByLayer
370
18
48
1
60
0
100
AcDbSpline
70
4
71
3
72
8
73
4
40
0
40
0
40
0
40
0
40
1
40
1
40
1
40
1
41
1
10
239.873802353241
20
16.180199911669
30
0
41
1
10
239.867505416107
20
16.1800163822248
30
0
41
1
10
239.861209507106
20
16.1798328872276
30
0
41
1
10
239.854914587425
20
16.1796494253725
30
0
0
SPLINE
5
26E
100
AcDbEntity
8
1
62
256
6
ByLayer
370
18
48
1
60
0
100
AcDbSpline
70
4
71
3
72
16
73
12
40
0
40
0
40
0
40
0
40
0.124999999999958
40
0.124999999999958
40
0.249999999999915
40
0.249999999999915
40
0.499999999999943
40
0.499999999999943
40
0.749999999999972
40
0.749999999999972
40
1
40
1
40
1
40
1
41
1
10
239.854914587425
20
16.1796494253725
30
0
41
1
10
239.838403599963
20
16.1714711938604
30
0
41
1
10
239.819947411053
20
16.1682865888018
30
0
41
1
10
239.783084703225
20
16.1743392978705
30
0
41
1
10
239.764846040091
20
16.1835603686646
30
0
41
1
10
239.71701308442
20
16.2213863484314
30
0
41
1
10
239.693109645279
20
16.2583907461723
30
0
41
1
10
239.655743223957
20
16.337216743155
30
0
41
1
10
239.642337108486
20
16.3795606515515
30
0
41
1
10
239.62309916793
20
16.4658330690274
30
0
41
1
10
239.617306575144
20
16.5100044321911
30
0
41
1
10
239.614992036548
20
16.5541684595202
30
0
0
SPLINE
5
26F
100
AcDbEntity
8
1
62
256
6
ByLayer
370
18
48
1
60
0
100
AcDbSpline
70
4
71
3
72
8
73
4
40
0
40
0
40
0
40
0
40
1
40
1
40
1
40
1
41
1
10
240.276054115443
20
15.5285127732854
30
0
41
1
10
240.278595393736
20
15.5344998544245
30
0
41
1
10
240.281137181871
20
15.540487710042
30
0
41
1
10
240.283679499969
20
15.546476370343
30
0
0
SPLINE
5
270
100
AcDbEntity
8
1
62
256
6
ByLayer
370
18
48
1
60
0
100
AcDbSpline
70
4
71
3
72
8
73
4
40
0
40
0
40
0
40
0
40
1
40
1
40
1
40
1
41
1
10
242.268671123706
20
17.7535423691659
30
0
41
1
10
242.265447958307
20
17.7475195518379
30
0
41
1
10
242.262224566419
20
17.7414959748814
30
0
41
1
10
242.259000939456
20
17.7354716086958
30
0
0
SPLINE
5
271
100
AcDbEntity
8
1
62
256
6
ByLayer
370
18
48
1
60
0
100
AcDbSpline
70
4
71
3
72
8
73
4
40
0
40
0
40
0
40
0
40
1
40
1
40
1
40
1
41
1
10
240.970458718403
20
15.1949367222342
30
0
41
1
10
240.967656812173
20
15.189080936543
30
0
41
1
10
240.964855470349
20
15.1832259379051
30
0
41
1
10
240.962054671517
20
15.177371696777
30
0
0
SPLINE
5
272
100
AcDbEntity
8
1
62
256
6
ByLayer
370
18
48
1
60
0
100
AcDbSpline
70
4
71
3
72
16
73
12
40
0
40
0
40
0
40
0
40
0.12500000000005
40
0.12500000000005
40
0.250000000000101
40
0.250000000000101
40
0.500000000000067
40
0.500000000000067
40
0.750000000000034
40
0.750000000000034
40
1
40
1
40
1
40
1
41
1
10
240.962054671517
20
15.177371696777
30
0
41
1
10
240.961418727008
20
15.1580524953489
30
0
41
1
10
240.955513666982
20
15.139526417687
30
0
41
1
10
240.932902208196
20
15.108909802097
30
0
41
1
10
240.916290140622
20
15.0969625959744
30
0
41
1
10
240.860864259418
20
15.0726019497679
30
0
41
1
10
240.817438682479
20
15.0696683594636
30
0
41
1
10
240.731415949525
20
15.0756532541398
30
0
41
1
10
240.688387385212
20
15.0848971034375
30
0
41
1
10
240.60461930186
20
15.1109642308038
30
0
41
1
10
240.563687188712
20
15.1279474364154
30
0
41
1
10
240.524446268007
20
15.1480335704828
30
0
0
SPLINE
5
273
100
AcDbEntity
8
1
62
256
6
ByLayer
370
18
48
1
60
0
100
AcDbSpline
70
4
71
3
72
18
73
14
40
0
40
0
40
0
40
0
40
0.124999999999956
40
0.124999999999956
40
0.249999999999911
40
0.249999999999911
40
0.499999999999913
40
0.499999999999913
40
0.749999999999914
40
0.749999999999914
40
0.874999999999957
40
0.874999999999957
40
1
40
1
40
1
40
1
41
1
10
241.721725514053
20
15.2343089466434
30
0
41
1
10
241.702180142611
20
15.2606337504424
30
0
41
1
10
241.674154617537
20
15.2805613251259
30
0
41
1
10
241.612439777223
20
15.3124066905051
30
0
41
1
10
241.578761234383
20
15.3240898036916
30
0
41
1
10
241.474709034171
20
15.3501314754857
30
0
41
1
10
241.401100325295
20
15.3557103427185
30
0
41
1
10
241.256560950158
20
15.3481220437751
30
0
41
1
10
241.185889233689
20
15.3350324842579
30
0
41
1
10
241.089941163334
20
15.2984389719291
30
0
41
1
10
241.059692463783
20
15.2833551149452
30
0
41
1
10
241.006771949533
20
15.2455663629674
30
0
41
1
10
240.983888032938
20
15.2230030390342
30
0
41
1
10
240.970458718403
20
15.1949367222342
30
0
0
SPLINE
5
274
100
AcDbEntity
8
1
62
256
6
ByLayer
370
18
48
1
60
0
100
AcDbSpline
70
4
71
3
72
16
73
12
40
0
40
0
40
0
40
0
40
0.124999999999998
40
0.124999999999998
40
0.249999999999997
40
0.249999999999997
40
0.499999999999998
40
0.499999999999998
40
0.749999999999999
40
0.749999999999999
40
1
40
1
40
1
40
1
41
1
10
242.379502703666
20
15.6387498426302
30
0
41
1
10
242.396405463267
20
15.6276627330613
30
0
41
1
10
242.410000714465
20
15.6123759805899
30
0
41
1
10
242.426130896
20
15.5758051266104
30
0
41
1
10
242.428585815199
20
15.5546802602963
30
0
41
1
10
242.422992630811
20
15.4925984363157
30
0
41
1
10
242.404253809444
20
15.452701500145
30
0
41
1
10
242.356735821998
20
15.3799200548812
30
0
41
1
10
242.327451133537
20
15.3468376970538
30
0
41
1
10
242.263360629917
20
15.2866554474572
30
0
41
1
10
242.228317908498
20
15.2594723629228
30
0
41
1
10
242.19139152639
20
15.235394469661
30
0
0
SPLINE
5
275
100
AcDbEntity
8
1
62
256
6
ByLayer
370
18
48
1
60
0
100
AcDbSpline
70
4
71
3
72
16
73
12
40
0
40
0
40
0
40
0
40
0.124999999999985
40
0.124999999999985
40
0.249999999999969
40
0.249999999999969
40
0.49999999999998
40
0.49999999999998
40
0.74999999999999
40
0.74999999999999
40
1
40
1
40
1
40
1
41
1
10
240.165222535483
20
17.6433052998212
30
0
41
1
10
240.150375209176
20
17.6545001300844
30
0
41
1
10
240.138868202608
20
17.6698963228195
30
0
41
1
10
240.126495886057
20
17.7066641181576
30
0
41
1
10
240.125697614139
20
17.7278758056768
30
0
41
1
10
240.135290280817
20
17.7901672336426
30
0
41
1
10
240.155595735046
20
17.8301462735624
30
0
41
1
10
240.205390370862
20
17.9030470329116
30
0
41
1
10
240.235350580086
20
17.936164793282
30
0
41
1
10
240.300320362058
20
17.9963931239044
30
0
41
1
10
240.335556681363
20
18.0235863544741
30
0
41
1
10
240.372483063471
20
18.0476642477359
30
0
0
SPLINE
5
276
100
AcDbEntity
8
1
62
256
6
ByLayer
370
18
48
1
60
0
100
AcDbSpline
70
4
71
3
72
8
73
4
40
0
40
0
40
0
40
0
40
1
40
1
40
1
40
1
41
1
10
242.689810651724
20
17.1024057170788
30
0
41
1
10
242.682833844938
20
17.1021865190349
30
0
41
1
10
242.675856332184
20
17.1019673026986
30
0
41
1
10
242.668878086185
20
17.1017480673697
30
0
0
SPLINE
5
277
100
AcDbEntity
8
1
62
256
6
ByLayer
370
18
48
1
60
0
100
AcDbSpline
70
4
71
3
72
8
73
4
40
0
40
0
40
0
40
0
40
1
40
1
40
1
40
1
41
1
10
240.810760871616
20
18.064229372699
30
0
41
1
10
240.814158262207
20
18.0586999649142
30
0
41
1
10
240.817556271998
20
18.0531698605275
30
0
41
1
10
240.820954925372
20
18.0476390323954
30
0
0
SPLINE
5
278
100
AcDbEntity
8
1
62
256
6
ByLayer
370
18
48
1
60
0
100
AcDbSpline
70
4
71
3
72
18
73
14
40
0
40
0
40
0
40
0
40
0.124999999999967
40
0.124999999999967
40
0.249999999999934
40
0.249999999999934
40
0.499999999999948
40
0.499999999999948
40
0.749999999999963
40
0.749999999999963
40
0.874999999999981
40
0.874999999999981
40
1
40
1
40
1
40
1
41
1
10
242.668878086185
20
17.1017480673697
30
0
41
1
10
242.635414151083
20
17.1006967320028
30
0
41
1
10
242.602203594124
20
17.1104863017072
30
0
41
1
10
242.539090266042
20
17.1397420230986
30
0
41
1
10
242.509390834018
20
17.1593475735337
30
0
41
1
10
242.426058967271
20
17.2264699303848
30
0
41
1
10
242.377883760266
20
17.2823367314813
30
0
41
1
10
242.299034981342
20
17.4044322848921
30
0
41
1
10
242.268588518887
20
17.4702265515169
30
0
41
1
10
242.24295343079
20
17.5712741780847
30
0
41
1
10
242.237757487755
20
17.6057642923928
30
0
41
1
10
242.238130198256
20
17.672910613593
30
0
41
1
10
242.243460427306
20
17.7064292483417
30
0
41
1
10
242.259000939456
20
17.7354716086958
30
0
0
SPLINE
5
279
100
AcDbEntity
8
1
62
256
6
ByLayer
370
18
48
1
60
0
100
AcDbSpline
70
4
71
3
72
18
73
14
40
0
40
0
40
0
40
0
40
0.12500000000002
40
0.12500000000002
40
0.25000000000004
40
0.25000000000004
40
0.500000000000027
40
0.500000000000027
40
0.750000000000013
40
0.750000000000013
40
0.875000000000007
40
0.875000000000007
40
1
40
1
40
1
40
1
41
1
10
239.833294205629
20
16.953141413219
30
0
41
1
10
239.863386815406
20
16.9554202191595
30
0
41
1
10
239.892471722503
20
16.9684529436526
30
0
41
1
10
239.947137616773
20
17.0038263160638
30
0
41
1
10
239.972528552686
20
17.026286568217
30
0
41
1
10
240.043330933246
20
17.1013786641392
30
0
41
1
10
240.083677285638
20
17.1617975177418
30
0
41
1
10
240.149348867431
20
17.2913049909307
30
0
41
1
10
240.17460403993
20
17.3601246028583
30
0
41
1
10
240.19463294567
20
17.4642626893762
30
0
41
1
10
240.198253326502
20
17.4991064769381
30
0
41
1
10
240.195728255809
20
17.5664034998118
30
0
41
1
10
240.189802531023
20
17.5989649364998
30
0
41
1
10
240.17468385455
20
17.6262371789542
30
0
0
SPLINE
5
27A
100
AcDbEntity
8
1
62
256
6
ByLayer
370
18
48
1
60
0
100
AcDbSpline
70
4
71
3
72
18
73
14
40
0
40
0
40
0
40
0
40
0.124999999999989
40
0.124999999999989
40
0.249999999999978
40
0.249999999999978
40
0.499999999999983
40
0.499999999999983
40
0.749999999999988
40
0.749999999999988
40
0.874999999999994
40
0.874999999999994
40
1
40
1
40
1
40
1
41
1
10
240.283679499969
20
15.546476370343
30
0
41
1
10
240.295858669442
20
15.5751655059693
30
0
41
1
10
240.298362886116
20
15.6082015257214
30
0
41
1
10
240.293809249384
20
15.6755510371315
30
0
41
1
10
240.286559945025
20
15.709748817603
30
0
41
1
10
240.25581299604
20
15.8110137552129
30
0
41
1
10
240.22340345536
20
15.8770561702307
30
0
41
1
10
240.144534512532
20
15.9989752842343
30
0
41
1
10
240.098269232864
20
16.0546608562916
30
0
41
1
10
240.01984167711
20
16.1220739712715
30
0
41
1
10
239.992171550623
20
16.141779303018
30
0
41
1
10
239.934235574726
20
16.1711570580545
30
0
41
1
10
239.903983073949
20
16.1810795537524
30
0
41
1
10
239.873802353241
20
16.180199911669
30
0
0
SPLINE
5
27B
100
AcDbEntity
8
1
62
256
6
ByLayer
370
18
48
1
60
0
100
AcDbSpline
70
4
71
3
72
8
73
4
40
0
40
0
40
0
40
0
40
1
40
1
40
1
40
1
41
1
10
241.733964367534
20
15.2178257697523
30
0
41
1
10
241.729885089836
20
15.2233194413482
30
0
41
1
10
241.725805476292
20
15.2288138243958
30
0
41
1
10
241.721725514053
20
15.2343089466434
30
0
0
SPLINE
5
27C
100
AcDbEntity
8
1
62
256
6
ByLayer
370
18
48
1
60
0
100
AcDbSpline
70
4
71
3
72
16
73
12
40
0
40
0
40
0
40
0
40
0.250000000000004
40
0.250000000000004
40
0.500000000000009
40
0.500000000000009
40
0.750000000000013
40
0.750000000000013
40
0.875000000000007
40
0.875000000000007
40
1
40
1
40
1
40
1
41
1
10
242.039428321854
20
18.1350251469141
30
0
41
1
10
242.078696400131
20
18.1149251117805
30
0
41
1
10
242.116305003902
20
18.091608996641
30
0
41
1
10
242.186416252344
20
18.0383973957088
30
0
41
1
10
242.218980004685
20
18.0085823137101
30
0
41
1
10
242.273952062777
20
17.9410047509975
30
0
41
1
10
242.296815719027
20
17.9032812566665
30
0
41
1
10
242.308762211463
20
17.8415958334985
30
0
41
1
10
242.308390102809
20
17.8205907295728
30
0
41
1
10
242.296133539785
20
17.7828089548776
30
0
41
1
10
242.284264189368
20
17.7662880057791
30
0
41
1
10
242.268671123706
20
17.7535423691659
30
0
0
SPLINE
5
27D
100
AcDbEntity
8
1
62
256
6
ByLayer
370
18
48
1
60
0
100
AcDbSpline
70
4
71
3
72
16
73
12
40
0
40
0
40
0
40
0
40
0.249999999999967
40
0.249999999999967
40
0.499999999999934
40
0.499999999999934
40
0.7499999999999
40
0.7499999999999
40
0.87499999999995
40
0.87499999999995
40
1
40
1
40
1
40
1
41
1
10
242.948882553313
20
16.7288902578767
30
0
41
1
10
242.946566412887
20
16.773084849926
30
0
41
1
10
242.940596534785
20
16.8171467530003
30
0
41
1
10
242.920459004514
20
16.9034715377965
30
0
41
1
10
242.906392806205
20
16.9457524428367
30
0
41
1
10
242.86664412474
20
17.0246255007257
30
0
41
1
10
242.841194796913
20
17.0616001826785
30
0
41
1
10
242.78882593644
20
17.0993546856746
30
0
41
1
10
242.769114407438
20
17.1082508486238
30
0
41
1
10
242.728733729648
20
17.1139526244239
30
0
41
1
10
242.708308055582
20
17.1106608679409
30
0
41
1
10
242.689810651724
20
17.1024057170788
30
0
0
SPLINE
5
27E
100
AcDbEntity
8
1
62
256
6
ByLayer
370
18
48
1
60
0
100
AcDbSpline
70
4
71
2
72
12
73
9
40
0
40
0
40
0
40
0.25
40
0.5
40
0.5
40
0.75
40
0.75
40
0.875
40
1
40
1
40
1
41
1
10
249.411419951346
20
-14.1571530887077
30
0
41
1
10
249.459904071498
20
-14.143320446707
30
0
41
1
10
249.54563405012
20
-14.089182261789
30
0
41
1
10
249.579899576977
20
-14.0499457524269
30
0
41
1
10
249.61266991608
20
-14.0124213413081
30
0
41
1
10
249.634236610236
20
-13.9650499107701
30
0
41
1
10
249.644252554435
20
-13.9430498025724
30
0
41
1
10
249.658535536254
20
-13.8936831185543
30
0
41
1
10
249.661952578287
20
-13.8678587091019
30
0
0
SPLINE
5
27F
100
AcDbEntity
8
1
62
256
6
ByLayer
370
18
48
1
60
0
100
AcDbSpline
70
4
71
2
72
7
73
4
40
0
40
0
40
0
40
0.5
40
1
40
1
40
1
41
1
10
250.558963327387
20
-7.08866997217331
30
0
41
1
10
250.566455467096
20
-7.03204787576766
30
0
41
1
10
250.565029418045
20
-6.91724238614523
30
0
41
1
10
250.555958110754
20
-6.86025659991847
30
0
0
SPLINE
5
280
100
AcDbEntity
8
1
62
256
6
ByLayer
370
18
48
1
60
0
100
AcDbSpline
70
4
71
2
72
12
73
9
40
0
40
0
40
0
40
0.25
40
0.5
40
0.5
40
0.75
40
0.75
40
0.875
40
1
40
1
40
1
41
1
10
249.420025499445
20
0.192667491822277
30
0
41
1
10
249.40612290171
20
0.240907647331966
30
0
41
1
10
249.351710924083
20
0.326206245877444
30
0
41
1
10
249.312275984165
20
0.360299353866509
30
0
41
1
10
249.274561801069
20
0.392904797659895
30
0
41
1
10
249.226950799289
20
0.41436297152427
30
0
41
1
10
249.204839430083
20
0.424328517029949
30
0
41
1
10
249.155223084236
20
0.438539629080793
30
0
41
1
10
249.129268073152
20
0.441939477084418
30
0
0
SPLINE
5
281
100
AcDbEntity
8
1
62
256
6
ByLayer
370
18
48
1
60
0
100
AcDbSpline
70
4
71
3
72
30
73
26
40
0
40
0
40
0
40
0
40
0.0050411638612094
40
0.0127259048381353
40
0.0280953867919871
40
0.0588343506996906
40
0.120312278515098
40
0.243268134145912
40
0.366223989776725
40
0.485337474919077
40
0.489179845407539
40
0.496864586384465
40
0.504549327361391
40
0.519918809315243
40
0.550657773222947
40
0.612135701038353
40
0.735091556669167
40
0.858047412299981
40
0.919525340115388
40
0.950264304023092
40
0.965633785976944
40
0.981003267930796
40
0.988688008907721
40
0.996372749884647
40
1
40
1
40
1
40
1
41
1
10
249.245173774755
20
-13.9974428276515
30
0
41
1
10
249.273171019138
20
-13.9862483642359
30
0
41
1
10
249.343638008138
20
-13.9514604153406
30
0
41
1
10
249.480386952651
20
-13.8157609754838
30
0
41
1
10
249.523309450755
20
-13.5136029357858
30
0
41
1
10
249.588462061992
20
-13.0088912093915
30
0
41
1
10
249.724904343635
20
-11.9859280640112
30
0
41
1
10
249.914859173747
20
-10.5313404411977
30
0
41
1
10
250.151947525573
20
-8.80315981061216
30
0
41
1
10
250.305495032169
20
-7.63707047247382
30
0
41
1
10
250.384581729132
20
-7.00766666025274
30
0
41
1
10
250.380028996113
20
-6.89730461882658
30
0
41
1
10
250.347441572944
20
-6.74643130361358
30
0
41
1
10
250.31270649761
20
-6.49554445322013
30
0
41
1
10
250.228342488683
20
-5.98659018498731
30
0
41
1
10
250.068980504812
20
-4.97150128855549
30
0
41
1
10
249.837404971444
20
-3.52035327827684
30
0
41
1
10
249.604428430231
20
-2.0703463959872
30
0
41
1
10
249.447119657073
20
-1.05321319253176
30
0
41
1
10
249.359596941727
20
-0.548747782430809
30
0
41
1
10
249.324668124454
20
-0.258248084513411
30
0
41
1
10
249.297125795001
20
-0.0611863353083777
30
0
41
1
10
249.226125568135
20
0.112424203797985
30
0
41
1
10
249.133908262773
20
0.20442187788916
30
0
41
1
10
249.07460482351
20
0.236730521237575
30
0
41
1
10
249.055306610438
20
0.245312208797571
30
0
0
SPLINE
5
282
100
AcDbEntity
8
1
62
256
6
ByLayer
370
18
48
1
60
0
100
AcDbSpline
70
4
71
3
72
10
73
6
40
0
40
0
40
0
40
0
40
0.538204846745118
40
0.538204846745118
40
1
40
1
40
1
40
1
41
1
10
249.802777113718
20
-14.8408059541029
30
0
41
1
10
249.739256830705
20
-14.8589277919945
30
0
41
1
10
249.675737012528
20
-14.8770526186336
30
0
41
1
10
249.557714708745
20
-14.9107247922761
30
0
41
1
10
249.503212281652
20
-14.926272516864
30
0
41
1
10
249.448710350991
20
-14.9418234295156
30
0
0
SPLINE
5
283
100
AcDbEntity
8
1
62
256
6
ByLayer
370
18
48
1
60
0
100
AcDbSpline
70
4
71
3
72
8
73
4
40
0
40
0
40
0
40
0
40
1
40
1
40
1
40
1
41
1
10
250.999943169459
20
-7.31937090856482
30
0
41
1
10
251.000415193706
20
-7.35524740715144
30
0
41
1
10
250.997984280184
20
-7.39101241092101
30
0
41
1
10
250.994156289412
20
-7.42671341727109
30
0
0
SPLINE
5
284
100
AcDbEntity
8
1
62
256
6
ByLayer
370
18
48
1
60
0
100
AcDbSpline
70
4
71
1
72
4
73
2
40
0
40
0
40
1
40
1
41
1
10
250.863960109063
20
-6.41248257572971
30
0
41
1
10
249.877532521876
20
-0.215762537334797
30
0
0
SPLINE
5
285
100
AcDbEntity
8
1
62
256
6
ByLayer
370
18
48
1
60
0
100
AcDbSpline
70
4
71
1
72
4
73
2
40
0
40
0
40
1
40
1
41
1
10
249.877532521877
20
-0.215762537334882
30
0
41
1
10
249.457189228975
20
0.0421893938168694
30
0
0
SPLINE
5
286
100
AcDbEntity
8
1
62
256
6
ByLayer
370
18
48
1
60
0
100
AcDbSpline
70
4
71
1
72
4
73
2
40
0
40
0
40
1
40
1
41
1
10
250.990160650679
20
-7.20527206706646
30
0
41
1
10
250.974066489909
20
-7.10416884383957
30
0
0
SPLINE
5
287
100
AcDbEntity
8
1
62
256
6
ByLayer
370
18
48
1
60
0
100
AcDbSpline
70
4
71
1
72
4
73
2
40
0
40
0
40
1
40
1
41
1
10
250.886152639385
20
-8.24244148822174
30
0
41
1
10
250.946471987197
20
-7.78657599974653
30
0
0
SPLINE
5
288
100
AcDbEntity
8
1
62
256
6
ByLayer
370
18
48
1
60
0
100
AcDbSpline
70
4
71
3
72
8
73
4
40
0
40
0
40
0
40
0
40
1
40
1
40
1
40
1
41
1
10
250.991122535656
20
-7.21091965509092
30
0
41
1
10
250.995995704857
20
-7.24693841580614
30
0
41
1
10
250.999465411158
20
-7.28305858972774
30
0
41
1
10
250.999943169459
20
-7.31937090856482
30
0
0
SPLINE
5
289
100
AcDbEntity
8
1
62
256
6
ByLayer
370
18
48
1
60
0
100
AcDbSpline
70
4
71
3
72
10
73
6
40
0
40
0
40
0
40
0
40
0.77187633976747
40
0.77187633976747
40
1
40
1
40
1
40
1
41
1
10
249.755386996152
20
0.229322722453304
30
0
41
1
10
249.781350091537
20
0.139233309269599
30
0
41
1
10
249.807315085692
20
0.0491428258545739
30
0
41
1
10
249.840951086819
20
-0.0675718093280011
30
0
41
1
10
249.848624289606
20
-0.094197199000206
30
0
41
1
10
249.856297980917
20
-0.120822863704746
30
0
0
SPLINE
5
28A
100
AcDbEntity
8
1
62
256
6
ByLayer
370
18
48
1
60
0
100
AcDbSpline
70
4
71
1
72
4
73
2
40
0
40
0
40
1
40
1
41
1
10
250.946471987197
20
-7.78657599974653
30
0
41
1
10
250.979329005157
20
-7.53825798760681
30
0
0
SPLINE
5
28B
100
AcDbEntity
8
1
62
256
6
ByLayer
370
18
48
1
60
0
100
AcDbSpline
70
4
71
1
72
4
73
2
40
0
40
0
40
1
40
1
41
1
10
250.935251135691
20
-6.8603314994628
30
0
41
1
10
250.863960109063
20
-6.41248257572971
30
0
0
SPLINE
5
28C
100
AcDbEntity
8
1
62
256
6
ByLayer
370
18
48
1
60
0
100
AcDbSpline
70
4
71
3
72
12
73
8
40
0
40
0
40
0
40
0
40
0.500000000000072
40
0.500000000000072
40
0.750000000000036
40
0.750000000000036
40
1
40
1
40
1
40
1
41
1
10
250.05125085517
20
-14.5521981000327
30
0
41
1
10
250.04235636135
20
-14.6189755183212
30
0
41
1
10
250.013331276588
20
-14.682888986397
30
0
41
1
10
249.947166936364
20
-14.7595091318535
30
0
41
1
10
249.92130293609
20
-14.7818421929922
30
0
41
1
10
249.864283768549
20
-14.8180518803711
30
0
41
1
10
249.833031534728
20
-14.8313979831093
30
0
41
1
10
249.800714090603
20
-14.8414975039274
30
0
0
SPLINE
5
28D
100
AcDbEntity
8
1
62
256
6
ByLayer
370
18
48
1
60
0
100
AcDbSpline
70
4
71
2
72
6
73
3
40
0
40
0
40
0
40
1
40
1
40
1
41
1
10
249.457189228975
20
0.0421893938168978
30
0
41
1
10
249.449534875555
20
0.0902739018133332
30
0
41
1
10
249.436047913255
20
0.137071857933734
30
0
0
SPLINE
5
28E
100
AcDbEntity
8
1
62
256
6
ByLayer
370
18
48
1
60
0
100
AcDbSpline
70
4
71
1
72
4
73
2
40
0
40
0
40
1
40
1
41
1
10
250.051245754545
20
-14.5522781939404
30
0
41
1
10
250.886152639385
20
-8.24244148822174
30
0
0
SPLINE
5
28F
100
AcDbEntity
8
1
62
256
6
ByLayer
370
18
48
1
60
0
100
AcDbSpline
70
4
71
3
72
27
73
23
40
0
40
0
40
0
40
0
40
0.0030234109572565
40
0.0187704509686251
40
0.0502645309913623
40
0.113252691036837
40
0.239229011127785
40
0.365205331218734
40
0.487244891306841
40
0.491181651309683
40
0.499055171315367
40
0.506928691321052
40
0.52267573133242
40
0.554169811355158
40
0.617157971400632
40
0.743134291491581
40
0.86911061158253
40
0.932098771628004
40
0.963592851650741
40
0.97933989166211
40
0.995086931673478
40
1
40
1
40
1
40
1
41
1
10
249.291127721281
20
-13.7858595916987
30
0
41
1
10
249.299565196961
20
-13.7765196339679
30
0
41
1
10
249.346882955885
20
-13.7143394724016
30
0
41
1
10
249.379717997638
20
-13.4831932836285
30
0
41
1
10
249.444792430035
20
-12.9790871780423
30
0
41
1
10
249.581248714986
20
-11.9560190441767
30
0
41
1
10
249.771238301775
20
-10.5011652705531
30
0
41
1
10
250.008337074326
20
-8.77290868138195
30
0
41
1
10
250.161778378114
20
-7.60762588165741
30
0
41
1
10
250.239322229888
20
-6.99050065333626
30
0
41
1
10
250.235770288904
20
-6.90439864463588
30
0
41
1
10
250.204647893585
20
-6.76030811821192
30
0
41
1
10
250.169435670472
20
-6.50597489258936
30
0
41
1
10
250.085284583375
20
-5.99830514693352
30
0
41
1
10
249.92585562172
20
-4.98278962174442
30
0
41
1
10
249.694320665649
20
-3.53189588558234
30
0
41
1
10
249.461289455884
20
-2.08154875540114
30
0
41
1
10
249.304117483066
20
-1.06530008092497
30
0
41
1
10
249.216180357983
20
-0.558446086589782
30
0
41
1
10
249.180969511596
20
-0.265600778980343
30
0
41
1
10
249.157977548778
20
-0.101096305291691
30
0
41
1
10
249.125826135253
20
-0.0147777467137757
30
0
41
1
10
249.116524244429
20
0.0045083404983757
30
0
0
SPLINE
5
290
100
AcDbEntity
8
1
62
256
6
ByLayer
370
18
48
1
60
0
100
AcDbSpline
70
4
71
1
72
4
73
2
40
0
40
0
40
1
40
1
41
1
10
250.979329005157
20
-7.53825798760681
30
0
41
1
10
250.993165867282
20
-7.43368543932525
30
0
0
SPLINE
5
291
100
AcDbEntity
8
1
62
256
6
ByLayer
370
18
48
1
60
0
100
AcDbSpline
70
4
71
3
72
12
73
8
40
0
40
0
40
0
40
0
40
0.44101877565732
40
0.44101877565732
40
0.720346446154234
40
0.720346446154234
40
1
40
1
40
1
40
1
41
1
10
249.44871035099
20
-14.941823429516
30
0
41
1
10
249.434901629702
20
-14.9457634407409
30
0
41
1
10
249.420981175912
20
-14.9493345810679
30
0
41
1
10
249.398108980222
20
-14.9545529879756
30
0
41
1
10
249.389202684726
20
-14.9564265005577
30
0
41
1
10
249.371323230529
20
-14.9598717425637
30
0
41
1
10
249.362347399146
20
-14.9614436197784
30
0
41
1
10
249.353348528109
20
-14.9628624062745
30
0
0
SPLINE
5
292
100
AcDbEntity
8
1
62
256
6
ByLayer
370
18
48
1
60
0
100
AcDbSpline
70
4
71
3
72
12
73
8
40
0
40
0
40
0
40
0
40
0.500000000000078
40
0.500000000000078
40
0.750000000000039
40
0.750000000000039
40
1
40
1
40
1
40
1
41
1
10
249.464705210974
20
0.478688743610178
30
0
41
1
10
249.531820335469
20
0.469838998730495
30
0
41
1
10
249.596055298043
20
0.440958237774254
30
0
41
1
10
249.673063730729
20
0.375127618975171
30
0
41
1
10
249.695509450701
20
0.349393477797634
30
0
41
1
10
249.731901573944
20
0.292660538238948
30
0
41
1
10
249.745314905175
20
0.261565295528868
30
0
41
1
10
249.755465232728
20
0.229410199663704
30
0
0
SPLINE
5
293
100
AcDbEntity
8
1
62
256
6
ByLayer
370
18
48
1
60
0
100
AcDbSpline
70
4
71
1
72
4
73
2
40
0
40
0
40
1
40
1
41
1
10
250.555958110754
20
-6.86025659991853
30
0
41
1
10
250.990160650678
20
-7.20527206706635
30
0
0
SPLINE
5
294
100
AcDbEntity
8
1
62
256
6
ByLayer
370
18
48
1
60
0
100
AcDbSpline
70
4
71
3
72
12
73
8
40
0
40
0
40
0
40
0
40
0.441018775697107
40
0.441018775697107
40
0.720346446176885
40
0.720346446176885
40
1
40
1
40
1
40
1
41
1
10
249.856297981019
20
-0.120822864058226
30
0
41
1
10
249.860257763781
20
-0.134562255456842
30
0
41
1
10
249.863846794588
20
-0.148412832625098
30
0
41
1
10
249.869091213907
20
-0.171170315626824
30
0
41
1
10
249.870974029354
20
-0.180031967178451
30
0
41
1
10
249.874436272535
20
-0.197821874998624
30
0
41
1
10
249.876015848609
20
-0.206752790693116
30
0
41
1
10
249.87744150576
20
-0.215706683826625
30
0
0
SPLINE
5
295
100
AcDbEntity
8
1
62
256
6
ByLayer
370
18
48
1
60
0
100
AcDbSpline
70
4
71
1
72
4
73
2
40
0
40
0
40
1
40
1
41
1
10
249.800713127593
20
-14.8415725735448
30
0
41
1
10
249.411419951346
20
-14.1571530887076
30
0
0
SPLINE
5
296
100
AcDbEntity
8
1
62
256
6
ByLayer
370
18
48
1
60
0
100
AcDbSpline
70
4
71
3
72
12
73
8
40
0
40
0
40
0
40
0
40
0.115853405147417
40
0.268292503417212
40
0.420731601687006
40
0.496951150821903
40
1
40
1
40
1
40
1
41
1
10
250.09620921814
20
-6.69179906080947
30
0
41
1
10
250.10057798678
20
-6.71929645939881
30
0
41
1
10
250.111291095302
20
-6.78249553804386
30
0
41
1
10
250.132038650375
20
-6.8785526089012
30
0
41
1
10
250.134870955091
20
-6.94721003492032
30
0
41
1
10
250.113289470437
20
-7.11896418873536
30
0
41
1
10
250.095936528871
20
-7.25549111133529
30
0
41
1
10
250.080693372623
20
-7.3743824963683
30
0
0
SPLINE
5
297
100
AcDbEntity
8
1
62
256
6
ByLayer
370
18
48
1
60
0
100
AcDbSpline
70
4
71
1
72
4
73
2
40
0
40
0
40
1
40
1
41
1
10
249.355543154035
20
-14.173094880183
30
0
41
1
10
249.448710350991
20
-14.9418234295156
30
0
0
SPLINE
5
298
100
AcDbEntity
8
1
62
256
6
ByLayer
370
18
48
1
60
0
100
AcDbSpline
70
4
71
2
72
6
73
3
40
0
40
0
40
0
40
1
40
1
40
1
41
1
10
249.260180841414
20
-14.194129816056
30
0
41
1
10
249.308508526844
20
-14.1865139781742
30
0
41
1
10
249.355543154035
20
-14.173094880183
30
0
0
SPLINE
5
299
100
AcDbEntity
8
1
62
256
6
ByLayer
370
18
48
1
60
0
100
AcDbSpline
70
4
71
1
72
4
73
2
40
0
40
0
40
1
40
1
41
1
10
249.129268073152
20
0.441939477084446
30
0
41
1
10
249.464704534191
20
0.478602901365747
30
0
0
SPLINE
5
29A
100
AcDbEntity
8
1
62
256
6
ByLayer
370
18
48
1
60
0
100
AcDbSpline
70
4
71
1
72
4
73
2
40
0
40
0
40
1
40
1
41
1
10
249.755461960485
20
0.229330916103805
30
0
41
1
10
249.420025499445
20
0.192667491822249
30
0
0
SPLINE
5
29B
100
AcDbEntity
8
1
62
256
6
ByLayer
370
18
48
1
60
0
100
AcDbSpline
70
4
71
1
72
4
73
2
40
0
40
0
40
1
40
1
41
1
10
250.974066489909
20
-7.10416884383957
30
0
41
1
10
250.935251135691
20
-6.8603314994628
30
0
0
SPLINE
5
29C
100
AcDbEntity
8
1
62
256
6
ByLayer
370
18
48
1
60
0
100
AcDbSpline
70
4
71
1
72
4
73
2
40
0
40
0
40
1
40
1
41
1
10
249.661952578287
20
-13.8678587091016
30
0
41
1
10
250.051245754545
20
-14.5522781939403
30
0
0
SPLINE
5
29D
100
AcDbEntity
8
1
62
256
6
ByLayer
370
18
48
1
60
0
100
AcDbSpline
70
4
71
1
72
4
73
2
40
0
40
0
40
1
40
1
41
1
10
249.436047913255
20
0.137071857933734
30
0
41
1
10
249.856297980917
20
-0.120822863704546
30
0
0
SPLINE
5
29E
100
AcDbEntity
8
1
62
256
6
ByLayer
370
18
48
1
60
0
100
AcDbSpline
70
4
71
1
72
4
73
2
40
0
40
0
40
1
40
1
41
1
10
249.464704534191
20
0.478602901365747
30
0
41
1
10
249.060814845339
20
0.531508428852618
30
0
0
SPLINE
5
29F
100
AcDbEntity
8
1
62
256
6
ByLayer
370
18
48
1
60
0
100
AcDbSpline
70
4
71
1
72
4
73
2
40
0
40
0
40
1
40
1
41
1
10
250.993165867282
20
-7.43368543932536
30
0
41
1
10
250.558963327387
20
-7.08866997217322
30
0
0
SPLINE
5
2A0
100
AcDbEntity
8
1
62
256
6
ByLayer
370
18
48
1
60
0
100
AcDbSpline
70
4
71
1
72
4
73
2
40
0
40
0
40
1
40
1
41
1
10
249.353368705911
20
-14.9630288946021
30
0
41
1
10
249.260180841414
20
-14.194129816056
30
0
0
SPLINE
5
2A1
100
AcDbEntity
8
1
62
256
6
ByLayer
370
13
48
1
60
0
100
AcDbSpline
70
4
71
3
72
8
73
4
40
0
40
0
40
0
40
0
40
1
40
1
40
1
40
1
41
1
10
232.897076176785
20
24.1742836728969
30
0
41
1
10
232.844833019433
20
24.1796189407678
30
0
41
1
10
232.79254748621
20
24.1849599434447
30
0
41
1
10
232.740350021923
20
24.190289027772
30
0
0
SPLINE
5
2A2
100
AcDbEntity
8
1
62
256
6
ByLayer
370
13
48
1
60
0
100
AcDbSpline
70
4
71
3
72
12
73
8
40
0
40
0
40
0
40
0
40
0.25
40
0.25
40
0.5
40
0.5
40
1
40
1
40
1
40
1
41
1
10
232.812216260919
20
23.9504152478081
30
0
41
1
10
232.835750278049
20
23.9510935011829
30
0
41
1
10
232.858371628458
20
23.9508992642999
30
0
41
1
10
232.903943630179
20
23.9508255768551
30
0
41
1
10
232.926780881132
20
23.9508351783135
30
0
41
1
10
232.99523971584
20
23.9508160258358
30
0
41
1
10
233.040842564287
20
23.9507702975758
30
0
41
1
10
233.086464128798
20
23.9507415238321
30
0
0
SPLINE
5
2A3
100
AcDbEntity
8
1
62
256
6
ByLayer
370
13
48
1
60
0
100
AcDbSpline
70
4
71
3
72
10
73
6
40
0
40
0
40
0
40
0
40
0.5
40
0.5
40
1
40
1
40
1
40
1
41
1
10
234.920872678488
20
9.43136717363805
30
0
41
1
10
234.917196037691
20
9.43117448905866
30
0
41
1
10
234.896924840166
20
9.43108301639697
30
0
41
1
10
234.835824240236
20
9.4310875349924
30
0
41
1
10
234.794913050694
20
9.43117572575164
30
0
41
1
10
234.755715336686
20
9.43129956052701
30
0
0
SPLINE
5
2A4
100
AcDbEntity
8
1
62
256
6
ByLayer
370
13
48
1
60
0
100
AcDbSpline
70
4
71
2
72
6
73
3
40
0
40
0
40
0
40
1
40
1
40
1
41
0.998835603708715
10
231.445564656397
20
16.1260269125124
30
0
41
0.99829304864033
10
231.442684590943
20
16.0906494983225
30
0
41
1
10
231.443155184393
20
16.0551556886504
30
0
0
SPLINE
5
2A5
100
AcDbEntity
8
1
62
256
6
ByLayer
370
13
48
1
60
0
100
AcDbSpline
70
4
71
3
72
10
73
6
40
0
40
0
40
0
40
0
40
0.5
40
0.5
40
1
40
1
40
1
40
1
41
1
10
234.894949215285
20
9.34708315752428
30
0
41
1
10
234.891273613589
20
9.34689052740185
30
0
41
1
10
234.873977397777
20
9.35619772372223
30
0
41
1
10
234.822589639776
20
9.38753615674975
30
0
41
1
10
234.788397109554
20
9.40956848249917
30
0
41
1
10
234.755715336686
20
9.43129956052704
30
0
0
SPLINE
5
2A6
100
AcDbEntity
8
1
62
256
6
ByLayer
370
13
48
1
60
0
100
AcDbSpline
70
4
71
2
72
6
73
3
40
0
40
0
40
0
40
1
40
1
40
1
41
1
10
250.949929394373
20
17.2168936343072
30
0
41
0.997409491337352
10
250.949164511728
20
17.2745837679969
30
0
41
1
10
250.940164682284
20
17.3315703724688
30
0
0
SPLINE
5
2A7
100
AcDbEntity
8
1
62
256
6
ByLayer
370
13
48
1
60
0
100
AcDbSpline
70
4
71
1
72
4
73
2
40
0
40
0
40
1
40
1
41
1
10
231.443155184393
20
16.0551556886504
30
0
41
1
10
231.667749863994
20
16.0689848662811
30
0
0
SPLINE
5
2A8
100
AcDbEntity
8
1
62
256
6
ByLayer
370
13
48
1
60
0
100
AcDbSpline
70
4
71
3
72
24
73
20
40
0
40
0
40
0
40
0
40
0.0453611707755228
40
0.0453611707755228
40
0.0907223415510457
40
0.0907223415510457
40
0.136083512326568
40
0.136083512326568
40
0.181444683102091
40
0.181444683102091
40
0.272167024653137
40
0.272167024653137
40
0.362889366204183
40
0.362889366204183
40
0.544334049306274
40
0.544334049306274
40
0.725778732408364
40
0.725778732408364
40
1
40
1
40
1
40
1
41
1
10
232.755266580128
20
8.93902080981604
30
0
41
1
10
232.758432244832
20
8.92177110490834
30
0
41
1
10
232.762097186215
20
8.90312375596909
30
0
41
1
10
232.770104366523
20
8.86640458237815
30
0
41
1
10
232.774390075552
20
8.84867356936365
30
0
41
1
10
232.782326701986
20
8.81802787483127
30
0
41
1
10
232.786036490569
20
8.80476365886193
30
0
41
1
10
232.793044770945
20
8.78092241750673
30
0
41
1
10
232.796309300748
20
8.77046884111013
30
0
41
1
10
232.80567596902
20
8.74172198947201
30
0
41
1
10
232.811271534883
20
8.72625000005451
30
0
41
1
10
232.821759245769
20
8.69906723476262
30
0
41
1
10
232.826648953398
20
8.68743163731037
30
0
41
1
10
232.840551813963
20
8.65641464944574
30
0
41
1
10
232.848862495896
20
8.64071825813707
30
0
41
1
10
232.86443747518
20
8.61449000387006
30
0
41
1
10
232.871682255677
20
8.60410559044021
30
0
41
1
10
232.88889762864
20
8.58275594161171
30
0
41
1
10
232.898399787516
20
8.57411972396497
30
0
41
1
10
232.907305561338
20
8.56831626913839
30
0
0
SPLINE
5
2A9
100
AcDbEntity
8
1
62
256
6
ByLayer
370
13
48
1
60
0
100
AcDbSpline
70
4
71
1
72
4
73
2
40
0
40
0
40
1
40
1
41
1
10
232.78529775925
20
8.93986385521163
30
0
41
1
10
232.755266580128
20
8.93902080981604
30
0
0
SPLINE
5
2AA
100
AcDbEntity
8
1
62
256
6
ByLayer
370
13
48
1
60
0
100
AcDbSpline
70
4
71
3
72
9
73
5
40
0
40
0
40
0
40
0
40
0.513495271765154
40
1
40
1
40
1
40
1
41
1
10
234.000396944418
20
8.26499672908665
30
0
41
1
10
234.022535311879
20
8.26554776056375
30
0
41
1
10
234.065618842356
20
8.26752550670409
30
0
41
1
10
234.108704625631
20
8.26938105176058
30
0
41
1
10
234.129665959112
20
8.27028941155601
30
0
0
SPLINE
5
2AB
100
AcDbEntity
8
1
62
256
6
ByLayer
370
13
48
1
60
0
100
AcDbSpline
70
4
71
3
72
22
73
18
40
0
40
0
40
0
40
0
40
0.125
40
0.125
40
0.25
40
0.25
40
0.375
40
0.375
40
0.5
40
0.5
40
0.625
40
0.625
40
0.6875
40
0.6875
40
0.75
40
0.75
40
1
40
1
40
1
40
1
41
1
10
232.78529775925
20
8.93986385521163
30
0
41
1
10
232.795201698278
20
8.87509032091401
30
0
41
1
10
232.812318017319
20
8.81284822445531
30
0
41
1
10
232.862159481661
20
8.69384249680675
30
0
41
1
10
232.895182632015
20
8.63645058727604
30
0
41
1
10
232.972634385725
20
8.53296252282374
30
0
41
1
10
233.017721445689
20
8.48595570334555
30
0
41
1
10
233.118923289096
20
8.40376830699836
30
0
41
1
10
233.173454745559
20
8.36943195249634
30
0
41
1
10
233.290396355781
20
8.31430423637298
30
0
41
1
10
233.353008430359
20
8.29370865789798
30
0
41
1
10
233.447682786985
20
8.27446660707571
30
0
41
1
10
233.479590878702
20
8.26996408614195
30
0
41
1
10
233.544098935602
20
8.2647379475078
30
0
41
1
10
233.576778362978
20
8.26442658994671
30
0
41
1
10
233.739712603733
20
8.26151699358732
30
0
41
1
10
233.870056668703
20
8.26178116236565
30
0
41
1
10
234.000396944418
20
8.26499672908668
30
0
0
SPLINE
5
2AC
100
AcDbEntity
8
1
62
256
6
ByLayer
370
13
48
1
60
0
100
AcDbSpline
70
4
71
3
72
10
73
6
40
0
40
0
40
0
40
0
40
0.437251963455218
40
0.437251963455218
40
1
40
1
40
1
40
1
41
1
10
247.71306616853
20
23.936802892816
30
0
41
1
10
247.714859036323
20
23.9334891533003
30
0
41
1
10
247.724529750398
20
23.9248813925752
30
0
41
1
10
247.761144948735
20
23.8965633790729
30
0
41
1
10
247.792384550106
20
23.87437629688
30
0
41
1
10
247.825066322975
20
23.8526452188522
30
0
0
SPLINE
5
2AD
100
AcDbEntity
8
1
62
256
6
ByLayer
370
13
48
1
60
0
100
AcDbSpline
70
4
71
3
72
24
73
20
40
0
40
0
40
0
40
0
40
0.0312499999999922
40
0.0312499999999922
40
0.0624999999999844
40
0.0624999999999844
40
0.124999999999969
40
0.124999999999969
40
0.156249999999962
40
0.156249999999962
40
0.171874999999958
40
0.171874999999958
40
0.187499999999955
40
0.187499999999955
40
0.249999999999952
40
0.249999999999952
40
0.499999999999968
40
0.499999999999968
40
1
40
1
40
1
40
1
41
1
10
247.432676705478
20
23.6658025538981
30
0
41
1
10
247.376937492922
20
23.6269462746084
30
0
41
1
10
247.318602396441
20
23.5907412329808
30
0
41
1
10
247.198542587491
20
23.5249335114248
30
0
41
1
10
247.137240685794
20
23.4955189705084
30
0
41
1
10
246.949626291265
20
23.4174489578177
30
0
41
1
10
246.819575120029
20
23.3788033592671
30
0
41
1
10
246.617123326519
20
23.3418096368697
30
0
41
1
10
246.549418369504
20
23.3332423498721
30
0
41
1
10
246.447547240291
20
23.3257334577925
30
0
41
1
10
246.413529593295
20
23.3242625467131
30
0
41
1
10
246.345531855426
20
23.3206811635499
30
0
41
1
10
246.311531899313
20
23.3189089860427
30
0
41
1
10
246.141533890684
20
23.3100179233781
30
0
41
1
10
246.005536063741
20
23.3028951968314
30
0
41
1
10
245.325548475393
20
23.2672552302643
30
0
41
1
10
244.781560607811
20
23.2387057394319
30
0
41
1
10
243.149589751666
20
23.1531807885328
30
0
41
1
10
242.061608312737
20
23.0961800614297
30
0
41
1
10
240.973627829448
20
23.0391614203972
30
0
0
SPLINE
5
2AE
100
AcDbEntity
8
1
62
256
6
ByLayer
370
13
48
1
60
0
100
AcDbSpline
70
4
71
3
72
26
73
22
40
0
40
0
40
0
40
0
40
0.249999999999887
40
0.249999999999887
40
0.37499999999979
40
0.37499999999979
40
0.499999999999693
40
0.499999999999693
40
0.624999999999596
40
0.624999999999596
40
0.687499999999599
40
0.687499999999599
40
0.718749999999649
40
0.718749999999649
40
0.7499999999997
40
0.7499999999997
40
0.8124999999998
40
0.8124999999998
40
0.8749999999999
40
0.8749999999999
40
1
40
1
40
1
40
1
41
1
10
249.916158767461
20
9.44788724746186
30
0
41
1
10
249.878953800937
20
9.42676445642184
30
0
41
1
10
249.837316701717
20
9.40574834342505
30
0
41
1
10
249.763538804947
20
9.37580688238597
30
0
41
1
10
249.737464535297
20
9.36628091264953
30
0
41
1
10
249.680918707226
20
9.34857791572213
30
0
41
1
10
249.650540920248
20
9.34043838098145
30
0
41
1
10
249.58795099653
20
9.32728481218345
30
0
41
1
10
249.556160712593
20
9.32253853256142
30
0
41
1
10
249.510600920774
20
9.3185895842654
30
0
41
1
10
249.495729706954
20
9.31770260461525
30
0
41
1
10
249.473778572275
20
9.31658603564335
30
0
41
1
10
249.466466216565
20
9.31621795711604
30
0
41
1
10
249.452137332758
20
9.31574116027429
30
0
41
1
10
249.445117974334
20
9.3156357009409
30
0
41
1
10
249.422825730756
20
9.3141737381161
30
0
41
1
10
249.40637577707
20
9.31171049601383
30
0
41
1
10
249.375679333172
20
9.3088489554558
30
0
41
1
10
249.360840085432
20
9.30789516294072
30
0
41
1
10
249.315917310782
20
9.30465421609426
30
0
41
1
10
249.286243223906
20
9.30275076252545
30
0
41
1
10
249.257101456474
20
9.3013461643682
30
0
0
SPLINE
5
2AF
100
AcDbEntity
8
1
62
256
6
ByLayer
370
13
48
1
60
0
100
AcDbSpline
70
4
71
3
72
20
73
16
40
0
40
0
40
0
40
0
40
0.500000000000027
40
0.500000000000027
40
0.750000000000041
40
0.750000000000041
40
0.875000000000055
40
0.875000000000055
40
0.906250000000048
40
0.906250000000048
40
0.921875000000045
40
0.921875000000045
40
0.937500000000041
40
0.937500000000041
40
1
40
1
40
1
40
1
41
1
10
240.973627829447
20
23.0391614203972
30
0
41
1
10
239.973729378172
20
22.9867589630572
30
0
41
1
10
238.973830528068
20
22.9343641155767
30
0
41
1
10
237.473982967457
20
22.8557582106965
30
0
41
1
10
236.974034899191
20
22.8295348444508
30
0
41
1
10
236.224110216734
20
22.790249189856
30
0
41
1
10
235.974134892148
20
22.7771624391954
30
0
41
1
10
235.661668345746
20
22.7607526698107
30
0
41
1
10
235.599171416731
20
22.757541923796
30
0
41
1
10
235.505433647574
20
22.7525758173065
30
0
41
1
10
235.474187009471
20
22.7509345150667
30
0
41
1
10
235.411589610527
20
22.7497002260537
30
0
41
1
10
235.380251490081
20
22.7498585758838
30
0
41
1
10
235.22336286121
20
22.7545459299099
30
0
41
1
10
235.09722433459
20
22.7706425015637
30
0
41
1
10
234.970397504812
20
22.8002794590482
30
0
0
SPLINE
5
2B0
100
AcDbEntity
8
1
62
256
6
ByLayer
370
13
48
1
60
0
100
AcDbSpline
70
4
71
3
72
8
73
4
40
0
40
0
40
0
40
0
40
1
40
1
40
1
40
1
41
1
10
248.333818721817
20
24.9832890690461
30
0
41
1
10
248.385217998336
20
24.9940560067156
30
0
41
1
10
248.436658819135
20
25.00483307726
30
0
41
1
10
248.488013299256
20
25.0155890890342
30
0
0
SPLINE
5
2B1
100
AcDbEntity
8
1
62
256
6
ByLayer
370
13
48
1
60
0
100
AcDbSpline
70
4
71
2
72
6
73
3
40
0
40
0
40
0
40
1
40
1
40
1
41
0.998835603708703
10
231.445564656396
20
16.1260269125131
30
0
41
0.998293048640349
10
231.439002421504
20
16.1609094767102
30
0
41
1
10
231.435760323613
20
16.1962580379889
30
0
0
SPLINE
5
2B2
100
AcDbEntity
8
1
62
256
6
ByLayer
370
13
48
1
60
0
100
AcDbSpline
70
4
71
1
72
4
73
2
40
0
40
0
40
1
40
1
41
1
10
232.611235920453
20
24.1820404249172
30
0
41
1
10
232.812216260919
20
23.9504152478081
30
0
0
SPLINE
5
2B3
100
AcDbEntity
8
1
62
256
6
ByLayer
370
13
48
1
60
0
100
AcDbSpline
70
4
71
1
72
4
73
2
40
0
40
0
40
1
40
1
41
1
10
231.674470876453
20
16.1838746371188
30
0
41
1
10
231.449436262944
20
16.1625251779485
30
0
0
SPLINE
5
2B4
100
AcDbEntity
8
1
62
256
6
ByLayer
370
13
48
1
60
0
100
AcDbSpline
70
4
71
3
72
10
73
6
40
0
40
0
40
0
40
0
40
0.470344360195001
40
0.470344360195001
40
1
40
1
40
1
40
1
41
1
10
247.686971248824
20
23.8539598301117
30
0
41
1
10
247.68699011418
20
23.8537714937726
30
0
41
1
10
247.699836311944
20
23.8535196701675
30
0
41
1
10
247.74791045542
20
23.8530120064455
30
0
41
1
10
247.785868608966
20
23.8527690536276
30
0
41
1
10
247.825066322975
20
23.8526452188522
30
0
0
SPLINE
5
2B5
100
AcDbEntity
8
1
62
256
6
ByLayer
370
13
48
1
60
0
100
AcDbSpline
70
4
71
3
72
18
73
14
40
0
40
0
40
0
40
0
40
0.499999999999993
40
0.499999999999993
40
0.74999999999999
40
0.74999999999999
40
0.874999999999995
40
0.874999999999995
40
0.906249999999996
40
0.906249999999996
40
0.937499999999997
40
0.937499999999997
40
1
40
1
40
1
40
1
41
1
10
241.652033037024
20
10.4474098477466
30
0
41
1
10
242.661378679423
20
10.5003074113937
30
0
41
1
10
243.670724644462
20
10.5531969718066
30
0
41
1
10
245.184743156715
20
10.6325462007985
30
0
41
1
10
245.689415260369
20
10.6590188389386
30
0
41
1
10
246.446425226087
20
10.698671312519
30
0
41
1
10
246.698760955618
20
10.7119176879777
30
0
41
1
10
247.014181635759
20
10.7284438862322
30
0
41
1
10
247.077249875818
20
10.7322451173145
30
0
41
1
10
247.203456496501
20
10.7376590297199
30
0
41
1
10
247.266650398501
20
10.7375393140848
30
0
41
1
10
247.456509662806
20
10.7285196983464
30
0
41
1
10
247.583447624131
20
10.7111140706548
30
0
41
1
10
247.710781382333
20
10.6813586538809
30
0
0
SPLINE
5
2B6
100
AcDbEntity
8
1
62
256
6
ByLayer
370
13
48
1
60
0
100
AcDbSpline
70
4
71
3
72
18
73
14
40
0
40
0
40
0
40
0
40
0.499999999999993
40
0.499999999999993
40
0.74999999999999
40
0.74999999999999
40
0.874999999999988
40
0.874999999999988
40
0.906249999999991
40
0.906249999999991
40
0.937499999999994
40
0.937499999999994
40
1
40
1
40
1
40
1
41
1
10
241.002543820049
20
22.8404023740508
30
0
41
1
10
239.993198177651
20
22.7875048104037
30
0
41
1
10
238.983852212611
20
22.7346152499908
30
0
41
1
10
237.469833700359
20
22.655266020999
30
0
41
1
10
236.965161596704
20
22.6287933828588
30
0
41
1
10
236.208151630987
20
22.5891409092784
30
0
41
1
10
235.955815901456
20
22.5758945338197
30
0
41
1
10
235.640395221315
20
22.5593683355652
30
0
41
1
10
235.577326981255
20
22.5555671044829
30
0
41
1
10
235.451120360573
20
22.5501531920776
30
0
41
1
10
235.387926458573
20
22.5502729077126
30
0
41
1
10
235.198067194268
20
22.5592925234511
30
0
41
1
10
235.071129232943
20
22.5766981511426
30
0
41
1
10
234.943795474741
20
22.6064535679165
30
0
0
SPLINE
5
2B7
100
AcDbEntity
8
1
62
256
6
ByLayer
370
13
48
1
60
0
100
AcDbSpline
70
4
71
3
72
12
73
8
40
0
40
0
40
0
40
0
40
0.061154186715704
40
0.061154186715704
40
0.558746291906577
40
0.558746291906577
40
1
40
1
40
1
40
1
41
1
10
249.824375736978
20
9.33939116220969
30
0
41
1
10
249.818904515951
20
9.33356045126052
30
0
41
1
10
249.813339795175
20
9.3278075246983
30
0
41
1
10
249.761654647337
20
9.27597689868804
30
0
41
1
10
249.711011046268
20
9.23612855298475
30
0
41
1
10
249.60673017186
20
9.17287484332542
30
0
41
1
10
249.553907051537
20
9.14825511448632
30
0
41
1
10
249.499736543231
20
9.12956406455345
30
0
0
SPLINE
5
2B8
100
AcDbEntity
8
1
62
256
6
ByLayer
370
13
48
1
60
0
100
AcDbSpline
70
4
71
3
72
9
73
5
40
0
40
0
40
0
40
0
40
0.513495271765133
40
1
40
1
40
1
40
1
41
1
10
232.611235920453
20
24.1820404249172
30
0
41
1
10
232.633310610094
20
24.1838065015782
30
0
41
1
10
232.676364855248
20
24.186343044971
30
0
41
1
10
232.719408567368
20
24.1890013554989
30
0
41
1
10
232.740350021924
20
24.1902890277703
30
0
0
SPLINE
5
2B9
100
AcDbEntity
8
1
62
256
6
ByLayer
370
13
48
1
60
0
100
AcDbSpline
70
4
71
3
72
20
73
16
40
0
40
0
40
0
40
0
40
0.0625000000000122
40
0.0625000000000122
40
0.125000000000024
40
0.125000000000024
40
0.156250000000024
40
0.156250000000024
40
0.187500000000025
40
0.187500000000025
40
0.250000000000024
40
0.250000000000024
40
0.500000000000012
40
0.500000000000012
40
1
40
1
40
1
40
1
41
1
10
247.564734605263
20
23.5024576450959
30
0
41
1
10
247.448506570563
20
23.4214340932648
30
0
41
1
10
247.32606487107
20
23.3533076870086
30
0
41
1
10
247.069164927891
20
23.2419965353252
30
0
41
1
10
246.933057379848
20
23.1986545779329
30
0
41
1
10
246.728522236347
20
23.1553186414031
30
0
41
1
10
246.660079443699
20
23.1443531549787
30
0
41
1
10
246.522676653961
20
23.1292289264567
30
0
41
1
10
246.453639969231
20
23.1260794431841
30
0
41
1
10
246.246636586544
20
23.1152271275334
30
0
41
1
10
246.10863210436
20
23.1080215599731
30
0
41
1
10
245.418619370441
20
23.0718663665957
30
0
41
1
10
244.866613176067
20
23.0428893866948
30
0
41
1
10
243.21058386711
20
22.956101317903
30
0
41
1
10
242.106563333235
20
22.898261585022
30
0
41
1
10
241.00254382005
20
22.8404023740508
30
0
0
SPLINE
5
2BA
100
AcDbEntity
8
1
62
256
6
ByLayer
370
13
48
1
60
0
100
AcDbSpline
70
4
71
3
72
12
73
8
40
0
40
0
40
0
40
0
40
0.24999999999994
40
0.24999999999994
40
0.49999999999988
40
0.49999999999988
40
1
40
1
40
1
40
1
41
1
10
249.062023229893
20
9.29650122553198
30
0
41
1
10
249.040256839814
20
9.2959156095655
30
0
41
1
10
249.019823381595
20
9.29622450901951
30
0
41
1
10
248.978475538296
20
9.2965195752266
30
0
41
1
10
248.957728239269
20
9.29661950350746
30
0
41
1
10
248.895562107812
20
9.29696844258814
30
0
41
1
10
248.854170097097
20
9.29723485150268
30
0
41
1
10
248.812751293586
20
9.29748388261723
30
0
0
SPLINE
5
2BB
100
AcDbEntity
8
1
62
256
6
ByLayer
370
13
48
1
60
0
100
AcDbSpline
70
4
71
3
72
8
73
4
40
0
40
0
40
0
40
0
40
1
40
1
40
1
40
1
41
1
10
249.257101456474
20
9.3013461643682
30
0
41
1
10
249.190258317072
20
9.29812440540491
30
0
41
1
10
249.125349328788
20
9.29680673423118
30
0
41
1
10
249.062023229893
20
9.29650122553198
30
0
0
SPLINE
5
2BC
100
AcDbEntity
8
1
62
256
6
ByLayer
370
13
48
1
60
0
100
AcDbSpline
70
4
71
3
72
20
73
16
40
0
40
0
40
0
40
0
40
0.500000000000014
40
0.500000000000014
40
0.750000000000014
40
0.750000000000014
40
0.875000000000014
40
0.875000000000014
40
0.906250000000004
40
0.906250000000004
40
0.921874999999998
40
0.921874999999998
40
0.937499999999993
40
0.937499999999993
40
1
40
1
40
1
40
1
41
1
10
241.64405142892
20
10.2467170801912
30
0
41
1
10
242.643949880195
20
10.2991195375311
30
0
41
1
10
243.643848730299
20
10.3515143850116
30
0
41
1
10
245.14369629091
20
10.4301202898918
30
0
41
1
10
245.643644359176
20
10.4563436561376
30
0
41
1
10
246.393569041633
20
10.4956293107323
30
0
41
1
10
246.643544366219
20
10.5087160613929
30
0
41
1
10
246.956010912621
20
10.5251258307776
30
0
41
1
10
247.018507841635
20
10.5283365767922
30
0
41
1
10
247.112245610792
20
10.5333026832818
30
0
41
1
10
247.143492248897
20
10.5349439855217
30
0
41
1
10
247.20608964784
20
10.5361782745347
30
0
41
1
10
247.237427768286
20
10.5360199247045
30
0
41
1
10
247.394316397157
20
10.5313325706784
30
0
41
1
10
247.520454923777
20
10.5152359990247
30
0
41
1
10
247.647281753555
20
10.4855990415402
30
0
0
SPLINE
5
2BD
100
AcDbEntity
8
1
62
256
6
ByLayer
370
13
48
1
60
0
100
AcDbSpline
70
4
71
3
72
8
73
4
40
0
40
0
40
0
40
0
40
1
40
1
40
1
40
1
41
1
10
232.42913537191
20
24.1655268014938
30
0
41
1
10
232.489771464654
20
24.1716487432922
30
0
41
1
10
232.550470382601
20
24.1771654696318
30
0
41
1
10
232.611235920453
20
24.1820404249172
30
0
0
SPLINE
5
2BE
100
AcDbEntity
8
1
62
256
6
ByLayer
370
13
48
1
60
0
100
AcDbSpline
70
4
71
2
72
6
73
3
40
0
40
0
40
0
40
1
40
1
40
1
41
1
10
250.949929394373
20
17.2168936343072
30
0
41
0.997409491337352
10
250.950694277018
20
17.1592035006191
30
0
41
1
10
250.943208381914
20
17.1020038634695
30
0
0
SPLINE
5
2BF
100
AcDbEntity
8
1
62
256
6
ByLayer
370
13
48
1
60
0
100
AcDbSpline
70
4
71
2
72
6
73
3
40
0
40
0
40
0
40
1
40
1
40
1
41
1
10
231.667749863994
20
16.0689848662811
30
0
41
0.997409491337352
10
231.666984981349
20
16.1266749999692
30
0
41
1
10
231.674470876453
20
16.1838746371188
30
0
0
SPLINE
5
2C0
100
AcDbEntity
8
1
62
256
6
ByLayer
370
13
48
1
60
0
100
AcDbSpline
70
4
71
1
72
4
73
2
40
0
40
0
40
1
40
1
41
1
10
233.086464128798
20
23.9507415238321
30
0
41
1
10
232.897076176785
20
24.1742836728969
30
0
0
SPLINE
5
2C1
100
AcDbEntity
8
1
62
256
6
ByLayer
370
13
48
1
60
0
100
AcDbSpline
70
4
71
2
72
6
73
3
40
0
40
0
40
0
40
1
40
1
40
1
41
1
10
231.433633523856
20
16.3037952278505
30
0
41
0.997409491337352
10
231.430835682605
20
16.2499513502411
30
0
41
1
10
231.435760323613
20
16.1962580379889
30
0
0
SPLINE
5
2C2
100
AcDbEntity
8
1
62
256
6
ByLayer
370
13
48
1
60
0
100
AcDbSpline
70
4
71
2
72
6
73
3
40
0
40
0
40
0
40
1
40
1
40
1
41
1
10
231.449436262944
20
16.1625251779485
30
0
41
0.999116442697022
10
231.447054215958
20
16.1443239847174
30
0
41
0.998835603708715
10
231.445564656397
20
16.1260269125124
30
0
0
SPLINE
5
2C3
100
AcDbEntity
8
1
62
256
6
ByLayer
370
13
48
1
60
0
100
AcDbSpline
70
4
71
2
72
6
73
3
40
0
40
0
40
0
40
1
40
1
40
1
41
1
10
231.667749863994
20
16.0689848662811
30
0
41
0.997409491337352
10
231.668514746639
20
16.0112947325915
30
0
41
1
10
231.677514576083
20
15.9543081281195
30
0
0
SPLINE
5
2C4
100
AcDbEntity
8
1
62
256
6
ByLayer
370
13
48
1
60
0
100
AcDbSpline
70
4
71
3
72
24
73
20
40
0
40
0
40
0
40
0
40
0.0514081714714202
40
0.0514081714714202
40
0.10281634294284
40
0.10281634294284
40
0.154224514414261
40
0.154224514414261
40
0.205632685885681
40
0.205632685885681
40
0.308449028828509
40
0.308449028828509
40
0.411265371771337
40
0.411265371771337
40
0.616898057656993
40
0.616898057656993
40
0.82253074354265
40
0.82253074354265
40
1
40
1
40
1
40
1
41
1
10
250.067370085223
20
9.84630970923624
30
0
41
1
10
250.066024847507
20
9.82882359794999
30
0
41
1
10
250.064329161786
20
9.80989531044898
30
0
41
1
10
250.060204044437
20
9.77254031008007
30
0
41
1
10
250.057795208513
20
9.75445845083141
30
0
41
1
10
250.053105407105
20
9.72315103325542
30
0
41
1
10
250.050802429243
20
9.70957170154963
30
0
41
1
10
250.046324629281
20
9.68512850023114
30
0
41
1
10
250.044170679191
20
9.67439095333611
30
0
41
1
10
250.037860186733
20
9.64482249651863
30
0
41
1
10
250.033912537243
20
9.62885036837724
30
0
41
1
10
250.026323651817
20
9.60072024881575
30
0
41
1
10
250.022676981639
20
9.58863727875922
30
0
41
1
10
250.012092440476
20
9.55633696054983
30
0
41
1
10
250.00546800499
20
9.53985785290399
30
0
41
1
10
249.992719946186
20
9.51214525110819
30
0
41
1
10
249.986600320132
20
9.50106043880956
30
0
41
1
10
249.975554508393
20
9.48397386040793
30
0
41
1
10
249.9705723344
20
9.47745389789458
30
0
41
1
10
249.965703257891
20
9.47206866922656
30
0
0
SPLINE
5
2C5
100
AcDbEntity
8
1
62
256
6
ByLayer
370
13
48
1
60
0
100
AcDbSpline
70
4
71
3
72
10
73
6
40
0
40
0
40
0
40
0
40
0.196352315127893
40
0.196352315127893
40
1
40
1
40
1
40
1
41
1
10
249.954912744816
20
9.4617431840592
30
0
41
1
10
249.952245174667
20
9.45957608663011
30
0
41
1
10
249.949608654431
20
9.45771002144647
30
0
41
1
10
249.936319302199
20
9.44949863703732
30
0
41
1
10
249.926090674719
20
9.44725969404615
30
0
41
1
10
249.916158767461
20
9.44788724746192
30
0
0
SPLINE
5
2C6
100
AcDbEntity
8
1
62
256
6
ByLayer
370
13
48
1
60
0
100
AcDbSpline
70
4
71
3
72
24
73
20
40
0
40
0
40
0
40
0
40
0.0312500000000016
40
0.0312500000000016
40
0.0625000000000032
40
0.0625000000000032
40
0.125000000000006
40
0.125000000000006
40
0.156250000000008
40
0.156250000000008
40
0.171875000000009
40
0.171875000000009
40
0.187500000000009
40
0.187500000000009
40
0.250000000000013
40
0.250000000000013
40
0.500000000000013
40
0.500000000000013
40
1
40
1
40
1
40
1
41
1
10
235.185002552889
20
9.62007594669046
30
0
41
1
10
235.240741765446
20
9.65893222598015
30
0
41
1
10
235.299076861926
20
9.69513726760775
30
0
41
1
10
235.419136670877
20
9.76094498916382
30
0
41
1
10
235.480438572573
20
9.79035953008017
30
0
41
1
10
235.668052967103
20
9.86842954277085
30
0
41
1
10
235.798104138339
20
9.90707514132146
30
0
41
1
10
236.000555931849
20
9.94406886371877
30
0
41
1
10
236.068260888864
20
9.95263615071639
30
0
41
1
10
236.170132018077
20
9.96014504279589
30
0
41
1
10
236.204149665073
20
9.96161595387525
30
0
41
1
10
236.272147402942
20
9.96519733703849
30
0
41
1
10
236.306147359055
20
9.96696951454561
30
0
41
1
10
236.476145367684
20
9.97586057721031
30
0
41
1
10
236.612143194628
20
9.98298330375701
30
0
41
1
10
237.292130782976
20
10.0186232703241
30
0
41
1
10
237.836118650558
20
10.0471727611566
30
0
41
1
10
239.468089506705
20
10.1326977120557
30
0
41
1
10
240.55607094563
20
10.1896984391586
30
0
41
1
10
241.644051428919
20
10.2467170801911
30
0
0
SPLINE
5
2C7
100
AcDbEntity
8
1
62
256
6
ByLayer
370
13
48
1
60
0
100
AcDbSpline
70
4
71
1
72
4
73
2
40
0
40
0
40
1
40
1
41
1
10
231.355472024303
20
16.0821569724642
30
0
41
1
10
231.443561292368
20
16.089344376429
30
0
0
SPLINE
5
2C8
100
AcDbEntity
8
1
62
256
6
ByLayer
370
13
48
1
60
0
100
AcDbSpline
70
4
71
3
72
14
73
10
40
0
40
0
40
0
40
0
40
0.0288455662379026
40
0.0288455662379026
40
0.190704638531551
40
0.190704638531551
40
0.352563710825199
40
0.352563710825199
40
1
40
1
40
1
40
1
41
1
10
232.442028669479
20
23.9335453228219
30
0
41
1
10
232.445748379308
20
23.9339824764138
30
0
41
1
10
232.44946133998
20
23.9344078142535
30
0
41
1
10
232.473811516058
20
23.9368748332099
30
0
41
1
10
232.493960038658
20
23.938060959714
30
0
41
1
10
232.53454235064
20
23.9409326293456
30
0
41
1
10
232.55477046536
20
23.9422580977935
30
0
41
1
10
232.65530261701
20
23.9478202755831
30
0
41
1
10
232.734432504039
20
23.9497194984701
30
0
41
1
10
232.812216260919
20
23.9504152478081
30
0
0
SPLINE
5
2C9
100
AcDbEntity
8
1
62
256
6
ByLayer
370
13
48
1
60
0
100
AcDbSpline
70
4
71
1
72
4
73
2
40
0
40
0
40
1
40
1
41
1
10
231.677514576083
20
15.9543081281195
30
0
41
1
10
231.452280732668
20
15.9479852876565
30
0
0
SPLINE
5
2CA
100
AcDbEntity
8
1
62
256
6
ByLayer
370
13
48
1
60
0
100
AcDbSpline
70
4
71
3
72
22
73
18
40
0
40
0
40
0
40
0
40
0.125
40
0.125
40
0.25
40
0.25
40
0.375
40
0.375
40
0.5
40
0.5
40
0.625
40
0.625
40
0.75
40
0.75
40
0.875
40
0.875
40
1
40
1
40
1
40
1
41
1
10
249.832381499117
20
24.3460146453767
30
0
41
1
10
249.823722805412
20
24.4026440523374
30
0
41
1
10
249.809613252836
20
24.4573602891141
30
0
41
1
10
249.769352918802
20
24.5625664708805
30
0
41
1
10
249.743113707507
20
24.6137733827963
30
0
41
1
10
249.680615312498
20
24.7086208719323
30
0
41
1
10
249.644870287778
20
24.7522763303728
30
0
41
1
10
249.563875515223
20
24.8316206340908
30
0
41
1
10
249.518643391064
20
24.8672362752868
30
0
41
1
10
249.423327506442
20
24.9273335630056
30
0
41
1
10
249.372605223136
20
24.9522963794176
30
0
41
1
10
249.265296634571
20
24.9913982856367
30
0
41
1
10
249.210574939983
20
25.0051192677224
30
0
41
1
10
249.099023469466
20
25.0210472262655
30
0
41
1
10
249.04185540394
20
25.0214842851107
30
0
41
1
10
248.927897041924
20
25.0234030000201
30
0
41
1
10
248.870918627441
20
25.0237653221142
30
0
41
1
10
248.813940881606
20
25.0236068439814
30
0
0
SPLINE
5
2CB
100
AcDbEntity
8
1
62
256
6
ByLayer
370
13
48
1
60
0
100
AcDbSpline
70
4
71
3
72
9
73
5
40
0
40
0
40
0
40
0
40
0.513495271765317
40
1
40
1
40
1
40
1
41
1
10
248.617282313949
20
25.0208817715017
30
0
41
1
10
248.595143946488
20
25.0203307400246
30
0
41
1
10
248.552060416011
20
25.0183529938843
30
0
41
1
10
248.508974632736
20
25.0164974488277
30
0
41
1
10
248.488013299255
20
25.0155890890324
30
0
0
SPLINE
5
2CC
100
AcDbEntity
8
1
62
256
6
ByLayer
370
13
48
1
60
0
100
AcDbSpline
70
4
71
1
72
4
73
2
40
0
40
0
40
1
40
1
41
1
10
248.99845493605
20
9.19844461994643
30
0
41
1
10
249.062023229893
20
9.29650122553198
30
0
0
SPLINE
5
2CD
100
AcDbEntity
8
1
62
256
6
ByLayer
370
13
48
1
60
0
100
AcDbSpline
70
4
71
3
72
8
73
4
40
0
40
0
40
0
40
0
40
1
40
1
40
1
40
1
41
1
10
248.813940881606
20
25.0236068439814
30
0
41
1
10
248.748387093587
20
25.02342451241
30
0
41
1
10
248.682834259759
20
25.0224989742756
30
0
41
1
10
248.617282313949
20
25.0208817715016
30
0
0
SPLINE
5
2CE
100
AcDbEntity
8
1
62
256
6
ByLayer
370
13
48
1
60
0
100
AcDbSpline
70
4
71
3
72
20
73
16
40
0
40
0
40
0
40
0
40
0.0625000000000104
40
0.0625000000000104
40
0.125000000000021
40
0.125000000000021
40
0.15625000000002
40
0.15625000000002
40
0.187500000000019
40
0.187500000000019
40
0.250000000000018
40
0.250000000000018
40
0.500000000000012
40
0.500000000000012
40
1
40
1
40
1
40
1
41
1
10
235.089842251811
20
9.78535457670154
30
0
41
1
10
235.206070286511
20
9.8663781285326
30
0
41
1
10
235.328511986004
20
9.93450453478877
30
0
41
1
10
235.585411929183
20
10.0458156864722
30
0
41
1
10
235.721519477226
20
10.0891576438645
30
0
41
1
10
235.926054620727
20
10.1324935803943
30
0
41
1
10
235.994497413374
20
10.1434590668187
30
0
41
1
10
236.131900203113
20
10.1585832953407
30
0
41
1
10
236.200936887843
20
10.1617327786133
30
0
41
1
10
236.407940270529
20
10.1725850942641
30
0
41
1
10
236.545944752713
20
10.1797906618244
30
0
41
1
10
237.235957486633
20
10.2159458552017
30
0
41
1
10
237.787963681006
20
10.2449228351027
30
0
41
1
10
239.443992989964
20
10.3317109038945
30
0
41
1
10
240.548013523838
20
10.3895506367754
30
0
41
1
10
241.652033037024
20
10.4474098477466
30
0
0
SPLINE
5
2CF
100
AcDbEntity
8
1
62
256
6
ByLayer
370
13
48
1
60
0
100
AcDbSpline
70
4
71
1
72
4
73
2
40
0
40
0
40
1
40
1
41
1
10
231.363485305688
20
16.3012882901165
30
0
41
1
10
231.433633523856
20
16.3037952278505
30
0
0
SPLINE
5
2D0
100
AcDbEntity
8
1
62
256
6
ByLayer
370
13
48
1
60
0
100
AcDbSpline
70
4
71
2
72
6
73
3
40
0
40
0
40
0
40
1
40
1
40
1
41
1
10
231.452280732668
20
15.9479852876565
30
0
41
0.997409491337352
10
231.443870000502
20
16.0012417488241
30
0
41
1
10
231.443155184393
20
16.0551556886504
30
0
0
SPLINE
5
2D1
100
AcDbEntity
8
1
62
256
6
ByLayer
370
13
48
1
60
0
100
AcDbSpline
70
4
71
3
72
16
73
12
40
0
40
0
40
0
40
0
40
0.24999999999998
40
0.24999999999998
40
0.374999999999983
40
0.374999999999983
40
0.499999999999987
40
0.499999999999987
40
0.749999999999993
40
0.749999999999993
40
1
40
1
40
1
40
1
41
1
10
225.099054122597
20
2.30903243027214
30
0
41
1
10
225.334161881361
20
2.20935352171892
30
0
41
1
10
225.573836413493
20
2.12717292185729
30
0
41
1
10
225.940240668344
20
2.02966741159719
30
0
41
1
10
226.063528084625
20
2.00147831619049
30
0
41
1
10
226.31246310861
20
1.9538623624494
30
0
41
1
10
226.438529019355
20
1.93438975411908
30
0
41
1
10
226.817416977286
20
1.88987190960498
30
0
41
1
10
227.068612289059
20
1.87878881119371
30
0
41
1
10
227.568368806848
20
1.89250368640046
30
0
41
1
10
227.816929266412
20
1.91730766033453
30
0
41
1
10
228.064058872033
20
1.96051087659637
30
0
0
SPLINE
5
2D2
100
AcDbEntity
8
1
62
256
6
ByLayer
370
13
48
1
60
0
100
AcDbSpline
70
4
71
3
72
18
73
14
40
0
40
0
40
0
40
0
40
0.249999999999974
40
0.249999999999974
40
0.374999999999962
40
0.374999999999962
40
0.499999999999951
40
0.499999999999951
40
0.749999999999923
40
0.749999999999923
40
0.874999999999962
40
0.874999999999962
40
1
40
1
40
1
40
1
41
1
10
236.698222874135
20
9.66707803820091
30
0
41
1
10
236.692902324299
20
9.66679919999942
30
0
41
1
10
236.69416626852
20
9.67705765213202
30
0
41
1
10
236.709431364179
20
9.7054759829978
30
0
41
1
10
236.716790018653
20
9.7169804917728
30
0
41
1
10
236.736732277842
20
9.74247885135242
30
0
41
1
10
236.749583358611
20
9.75672363624903
30
0
41
1
10
236.795666620214
20
9.79919064499751
30
0
41
1
10
236.837854314282
20
9.82788338412487
30
0
41
1
10
236.91114327968
20
9.8590686530051
30
0
41
1
10
236.937655393468
20
9.867746635282
30
0
41
1
10
236.991800116244
20
9.88022817333569
30
0
41
1
10
237.019665439612
20
9.88418299568951
30
0
41
1
10
237.048333783946
20
9.88570100630221
30
0
0
SPLINE
5
2D3
100
AcDbEntity
8
1
62
256
6
ByLayer
370
13
48
1
60
0
100
AcDbSpline
70
4
71
3
72
14
73
10
40
0
40
0
40
0
40
0
40
0.249999999999998
40
0.249999999999998
40
0.374999999999999
40
0.374999999999999
40
0.5
40
0.5
40
1
40
1
40
1
40
1
41
1
10
40.7048446018862
20
-9.54836228787897
30
0
41
1
10
40.9778021865512
20
-9.41395994006584
30
0
41
1
10
41.257948728074
20
-9.29514878801155
30
0
41
1
10
41.6890525260555
20
-9.14060328524295
30
0
41
1
10
41.8345721407342
20
-9.09304260332189
30
0
41
1
10
42.1293197853847
20
-9.00599518662389
30
0
41
1
10
42.2783177791161
20
-8.96660629760132
30
0
41
1
10
43.0241708288193
20
-8.79206449385717
30
0
41
1
10
43.629930106963
20
-8.72129916271078
30
0
41
1
10
44.2449982603393
20
-8.72030179792816
30
0
0
SPLINE
5
2D4
100
AcDbEntity
8
1
62
256
6
ByLayer
370
13
48
1
60
0
100
AcDbSpline
70
4
71
3
72
12
73
8
40
0
40
0
40
0
40
0
40
0.499999999999997
40
0.499999999999997
40
0.749999999999999
40
0.749999999999999
40
1
40
1
40
1
40
1
41
1
10
231.026231508203
20
9.18158289805368
30
0
41
1
10
231.079546582705
20
9.51240112202271
30
0
41
1
10
231.102056607944
20
9.84448550274257
30
0
41
1
10
231.071155591959
20
10.3452699939551
30
0
41
1
10
231.04958433517
20
10.5136127769855
30
0
41
1
10
230.98154764004
20
10.8410845687747
30
0
41
1
10
230.935158910383
20
11.0012218259943
30
0
41
1
10
230.874601741334
20
11.1572373759313
30
0
0
SPLINE
5
2D5
100
AcDbEntity
8
1
62
256
6
ByLayer
370
13
48
1
60
0
100
AcDbSpline
70
4
71
1
72
4
73
2
40
0
40
0
40
1
40
1
41
1
10
46.0099999986921
20
-23.6402565514823
30
0
41
1
10
46.0100000013079
20
-23.6538007917155
30
0
0
SPLINE
5
2D6
100
AcDbEntity
8
1
62
256
6
ByLayer
370
13
48
1
60
0
100
AcDbSpline
70
4
71
3
72
8
73
4
40
0
40
0
40
0
40
0
40
1
40
1
40
1
40
1
41
1
10
46
20
-8.71923938887818
30
0
41
1
10
45.4141704097508
20
-8.71899895929647
30
0
41
1
10
44.8291711111581
20
-8.71935453147518
30
0
41
1
10
44.2449982603394
20
-8.72030179792813
30
0
0
SPLINE
5
2D7
100
AcDbEntity
8
1
62
256
6
ByLayer
370
13
48
1
60
0
100
AcDbSpline
70
4
71
3
72
8
73
4
40
0
40
0
40
0
40
0
40
1
40
1
40
1
40
1
41
1
10
233.589239013565
20
24.0751394973627
30
0
41
1
10
233.498385205356
20
24.0681257343541
30
0
41
1
10
233.405380855156
20
24.0621178683095
30
0
41
1
10
233.31027283009
20
24.0571811806545
30
0
0
SPLINE
5
2D8
100
AcDbEntity
8
1
62
256
6
ByLayer
370
13
48
1
60
0
100
AcDbSpline
70
4
71
3
72
14
73
10
40
0
40
0
40
0
40
0
40
0.499999999999997
40
0.499999999999997
40
0.749999999999995
40
0.749999999999995
40
0.874999999999998
40
0.874999999999998
40
1
40
1
40
1
40
1
41
1
10
223.239886359869
20
22.5057588589777
30
0
41
1
10
223.912950966304
20
21.1661494144227
30
0
41
1
10
224.666067725639
20
19.8760979479483
30
0
41
1
10
225.942248485996
20
18.031718151225
30
0
41
1
10
226.392060954378
20
17.4320419106784
30
0
41
1
10
227.106497993705
20
16.5571160261317
30
0
41
1
10
227.351567798311
20
16.2692427975928
30
0
41
1
10
227.853035663449
20
15.7045852383363
30
0
41
1
10
228.109583329314
20
15.4275877667296
30
0
41
1
10
228.371985084828
20
15.1559586107147
30
0
0
SPLINE
5
2D9
100
AcDbEntity
8
1
62
256
6
ByLayer
370
13
48
1
60
0
100
AcDbSpline
70
4
71
3
72
8
73
4
40
0
40
0
40
0
40
0
40
1
40
1
40
1
40
1
41
1
10
235.929956732343
20
8.7984057810217
30
0
41
1
10
235.951391865019
20
8.82173253673892
30
0
41
1
10
235.972435739481
20
8.84548473087119
30
0
41
1
10
235.993058048494
20
8.86963403626081
30
0
0
SPLINE
5
2DA
100
AcDbEntity
8
1
62
256
6
ByLayer
370
13
48
1
60
0
100
AcDbSpline
70
4
71
3
72
14
73
10
40
0
40
0
40
0
40
0
40
0.5
40
0.5
40
0.625000000000001
40
0.625000000000001
40
0.750000000000003
40
0.750000000000003
40
1
40
1
40
1
40
1
41
1
10
44.244998145606
20
-24.3332866813095
30
0
41
1
10
43.6309623484843
20
-24.3680036179599
30
0
41
1
10
43.0284826592458
20
-24.4142684461499
30
0
41
1
10
42.289212000218
20
-24.4829220614924
30
0
41
1
10
42.1420568053803
20
-24.497173597681
30
0
41
1
10
41.8491589911343
20
-24.5265411442974
30
0
41
1
10
41.7030911136595
20
-24.5416921783202
30
0
41
1
10
41.2692639600548
20
-24.5878752222152
30
0
41
1
10
40.9886965315061
20
-24.6193366820689
30
0
41
1
10
40.7164910015249
20
-24.6502704965923
30
0
0
SPLINE
5
2DB
100
AcDbEntity
8
1
62
256
6
ByLayer
370
13
48
1
60
0
100
AcDbSpline
70
4
71
3
72
14
73
10
40
0
40
0
40
0
40
0
40
0.125
40
0.125
40
0.249999999999999
40
0.249999999999999
40
0.499999999999999
40
0.499999999999999
40
1
40
1
40
1
40
1
41
1
10
243.762708723844
20
10.0373120533606
30
0
41
1
10
243.799334960785
20
10.0392315531022
30
0
41
1
10
243.836663465277
20
10.0420561773316
30
0
41
1
10
243.9105441693
20
10.0494115779791
30
0
41
1
10
243.947318261127
20
10.0539469476682
30
0
41
1
10
244.057213947035
20
10.070107893487
30
0
41
1
10
244.129908900443
20
10.0842796246944
30
0
41
1
10
244.346835960251
20
10.1371504480147
30
0
41
1
10
244.489843189205
20
10.1859880554106
30
0
41
1
10
244.633042717522
20
10.2508964606615
30
0
0
SPLINE
5
2DC
100
AcDbEntity
8
1
62
256
6
ByLayer
370
13
48
1
60
0
100
AcDbSpline
70
4
71
3
72
20
73
16
40
0
40
0
40
0
40
0
40
0.125
40
0.125
40
0.250000000000001
40
0.250000000000001
40
0.375000000000001
40
0.375000000000001
40
0.500000000000001
40
0.500000000000001
40
0.625000000000002
40
0.625000000000002
40
0.750000000000002
40
0.750000000000002
40
1
40
1
40
1
40
1
41
1
10
6
20
-3.571
30
0
41
1
10
6
20
-3.60393322509643
30
0
41
1
10
5.99677802951547
20
-3.63631595001573
30
0
41
1
10
5.98415574729458
20
-3.70002633954874
30
0
41
1
10
5.97460706229406
20
-3.73167708988237
30
0
41
1
10
5.94964138722897
20
-3.79211448094432
30
0
41
1
10
5.93436036703305
20
-3.82078736336274
30
0
41
1
10
5.89825058475375
20
-3.87507092443721
30
0
41
1
10
5.87720587398627
20
-3.90081594433366
30
0
41
1
10
5.83118489707979
20
-3.94700451121324
30
0
41
1
10
5.80606785289076
20
-3.96773917479186
30
0
41
1
10
5.75151945639119
20
-4.00437912552908
30
0
41
1
10
5.72235822232544
20
-4.02002157401955
30
0
41
1
10
5.63204318454247
20
-4.05764032847557
30
0
41
1
10
5.56624413343685
20
-4.071
30
0
41
1
10
5.5
20
-4.071
30
0
0
SPLINE
5
2DD
100
AcDbEntity
8
1
62
256
6
ByLayer
370
13
48
1
60
0
100
AcDbSpline
70
4
71
3
72
14
73
10
40
0
40
0
40
0
40
0
40
0.50000000000004
40
0.50000000000004
40
0.75000000000002
40
0.75000000000002
40
0.87500000000001
40
0.87500000000001
40
1
40
1
40
1
40
1
41
1
10
239.31656661371
20
9.97227175444931
30
0
41
1
10
239.475170997127
20
9.92318022199134
30
0
41
1
10
239.633513164593
20
9.89013566725012
30
0
41
1
10
239.872355969918
20
9.86115073042546
30
0
41
1
10
239.952180872772
20
9.85497222618147
30
0
41
1
10
240.072406325107
20
9.85087141818397
30
0
41
1
10
240.112562798394
20
9.85036780857155
30
0
41
1
10
240.193068354884
20
9.85110344898933
30
0
41
1
10
240.233657432866
20
9.85236231222447
30
0
41
1
10
240.273390009808
20
9.85444460834719
30
0
0
SPLINE
5
2DE
100
AcDbEntity
8
1
62
256
6
ByLayer
370
13
48
1
60
0
100
AcDbSpline
70
4
71
3
72
8
73
4
40
0
40
0
40
0
40
0
40
1
40
1
40
1
40
1
41
1
10
227.383883999012
20
9.24178519151269
30
0
41
1
10
227.384423172883
20
9.24388609067165
30
0
41
1
10
227.385013859292
20
9.24597434169098
30
0
41
1
10
227.385654254862
20
9.24805040282189
30
0
0
SPLINE
5
2DF
100
AcDbEntity
8
1
62
256
6
ByLayer
370
13
48
1
60
0
100
AcDbSpline
70
4
71
3
72
10
73
6
40
0
40
0
40
0
40
0
40
0.5
40
0.5
40
1
40
1
40
1
40
1
41
1
10
231.026231508203
20
9.18158289805365
30
0
41
1
10
231.015477443376
20
9.09566263646164
30
0
41
1
10
230.999330034405
20
9.01091301670118
30
0
41
1
10
230.955447312556
20
8.84392896714175
30
0
41
1
10
230.927537962426
20
8.76126025264222
30
0
41
1
10
230.893413766645
20
8.68100862404395
30
0
0
SPLINE
5
2E0
100
AcDbEntity
8
1
62
256
6
ByLayer
370
13
48
1
60
0
100
AcDbSpline
70
4
71
3
72
14
73
10
40
0
40
0
40
0
40
0
40
0.25
40
0.25
40
0.5
40
0.5
40
0.75
40
0.75
40
1
40
1
40
1
40
1
41
1
10
230.893413766645
20
8.68100862404378
30
0
41
1
10
230.874128511209
20
8.63565449565399
30
0
41
1
10
230.856555037746
20
8.59000982613236
30
0
41
1
10
230.825758305197
20
8.49778999255395
30
0
41
1
10
230.81254126237
20
8.45099745207284
30
0
41
1
10
230.792552415772
20
8.35974010847818
30
0
41
1
10
230.785613652114
20
8.31484155114748
30
0
41
1
10
230.778690859329
20
8.22625493387935
30
0
41
1
10
230.778812040977
20
8.18237283130506
30
0
41
1
10
230.782592297933
20
8.14079991006716
30
0
0
SPLINE
5
2E1
100
AcDbEntity
8
1
62
256
6
ByLayer
370
13
48
1
60
0
100
AcDbSpline
70
4
71
3
72
14
73
10
40
0
40
0
40
0
40
0
40
0.25
40
0.25
40
0.5
40
0.5
40
0.75
40
0.75
40
1
40
1
40
1
40
1
41
1
10
235.894599543143
20
9.52441717726722
30
0
41
1
10
235.922215734162
20
9.51716434792405
30
0
41
1
10
235.947046305561
20
9.50861868801039
30
0
41
1
10
235.988786643865
20
9.48980508534152
30
0
41
1
10
236.00628097267
20
9.47925311384898
30
0
41
1
10
236.032567483606
20
9.45718840010122
30
0
41
1
10
236.041520024574
20
9.44570944890486
30
0
41
1
10
236.051601406737
20
9.42191779372382
30
0
41
1
10
236.052574349004
20
9.40959353218682
30
0
41
1
10
236.049832509097
20
9.39756816123068
30
0
0
SPLINE
5
2E2
100
AcDbEntity
8
1
62
256
6
ByLayer
370
13
48
1
60
0
100
AcDbSpline
70
4
71
3
72
16
73
12
40
0
40
0
40
0
40
0
40
0.418583763698984
40
0.418583763698984
40
0.523229704623729
40
0.523229704623729
40
0.627875645548475
40
0.627875645548475
40
0.837167527397966
40
0.837167527397966
40
1
40
1
40
1
40
1
41
1
10
18.4068003378857
20
-21.6275514105609
30
0
41
1
10
18.7191994224023
20
-20.4848621523836
30
0
41
1
10
19.1218134282602
20
-19.3606501078841
30
0
41
1
10
19.7432473117546
20
-17.9785547371373
30
0
41
1
10
19.8734987467915
20
-17.7033063103684
30
0
41
1
10
20.146288016333
20
-17.1551994237419
30
0
41
1
10
20.2890257287909
20
-16.8819805405674
30
0
41
1
10
20.7349045838734
20
-16.0686014673493
30
0
41
1
10
21.054856933652
20
-15.5366068446717
30
0
41
1
10
21.6630810061621
20
-14.6095601868493
30
0
41
1
10
21.9423873121527
20
-14.2101204961087
30
0
41
1
10
22.2347316351914
20
-13.8167884225346
30
0
0
SPLINE
5
2E3
100
AcDbEntity
8
1
62
256
6
ByLayer
370
13
48
1
60
0
100
AcDbSpline
70
4
71
3
72
54
73
50
40
0
40
0
40
0
40
0
40
0.124999999999998
40
0.124999999999998
40
0.156249999999998
40
0.156249999999998
40
0.187499999999997
40
0.187499999999997
40
0.249999999999997
40
0.249999999999997
40
0.312499999999997
40
0.312499999999997
40
0.343749999999997
40
0.343749999999997
40
0.374999999999997
40
0.374999999999997
40
0.406249999999997
40
0.406249999999997
40
0.437499999999997
40
0.437499999999997
40
0.468749999999996
40
0.468749999999996
40
0.499999999999996
40
0.499999999999996
40
0.531249999999996
40
0.531249999999996
40
0.562499999999996
40
0.562499999999996
40
0.593749999999996
40
0.593749999999996
40
0.624999999999996
40
0.624999999999996
40
0.656249999999996
40
0.656249999999996
40
0.687499999999996
40
0.687499999999996
40
0.749999999999997
40
0.749999999999997
40
0.781249999999997
40
0.781249999999997
40
0.812499999999997
40
0.812499999999997
40
0.874999999999998
40
0.874999999999998
40
0.906249999999998
40
0.906249999999998
40
0.937499999999998
40
0.937499999999998
40
1
40
1
40
1
40
1
41
1
10
219.147019536289
20
4.57745905030816
30
0
41
1
10
215.444216147735
20
6.2133067249685
30
0
41
1
10
211.749382237306
20
7.81073499711022
30
0
41
1
10
207.126177803708
20
9.727318789333
30
0
41
1
10
206.201292344903
20
10.1066236014844
30
0
41
1
10
204.350647247998
20
10.8563998087507
30
0
41
1
10
203.424712100319
20
11.2269417269926
30
0
41
1
10
200.649414476201
20
12.3223596502765
30
0
41
1
10
198.801176363426
20
13.0315828715229
30
0
41
1
10
195.104855733388
20
14.4008494637909
30
0
41
1
10
193.256725617165
20
15.0608045474522
30
0
41
1
10
190.48172147971
20
16.0087039144098
30
0
41
1
10
189.555992880392
20
16.3178060398267
30
0
41
1
10
187.704654987799
20
16.9210846489124
30
0
41
1
10
186.77947820151
20
17.2150852353908
30
0
41
1
10
184.929979917802
20
17.7876295263166
30
0
41
1
10
184.005670337697
20
18.066193579101
30
0
41
1
10
182.157937230423
20
18.6078165961116
30
0
41
1
10
181.234632675697
20
18.8710289242359
30
0
41
1
10
179.387873336292
20
19.3803375564943
30
0
41
1
10
178.464375355751
20
19.6263683962895
30
0
41
1
10
176.615426969534
20
20.0990912691674
30
0
41
1
10
175.690069975028
20
20.3258791225211
30
0
41
1
10
173.834379649621
20
20.757025417349
30
0
41
1
10
172.904288590189
20
20.9612741459933
30
0
41
1
10
171.039070073703
20
21.3440131161665
30
0
41
1
10
170.103497403537
20
21.5225425850091
30
0
41
1
10
168.224832766854
20
21.8544918596247
30
0
41
1
10
167.281744223504
20
22.0079162304598
30
0
41
1
10
165.386418001427
20
22.2906488492733
30
0
41
1
10
164.434199802283
20
22.4200242701606
30
0
41
1
10
162.521681942284
20
22.6584520556102
30
0
41
1
10
161.561388480245
20
22.7675075814185
30
0
41
1
10
159.633791288549
20
22.9683708755076
30
0
41
1
10
158.66607538755
20
23.0601704375504
30
0
41
1
10
155.756586811665
20
23.3125236024148
30
0
41
1
10
153.808239596715
20
23.4502304468472
30
0
41
1
10
150.874686613765
20
23.622232392601
30
0
41
1
10
149.89504276234
20
23.6737995418074
30
0
41
1
10
147.932225256475
20
23.7666815450888
30
0
41
1
10
146.948963527742
20
23.8079193349126
30
0
41
1
10
143.992259177711
20
23.9172176287669
30
0
41
1
10
142.011198968355
20
23.9707400230174
30
0
41
1
10
139.029665580387
20
24.0289708256867
30
0
41
1
10
138.0337938809
20
24.044729605329
30
0
41
1
10
136.037791600765
20
24.0705962517877
30
0
41
1
10
135.037707828705
20
24.0807332087245
30
0
41
1
10
132.031475135982
20
24.1050893389134
30
0
41
1
10
130.019342188649
20
24.1133855923082
30
0
41
1
10
128
20
24.118224617638
30
0
0
SPLINE
5
2E4
100
AcDbEntity
8
1
62
256
6
ByLayer
370
13
48
1
60
0
100
AcDbSpline
70
4
71
3
72
10
73
6
40
0
40
0
40
0
40
0
40
0.806108221291778
40
0.806108221291778
40
1
40
1
40
1
40
1
41
1
10
231.85566143541
20
18.0108370646733
30
0
41
1
10
231.81925528529
20
17.9617125872185
30
0
41
1
10
231.787621083916
20
17.913940345364
30
0
41
1
10
231.758382811686
20
17.8639372116427
30
0
41
1
10
231.753194300718
20
17.8546879381903
30
0
41
1
10
231.74867345325
20
17.8462183698864
30
0
0
SPLINE
5
2E5
100
AcDbEntity
8
1
62
256
6
ByLayer
370
13
48
1
60
0
100
AcDbSpline
70
4
71
3
72
12
73
8
40
0
40
0
40
0
40
0
40
0.25
40
0.25
40
0.5
40
0.5
40
1
40
1
40
1
40
1
41
1
10
230.874601741334
20
11.1572373759312
30
0
41
1
10
230.865442807602
20
11.2247020824162
30
0
41
1
10
230.853071569064
20
11.291768754365
30
0
41
1
10
230.821193426447
20
11.4250179227262
30
0
41
1
10
230.801544570211
20
11.4915140581979
30
0
41
1
10
230.732182905382
20
11.6854009419495
30
0
41
1
10
230.671972506379
20
11.8081828200459
30
0
41
1
10
230.59708461683
20
11.9241603375392
30
0
0
SPLINE
5
2E6
100
AcDbEntity
8
1
62
256
6
ByLayer
370
13
48
1
60
0
100
AcDbSpline
70
4
71
3
72
10
73
6
40
0
40
0
40
0
40
0
40
0.5
40
0.5
40
1
40
1
40
1
40
1
41
1
10
244.633042717522
20
10.2508964606615
30
0
41
1
10
244.658906601921
20
10.2626198476703
30
0
41
1
10
244.686819114762
20
10.2722721267627
30
0
41
1
10
244.744210755771
20
10.2861838033133
30
0
41
1
10
244.773817215559
20
10.2905598622132
30
0
41
1
10
244.804342502359
20
10.2921761993342
30
0
0
SPLINE
5
2E7
100
AcDbEntity
8
1
62
256
6
ByLayer
370
13
48
1
60
0
100
AcDbSpline
70
4
71
3
72
8
73
4
40
0
40
0
40
0
40
0
40
1
40
1
40
1
40
1
41
1
10
225.098575851205
20
2.30923523050907
30
0
41
1
10
224.663514845892
20
2.49373760080482
30
0
41
1
10
224.235118040459
20
2.68414467972295
30
0
41
1
10
223.814656475791
20
2.88302505486112
30
0
0
SPLINE
5
2E8
100
AcDbEntity
8
1
62
256
6
ByLayer
370
13
48
1
60
0
100
AcDbSpline
70
4
71
3
72
8
73
4
40
0
40
0
40
0
40
0
40
1
40
1
40
1
40
1
41
1
10
228.023283933361
20
11.3688414346598
30
0
41
1
10
228.403888733491
20
11.3790857933293
30
0
41
1
10
228.769864729502
20
11.3586066927445
30
0
41
1
10
229.121349742154
20
11.306398703461
30
0
0
SPLINE
5
2E9
100
AcDbEntity
8
1
62
256
6
ByLayer
370
13
48
1
60
0
100
AcDbSpline
70
4
71
3
72
10
73
6
40
0
40
0
40
0
40
0
40
0.246432795276287
40
0.246432795276287
40
1
40
1
40
1
40
1
41
1
10
0
20
4.071
30
0
41
1
10
0.0410698531254923
20
4.071
30
0
41
1
10
0.0821402764839974
20
4.071
30
0
41
1
10
0.248802294970289
20
4.071
30
0
41
1
10
0.374398598796674
20
4.071
30
0
41
1
10
0.5
20
4.071
30
0
0
SPLINE
5
2EA
100
AcDbEntity
8
1
62
256
6
ByLayer
370
13
48
1
60
0
100
AcDbSpline
70
4
71
3
72
44
73
40
40
0
40
0
40
0
40
0
40
0.125000000000002
40
0.125000000000002
40
0.187500000000003
40
0.187500000000003
40
0.218750000000003
40
0.218750000000003
40
0.250000000000003
40
0.250000000000003
40
0.375000000000004
40
0.375000000000004
40
0.406250000000004
40
0.406250000000004
40
0.437500000000003
40
0.437500000000003
40
0.500000000000003
40
0.500000000000003
40
0.562500000000002
40
0.562500000000002
40
0.625000000000002
40
0.625000000000002
40
0.656250000000001
40
0.656250000000001
40
0.687500000000001
40
0.687500000000001
40
0.750000000000001
40
0.750000000000001
40
0.781250000000001
40
0.781250000000001
40
0.812500000000001
40
0.812500000000001
40
0.875000000000001
40
0.875000000000001
40
0.906250000000001
40
0.906250000000001
40
0.937500000000001
40
0.937500000000001
40
1
40
1
40
1
40
1
41
1
10
27.0795244895809
20
-11.95529225619
30
0
41
1
10
26.4059864588601
20
-12.0581722117872
30
0
41
1
10
25.7490174964016
20
-12.2217525828948
30
0
41
1
10
24.785351239686
20
-12.5477394780954
30
0
41
1
10
24.4677991872273
20
-12.6699866582779
30
0
41
1
10
23.9969095722259
20
-12.8736551699878
30
0
41
1
10
23.8404337257221
20
-12.9451447667205
30
0
41
1
10
23.5317645825177
20
-13.0937869731452
30
0
41
1
10
23.3796148282697
20
-13.1709127079203
30
0
41
1
10
22.6294593245225
20
-13.5700440537896
30
0
41
1
10
22.0626160422867
20
-13.9317818275194
30
0
41
1
10
21.3968001267394
20
-14.4368473245631
30
0
41
1
10
21.2657921992802
20
-14.5405264030696
30
0
41
1
10
21.0082049577549
20
-14.7533175024397
30
0
41
1
10
20.8814386232164
20
-14.8626280010105
30
0
41
1
10
20.5126141673551
20
-15.1945843283545
30
0
41
1
10
20.2805139329349
20
-15.4225051149797
30
0
41
1
10
19.8441545989367
20
-15.8911465021997
30
0
41
1
10
19.6398638885831
20
-16.1318508023414
30
0
41
1
10
19.2604547872699
20
-16.6261153527479
30
0
41
1
10
19.0853197976997
20
-16.8796698494129
30
0
41
1
10
18.8467251737926
20
-17.2702405602648
30
0
41
1
10
18.7715241848277
20
-17.4017363428893
30
0
41
1
10
18.6317040724438
20
-17.6640841824209
30
0
41
1
10
18.5668024634555
20
-17.7953924606479
30
0
41
1
10
18.3874393186428
20
-18.189664668469
30
0
41
1
10
18.288299718686
20
-18.4529782665954
30
0
41
1
10
18.1717487531203
20
-18.848372327568
30
0
41
1
10
18.1383994452635
20
-18.980263354512
30
0
41
1
10
18.0829533997168
20
-19.2441651238538
30
0
41
1
10
18.0611692949249
20
-19.374747928996
30
0
41
1
10
18.0135965940285
20
-19.7611343734816
30
0
41
1
10
18.005593100926
20
-20.0121411004473
30
0
41
1
10
18.0298730671814
20
-20.3787461315075
30
0
41
1
10
18.0439673071289
20
-20.4993008617948
30
0
41
1
10
18.0842786586411
20
-20.7370983900329
30
0
41
1
10
18.1105569445403
20
-20.8545569797338
30
0
41
1
10
18.2076805032571
20
-21.2004752086966
30
0
41
1
10
18.2957594065073
20
-21.4195230546584
30
0
41
1
10
18.4068003378857
20
-21.6275514105609
30
0
0
SPLINE
5
2EB
100
AcDbEntity
8
1
62
256
6
ByLayer
370
13
48
1
60
0
100
AcDbSpline
70
4
71
3
72
8
73
4
40
0
40
0
40
0
40
0
40
1
40
1
40
1
40
1
41
1
10
231.900809752592
20
18.0831410887258
30
0
41
1
10
231.886940997104
20
18.0564008524031
30
0
41
1
10
231.871597586549
20
18.0323404396459
30
0
41
1
10
231.85566143541
20
18.0108370646733
30
0
0
SPLINE
5
2EC
100
AcDbEntity
8
1
62
256
6
ByLayer
370
13
48
1
60
0
100
AcDbSpline
70
4
71
3
72
18
73
14
40
0
40
0
40
0
40
0
40
0.25
40
0.25
40
0.375
40
0.375
40
0.5
40
0.5
40
0.625
40
0.625
40
0.75
40
0.75
40
1
40
1
40
1
40
1
41
1
10
18.4068003378857
20
-21.6275514105609
30
0
41
1
10
18.2262424518629
20
-21.9480165806809
30
0
41
1
10
18.0879706803279
20
-22.2651824490836
30
0
41
1
10
17.9462161514877
20
-22.7344593261462
30
0
41
1
10
17.9099349032655
20
-22.8906889684678
30
0
41
1
10
17.8618859700997
20
-23.1943855261969
30
0
41
1
10
17.8498533255682
20
-23.3422802748856
30
0
41
1
10
17.8497886054544
20
-23.6302229903405
30
0
41
1
10
17.861709792764
20
-23.7702770923229
30
0
41
1
10
17.9088087638805
20
-24.042657435668
30
0
41
1
10
17.9440640301777
20
-24.1752014292942
30
0
41
1
10
18.085923571422
20
-24.5596265537591
30
0
41
1
10
18.2254605883558
20
-24.7917814392581
30
0
41
1
10
18.4067367724671
20
-25.0023622455701
30
0
0
SPLINE
5
2ED
100
AcDbEntity
8
1
62
256
6
ByLayer
370
13
48
1
60
0
100
AcDbSpline
70
4
71
3
72
24
73
20
40
0
40
0
40
0
40
0
40
0.0389815040803451
40
0.0389815040803451
40
0.0990451600753234
40
0.0990451600753234
40
0.159108816070302
40
0.159108816070302
40
0.279236128060258
40
0.279236128060258
40
0.519490752040172
40
0.519490752040172
40
0.579554408035151
40
0.579554408035151
40
0.639618064030129
40
0.639618064030129
40
0.759745376020086
40
0.759745376020086
40
1
40
1
40
1
40
1
41
1
10
27.0401776153132
20
-11.9423133583385
30
0
41
1
10
26.8698670071522
20
-12.0792925322177
30
0
41
1
10
26.7012459637606
20
-12.2181443222436
30
0
41
1
10
26.277138194791
20
-12.5757332091594
30
0
41
1
10
26.0250035708237
20
-12.7962996482472
30
0
41
1
10
25.5322620835025
20
-13.2436955499873
30
0
41
1
10
25.2913898359256
20
-13.4707080228517
30
0
41
1
10
24.5848768479707
20
-14.1614321668212
30
0
41
1
10
24.1353001546652
20
-14.634807780299
30
0
41
1
10
22.8492288443679
20
-16.0924225641376
30
0
41
1
10
22.0747048404277
20
-17.1137629910444
30
0
41
1
10
21.2144941756811
20
-18.4540547534039
30
0
41
1
10
21.0477065643216
20
-18.7256944074275
30
0
41
1
10
20.7273970468301
20
-19.272015727968
30
0
41
1
10
20.5736594693617
20
-19.5471000579992
30
0
41
1
10
20.1310748541858
20
-20.3781026104013
30
0
41
1
10
19.8607734054247
20
-20.9396695882843
30
0
41
1
10
19.119880362202
20
-22.6455386979003
30
0
41
1
10
18.7185993679199
20
-23.8108164789951
30
0
41
1
10
18.4067367724671
20
-25.0023622455701
30
0
0
SPLINE
5
2EE
100
AcDbEntity
8
1
62
256
6
ByLayer
370
13
48
1
60
0
100
AcDbSpline
70
4
71
3
72
46
73
42
40
0
40
0
40
0
40
0
40
0.0672764643856903
40
0.148504935696995
40
0.235665742118173
40
0.328850054953259
40
0.428088345246322
40
0.533345808301918
40
0.542721542862583
40
0.55239061485399
40
0.562353729217002
40
0.572611571605719
40
0.583164806368424
40
0.594014074301109
40
0.605159990189175
40
0.616603140150333
40
0.628344078789846
40
0.640383326177718
40
0.65272136465643
40
0.665358635486973
40
0.678295535340459
40
0.691532412642281
40
0.705069563775656
40
0.718907229151474
40
0.7330455891515
40
0.747484759952315
40
0.762224789237782
40
0.77726565180832
40
0.792607245095849
40
0.80824938459401
40
0.824191799213896
40
0.840434126576483
40
0.856975908253731
40
0.873816584971349
40
0.890955491787169
40
0.908391853260197
40
0.926124778626486
40
0.944153256999169
40
0.962476152611221
40
0.981092200120749
40
1
40
1
40
1
40
1
41
1
10
42.5848639849925
20
-8.8487680423018
30
0
41
1
10
42.6345099216852
20
-8.95716878976953
30
0
41
1
10
42.7491887214564
20
-9.19900069934221
30
0
41
1
10
42.9481067619869
20
-9.59061563779537
30
0
41
1
10
43.1907018440373
20
-10.0319805480804
30
0
41
1
10
43.4741291590783
20
-10.5076477545397
30
0
41
1
10
43.8009347435286
20
-11.0141817279924
30
0
41
1
10
44.0524786047135
20
-11.3749149414081
30
0
41
1
10
44.20275116268
20
-11.5822771745859
30
0
41
1
10
44.2379403955608
20
-11.630613104874
30
0
41
1
10
44.2743483829626
20
-11.6803339460041
30
0
41
1
10
44.3119935484593
20
-11.7314264322229
30
0
41
1
10
44.3508982084189
20
-11.7838716198556
30
0
41
1
10
44.3910829362874
20
-11.837650457182
30
0
41
1
10
44.4325680053783
20
-11.8927421442871
30
0
41
1
10
44.4753728449298
20
-11.9491245106704
30
0
41
1
10
44.5195160461343
20
-12.0067738286341
30
0
41
1
10
44.5650152090969
20
-12.0656647843917
30
0
41
1
10
44.6118868287249
20
-12.1257704055702
30
0
41
1
10
44.6601461643649
20
-12.1870620015258
30
0
41
1
10
44.7098071086379
20
-12.249509101026
30
0
41
1
10
44.7608820512693
20
-12.3130793918875
30
0
41
1
10
44.813381739211
20
-12.3777386615915
30
0
41
1
10
44.8673151328526
20
-12.4434507394627
30
0
41
1
10
44.9226892585693
20
-12.5101774405716
30
0
41
1
10
44.9795090577622
20
-12.5778785116549
30
0
41
1
10
45.037777232611
20
-12.6465115793138
30
0
41
1
10
45.0974940887796
20
-12.7160321008007
30
0
41
1
10
45.1586573753427
20
-12.7863933175905
30
0
41
1
10
45.2212621222682
20
-12.8575462124012
30
0
41
1
10
45.2853004757036
20
-12.9294394685662
30
0
41
1
10
45.3507615318049
20
-13.0020194374717
30
0
41
1
10
45.4176311681607
20
-13.0752300936467
30
0
41
1
10
45.4858918785067
20
-13.1490130573709
30
0
41
1
10
45.5555225911578
20
-13.2233073801528
30
0
41
1
10
45.6264985486187
20
-13.2980502621212
30
0
41
1
10
45.6987909543518
20
-13.3731742253877
30
0
41
1
10
45.772367515127
20
-13.4486178794445
30
0
41
1
10
45.8471895644796
20
-13.5242847145313
30
0
41
1
10
45.9232222703072
20
-13.6002006594434
30
0
41
1
10
45.9742751094732
20
-13.650286824259
30
0
41
1
10
46
20
-13.6755246196066
30
0
0
SPLINE
5
2EF
100
AcDbEntity
8
1
62
256
6
ByLayer
370
13
48
1
60
0
100
AcDbSpline
70
4
71
3
72
17
73
13
40
0
40
0
40
0
40
0
40
0.124999999999999
40
0.124999999999999
40
0.187499999999997
40
0.187499999999997
40
0.218749999999997
40
0.218749999999997
40
0.249999999999997
40
0.499999999999998
40
0.499999999999998
40
1
40
1
40
1
40
1
41
1
10
40.7048446018858
20
-9.54836228787815
30
0
41
1
10
40.1339181330757
20
-9.62559582151439
30
0
41
1
10
39.5654442102776
20
-9.71524284857148
30
0
41
1
10
38.7164079954912
20
-9.86831262616644
30
0
41
1
10
38.4340086633362
20
-9.92243724899942
30
0
41
1
10
38.0113310264369
20
-10.0082876280085
30
0
41
1
10
37.8705011250694
20
-10.0372214932188
30
0
41
1
10
37.5887049192772
20
-10.0943988233607
30
0
41
1
10
36.3202180146399
20
-10.3504473422513
30
0
41
1
10
35.0480933832044
20
-10.5952991699608
30
0
41
1
10
31.6473189054023
20
-11.2222516696819
30
0
41
1
10
29.3688912934613
20
-11.605607923336
30
0
41
1
10
27.0795244895809
20
-11.95529225619
30
0
0
SPLINE
5
2F0
100
AcDbEntity
8
1
62
256
6
ByLayer
370
13
48
1
60
0
100
AcDbSpline
70
4
71
3
72
26
73
22
40
0
40
0
40
0
40
0
40
0.0625000000000003
40
0.0625000000000003
40
0.0937500000000002
40
0.0937500000000002
40
0.125
40
0.125
40
0.15625
40
0.15625
40
0.1875
40
0.1875
40
0.25
40
0.25
40
0.312499999999999
40
0.312499999999999
40
0.374999999999999
40
0.374999999999999
40
0.499999999999999
40
0.499999999999999
40
1
40
1
40
1
40
1
41
1
10
128
20
-24.0728443565752
30
0
41
1
10
126.40159988904
20
-24.0685013132964
30
0
41
1
10
124.801602343341
20
-24.0646187116445
30
0
41
1
10
122.39891916909
20
-24.061673825229
30
0
41
1
10
121.597568805902
20
-24.0611775604224
30
0
41
1
10
119.993941902451
20
-24.0613843471269
30
0
41
1
10
119.191659688052
20
-24.0620599360884
30
0
41
1
10
117.587307966867
20
-24.0643007031347
30
0
41
1
10
116.785110291949
20
-24.0658639388698
30
0
41
1
10
115.180688923915
20
-24.069542811065
30
0
41
1
10
114.378465920034
20
-24.0716422512373
30
0
41
1
10
111.97177002336
20
-24.0785212997996
30
0
41
1
10
110.367269673454
20
-24.083894743049
30
0
41
1
10
107.158242003879
20
-24.0952240393453
30
0
41
1
10
105.553714667904
20
-24.1011770952548
30
0
41
1
10
102.344678817226
20
-24.1126720597607
30
0
41
1
10
100.740162334011
20
-24.1182189544024
30
0
41
1
10
95.9266021964644
20
-24.1345273765641
30
0
41
1
10
92.7175563918979
20
-24.1450009888902
30
0
41
1
10
76.6723380703157
20
-24.198113504753
30
0
41
1
10
63.8361731475568
20
-24.2412895817133
30
0
41
1
10
50.9999999999999
20
-24.283842759984
30
0
0
SPLINE
5
2F1
100
AcDbEntity
8
1
62
256
6
ByLayer
370
13
48
1
60
0
100
AcDbSpline
70
4
71
3
72
14
73
10
40
0
40
0
40
0
40
0
40
0.469814438864552
40
0.469814438864552
40
0.704721658296828
40
0.704721658296828
40
0.939628877729104
40
0.939628877729104
40
1
40
1
40
1
40
1
41
1
10
128
20
24.1182246176382
30
0
41
1
10
126.402360004549
20
24.1271854875796
30
0
41
1
10
124.80283806207
20
24.1339705460194
30
0
41
1
10
122.400514411698
20
24.1429060465375
30
0
41
1
10
121.599225586449
20
24.1456703667243
30
0
41
1
10
119.995613810498
20
24.1510144593582
30
0
41
1
10
119.193258556804
20
24.1535958551019
30
0
41
1
10
118.184869454953
20
24.1568160470214
30
0
41
1
10
117.978698362163
20
24.1574744406377
30
0
41
1
10
117.772526390465
20
24.1581328965154
30
0
0
SPLINE
5
2F2
100
AcDbEntity
8
1
62
256
6
ByLayer
370
13
48
1
60
0
100
AcDbSpline
70
4
71
3
72
8
73
4
40
0
40
0
40
0
40
0
40
1
40
1
40
1
40
1
41
1
10
65.9788809041983
20
24.3263023971651
30
0
41
1
10
60.9859192194204
20
24.342529499129
30
0
41
1
10
55.9929604325155
20
24.3587589239834
30
0
41
1
10
51
20
24.3749803531696
30
0
0
SPLINE
5
2F3
100
AcDbEntity
8
1
62
256
6
ByLayer
370
13
48
1
60
0
100
AcDbSpline
70
4
71
3
72
18
73
14
40
0
40
0
40
0
40
0
40
0.176893308803914
40
0.176893308803914
40
0.353786617607827
40
0.353786617607827
40
0.530679926411741
40
0.530679926411741
40
0.707573235215655
40
0.707573235215655
40
0.884466544019568
40
0.884466544019568
40
1
40
1
40
1
40
1
41
1
10
46.01
20
-13.670375939783
30
0
41
1
10
46.01
20
-13.4062322527073
30
0
41
1
10
46.01
20
-13.1316652188592
30
0
41
1
10
46.01
20
-12.5625534964377
30
0
41
1
10
46.01
20
-12.2656978542188
30
0
41
1
10
46.01
20
-11.6614878706376
30
0
41
1
10
46.01
20
-11.3583938541147
30
0
41
1
10
46.01
20
-10.7502795398186
30
0
41
1
10
46.01
20
-10.4421035908204
30
0
41
1
10
46.01
20
-9.84201241773795
30
0
41
1
10
46.01
20
-9.55029424887462
30
0
41
1
10
46.01
20
-9.08166877897173
30
0
41
1
10
46.01
20
-8.89913438536883
30
0
41
1
10
46.01
20
-8.72274393977574
30
0
0
SPLINE
5
2F4
100
AcDbEntity
8
1
62
256
6
ByLayer
370
13
48
1
60
0
100
AcDbSpline
70
4
71
3
72
10
73
6
40
0
40
0
40
0
40
0
40
0.5
40
0.5
40
1
40
1
40
1
40
1
41
1
10
237.508162955451
20
7.9389683822298
30
0
41
1
10
238.061625566569
20
8.13636857049065
30
0
41
1
10
238.606007512503
20
8.28071347637245
30
0
41
1
10
239.679067291615
20
8.48735074428234
30
0
41
1
10
240.207640387499
20
8.5492147668559
30
0
41
1
10
240.726240312252
20
8.57639343724853
30
0
0
SPLINE
5
2F5
100
AcDbEntity
8
1
62
256
6
ByLayer
370
13
48
1
60
0
100
AcDbSpline
70
4
71
3
72
8
73
4
40
0
40
0
40
0
40
0
40
1
40
1
40
1
40
1
41
1
10
227.107106212143
20
-0.190287008187994
30
0
41
1
10
227.545614432994
20
-0.312131426795389
30
0
41
1
10
227.988079715156
20
-0.397270574660638
30
0
41
1
10
228.43451744734
20
-0.444653523193409
30
0
0
SPLINE
5
2F6
100
AcDbEntity
8
1
62
256
6
ByLayer
370
13
48
1
60
0
100
AcDbSpline
70
4
71
3
72
18
73
14
40
0
40
0
40
0
40
0
40
0.125
40
0.125
40
0.25
40
0.25
40
0.375
40
0.375
40
0.5
40
0.5
40
0.75
40
0.75
40
1
40
1
40
1
40
1
41
1
10
5.49999999999997
20
-27.197533014896
30
0
41
1
10
5.5331183619886
20
-27.197533014896
30
0
41
1
10
5.56567694370481
20
-27.1995026580579
30
0
41
1
10
5.62972133566616
20
-27.2072122555809
30
0
41
1
10
5.66154354218739
20
-27.2130480694634
30
0
41
1
10
5.72214649856302
20
-27.2282429091525
30
0
41
1
10
5.75087897885176
20
-27.2375315286339
30
0
41
1
10
5.8052384884854
20
-27.259437487858
30
0
41
1
10
5.83093052062634
20
-27.272154639518
30
0
41
1
10
5.89997612824273
20
-27.3137174239843
30
0
41
1
10
5.93710206073182
20
-27.3470902458003
30
0
41
1
10
5.98680620220951
20
-27.4186740847385
30
0
41
1
10
5.99999999999997
20
-27.4575544853432
30
0
41
1
10
5.99999999999997
20
-27.4965076027925
30
0
0
SPLINE
5
2F7
100
AcDbEntity
8
1
62
256
6
ByLayer
370
13
48
1
60
0
100
AcDbSpline
70
4
71
3
72
10
73
6
40
0
40
0
40
0
40
0
40
0.753567204723711
40
0.753567204723711
40
1
40
1
40
1
40
1
41
1
10
0.5
20
-4.071
30
0
41
1
10
0.374398598796674
20
-4.071
30
0
41
1
10
0.248802294970275
20
-4.071
30
0
41
1
10
0.0821402764839974
20
-4.071
30
0
41
1
10
0.0410698531254923
20
-4.071
30
0
41
1
10
0
20
-4.071
30
0
0
SPLINE
5
2F8
100
AcDbEntity
8
1
62
256
6
ByLayer
370
13
48
1
60
0
100
AcDbSpline
70
4
71
3
72
18
73
14
40
0
40
0
40
0
40
0
40
0.25
40
0.25
40
0.374999999999999
40
0.374999999999999
40
0.499999999999999
40
0.499999999999999
40
0.749999999999999
40
0.749999999999999
40
0.874999999999999
40
0.874999999999999
40
1
40
1
40
1
40
1
41
1
10
249.13526986734
20
9.16558239088559
30
0
41
1
10
248.989838181251
20
9.18549256796166
30
0
41
1
10
248.849010260935
20
9.2163020004142
30
0
41
1
10
248.641166525484
20
9.27900307703578
30
0
41
1
10
248.572280217808
20
9.30278352315412
30
0
41
1
10
248.437250105236
20
9.35554987541144
30
0
41
1
10
248.370950958705
20
9.38456418454672
30
0
41
1
10
248.175440921434
20
9.47980203673626
30
0
41
1
10
248.049583299422
20
9.55407374874812
30
0
41
1
10
247.867324718841
20
9.68492636750568
30
0
41
1
10
247.807757142443
20
9.73182532870624
30
0
41
1
10
247.693785352842
20
9.83047243390754
30
0
41
1
10
247.63902182442
20
9.88246248381014
30
0
41
1
10
247.586596423833
20
9.93730181214534
30
0
0
SPLINE
5
2F9
100
AcDbEntity
8
1
62
256
6
ByLayer
370
13
48
1
60
0
100
AcDbSpline
70
4
71
3
72
36
73
32
40
0
40
0
40
0
40
0
40
0.0026508449446902
40
0.0026508449446902
40
0.0551429057370744
40
0.0551429057370744
40
0.107634966529459
40
0.107634966529459
40
0.160127027321843
40
0.160127027321843
40
0.212619088114227
40
0.212619088114227
40
0.265111148906611
40
0.265111148906611
40
0.317603209698996
40
0.317603209698996
40
0.343849240095188
40
0.343849240095188
40
0.37009527049138
40
0.37009527049138
40
0.422587331283765
40
0.422587331283765
40
0.47507939207615
40
0.47507939207615
40
0.58006351366092
40
0.58006351366092
40
0.68504763524569
40
0.68504763524569
40
0.79003175683046
40
0.79003175683046
40
1
40
1
40
1
40
1
41
1
10
151.806921541243
20
-12.6493180528035
30
0
41
1
10
151.715258706105
20
-12.6556638956021
30
0
41
1
10
151.623590570435
20
-12.6619832854728
30
0
41
1
10
149.716599421885
20
-12.792903084602
30
0
41
1
10
147.899260514618
20
-12.9075449005672
30
0
41
1
10
144.259723830906
20
-13.1125188500658
30
0
41
1
10
142.437512347804
20
-13.2027624257935
30
0
41
1
10
138.787339543554
20
-13.3551409188286
30
0
41
1
10
136.959288150234
20
-13.4165736642403
30
0
41
1
10
133.29725210497
20
-13.5136023609755
30
0
41
1
10
131.463330310588
20
-13.5498005111708
30
0
41
1
10
127.790264766027
20
-13.6057999196847
30
0
41
1
10
125.95117705453
20
-13.6259423573742
30
0
41
1
10
122.26798668431
20
-13.6544613264393
30
0
41
1
10
120.42372921949
20
-13.6618303057379
30
0
41
1
10
117.653646504445
20
-13.667918423323
30
0
41
1
10
116.729631848483
20
-13.669345243516
30
0
41
1
10
114.881009214946
20
-13.6711241352074
30
0
41
1
10
113.956470431944
20
-13.6713683339517
30
0
41
1
10
111.182584163973
20
-13.6711705438625
30
0
41
1
10
109.332967690392
20
-13.6703443108873
30
0
41
1
10
105.633970072957
20
-13.6702032156297
30
0
41
1
10
103.784471363529
20
-13.6703808701266
30
0
41
1
10
98.2359748278603
20
-13.670538602992
30
0
41
1
10
94.536976790233
20
-13.6704446561638
30
0
41
1
10
87.1389804733352
20
-13.6702685916517
30
0
41
1
10
83.4399822268117
20
-13.6701756823594
30
0
41
1
10
76.0419857881497
20
-13.6702074320068
30
0
41
1
10
72.3429875652121
20
-13.6703187013144
30
0
41
1
10
61.2459928911291
20
-13.6704835589209
30
0
41
1
10
53.8479964350099
20
-13.6704056959253
30
0
41
1
10
46.4499999999999
20
-13.670375939783
30
0
0
SPLINE
5
2FA
100
AcDbEntity
8
1
62
256
6
ByLayer
370
13
48
1
60
0
100
AcDbSpline
70
4
71
3
72
10
73
6
40
0
40
0
40
0
40
0
40
0.479584803770027
40
0.479584803770027
40
1
40
1
40
1
40
1
41
1
10
46.45
20
-23.6400952497874
30
0
41
1
10
46.45
20
-22.0463199499144
30
0
41
1
10
46.45
20
-20.45254465335
30
0
41
1
10
46.45
20
-17.129304882763
30
0
41
1
10
46.45
20
-15.3998404093274
30
0
41
1
10
46.45
20
-13.670375939783
30
0
0
SPLINE
5
2FB
100
AcDbEntity
8
1
62
256
6
ByLayer
370
13
48
1
60
0
100
AcDbSpline
70
4
71
3
72
36
73
32
40
0
40
0
40
0
40
0
40
0.015135759946094
40
0.015135759946094
40
0.0669707199489308
40
0.0669707199489308
40
0.118805679951767
40
0.118805679951767
40
0.170640639954604
40
0.170640639954604
40
0.222475599957441
40
0.222475599957441
40
0.274310559960278
40
0.274310559960278
40
0.377980479965951
40
0.377980479965951
40
0.429815439968788
40
0.429815439968788
40
0.481650399971625
40
0.481650399971625
40
0.5853203199773
40
0.5853203199773
40
0.688990239982975
40
0.688990239982975
40
0.740825199985812
40
0.740825199985812
40
0.79266015998865
40
0.79266015998865
40
0.896330079994325
40
0.896330079994325
40
1
40
1
40
1
40
1
41
1
10
183.014772531242
20
-20.1114901446978
30
0
41
1
10
182.74911590663
20
-20.176249969395
30
0
41
1
10
182.483483404356
20
-20.2403520273105
30
0
41
1
10
181.308260649381
20
-20.5210662624422
30
0
41
1
10
180.399295643026
20
-20.7303505847291
30
0
41
1
10
178.58048159789
20
-21.1301387709207
30
0
41
1
10
177.670600004992
20
-21.3206431340799
30
0
41
1
10
175.847285220362
20
-21.6807037116314
30
0
41
1
10
174.933554711698
20
-21.8503046811766
30
0
41
1
10
173.101262872429
20
-22.1668974611174
30
0
41
1
10
172.182913901976
20
-22.3138049688681
30
0
41
1
10
170.339603211065
20
-22.5847295419992
30
0
41
1
10
169.414795288116
20
-22.7089401065214
30
0
41
1
10
166.630559915282
20
-23.0509656229649
30
0
41
1
10
164.761182610335
20
-23.2381270400903
30
0
41
1
10
161.936754129965
20
-23.4698995164199
30
0
41
1
10
160.991893436565
20
-23.5389863108642
30
0
41
1
10
159.095436551131
20
-23.6627486318249
30
0
41
1
10
158.144007202772
20
-23.7174211094257
30
0
41
1
10
155.284471493571
20
-23.8624751118706
30
0
41
1
10
153.369688039232
20
-23.9341092096958
30
0
41
1
10
149.523525937345
20
-24.0402181271574
30
0
41
1
10
147.59234007589
20
-24.0746576282673
30
0
41
1
10
144.681543205834
20
-24.1064127552882
30
0
41
1
10
143.708571964161
20
-24.113679415341
30
0
41
1
10
141.75988815613
20
-24.1229366959761
30
0
41
1
10
140.784073180264
20
-24.1249320051086
30
0
41
1
10
137.851834346188
20
-24.1251308564578
30
0
41
1
10
135.890455536007
20
-24.1176702267989
30
0
41
1
10
131.954749467543
20
-24.0975049431801
30
0
41
1
10
129.98046624129
20
-24.0847900803261
30
0
41
1
10
128
20
-24.0728443565751
30
0
0
SPLINE
5
2FC
100
AcDbEntity
8
1
62
256
6
ByLayer
370
13
48
1
60
0
100
AcDbSpline
70
4
71
3
72
8
73
4
40
0
40
0
40
0
40
0
40
1
40
1
40
1
40
1
41
1
10
229.170554982345
20
11.2970345413463
30
0
41
1
10
229.154233453859
20
11.3006591735536
30
0
41
1
10
229.137833678207
20
11.303792926379
30
0
41
1
10
229.121349742154
20
11.3063987034611
30
0
0
SPLINE
5
2FD
100
AcDbEntity
8
1
62
256
6
ByLayer
370
13
48
1
60
0
100
AcDbSpline
70
4
71
3
72
8
73
4
40
0
40
0
40
0
40
0
40
1
40
1
40
1
40
1
41
1
10
51
20
24.3749803531696
30
0
41
1
10
49.3333333783488
20
24.3749809432825
30
0
41
1
10
47.666666686457
20
24.3749813193003
30
0
41
1
10
46
20
24.3749813193003
30
0
0
SPLINE
5
2FE
100
AcDbEntity
8
1
62
256
6
ByLayer
370
13
48
1
60
0
100
AcDbSpline
70
4
71
3
72
14
73
10
40
0
40
0
40
0
40
0
40
0.0419161835986671
40
0.0419161835986671
40
0.520958091799334
40
0.520958091799334
40
0.760479045899667
40
0.760479045899667
40
1
40
1
40
1
40
1
41
1
10
204.438511706397
20
10.8204861129117
30
0
41
1
10
204.764812306556
20
10.8412176590989
30
0
41
1
10
205.091101589187
20
10.8613537803336
30
0
41
1
10
209.146296901457
20
11.1041843935668
30
0
41
1
10
212.874004017248
20
11.2493769424848
30
0
41
1
10
218.469036148542
20
11.3425215206412
30
0
41
1
10
220.33480521193
20
11.3528069949758
30
0
41
1
10
224.065355517963
20
11.3310381705858
30
0
41
1
10
225.930496586896
20
11.2989946833946
30
0
41
1
10
227.795932765157
20
11.2455752258486
30
0
0
SPLINE
5
2FF
100
AcDbEntity
8
1
62
256
6
ByLayer
370
13
48
1
60
0
100
AcDbSpline
70
4
71
3
72
8
73
4
40
0
40
0
40
0
40
0
40
1
40
1
40
1
40
1
41
1
10
229.170554982348
20
11.2970345413214
30
0
41
1
10
229.257242584093
20
11.2974983639721
30
0
41
1
10
229.344697362123
20
11.2928396139773
30
0
41
1
10
229.432035414183
20
11.2753522411058
30
0
0
SPLINE
5
300
100
AcDbEntity
8
1
62
256
6
ByLayer
370
13
48
1
60
0
100
AcDbSpline
70
4
71
3
72
8
73
4
40
0
40
0
40
0
40
0
40
1
40
1
40
1
40
1
41
1
10
44.2449981408473
20
-23.6544663819213
30
0
41
1
10
44.244998142412
20
-23.8807398150665
30
0
41
1
10
44.2449981439982
20
-24.1070132481957
30
0
41
1
10
44.244998145606
20
-24.333286681309
30
0
0
SPLINE
5
301
100
AcDbEntity
8
1
62
256
6
ByLayer
370
13
48
1
60
0
100
AcDbSpline
70
4
71
3
72
10
73
6
40
0
40
0
40
0
40
0
40
0.5
40
0.5
40
1
40
1
40
1
40
1
41
1
10
229.97868872701
20
7.2517612848437
30
0
41
1
10
229.546985970782
20
7.51799617169792
30
0
41
1
10
229.098723625613
20
7.7631408065582
30
0
41
1
10
228.177007756042
20
8.22134665198925
30
0
41
1
10
227.70347826339
20
8.43431110958187
30
0
41
1
10
227.219452012714
20
8.63390692181503
30
0
0
SPLINE
5
302
100
AcDbEntity
8
1
62
256
6
ByLayer
370
13
48
1
60
0
100
AcDbSpline
70
4
71
3
72
18
73
14
40
0
40
0
40
0
40
0
40
0.124999999999999
40
0.124999999999999
40
0.249999999999999
40
0.249999999999999
40
0.374999999999998
40
0.374999999999998
40
0.499999999999998
40
0.499999999999998
40
0.749999999999999
40
0.749999999999999
40
1
40
1
40
1
40
1
41
1
10
5.5
20
4.071
30
0
41
1
10
5.53311836198864
20
4.071
30
0
41
1
10
5.56567694370484
20
4.06774205109016
30
0
41
1
10
5.62972133566619
20
4.05498192252259
30
0
41
1
10
5.66154354218742
20
4.04532095818553
30
0
41
1
10
5.72214649856305
20
4.02014098073175
30
0
41
1
10
5.7508789788518
20
4.00473867431307
30
0
41
1
10
5.80523848848543
20
3.96836502711199
30
0
41
1
10
5.83093052062637
20
3.94722698913094
30
0
41
1
10
5.89997612824277
20
3.87802788825485
30
0
41
1
10
5.93710206073186
20
3.82231798197651
30
0
41
1
10
5.98680620220954
20
3.70229608162887
30
0
41
1
10
6
20
3.63685881207022
30
0
41
1
10
6
20
3.571
30
0
0
SPLINE
5
303
100
AcDbEntity
8
1
62
256
6
ByLayer
370
13
48
1
60
0
100
AcDbSpline
70
4
71
1
72
4
73
2
40
0
40
0
40
1
40
1
41
1
10
46.45
20
-13.6703759399753
30
0
41
1
10
46.01
20
-13.6703759399753
30
0
0
SPLINE
5
304
100
AcDbEntity
8
1
62
256
6
ByLayer
370
13
48
1
60
0
100
AcDbSpline
70
4
71
3
72
10
73
6
40
0
40
0
40
0
40
0
40
0.500000000000001
40
0.500000000000001
40
1
40
1
40
1
40
1
41
1
10
235.622237410308
20
9.57628185407404
30
0
41
1
10
235.672552968057
20
9.57373968595019
30
0
41
1
10
235.720980192396
20
9.56634218822842
30
0
41
1
10
235.813185285844
20
9.54655888360173
30
0
41
1
10
235.855975529441
20
9.53456098673513
30
0
41
1
10
235.894599543143
20
9.52441717726668
30
0
0
SPLINE
5
305
100
AcDbEntity
8
1
62
256
6
ByLayer
370
13
48
1
60
0
100
AcDbSpline
70
4
71
3
72
19
73
15
40
0
40
0
40
0
40
0
40
0.25
40
0.25
40
0.375
40
0.375
40
0.5
40
0.5
40
0.625
40
0.625
40
0.75
40
0.875
40
0.875
40
1
40
1
40
1
40
1
41
1
10
46.0049999204413
20
-13.6745512131218
30
0
41
1
10
43.9544945445129
20
-14.0737526110766
30
0
41
1
10
41.9108891372647
20
-14.6843960050219
30
0
41
1
10
38.9888046728813
20
-15.9156475492548
30
0
41
1
10
38.0387910100259
20
-16.3792236008802
30
0
41
1
10
36.2078987505411
20
-17.4065048012169
30
0
41
1
10
35.3268937039408
20
-17.9695319763224
30
0
41
1
10
33.6538672441113
20
-19.1827844981129
30
0
41
1
10
32.8618471515214
20
-19.8330107651638
30
0
41
1
10
31.3868867414744
20
-21.2090827825869
30
0
41
1
10
30.0208397562796
20
-22.6606583517492
30
0
41
1
10
28.890854853187
20
-24.2247814653605
30
0
41
1
10
27.8880186074815
20
-25.8259485720739
30
0
41
1
10
27.4510238126
20
-26.6450199180804
30
0
41
1
10
27.0795285784577
20
-27.4731044710978
30
0
0
SPLINE
5
306
100
AcDbEntity
8
1
62
256
6
ByLayer
370
13
48
1
60
0
100
AcDbSpline
70
4
71
3
72
18
73
14
40
0
40
0
40
0
40
0
40
0.249999999999955
40
0.249999999999955
40
0.374999999999933
40
0.374999999999933
40
0.499999999999912
40
0.499999999999912
40
0.749999999999957
40
0.749999999999957
40
0.874999999999978
40
0.874999999999978
40
1
40
1
40
1
40
1
41
1
10
246.892767032725
20
10.4016259275551
30
0
41
1
10
246.950143375315
20
10.4046328942536
30
0
41
1
10
247.00790019997
20
10.3974583146833
30
0
41
1
10
247.089198500554
20
10.3740821569067
30
0
41
1
10
247.115080972485
20
10.3643109497548
30
0
41
1
10
247.163228505424
20
10.3423665334575
30
0
41
1
10
247.185882986987
20
10.3299752627026
30
0
41
1
10
247.245871405469
20
10.2930510732139
30
0
41
1
10
247.276691628691
20
10.2681831160488
30
0
41
1
10
247.308902401287
20
10.2425434232428
30
0
41
1
10
247.317575045891
20
10.2357178904144
30
0
41
1
10
247.330658044537
20
10.2267814276001
30
0
41
1
10
247.335215172145
20
10.2245391827904
30
0
41
1
10
247.337875860782
20
10.2246786235732
30
0
0
SPLINE
5
307
100
AcDbEntity
8
1
62
256
6
ByLayer
370
13
48
1
60
0
100
AcDbSpline
70
4
71
3
72
50
73
46
40
0
40
0
40
0
40
0
40
0.125000000000007
40
0.125000000000007
40
0.250000000000014
40
0.250000000000014
40
0.312500000000018
40
0.312500000000018
40
0.375000000000021
40
0.375000000000021
40
0.406250000000025
40
0.406250000000025
40
0.437500000000028
40
0.437500000000028
40
0.500000000000035
40
0.500000000000035
40
0.562500000000042
40
0.562500000000042
40
0.578125000000042
40
0.578125000000042
40
0.593750000000041
40
0.593750000000041
40
0.625000000000038
40
0.625000000000038
40
0.656250000000034
40
0.656250000000034
40
0.671875000000033
40
0.671875000000033
40
0.687500000000031
40
0.687500000000031
40
0.750000000000025
40
0.750000000000025
40
0.781250000000022
40
0.781250000000022
40
0.79687500000002
40
0.79687500000002
40
0.812500000000018
40
0.812500000000018
40
0.875000000000012
40
0.875000000000012
40
0.906250000000009
40
0.906250000000009
40
0.937500000000006
40
0.937500000000006
40
1
40
1
40
1
40
1
41
1
10
228.691917990339
20
2.10653675938909
30
0
41
1
10
229.669532004308
20
1.89437445268402
30
0
41
1
10
230.655137768678
20
1.70726868957001
30
0
41
1
10
232.652152649028
20
1.41395843926284
30
0
41
1
10
233.663430376011
20
1.30734200801055
30
0
41
1
10
235.209263581859
20
1.23807965626332
30
0
41
1
10
235.722535421144
20
1.23058349162517
30
0
41
1
10
236.74436405554
20
1.25132578457053
30
0
41
1
10
237.252943401406
20
1.27952835051823
30
0
41
1
10
238.011720615152
20
1.35307998877275
30
0
41
1
10
238.263962538947
20
1.38281926839195
30
0
41
1
10
238.766948289024
20
1.45373831290891
30
0
41
1
10
239.015344911834
20
1.49460114558028
30
0
41
1
10
239.749076182239
20
1.6337299242991
30
0
41
1
10
240.223789039521
20
1.74855842353074
30
0
41
1
10
241.141234806513
20
2.02710212622904
30
0
41
1
10
241.584022081695
20
2.19073422297061
30
0
41
1
10
242.114104019971
20
2.43104845708643
30
0
41
1
10
242.218878163815
20
2.48090171238803
30
0
41
1
10
242.423697224415
20
2.58320658343922
30
0
41
1
10
242.524033714913
20
2.63578677757354
30
0
41
1
10
242.818779741862
20
2.79784116372963
30
0
41
1
10
243.006936145867
20
2.91162205727932
30
0
41
1
10
243.366100252972
20
3.15099461874786
30
0
41
1
10
243.537110623121
20
3.27658444979713
30
0
41
1
10
243.78014639458
20
3.47425308822173
30
0
41
1
10
243.858908626912
20
3.54169205776921
30
0
41
1
10
244.011788090255
20
3.67976913496997
30
0
41
1
10
244.085896093132
20
3.75042890693359
30
0
41
1
10
244.440338375672
20
4.10765114643951
30
0
41
1
10
244.676413011786
20
4.4091091728173
30
0
41
1
10
244.959890646535
20
4.88462354196628
30
0
41
1
10
245.042548539769
20
5.04703678330435
30
0
41
1
10
245.148265059184
20
5.29669050802667
30
0
41
1
10
245.180470196172
20
5.38102392227014
30
0
41
1
10
245.238038203176
20
5.54973782321511
30
0
41
1
10
245.263510821039
20
5.63435280024504
30
0
41
1
10
245.374722466395
20
6.05868622243531
30
0
41
1
10
245.412346231611
20
6.40215385806738
30
0
41
1
10
245.395147857825
20
6.92309294982712
30
0
41
1
10
245.376874418482
20
7.0983743422365
30
0
41
1
10
245.316906051674
20
7.4445285827652
30
0
41
1
10
245.275283160177
20
7.61602961170573
30
0
41
1
10
245.117558930759
20
8.12608346286927
30
0
41
1
10
244.968582181693
20
8.46052210337666
30
0
41
1
10
244.779275761136
20
8.78880402448002
30
0
0
SPLINE
5
308
100
AcDbEntity
8
1
62
256
6
ByLayer
370
13
48
1
60
0
100
AcDbSpline
70
4
71
3
72
28
73
24
40
0
40
0
40
0
40
0
40
0.0672902264792685
40
0.0672902264792685
40
0.134580452958537
40
0.134580452958537
40
0.269160905917074
40
0.269160905917074
40
0.403741358875611
40
0.403741358875611
40
0.47103158535488
40
0.47103158535488
40
0.53832181183415
40
0.53832181183415
40
0.67290226479269
40
0.67290226479269
40
0.74019249127196
40
0.74019249127196
40
0.80748271775123
40
0.80748271775123
40
0.942063170709772
40
0.942063170709772
40
1
40
1
40
1
40
1
41
1
10
224.076749185613
20
23.8700402439391
30
0
41
1
10
223.103767698907
20
23.9336470457439
30
0
41
1
10
222.130869917866
20
23.9854192620958
30
0
41
1
10
220.184726220017
20
24.065135148557
30
0
41
1
10
219.211246918844
20
24.0930770179232
30
0
41
1
10
216.293012273248
20
24.1409510914515
30
0
41
1
10
214.349520458124
20
24.1249826990313
30
0
41
1
10
210.462651170468
20
23.9977200581773
30
0
41
1
10
208.519287696792
20
23.886434059258
30
0
41
1
10
205.601630121848
20
23.6484815917825
30
0
41
1
10
204.628236028859
20
23.5572846126226
30
0
41
1
10
202.682817833431
20
23.3517062621282
30
0
41
1
10
201.710623767776
20
23.237321880665
30
0
41
1
10
198.794764437296
20
22.8599661947886
30
0
41
1
10
196.851623197681
20
22.5629533686255
30
0
41
1
10
193.935932871979
20
22.0509749895194
30
0
41
1
10
192.96396526936
20
21.869162588396
30
0
41
1
10
191.01996049929
20
21.4829262048399
30
0
41
1
10
190.047664071117
20
21.2782177503804
30
0
41
1
10
187.131094835842
20
20.6339076081272
30
0
41
1
10
185.186884014878
20
20.1643454609407
30
0
41
1
10
182.393908167376
20
19.4549344093335
30
0
41
1
10
181.551894516175
20
19.2365704039671
30
0
41
1
10
180.707885842509
20
19.0144815268129
30
0
0
SPLINE
5
309
100
AcDbEntity
8
1
62
256
6
ByLayer
370
13
48
1
60
0
100
AcDbSpline
70
4
71
3
72
26
73
22
40
0
40
0
40
0
40
0
40
0.0625
40
0.0625
40
0.125
40
0.125
40
0.1875
40
0.1875
40
0.25
40
0.25
40
0.3125
40
0.3125
40
0.375
40
0.375
40
0.5
40
0.5
40
0.625
40
0.625
40
0.75
40
0.75
40
1
40
1
40
1
40
1
41
1
10
128
20
-9.22915243242738
30
0
41
1
10
126.400953247471
20
-9.10186097536078
30
0
41
1
10
124.800382444258
20
-8.99783608485893
30
0
41
1
10
121.595951826259
20
-8.84104899992548
30
0
41
1
10
119.991730393485
20
-8.78796876699246
30
0
41
1
10
116.783066100136
20
-8.7192682474429
30
0
41
1
10
115.178659293818
20
-8.70410690635913
30
0
41
1
10
111.969775002718
20
-8.69212862998495
30
0
41
1
10
110.365300994726
20
-8.69438984543658
30
0
41
1
10
107.15634273831
20
-8.70156853960845
30
0
41
1
10
105.551857370814
20
-8.70677362838012
30
0
41
1
10
102.3429010964
20
-8.71343776348724
30
0
41
1
10
100.738427499133
20
-8.71559403836878
30
0
41
1
10
95.9250187403493
20
-8.71894697163674
30
0
41
1
10
92.7160925138121
20
-8.71782908953563
30
0
41
1
10
86.2982336812133
20
-8.71724195170319
30
0
41
1
10
83.0893039924125
20
-8.71700078040595
30
0
41
1
10
76.6714433659213
20
-8.71764293700835
30
0
41
1
10
73.4625125341135
20
-8.71838494536743
30
0
41
1
10
63.835720212912
20
-8.72046331174755
30
0
41
1
10
57.4178589459617
20
-8.72161351523556
30
0
41
1
10
51
20
-8.72084907047969
30
0
0
SPLINE
5
30A
100
AcDbEntity
8
1
62
256
6
ByLayer
370
13
48
1
60
0
100
AcDbSpline
70
4
71
3
72
20
73
16
40
0
40
0
40
0
40
0
40
0.125000000000002
40
0.125000000000002
40
0.250000000000005
40
0.250000000000005
40
0.500000000000008
40
0.500000000000008
40
0.625000000000006
40
0.625000000000006
40
0.750000000000004
40
0.750000000000004
40
0.875000000000002
40
0.875000000000002
40
1
40
1
40
1
40
1
41
1
10
227.385654254862
20
9.24805040282189
30
0
41
1
10
227.406298470721
20
9.31497568487612
30
0
41
1
10
227.426165247417
20
9.38563828794597
30
0
41
1
10
227.464959526505
20
9.53438909434809
30
0
41
1
10
227.484004422725
20
9.61306976814478
30
0
41
1
10
227.538914799352
20
9.85454609929425
30
0
41
1
10
227.572819991717
20
10.0234155978889
30
0
41
1
10
227.62193385284
20
10.2883725446713
30
0
41
1
10
227.637763072681
20
10.3773343082691
30
0
41
1
10
227.668563973039
20
10.5543643582663
30
0
41
1
10
227.683584278402
20
10.6427647672505
30
0
41
1
10
227.71375304449
20
10.8191759490712
30
0
41
1
10
227.72897326819
20
10.9077667165178
30
0
41
1
10
227.760562522519
20
11.0801259306493
30
0
41
1
10
227.77682565186
20
11.1641804960023
30
0
41
1
10
227.795932765157
20
11.2455752258485
30
0
0
SPLINE
5
30B
100
AcDbEntity
8
1
62
256
6
ByLayer
370
13
48
1
60
0
100
AcDbSpline
70
4
71
3
72
10
73
6
40
0
40
0
40
0
40
0
40
0.588668187623215
40
0.588668187623215
40
1
40
1
40
1
40
1
41
1
10
227.385654254862
20
9.24805040282192
30
0
41
1
10
223.648885413483
20
9.37622952383273
30
0
41
1
10
219.915118170593
20
9.43335658035872
30
0
41
1
10
213.573340035573
20
9.41271395618463
30
0
41
1
10
210.965032712384
20
9.37043132965766
30
0
41
1
10
208.356178675994
20
9.29549230967794
30
0
0
SPLINE
5
30C
100
AcDbEntity
8
1
62
256
6
ByLayer
370
13
48
1
60
0
100
AcDbSpline
70
4
71
3
72
18
73
14
40
0
40
0
40
0
40
0
40
0.125000000000004
40
0.125000000000004
40
0.250000000000008
40
0.250000000000008
40
0.500000000000016
40
0.500000000000016
40
0.625000000000013
40
0.625000000000013
40
0.750000000000009
40
0.750000000000009
40
1
40
1
40
1
40
1
41
1
10
229.170554982343
20
11.2970345413405
30
0
41
1
10
229.275046749998
20
11.2285937161796
30
0
41
1
10
229.377558732108
20
11.1557745834205
30
0
41
1
10
229.575796084634
20
11.0032200058359
30
0
41
1
10
229.670819439593
20
10.9240939520291
30
0
41
1
10
229.944484083852
20
10.6791545182537
30
0
41
1
10
230.111784500813
20
10.5058518450544
30
0
41
1
10
230.342890755752
20
10.2344835981653
30
0
41
1
10
230.416602646502
20
10.1421082492735
30
0
41
1
10
230.55767490479
20
9.9539329723325
30
0
41
1
10
230.62530554208
20
9.8576993719513
30
0
41
1
10
230.816140368545
20
9.56873740931104
30
0
41
1
10
230.928060498792
20
9.37537841110796
30
0
41
1
10
231.026231508204
20
9.18158289805476
30
0
0
SPLINE
5
30D
100
AcDbEntity
8
1
62
256
6
ByLayer
370
13
48
1
60
0
100
AcDbSpline
70
4
71
3
72
8
73
4
40
0
40
0
40
0
40
0
40
1
40
1
40
1
40
1
41
1
10
46
20
-24.2837313580284
30
0
41
1
10
45.4141830734225
20
-24.2837142713627
30
0
41
1
10
44.8291836806284
20
-24.30025744701
30
0
41
1
10
44.244998145606
20
-24.3332866813095
30
0
0
SPLINE
5
30E
100
AcDbEntity
8
1
62
256
6
ByLayer
370
13
48
1
60
0
100
AcDbSpline
70
4
71
3
72
8
73
4
40
0
40
0
40
0
40
0
40
1
40
1
40
1
40
1
41
1
10
249.061638806829
20
0.476197078398997
30
0
41
1
10
249.060054138859
20
0.524237175611148
30
0
41
1
10
249.059782899631
20
0.572135286135165
30
0
41
1
10
249.060771020978
20
0.617141319089825
30
0
0
SPLINE
5
30F
100
AcDbEntity
8
1
62
256
6
ByLayer
370
13
48
1
60
0
100
AcDbSpline
70
4
71
3
72
42
73
38
40
0
40
0
40
0
40
0
40
0.0624999999999996
40
0.0624999999999996
40
0.124999999999999
40
0.124999999999999
40
0.187499999999999
40
0.187499999999999
40
0.249999999999998
40
0.249999999999998
40
0.281249999999998
40
0.281249999999998
40
0.312499999999998
40
0.312499999999998
40
0.374999999999998
40
0.374999999999998
40
0.406249999999998
40
0.406249999999998
40
0.437499999999998
40
0.437499999999998
40
0.499999999999997
40
0.499999999999997
40
0.562499999999997
40
0.562499999999997
40
0.593749999999997
40
0.593749999999997
40
0.624999999999997
40
0.624999999999997
40
0.749999999999998
40
0.749999999999998
40
0.874999999999998
40
0.874999999999998
40
0.937499999999999
40
0.937499999999999
40
0.96875
40
0.96875
40
1
40
1
40
1
40
1
41
1
10
18.4067367724671
20
-25.0023622455701
30
0
41
1
10
18.2962977228701
20
-25.1855931899233
30
0
41
1
10
18.2091788877323
20
-25.3637600856693
30
0
41
1
10
18.0807833497852
20
-25.7093389798105
30
0
41
1
10
18.0395009145903
20
-25.8767549275857
30
0
41
1
10
18.0054023805205
20
-26.1999249685717
30
0
41
1
10
18.0133416214704
20
-26.3517878377723
30
0
41
1
10
18.075506731007
20
-26.6361624960439
30
0
41
1
10
18.1293930183152
20
-26.7689195612746
30
0
41
1
10
18.2448787797541
20
-26.9540913724762
30
0
41
1
10
18.2892773748961
20
-27.0136703100009
30
0
41
1
10
18.3882082322953
20
-27.1266871300453
30
0
41
1
10
18.4428088510489
20
-27.1802847154484
30
0
41
1
10
18.6213652407527
20
-27.332829315189
30
0
41
1
10
18.7599326554037
20
-27.423579736225
30
0
41
1
10
18.9955580523073
20
-27.5446922670673
30
0
41
1
10
19.0787598356915
20
-27.5825493732012
30
0
41
1
10
19.2544379066847
20
-27.6533861111664
30
0
41
1
10
19.3463757875122
20
-27.6861378754768
30
0
41
1
10
19.6327841128875
20
-27.7765170729784
30
0
41
1
10
19.8383005265968
20
-27.8264977002706
30
0
41
1
10
20.2768073304316
20
-27.908276410428
30
0
41
1
10
20.5098182534577
20
-27.9400611951725
30
0
41
1
10
20.8795899716948
20
-27.9752691342447
30
0
41
1
10
21.0057996758458
20
-27.9848739023093
30
0
41
1
10
21.2624607613757
20
-27.9999745719191
30
0
41
1
10
21.3931441231368
20
-28.0054933525543
30
0
41
1
10
22.0580467220252
20
-28.0235997468903
30
0
41
1
10
22.6262385909876
20
-28.0081350281753
30
0
41
1
10
23.835349768111
20
-27.9275555742937
30
0
41
1
10
24.4587769875105
20
-27.8634668981559
30
0
41
1
10
25.421228246457
20
-27.7385718275626
30
0
41
1
10
25.7467256248197
20
-27.6920459882915
30
0
41
1
10
26.2424286947862
20
-27.6150950750101
30
0
41
1
10
26.4092009024403
20
-27.5881953717209
30
0
41
1
10
26.7437187067453
20
-27.5322416276233
30
0
41
1
10
26.9114041123322
20
-27.5032020185332
30
0
41
1
10
27.0795285784577
20
-27.4731044710978
30
0
0
SPLINE
5
310
100
AcDbEntity
8
1
62
256
6
ByLayer
370
13
48
1
60
0
100
AcDbSpline
70
4
71
3
72
8
73
4
40
0
40
0
40
0
40
0
40
1
40
1
40
1
40
1
41
1
10
228.023311120945
20
11.3688387050265
30
0
41
1
10
228.142518861246
20
12.6326447195313
30
0
41
1
10
228.258978899008
20
13.89503723245
30
0
41
1
10
228.372010563583
20
15.1562429016649
30
0
0
SPLINE
5
311
100
AcDbEntity
8
1
62
256
6
ByLayer
370
13
48
1
60
0
100
AcDbSpline
70
4
71
3
72
18
73
14
40
0
40
0
40
0
40
0
40
0.499999999999999
40
0.499999999999999
40
0.749999999999999
40
0.749999999999999
40
0.781249999999999
40
0.781249999999999
40
0.812499999999999
40
0.812499999999999
40
0.874999999999999
40
0.874999999999999
40
1
40
1
40
1
40
1
41
1
10
27.0795285784577
20
-27.4731044710979
30
0
41
1
10
29.3693075634664
20
-27.0631906681815
30
0
41
1
10
31.6484330164848
20
-26.6137466521193
30
0
41
1
10
35.0506818788371
20
-25.8785821054235
30
0
41
1
10
36.1818296026939
20
-25.6233988523351
30
0
41
1
10
37.4521981753517
20
-25.3243817332109
30
0
41
1
10
37.5933175538547
20
-25.2909922238032
30
0
41
1
10
37.8754907052752
20
-25.2238812440869
30
0
41
1
10
38.0164946607161
20
-25.1899076999
30
0
41
1
10
38.4397507964302
20
-25.0892230579412
30
0
41
1
10
38.7226388279547
20
-25.0257293349156
30
0
41
1
10
39.5734541399582
20
-24.8461332157891
30
0
41
1
10
40.1435312371641
20
-24.740908782154
30
0
41
1
10
40.7164910015249
20
-24.6502704965923
30
0
0
SPLINE
5
312
100
AcDbEntity
8
1
62
256
6
ByLayer
370
13
48
1
60
0
100
AcDbSpline
70
4
71
3
72
10
73
6
40
0
40
0
40
0
40
0
40
0.5
40
0.5
40
1
40
1
40
1
40
1
41
1
10
248.018956134877
20
-4.14545749825047
30
0
41
1
10
248.072804077593
20
-4.4389614588552
30
0
41
1
10
248.105732925995
20
-4.73225377691477
30
0
41
1
10
248.131975841464
20
-5.31828177421565
30
0
41
1
10
248.125284870163
20
-5.61101783056981
30
0
41
1
10
248.098641784736
20
-5.90345946329757
30
0
0
SPLINE
5
313
100
AcDbEntity
8
1
62
256
6
ByLayer
370
13
48
1
60
0
100
AcDbSpline
70
4
71
3
72
16
73
12
40
0
40
0
40
0
40
0
40
0.25
40
0.25
40
0.499999999999999
40
0.499999999999999
40
0.624999999999999
40
0.624999999999999
40
0.75
40
0.75
40
1
40
1
40
1
40
1
41
1
10
44.2449981408473
20
-23.6544663819042
30
0
41
1
10
43.9271419723505
20
-23.6545862508247
30
0
41
1
10
43.6141906618378
20
-23.6775739098386
30
0
41
1
10
42.9974356163879
20
-23.7661977283125
30
0
41
1
10
42.6936350735365
20
-23.8318487701607
30
0
41
1
10
42.244614670309
20
-23.9614712372678
30
0
41
1
10
42.0957895457037
20
-24.010027636628
30
0
41
1
10
41.8051595982351
20
-24.11563797435
30
0
41
1
10
41.6627418543438
20
-24.1728444750764
30
0
41
1
10
41.2436540978633
20
-24.3568685734083
30
0
41
1
10
40.9751191284871
20
-24.4960445363696
30
0
41
1
10
40.7164910015249
20
-24.6502704965923
30
0
0
SPLINE
5
314
100
AcDbEntity
8
1
62
256
6
ByLayer
370
13
48
1
60
0
100
AcDbSpline
70
4
71
3
72
10
73
6
40
0
40
0
40
0
40
0
40
0.5
40
0.5
40
1
40
1
40
1
40
1
41
1
10
229.432035414182
20
11.2753522411054
30
0
41
1
10
229.685124756641
20
11.2274290876095
30
0
41
1
10
229.929273908718
20
11.1979105294133
30
0
41
1
10
230.408218107226
20
11.1621964570097
30
0
41
1
10
230.642879541814
20
11.1559001361107
30
0
41
1
10
230.874601741334
20
11.1572373759316
30
0
0
SPLINE
5
315
100
AcDbEntity
8
1
62
256
6
ByLayer
370
13
48
1
60
0
100
AcDbSpline
70
4
71
3
72
8
73
4
40
0
40
0
40
0
40
0
40
1
40
1
40
1
40
1
41
1
10
230.107106212144
20
-24.2631228727443
30
0
41
1
10
229.107106211417
20
-24.1802080155724
30
0
41
1
10
228.107106211409
20
-24.0972931498016
30
0
41
1
10
227.107106212144
20
-24.0143782751615
30
0
0
SPLINE
5
316
100
AcDbEntity
8
1
62
256
6
ByLayer
370
13
48
1
60
0
100
AcDbSpline
70
2053
71
3
72
95
73
91
40
0
40
0
40
0
40
0
40
0.0312500000000027
40
0.0312500000000027
40
0.0468750000000041
40
0.0468750000000041
40
0.0625000000000055
40
0.0625000000000055
40
0.0937500000000083
40
0.0937500000000083
40
0.10937500000001
40
0.10937500000001
40
0.125000000000011
40
0.125000000000011
40
0.156250000000014
40
0.156250000000014
40
0.187500000000017
40
0.187500000000017
40
0.203125000000017
40
0.203125000000017
40
0.218750000000018
40
0.218750000000018
40
0.250000000000019
40
0.250000000000019
40
0.26562500000002
40
0.26562500000002
40
0.281250000000021
40
0.281250000000021
40
0.312500000000023
40
0.312500000000023
40
0.328125000000024
40
0.328125000000024
40
0.343750000000025
40
0.343750000000025
40
0.37500000000003
40
0.37500000000003
40
0.406250000000035
40
0.406250000000035
40
0.421875000000037
40
0.421875000000037
40
0.43750000000004
40
0.43750000000004
40
0.468750000000045
40
0.468750000000045
40
0.48437500000005
40
0.48437500000005
40
0.500000000000056
40
0.500000000000056
40
0.531250000000061
40
0.531250000000061
40
0.54687500000006
40
0.54687500000006
40
0.562500000000059
40
0.578125000000059
40
0.578125000000059
40
0.593750000000058
40
0.593750000000058
40
0.625000000000057
40
0.625000000000057
40
0.640625000000054
40
0.640625000000054
40
0.656250000000051
40
0.656250000000051
40
0.687500000000049
40
0.687500000000049
40
0.718750000000047
40
0.718750000000047
40
0.734375000000046
40
0.734375000000046
40
0.750000000000044
40
0.750000000000044
40
0.781250000000041
40
0.781250000000041
40
0.79687500000004
40
0.79687500000004
40
0.812500000000038
40
0.812500000000038
40
0.843750000000034
40
0.843750000000034
40
0.875000000000029
40
0.875000000000029
40
0.906250000000025
40
0.906250000000025
40
0.921875000000023
40
0.921875000000023
40
0.93750000000002
40
0.93750000000002
40
0.96875000000001
40
0.96875000000001
40
1
40
1
40
1
40
1
41
1
10
242.002789113522
20
-2.66234690307684
30
0
41
1
10
242.144898006365
20
-2.66234690307684
30
0
41
1
10
242.284513746737
20
-2.67685474490762
30
0
41
1
10
242.490354387036
20
-2.71945355060925
30
0
41
1
10
242.558366037959
20
-2.73715329165802
30
0
41
1
10
242.69315530149
20
-2.77972374073181
30
0
41
1
10
242.759819807632
20
-2.80461353943139
30
0
41
1
10
242.953395336359
20
-2.88830428471493
30
0
41
1
10
243.075518904166
20
-2.95649279087706
30
0
41
1
10
243.248374973039
20
-3.07720120366099
30
0
41
1
10
243.304535555287
20
-3.12079492378047
30
0
41
1
10
243.411202698096
20
-3.21255859719764
30
0
41
1
10
243.461875120692
20
-3.26079423836933
30
0
41
1
10
243.60614610435
20
-3.41233373187984
30
0
41
1
10
243.692289777953
20
-3.52275798229368
30
0
41
1
10
243.842628102543
20
-3.76060088276353
30
0
41
1
10
243.904909738786
20
-3.88483331740326
30
0
41
1
10
243.980061117124
20
-4.07863980968065
30
0
41
1
10
244.002044011974
20
-4.1444944150791
30
0
41
1
10
244.039793278378
20
-4.27873227296604
30
0
41
1
10
244.055489649683
20
-4.34702217293742
30
0
41
1
10
244.092400383938
20
-4.55146817711935
30
0
41
1
10
244.103945094597
20
-4.68857242534568
30
0
41
1
10
244.102075695577
20
-4.89539182728294
30
0
41
1
10
244.098196853727
20
-4.9648343403459
30
0
41
1
10
244.083972923734
20
-5.10260039413393
30
0
41
1
10
244.073691078788
20
-5.17063902834965
30
0
41
1
10
244.033629019749
20
-5.37230686167825
30
0
41
1
10
243.994718324393
20
-5.503509015725
30
0
41
1
10
243.917633329936
20
-5.69539679370951
30
0
41
1
10
243.888695387988
20
-5.75865511387607
30
0
41
1
10
243.825628059223
20
-5.88094853227054
30
0
41
1
10
243.791386215422
20
-5.94030815926604
30
0
41
1
10
243.680607801384
20
-6.11310112254753
30
0
41
1
10
243.596105023289
20
-6.22130367433445
30
0
41
1
10
243.40423123872
20
-6.4228753483134
30
0
41
1
10
243.299315129109
20
-6.51351064053702
30
0
41
1
10
243.130232048413
20
-6.6328688219867
30
0
41
1
10
243.071817912052
20
-6.66996176774541
30
0
41
1
10
242.950721452571
20
-6.73857293874536
30
0
41
1
10
242.887647863799
20
-6.77025553774894
30
0
41
1
10
242.694619169436
20
-6.85508439430225
30
0
41
1
10
242.561895146993
20
-6.89788894180941
30
0
41
1
10
242.35673742382
20
-6.94152453624633
30
0
41
1
10
242.287332476817
20
-6.95261652293922
30
0
41
1
10
242.146389498922
20
-6.96758137423151
30
0
41
1
10
242.075482990948
20
-6.97134920251813
30
0
41
1
10
241.864638448989
20
-6.97160017739887
30
0
41
1
10
241.725265356133
20
-6.95728746770726
30
0
41
1
10
241.518001939773
20
-6.91392474203138
30
0
41
1
10
241.449250383533
20
-6.89574243411045
30
0
41
1
10
241.315609102149
20
-6.85294304890004
30
0
41
1
10
241.184973502388
20
-6.80355768603221
30
0
41
1
10
241.06017011189
20
-6.74135671903386
30
0
41
1
10
240.938280151589
20
-6.6727317058147
30
0
41
1
10
240.878652217235
20
-6.63506450172181
30
0
41
1
10
240.70781541408
20
-6.51487297006429
30
0
41
1
10
240.60330501102
20
-6.42460943571564
30
0
41
1
10
240.459992806265
20
-6.27453224479763
30
0
41
1
10
240.414273053448
20
-6.22175672335032
30
0
41
1
10
240.328735394419
20
-6.11284242213452
30
0
41
1
10
240.288874000336
20
-6.05672196077262
30
0
41
1
10
240.177691406041
20
-5.88352354115335
30
0
41
1
10
240.114692626322
20
-5.76165334910598
30
0
41
1
10
240.011244858291
20
-5.50478937585299
30
0
41
1
10
239.972083635229
20
-5.37277480761585
30
0
41
1
10
239.932012005237
20
-5.17137116941907
30
0
41
1
10
239.921748659317
20
-5.10356877170136
30
0
41
1
10
239.907521108705
20
-4.96659954695201
30
0
41
1
10
239.903558887192
20
-4.89709127334405
30
0
41
1
10
239.901556661548
20
-4.68905714870508
30
0
41
1
10
239.91317179042
20
-4.55192117738463
30
0
41
1
10
239.949777185426
20
-4.34853990063505
30
0
41
1
10
239.965197517412
20
-4.28113618541326
30
0
41
1
10
240.002703641039
20
-4.14714464782037
30
0
41
1
10
240.024909209114
20
-4.08033745670852
30
0
41
1
10
240.100315191501
20
-3.88548855271554
30
0
41
1
10
240.162499172785
20
-3.76164337904996
30
0
41
1
10
240.310877977152
20
-3.52624868347655
30
0
41
1
10
240.398214008932
20
-3.41376788154713
30
0
41
1
10
240.590799095727
20
-3.21117260792713
30
0
41
1
10
240.696392428507
20
-3.12000018217827
30
0
41
1
10
240.869099995322
20
-2.99890194485386
30
0
41
1
10
240.929411461797
20
-2.96100376105886
30
0
41
1
10
241.052406592728
20
-2.89218933245851
30
0
41
1
10
241.115272582394
20
-2.86109895000263
30
0
41
1
10
241.307900231966
20
-2.77760799376861
30
0
41
1
10
241.441979819843
20
-2.73481666444235
30
0
41
1
10
241.720018023219
20
-2.67687022357725
30
0
41
1
10
241.860680220679
20
-2.66234690307684
30
0
41
1
10
242.002789113522
20
-2.66234690307684
30
0
0
SPLINE
5
317
100
AcDbEntity
8
1
62
256
6
ByLayer
370
13
48
1
60
0
100
AcDbSpline
70
4
71
3
72
8
73
4
40
0
40
0
40
0
40
0
40
1
40
1
40
1
40
1
41
1
10
51
20
-8.72084907047963
30
0
41
1
10
49.3333332890365
20
-8.72045015439164
30
0
41
1
10
47.666666604753
20
-8.71992340341291
30
0
41
1
10
46
20
-8.71923938887818
30
0
0
SPLINE
5
318
100
AcDbEntity
8
1
62
256
6
ByLayer
370
13
48
1
60
0
100
AcDbSpline
70
4
71
3
72
56
73
52
40
0
40
0
40
0
40
0
40
0.0624999999999993
40
0.0624999999999993
40
0.0781249999999991
40
0.0781249999999991
40
0.0937499999999989
40
0.0937499999999989
40
0.124999999999999
40
0.124999999999999
40
0.15625
40
0.15625
40
0.171875
40
0.171875
40
0.179687500000001
40
0.179687500000001
40
0.187500000000001
40
0.187500000000001
40
0.218750000000001
40
0.218750000000001
40
0.250000000000001
40
0.250000000000001
40
0.3125
40
0.3125
40
0.343750000000001
40
0.343750000000001
40
0.375000000000001
40
0.375000000000001
40
0.437500000000001
40
0.437500000000001
40
0.468750000000001
40
0.468750000000001
40
0.500000000000001
40
0.500000000000001
40
0.562500000000001
40
0.562500000000001
40
0.625
40
0.625
40
0.6875
40
0.6875
40
0.749999999999999
40
0.749999999999999
40
0.812499999999999
40
0.812499999999999
40
0.843749999999999
40
0.843749999999999
40
0.874999999999999
40
0.874999999999999
40
0.9375
40
0.9375
40
1
40
1
40
1
40
1
41
1
10
220.196761636304
20
-24.0143782751615
30
0
41
1
10
218.202670605113
20
-23.9888134706427
30
0
41
1
10
216.199418309532
20
-23.9680289915571
30
0
41
1
10
213.697822053939
20
-23.9373101403131
30
0
41
1
10
213.197631948185
20
-23.9308695238105
30
0
41
1
10
212.197997479198
20
-23.9167375480841
30
0
41
1
10
211.698379925926
20
-23.9090435975426
30
0
41
1
10
210.204625054781
20
-23.8829444441474
30
0
41
1
10
209.214897592192
20
-23.861637587134
30
0
41
1
10
207.256956168985
20
-23.8026739500477
30
0
41
1
10
206.288811012055
20
-23.7651464093047
30
0
41
1
10
204.861784887606
20
-23.6845828388092
30
0
41
1
10
204.390144210759
20
-23.6537319480215
30
0
41
1
10
203.68999838086
20
-23.5991032048853
30
0
41
1
10
203.458164916877
20
-23.5792405120635
30
0
41
1
10
202.996761916616
20
-23.5365104544077
30
0
41
1
10
202.766735843898
20
-23.5139977282495
30
0
41
1
10
201.615897938001
20
-23.3988446757286
30
0
41
1
10
200.695932306267
20
-23.2959934651969
30
0
41
1
10
198.855173335457
20
-23.0718455567395
30
0
41
1
10
197.934525037277
20
-22.950386315868
30
0
41
1
10
195.174028740944
20
-22.5564385214966
30
0
41
1
10
193.335178408756
20
-22.2545231520214
30
0
41
1
10
190.575865156624
20
-21.7447180194755
30
0
41
1
10
189.65559714816
20
-21.5653013439817
30
0
41
1
10
187.814899838855
20
-21.1893973457182
30
0
41
1
10
186.894431161085
20
-20.9928936369504
30
0
41
1
10
184.130689522385
20
-20.3806017794947
30
0
41
1
10
182.284794869175
20
-19.9420424697774
30
0
41
1
10
179.499655075456
20
-19.2590373107111
30
0
41
1
10
178.568382703889
20
-19.0270592118473
30
0
41
1
10
176.701138746098
20
-18.5576249039281
30
0
41
1
10
175.765346865067
20
-18.3202413828558
30
0
41
1
10
172.950374021071
20
-17.604043916854
30
0
41
1
10
171.063740260752
20
-17.1209426716081
30
0
41
1
10
167.267709289788
20
-16.1594816867841
30
0
41
1
10
165.357680287317
20
-15.6809936179806
30
0
41
1
10
161.520550063608
20
-14.7473027775035
30
0
41
1
10
159.59250950944
20
-14.2917674932001
30
0
41
1
10
155.715086428818
20
-13.4185606789092
30
0
41
1
10
153.764720704311
20
-13.0009013283177
30
0
41
1
10
149.849155067817
20
-12.2199800982062
30
0
41
1
10
147.883353618985
20
-11.8557419021382
30
0
41
1
10
144.923523524425
20
-11.3493234980983
30
0
41
1
10
143.935065143373
20
-11.1871341190784
30
0
41
1
10
141.954635130956
20
-10.8757969822924
30
0
41
1
10
140.962511502268
20
-10.7265735271029
30
0
41
1
10
137.98352846749
20
-10.2989611865656
30
0
41
1
10
135.993325103697
20
-10.0407665260803
30
0
41
1
10
132.003843065922
20
-9.58568543473086
30
0
41
1
10
130.004519866832
20
-9.38911449406407
30
0
41
1
10
128
20
-9.22915243242738
30
0
0
SPLINE
5
319
100
AcDbEntity
8
1
62
256
6
ByLayer
370
13
48
1
60
0
100
AcDbSpline
70
4
71
3
72
10
73
6
40
0
40
0
40
0
40
0
40
0.5
40
0.5
40
1
40
1
40
1
40
1
41
1
10
224.09228649007
20
1.08054059055914
30
0
41
1
10
224.554784151267
20
0.774090063672958
30
0
41
1
10
225.036554478465
20
0.51321689008418
30
0
41
1
10
226.040356263681
20
0.0868612256344647
30
0
41
1
10
226.562305668848
20
-0.0788160339888009
30
0
41
1
10
227.107106212138
20
-0.19028700818771
30
0
0
SPLINE
5
31A
100
AcDbEntity
8
1
62
256
6
ByLayer
370
13
48
1
60
0
100
AcDbSpline
70
4
71
3
72
10
73
6
40
0
40
0
40
0
40
0
40
0.5
40
0.5
40
1
40
1
40
1
40
1
41
1
10
240.726240312252
20
8.57639343724853
30
0
41
1
10
241.45925159926
20
8.61480893099005
30
0
41
1
10
242.165654112841
20
8.65182991800674
30
0
41
1
10
243.519215258473
20
8.72276705177313
30
0
41
1
10
244.166415249152
20
8.75668536603666
30
0
41
1
10
244.779275761136
20
8.78880402448002
30
0
0
SPLINE
5
31B
100
AcDbEntity
8
1
62
256
6
ByLayer
370
13
48
1
60
0
100
AcDbSpline
70
4
71
3
72
8
73
4
40
0
40
0
40
0
40
0
40
1
40
1
40
1
40
1
41
1
10
228.43451744734
20
-0.444653523192784
30
0
41
1
10
228.992011277158
20
-0.503823480257921
30
0
41
1
10
229.54954128617
20
-0.562808885509043
30
0
41
1
10
230.107106212145
20
-0.621616177654943
30
0
0
SPLINE
5
31C
100
AcDbEntity
8
1
62
256
6
ByLayer
370
13
48
1
60
0
100
AcDbSpline
70
4
71
3
72
10
73
6
40
0
40
0
40
0
40
0
40
0.5
40
0.5
40
1
40
1
40
1
40
1
41
1
10
219.147019536289
20
4.57745905030816
30
0
41
1
10
219.621587815731
20
4.42680426480223
30
0
41
1
10
220.095597257676
20
4.28300722655433
30
0
41
1
10
221.0401950791
20
4.01138282349012
30
0
41
1
10
221.5110033824
20
3.88348098460409
30
0
41
1
10
221.980142331507
20
3.76443808265623
30
0
0
SPLINE
5
31D
100
AcDbEntity
8
1
62
256
6
ByLayer
370
13
48
1
60
0
100
AcDbSpline
70
4
71
3
72
14
73
10
40
0
40
0
40
0
40
0
40
0.0270795908591094
40
0.0270795908591094
40
0.189232992382593
40
0.189232992382593
40
0.351386393906076
40
0.351386393906076
40
1
40
1
40
1
40
1
41
1
10
205.90164504354
20
10.2343394886393
30
0
41
1
10
206.046739771794
20
10.179257702164
30
0
41
1
10
206.191837224298
20
10.1240637791298
30
0
41
1
10
207.20580660087
20
9.73759319339021
30
0
41
1
10
208.074798461441
20
9.4024537847956
30
0
41
1
10
209.813337607501
20
8.72484726328364
30
0
41
1
10
210.683134707123
20
8.38228064997176
30
0
41
1
10
215.030437689809
20
6.65425033081686
30
0
41
1
10
218.503286112949
20
5.22332751106927
30
0
41
1
10
221.980142331507
20
3.76443808265625
30
0
0
SPLINE
5
31E
100
AcDbEntity
8
1
62
256
6
ByLayer
370
13
48
1
60
0
100
AcDbSpline
70
4
71
3
72
23
73
19
40
0
40
0
40
0
40
0
40
0.125000000000003
40
0.125000000000003
40
0.250000000000006
40
0.250000000000006
40
0.375000000000009
40
0.375000000000009
40
0.500000000000012
40
0.625000000000015
40
0.625000000000015
40
0.750000000000018
40
0.750000000000018
40
0.87500000000002
40
0.87500000000002
40
0.93750000000001
40
0.93750000000001
40
1
40
1
40
1
40
1
41
1
10
235.999476950794
20
8.61897997202715
30
0
41
1
10
235.89853093784
20
8.52652464807204
30
0
41
1
10
235.791019925729
20
8.44223140906055
30
0
41
1
10
235.561841690486
20
8.29038537816729
30
0
41
1
10
235.442509459987
20
8.22442053316303
30
0
41
1
10
235.195284459864
20
8.11234769541826
30
0
41
1
10
235.066759108206
20
8.06598536904579
30
0
41
1
10
234.801510842867
20
7.99405979951578
30
0
41
1
10
234.533451423994
20
7.94426137553853
30
0
41
1
10
234.25974126077
20
7.93705745794199
30
0
41
1
10
233.983221481745
20
7.9519763448466
30
0
41
1
10
233.846428035536
20
7.97041122819269
30
0
41
1
10
233.57852294798
20
8.0280919544949
30
0
41
1
10
233.44694923978
20
8.06735949074533
30
0
41
1
10
233.253410457198
20
8.1425089118369
30
0
41
1
10
233.189749884026
20
8.17023059920282
30
0
41
1
10
233.066104068819
20
8.23008973239158
30
0
41
1
10
233.005837835592
20
8.26233200253188
30
0
41
1
10
232.947151413128
20
8.29683901633615
30
0
0
SPLINE
5
31F
100
AcDbEntity
8
1
62
256
6
ByLayer
370
13
48
1
60
0
100
AcDbSpline
70
4
71
3
72
22
73
18
40
0
40
0
40
0
40
0
40
0.125
40
0.125
40
0.25
40
0.25
40
0.375
40
0.375
40
0.5
40
0.5
40
0.625
40
0.625
40
0.75
40
0.75
40
0.875
40
0.875
40
1
40
1
40
1
40
1
41
1
10
231.405778053157
20
7.54085755061271
30
0
41
1
10
231.364527792853
20
7.48160864185201
30
0
41
1
10
231.319076088876
20
7.42506668447851
30
0
41
1
10
231.221025811583
20
7.32133346053405
30
0
41
1
10
231.168164456159
20
7.2736951367998
30
0
41
1
10
231.053117263697
20
7.18882344374447
30
0
41
1
10
230.992532985843
20
7.15285596362611
30
0
41
1
10
230.865703049184
20
7.09589817658699
30
0
41
1
10
230.798512225713
20
7.07484122781574
30
0
41
1
10
230.66487591177
20
7.05077159217427
30
0
41
1
10
230.597619809016
20
7.04730567880929
30
0
41
1
10
230.463236835494
20
7.05641166275353
30
0
41
1
10
230.398375936885
20
7.06873741020846
30
0
41
1
10
230.272104432707
20
7.10510351217744
30
0
41
1
10
230.210293432072
20
7.12937294517667
30
0
41
1
10
230.091262719585
20
7.18567953884553
30
0
41
1
10
230.034208765311
20
7.21752158889117
30
0
41
1
10
229.97868872701
20
7.2517612848437
30
0
0
SPLINE
5
320
100
AcDbEntity
8
1
62
256
6
ByLayer
370
13
48
1
60
0
100
AcDbSpline
70
4
71
3
72
20
73
16
40
0
40
0
40
0
40
0
40
0.125000000000001
40
0.125000000000001
40
0.250000000000001
40
0.250000000000001
40
0.375000000000002
40
0.375000000000002
40
0.500000000000002
40
0.500000000000002
40
0.625000000000002
40
0.625000000000002
40
0.750000000000003
40
0.750000000000003
40
1
40
1
40
1
40
1
41
1
10
5.99999999999996
20
-31.0675076027925
30
0
41
1
10
5.99999999999997
20
-31.080962010327
30
0
41
1
10
5.99677802951543
20
-31.09414941444
30
0
41
1
10
5.98415574729455
20
-31.1200169935347
30
0
41
1
10
5.97460706229403
20
-31.132827336719
30
0
41
1
10
5.94964138722892
20
-31.1572191139859
30
0
41
1
10
5.93436036703302
20
-31.1687556935702
30
0
41
1
10
5.89825058475371
20
-31.1905426353914
30
0
41
1
10
5.87720587398624
20
-31.2008461165011
30
0
41
1
10
5.83118489707975
20
-31.2192929262407
30
0
41
1
10
5.80606785289073
20
-31.2275533431178
30
0
41
1
10
5.75151945639116
20
-31.242127423306
30
0
41
1
10
5.72235822232541
20
-31.248336483291
30
0
41
1
10
5.63204318454244
20
-31.2632543930297
30
0
41
1
10
5.56624413343683
20
-31.268533014896
30
0
41
1
10
5.49999999999996
20
-31.268533014896
30
0
0
SPLINE
5
321
100
AcDbEntity
8
1
62
256
6
ByLayer
370
13
48
1
60
0
100
AcDbSpline
70
4
71
3
72
34
73
30
40
0
40
0
40
0
40
0
40
0.105224926433829
40
0.105224926433829
40
0.210449852867658
40
0.210449852867658
40
0.315674779301487
40
0.315674779301487
40
0.368287242518402
40
0.368287242518402
40
0.420899705735316
40
0.420899705735316
40
0.526124632169145
40
0.526124632169145
40
0.631349558602974
40
0.631349558602974
40
0.683962021819889
40
0.683962021819889
40
0.736574485036804
40
0.736574485036804
40
0.841799411470633
40
0.841799411470633
40
0.894411874687545
40
0.894411874687545
40
0.920718106296001
40
0.920718106296001
40
0.947024337904457
40
0.947024337904457
40
1
40
1
40
1
40
1
41
1
10
227.219452012716
20
8.63390692181449
30
0
41
1
10
226.731497962306
20
8.75015259962427
30
0
41
1
10
226.238585181992
20
8.84602583802999
30
0
41
1
10
225.243791410264
20
9.00348596307975
30
0
41
1
10
224.741897261062
20
9.06501238984293
30
0
41
1
10
223.729075677852
20
9.15673882820803
30
0
41
1
10
223.218144528563
20
9.18691295227333
30
0
41
1
10
222.444378007444
20
9.20935056021068
30
0
41
1
10
222.18522210556
20
9.21301171923065
30
0
41
1
10
221.664277330924
20
9.21265864291118
30
0
41
1
10
221.401901407116
20
9.20862220456107
30
0
41
1
10
220.615443475054
20
9.18496673165438
30
0
41
1
10
220.092602543284
20
9.15394153778541
30
0
41
1
10
219.049734420068
20
9.06179122037017
30
0
41
1
10
218.529706312933
20
9.00067809855133
30
0
41
1
10
217.751778803256
20
8.88572236694719
30
0
41
1
10
217.492823075113
20
8.84351135196729
30
0
41
1
10
216.97563555581
20
8.75099803644267
30
0
41
1
10
216.716602449532
20
8.70052278085632
30
0
41
1
10
215.946978532396
20
8.5376005597648
30
0
41
1
10
215.445465664
20
8.41424699436942
30
0
41
1
10
214.712935849848
20
8.20565041288492
30
0
41
1
10
214.47206505836
20
8.13216659281022
30
0
41
1
10
214.116242806278
20
8.01549800278852
30
0
41
1
10
213.998551403409
20
7.97553172099424
30
0
41
1
10
213.765119246434
20
7.8933148026928
30
0
41
1
10
213.649132195112
20
7.8509671715081
30
0
41
1
10
213.305523494508
20
7.72072222864904
30
0
41
1
10
213.083280379686
20
7.63011645457658
30
0
41
1
10
212.869301522858
20
7.53535696083034
30
0
0
SPLINE
5
322
100
AcDbEntity
8
1
62
256
6
ByLayer
370
13
48
1
60
0
100
AcDbSpline
70
4
71
3
72
8
73
4
40
0
40
0
40
0
40
0
40
1
40
1
40
1
40
1
41
1
10
51
20
-24.283842759984
30
0
41
1
10
49.3333333062142
20
-24.2838162415937
30
0
41
1
10
47.666666627199
20
-24.2837799701018
30
0
41
1
10
46
20
-24.2837313580284
30
0
0
SPLINE
5
323
100
AcDbEntity
8
1
62
256
6
ByLayer
370
13
48
1
60
0
100
AcDbSpline
70
4
71
3
72
8
73
4
40
0
40
0
40
0
40
0
40
1
40
1
40
1
40
1
41
1
10
227.219452012718
20
8.63390692182091
30
0
41
1
10
227.277377120718
20
8.83600266758322
30
0
41
1
10
227.331764515316
20
9.03870083368386
30
0
41
1
10
227.383883999012
20
9.24178519151272
30
0
0
SPLINE
5
324
100
AcDbEntity
8
1
62
256
6
ByLayer
370
13
48
1
60
0
100
AcDbSpline
70
4
71
3
72
8
73
4
40
0
40
0
40
0
40
0
40
1
40
1
40
1
40
1
41
1
10
46.0099999999995
20
-23.6538007917304
30
0
41
1
10
45.4216660468118
20
-23.6540223880956
30
0
41
1
10
44.8333320938943
20
-23.6542445112507
30
0
41
1
10
44.2449981408473
20
-23.6544663819042
30
0
0
SPLINE
5
325
100
AcDbEntity
8
1
62
256
6
ByLayer
370
13
48
1
60
0
100
AcDbSpline
70
4
71
3
72
12
73
8
40
0
40
0
40
0
40
0
40
0.293898859457349
40
0.293898859457349
40
0.646949429728674
40
0.646949429728674
40
1
40
1
40
1
40
1
41
1
10
46.4499872299382
20
-8.71082694938065
30
0
41
1
10
46.4499296614893
20
-9.15787218058975
30
0
41
1
10
46.4498800673748
20
-9.64195685383092
30
0
41
1
10
46.4497936411522
20
-10.7407742293383
30
0
41
1
10
46.4497614147356
20
-11.3618342539545
30
0
41
1
10
46.449731081078
20
-12.5650068550177
30
0
41
1
10
46.4497329829023
20
-13.1467598588679
30
0
41
1
10
46.4497518281604
20
-13.6703759387848
30
0
0
SPLINE
5
326
100
AcDbEntity
8
1
62
256
6
ByLayer
370
13
48
1
60
0
100
AcDbSpline
70
4
71
3
72
28
73
24
40
0
40
0
40
0
40
0
40
0.127202169048718
40
0.127202169048718
40
0.254404338097436
40
0.254404338097436
40
0.381606507146153
40
0.381606507146153
40
0.508808676194871
40
0.508808676194871
40
0.636010845243589
40
0.636010845243589
40
0.763213014292307
40
0.763213014292307
40
0.890415183341025
40
0.890415183341025
40
0.954016267865383
40
0.954016267865383
40
0.969916538996471
40
0.969916538996471
40
0.98581681012756
40
0.98581681012756
40
1
40
1
40
1
40
1
41
1
10
223.239886359852
20
22.5057588589789
30
0
41
1
10
221.489871732203
20
22.6216907475924
30
0
41
1
10
219.740429411634
20
22.7015688646961
30
0
41
1
10
216.240209804975
20
22.7893489320876
30
0
41
1
10
214.490947548077
20
22.7971913740649
30
0
41
1
10
210.99505173319
20
22.7405086608744
30
0
41
1
10
209.247886313869
20
22.6759965592227
30
0
41
1
10
205.752461305786
20
22.4734803837348
30
0
41
1
10
204.004016166055
20
22.3353949376789
30
0
41
1
10
200.503933812515
20
21.9879672963924
30
0
41
1
10
198.755656231943
20
21.7789852347641
30
0
41
1
10
195.260053702626
20
21.2937833880995
30
0
41
1
10
193.51280496471
20
21.0179080649501
30
0
41
1
10
190.016925416958
20
20.3882848770178
30
0
41
1
10
188.267429817112
20
20.0323636413481
30
0
41
1
10
185.641918754262
20
19.472513092137
30
0
41
1
10
184.766772898256
20
19.2816889283645
30
0
41
1
10
183.672733443908
20
19.0400551695411
30
0
41
1
10
183.453899872982
20
18.9914773206476
30
0
41
1
10
183.015835538931
20
18.8926387101893
30
0
41
1
10
182.79662539837
20
18.8424676301395
30
0
41
1
10
182.381603055147
20
18.7465262749435
30
0
41
1
10
182.185827715295
20
18.7008927394797
30
0
41
1
10
181.989948176523
20
18.6549189997844
30
0
0
SPLINE
5
327
100
AcDbEntity
8
1
62
256
6
ByLayer
370
13
48
1
60
0
100
AcDbSpline
70
4
71
3
72
16
73
12
40
0
40
0
40
0
40
0
40
0.249999999999997
40
0.249999999999997
40
0.499999999999995
40
0.499999999999995
40
0.624999999999993
40
0.624999999999993
40
0.749999999999992
40
0.749999999999992
40
1
40
1
40
1
40
1
41
1
10
231.405778053157
20
7.54085755061271
30
0
41
1
10
231.922656580838
20
7.42808558451409
30
0
41
1
10
232.438676935614
20
7.35471960080307
30
0
41
1
10
233.469351729186
20
7.28023524185841
30
0
41
1
10
233.98400203021
20
7.2791763811164
30
0
41
1
10
234.754725410407
20
7.33083385505986
30
0
41
1
10
235.011419921191
20
7.35696204633572
30
0
41
1
10
235.52428691423
20
7.42726369002438
30
0
41
1
10
235.778278989539
20
7.47114014942161
30
0
41
1
10
236.53269006387
20
7.62825247159682
30
0
41
1
10
237.02569267656
20
7.76688860309244
30
0
41
1
10
237.508162955451
20
7.93896838222975
30
0
0
SPLINE
5
328
100
AcDbEntity
8
1
62
256
6
ByLayer
370
13
48
1
60
0
100
AcDbSpline
70
4
71
3
72
8
73
4
40
0
40
0
40
0
40
0
40
1
40
1
40
1
40
1
41
1
10
46.45
20
-23.6400951942063
30
0
41
1
10
46.303333332636
20
-23.6401475641919
30
0
41
1
10
46.1566666659454
20
-23.6402013396153
30
0
41
1
10
46.01
20
-23.6402565514822
30
0
0
SPLINE
5
329
100
AcDbEntity
8
1
62
256
6
ByLayer
370
13
48
1
60
0
100
AcDbSpline
70
4
71
3
72
58
73
54
40
0
40
0
40
0
40
0
40
5.9998415946E-05
40
5.9998415946E-05
40
0.0400575984793089
40
0.0400575984793089
40
0.0600563985109901
40
0.0600563985109901
40
0.0800551985426713
40
0.0800551985426713
40
0.120052798606034
40
0.120052798606034
40
0.160050398669396
40
0.160050398669396
40
0.200047998732758
40
0.200047998732758
40
0.240045598796121
40
0.240045598796121
40
0.280043198859483
40
0.280043198859483
40
0.300041998891164
40
0.300041998891164
40
0.320040798922845
40
0.320040798922845
40
0.360038398986207
40
0.360038398986207
40
0.400035999049569
40
0.400035999049569
40
0.42003479908125
40
0.42003479908125
40
0.440033599112931
40
0.440033599112931
40
0.460032399144612
40
0.460032399144612
40
0.480031199176293
40
0.480031199176293
40
0.500029999207974
40
0.500029999207974
40
0.520028799239656
40
0.520028799239656
40
0.560026399303017
40
0.560026399303017
40
0.580025199334699
40
0.580025199334699
40
0.60002399936638
40
0.60002399936638
40
0.680019199493104
40
0.680019199493104
40
0.760014399619828
40
0.760014399619828
40
0.840009599746552
40
0.840009599746552
40
1
40
1
40
1
40
1
41
1
10
182.448334043393
20
-19.987798655056
30
0
41
1
10
182.445793902313
20
-19.9883960388012
30
0
41
1
10
182.443253761611
20
-19.9889933726213
30
0
41
1
10
180.747343636665
20
-20.387766551668
30
0
41
1
10
179.053481425456
20
-20.7639125354742
30
0
41
1
10
176.510464780421
20
-21.2580372224135
30
0
41
1
10
175.662273485706
20
-21.410342383425
30
0
41
1
10
173.96001344808
20
-21.7034998682204
30
0
41
1
10
173.10611232371
20
-21.8434068507183
30
0
41
1
10
170.5351355773
20
-22.2352508158335
30
0
41
1
10
168.811476126365
20
-22.4577909819842
30
0
41
1
10
165.343446705683
20
-22.8358211823996
30
0
41
1
10
163.598998969063
20
-22.9911695921314
30
0
41
1
10
160.088793965861
20
-23.2506010989982
30
0
41
1
10
158.322681560431
20
-23.3536526006371
30
0
41
1
10
154.77225655743
20
-23.5175545821092
30
0
41
1
10
152.990694678877
20
-23.5786668403381
30
0
41
1
10
149.415008732319
20
-23.6664474812179
30
0
41
1
10
147.620909097887
20
-23.6940811842757
30
0
41
1
10
144.918626407704
20
-23.7220984426072
30
0
41
1
10
144.01601026872
20
-23.7290866520145
30
0
41
1
10
142.206834999902
20
-23.7388272546295
30
0
41
1
10
141.299993280297
20
-23.7415796030568
30
0
41
1
10
138.575245672945
20
-23.744117798521
30
0
41
1
10
136.754269359525
20
-23.7372520993678
30
0
41
1
10
133.102994607372
20
-23.7197853915956
30
0
41
1
10
131.272771745931
20
-23.7089035337362
30
0
41
1
10
128.520860417388
20
-23.6925118945419
30
0
41
1
10
127.602461196785
20
-23.6870598342839
30
0
41
1
10
125.763504726865
20
-23.6765685075925
30
0
41
1
10
124.842631784688
20
-23.6713049485215
30
0
41
1
10
123.000286187399
20
-23.6601711568723
30
0
41
1
10
122.078925290558
20
-23.6543647901312
30
0
41
1
10
120.235804521496
20
-23.6423819481541
30
0
41
1
10
119.314047417078
20
-23.6364721162008
30
0
41
1
10
117.470210962323
20
-23.6333934464996
30
0
41
1
10
116.548121502898
20
-23.6378579822796
30
0
41
1
10
114.703797420817
20
-23.6473260208041
30
0
41
1
10
113.781574066653
20
-23.6506462947485
30
0
41
1
10
111.01478775054
20
-23.6550958983416
30
0
41
1
10
109.170087772824
20
-23.652010325072
30
0
41
1
10
106.403029896862
20
-23.64619421568
30
0
41
1
10
105.480677566018
20
-23.6440593667311
30
0
41
1
10
103.635972178352
20
-23.6407231724957
30
0
41
1
10
102.713619021138
20
-23.6396213927069
30
0
41
1
10
98.1018512448264
20
-23.6361563997954
30
0
41
1
10
94.4124311558479
20
-23.6395970165485
30
0
41
1
10
87.0335945178381
20
-23.6399316835685
30
0
41
1
10
83.3441769742273
20
-23.6382743857523
30
0
41
1
10
75.9653415597352
20
-23.6370593653738
30
0
41
1
10
72.2759238094839
20
-23.6372604962037
30
0
41
1
10
61.2076707430354
20
-23.6385060772076
30
0
41
1
10
53.8288354408819
20
-23.6402565718893
30
0
41
1
10
46.45
20
-23.6400952497874
30
0
0
SPLINE
5
32A
100
AcDbEntity
8
1
62
256
6
ByLayer
370
13
48
1
60
0
100
AcDbSpline
70
4
71
3
72
10
73
6
40
0
40
0
40
0
40
0
40
0.5
40
0.5
40
1
40
1
40
1
40
1
41
1
10
239.136758314409
20
9.99515073452824
30
0
41
1
10
239.167337119694
20
9.99675330180639
30
0
41
1
10
239.198275052232
20
9.99548275786663
30
0
41
1
10
239.258456623205
20
9.98766223512453
30
0
41
1
10
239.287865549188
20
9.98115536289794
30
0
41
1
10
239.31656661371
20
9.97227175444931
30
0
0
SPLINE
5
32B
100
AcDbEntity
8
1
62
256
6
ByLayer
370
13
48
1
60
0
100
AcDbSpline
70
4
71
3
72
8
73
4
40
0
40
0
40
0
40
0
40
1
40
1
40
1
40
1
41
1
10
-2.84E-14
20
-26.7613352297609
30
0
41
1
10
0.166657416166501
20
-26.9067424437056
30
0
41
1
10
0.333324220354257
20
-27.0521415880536
30
0
41
1
10
0.499999999999972
20
-27.197533014896
30
0
0
SPLINE
5
32C
100
AcDbEntity
8
1
62
256
6
ByLayer
370
13
48
1
60
0
100
AcDbSpline
70
4
71
3
72
8
73
4
40
0
40
0
40
0
40
0
40
1
40
1
40
1
40
1
41
1
10
231.300174062668
20
7.56204120504179
30
0
41
1
10
231.336793261877
20
7.55445461912302
30
0
41
1
10
231.372003829392
20
7.54740665939812
30
0
41
1
10
231.405778053157
20
7.54085755061271
30
0
0
SPLINE
5
32D
100
AcDbEntity
8
1
62
256
6
ByLayer
370
13
48
1
60
0
100
AcDbSpline
70
4
71
3
72
14
73
10
40
0
40
0
40
0
40
0
40
0.25
40
0.25
40
0.5
40
0.5
40
0.75
40
0.75
40
1
40
1
40
1
40
1
41
1
10
249.060771020978
20
0.617141319089825
30
0
41
1
10
249.061884134583
20
0.667840383230981
30
0
41
1
10
249.063867428622
20
0.715132675883666
30
0
41
1
10
249.069457826386
20
0.799436349693224
30
0
41
1
10
249.072988606713
20
0.835532380888935
30
0
41
1
10
249.08144782437
20
0.894209807446231
30
0
41
1
10
249.086184607438
20
0.915582878866587
30
0
41
1
10
249.09669333972
20
0.942070777293111
30
0
41
1
10
249.10220430168
20
0.946490539651847
30
0
41
1
10
249.107938066823
20
0.941957625772403
30
0
0
SPLINE
5
32E
100
AcDbEntity
8
1
62
256
6
ByLayer
370
13
48
1
60
0
100
AcDbSpline
70
4
71
3
72
8
73
4
40
0
40
0
40
0
40
0
40
1
40
1
40
1
40
1
41
1
10
235.53811832917
20
9.5769543775757
30
0
41
1
10
235.565910625821
20
9.57788142942437
30
0
41
1
10
235.594332477489
20
9.5776917367038
30
0
41
1
10
235.622237410308
20
9.57628185407739
30
0
0
SPLINE
5
32F
100
AcDbEntity
8
1
62
256
6
ByLayer
370
13
48
1
60
0
100
AcDbSpline
70
4
71
3
72
12
73
8
40
0
40
0
40
0
40
0
40
0.24999999999994
40
0.24999999999994
40
0.499999999999881
40
0.499999999999881
40
1
40
1
40
1
40
1
41
1
10
227.795932765157
20
11.2455752258486
30
0
41
1
10
227.801081524912
20
11.2675085185852
30
0
41
1
10
227.813760520733
20
11.2870973995439
30
0
41
1
10
227.846199445165
20
11.3185362594532
30
0
41
1
10
227.865855955429
20
11.3307466630591
30
0
41
1
10
227.928548489496
20
11.3590908081033
30
0
41
1
10
227.97558797869
20
11.3675578364908
30
0
41
1
10
228.023311448267
20
11.3688421751973
30
0
0
SPLINE
5
330
100
AcDbEntity
8
1
62
256
6
ByLayer
370
13
48
1
60
0
100
AcDbSpline
70
4
71
3
72
18
73
14
40
0
40
0
40
0
40
0
40
0.124999999999991
40
0.124999999999991
40
0.249999999999981
40
0.249999999999981
40
0.374999999999972
40
0.374999999999972
40
0.499999999999963
40
0.499999999999963
40
0.749999999999981
40
0.749999999999981
40
1
40
1
40
1
40
1
41
1
10
230.782592297931
20
8.14079991006778
30
0
41
1
10
230.786249826309
20
8.10057668160223
30
0
41
1
10
230.793382849579
20
8.06151781304703
30
0
41
1
10
230.814086286364
20
7.98722949483496
30
0
41
1
10
230.82748658441
20
7.95236956116915
30
0
41
1
10
230.859503430221
20
7.88664465829993
30
0
41
1
10
230.878256177397
20
7.8556083528965
30
0
41
1
10
230.919580387217
20
7.79822541244855
30
0
41
1
10
230.94205556727
20
7.77192378610357
30
0
41
1
10
231.013739171825
20
7.69943018284638
30
0
41
1
10
231.067478171811
20
7.65933998434903
30
0
41
1
10
231.181003008892
20
7.59671987565085
30
0
41
1
10
231.240000670632
20
7.57450763299661
30
0
41
1
10
231.300174062668
20
7.56204120504179
30
0
0
SPLINE
5
331
100
AcDbEntity
8
1
62
256
6
ByLayer
370
13
48
1
60
0
100
AcDbSpline
70
4
71
3
72
8
73
4
40
0
40
0
40
0
40
0
40
1
40
1
40
1
40
1
41
1
10
0.499999999999957
20
-31.268533014896
30
0
41
1
10
0.333324220354243
20
-31.1231415880536
30
0
41
1
10
0.166657416166501
20
-30.9777424437056
30
0
41
1
10
-2.84E-14
20
-30.8323352297609
30
0
0
SPLINE
5
332
100
AcDbEntity
8
1
62
256
6
ByLayer
370
13
48
1
60
0
100
AcDbSpline
70
4
71
3
72
8
73
4
40
0
40
0
40
0
40
0
40
1
40
1
40
1
40
1
41
1
10
223.239886359865
20
22.5057588589708
30
0
41
1
10
223.526467595807
20
22.9557548069867
30
0
41
1
10
223.805217591499
20
23.4107499876197
30
0
41
1
10
224.076749185619
20
23.8700402439498
30
0
0
SPLINE
5
333
100
AcDbEntity
8
1
62
256
6
ByLayer
370
13
48
1
60
0
100
AcDbSpline
70
4
71
3
72
18
73
14
40
0
40
0
40
0
40
0
40
0.125000000000001
40
0.125000000000001
40
0.250000000000001
40
0.250000000000001
40
0.375000000000002
40
0.375000000000002
40
0.500000000000002
40
0.500000000000002
40
0.750000000000001
40
0.750000000000001
40
1
40
1
40
1
40
1
41
1
10
235.554549027963
20
8.49707769118984
30
0
41
1
10
235.54158787575
20
8.48429698154601
30
0
41
1
10
235.533233985656
20
8.47525621034987
30
0
41
1
10
235.528353281614
20
8.46632465714512
30
0
41
1
10
235.531728357926
20
8.46626778058831
30
0
41
1
10
235.548059610003
20
8.47382128732863
30
0
41
1
10
235.561099549352
20
8.48144411601149
30
0
41
1
10
235.593059509066
20
8.50214299103669
30
0
41
1
10
235.612263314154
20
8.5153986884784
30
0
41
1
10
235.67532858426
20
8.56159806065676
30
0
41
1
10
235.723358883469
20
8.59990896478882
30
0
41
1
10
235.826162336557
20
8.69136606546596
30
0
41
1
10
235.878228599887
20
8.74211270703972
30
0
41
1
10
235.929956732343
20
8.79840578102187
30
0
0
SPLINE
5
334
100
AcDbEntity
8
1
62
256
6
ByLayer
370
13
48
1
60
0
100
AcDbSpline
70
4
71
3
72
8
73
4
40
0
40
0
40
0
40
0
40
1
40
1
40
1
40
1
41
1
10
235.538118329171
20
9.57695437757914
30
0
41
1
10
235.489934455335
20
9.57534713547622
30
0
41
1
10
235.441792969858
20
9.57446966301418
30
0
41
1
10
235.393731423846
20
9.574749306021
30
0
0
SPLINE
5
335
100
AcDbEntity
8
1
62
256
6
ByLayer
370
13
48
1
60
0
100
AcDbSpline
70
4
71
3
72
8
73
4
40
0
40
0
40
0
40
0
40
1
40
1
40
1
40
1
41
1
10
223.814656475807
20
2.8830250548535
30
0
41
1
10
223.201923367526
20
3.17285080986724
30
0
41
1
10
222.590431370956
20
3.46669634485178
30
0
41
1
10
221.980142331507
20
3.7644380826562
30
0
0
SPLINE
5
336
100
AcDbEntity
8
1
62
256
6
ByLayer
370
13
48
1
60
0
100
AcDbSpline
70
4
71
3
72
8
73
4
40
0
40
0
40
0
40
0
40
1
40
1
40
1
40
1
41
1
10
249.080302466803
20
0.599272471988428
30
0
41
1
10
249.213643634859
20
0.617923200389754
30
0
41
1
10
249.346109895105
20
0.625057924674508
30
0
41
1
10
249.478737105298
20
0.62215331411798
30
0
0
SPLINE
5
337
100
AcDbEntity
8
1
62
256
6
ByLayer
370
13
48
1
60
0
100
AcDbSpline
70
4
71
2
72
6
73
3
40
0
40
0
40
0
40
1
40
1
40
1
41
1
10
205.909596284581
20
10.2313232470742
30
0
41
1
10
205.655754147513
20
10.3271388861903
30
0
41
1
10
205.402006036165
20
10.4309734348571
30
0
0
SPLINE
5
338
100
AcDbEntity
8
1
62
256
6
ByLayer
370
13
48
1
60
0
100
AcDbSpline
70
4
71
1
72
4
73
2
40
0
40
0
40
1
40
1
41
1
10
46
20
24.3749999999999
30
0
41
1
10
45.7439310343947
20
24.3859831416404
30
0
0
SPLINE
5
339
100
AcDbEntity
8
1
62
256
6
ByLayer
370
13
48
1
60
0
100
AcDbSpline
70
4
71
1
72
4
73
2
40
0
40
0
40
1
40
1
41
1
10
45.7439310343947
20
24.3859831416404
30
0
41
1
10
44.5994545809652
20
24.4350712728886
30
0
0
SPLINE
5
33A
100
AcDbEntity
8
1
62
256
6
ByLayer
370
13
48
1
60
0
100
AcDbSpline
70
4
71
2
72
6
73
3
40
0
40
0
40
0
40
1
40
1
40
1
41
1
10
249.821210170497
20
9.33607465460031
30
0
41
1
10
249.889138076597
20
9.40706637220336
30
0
41
1
10
249.958380134285
20
9.46294126248202
30
0
0
SPLINE
5
33B
100
AcDbEntity
8
1
62
256
6
ByLayer
370
13
48
1
60
0
100
AcDbSpline
70
4
71
2
72
6
73
3
40
0
40
0
40
0
40
1
40
1
40
1
41
1
10
232.903732387315
20
8.56914504760869
30
0
41
1
10
232.978435646183
20
8.52081401170884
30
0
41
1
10
233.053412091251
20
8.45731159380034
30
0
0
SPLINE
5
33C
100
AcDbEntity
8
1
62
256
6
ByLayer
370
13
48
1
60
0
100
AcDbSpline
70
4
71
3
72
13
73
9
40
0
40
0
40
0
40
0
40
0.279999881851087
40
0.560076237269898
40
0.670078350904558
40
0.779992702971539
40
0.890063785440085
40
1
40
1
40
1
40
1
41
1
10
17.2078
20
-29.5
30
0
41
1
10
19.9164434650793
20
-29.1192710213433
30
0
41
1
10
25.3128034653547
20
-28.2447421197528
30
0
41
1
10
31.7205096657231
20
-26.9137858718469
30
0
41
1
10
36.4713529687088
20
-25.7950511766973
30
0
41
1
10
39.5861017220184
20
-24.9665355243833
30
0
41
1
10
42.7799185976852
20
-24.4848454698225
30
0
41
1
10
44.9226869656694
20
-24.3752767711292
30
0
41
1
10
46
20
-24.375
30
0
0
SPLINE
5
33D
100
AcDbEntity
8
1
62
256
6
ByLayer
370
13
48
1
60
0
100
AcDbSpline
70
4
71
3
72
15
73
11
40
0
40
0
40
0
40
0
40
0.0476818590302866
40
0.145800747258414
40
0.243744092505809
40
0.341749015931147
40
0.439782014492273
40
0.53783313574039
40
0.768959154641892
40
1
40
1
40
1
40
1
41
1
10
44.5994545809652
20
24.4350712728886
30
0
41
1
10
44.1555816943789
20
24.441676558826
30
0
41
1
10
42.8020968798934
20
24.4981793199998
30
0
41
1
10
40.5506706457243
20
24.8023426135741
30
0
41
1
10
37.8852002930963
20
25.4122554187438
30
0
41
1
10
35.2381903946038
20
26.090941929228
30
0
41
1
10
32.5738009476528
20
26.7034397306445
30
0
41
1
10
28.6938128458376
20
27.5487502342538
30
0
41
1
10
23.5783945807853
20
28.5314568976839
30
0
41
1
10
19.3353804248603
20
29.2009675064292
30
0
41
1
10
17.2078000000001
20
29.4999999999999
30
0
0
LINE
5
7F
100
AcDbEntity
8
SK1
62
256
6
ByLayer
370
13
48
1
60
0
100
AcDbLine
10
-9.296888
20
-24.65
30
0
11
-9.296888
21
24.65
31
0
39
0
210
0
220
0
230
1
0
LINE
5
81
100
AcDbEntity
8
SK1
62
256
6
ByLayer
370
13
48
1
60
0
100
AcDbLine
10
-8
20
-24.9975
30
0
11
-8
21
24.9975
31
0
39
0
210
0
220
0
230
1
0
LINE
5
82
100
AcDbEntity
8
SK1
62
256
6
ByLayer
370
13
48
1
60
0
100
AcDbLine
10
-2
20
-24.9975
30
0
11
-2
21
24.9975
31
0
39
0
210
0
220
0
230
1
0
LINE
5
83
100
AcDbEntity
8
SK1
62
256
6
ByLayer
370
13
48
1
60
0
100
AcDbLine
10
-18
20
-24.445576
30
0
11
-18
21
24.445576
31
0
39
0
210
0
220
0
230
1
0
LINE
5
84
100
AcDbEntity
8
1
62
256
6
ByLayer
370
18
48
1
60
0
100
AcDbLine
10
242.379503
20
15.63875
30
0
11
242.243793
21
15.631638
31
0
39
0
210
0
220
0
230
1
0
LINE
5
85
100
AcDbEntity
8
1
62
256
6
ByLayer
370
18
48
1
60
0
100
AcDbLine
10
242.554101
20
17.095293
30
0
11
242.534191
21
17.094689
31
0
39
0
210
0
220
0
230
1
0
LINE
5
86
100
AcDbEntity
8
1
62
256
6
ByLayer
370
18
48
1
60
0
100
AcDbLine
10
240.810761
20
18.064229
30
0
11
240.675051
21
18.057117
31
0
39
0
210
0
220
0
230
1
0
LINE
5
87
100
AcDbEntity
8
1
62
256
6
ByLayer
370
18
48
1
60
0
100
AcDbLine
10
240.962055
20
15.177372
30
0
11
240.826345
21
15.170259
31
0
39
0
210
0
220
0
230
1
0
LINE
5
88
100
AcDbEntity
8
1
62
256
6
ByLayer
370
18
48
1
60
0
100
AcDbLine
10
242.243793
20
15.631638
30
0
11
242.233309
21
15.648652
31
0
39
0
210
0
220
0
230
1
0
LINE
5
89
100
AcDbEntity
8
1
62
256
6
ByLayer
370
18
48
1
60
0
100
AcDbLine
10
240.970459
20
15.194937
30
0
11
240.835771
21
15.187878
31
0
39
0
210
0
220
0
230
1
0
LINE
5
8A
100
AcDbEntity
8
1
62
256
6
ByLayer
370
18
48
1
60
0
100
AcDbLine
10
240.820955
20
18.047639
30
0
11
240.686268
21
18.04058
31
0
39
0
210
0
220
0
230
1
0
LINE
5
8B
100
AcDbEntity
8
1
62
256
6
ByLayer
370
18
48
1
60
0
100
AcDbLine
10
242.268671
20
17.753542
30
0
11
242.132962
21
17.74643
31
0
39
0
210
0
220
0
230
1
0
LINE
5
8C
100
AcDbEntity
8
1
62
256
6
ByLayer
370
18
48
1
60
0
100
AcDbLine
10
239.854915
20
16.179649
30
0
11
239.7866
21
16.176069
31
0
39
0
210
0
220
0
230
1
0
LINE
5
8D
100
AcDbEntity
8
1
62
256
6
ByLayer
370
18
48
1
60
0
100
AcDbLine
10
242.574699
20
16.321748
30
0
11
242.594563
21
16.323228
31
0
39
0
210
0
220
0
230
1
0
LINE
5
8E
100
AcDbEntity
8
1
62
256
6
ByLayer
370
18
48
1
60
0
100
AcDbLine
10
240.826345
20
15.170259
30
0
11
240.835771
21
15.187878
31
0
39
0
210
0
220
0
230
1
0
LINE
5
8F
100
AcDbEntity
8
1
62
256
6
ByLayer
370
18
48
1
60
0
100
AcDbLine
10
242.709386
20
16.328807
30
0
11
242.574699
21
16.321748
31
0
39
0
210
0
220
0
230
1
0
LINE
5
90
100
AcDbEntity
8
1
62
256
6
ByLayer
370
18
48
1
60
0
100
AcDbLine
10
242.668878
20
17.101748
30
0
11
242.534191
21
17.094689
31
0
39
0
210
0
220
0
230
1
0
LINE
5
91
100
AcDbEntity
8
1
62
256
6
ByLayer
370
18
48
1
60
0
100
AcDbLine
10
242.367997
20
15.655711
30
0
11
242.233309
21
15.648652
31
0
39
0
210
0
220
0
230
1
0
LINE
5
92
100
AcDbEntity
8
1
62
256
6
ByLayer
370
18
48
1
60
0
100
AcDbLine
10
239.814452
20
16.951715
30
0
11
239.746727
21
16.948165
31
0
39
0
210
0
220
0
230
1
0
LINE
5
93
100
AcDbEntity
8
1
62
256
6
ByLayer
370
18
48
1
60
0
100
AcDbLine
10
242.259001
20
17.735472
30
0
11
242.124314
21
17.728413
31
0
39
0
210
0
220
0
230
1
0
LINE
5
94
100
AcDbEntity
8
1
62
256
6
ByLayer
370
18
48
1
60
0
100
AcDbLine
10
242.124314
20
17.728413
30
0
11
242.132962
21
17.74643
31
0
39
0
210
0
220
0
230
1
0
LINE
5
95
100
AcDbEntity
8
1
62
256
6
ByLayer
370
18
48
1
60
0
100
AcDbLine
10
240.686268
20
18.04058
30
0
11
240.675051
21
18.057117
31
0
39
0
210
0
220
0
230
1
0
LINE
5
96
100
AcDbEntity
8
1
62
256
6
ByLayer
370
18
48
1
60
0
100
AcDbLine
10
249.260181
20
-14.19413
30
0
11
249.229613
21
-14.198947
31
0
39
0
210
0
220
0
230
1
0
LINE
5
97
100
AcDbEntity
8
1
62
256
6
ByLayer
370
18
48
1
60
0
100
AcDbLine
10
249.420025
20
0.192667
30
0
11
249.436048
21
0.137072
31
0
39
0
210
0
220
0
230
1
0
LINE
5
98
100
AcDbEntity
8
1
62
256
6
ByLayer
370
18
48
1
60
0
100
AcDbLine
10
249.41142
20
-14.157153
30
0
11
249.355543
21
-14.173095
31
0
39
0
210
0
220
0
230
1
0
LINE
5
99
100
AcDbEntity
8
1
62
256
6
ByLayer
370
18
48
1
60
0
100
AcDbLine
10
250.558963
20
-7.08867
30
0
11
249.661953
21
-13.867859
31
0
39
0
210
0
220
0
230
1
0
LINE
5
9A
100
AcDbEntity
8
1
62
256
6
ByLayer
370
18
48
1
60
0
100
AcDbLine
10
249.062517
20
0.450683
30
0
11
249.129268
21
0.441939
31
0
39
0
210
0
220
0
230
1
0
LINE
5
9B
100
AcDbEntity
8
1
62
256
6
ByLayer
370
18
48
1
60
0
100
AcDbLine
10
249.457189
20
0.042189
30
0
11
250.555958
21
-6.860257
31
0
39
0
210
0
220
0
230
1
0
LINE
5
9C
100
AcDbEntity
8
1
62
256
6
ByLayer
370
13
48
1
60
0
100
AcDbLine
10
232.605537
20
23.588719
30
0
11
232.462462
21
23.565993
31
0
39
0
210
0
220
0
230
1
0
LINE
5
9D
100
AcDbEntity
8
1
62
256
6
ByLayer
370
13
48
1
60
0
100
AcDbLine
10
234.74191
20
22.73871
30
0
11
234.737298
21
22.738468
31
0
39
0
210
0
220
0
230
1
0
LINE
5
9E
100
AcDbEntity
8
1
62
256
6
ByLayer
370
13
48
1
60
0
100
AcDbLine
10
248.352147
20
24.909528
30
0
11
248.579956
21
24.919465
31
0
39
0
210
0
220
0
230
1
0
LINE
5
9F
100
AcDbEntity
8
1
62
256
6
ByLayer
370
13
48
1
60
0
100
AcDbLine
10
234.566687
20
22.690973
30
0
11
232.720463
21
22.397715
31
0
39
0
210
0
220
0
230
1
0
LINE
5
A0
100
AcDbEntity
8
1
62
256
6
ByLayer
370
13
48
1
60
0
100
AcDbLine
10
247.710781
20
10.681359
30
0
11
248.552758
21
17.114893
31
0
39
0
210
0
220
0
230
1
0
LINE
5
A1
100
AcDbEntity
8
1
62
256
6
ByLayer
370
13
48
1
60
0
100
AcDbLine
10
234.737298
20
22.738468
30
0
11
233.881308
21
16.197859
31
0
39
0
210
0
220
0
230
1
0
LINE
5
A2
100
AcDbEntity
8
1
62
256
6
ByLayer
370
13
48
1
60
0
100
AcDbLine
10
249.897554
20
10.738799
30
0
11
247.98548
21
10.435081
31
0
39
0
210
0
220
0
230
1
0
LINE
5
A3
100
AcDbEntity
8
1
62
256
6
ByLayer
370
13
48
1
60
0
100
AcDbLine
10
232.605537
20
23.588719
30
0
11
232.704444
21
22.646329
31
0
39
0
210
0
220
0
230
1
0
LINE
5
A4
100
AcDbEntity
8
1
62
256
6
ByLayer
370
13
48
1
60
0
100
AcDbLine
10
247.887464
20
10.636532
30
0
11
247.875769
21
10.547169
31
0
39
0
210
0
220
0
230
1
0
LINE
5
A5
100
AcDbEntity
8
1
62
256
6
ByLayer
370
13
48
1
60
0
100
AcDbLine
10
248.333819
20
24.983289
30
0
11
248.223505
21
24.960181
31
0
39
0
210
0
220
0
230
1
0
LINE
5
A6
100
AcDbEntity
8
1
62
256
6
ByLayer
370
13
48
1
60
0
100
AcDbLine
10
234.103721
20
16.02944
30
0
11
235.089842
21
9.785355
31
0
39
0
210
0
220
0
230
1
0
LINE
5
A7
100
AcDbEntity
8
1
62
256
6
ByLayer
370
13
48
1
60
0
100
AcDbLine
10
232.883642
20
8.955485
30
0
11
231.775859
21
15.969929
31
0
39
0
210
0
220
0
230
1
0
LINE
5
A8
100
AcDbEntity
8
1
62
256
6
ByLayer
370
13
48
1
60
0
100
AcDbLine
10
232.490372
20
22.418166
30
0
11
232.467982
21
22.6315
31
0
39
0
210
0
220
0
230
1
0
LINE
5
A9
100
AcDbEntity
8
1
62
256
6
ByLayer
370
13
48
1
60
0
100
AcDbLine
10
233.719385
20
16.216746
30
0
11
234.566687
21
22.690973
31
0
39
0
210
0
220
0
230
1
0
LINE
5
AA
100
AcDbEntity
8
1
62
256
6
ByLayer
370
13
48
1
60
0
100
AcDbLine
10
231.744505
20
13.477598
30
0
11
232.483892
21
10.387399
31
0
39
0
210
0
220
0
230
1
0
LINE
5
AB
100
AcDbEntity
8
1
62
256
6
ByLayer
370
13
48
1
60
0
100
AcDbLine
10
233.885921
20
16.198101
30
0
11
234.727897
21
22.631636
31
0
39
0
210
0
220
0
230
1
0
LINE
5
AC
100
AcDbEntity
8
1
62
256
6
ByLayer
370
13
48
1
60
0
100
AcDbLine
10
231.50719
20
15.600302
30
0
11
232.755267
21
8.939021
31
0
39
0
210
0
220
0
230
1
0
LINE
5
AD
100
AcDbEntity
8
1
62
256
6
ByLayer
370
13
48
1
60
0
100
AcDbLine
10
247.917165
20
24.777787
30
0
11
248.075912
21
24.786107
31
0
39
0
210
0
220
0
230
1
0
LINE
5
AE
100
AcDbEntity
8
1
62
256
6
ByLayer
370
13
48
1
60
0
100
AcDbLine
10
248.014095
20
10.592972
30
0
11
249.860319
21
10.88623
31
0
39
0
210
0
220
0
230
1
0
LINE
5
AF
100
AcDbEntity
8
1
62
256
6
ByLayer
370
13
48
1
60
0
100
AcDbLine
10
234.008114
20
8.515062
30
0
11
234.236536
21
8.525026
31
0
39
0
210
0
220
0
230
1
0
LINE
5
B0
100
AcDbEntity
8
1
62
256
6
ByLayer
370
13
48
1
60
0
100
AcDbLine
10
249.902166
20
10.73904
30
0
11
249.897554
21
10.738799
31
0
39
0
210
0
220
0
230
1
0
LINE
5
B1
100
AcDbEntity
8
1
62
256
6
ByLayer
370
13
48
1
60
0
100
AcDbLine
10
231.904926
20
15.992394
30
0
11
233.01271
21
8.97795
31
0
39
0
210
0
220
0
230
1
0
LINE
5
B2
100
AcDbEntity
8
1
62
256
6
ByLayer
370
13
48
1
60
0
100
AcDbLine
10
247.825066
20
23.852645
30
0
11
248.858163
21
17.311113
31
0
39
0
210
0
220
0
230
1
0
LINE
5
B3
100
AcDbEntity
8
1
62
256
6
ByLayer
370
13
48
1
60
0
100
AcDbLine
10
247.692194
20
23.85427
30
0
11
247.740135
21
23.550709
31
0
39
0
210
0
220
0
230
1
0
LINE
5
B4
100
AcDbEntity
8
1
62
256
6
ByLayer
370
13
48
1
60
0
100
AcDbLine
10
233.883972
20
15.996989
30
0
11
234.920873
21
9.431367
31
0
39
0
210
0
220
0
230
1
0
LINE
5
B5
100
AcDbEntity
8
1
62
256
6
ByLayer
370
13
48
1
60
0
100
AcDbLine
10
249.062897
20
24.920814
30
0
11
249.058284
21
24.920572
31
0
39
0
210
0
220
0
230
1
0
LINE
5
B6
100
AcDbEntity
8
1
62
256
6
ByLayer
370
13
48
1
60
0
100
AcDbLine
10
235.498367
20
22.87238
30
0
11
246.436328
21
23.445614
31
0
39
0
210
0
220
0
230
1
0
LINE
5
B7
100
AcDbEntity
8
1
62
256
6
ByLayer
370
13
48
1
60
0
100
AcDbLine
10
234.261534
20
8.376136
30
0
11
234.033111
21
8.366171
31
0
39
0
210
0
220
0
230
1
0
LINE
5
B8
100
AcDbEntity
8
1
62
256
6
ByLayer
370
13
48
1
60
0
100
AcDbLine
10
233.885921
20
16.198101
30
0
11
233.881308
21
16.197859
31
0
39
0
210
0
220
0
230
1
0
LINE
5
B9
100
AcDbEntity
8
1
62
256
6
ByLayer
370
13
48
1
60
0
100
AcDbLine
10
247.977417
20
10.434137
30
0
11
247.98548
21
10.435081
31
0
39
0
210
0
220
0
230
1
0
LINE
5
BA
100
AcDbEntity
8
1
62
256
6
ByLayer
370
13
48
1
60
0
100
AcDbLine
10
231.451899
20
16.655313
30
0
11
231.531873
21
17.406421
31
0
39
0
210
0
220
0
230
1
0
LINE
5
BB
100
AcDbEntity
8
1
62
256
6
ByLayer
370
13
48
1
60
0
100
AcDbLine
10
248.59036
20
9.298821
30
0
11
248.812751
21
9.297484
31
0
39
0
210
0
220
0
230
1
0
LINE
5
BC
100
AcDbEntity
8
1
62
256
6
ByLayer
370
13
48
1
60
0
100
AcDbLine
10
232.715513
20
22.546838
30
0
11
234.627587
21
22.850556
31
0
39
0
210
0
220
0
230
1
0
LINE
5
BD
100
AcDbEntity
8
1
62
256
6
ByLayer
370
13
48
1
60
0
100
AcDbLine
10
231.50719
20
15.600302
30
0
11
231.452281
21
15.947985
31
0
39
0
210
0
220
0
230
1
0
LINE
5
BE
100
AcDbEntity
8
1
62
256
6
ByLayer
370
13
48
1
60
0
100
AcDbLine
10
249.458678
20
9.668154
30
0
11
249.881235
21
9.735273
31
0
39
0
210
0
220
0
230
1
0
LINE
5
BF
100
AcDbEntity
8
1
62
256
6
ByLayer
370
13
48
1
60
0
100
AcDbLine
10
247.824666
20
10.307797
30
0
11
249.570629
21
10.585129
31
0
39
0
210
0
220
0
230
1
0
LINE
5
C0
100
AcDbEntity
8
1
62
256
6
ByLayer
370
13
48
1
60
0
100
AcDbLine
10
231.451899
20
16.655313
30
0
11
231.457301
21
17.21223
31
0
39
0
210
0
220
0
230
1
0
LINE
5
C1
100
AcDbEntity
8
1
62
256
6
ByLayer
370
13
48
1
60
0
100
AcDbLine
10
250.844484
20
17.115078
30
0
11
250.026855
21
10.867585
31
0
39
0
210
0
220
0
230
1
0
LINE
5
C2
100
AcDbEntity
8
1
62
256
6
ByLayer
370
13
48
1
60
0
100
AcDbLine
10
250.675855
20
17.291551
30
0
11
249.568072
21
24.305995
31
0
39
0
210
0
220
0
230
1
0
LINE
5
C3
100
AcDbEntity
8
1
62
256
6
ByLayer
370
13
48
1
60
0
100
AcDbLine
10
234.899561
20
9.347325
30
0
11
234.894949
21
9.347083
31
0
39
0
210
0
220
0
230
1
0
LINE
5
C4
100
AcDbEntity
8
1
62
256
6
ByLayer
370
13
48
1
60
0
100
AcDbLine
10
250.839871
20
17.114837
30
0
11
250.022243
21
10.867343
31
0
39
0
210
0
220
0
230
1
0
LINE
5
C5
100
AcDbEntity
8
1
62
256
6
ByLayer
370
13
48
1
60
0
100
AcDbLine
10
248.584568
20
24.919707
30
0
11
248.579956
21
24.919465
31
0
39
0
210
0
220
0
230
1
0
LINE
5
C6
100
AcDbEntity
8
1
62
256
6
ByLayer
370
13
48
1
60
0
100
AcDbLine
10
249.916159
20
9.447887
30
0
11
249.881235
21
9.735273
31
0
39
0
210
0
220
0
230
1
0
LINE
5
C7
100
AcDbEntity
8
1
62
256
6
ByLayer
370
13
48
1
60
0
100
AcDbLine
10
248.356146
20
24.909742
30
0
11
248.351533
21
24.909501
31
0
39
0
210
0
220
0
230
1
0
LINE
5
C8
100
AcDbEntity
8
1
62
256
6
ByLayer
370
13
48
1
60
0
100
AcDbLine
10
234.925485
20
9.431609
30
0
11
234.920873
21
9.431367
31
0
39
0
210
0
220
0
230
1
0
LINE
5
C9
100
AcDbEntity
8
1
62
256
6
ByLayer
370
13
48
1
60
0
100
AcDbLine
10
234.755715
20
9.4313
30
0
11
233.722619
21
15.972832
31
0
39
0
210
0
220
0
230
1
0
LINE
5
CA
100
AcDbEntity
8
1
62
256
6
ByLayer
370
13
48
1
60
0
100
AcDbLine
10
233.40944
20
23.950538
30
0
11
233.086464
21
23.950742
31
0
39
0
210
0
220
0
230
1
0
LINE
5
CB
100
AcDbEntity
8
1
62
256
6
ByLayer
370
13
48
1
60
0
100
AcDbLine
10
248.550856
20
17.258372
30
0
11
247.564735
21
23.502458
31
0
39
0
210
0
220
0
230
1
0
LINE
5
CC
100
AcDbEntity
8
1
62
256
6
ByLayer
370
13
48
1
60
0
100
AcDbLine
10
234.445446
20
8.525163
30
0
11
234.440833
21
8.524921
31
0
39
0
210
0
220
0
230
1
0
LINE
5
CD
100
AcDbEntity
8
1
62
256
6
ByLayer
370
13
48
1
60
0
100
AcDbLine
10
247.119312
20
10.413499
30
0
11
236.181351
21
9.840264
31
0
39
0
210
0
220
0
230
1
0
LINE
5
CE
100
AcDbEntity
8
1
62
256
6
ByLayer
370
13
48
1
60
0
100
AcDbLine
10
234.943795
20
22.606454
30
0
11
234.101819
21
16.172919
31
0
39
0
210
0
220
0
230
1
0
LINE
5
CF
100
AcDbEntity
8
1
62
256
6
ByLayer
370
13
48
1
60
0
100
AcDbLine
10
250.84182
20
17.315949
30
0
11
250.837208
21
17.315707
31
0
39
0
210
0
220
0
230
1
0
LINE
5
D0
100
AcDbEntity
8
1
62
256
6
ByLayer
370
13
48
1
60
0
100
AcDbLine
10
248.619794
20
24.920914
30
0
11
248.615182
21
24.920672
31
0
39
0
210
0
220
0
230
1
0
LINE
5
D1
100
AcDbEntity
8
1
62
256
6
ByLayer
370
13
48
1
60
0
100
AcDbLine
10
231.451899
20
16.655313
30
0
11
231.433634
21
16.303795
31
0
39
0
210
0
220
0
230
1
0
LINE
5
D2
100
AcDbEntity
8
1
62
256
6
ByLayer
370
13
48
1
60
0
100
AcDbLine
10
232.897076
20
24.174284
30
0
11
233.009201
21
24.162833
31
0
39
0
210
0
220
0
230
1
0
LINE
5
D3
100
AcDbEntity
8
1
62
256
6
ByLayer
370
13
48
1
60
0
100
AcDbLine
10
248.256217
20
24.961895
30
0
11
248.488013
21
25.015589
31
0
39
0
210
0
220
0
230
1
0
LINE
5
D4
100
AcDbEntity
8
1
62
256
6
ByLayer
370
13
48
1
60
0
100
AcDbLine
10
248.223505
20
24.960181
30
0
11
248.256217
21
24.961895
31
0
39
0
210
0
220
0
230
1
0
LINE
5
D5
100
AcDbEntity
8
1
62
256
6
ByLayer
370
13
48
1
60
0
100
AcDbLine
10
248.356146
20
24.909742
30
0
11
248.584568
21
24.919707
31
0
39
0
210
0
220
0
230
1
0
LINE
5
D6
100
AcDbEntity
8
1
62
256
6
ByLayer
370
13
48
1
60
0
100
AcDbLine
10
249.729425
20
24.330152
30
0
11
250.837208
21
17.315707
31
0
39
0
210
0
220
0
230
1
0
LINE
5
D7
100
AcDbEntity
8
1
62
256
6
ByLayer
370
13
48
1
60
0
100
AcDbLine
10
234.874705
20
9.753145
30
0
11
233.888584
21
15.99723
31
0
39
0
210
0
220
0
230
1
0
LINE
5
D8
100
AcDbEntity
8
1
62
256
6
ByLayer
370
13
48
1
60
0
100
AcDbLine
10
249.458678
20
9.668154
30
0
11
249.913235
21
10.63955
31
0
39
0
210
0
220
0
230
1
0
LINE
5
D9
100
AcDbEntity
8
1
62
256
6
ByLayer
370
13
48
1
60
0
100
AcDbLine
10
247.990092
20
10.435323
30
0
11
247.98548
21
10.435081
31
0
39
0
210
0
220
0
230
1
0
LINE
5
DA
100
AcDbEntity
8
1
62
256
6
ByLayer
370
13
48
1
60
0
100
AcDbLine
10
232.720463
20
22.397715
30
0
11
231.902834
21
16.150221
31
0
39
0
210
0
220
0
230
1
0
LINE
5
DB
100
AcDbEntity
8
1
62
256
6
ByLayer
370
13
48
1
60
0
100
AcDbLine
10
231.773196
20
16.1708
30
0
11
232.590825
21
22.418293
31
0
39
0
210
0
220
0
230
1
0
LINE
5
DC
100
AcDbEntity
8
1
62
256
6
ByLayer
370
13
48
1
60
0
100
AcDbLine
10
233.888584
20
15.99723
30
0
11
233.883972
21
15.996989
31
0
39
0
210
0
220
0
230
1
0
LINE
5
DD
100
AcDbEntity
8
1
62
256
6
ByLayer
370
13
48
1
60
0
100
AcDbLine
10
248.861397
20
17.067199
30
0
11
248.014095
21
10.592972
31
0
39
0
210
0
220
0
230
1
0
LINE
5
DE
100
AcDbEntity
8
1
62
256
6
ByLayer
370
13
48
1
60
0
100
AcDbLine
10
250.026855
20
10.867585
30
0
11
250.022243
21
10.867343
31
0
39
0
210
0
220
0
230
1
0
LINE
5
DF
100
AcDbEntity
8
1
62
256
6
ByLayer
370
13
48
1
60
0
100
AcDbLine
10
234.361463
20
8.323983
30
0
11
234.129666
21
8.270289
31
0
39
0
210
0
220
0
230
1
0
LINE
5
E0
100
AcDbEntity
8
1
62
256
6
ByLayer
370
13
48
1
60
0
100
AcDbLine
10
231.677515
20
15.954308
30
0
11
232.785298
21
8.939864
31
0
39
0
210
0
220
0
230
1
0
LINE
5
E1
100
AcDbEntity
8
1
62
256
6
ByLayer
370
13
48
1
60
0
100
AcDbLine
10
249.734037
20
24.330393
30
0
11
250.84182
21
17.315949
31
0
39
0
210
0
220
0
230
1
0
LINE
5
E2
100
AcDbEntity
8
1
62
256
6
ByLayer
370
13
48
1
60
0
100
AcDbLine
10
249.960626
20
10.480909
30
0
11
249.881235
21
9.735273
31
0
39
0
210
0
220
0
230
1
0
LINE
5
E3
100
AcDbEntity
8
1
62
256
6
ByLayer
370
13
48
1
60
0
100
AcDbLine
10
231.641625
20
17.631036
30
0
11
231.449436
21
16.162525
31
0
39
0
210
0
220
0
230
1
0
LINE
5
E4
100
AcDbEntity
8
1
62
256
6
ByLayer
370
13
48
1
60
0
100
AcDbLine
10
234.793014
20
22.978081
30
0
11
232.704444
21
22.646329
31
0
39
0
210
0
220
0
230
1
0
LINE
5
E5
100
AcDbEntity
8
1
62
256
6
ByLayer
370
13
48
1
60
0
100
AcDbLine
10
249.734037
20
24.330393
30
0
11
249.729425
21
24.330152
31
0
39
0
210
0
220
0
230
1
0
LINE
5
E6
100
AcDbEntity
8
1
62
256
6
ByLayer
370
13
48
1
60
0
100
AcDbLine
10
249.570629
20
10.585129
30
0
11
249.257101
21
9.301346
31
0
39
0
210
0
220
0
230
1
0
LINE
5
E7
100
AcDbEntity
8
1
62
256
6
ByLayer
370
13
48
1
60
0
100
AcDbLine
10
250.844484
20
17.115078
30
0
11
250.839871
21
17.114837
31
0
39
0
210
0
220
0
230
1
0
LINE
5
E8
100
AcDbEntity
8
1
62
256
6
ByLayer
370
13
48
1
60
0
100
AcDbLine
10
250.940165
20
17.33157
30
0
11
249.832381
21
24.346015
31
0
39
0
210
0
220
0
230
1
0
LINE
5
E9
100
AcDbEntity
8
1
62
256
6
ByLayer
370
13
48
1
60
0
100
AcDbLine
10
249.902166
20
10.73904
30
0
11
247.990092
21
10.435323
31
0
39
0
210
0
220
0
230
1
0
LINE
5
EA
100
AcDbEntity
8
1
62
256
6
ByLayer
370
13
48
1
60
0
100
AcDbLine
10
249.860319
20
10.88623
30
0
11
250.677948
21
17.133724
31
0
39
0
210
0
220
0
230
1
0
LINE
5
EB
100
AcDbEntity
8
1
62
256
6
ByLayer
370
13
48
1
60
0
100
AcDbLine
10
248.572668
20
24.768883
30
0
11
248.344245
21
24.758919
31
0
39
0
210
0
220
0
230
1
0
LINE
5
EC
100
AcDbEntity
8
1
62
256
6
ByLayer
370
13
48
1
60
0
100
AcDbLine
10
250.185862
20
11.315154
30
0
11
250.06737
21
9.84631
31
0
39
0
210
0
220
0
230
1
0
LINE
5
ED
100
AcDbEntity
8
1
62
256
6
ByLayer
370
13
48
1
60
0
100
AcDbLine
10
250.943208
20
17.102004
30
0
11
250.127307
21
10.867712
31
0
39
0
210
0
220
0
230
1
0
LINE
5
EE
100
AcDbEntity
8
1
62
256
6
ByLayer
370
13
48
1
60
0
100
AcDbLine
10
249.570629
20
10.585129
30
0
11
249.913235
21
10.63955
31
0
39
0
210
0
220
0
230
1
0
LINE
5
EF
100
AcDbEntity
8
1
62
256
6
ByLayer
370
13
48
1
60
0
100
AcDbLine
10
234.727897
20
22.631636
30
0
11
234.74191
21
22.73871
31
0
39
0
210
0
220
0
230
1
0
LINE
5
F0
100
AcDbEntity
8
1
62
256
6
ByLayer
370
13
48
1
60
0
100
AcDbLine
10
231.674471
20
16.183875
30
0
11
232.490372
21
22.418166
31
0
39
0
210
0
220
0
230
1
0
LINE
5
F1
100
AcDbEntity
8
1
62
256
6
ByLayer
370
13
48
1
60
0
100
AcDbLine
10
234.925485
20
9.431609
30
0
11
234.874705
21
9.753145
31
0
39
0
210
0
220
0
230
1
0
LINE
5
F2
100
AcDbEntity
8
SK1
62
256
6
ByLayer
370
13
48
1
60
0
100
AcDbLine
10
-16.5
20
-24.8475
30
0
11
-16.5
21
24.8475
31
0
39
0
210
0
220
0
230
1
0
LINE
5
F3
100
AcDbEntity
8
SK1
62
256
6
ByLayer
370
13
48
1
60
0
100
AcDbLine
10
-1.57646
20
-24.8
30
0
11
-1.57646
21
24.8
31
0
39
0
210
0
220
0
230
1
0
LINE
5
F4
100
AcDbEntity
8
SK1
62
256
6
ByLayer
370
13
48
1
60
0
100
AcDbLine
10
-10.5
20
-24.8475
30
0
11
-10.5
21
24.8475
31
0
39
0
210
0
220
0
230
1
0
LINE
5
F5
100
AcDbEntity
8
SK1
62
256
6
ByLayer
370
13
48
1
60
0
100
AcDbLine
10
-0.3
20
-24.8
30
0
11
-0.3
21
24.8
31
0
39
0
210
0
220
0
230
1
0
LINE
5
F6
100
AcDbEntity
8
SK1
62
256
6
ByLayer
370
13
48
1
60
0
100
AcDbLine
10
-10.07646
20
-24.65
30
0
11
-10.07646
21
24.65
31
0
39
0
210
0
220
0
230
1
0
LINE
5
F7
100
AcDbEntity
8
1
62
256
6
ByLayer
370
13
48
1
60
0
100
AcDbLine
10
249.788922
20
8.63942
30
0
11
249.617177
21
7.992842
31
0
39
0
210
0
220
0
230
1
0
LINE
5
F8
100
AcDbEntity
8
1
62
256
6
ByLayer
370
13
48
1
60
0
100
AcDbLine
10
46.01
20
-13.670376
30
0
11
46.01
21
-23.640257
31
0
39
0
210
0
220
0
230
1
0
LINE
5
F9
100
AcDbEntity
8
1
62
256
6
ByLayer
370
13
48
1
60
0
100
AcDbLine
10
0
20
-26.761335
30
0
11
0
21
-4.071
31
0
39
0
210
0
220
0
230
1
0
LINE
5
FA
100
AcDbEntity
8
1
62
256
6
ByLayer
370
13
48
1
60
0
100
AcDbLine
10
6
20
-3.571
30
0
11
6
21
3.571
31
0
39
0
210
0
220
0
230
1
0
LINE
5
FB
100
AcDbEntity
8
1
62
256
6
ByLayer
370
13
48
1
60
0
100
AcDbLine
10
250.079658
20
-7.774754
30
0
11
249.215161
21
-14.308222
31
0
39
0
210
0
220
0
230
1
0
LINE
5
FC
100
AcDbEntity
8
1
62
256
6
ByLayer
370
13
48
1
60
0
100
AcDbLine
10
0
20
-29.748313
30
0
11
0
21
-26.749378
31
0
39
0
210
0
220
0
230
1
0
LINE
5
FD
100
AcDbEntity
8
1
62
256
6
ByLayer
370
13
48
1
60
0
100
AcDbLine
10
247.312282
20
2.268788
30
0
11
249.060771
21
0.617141
31
0
39
0
210
0
220
0
230
1
0
LINE
5
FE
100
AcDbEntity
8
1
62
256
6
ByLayer
370
13
48
1
60
0
100
AcDbLine
10
230.893414
20
8.681009
30
0
11
230.928431
21
8.67025
31
0
39
0
210
0
220
0
230
1
0
LINE
5
FF
100
AcDbEntity
8
1
62
256
6
ByLayer
370
13
48
1
60
0
100
AcDbLine
10
236.419656
20
9.551934
30
0
11
235.8946
21
9.524417
31
0
39
0
210
0
220
0
230
1
0
LINE
5
100
100
AcDbEntity
8
1
62
256
6
ByLayer
370
13
48
1
60
0
100
AcDbLine
10
51
20
-24.283843
30
0
11
51
21
-24.375
31
0
39
0
210
0
220
0
230
1
0
LINE
5
101
100
AcDbEntity
8
1
62
256
6
ByLayer
370
13
48
1
60
0
100
AcDbLine
10
249.617177
20
7.992842
30
0
11
249.581245
21
7.990958
31
0
39
0
210
0
220
0
230
1
0
LINE
5
102
100
AcDbEntity
8
1
62
256
6
ByLayer
370
13
48
1
60
0
100
AcDbLine
10
5.5
20
-27.197361
30
0
11
5.5
21
-29.748313
31
0
39
0
210
0
220
0
230
1
0
LINE
5
103
100
AcDbEntity
8
1
62
256
6
ByLayer
370
13
48
1
60
0
100
AcDbLine
10
227.107106
20
-24.014378
30
0
11
227.107106
21
-0.190287
31
0
39
0
210
0
220
0
230
1
0
LINE
5
104
100
AcDbEntity
8
1
62
256
6
ByLayer
370
13
48
1
60
0
100
AcDbLine
10
0
20
-33.5
30
0
11
0
21
-30.832335
31
0
39
0
210
0
220
0
230
1
0
LINE
5
105
100
AcDbEntity
8
1
62
256
6
ByLayer
370
13
48
1
60
0
100
AcDbLine
10
233.550462
20
23.778847
30
0
11
233.589239
21
24.075139
31
0
39
0
210
0
220
0
230
1
0
LINE
5
106
100
AcDbEntity
8
1
62
256
6
ByLayer
370
13
48
1
60
0
100
AcDbLine
10
223.814656
20
2.883025
30
0
11
224.092286
21
1.080541
31
0
39
0
210
0
220
0
230
1
0
LINE
5
107
100
AcDbEntity
8
1
62
256
6
ByLayer
370
13
48
1
60
0
100
AcDbLine
10
7.5
20
29.5
30
0
11
7.5
21
-29.5
31
0
39
0
210
0
220
0
230
1
0
LINE
5
108
100
AcDbEntity
8
1
62
256
6
ByLayer
370
13
48
1
60
0
100
AcDbLine
10
229.432035
20
11.275352
30
0
11
230.597085
21
11.92416
31
0
39
0
210
0
220
0
230
1
0
LINE
5
109
100
AcDbEntity
8
1
62
256
6
ByLayer
370
13
48
1
60
0
100
AcDbLine
10
0
20
-29.748313
30
0
11
5.5
21
-29.748313
31
0
39
0
210
0
220
0
230
1
0
LINE
5
10A
100
AcDbEntity
8
1
62
256
6
ByLayer
370
13
48
1
60
0
100
AcDbLine
10
230.597085
20
11.92416
30
0
11
229.12135
21
14.194972
31
0
39
0
210
0
220
0
230
1
0
LINE
5
10B
100
AcDbEntity
8
1
62
256
6
ByLayer
370
13
48
1
60
0
100
AcDbLine
10
249.788922
20
8.63942
30
0
11
249.790894
21
0.932967
31
0
39
0
210
0
220
0
230
1
0
LINE
5
10C
100
AcDbEntity
8
1
62
256
6
ByLayer
370
13
48
1
60
0
100
AcDbLine
10
228.064059
20
1.960511
30
0
11
228.434517
21
-0.444654
31
0
39
0
210
0
220
0
230
1
0
LINE
5
10D
100
AcDbEntity
8
1
62
256
6
ByLayer
370
13
48
1
60
0
100
AcDbLine
10
0.5
20
-27.197533
30
0
11
0.5
21
-4.071
31
0
39
0
210
0
220
0
230
1
0
LINE
5
10E
100
AcDbEntity
8
1
62
256
6
ByLayer
370
13
48
1
60
0
100
AcDbLine
10
249.544203
20
8.288264
30
0
11
249.49568
21
9.136118
31
0
39
0
210
0
220
0
230
1
0
LINE
5
10F
100
AcDbEntity
8
1
62
256
6
ByLayer
370
13
48
1
60
0
100
AcDbLine
10
244.633043
20
10.250896
30
0
11
244.450907
21
10.241351
31
0
39
0
210
0
220
0
230
1
0
LINE
5
110
100
AcDbEntity
8
1
62
256
6
ByLayer
370
13
48
1
60
0
100
AcDbLine
10
0
20
-30.832335
30
0
11
0
21
-29.748313
31
0
39
0
210
0
220
0
230
1
0
LINE
5
111
100
AcDbEntity
8
1
62
256
6
ByLayer
370
13
48
1
60
0
100
AcDbLine
10
249.790894
20
0.932967
30
0
11
249.515269
21
0.831929
31
0
39
0
210
0
220
0
230
1
0
LINE
5
112
100
AcDbEntity
8
1
62
256
6
ByLayer
370
13
48
1
60
0
100
AcDbLine
10
249.131906
20
-0.257922
30
0
11
250.057238
21
-6.070847
31
0
39
0
210
0
220
0
230
1
0
LINE
5
113
100
AcDbEntity
8
1
62
256
6
ByLayer
370
13
48
1
60
0
100
AcDbLine
10
6
20
-31.067508
30
0
11
6
21
-27.496508
31
0
39
0
210
0
220
0
230
1
0
LINE
5
114
100
AcDbEntity
8
1
62
256
6
ByLayer
370
13
48
1
60
0
100
AcDbLine
10
0
20
4.071
30
0
11
0
21
33.5
31
0
39
0
210
0
220
0
230
1
0
LINE
5
115
100
AcDbEntity
8
1
62
256
6
ByLayer
370
13
48
1
60
0
100
AcDbLine
10
247.302131
20
1.470508
30
0
11
247.488156
21
-1.161434
31
0
39
0
210
0
220
0
230
1
0
LINE
5
116
100
AcDbEntity
8
1
62
256
6
ByLayer
370
13
48
1
60
0
100
AcDbLine
10
230.107106
20
-24.263123
30
0
11
230.107106
21
-0.621616
31
0
39
0
210
0
220
0
230
1
0
LINE
5
117
100
AcDbEntity
8
1
62
256
6
ByLayer
370
13
48
1
60
0
100
AcDbLine
10
250.079658
20
-7.774754
30
0
11
248.098642
21
-5.903459
31
0
39
0
210
0
220
0
230
1
0
LINE
5
118
100
AcDbEntity
8
1
62
256
6
ByLayer
370
13
48
1
60
0
100
AcDbLine
10
231.743922
20
17.80131
30
0
11
232.472728
21
23.37011
31
0
39
0
210
0
220
0
230
1
0
LINE
5
119
100
AcDbEntity
8
1
62
256
6
ByLayer
370
13
48
1
60
0
100
AcDbLine
10
5.5
20
-4.071
30
0
11
5.5
21
4.071
31
0
39
0
210
0
220
0
230
1
0
LINE
5
11A
100
AcDbEntity
8
1
62
256
6
ByLayer
370
13
48
1
60
0
100
AcDbLine
10
249.596044
20
1.144012
30
0
11
249.790894
21
0.932967
31
0
39
0
210
0
220
0
230
1
0
LINE
5
11B
100
AcDbEntity
8
1
62
256
6
ByLayer
370
13
48
1
60
0
100
AcDbLine
10
7
20
-34
30
0
11
7
21
34
31
0
39
0
210
0
220
0
230
1
0
LINE
5
11C
100
AcDbEntity
8
1
62
256
6
ByLayer
370
13
48
1
60
0
100
AcDbLine
10
0
20
-4.071
30
0
11
0
21
4.071
31
0
39
0
210
0
220
0
230
1
0
LINE
5
11D
100
AcDbEntity
8
1
62
256
6
ByLayer
370
13
48
1
60
0
100
AcDbLine
10
51
20
24.375
30
0
11
51
21
-8.720849
31
0
39
0
210
0
220
0
230
1
0
LINE
5
11E
100
AcDbEntity
8
1
62
256
6
ByLayer
370
13
48
1
60
0
100
AcDbLine
10
249.49568
20
9.136118
30
0
11
249.401118
21
9.131162
31
0
39
0
210
0
220
0
230
1
0
LINE
5
11F
100
AcDbEntity
8
1
62
256
6
ByLayer
370
13
48
1
60
0
100
AcDbLine
10
248.394539
20
-24.263123
30
0
11
249.597398
21
-15.172477
31
0
39
0
210
0
220
0
230
1
0
LINE
5
120
100
AcDbEntity
8
1
62
256
6
ByLayer
370
13
48
1
60
0
100
AcDbLine
10
237.048334
20
9.885701
30
0
11
239.136758
21
9.995151
31
0
39
0
210
0
220
0
230
1
0
LINE
5
121
100
AcDbEntity
8
1
62
256
6
ByLayer
370
13
48
1
60
0
100
AcDbLine
10
5.5
20
-31.268533
30
0
11
0.5
21
-31.268533
31
0
39
0
210
0
220
0
230
1
0
LINE
5
122
100
AcDbEntity
8
1
62
256
6
ByLayer
370
13
48
1
60
0
100
AcDbLine
10
244.804343
20
10.292176
30
0
11
246.892767
21
10.401626
31
0
39
0
210
0
220
0
230
1
0
LINE
5
123
100
AcDbEntity
8
1
62
256
6
ByLayer
370
13
48
1
60
0
100
AcDbLine
10
232.472728
20
23.37011
30
0
11
232.428059
21
24.222455
31
0
39
0
210
0
220
0
230
1
0
LINE
5
124
100
AcDbEntity
8
1
62
256
6
ByLayer
370
13
48
1
60
0
100
AcDbLine
10
227.107106
20
24.125
30
0
11
227.107106
21
23.909523
31
0
39
0
210
0
220
0
230
1
0
LINE
5
125
100
AcDbEntity
8
1
62
256
6
ByLayer
370
13
48
1
60
0
100
AcDbLine
10
247.948411
20
8.954891
30
0
11
249.083022
21
9.014354
31
0
39
0
210
0
220
0
230
1
0
LINE
5
126
100
AcDbEntity
8
1
62
256
6
ByLayer
370
13
48
1
60
0
100
AcDbLine
10
230.107106
20
24.375
30
0
11
230.107106
21
24.197304
31
0
39
0
210
0
220
0
230
1
0
LINE
5
127
100
AcDbEntity
8
1
62
256
6
ByLayer
370
13
48
1
60
0
100
AcDbLine
10
236.698223
20
9.667078
30
0
11
236.707447
21
9.667561
31
0
39
0
210
0
220
0
230
1
0
LINE
5
128
100
AcDbEntity
8
1
62
256
6
ByLayer
370
13
48
1
60
0
100
AcDbLine
10
249.131906
20
-0.257922
30
0
11
247.302131
21
1.470508
31
0
39
0
210
0
220
0
230
1
0
LINE
5
129
100
AcDbEntity
8
1
62
256
6
ByLayer
370
13
48
1
60
0
100
AcDbLine
10
231.978929
20
11.993212
30
0
11
231.35128
21
15.967467
31
0
39
0
210
0
220
0
230
1
0
LINE
5
12A
100
AcDbEntity
8
1
62
256
6
ByLayer
370
13
48
1
60
0
100
AcDbLine
10
237.144499
20
7.91991
30
0
11
237.508163
21
7.938968
31
0
39
0
210
0
220
0
230
1
0
LINE
5
12B
100
AcDbEntity
8
1
62
256
6
ByLayer
370
13
48
1
60
0
100
AcDbLine
10
249.596044
20
1.144012
30
0
11
249.57536
21
1.146721
31
0
39
0
210
0
220
0
230
1
0
LINE
5
12C
100
AcDbEntity
8
1
62
256
6
ByLayer
370
13
48
1
60
0
100
AcDbLine
10
229.12135
20
11.306399
30
0
11
229.12135
21
14.194972
31
0
39
0
210
0
220
0
230
1
0
LINE
5
12D
100
AcDbEntity
8
1
62
256
6
ByLayer
370
13
48
1
60
0
100
AcDbLine
10
232.474018
20
22.46302
30
0
11
231.90081
21
18.083141
31
0
39
0
210
0
220
0
230
1
0
LINE
5
12E
100
AcDbEntity
8
1
62
256
6
ByLayer
370
13
48
1
60
0
100
AcDbLine
10
128
20
-24.072844
30
0
11
128
21
-24.125
31
0
39
0
210
0
220
0
230
1
0
LINE
5
12F
100
AcDbEntity
8
1
62
256
6
ByLayer
370
13
48
1
60
0
100
AcDbLine
10
247.948411
20
8.954891
30
0
11
247.312282
21
2.268788
31
0
39
0
210
0
220
0
230
1
0
LINE
5
130
100
AcDbEntity
8
1
62
256
6
ByLayer
370
13
48
1
60
0
100
AcDbLine
10
247.3471
20
10.225162
30
0
11
236.707447
21
9.667561
31
0
39
0
210
0
220
0
230
1
0
LINE
5
131
100
AcDbEntity
8
1
62
256
6
ByLayer
370
13
48
1
60
0
100
AcDbLine
10
239.98218
20
9.538771
30
0
11
247.586596
21
9.937302
31
0
39
0
210
0
220
0
230
1
0
LINE
5
132
100
AcDbEntity
8
1
62
256
6
ByLayer
370
13
48
1
60
0
100
AcDbLine
10
240.12676
20
8.544976
30
0
11
240.72624
21
8.576393
31
0
39
0
210
0
220
0
230
1
0
LINE
5
133
100
AcDbEntity
8
1
62
256
6
ByLayer
370
13
48
1
60
0
100
AcDbLine
10
236.658567
20
9.574553
30
0
11
236.424077
21
9.562264
31
0
39
0
210
0
220
0
230
1
0
LINE
5
134
100
AcDbEntity
8
1
62
256
6
ByLayer
370
13
48
1
60
0
100
AcDbLine
10
5.5
20
-4.071
30
0
11
0.5
21
-4.071
31
0
39
0
210
0
220
0
230
1
0
LINE
5
135
100
AcDbEntity
8
1
62
256
6
ByLayer
370
13
48
1
60
0
100
AcDbLine
10
128
20
-9.229152
30
0
11
128
21
24.118225
31
0
39
0
210
0
220
0
230
1
0
LINE
5
136
100
AcDbEntity
8
1
62
256
6
ByLayer
370
13
48
1
60
0
100
AcDbLine
10
0.5
20
4.071
30
0
11
0.5
21
34
31
0
39
0
210
0
220
0
230
1
0
LINE
5
137
100
AcDbEntity
8
1
62
256
6
ByLayer
370
13
48
1
60
0
100
AcDbLine
10
0.5
20
-34
30
0
11
0.5
21
-31.268533
31
0
39
0
210
0
220
0
230
1
0
LINE
5
138
100
AcDbEntity
8
1
62
256
6
ByLayer
370
13
48
1
60
0
100
AcDbLine
10
248.394539
20
-24.263123
30
0
11
230.107106
21
-24.263123
31
0
39
0
210
0
220
0
230
1
0
LINE
5
139
100
AcDbEntity
8
1
62
256
6
ByLayer
370
13
48
1
60
0
100
AcDbLine
10
244.779276
20
8.788804
30
0
11
247.948411
21
8.954891
31
0
39
0
210
0
220
0
230
1
0
LINE
5
13A
100
AcDbEntity
8
1
62
256
6
ByLayer
370
13
48
1
60
0
100
AcDbLine
10
0.5
20
4.071
30
0
11
5.5
21
4.071
31
0
39
0
210
0
220
0
230
1
0
LINE
5
13B
100
AcDbEntity
8
1
62
256
6
ByLayer
370
13
48
1
60
0
100
AcDbLine
10
249.496301
20
0.632552
30
0
11
249.504087
21
0.624119
31
0
39
0
210
0
220
0
230
1
0
LINE
5
13C
100
AcDbEntity
8
1
62
256
6
ByLayer
370
13
48
1
60
0
100
AcDbLine
10
249.591938
20
9.018987
30
0
11
249.788922
21
8.63942
31
0
39
0
210
0
220
0
230
1
0
LINE
5
13D
100
AcDbEntity
8
1
62
256
6
ByLayer
370
13
48
1
60
0
100
AcDbLine
10
46
20
-24.283731
30
0
11
46
21
-24.375
31
0
39
0
210
0
220
0
230
1
0
LINE
5
13E
100
AcDbEntity
8
1
62
256
6
ByLayer
370
13
48
1
60
0
100
AcDbLine
10
249.496301
20
0.632552
30
0
11
249.485925
21
0.633911
31
0
39
0
210
0
220
0
230
1
0
LINE
5
13F
100
AcDbEntity
8
1
62
256
6
ByLayer
370
13
48
1
60
0
100
AcDbLine
10
46
20
24.375
30
0
11
46
21
-8.719239
31
0
39
0
210
0
220
0
230
1
0
LINE
5
140
100
AcDbEntity
8
1
62
256
6
ByLayer
370
13
48
1
60
0
100
AcDbLine
10
249.591938
20
9.018987
30
0
11
249.50265
21
9.014308
31
0
39
0
210
0
220
0
230
1
0
LINE
5
141
100
AcDbEntity
8
1
62
256
6
ByLayer
370
13
48
1
60
0
100
AcDbLine
10
227.107106
20
-24.014378
30
0
11
220.196762
21
-24.014378
31
0
39
0
210
0
220
0
230
1
0
LINE
5
142
100
AcDbEntity
8
1
62
256
6
ByLayer
370
13
48
1
60
0
100
AcDbLine
10
17.2078
20
29.5
30
0
11
17.2078
21
-29.5
31
0
39
0
210
0
220
0
230
1
0
LINE
5
143
100
AcDbEntity
8
1
62
256
6
ByLayer
370
13
48
1
60
0
100
AcDbLine
10
249.504087
20
0.624119
30
0
11
249.480987
21
0.627145
31
0
39
0
210
0
220
0
230
1
0
LINE
5
144
100
AcDbEntity
8
1
62
256
6
ByLayer
370
13
48
1
60
0
100
AcDbLine
10
249.597398
20
-15.172477
30
0
11
249.200702
21
-14.864282
31
0
39
0
210
0
220
0
230
1
0
LINE
5
145
100
AcDbEntity
8
1
62
256
6
ByLayer
370
13
48
1
60
0
100
AcDbLine
10
0.5
20
-27.197533
30
0
11
5.5
21
-27.197533
31
0
39
0
210
0
220
0
230
1
0
LINE
5
146
100
AcDbEntity
8
1
62
256
6
ByLayer
370
13
48
1
60
0
100
AcDbLine
10
248.018956
20
-4.145457
30
0
11
250.057238
21
-6.070847
31
0
39
0
210
0
220
0
230
1
0
LINE
5
147
100
AcDbEntity
8
1
62
256
6
ByLayer
370
13
48
1
60
0
100
AcDbLine
10
5.5
20
-31.268533
30
0
11
5.5
21
-29.748313
31
0
39
0
210
0
220
0
230
1
0
LINE
5
148
100
AcDbEntity
8
4
62
256
6
ByLayer
370
18
48
0.05
60
0
100
AcDbLine
10
251
20
0
30
0
11
0
21
0
31
0
39
0
210
0
220
0
230
1
0
LINE
5
14A
100
AcDbEntity
8
SK4
62
256
6
ByLayer
370
13
48
0.05
60
0
100
AcDbLine
10
251
20
0
30
0
11
-18
21
0
31
0
39
0
210
0
220
0
230
1
0
LINE
5
14C
100
AcDbEntity
8
SK1
62
256
6
ByLayer
370
13
48
1
60
0
100
AcDbLine
10
-9.296888
20
24.65
30
0
11
-10.07646
21
24.65
31
0
39
0
210
0
220
0
230
1
0
LINE
5
14D
100
AcDbEntity
8
SK1
62
256
6
ByLayer
370
13
48
1
60
0
100
AcDbLine
10
-10.07646
20
-24.65
30
0
11
-9.296888
21
-24.65
31
0
39
0
210
0
220
0
230
1
0
LINE
5
14E
100
AcDbEntity
8
SK1
62
256
6
ByLayer
370
13
48
1
60
0
100
AcDbLine
10
-0.3
20
24.8
30
0
11
-1.57646
21
24.8
31
0
39
0
210
0
220
0
230
1
0
LINE
5
14F
100
AcDbEntity
8
SK1
62
256
6
ByLayer
370
13
48
1
60
0
100
AcDbLine
10
-1.57646
20
-24.8
30
0
11
-0.3
21
-24.8
31
0
39
0
210
0
220
0
230
1
0
LINE
5
150
100
AcDbEntity
8
SK1
62
256
6
ByLayer
370
13
48
1
60
0
100
AcDbLine
10
-18
20
-24.445576
30
0
11
-16.5
21
-24.8475
31
0
39
0
210
0
220
0
230
1
0
LINE
5
151
100
AcDbEntity
8
SK1
62
256
6
ByLayer
370
13
48
1
60
0
100
AcDbLine
10
-16.5
20
24.8475
30
0
11
-18
21
24.445576
31
0
39
0
210
0
220
0
230
1
0
LINE
5
152
100
AcDbEntity
8
SK1
62
256
6
ByLayer
370
13
48
1
60
0
100
AcDbLine
10
-10.5
20
24.8475
30
0
11
-16.5
21
24.8475
31
0
39
0
210
0
220
0
230
1
0
LINE
5
153
100
AcDbEntity
8
SK1
62
256
6
ByLayer
370
13
48
1
60
0
100
AcDbLine
10
-16.5
20
-24.8475
30
0
11
-10.5
21
-24.8475
31
0
39
0
210
0
220
0
230
1
0
LINE
5
154
100
AcDbEntity
8
SK1
62
256
6
ByLayer
370
13
48
1
60
0
100
AcDbLine
10
-10.07646
20
24.65
30
0
11
-10.5
21
24.8475
31
0
39
0
210
0
220
0
230
1
0
LINE
5
155
100
AcDbEntity
8
SK1
62
256
6
ByLayer
370
13
48
1
60
0
100
AcDbLine
10
-10.5
20
-24.8475
30
0
11
-10.07646
21
-24.65
31
0
39
0
210
0
220
0
230
1
0
LINE
5
156
100
AcDbEntity
8
SK1
62
256
6
ByLayer
370
13
48
1
60
0
100
AcDbLine
10
-1.57646
20
24.8
30
0
11
-2
21
24.9975
31
0
39
0
210
0
220
0
230
1
0
LINE
5
157
100
AcDbEntity
8
SK1
62
256
6
ByLayer
370
13
48
1
60
0
100
AcDbLine
10
-2
20
-24.9975
30
0
11
-1.57646
21
-24.8
31
0
39
0
210
0
220
0
230
1
0
LINE
5
158
100
AcDbEntity
8
SK1
62
256
6
ByLayer
370
13
48
1
60
0
100
AcDbLine
10
-2
20
24.9975
30
0
11
-8
21
24.9975
31
0
39
0
210
0
220
0
230
1
0
LINE
5
159
100
AcDbEntity
8
SK1
62
256
6
ByLayer
370
13
48
1
60
0
100
AcDbLine
10
-8
20
-24.9975
30
0
11
-2
21
-24.9975
31
0
39
0
210
0
220
0
230
1
0
LINE
5
15A
100
AcDbEntity
8
SK1
62
256
6
ByLayer
370
13
48
1
60
0
100
AcDbLine
10
-9.296888
20
-24.65
30
0
11
-8
21
-24.9975
31
0
39
0
210
0
220
0
230
1
0
LINE
5
15B
100
AcDbEntity
8
SK1
62
256
6
ByLayer
370
13
48
1
60
0
100
AcDbLine
10
-8
20
24.9975
30
0
11
-9.296888
21
24.65
31
0
39
0
210
0
220
0
230
1
0
LINE
5
15C
100
AcDbEntity
8
1
62
256
6
ByLayer
370
13
48
1
60
0
100
AcDbLine
10
117.774173
20
24.158201
30
0
11
65.978555
21
24.326368
31
0
39
0
210
0
220
0
230
1
0
LINE
5
15D
100
AcDbEntity
8
1
62
256
6
ByLayer
370
13
48
1
60
0
100
AcDbLine
10
249.649065
20
9.81505
30
0
11
250.103622
21
10.786446
31
0
39
0
210
0
220
0
230
1
0
LINE
5
15E
100
AcDbEntity
8
1
62
256
6
ByLayer
370
13
48
1
60
0
100
AcDbLine
10
248.729959
20
17.288605
30
0
11
247.743837
21
23.53269
31
0
39
0
210
0
220
0
230
1
0
LINE
5
15F
100
AcDbEntity
8
1
62
256
6
ByLayer
370
13
48
1
60
0
100
AcDbLine
10
247.890641
20
10.654438
30
0
11
248.732618
21
17.087973
31
0
39
0
210
0
220
0
230
1
0
LINE
5
160
100
AcDbEntity
8
1
62
256
6
ByLayer
370
18
48
1
60
0
100
AcDbLine
10
241.069124
20
17.922447
30
0
11
241.193846
21
17.928983
31
0
39
0
210
0
220
0
230
1
0
LINE
5
161
100
AcDbEntity
8
1
62
256
6
ByLayer
370
18
48
1
60
0
100
AcDbLine
10
241.328904
20
15.35192
30
0
11
241.204182
21
15.345384
31
0
39
0
210
0
220
0
230
1
0
LINE
5
162
100
AcDbEntity
8
1
62
256
6
ByLayer
370
18
48
1
60
0
100
AcDbLine
10
241.3573
20
13.791568
30
0
11
241.423789
21
13.795052
31
0
39
0
210
0
220
0
230
1
0
LINE
5
163
100
AcDbEntity
8
1
62
256
6
ByLayer
370
18
48
1
60
0
100
AcDbLine
10
241.125474
20
19.487241
30
0
11
241.058985
21
19.483756
31
0
39
0
210
0
220
0
230
1
0
LINE
5
164
100
AcDbEntity
8
1
62
256
6
ByLayer
370
13
48
1
60
0
100
AcDbLine
10
46
20
-24.375
30
0
11
51
21
-24.375
31
0
39
0
210
0
220
0
230
1
0
LINE
5
165
100
AcDbEntity
8
1
62
256
6
ByLayer
370
13
48
1
60
0
100
AcDbLine
10
51
20
-24.375
30
0
11
128
21
-24.125
31
0
39
0
210
0
220
0
230
1
0
LINE
5
166
100
AcDbEntity
8
1
62
256
6
ByLayer
370
13
48
1
60
0
100
AcDbLine
10
232.167137
20
24.375
30
0
11
230.107106
21
24.375
31
0
39
0
210
0
220
0
230
1
0
LINE
5
167
100
AcDbEntity
8
1
62
256
6
ByLayer
370
13
48
1
60
0
100
AcDbLine
10
230.107106
20
24.375
30
0
11
227.107106
21
24.125
31
0
39
0
210
0
220
0
230
1
0
LINE
5
168
100
AcDbEntity
8
1
62
256
6
ByLayer
370
13
48
1
60
0
100
AcDbLine
10
128
20
-24.125
30
0
11
139.739412
21
-24.125
31
0
39
0
210
0
220
0
230
1
0
LINE
5
169
100
AcDbEntity
8
1
62
256
6
ByLayer
370
13
48
1
60
0
100
AcDbLine
10
227.107106
20
24.125
30
0
11
216.292318
21
24.125
31
0
39
0
210
0
220
0
230
1
0
LINE
5
16A
100
AcDbEntity
8
1
62
256
6
ByLayer
370
13
48
1
60
0
100
AcDbLine
10
0
20
-33.5
30
0
11
0.5
21
-34
31
0
39
0
210
0
220
0
230
1
0
LINE
5
16B
100
AcDbEntity
8
1
62
256
6
ByLayer
370
13
48
1
60
0
100
AcDbLine
10
7.5
20
-29.5
30
0
11
17.2078
21
-29.5
31
0
39
0
210
0
220
0
230
1
0
LINE
5
16C
100
AcDbEntity
8
1
62
256
6
ByLayer
370
13
48
1
60
0
100
AcDbLine
10
17.2078
20
29.5
30
0
11
7.5
21
29.5
31
0
39
0
210
0
220
0
230
1
0
LINE
5
16D
100
AcDbEntity
8
1
62
256
6
ByLayer
370
13
48
1
60
0
100
AcDbLine
10
0.5
20
34
30
0
11
0
21
33.5
31
0
39
0
210
0
220
0
230
1
0
LINE
5
16E
100
AcDbEntity
8
1
62
256
6
ByLayer
370
13
48
1
60
0
100
AcDbLine
10
7
20
34
30
0
11
0.5
21
34
31
0
39
0
210
0
220
0
230
1
0
LINE
5
16F
100
AcDbEntity
8
1
62
256
6
ByLayer
370
13
48
1
60
0
100
AcDbLine
10
0.5
20
-34
30
0
11
7
21
-34
31
0
39
0
210
0
220
0
230
1
0
LINE
5
170
100
AcDbEntity
8
81
62
256
6
ByLayer
370
18
48
1
60
0
100
AcDbLine
10
251
20
0
30
0
11
258
21
0
31
0
39
0
210
0
220
0
230
1
0
LINE
5
171
100
AcDbEntity
8
80
62
256
6
ByLayer
370
18
48
1
60
0
100
AcDbLine
10
0
20
0
30
0
11
-7
21
0
31
0
39
0
210
0
220
0
230
1
0
LINE
5
172
100
AcDbEntity
8
SK2
62
256
6
ByLayer
370
13
48
1
60
0
100
AcDbLine
10
-38.725
20
25
30
0
11
-38.725
21
-25
31
0
39
0
210
0
220
0
230
1
0
LINE
5
174
100
AcDbEntity
8
SK2
62
256
6
ByLayer
370
13
48
1
60
0
100
AcDbLine
10
-19.5875
20
-25
30
0
11
-41.9
21
-25
31
0
39
0
210
0
220
0
230
1
0
LINE
5
175
100
AcDbEntity
8
SK2
62
256
6
ByLayer
370
13
48
1
60
0
100
AcDbLine
10
-19.5875
20
25
30
0
11
-41.9
21
25
31
0
39
0
210
0
220
0
230
1
0
LINE
5
176
100
AcDbEntity
8
1
62
256
6
ByLayer
370
18
48
1
60
1
100
AcDbLine
10
-38.725
20
-25
30
0
11
-39.650575
21
-20.825003
31
0
39
0
210
0
220
0
230
1
0
LINE
5
177
100
AcDbEntity
8
1
62
256
6
ByLayer
370
18
48
1
60
1
100
AcDbLine
10
-39.650575
20
-20.825003
30
0
11
-37.799425
21
-20.824997
31
0
39
0
210
0
220
0
230
1
0
LINE
5
178
100
AcDbEntity
8
1
62
256
6
ByLayer
370
18
48
1
60
1
100
AcDbLine
10
-37.799425
20
-20.824997
30
0
11
-38.725
21
-25
31
0
39
0
210
0
220
0
230
1
0
LINE
5
179
100
AcDbEntity
8
1
62
256
6
ByLayer
370
18
48
1
60
1
100
AcDbLine
10
-38.725
20
25
30
0
11
-37.799425
21
20.825003
31
0
39
0
210
0
220
0
230
1
0
LINE
5
17A
100
AcDbEntity
8
1
62
256
6
ByLayer
370
18
48
1
60
1
100
AcDbLine
10
-37.799425
20
20.825003
30
0
11
-39.650575
21
20.824997
31
0
39
0
210
0
220
0
230
1
0
LINE
5
17B
100
AcDbEntity
8
1
62
256
6
ByLayer
370
18
48
1
60
1
100
AcDbLine
10
-39.650575
20
20.824997
30
0
11
-38.725
21
25
31
0
39
0
210
0
220
0
230
1
0
LINE
5
17C
100
AcDbEntity
8
SK2
62
256
6
ByLayer
370
13
48
1
60
0
100
AcDbLine
10
-48.725
20
-34
30
0
11
-48.725
21
34
31
0
39
0
210
0
220
0
230
1
0
LINE
5
17D
100
AcDbEntity
8
SK2
62
256
6
ByLayer
370
13
48
1
60
0
100
AcDbLine
10
-1.5875
20
34
30
0
11
-51.9
21
34
31
0
39
0
210
0
220
0
230
1
0
LINE
5
17E
100
AcDbEntity
8
SK2
62
256
6
ByLayer
370
13
48
1
60
0
100
AcDbLine
10
-1.5875
20
-34
30
0
11
-51.9
21
-34
31
0
39
0
210
0
220
0
230
1
0
LINE
5
17F
100
AcDbEntity
8
1
62
256
6
ByLayer
370
18
48
1
60
1
100
AcDbLine
10
-48.725
20
34
30
0
11
-47.799425
21
29.825003
31
0
39
0
210
0
220
0
230
1
0
LINE
5
180
100
AcDbEntity
8
1
62
256
6
ByLayer
370
18
48
1
60
1
100
AcDbLine
10
-47.799425
20
29.825003
30
0
11
-49.650575
21
29.824997
31
0
39
0
210
0
220
0
230
1
0
LINE
5
181
100
AcDbEntity
8
1
62
256
6
ByLayer
370
18
48
1
60
1
100
AcDbLine
10
-49.650575
20
29.824997
30
0
11
-48.725
21
34
31
0
39
0
210
0
220
0
230
1
0
LINE
5
182
100
AcDbEntity
8
1
62
256
6
ByLayer
370
18
48
1
60
1
100
AcDbLine
10
-48.725
20
-34
30
0
11
-49.650575
21
-29.825003
31
0
39
0
210
0
220
0
230
1
0
LINE
5
183
100
AcDbEntity
8
1
62
256
6
ByLayer
370
18
48
1
60
1
100
AcDbLine
10
-49.650575
20
-29.825003
30
0
11
-47.799425
21
-29.824997
31
0
39
0
210
0
220
0
230
1
0
LINE
5
184
100
AcDbEntity
8
1
62
256
6
ByLayer
370
18
48
1
60
1
100
AcDbLine
10
-47.799425
20
-29.824997
30
0
11
-48.725
21
-34
31
0
39
0
210
0
220
0
230
1
0
LINE
5
185
100
AcDbEntity
8
2
62
256
6
ByLayer
370
13
48
1
60
0
100
AcDbLine
10
277.975
20
25
30
0
11
277.975
21
-25
31
0
39
0
210
0
220
0
230
1
0
LINE
5
187
100
AcDbEntity
8
2
62
256
6
ByLayer
370
13
48
1
60
0
100
AcDbLine
10
252.5875
20
-25
30
0
11
281.15
21
-25
31
0
39
0
210
0
220
0
230
1
0
LINE
5
188
100
AcDbEntity
8
2
62
256
6
ByLayer
370
13
48
1
60
0
100
AcDbLine
10
252.5875
20
25
30
0
11
281.15
21
25
31
0
39
0
210
0
220
0
230
1
0
LINE
5
189
100
AcDbEntity
8
1
62
256
6
ByLayer
370
18
48
1
60
1
100
AcDbLine
10
277.975
20
-25
30
0
11
277.049425
21
-20.825003
31
0
39
0
210
0
220
0
230
1
0
LINE
5
18A
100
AcDbEntity
8
1
62
256
6
ByLayer
370
18
48
1
60
1
100
AcDbLine
10
277.049425
20
-20.825003
30
0
11
278.900575
21
-20.824997
31
0
39
0
210
0
220
0
230
1
0
LINE
5
18B
100
AcDbEntity
8
1
62
256
6
ByLayer
370
18
48
1
60
1
100
AcDbLine
10
278.900575
20
-20.824997
30
0
11
277.975
21
-25
31
0
39
0
210
0
220
0
230
1
0
LINE
5
18C
100
AcDbEntity
8
1
62
256
6
ByLayer
370
18
48
1
60
1
100
AcDbLine
10
277.975
20
25
30
0
11
278.900575
21
20.825003
31
0
39
0
210
0
220
0
230
1
0
LINE
5
18D
100
AcDbEntity
8
1
62
256
6
ByLayer
370
18
48
1
60
1
100
AcDbLine
10
278.900575
20
20.825003
30
0
11
277.049425
21
20.824997
31
0
39
0
210
0
220
0
230
1
0
LINE
5
18E
100
AcDbEntity
8
1
62
256
6
ByLayer
370
18
48
1
60
1
100
AcDbLine
10
277.049425
20
20.824997
30
0
11
277.975
21
25
31
0
39
0
210
0
220
0
230
1
0
LINE
5
342
100
AcDbEntity
8
1
62
256
6
ByLayer
370
18
48
1
60
1
100
AcDbLine
10
-38.725
20
-25
30
0
11
-39.650575
21
-20.825003
31
0
39
0
210
0
220
0
230
1
0
LINE
5
343
100
AcDbEntity
8
1
62
256
6
ByLayer
370
18
48
1
60
1
100
AcDbLine
10
-39.650575
20
-20.825003
30
0
11
-37.799425
21
-20.824997
31
0
39
0
210
0
220
0
230
1
0
LINE
5
344
100
AcDbEntity
8
1
62
256
6
ByLayer
370
18
48
1
60
1
100
AcDbLine
10
-37.799425
20
-20.824997
30
0
11
-38.725
21
-25
31
0
39
0
210
0
220
0
230
1
0
LINE
5
346
100
AcDbEntity
8
1
62
256
6
ByLayer
370
18
48
1
60
1
100
AcDbLine
10
-38.725
20
25
30
0
11
-37.799425
21
20.825003
31
0
39
0
210
0
220
0
230
1
0
LINE
5
347
100
AcDbEntity
8
1
62
256
6
ByLayer
370
18
48
1
60
1
100
AcDbLine
10
-37.799425
20
20.825003
30
0
11
-39.650575
21
20.824997
31
0
39
0
210
0
220
0
230
1
0
LINE
5
348
100
AcDbEntity
8
1
62
256
6
ByLayer
370
18
48
1
60
1
100
AcDbLine
10
-39.650575
20
20.824997
30
0
11
-38.725
21
25
31
0
39
0
210
0
220
0
230
1
0
LINE
5
34C
100
AcDbEntity
8
1
62
256
6
ByLayer
370
18
48
1
60
1
100
AcDbLine
10
-48.725
20
34
30
0
11
-47.799425
21
29.825003
31
0
39
0
210
0
220
0
230
1
0
LINE
5
34D
100
AcDbEntity
8
1
62
256
6
ByLayer
370
18
48
1
60
1
100
AcDbLine
10
-47.799425
20
29.825003
30
0
11
-49.650575
21
29.824997
31
0
39
0
210
0
220
0
230
1
0
LINE
5
34E
100
AcDbEntity
8
1
62
256
6
ByLayer
370
18
48
1
60
1
100
AcDbLine
10
-49.650575
20
29.824997
30
0
11
-48.725
21
34
31
0
39
0
210
0
220
0
230
1
0
LINE
5
350
100
AcDbEntity
8
1
62
256
6
ByLayer
370
18
48
1
60
1
100
AcDbLine
10
-48.725
20
-34
30
0
11
-49.650575
21
-29.825003
31
0
39
0
210
0
220
0
230
1
0
LINE
5
351
100
AcDbEntity
8
1
62
256
6
ByLayer
370
18
48
1
60
1
100
AcDbLine
10
-49.650575
20
-29.825003
30
0
11
-47.799425
21
-29.824997
31
0
39
0
210
0
220
0
230
1
0
LINE
5
352
100
AcDbEntity
8
1
62
256
6
ByLayer
370
18
48
1
60
1
100
AcDbLine
10
-47.799425
20
-29.824997
30
0
11
-48.725
21
-34
31
0
39
0
210
0
220
0
230
1
0
LINE
5
356
100
AcDbEntity
8
1
62
256
6
ByLayer
370
18
48
1
60
1
100
AcDbLine
10
277.975
20
-25
30
0
11
277.049425
21
-20.825003
31
0
39
0
210
0
220
0
230
1
0
LINE
5
357
100
AcDbEntity
8
1
62
256
6
ByLayer
370
18
48
1
60
1
100
AcDbLine
10
277.049425
20
-20.825003
30
0
11
278.900575
21
-20.824997
31
0
39
0
210
0
220
0
230
1
0
LINE
5
358
100
AcDbEntity
8
1
62
256
6
ByLayer
370
18
48
1
60
1
100
AcDbLine
10
278.900575
20
-20.824997
30
0
11
277.975
21
-25
31
0
39
0
210
0
220
0
230
1
0
LINE
5
35A
100
AcDbEntity
8
1
62
256
6
ByLayer
370
18
48
1
60
1
100
AcDbLine
10
277.975
20
25
30
0
11
278.900575
21
20.825003
31
0
39
0
210
0
220
0
230
1
0
LINE
5
35B
100
AcDbEntity
8
1
62
256
6
ByLayer
370
18
48
1
60
1
100
AcDbLine
10
278.900575
20
20.825003
30
0
11
277.049425
21
20.824997
31
0
39
0
210
0
220
0
230
1
0
LINE
5
35C
100
AcDbEntity
8
1
62
256
6
ByLayer
370
18
48
1
60
1
100
AcDbLine
10
277.049425
20
20.824997
30
0
11
277.975
21
25
31
0
39
0
210
0
220
0
230
1
0
MTEXT
5
33E
100
AcDbEntity
8
SK2
62
256
6
ByLayer
370
18
48
1
60
0
100
AcDbMText
10
-40.736672
20
-6.949399
30
0
210
0
220
0
230
1
1
%%c
40
4.5
41
0
44
1.084337
50
90
71
7
72
5
7
iso_b_vert
0
MTEXT
5
341
100
AcDbEntity
8
SK2
62
256
6
ByLayer
370
18
48
1
60
0
100
AcDbMText
10
-40.736672
20
4.265444
30
0
210
0
220
0
230
1
1
\W0.6740;50
40
4.5
41
0
44
1.084337
50
90
71
7
72
5
7
iso_b_vert
0
MTEXT
5
34A
100
AcDbEntity
8
SK2
62
256
6
ByLayer
370
18
48
1
60
0
100
AcDbMText
10
-50.736672
20
-6.949399
30
0
210
0
220
0
230
1
1
%%c
40
4.5
41
0
44
1.084337
50
90
71
7
72
5
7
iso_b_vert
0
MTEXT
5
34B
100
AcDbEntity
8
SK2
62
256
6
ByLayer
370
18
48
1
60
0
100
AcDbMText
10
-50.736672
20
4.265444
30
0
210
0
220
0
230
1
1
\W0.6740;68
40
4.5
41
0
44
1.084337
50
90
71
7
72
5
7
iso_b_vert
0
MTEXT
5
354
100
AcDbEntity
8
2
62
256
6
ByLayer
370
18
48
1
60
0
100
AcDbMText
10
275.963328
20
-6.949399
30
0
210
0
220
0
230
1
1
%%c
40
4.5
41
0
44
1.084337
50
90
71
7
72
5
7
iso_b_vert
0
MTEXT
5
355
100
AcDbEntity
8
2
62
256
6
ByLayer
370
18
48
1
60
0
100
AcDbMText
10
275.963328
20
4.265444
30
0
210
0
220
0
230
1
1
\W0.6740;50
40
4.5
41
0
44
1.084337
50
90
71
7
72
5
7
iso_b_vert
0
MTEXT
5
35E
100
AcDbEntity
8
SK6
62
256
6
ByLayer
370
18
48
1
60
0
100
AcDbMText
10
9.308916
20
-94.592562
30
0
210
0
220
0
230
1
1
\W0.7730;DS20-D5000DM50-04
40
3.5
41
0
44
1.084337
50
0
71
7
72
5
7
iso_b_vert
0
HATCH
5
345
100
AcDbEntity
8
SK2
62
256
6
ByLayer
370
13
48
1
60
0
100
AcDbHatch
10
0
20
0
30
0
210
0
220
0
230
1
2
ANSI31
70
0
71
0
91
1
92
5
93
3
72
1
10
-38.7250000000001
20
-25
11
-39.650575216528
21
-20.8250033998276
72
1
10
-39.650575216528
20
-20.8250033998276
11
-37.7994247834721
21
-20.8249966001723
72
1
10
-37.7994247834721
20
-20.8249966001723
11
-38.7250000000001
21
-25
97
0
75
0
76
1
52
0
41
0.0062
77
0
78
1
53
45
43
0
44
0
45
-0.0139193969876572
46
0.0139193969876572
79
0
47
0
98
1
10
0
20
0
0
HATCH
5
349
100
AcDbEntity
8
SK2
62
256
6
ByLayer
370
13
48
1
60
0
100
AcDbHatch
10
0
20
0
30
0
210
0
220
0
230
1
2
ANSI31
70
0
71
0
91
1
92
5
93
3
72
1
10
-38.7250000000001
20
25
11
-37.7994247834721
21
20.8250033998276
72
1
10
-37.7994247834721
20
20.8250033998276
11
-39.650575216528
21
20.8249966001724
72
1
10
-39.650575216528
20
20.8249966001724
11
-38.7250000000001
21
25
97
0
75
0
76
1
52
0
41
0.0062
77
0
78
1
53
45
43
0
44
0
45
-0.0139193969876572
46
0.0139193969876572
79
0
47
0
98
1
10
0
20
0
0
HATCH
5
34F
100
AcDbEntity
8
SK2
62
256
6
ByLayer
370
13
48
1
60
0
100
AcDbHatch
10
0
20
0
30
0
210
0
220
0
230
1
2
ANSI31
70
0
71
0
91
1
92
5
93
3
72
1
10
-48.7250000000001
20
34
11
-47.7994247834721
21
29.8250033998276
72
1
10
-47.7994247834721
20
29.8250033998276
11
-49.650575216528
21
29.8249966001724
72
1
10
-49.650575216528
20
29.8249966001724
11
-48.7250000000001
21
34
97
0
75
0
76
1
52
0
41
0.0062
77
0
78
1
53
45
43
0
44
0
45
-0.0139193969876572
46
0.0139193969876572
79
0
47
0
98
1
10
0
20
0
0
HATCH
5
353
100
AcDbEntity
8
SK2
62
256
6
ByLayer
370
13
48
1
60
0
100
AcDbHatch
10
0
20
0
30
0
210
0
220
0
230
1
2
ANSI31
70
0
71
0
91
1
92
5
93
3
72
1
10
-48.7250000000001
20
-34
11
-49.650575216528
21
-29.8250033998276
72
1
10
-49.650575216528
20
-29.8250033998276
11
-47.7994247834721
21
-29.8249966001724
72
1
10
-47.7994247834721
20
-29.8249966001724
11
-48.7250000000001
21
-34
97
0
75
0
76
1
52
0
41
0.0062
77
0
78
1
53
45
43
0
44
0
45
-0.0139193969876572
46
0.0139193969876572
79
0
47
0
98
1
10
0
20
0
0
HATCH
5
359
100
AcDbEntity
8
2
62
256
6
ByLayer
370
13
48
1
60
0
100
AcDbHatch
10
0
20
0
30
0
210
0
220
0
230
1
2
ANSI31
70
0
71
0
91
1
92
5
93
3
72
1
10
277.975
20
-25.0000000000003
11
277.049424783472
21
-20.8250033998279
72
1
10
277.049424783472
20
-20.8250033998279
11
278.900575216528
21
-20.8249966001727
72
1
10
278.900575216528
20
-20.8249966001727
11
277.975
21
-25.0000000000003
97
0
75
0
76
1
52
0
41
0.0062
77
0
78
1
53
45
43
0
44
0
45
-0.0139193969876572
46
0.0139193969876572
79
0
47
0
98
1
10
0
20
0
0
HATCH
5
35D
100
AcDbEntity
8
2
62
256
6
ByLayer
370
13
48
1
60
0
100
AcDbHatch
10
0
20
0
30
0
210
0
220
0
230
1
2
ANSI31
70
0
71
0
91
1
92
5
93
3
72
1
10
277.975
20
24.9999999999997
11
278.900575216528
21
20.8250033998273
72
1
10
278.900575216528
20
20.8250033998273
11
277.049424783472
21
20.8249966001721
72
1
10
277.049424783472
20
20.8249966001721
11
277.975
21
24.9999999999997
97
0
75
0
76
1
52
0
41
0.0062
77
0
78
1
53
45
43
0
44
0
45
-0.0139193969876572
46
0.0139193969876572
79
0
47
0
98
1
10
0
20
0
0
DIMENSION
5
361
100
AcDbEntity
8
2
62
256
6
ByLayer
370
18
48
1
60
0
100
AcDbDimension
2
_U0
10
251
20
-82.85
30
0
11
125.5
21
-82.85
31
0
70
32
71
1
72
1
41
1
210
0
220
0
230
1
3
Standard
100
AcDbAlignedDimension
13
0
23
-34
33
0
14
251
24
-25
34
0
50
0
100
AcDbRotatedDimension
1001
ACAD
1000
DSTYLE
1002
{
1070
   371
1070
    13
1070
   372
1070
    13
1070
   170
1070
     0
1070
   144
1040
1.0
1070
   277
1070
     2
1070
   284
1070
     8
1070
   278
1070
    46
1070
   146
1040
0.777778
1070
   345
1005
16
1070
   347
1005
16
1070
   346
1005
16
1070
   344
1005
0
1070
   343
1005
0
1070
   172
1070
     1
1070
    76
1070
     0
1070
    75
1070
     0
1070
   282
1070
     0
1070
   281
1070
     0
1070
    71
1070
     0
1070
    74
1070
     0
1070
   279
1070
     0
1070
   173
1070
     1
1070
   340
1005
33F
1070
   271
1070
     1
1070
   272
1070
     2
1070
    77
1070
     1
1070
    73
1070
     1
1070
   171
1070
     3
1070
   274
1070
     4
1070
   177
1070
   150
1070
   176
1070
     9
1070
   178
1070
    43
1070
    78
1070
     8
1070
    48
1040
-0.1
1070
    41
1040
4.175
1070
   147
1040
2.25
1070
    42
1040
1.5875
1070
    44
1040
3.175
1070
   140
1040
4.5
1002
}
1001
ACAD_DSTYLE_DIM_LINETYPE
1070
   380
1005
16
1001
ACAD_DSTYLE_DIM_EXT1_LINETYPE
1070
   381
1005
16
1001
ACAD_DSTYLE_DIM_EXT2_LINETYPE
1070
   382
1005
16
0
DIMENSION
5
37A
100
AcDbEntity
8
SK2
62
256
6
ByLayer
370
18
48
1
60
0
100
AcDbDimension
2
_U1
10
0
20
-82.85
30
0
11
-9
21
-82.85
31
0
70
32
71
1
72
1
41
1
210
0
220
0
230
1
3
Standard
100
AcDbAlignedDimension
13
-18
23
-25
33
0
14
0
24
-34
34
0
50
0
100
AcDbRotatedDimension
1001
ACAD
1000
DSTYLE
1002
{
1070
   371
1070
    13
1070
   372
1070
    13
1070
   170
1070
     0
1070
   144
1040
1.0
1070
   277
1070
     2
1070
   284
1070
     8
1070
   278
1070
    46
1070
   146
1040
0.777778
1070
   345
1005
16
1070
   347
1005
16
1070
   346
1005
16
1070
   344
1005
0
1070
   343
1005
0
1070
   172
1070
     1
1070
    76
1070
     0
1070
    75
1070
     0
1070
   282
1070
     0
1070
   281
1070
     0
1070
    71
1070
     0
1070
    74
1070
     0
1070
   279
1070
     0
1070
   173
1070
     1
1070
   340
1005
33F
1070
   271
1070
     1
1070
   272
1070
     2
1070
    77
1070
     1
1070
    73
1070
     1
1070
   171
1070
     3
1070
   274
1070
     4
1070
   177
1070
   150
1070
   176
1070
     9
1070
   178
1070
    43
1070
    78
1070
     8
1070
    48
1040
-0.1
1070
    41
1040
4.175
1070
   147
1040
2.25
1070
    42
1040
1.5875
1070
    44
1040
3.175
1070
   140
1040
4.5
1002
}
1001
ACAD_DSTYLE_DIM_LINETYPE
1070
   380
1005
16
1001
ACAD_DSTYLE_DIM_EXT1_LINETYPE
1070
   381
1005
16
1001
ACAD_DSTYLE_DIM_EXT2_LINETYPE
1070
   382
1005
16
0
DIMENSION
5
393
100
AcDbEntity
8
SK2
62
256
6
ByLayer
370
18
48
1
60
0
100
AcDbDimension
2
_U2
10
17.7078
20
-72.85
30
0
11
134.3539
21
-72.85
31
0
70
32
71
1
72
1
41
1
210
0
220
0
230
1
3
Standard
100
AcDbAlignedDimension
13
251
23
-25
33
0
14
17.7078
24
-34
34
0
50
0
100
AcDbRotatedDimension
1001
ACAD
1000
DSTYLE
1002
{
1070
   371
1070
    13
1070
   372
1070
    13
1070
   170
1070
     0
1070
   144
1040
1.0
1070
   277
1070
     2
1070
   284
1070
     8
1070
   278
1070
    46
1070
   146
1040
0.777778
1070
   345
1005
16
1070
   347
1005
16
1070
   346
1005
16
1070
   344
1005
0
1070
   343
1005
0
1070
   172
1070
     1
1070
    76
1070
     0
1070
    75
1070
     0
1070
   282
1070
     0
1070
   281
1070
     0
1070
    71
1070
     0
1070
    74
1070
     0
1070
   279
1070
     0
1070
   173
1070
     1
1070
   340
1005
33F
1070
   271
1070
     1
1070
   272
1070
     2
1070
    77
1070
     1
1070
    73
1070
     1
1070
   171
1070
     3
1070
   274
1070
     4
1070
   177
1070
   150
1070
   176
1070
     9
1070
   178
1070
    43
1070
    78
1070
     8
1070
    48
1040
-0.1
1070
    41
1040
4.175
1070
   147
1040
2.25
1070
    42
1040
1.5875
1070
    44
1040
3.175
1070
   140
1040
4.5
1002
}
1001
ACAD_DSTYLE_DIM_LINETYPE
1070
   380
1005
16
1001
ACAD_DSTYLE_DIM_EXT1_LINETYPE
1070
   381
1005
16
1001
ACAD_DSTYLE_DIM_EXT2_LINETYPE
1070
   382
1005
16
0
DIMENSION
5
3AB
100
AcDbEntity
8
SK2
62
256
6
ByLayer
370
18
48
1
60
0
100
AcDbDimension
2
_U3
10
251
20
-62.85
30
0
11
148.5
21
-62.85
31
0
70
32
71
1
72
1
41
1
210
0
220
0
230
1
3
Standard
100
AcDbAlignedDimension
13
46
23
-25
33
0
14
251
24
-25
34
0
50
0
100
AcDbRotatedDimension
1001
ACAD
1000
DSTYLE
1002
{
1070
   371
1070
    13
1070
   372
1070
    13
1070
   170
1070
     0
1070
   144
1040
1.0
1070
   277
1070
     2
1070
   284
1070
     8
1070
   278
1070
    46
1070
   146
1040
0.777778
1070
   345
1005
16
1070
   347
1005
16
1070
   346
1005
16
1070
   344
1005
0
1070
   343
1005
0
1070
   172
1070
     1
1070
    76
1070
     0
1070
    75
1070
     0
1070
   282
1070
     0
1070
   281
1070
     0
1070
    71
1070
     0
1070
    74
1070
     0
1070
   279
1070
     0
1070
   173
1070
     1
1070
   340
1005
33F
1070
   271
1070
     1
1070
   272
1070
     2
1070
    77
1070
     1
1070
    73
1070
     1
1070
   171
1070
     3
1070
   274
1070
     4
1070
   177
1070
   150
1070
   176
1070
     9
1070
   178
1070
    43
1070
    78
1070
     8
1070
    48
1040
-0.1
1070
    41
1040
4.175
1070
   147
1040
2.25
1070
    42
1040
1.5875
1070
    44
1040
3.175
1070
   140
1040
4.5
1002
}
1001
ACAD_DSTYLE_DIM_LINETYPE
1070
   380
1005
16
1001
ACAD_DSTYLE_DIM_EXT1_LINETYPE
1070
   381
1005
16
1001
ACAD_DSTYLE_DIM_EXT2_LINETYPE
1070
   382
1005
16
0
DIMENSION
5
3C3
100
AcDbEntity
8
2
62
256
6
ByLayer
370
18
48
1
60
0
100
AcDbDimension
2
_U4
10
251
20
-52.85
30
0
11
273.029464
21
-52.85
31
0
70
32
71
1
72
1
41
1
210
0
220
0
230
1
3
Standard
100
AcDbAlignedDimension
13
249.7234
23
-12.5
33
0
14
251
24
0
34
0
50
0
100
AcDbRotatedDimension
1001
ACAD
1000
DSTYLE
1002
{
1070
   371
1070
    13
1070
   372
1070
    13
1070
   170
1070
     0
1070
   144
1040
1.0
1070
   277
1070
     2
1070
   284
1070
     8
1070
   278
1070
    46
1070
   146
1040
0.777778
1070
   345
1005
16
1070
   347
1005
16
1070
   346
1005
16
1070
   344
1005
0
1070
   343
1005
0
1070
   172
1070
     1
1070
    76
1070
     0
1070
    75
1070
     0
1070
   282
1070
     0
1070
   281
1070
     0
1070
    71
1070
     0
1070
    74
1070
     0
1070
   279
1070
     0
1070
   173
1070
     1
1070
   340
1005
33F
1070
   271
1070
     2
1070
   272
1070
     2
1070
    77
1070
     1
1070
    73
1070
     1
1070
   171
1070
     3
1070
   274
1070
     4
1070
   177
1070
   150
1070
   176
1070
     9
1070
   178
1070
    43
1070
    78
1070
     8
1070
    48
1040
-0.1
1070
    41
1040
4.175
1070
   147
1040
2.25
1070
    42
1040
1.5875
1070
    44
1040
3.175
1070
   140
1040
4.5
1002
}
1001
ACAD_DSTYLE_DIM_LINETYPE
1070
   380
1005
16
1001
ACAD_DSTYLE_DIM_EXT1_LINETYPE
1070
   381
1005
16
1001
ACAD_DSTYLE_DIM_EXT2_LINETYPE
1070
   382
1005
16
0
ENDSEC
0
SECTION
2
OBJECTS
0
DICTIONARY
5
44d
330
0
100
AcDbDictionary
280
0
281
1
3
ACAD_GROUP
350
44e
3
ACAD_MLINESTYLE
350
44f
0
DICTIONARY
5
44e
330
0
100
AcDbDictionary
280
0
281
1
0
DICTIONARY
5
44f
330
0
100
AcDbDictionary
280
0
281
1
3
Standard
350
18
0
MLINESTYLE
5
18
330
44f
100
AcDbMlineStyle
2
Standard
70
0
3

62
256
51
90
52
90
71
2
49
-0.5
62
256
6
ByLayer
49
0.5
62
256
6
ByLayer
0
RASTERVARIABLES
5
43b
330

100
AcDbRasterVariables
90
0
70
1
71
1
72
1
0
ENDSEC
0
EOF
