0
SECTION
2
HEADER
9
$ACADVER
1
AC1015
9
$DWGCODEPAGE
3
ANSI_1252
9
$HANDSEED
5
459
9
$ANGBASE
50
0
9
$ANGDIR
70
0
9
$ATTMODE
70
1
9
$AUNITS
70
0
9
$AUPREC
70
0
9
$CECOLOR
62
256
9
$CELTSCALE
40
1
9
$CELTYPE
6
ByLayer
9
$CELWEIGHT
370
18
9
$CLAYER
8
0
9
$CMLJUST
70
0
9
$CMLSCALE
40
1
9
$CMLSTYLE
2
Standard
9
$DIMSTYLE
2
Standard
9
$TEXTSIZE
40
0.2
9
$TEXTSTYLE
7
Standard
9
$LUNITS
70
2
9
$LUPREC
70
4
9
$EXTNAMES
290
1
9
$INSUNITS
70
4
9
$LTSCALE
40
1
9
$LWDISPLAY
290
1
9
$PDMODE
70
0
9
$PDSIZE
40
0
9
$PLINEGEN
70
0
0
ENDSEC
0
SECTION
2
CLASSES
0
CLASS
1
RASTERVARIABLES
2
AcDbRasterVariables
3
ISM
90
0
280
0
281
0
0
ENDSEC
0
SECTION
2
TABLES
0
TABLE
2
VPORT
5
44f
100
AcDbSymbolTable
0
VPORT
5
1
100
AcDbSymbolTableRecord
100
AcDbViewportTableRecord
2
*Active
70
0
10
0
20
0
11
1
21
1
12
-1
22
1
13
0
23
0
14
0.5
24
0.5
15
10
25
10
16
0
26
0
36
1
17
0
27
0
37
0
0
ENDTAB
0
TABLE
2
LTYPE
5
450
100
AcDbSymbolTable
0
LTYPE
5
14
100
AcDbSymbolTableRecord
100
AcDbLinetypeTableRecord
70
0
2
ByBlock
3

72
65
73
0
40
0
0
LTYPE
5
15
100
AcDbSymbolTableRecord
100
AcDbLinetypeTableRecord
70
0
2
ByLayer
3

72
65
73
0
40
0
0
LTYPE
5
16
100
AcDbSymbolTableRecord
100
AcDbLinetypeTableRecord
70
0
2
Continuous
3
Solid line
72
65
73
0
40
0
0
LTYPE
5
6E
100
AcDbSymbolTableRecord
100
AcDbLinetypeTableRecord
70
0
2
CENTER
3
____ _ ____ _ ____ _ ____
72
65
73
4
40
47.5
49
22
74
0
49
-8.5
74
0
49
8.5
74
0
49
-8.5
74
0
0
LTYPE
5
6F
100
AcDbSymbolTableRecord
100
AcDbLinetypeTableRecord
70
0
2
DASHED
3
__ __ __ __ __ __ __ __ __
72
65
73
2
40
25.72
49
12.86
74
0
49
-12.86
74
0
0
ENDTAB
0
TABLE
2
LAYER
5
451
100
AcDbSymbolTable
0
LAYER
5
10
100
AcDbSymbolTableRecord
100
AcDbLayerTableRecord
2
0
70
0
62
7
6
Continuous
290
1
370
-3
390
0
0
LAYER
5
71
100
AcDbSymbolTableRecord
100
AcDbLayerTableRecord
2
1
70
0
62
4
6
Continuous
290
1
370
-3
390
0
0
LAYER
5
73
100
AcDbSymbolTableRecord
100
AcDbLayerTableRecord
2
80
70
0
62
-6
6
Continuous
290
1
370
-3
390
0
0
LAYER
5
75
100
AcDbSymbolTableRecord
100
AcDbLayerTableRecord
2
81
70
0
62
-3
6
Continuous
290
1
370
-3
390
0
0
LAYER
5
147
100
AcDbSymbolTableRecord
100
AcDbLayerTableRecord
2
4
70
0
62
-2
6
CENTER
290
1
370
-3
390
0
0
LAYER
5
184
100
AcDbSymbolTableRecord
100
AcDbLayerTableRecord
2
2
70
0
62
7
6
Continuous
290
1
370
-3
390
0
0
LAYER
5
363
100
AcDbSymbolTableRecord
100
AcDbLayerTableRecord
2
Defpoints
70
0
62
7
6
Continuous
290
0
370
-3
390
0
0
LAYER
5
43b
100
AcDbSymbolTableRecord
100
AcDbLayerTableRecord
2
SK1
70
0
62
4
6
Continuous
290
1
370
-3
390
0
0
LAYER
5
43c
100
AcDbSymbolTableRecord
100
AcDbLayerTableRecord
2
SK4
70
0
62
2
6
CENTER
290
1
370
-3
390
0
0
LAYER
5
43d
100
AcDbSymbolTableRecord
100
AcDbLayerTableRecord
2
SK2
70
0
62
7
6
Continuous
290
1
370
-3
390
0
0
LAYER
5
43e
100
AcDbSymbolTableRecord
100
AcDbLayerTableRecord
2
SK6
70
0
62
5
6
Continuous
290
1
370
-3
390
0
0
ENDTAB
0
TABLE
2
STYLE
5
452
100
AcDbSymbolTable
0
STYLE
5
11
100
AcDbSymbolTableRecord
100
AcDbTextStyleTableRecord
2
Standard
3
txt
70
0
71
0
40
0
41
1
42
0
50
0
0
STYLE
5
33E
100
AcDbSymbolTableRecord
100
AcDbTextStyleTableRecord
2
iso_b_vert
3
simplex.shx
70
0
71
0
40
0
41
1
42
0
50
0
0
STYLE
5
33F
100
AcDbSymbolTableRecord
100
AcDbTextStyleTableRecord
2
DWGDirectTextStyle
3
simplex
70
0
71
0
40
0
41
1
42
0
50
0
0
ENDTAB
0
TABLE
2
DIMSTYLE
5
453
100
AcDbSymbolTable
100
AcDbDimStyleTable
0
DIMSTYLE
105
27
100
AcDbSymbolTableRecord
100
AcDbDimStyleTableRecord
2
Standard
70
0
3
<>
41
0.18
42
0.0625
44
0.18
140
0.18
147
0.09
73
0
74
0
77
1
271
2
275
0
278
52
280
0
340
11
0
ENDTAB
0
TABLE
2
VIEW
5
454
100
AcDbSymbolTable
0
ENDTAB
0
TABLE
2
UCS
5
455
100
AcDbSymbolTable
0
ENDTAB
0
TABLE
2
APPID
5
456
100
AcDbSymbolTable
0
APPID
5
12
100
AcDbSymbolTableRecord
100
AcDbRegAppTableRecord
2
ACAD
70
0
0
APPID
5
35F
100
AcDbSymbolTableRecord
100
AcDbRegAppTableRecord
2
ACAD_DSTYLE_DIMBREAK
70
0
0
APPID
5
3FA
100
AcDbSymbolTableRecord
100
AcDbRegAppTableRecord
2
ACAD_DSTYLE_DIM_LINETYPE
70
0
0
APPID
5
3FB
100
AcDbSymbolTableRecord
100
AcDbRegAppTableRecord
2
ACAD_DSTYLE_DIM_EXT1_LINETYPE
70
0
0
APPID
5
3FC
100
AcDbSymbolTableRecord
100
AcDbRegAppTableRecord
2
ACAD_DSTYLE_DIM_EXT2_LINETYPE
70
0
0
APPID
5
437
100
AcDbSymbolTableRecord
100
AcDbRegAppTableRecord
2
ACAD_MLEADERVER
70
0
0
ENDTAB
0
TABLE
2
BLOCK_RECORD
5
457
100
AcDbSymbolTable
0
BLOCK_RECORD
5
1F
100
AcDbSymbolTableRecord
100
AcDbBlockTableRecord
2
*Model_Space
340
0
70
0
0
BLOCK_RECORD
5
1B
100
AcDbSymbolTableRecord
100
AcDbBlockTableRecord
2
*Paper_Space
340
0
70
0
0
BLOCK_RECORD
5
23
100
AcDbSymbolTableRecord
100
AcDbBlockTableRecord
2
*Paper_Space0
340
0
70
0
0
BLOCK_RECORD
5
364
100
AcDbSymbolTableRecord
100
AcDbBlockTableRecord
2
*D1
340
0
70
0
0
BLOCK_RECORD
5
370
100
AcDbSymbolTableRecord
100
AcDbBlockTableRecord
2
_U0
340
0
70
0
0
BLOCK_RECORD
5
37C
100
AcDbSymbolTableRecord
100
AcDbBlockTableRecord
2
*D3
340
0
70
0
0
BLOCK_RECORD
5
389
100
AcDbSymbolTableRecord
100
AcDbBlockTableRecord
2
_U1
340
0
70
0
0
BLOCK_RECORD
5
395
100
AcDbSymbolTableRecord
100
AcDbBlockTableRecord
2
*D5
340
0
70
0
0
BLOCK_RECORD
5
3A1
100
AcDbSymbolTableRecord
100
AcDbBlockTableRecord
2
_U2
340
0
70
0
0
BLOCK_RECORD
5
3AD
100
AcDbSymbolTableRecord
100
AcDbBlockTableRecord
2
*D7
340
0
70
0
0
BLOCK_RECORD
5
3B9
100
AcDbSymbolTableRecord
100
AcDbBlockTableRecord
2
_U3
340
0
70
0
0
BLOCK_RECORD
5
3C5
100
AcDbSymbolTableRecord
100
AcDbBlockTableRecord
2
*D9
340
0
70
0
0
BLOCK_RECORD
5
3D3
100
AcDbSymbolTableRecord
100
AcDbBlockTableRecord
2
_U4
340
0
70
0
0
ENDTAB
0
ENDSEC
0
SECTION
2
BLOCKS
0
BLOCK
5
20
100
AcDbEntity
8
0
100
AcDbBlockBegin
2
*Model_Space
70
0
10
0
20
0
30
0
3
*Model_Space
0
ENDBLK
5
21
100
AcDbEntity
8
0
100
AcDbBlockEnd
0
BLOCK
5
1C
100
AcDbEntity
8
0
100
AcDbBlockBegin
2
*Paper_Space
70
0
10
0
20
0
30
0
3
*Paper_Space
0
ENDBLK
5
1D
100
AcDbEntity
8
0
100
AcDbBlockEnd
0
BLOCK
5
24
100
AcDbEntity
8
0
100
AcDbBlockBegin
2
*Paper_Space0
70
0
10
0
20
0
30
0
3
*Paper_Space0
0
ENDBLK
5
25
100
AcDbEntity
8
0
100
AcDbBlockEnd
0
BLOCK
5
365
100
AcDbEntity
8
0
100
AcDbBlockBegin
2
*D1
70
1
10
0
20
0
30
0
3
*D1
0
LINE
5
367
100
AcDbEntity
8
0
62
256
6
ByLayer
370
-2
48
1
60
0
100
AcDbLine
10
0
20
-35.5875
30
0
11
0
21
-86.025
31
0
39
0
210
0
220
0
230
1
0
LINE
5
368
100
AcDbEntity
8
0
62
256
6
ByLayer
370
-2
48
1
60
0
100
AcDbLine
10
243
20
-25.5875
30
0
11
243
21
-86.025
31
0
39
0
210
0
220
0
230
1
0
LINE
5
369
100
AcDbEntity
8
0
62
256
6
ByLayer
370
-2
48
1
60
0
100
AcDbLine
10
4.175
20
-82.85
30
0
11
238.825
21
-82.85
31
0
39
0
210
0
220
0
230
1
0
SOLID
5
36A
100
AcDbEntity
8
0
62
256
6
ByLayer
370
-1
48
1
60
0
100
AcDbTrace
10
4.175
20
-82.154167
30
0
11
4.175
21
-83.545833
31
0
12
0
22
-82.85
32
0
13
0
23
-82.85
33
0
39
0
210
0
220
0
230
1
0
SOLID
5
36B
100
AcDbEntity
8
0
62
256
6
ByLayer
370
-1
48
1
60
0
100
AcDbTrace
10
238.825
20
-83.545833
30
0
11
238.825
21
-82.154167
31
0
12
243
22
-82.85
32
0
13
243
23
-82.85
33
0
39
0
210
0
220
0
230
1
0
MTEXT
5
36C
100
AcDbEntity
8
0
62
256
6
ByLayer
370
18
48
1
60
0
100
AcDbMText
10
121.5
20
-73.45625
30
0
210
0
220
0
230
1
1
\A1;243
40
4.5
41
0
44
1
50
0
71
5
72
5
7
iso_b_vert
0
POINT
5
36D
100
AcDbEntity
8
Defpoints
62
0
6
ByLayer
370
-1
48
1
60
0
100
AcDbPoint
10
0
20
-34
30
0
39
0
210
0
220
0
230
1
50
360
0
POINT
5
36E
100
AcDbEntity
8
Defpoints
62
0
6
ByLayer
370
-1
48
1
60
0
100
AcDbPoint
10
243
20
-24
30
0
39
0
210
0
220
0
230
1
50
360
0
POINT
5
36F
100
AcDbEntity
8
Defpoints
62
0
6
ByLayer
370
-1
48
1
60
0
100
AcDbPoint
10
243
20
-82.85
30
0
39
0
210
0
220
0
230
1
50
360
0
ENDBLK
5
366
100
AcDbEntity
8
0
100
AcDbBlockEnd
0
BLOCK
5
377
100
AcDbEntity
8
0
100
AcDbBlockBegin
2
_U0
70
0
10
0
20
0
30
0
3
_U0
0
MTEXT
5
371
100
AcDbEntity
8
2
62
256
6
ByLayer
370
18
48
1
60
0
100
AcDbMText
10
117.132472
20
-81.522328
30
0
210
0
220
0
230
1
1
\W0.7541;243
40
4.5
41
0
44
1.084337
50
0
71
7
72
5
7
iso_b_vert
0
LINE
5
372
100
AcDbEntity
8
2
62
256
6
ByLayer
370
13
48
1
60
0
100
AcDbLine
10
0
20
-35.5875
30
0
11
0
21
-86.025
31
0
39
0
210
0
220
0
230
1
0
LINE
5
373
100
AcDbEntity
8
2
62
256
6
ByLayer
370
13
48
1
60
0
100
AcDbLine
10
243
20
-25.5875
30
0
11
243
21
-86.025
31
0
39
0
210
0
220
0
230
1
0
LINE
5
374
100
AcDbEntity
8
2
62
256
6
ByLayer
370
13
48
1
60
0
100
AcDbLine
10
0
20
-82.85
30
0
11
243
21
-82.85
31
0
39
0
210
0
220
0
230
1
0
SOLID
5
375
100
AcDbEntity
8
2
62
256
6
ByLayer
370
18
48
1
60
0
100
AcDbTrace
10
0
20
-82.85
30
0
11
4.174997
21
-81.924425
31
0
12
4.175003
22
-83.775575
32
0
13
4.175003
23
-83.775575
33
0
39
0
210
0
220
0
230
1
0
SOLID
5
376
100
AcDbEntity
8
2
62
256
6
ByLayer
370
18
48
1
60
0
100
AcDbTrace
10
243
20
-82.85
30
0
11
238.825003
21
-83.775575
31
0
12
238.824997
22
-81.924425
32
0
13
238.824997
23
-81.924425
33
0
39
0
210
0
220
0
230
1
0
ENDBLK
5
378
100
AcDbEntity
8
0
100
AcDbBlockEnd
0
BLOCK
5
37D
100
AcDbEntity
8
0
100
AcDbBlockBegin
2
*D3
70
1
10
0
20
0
30
0
3
*D3
0
LINE
5
37F
100
AcDbEntity
8
0
62
256
6
ByLayer
370
-2
48
1
60
0
100
AcDbLine
10
-18
20
-26.5875
30
0
11
-18
21
-86.025
31
0
39
0
210
0
220
0
230
1
0
LINE
5
380
100
AcDbEntity
8
0
62
256
6
ByLayer
370
-2
48
1
60
0
100
AcDbLine
10
0
20
-35.5875
30
0
11
0
21
-86.025
31
0
39
0
210
0
220
0
230
1
0
LINE
5
381
100
AcDbEntity
8
0
62
256
6
ByLayer
370
-2
48
1
60
0
100
AcDbLine
10
-22.175
20
-82.85
30
0
11
-26.35
21
-82.85
31
0
39
0
210
0
220
0
230
1
0
LINE
5
382
100
AcDbEntity
8
0
62
256
6
ByLayer
370
-2
48
1
60
0
100
AcDbLine
10
4.175
20
-82.85
30
0
11
8.35
21
-82.85
31
0
39
0
210
0
220
0
230
1
0
SOLID
5
383
100
AcDbEntity
8
0
62
256
6
ByLayer
370
-1
48
1
60
0
100
AcDbTrace
10
-22.175
20
-83.545833
30
0
11
-22.175
21
-82.154167
31
0
12
-18
22
-82.85
32
0
13
-18
23
-82.85
33
0
39
0
210
0
220
0
230
1
0
SOLID
5
384
100
AcDbEntity
8
0
62
256
6
ByLayer
370
-1
48
1
60
0
100
AcDbTrace
10
4.175
20
-82.154167
30
0
11
4.175
21
-83.545833
31
0
12
0
22
-82.85
32
0
13
0
23
-82.85
33
0
39
0
210
0
220
0
230
1
0
MTEXT
5
385
100
AcDbEntity
8
0
62
256
6
ByLayer
370
18
48
1
60
0
100
AcDbMText
10
-9
20
-73.45625
30
0
210
0
220
0
230
1
1
\A1;18
40
4.5
41
0
44
1
50
0
71
5
72
5
7
iso_b_vert
0
POINT
5
386
100
AcDbEntity
8
Defpoints
62
0
6
ByLayer
370
-1
48
1
60
0
100
AcDbPoint
10
-18
20
-25
30
0
39
0
210
0
220
0
230
1
50
360
0
POINT
5
387
100
AcDbEntity
8
Defpoints
62
0
6
ByLayer
370
-1
48
1
60
0
100
AcDbPoint
10
0
20
-34
30
0
39
0
210
0
220
0
230
1
50
360
0
POINT
5
388
100
AcDbEntity
8
Defpoints
62
0
6
ByLayer
370
-1
48
1
60
0
100
AcDbPoint
10
0
20
-82.85
30
0
39
0
210
0
220
0
230
1
50
360
0
ENDBLK
5
37E
100
AcDbEntity
8
0
100
AcDbBlockEnd
0
BLOCK
5
390
100
AcDbEntity
8
0
100
AcDbBlockBegin
2
_U1
70
0
10
0
20
0
30
0
3
_U1
0
MTEXT
5
38A
100
AcDbEntity
8
SK2
62
256
6
ByLayer
370
18
48
1
60
0
100
AcDbMText
10
-10.886828
20
-81.522328
30
0
210
0
220
0
230
1
1
\W0.5321;18
40
4.5
41
0
44
1.084337
50
0
71
7
72
5
7
iso_b_vert
0
LINE
5
38B
100
AcDbEntity
8
SK2
62
256
6
ByLayer
370
13
48
1
60
0
100
AcDbLine
10
-18
20
-26.5875
30
0
11
-18
21
-86.025
31
0
39
0
210
0
220
0
230
1
0
LINE
5
38C
100
AcDbEntity
8
SK2
62
256
6
ByLayer
370
13
48
1
60
0
100
AcDbLine
10
0
20
-35.5875
30
0
11
0
21
-86.025
31
0
39
0
210
0
220
0
230
1
0
LINE
5
38D
100
AcDbEntity
8
SK2
62
256
6
ByLayer
370
13
48
1
60
0
100
AcDbLine
10
-18
20
-82.85
30
0
11
0
21
-82.85
31
0
39
0
210
0
220
0
230
1
0
SOLID
5
38E
100
AcDbEntity
8
SK2
62
256
6
ByLayer
370
18
48
1
60
0
100
AcDbTrace
10
-18
20
-82.85
30
0
11
-13.825003
21
-81.924425
31
0
12
-13.824997
22
-83.775575
32
0
13
-13.824997
23
-83.775575
33
0
39
0
210
0
220
0
230
1
0
SOLID
5
38F
100
AcDbEntity
8
SK2
62
256
6
ByLayer
370
18
48
1
60
0
100
AcDbTrace
10
0
20
-82.85
30
0
11
-4.174997
21
-83.775575
31
0
12
-4.175003
22
-81.924425
32
0
13
-4.175003
23
-81.924425
33
0
39
0
210
0
220
0
230
1
0
ENDBLK
5
391
100
AcDbEntity
8
0
100
AcDbBlockEnd
0
BLOCK
5
396
100
AcDbEntity
8
0
100
AcDbBlockBegin
2
*D5
70
1
10
0
20
0
30
0
3
*D5
0
LINE
5
398
100
AcDbEntity
8
0
62
256
6
ByLayer
370
-2
48
1
60
0
100
AcDbLine
10
243
20
-25.5875
30
0
11
243
21
-76.025
31
0
39
0
210
0
220
0
230
1
0
LINE
5
399
100
AcDbEntity
8
0
62
256
6
ByLayer
370
-2
48
1
60
0
100
AcDbLine
10
17.5518
20
-35.5875
30
0
11
17.5518
21
-76.025
31
0
39
0
210
0
220
0
230
1
0
LINE
5
39A
100
AcDbEntity
8
0
62
256
6
ByLayer
370
-2
48
1
60
0
100
AcDbLine
10
238.825
20
-72.85
30
0
11
21.7268
21
-72.85
31
0
39
0
210
0
220
0
230
1
0
SOLID
5
39B
100
AcDbEntity
8
0
62
256
6
ByLayer
370
-1
48
1
60
0
100
AcDbTrace
10
238.825
20
-73.545833
30
0
11
238.825
21
-72.154167
31
0
12
243
22
-72.85
32
0
13
243
23
-72.85
33
0
39
0
210
0
220
0
230
1
0
SOLID
5
39C
100
AcDbEntity
8
0
62
256
6
ByLayer
370
-1
48
1
60
0
100
AcDbTrace
10
21.7268
20
-72.154167
30
0
11
21.7268
21
-73.545833
31
0
12
17.5518
22
-72.85
32
0
13
17.5518
23
-72.85
33
0
39
0
210
0
220
0
230
1
0
MTEXT
5
39D
100
AcDbEntity
8
0
62
256
6
ByLayer
370
18
48
1
60
0
100
AcDbMText
10
130.2759
20
-63.45625
30
0
210
0
220
0
230
1
1
\A1;225.4
40
4.5
41
0
44
1
50
0
71
5
72
5
7
iso_b_vert
0
POINT
5
39E
100
AcDbEntity
8
Defpoints
62
0
6
ByLayer
370
-1
48
1
60
0
100
AcDbPoint
10
243
20
-24
30
0
39
0
210
0
220
0
230
1
50
360
0
POINT
5
39F
100
AcDbEntity
8
Defpoints
62
0
6
ByLayer
370
-1
48
1
60
0
100
AcDbPoint
10
17.5518
20
-34
30
0
39
0
210
0
220
0
230
1
50
360
0
POINT
5
3A0
100
AcDbEntity
8
Defpoints
62
0
6
ByLayer
370
-1
48
1
60
0
100
AcDbPoint
10
17.5518
20
-72.85
30
0
39
0
210
0
220
0
230
1
50
360
0
ENDBLK
5
397
100
AcDbEntity
8
0
100
AcDbBlockEnd
0
BLOCK
5
3A8
100
AcDbEntity
8
0
100
AcDbBlockBegin
2
_U2
70
0
10
0
20
0
30
0
3
_U2
0
MTEXT
5
3A2
100
AcDbEntity
8
SK2
62
256
6
ByLayer
370
18
48
1
60
0
100
AcDbMText
10
123.31543
20
-71.522328
30
0
210
0
220
0
230
1
1
\W0.7607;225.4
40
4.5
41
0
44
1.084337
50
0
71
7
72
5
7
iso_b_vert
0
LINE
5
3A3
100
AcDbEntity
8
SK2
62
256
6
ByLayer
370
13
48
1
60
0
100
AcDbLine
10
243
20
-25.5875
30
0
11
243
21
-76.025
31
0
39
0
210
0
220
0
230
1
0
LINE
5
3A4
100
AcDbEntity
8
SK2
62
256
6
ByLayer
370
13
48
1
60
0
100
AcDbLine
10
17.5518
20
-35.5875
30
0
11
17.5518
21
-76.025
31
0
39
0
210
0
220
0
230
1
0
LINE
5
3A5
100
AcDbEntity
8
SK2
62
256
6
ByLayer
370
13
48
1
60
0
100
AcDbLine
10
243
20
-72.85
30
0
11
17.5518
21
-72.85
31
0
39
0
210
0
220
0
230
1
0
SOLID
5
3A6
100
AcDbEntity
8
SK2
62
256
6
ByLayer
370
18
48
1
60
0
100
AcDbTrace
10
243
20
-72.85
30
0
11
238.825003
21
-73.775575
31
0
12
238.824997
22
-71.924425
32
0
13
238.824997
23
-71.924425
33
0
39
0
210
0
220
0
230
1
0
SOLID
5
3A7
100
AcDbEntity
8
SK2
62
256
6
ByLayer
370
18
48
1
60
0
100
AcDbTrace
10
17.5518
20
-72.85
30
0
11
21.726797
21
-71.924425
31
0
12
21.726803
22
-73.775575
32
0
13
21.726803
23
-73.775575
33
0
39
0
210
0
220
0
230
1
0
ENDBLK
5
3A9
100
AcDbEntity
8
0
100
AcDbBlockEnd
0
BLOCK
5
3AE
100
AcDbEntity
8
0
100
AcDbBlockBegin
2
*D7
70
1
10
0
20
0
30
0
3
*D7
0
LINE
5
3B0
100
AcDbEntity
8
0
62
256
6
ByLayer
370
-2
48
1
60
0
100
AcDbLine
10
46
20
-25.5875
30
0
11
46
21
-66.025
31
0
39
0
210
0
220
0
230
1
0
LINE
5
3B1
100
AcDbEntity
8
0
62
256
6
ByLayer
370
-2
48
1
60
0
100
AcDbLine
10
243
20
-25.5875
30
0
11
243
21
-66.025
31
0
39
0
210
0
220
0
230
1
0
LINE
5
3B2
100
AcDbEntity
8
0
62
256
6
ByLayer
370
-2
48
1
60
0
100
AcDbLine
10
50.175
20
-62.85
30
0
11
238.825
21
-62.85
31
0
39
0
210
0
220
0
230
1
0
SOLID
5
3B3
100
AcDbEntity
8
0
62
256
6
ByLayer
370
-1
48
1
60
0
100
AcDbTrace
10
50.175
20
-62.154167
30
0
11
50.175
21
-63.545833
31
0
12
46
22
-62.85
32
0
13
46
23
-62.85
33
0
39
0
210
0
220
0
230
1
0
SOLID
5
3B4
100
AcDbEntity
8
0
62
256
6
ByLayer
370
-1
48
1
60
0
100
AcDbTrace
10
238.825
20
-63.545833
30
0
11
238.825
21
-62.154167
31
0
12
243
22
-62.85
32
0
13
243
23
-62.85
33
0
39
0
210
0
220
0
230
1
0
MTEXT
5
3B5
100
AcDbEntity
8
0
62
256
6
ByLayer
370
18
48
1
60
0
100
AcDbMText
10
144.5
20
-53.45625
30
0
210
0
220
0
230
1
1
\A1;197
40
4.5
41
0
44
1
50
0
71
5
72
5
7
iso_b_vert
0
POINT
5
3B6
100
AcDbEntity
8
Defpoints
62
0
6
ByLayer
370
-1
48
1
60
0
100
AcDbPoint
10
46
20
-24
30
0
39
0
210
0
220
0
230
1
50
360
0
POINT
5
3B7
100
AcDbEntity
8
Defpoints
62
0
6
ByLayer
370
-1
48
1
60
0
100
AcDbPoint
10
243
20
-24
30
0
39
0
210
0
220
0
230
1
50
360
0
POINT
5
3B8
100
AcDbEntity
8
Defpoints
62
0
6
ByLayer
370
-1
48
1
60
0
100
AcDbPoint
10
243
20
-62.85
30
0
39
0
210
0
220
0
230
1
50
360
0
ENDBLK
5
3AF
100
AcDbEntity
8
0
100
AcDbBlockEnd
0
BLOCK
5
3C0
100
AcDbEntity
8
0
100
AcDbBlockBegin
2
_U3
70
0
10
0
20
0
30
0
3
_U3
0
MTEXT
5
3BA
100
AcDbEntity
8
SK2
62
256
6
ByLayer
370
18
48
1
60
0
100
AcDbMText
10
140.931801
20
-61.522328
30
0
210
0
220
0
230
1
1
\W0.6217;197
40
4.5
41
0
44
1.084337
50
0
71
7
72
5
7
iso_b_vert
0
LINE
5
3BB
100
AcDbEntity
8
SK2
62
256
6
ByLayer
370
13
48
1
60
0
100
AcDbLine
10
46
20
-25.5875
30
0
11
46
21
-66.025
31
0
39
0
210
0
220
0
230
1
0
LINE
5
3BC
100
AcDbEntity
8
SK2
62
256
6
ByLayer
370
13
48
1
60
0
100
AcDbLine
10
243
20
-25.5875
30
0
11
243
21
-66.025
31
0
39
0
210
0
220
0
230
1
0
LINE
5
3BD
100
AcDbEntity
8
SK2
62
256
6
ByLayer
370
13
48
1
60
0
100
AcDbLine
10
46
20
-62.85
30
0
11
243
21
-62.85
31
0
39
0
210
0
220
0
230
1
0
SOLID
5
3BE
100
AcDbEntity
8
SK2
62
256
6
ByLayer
370
18
48
1
60
0
100
AcDbTrace
10
46
20
-62.85
30
0
11
50.174997
21
-61.924425
31
0
12
50.175003
22
-63.775575
32
0
13
50.175003
23
-63.775575
33
0
39
0
210
0
220
0
230
1
0
SOLID
5
3BF
100
AcDbEntity
8
SK2
62
256
6
ByLayer
370
18
48
1
60
0
100
AcDbTrace
10
243
20
-62.85
30
0
11
238.825003
21
-63.775575
31
0
12
238.824997
22
-61.924425
32
0
13
238.824997
23
-61.924425
33
0
39
0
210
0
220
0
230
1
0
ENDBLK
5
3C1
100
AcDbEntity
8
0
100
AcDbBlockEnd
0
BLOCK
5
3C6
100
AcDbEntity
8
0
100
AcDbBlockBegin
2
*D9
70
1
10
0
20
0
30
0
3
*D9
0
LINE
5
3C8
100
AcDbEntity
8
0
62
256
6
ByLayer
370
-2
48
1
60
0
100
AcDbLine
10
241.7234
20
-13.5875
30
0
11
241.7234
21
-56.025
31
0
39
0
210
0
220
0
230
1
0
LINE
5
3C9
100
AcDbEntity
8
0
62
256
6
ByLayer
370
-2
48
1
60
0
100
AcDbLine
10
243
20
-1.5875
30
0
11
243
21
-56.025
31
0
39
0
210
0
220
0
230
1
0
LINE
5
3CA
100
AcDbEntity
8
0
62
256
6
ByLayer
370
-2
48
1
60
0
100
AcDbLine
10
243
20
-52.85
30
0
11
278.708929
21
-52.85
31
0
39
0
210
0
220
0
230
1
0
LINE
5
3CB
100
AcDbEntity
8
0
62
256
6
ByLayer
370
-2
48
1
60
0
100
AcDbLine
10
237.5484
20
-52.85
30
0
11
233.3734
21
-52.85
31
0
39
0
210
0
220
0
230
1
0
LINE
5
3CC
100
AcDbEntity
8
0
62
256
6
ByLayer
370
-2
48
1
60
0
100
AcDbLine
10
247.175
20
-52.85
30
0
11
251.35
21
-52.85
31
0
39
0
210
0
220
0
230
1
0
SOLID
5
3CD
100
AcDbEntity
8
0
62
256
6
ByLayer
370
-1
48
1
60
0
100
AcDbTrace
10
237.5484
20
-53.545833
30
0
11
237.5484
21
-52.154167
31
0
12
241.7234
22
-52.85
32
0
13
241.7234
23
-52.85
33
0
39
0
210
0
220
0
230
1
0
SOLID
5
3CE
100
AcDbEntity
8
0
62
256
6
ByLayer
370
-1
48
1
60
0
100
AcDbTrace
10
247.175
20
-52.154167
30
0
11
247.175
21
-53.545833
31
0
12
243
22
-52.85
32
0
13
243
23
-52.85
33
0
39
0
210
0
220
0
230
1
0
MTEXT
5
3CF
100
AcDbEntity
8
0
62
256
6
ByLayer
370
18
48
1
60
0
100
AcDbMText
10
265.029464
20
-43.45625
30
0
210
0
220
0
230
1
1
\A1;1.28
40
4.5
41
0
44
1
50
0
71
5
72
5
7
iso_b_vert
0
POINT
5
3D0
100
AcDbEntity
8
Defpoints
62
0
6
ByLayer
370
-1
48
1
60
0
100
AcDbPoint
10
241.7234
20
-12
30
0
39
0
210
0
220
0
230
1
50
360
0
POINT
5
3D1
100
AcDbEntity
8
Defpoints
62
0
6
ByLayer
370
-1
48
1
60
0
100
AcDbPoint
10
243
20
0
30
0
39
0
210
0
220
0
230
1
50
360
0
POINT
5
3D2
100
AcDbEntity
8
Defpoints
62
0
6
ByLayer
370
-1
48
1
60
0
100
AcDbPoint
10
243
20
-52.85
30
0
39
0
210
0
220
0
230
1
50
360
0
ENDBLK
5
3C7
100
AcDbEntity
8
0
100
AcDbBlockEnd
0
BLOCK
5
3DA
100
AcDbEntity
8
0
100
AcDbBlockBegin
2
_U4
70
0
10
0
20
0
30
0
3
_U4
0
MTEXT
5
3D4
100
AcDbEntity
8
2
62
256
6
ByLayer
370
18
48
1
60
0
100
AcDbMText
10
255.351
20
-51.522328
30
0
210
0
220
0
230
1
1
\W0.6563;1.28
40
4.5
41
0
44
1.084337
50
0
71
7
72
5
7
iso_b_vert
0
LINE
5
3D5
100
AcDbEntity
8
2
62
256
6
ByLayer
370
13
48
1
60
0
100
AcDbLine
10
241.7234
20
-13.5875
30
0
11
241.7234
21
-56.025
31
0
39
0
210
0
220
0
230
1
0
LINE
5
3D6
100
AcDbEntity
8
2
62
256
6
ByLayer
370
13
48
1
60
0
100
AcDbLine
10
243
20
-1.5875
30
0
11
243
21
-56.025
31
0
39
0
210
0
220
0
230
1
0
LINE
5
3D7
100
AcDbEntity
8
2
62
256
6
ByLayer
370
13
48
1
60
0
100
AcDbLine
10
264.549041
20
-52.85
30
0
11
230.4734
21
-52.85
31
0
39
0
210
0
220
0
230
1
0
SOLID
5
3D8
100
AcDbEntity
8
2
62
256
6
ByLayer
370
18
48
1
60
0
100
AcDbTrace
10
241.7234
20
-52.85
30
0
11
237.548403
21
-53.775575
31
0
12
237.548397
22
-51.924425
32
0
13
237.548397
23
-51.924425
33
0
39
0
210
0
220
0
230
1
0
SOLID
5
3D9
100
AcDbEntity
8
2
62
256
6
ByLayer
370
18
48
1
60
0
100
AcDbTrace
10
243
20
-52.85
30
0
11
247.174997
21
-51.924425
31
0
12
247.175003
22
-53.775575
32
0
13
247.175003
23
-53.775575
33
0
39
0
210
0
220
0
230
1
0
ENDBLK
5
3DB
100
AcDbEntity
8
0
100
AcDbBlockEnd
0
ENDSEC
0
SECTION
2
ENTITIES
0
ARC
5
18D
100
AcDbEntity
8
SK1
62
256
6
ByLayer
370
13
48
1
60
0
100
AcDbCircle
39
0
10
-0.3
20
25.4
30
0
40
0.600000000000001
210
0
220
0
230
1
100
AcDbArc
50
270
51
300
0
ARC
5
18E
100
AcDbEntity
8
SK1
62
256
6
ByLayer
370
13
48
1
60
0
100
AcDbCircle
39
0
10
-0.3
20
-25.4
30
0
40
0.600000000000001
210
0
220
0
230
1
100
AcDbArc
50
60
51
90
0
ARC
5
18F
100
AcDbEntity
8
1
62
256
6
ByLayer
370
13
48
1
60
0
100
AcDbCircle
39
0
10
7.5
20
-30
30
0
40
0.5
210
0
220
0
230
1
100
AcDbArc
50
90
51
180
0
ARC
5
190
100
AcDbEntity
8
1
62
256
6
ByLayer
370
13
48
1
60
0
100
AcDbCircle
39
0
10
7.5
20
30
30
0
40
0.5
210
0
220
0
230
1
100
AcDbArc
50
180
51
270
0
ARC
5
191
100
AcDbEntity
8
1
62
256
6
ByLayer
370
13
48
1
60
0
100
AcDbCircle
39
0
10
239.546286
20
22.502291
30
0
40
0.2
210
0
220
0
230
1
100
AcDbArc
50
8.974534
51
93
0
ARC
5
192
100
AcDbEntity
8
1
62
256
6
ByLayer
370
13
48
1
60
0
100
AcDbCircle
39
0
10
239.692333
20
9.681192
30
0
40
0.2
210
0
220
0
230
1
100
AcDbArc
50
273
51
352.543899
0
ARC
5
193
100
AcDbEntity
8
1
62
256
6
ByLayer
370
13
48
1
60
0
100
AcDbCircle
39
0
10
226.925347
20
21.606287
30
0
40
0.2
210
0
220
0
230
1
100
AcDbArc
50
76.847115
51
93
0
ARC
5
194
100
AcDbEntity
8
1
62
256
6
ByLayer
370
13
48
1
60
0
100
AcDbCircle
39
0
10
227.071393
20
8.785188
30
0
40
0.2
210
0
220
0
230
1
100
AcDbArc
50
273
51
304.880681
0
ELLIPSE
5
195
100
AcDbEntity
8
1
62
256
6
ByLayer
370
18
48
1
60
0
100
AcDbEllipse
10
234.452799
20
14.961024
30
0
11
-0.177667934094655
21
-0.351309387092729
31
0
210
0
220
0
230
1
40
0.48867
41
-2.8550417777775
42
-1.57317835191982
0
ELLIPSE
5
196
100
AcDbEntity
8
1
62
256
6
ByLayer
370
18
48
1
60
0
100
AcDbEllipse
10
233.136653
20
15.634716
30
0
11
0.0675290843402662
21
-1.28853168869383
31
0
210
0
220
0
230
1
40
0.995725
41
-0.773927979467122
42
0
0
ELLIPSE
5
197
100
AcDbEntity
8
1
62
256
6
ByLayer
370
18
48
1
60
0
100
AcDbEllipse
10
233.208142
20
15.638462
30
0
11
-0.149157475292401
21
2.84609417405054
31
0
210
0
220
0
230
1
40
0.995725
41
9.2516345868695E-05
42
3.14158693516111
0
ELLIPSE
5
198
100
AcDbEntity
8
1
62
256
6
ByLayer
370
18
48
1
60
0
100
AcDbEllipse
10
233.136653
20
15.634716
30
0
11
-0.0675290843402755
21
1.28853168869383
31
0
210
0
220
0
230
1
40
0.995725
41
-3.03890209425327
42
-2.09439510239319
0
ELLIPSE
5
199
100
AcDbEntity
8
1
62
256
6
ByLayer
370
18
48
1
60
0
100
AcDbEllipse
10
233.941404
20
14.390466
30
0
11
-0.328810806111018
21
-0.214953577526567
31
0
210
0
220
0
230
1
40
0.490768
41
0.673401308867989
42
-2.94809584055985
0
ELLIPSE
5
19A
100
AcDbEntity
8
1
62
256
6
ByLayer
370
18
48
1
60
0
100
AcDbEllipse
10
234.452799
20
14.961024
30
0
11
-0.177667934098411
21
-0.351309387093985
31
0
210
0
220
0
230
1
40
0.48867
41
-1.57317835190385
42
-0.291314926053045
0
ELLIPSE
5
19B
100
AcDbEntity
8
1
62
256
6
ByLayer
370
18
48
1
60
0
100
AcDbEllipse
10
233.059023
20
17.115983
30
0
11
-0.391877312291819
21
-0.0205374196877877
31
0
210
0
220
0
230
1
40
0.491826
41
0.288932900934398
42
1.5707963267949
0
ELLIPSE
5
19C
100
AcDbEntity
8
1
62
256
6
ByLayer
370
18
48
1
60
0
100
AcDbEllipse
10
233.281937
20
15.64233
30
0
11
0.0877359970456654
21
-1.67410255206257
31
0
210
0
220
0
230
1
40
0.995725
41
-0.523598775598277
42
0.523598775598317
0
ELLIPSE
5
19D
100
AcDbEntity
8
1
62
256
6
ByLayer
370
18
48
1
60
0
100
AcDbEllipse
10
233.806936
20
16.956269
30
0
11
-0.349478313243819
21
0.179405951069344
31
0
210
0
220
0
230
1
40
0.490768
41
2.94809584056007
42
-0.625095735375674
0
ELLIPSE
5
19E
100
AcDbEntity
8
1
62
256
6
ByLayer
370
18
48
1
60
0
100
AcDbEllipse
10
233.136653
20
15.634716
30
0
11
0.0675290843402662
21
-1.28853168869383
31
0
210
0
220
0
230
1
40
0.995725
41
3.14159265358979
42
-2.34982975905692
0
ELLIPSE
5
19F
100
AcDbEntity
8
1
62
256
6
ByLayer
370
18
48
1
60
0
100
AcDbEllipse
10
232.331902
20
16.878966
30
0
11
-0.328810806111004
21
-0.214953577526581
31
0
210
0
220
0
230
1
40
0.490768
41
2.94329838355301
42
-2.46819100314322
0
ELLIPSE
5
1A0
100
AcDbEntity
8
1
62
256
6
ByLayer
370
18
48
1
60
0
100
AcDbEllipse
10
233.136653
20
15.634716
30
0
11
0.0675290843402662
21
-1.28853168869383
31
0
210
0
220
0
230
1
40
0.995725
41
2.0943951023932
42
3.14159265358979
0
ELLIPSE
5
1A1
100
AcDbEntity
8
1
62
256
6
ByLayer
370
18
48
1
60
0
100
AcDbEllipse
10
233.281937
20
15.64233
30
0
11
0.0877359970456654
21
-1.67410255206257
31
0
210
0
220
0
230
1
40
0.995725
41
1.5707963267949
42
2.61799387799145
0
ELLIPSE
5
1A2
100
AcDbEntity
8
1
62
256
6
ByLayer
370
18
48
1
60
0
100
AcDbEllipse
10
233.281937
20
15.64233
30
0
11
-0.094204721237306
21
1.79753316255823
31
0
210
0
220
0
230
1
40
0.995725
41
0
42
6.28318530717959
0
ELLIPSE
5
1A3
100
AcDbEntity
8
1
62
256
6
ByLayer
370
18
48
1
60
0
100
AcDbEllipse
10
233.281937
20
15.64233
30
0
11
0.0877359970456654
21
-1.67410255206257
31
0
210
0
220
0
230
1
40
0.995725
41
2.61799387799145
42
-2.61799387799148
0
ELLIPSE
5
1A4
100
AcDbEntity
8
1
62
256
6
ByLayer
370
18
48
1
60
0
100
AcDbEllipse
10
233.274632
20
15.641947
30
0
11
-0.149157475292401
21
2.84609417405054
31
0
210
0
220
0
230
1
40
0.995725
41
0
42
6.28318530717959
0
ELLIPSE
5
1A5
100
AcDbEntity
8
1
62
256
6
ByLayer
370
18
48
1
60
0
100
AcDbEllipse
10
233.136653
20
15.634716
30
0
11
0.0675290843402662
21
-1.28853168869383
31
0
210
0
220
0
230
1
40
0.995725
41
-1.89415109854867
42
-1.23150380240864
0
ELLIPSE
5
1A6
100
AcDbEntity
8
1
62
256
6
ByLayer
370
18
48
1
60
0
100
AcDbEllipse
10
234.611687
20
15.712019
30
0
11
-0.0206256003553462
21
0.393559899646787
31
0
210
0
220
0
230
1
40
0.48763
41
-2.94566969474615
42
-0.320422399685877
0
ELLIPSE
5
1A7
100
AcDbEntity
8
1
62
256
6
ByLayer
370
18
48
1
60
0
100
AcDbEllipse
10
232.46637
20
14.313163
30
0
11
-0.349478313243821
21
0.179405951069346
31
0
210
0
220
0
230
1
40
0.490768
41
2.51649656479997
42
-2.9432983835532
0
ELLIPSE
5
1A8
100
AcDbEntity
8
1
62
256
6
ByLayer
370
18
48
1
60
0
100
AcDbEllipse
10
234.375169
20
16.442291
30
0
11
-0.213416480921196
21
0.3308135213852
31
0
210
0
220
0
230
1
40
0.48867
41
0.291314926058162
42
1.57317835193155
0
ELLIPSE
5
1A9
100
AcDbEntity
8
1
62
256
6
ByLayer
370
18
48
1
60
0
100
AcDbEllipse
10
233.281937
20
15.64233
30
0
11
0.0877359970456654
21
-1.67410255206257
31
0
210
0
220
0
230
1
40
0.995725
41
-1.5707963267949
42
-0.523598775598277
0
ELLIPSE
5
1AA
100
AcDbEntity
8
1
62
256
6
ByLayer
370
18
48
1
60
0
100
AcDbEllipse
10
234.375169
20
16.442291
30
0
11
-0.21341648092621
21
0.330813521387778
31
0
210
0
220
0
230
1
40
0.48867
41
1.57317835191571
42
2.85504177777631
0
ELLIPSE
5
1AB
100
AcDbEntity
8
1
62
256
6
ByLayer
370
18
48
1
60
0
100
AcDbEllipse
10
233.281937
20
15.64233
30
0
11
0.0877359970456654
21
-1.67410255206257
31
0
210
0
220
0
230
1
40
0.995725
41
-2.61799387799148
42
-1.5707963267949
0
ELLIPSE
5
1AC
100
AcDbEntity
8
1
62
256
6
ByLayer
370
18
48
1
60
0
100
AcDbEllipse
10
233.281937
20
15.64233
30
0
11
0.0877359970456654
21
-1.67410255206257
31
0
210
0
220
0
230
1
40
0.995725
41
0.523598775598317
42
1.5707963267949
0
ELLIPSE
5
1AD
100
AcDbEntity
8
1
62
256
6
ByLayer
370
18
48
1
60
0
100
AcDbEllipse
10
233.136653
20
15.634716
30
0
11
0.0675290843402662
21
-1.28853168869383
31
0
210
0
220
0
230
1
40
0.995725
41
1.0471975511966
42
2.09439510239319
0
ELLIPSE
5
1AE
100
AcDbEntity
8
1
62
256
6
ByLayer
370
18
48
1
60
0
100
AcDbEllipse
10
233.214283
20
14.153448
30
0
11
-0.391877312294959
21
-0.0205374196878605
31
0
210
0
220
0
230
1
40
0.491826
41
-1.5707963267949
42
-0.288932900932996
0
ELLIPSE
5
1AF
100
AcDbEntity
8
1
62
256
6
ByLayer
370
18
48
1
60
0
100
AcDbEllipse
10
234.204527
20
-6.200185
30
0
11
2
21
0
31
0
210
0
220
0
230
1
40
0.994521
41
0.436681542936054
42
3.00513001154808
0
ELLIPSE
5
1B0
100
AcDbEntity
8
1
62
256
6
ByLayer
370
18
48
1
60
0
100
AcDbEllipse
10
234.204527
20
-6.147918
30
0
11
-1.5
21
1.51595858262354E-15
31
0
210
0
220
0
230
1
40
0.994521
41
-3.06982708713747
42
0
0
ELLIPSE
5
1B1
100
AcDbEntity
8
1
62
256
6
ByLayer
370
18
48
1
60
0
100
AcDbEllipse
10
234.204527
20
-6.147918
30
0
11
-1.5
21
1.51595858262354E-15
31
0
210
0
220
0
230
1
40
0.994521
41
0
42
0.284510636387446
0
ELLIPSE
5
1B2
100
AcDbEntity
8
1
62
256
6
ByLayer
370
18
48
1
60
0
100
AcDbEllipse
10
234.204527
20
-6.93629
30
0
11
-2.34999999999999
21
2.37500177944354E-15
31
0
210
0
220
0
230
1
40
0.994521
41
-0.637350470410203
42
-0.501869227646242
0
ELLIPSE
5
1B3
100
AcDbEntity
8
1
62
256
6
ByLayer
370
18
48
1
60
0
100
AcDbEllipse
10
234.204527
20
-7.039622
30
0
11
-2.35
21
2.37500177944355E-15
31
0
210
0
220
0
230
1
40
0.994521
41
-0.598375112817311
42
-0.527296421736255
0
ELLIPSE
5
1B4
100
AcDbEntity
8
1
62
256
6
ByLayer
370
13
48
1
60
0
100
AcDbEllipse
10
224.638498
20
22.330067
30
0
11
-0.0435637040686544
21
-0.259139630107241
31
0
210
0
220
0
230
1
40
0.947521
41
-2.83343967206679
42
-2.19739446863561
0
ELLIPSE
5
1B5
100
AcDbEntity
8
1
62
256
6
ByLayer
370
13
48
1
60
0
100
AcDbEllipse
10
239.546286
20
22.502291
30
0
11
0.0104671912485881
21
-0.199725906950915
31
0
210
0
220
0
230
1
40
0.995725
41
3.14157394909814
42
-2.5870894781377
0
ELLIPSE
5
1B6
100
AcDbEntity
8
1
62
256
6
ByLayer
370
13
48
1
60
0
100
AcDbEllipse
10
226.296351
20
7.563808
30
0
11
-0.145139532363183
21
0.0378750068699217
31
0
210
0
220
0
230
1
40
0.028078
41
1.48264787473431
42
3.05344420152625
0
ELLIPSE
5
1B7
100
AcDbEntity
8
1
62
256
6
ByLayer
370
13
48
1
60
0
100
AcDbEllipse
10
242.134962
20
16.206434
30
0
11
-0.0287847759336212
21
0.549246244115015
31
0
210
0
220
0
230
1
40
0.995725
41
-1.75405589825437
42
-1.46607657167527
0
ELLIPSE
5
1B8
100
AcDbEntity
8
1
62
256
6
ByLayer
370
13
48
1
60
0
100
AcDbEllipse
10
227.071393
20
8.785188
30
0
11
0.114373860316034
21
-0.164068949153727
31
0
210
0
220
0
230
1
40
0.07853
41
3.3501363439583E-05
42
1.52199123907656
0
ELLIPSE
5
1B9
100
AcDbEntity
8
1
62
256
6
ByLayer
370
13
48
1
60
0
100
AcDbEllipse
10
241.045628
20
23.221845
30
0
11
0.036635169370058
21
-0.699040674328197
31
0
210
0
220
0
230
1
40
0.995725
41
1.67551608191533
42
3.06423017113149
0
ELLIPSE
5
1BA
100
AcDbEntity
8
1
62
256
6
ByLayer
370
13
48
1
60
0
100
AcDbEllipse
10
240.31092
20
23.724957
30
0
11
0.0127690523125577
21
-0.243648032548682
31
0
210
0
220
0
230
1
40
0.995725
41
-2.96705972838955
42
-1.87965793449012
0
ELLIPSE
5
1BB
100
AcDbEntity
8
1
62
256
6
ByLayer
370
13
48
1
60
0
100
AcDbEllipse
10
226.085272
20
15.029273
30
0
11
-0.197551554484215
21
-0.0311990916673926
31
0
210
0
220
0
230
1
40
0.009655
41
0.0919985744772859
42
1.6627949012688
0
ELLIPSE
5
1BC
100
AcDbEntity
8
1
62
256
6
ByLayer
370
13
48
1
60
0
100
AcDbEllipse
10
240.059135
20
16.181067
30
0
11
-0.0261679781214738
21
0.499314767377287
31
0
210
0
220
0
230
1
40
0.995725
41
-1.7540558982542
42
-1.46607657167521
0
ELLIPSE
5
1BD
100
AcDbEntity
8
1
62
256
6
ByLayer
370
13
48
1
60
0
100
AcDbEllipse
10
227.404162
20
23.670713
30
0
11
-0.094204721237306
21
1.79753316255823
31
0
210
0
220
0
230
1
40
0.995725
41
2.74104825906052
42
3.14159265358891
0
ELLIPSE
5
1BE
100
AcDbEntity
8
1
62
256
6
ByLayer
370
13
48
1
60
0
100
AcDbEllipse
10
239.546286
20
22.502291
30
0
11
-0.197551554484215
21
-0.0311990916673926
31
0
210
0
220
0
230
1
40
0.009655
41
1.66279490126866
42
-3.14146319864011
0
ELLIPSE
5
1BF
100
AcDbEntity
8
1
62
256
6
ByLayer
370
13
48
1
60
0
100
AcDbEllipse
10
240.358082
20
23.760444
30
0
11
-0.00653729335064164
21
0.149857478277354
31
0
210
0
220
0
230
1
40
0.092367
41
0.000809536047835613
42
1.57160586284002
0
ELLIPSE
5
1C0
100
AcDbEntity
8
1
62
256
6
ByLayer
370
13
48
1
60
0
100
AcDbEllipse
10
226.02195
20
7.516587
30
0
11
0.00653729335064122
21
-0.149857478277354
31
0
210
0
220
0
230
1
40
0.092367
41
-1.56998679074977
42
0.000809536043604682
0
ELLIPSE
5
1C1
100
AcDbEntity
8
1
62
256
6
ByLayer
370
13
48
1
60
0
100
AcDbEllipse
10
226.306759
20
7.562522
30
0
11
0.0127690523125577
21
-0.243648032548682
31
0
210
0
220
0
230
1
40
0.995725
41
0.174532925198721
42
1.26193471909808
0
ELLIPSE
5
1C2
100
AcDbEntity
8
1
62
256
6
ByLayer
370
13
48
1
60
0
100
AcDbEllipse
10
225.572052
20
8.065634
30
0
11
0.036635169370058
21
-0.699040674328197
31
0
210
0
220
0
230
1
40
0.995725
41
-1.4660765716761
42
-0.0773624824599384
0
ELLIPSE
5
1C3
100
AcDbEntity
8
1
62
256
6
ByLayer
370
13
48
1
60
0
100
AcDbEllipse
10
225.733221
20
15.218272
30
0
11
-0.148731686424787
21
0.0194649801756601
31
0
210
0
220
0
230
1
40
0.016833
41
1.4798342364841
42
3.05063056327851
0
ELLIPSE
5
1C4
100
AcDbEntity
8
1
62
256
6
ByLayer
370
13
48
1
60
0
100
AcDbEllipse
10
225.774346
20
16.262929
30
0
11
0.46579001056217
21
-8.88780285931571
31
0
210
0
220
0
230
1
40
0.995725
41
-0.077362482460022
42
-0.0273572726612964
0
ELLIPSE
5
1C5
100
AcDbEntity
8
1
62
256
6
ByLayer
370
13
48
1
60
0
100
AcDbEllipse
10
240.040686
20
16.1801
30
0
11
0.0366351693700583
21
-0.699040674328202
31
0
210
0
220
0
230
1
40
0.995725
41
1.38753675533556
42
1.6755160819146
0
ELLIPSE
5
1C6
100
AcDbEntity
8
1
62
256
6
ByLayer
370
13
48
1
60
0
100
AcDbEllipse
10
228.270944
20
7.04329
30
0
11
-0.0994383168616005
21
1.89739611603369
31
0
210
0
220
0
230
1
40
0.995725
41
0.761807904943232
42
1.26193471909896
0
ELLIPSE
5
1C7
100
AcDbEntity
8
1
62
256
6
ByLayer
370
13
48
1
60
0
100
AcDbEllipse
10
241.874155
20
9.887756
30
0
11
-0.0235312926467056
21
0.14814276312522
31
0
210
0
220
0
230
1
40
0.091865
41
1.56109981835206
42
3.13189614514058
0
ELLIPSE
5
1C8
100
AcDbEntity
8
1
62
256
6
ByLayer
370
13
48
1
60
0
100
AcDbEllipse
10
226.928933
20
23.645808
30
0
11
-1.72936595005484
21
1.21940905087073
31
0
210
0
220
0
230
1
40
0.74335
41
1.16175109669575
42
1.98390815207619
0
ELLIPSE
5
1C9
100
AcDbEntity
8
1
62
256
6
ByLayer
370
13
48
1
60
0
100
AcDbEllipse
10
240.312104
20
23.723187
30
0
11
0.145139532363181
21
-0.0378750068699277
31
0
210
0
220
0
230
1
40
0.028078
41
3.05344420152922
42
-1.65894477885533
0
ELLIPSE
5
1CA
100
AcDbEntity
8
1
62
256
6
ByLayer
370
13
48
1
60
0
100
AcDbEllipse
10
227.071393
20
8.785188
30
0
11
0.197551554484217
21
0.031199091667379
31
0
210
0
220
0
230
1
40
0.009655
41
-3.0495940791162
42
-1.47879775232099
0
ELLIPSE
5
1CB
100
AcDbEntity
8
1
62
256
6
ByLayer
370
13
48
1
60
0
100
AcDbEllipse
10
226.24819
20
7.576504
30
0
11
0.010467191248588
21
-0.199725906950916
31
0
210
0
220
0
230
1
40
0.995725
41
0.0114035669057611
42
1.26193471909919
0
ELLIPSE
5
1CC
100
AcDbEntity
8
1
62
256
6
ByLayer
370
13
48
1
60
0
100
AcDbEllipse
10
242.153411
20
16.207401
30
0
11
0.0366351693700582
21
-0.699040674328201
31
0
210
0
220
0
230
1
40
0.995725
41
1.38753675533626
42
1.67551608191537
0
ELLIPSE
5
1CD
100
AcDbEntity
8
1
62
256
6
ByLayer
370
13
48
1
60
0
100
AcDbEllipse
10
239.969881
20
9.534652
30
0
11
0.00523359562429489
21
-0.0998629534754737
31
0
210
0
220
0
230
1
40
0.995725
41
-6.34410669295428E-06
42
0.104719755120548
0
ELLIPSE
5
1CE
100
AcDbEntity
8
1
62
256
6
ByLayer
370
13
48
1
60
0
100
AcDbEllipse
10
240.346428
20
23.709767
30
0
11
-0.00261679781214743
21
0.0499314767377296
31
0
210
0
220
0
230
1
40
0.995725
41
-0.00872664625923374
42
1.26193471909935
0
ELLIPSE
5
1CF
100
AcDbEntity
8
1
62
256
6
ByLayer
370
13
48
1
60
0
100
AcDbEllipse
10
240.534309
20
16.114727
30
0
11
0.198308915233049
21
-0.0259533069008805
31
0
210
0
220
0
230
1
40
0.016833
41
0.000152472672332666
42
1.47983423648418
0
ELLIPSE
5
1D0
100
AcDbEntity
8
1
62
256
6
ByLayer
370
13
48
1
60
0
100
AcDbEllipse
10
226.609646
20
23.629075
30
0
11
-2.21586767023465
21
1.36412169605799
31
0
210
0
220
0
230
1
40
0.479615
41
1.27243187598136
42
1.31166512597253
0
ELLIPSE
5
1D1
100
AcDbEntity
8
1
62
256
6
ByLayer
370
13
48
1
60
0
100
AcDbEllipse
10
240.532407
20
16.258206
30
0
11
0.197551554484217
21
0.031199091667379
31
0
210
0
220
0
230
1
40
0.009655
41
-1.47879775232156
42
0.000129454905526467
0
ELLIPSE
5
1D2
100
AcDbEntity
8
1
62
256
6
ByLayer
370
13
48
1
60
0
100
AcDbEllipse
10
226.580523
20
21.692498
30
0
11
-0.0427993177760196
21
-0.158580925146217
31
0
210
0
220
0
230
1
40
0.080206
41
-3.11537766648162
42
-1.5445813396315
0
ELLIPSE
5
1D3
100
AcDbEntity
8
1
62
256
6
ByLayer
370
13
48
1
60
0
100
AcDbEllipse
10
238.583174
20
24.256582
30
0
11
-2.0611418994321
21
-1.58827108276401
31
0
210
0
220
0
230
1
40
0.479615
41
1.82992793875804
42
1.86916115260974
0
ELLIPSE
5
1D4
100
AcDbEntity
8
1
62
256
6
ByLayer
370
13
48
1
60
0
100
AcDbEllipse
10
239.692333
20
9.681192
30
0
11
0.0104671912485881
21
-0.199725906950915
31
0
210
0
220
0
230
1
40
0.995725
41
-0.28077821208662
42
2.11747654618344E-05
0
ELLIPSE
5
1D5
100
AcDbEntity
8
1
62
256
6
ByLayer
370
13
48
1
60
0
100
AcDbEllipse
10
225.026546
20
7.979475
30
0
11
-0.148163665863161
21
-0.0233993187505444
31
0
210
0
220
0
230
1
40
0.009655
41
-1.47879775232147
42
-0.264793552091357
0
ELLIPSE
5
1D6
100
AcDbEntity
8
1
62
256
6
ByLayer
370
13
48
1
60
0
100
AcDbEllipse
10
226.576993
20
15.107379
30
0
11
0.0366351693700583
21
-0.699040674328202
31
0
210
0
220
0
230
1
40
0.995725
41
-1.75405589825423
42
-1.4660765716752
0
ELLIPSE
5
1D7
100
AcDbEntity
8
1
62
256
6
ByLayer
370
13
48
1
60
0
100
AcDbEllipse
10
232.984095
20
21.840236
30
0
11
0.0104671912485881
21
-0.199725906950915
31
0
210
0
220
0
230
1
40
0.092371
41
1.5707963267949
42
3.14159265358825
0
ELLIPSE
5
1D8
100
AcDbEntity
8
1
62
256
6
ByLayer
370
13
48
1
60
0
100
AcDbEllipse
10
238.660053
20
7.58776
30
0
11
0.0942047212372931
21
-1.79753316255824
31
0
210
0
220
0
230
1
40
0.995725
41
2.08233621644413
42
2.74715904466464
0
ELLIPSE
5
1D9
100
AcDbEntity
8
1
62
256
6
ByLayer
370
13
48
1
60
0
100
AcDbEllipse
10
240.364877
20
23.710734
30
0
11
0.010467191248588
21
-0.199725906950916
31
0
210
0
220
0
230
1
40
0.995725
41
3.13286600733095
42
-1.87965793448986
0
ELLIPSE
5
1DA
100
AcDbEntity
8
1
62
256
6
ByLayer
370
13
48
1
60
0
100
AcDbEllipse
10
240.027931
20
9.594498
30
0
11
-0.0427993177786003
21
-0.158580925156934
31
0
210
0
220
0
230
1
40
0.080206
41
-1.54458133966874
42
0.0262149871080369
0
ELLIPSE
5
1DB
100
AcDbEntity
8
1
62
256
6
ByLayer
370
13
48
1
60
0
100
AcDbEllipse
10
240.097982
20
23.713797
30
0
11
-0.279378559896268
21
-0.215283244298326
31
0
210
0
220
0
230
1
40
0.479615
41
-2.35983386470127
42
-1.27243207079389
0
ELLIPSE
5
1DC
100
AcDbEntity
8
1
62
256
6
ByLayer
370
13
48
1
60
0
100
AcDbEllipse
10
226.925347
20
21.606287
30
0
11
-0.0455100421909064
21
-0.194753269702416
31
0
210
0
220
0
230
1
40
0.088753
41
1.59649677847495
42
-3.11589220190954
0
ELLIPSE
5
1DD
100
AcDbEntity
8
1
62
256
6
ByLayer
370
13
48
1
60
0
100
AcDbEllipse
10
241.425717
20
8.928406
30
0
11
-0.0435637040598242
21
-0.259139630109982
31
0
210
0
220
0
230
1
40
0.947521
41
0.308152981489768
42
1.28542437779234
0
ELLIPSE
5
1DE
100
AcDbEntity
8
1
62
256
6
ByLayer
370
13
48
1
60
0
100
AcDbEllipse
10
238.738288
20
7.59186
30
0
11
-1.40394107567689
21
-1.50837379634098
31
0
210
0
220
0
230
1
40
0.735668
41
2.56900210139249
42
-2.8920261504149
0
ELLIPSE
5
1DF
100
AcDbEntity
8
1
62
256
6
ByLayer
370
13
48
1
60
0
100
AcDbEllipse
10
239.692333
20
9.681192
30
0
11
-0.198308915233049
21
0.0259533069008801
31
0
210
0
220
0
230
1
40
0.016833
41
-3.14144018093751
42
-1.66175841710604
0
ELLIPSE
5
1E0
100
AcDbEntity
8
1
62
256
6
ByLayer
370
13
48
1
60
0
100
AcDbEllipse
10
241.874155
20
9.887756
30
0
11
0.00785039343644105
21
-0.149794430213186
31
0
210
0
220
0
230
1
40
0.995725
41
0.104719755118172
42
1.38753675533548
0
ELLIPSE
5
1E1
100
AcDbEntity
8
1
62
256
6
ByLayer
370
13
48
1
60
0
100
AcDbEllipse
10
223.918763
20
14.99392
30
0
11
-0.148163665863161
21
-0.0233993187505444
31
0
210
0
220
0
230
1
40
0.009655
41
-1.47879775232085
42
-0.264819008248768
0
ELLIPSE
5
1E2
100
AcDbEntity
8
1
62
256
6
ByLayer
370
13
48
1
60
0
100
AcDbEllipse
10
240.838721
20
15.024308
30
0
11
0.46579001056217
21
-8.88780285931571
31
0
210
0
220
0
230
1
40
0.995725
41
3.06423017113059
42
3.11423538092933
0
ELLIPSE
5
1E3
100
AcDbEntity
8
1
62
256
6
ByLayer
370
13
48
1
60
0
100
AcDbEllipse
10
226.250373
20
7.526552
30
0
11
0.00653729335064122
21
-0.149857478277354
31
0
210
0
220
0
230
1
40
0.092367
41
-1.56998679074977
42
-0.0232440763771264
0
ELLIPSE
5
1E4
100
AcDbEntity
8
1
62
256
6
ByLayer
370
13
48
1
60
0
100
AcDbEllipse
10
238.342123
20
24.243948
30
0
11
-0.0994383168616005
21
1.89739611603369
31
0
210
0
220
0
230
1
40
0.995725
41
-2.37978474864572
42
-1.87965793449002
0
ELLIPSE
5
1E5
100
AcDbEntity
8
1
62
256
6
ByLayer
370
13
48
1
60
0
100
AcDbEllipse
10
241.027179
20
23.220879
30
0
11
-0.028784775933621
21
0.549246244115011
31
0
210
0
220
0
230
1
40
0.995725
41
-1.46607657167527
42
-0.0773624824591361
0
ELLIPSE
5
1E6
100
AcDbEntity
8
1
62
256
6
ByLayer
370
13
48
1
60
0
100
AcDbEllipse
10
226.572381
20
15.107137
30
0
11
-0.0366351693700634
21
0.699040674328202
31
0
210
0
220
0
230
1
40
0.995725
41
1.38753675533556
42
1.6755160819146
0
ELLIPSE
5
1E7
100
AcDbEntity
8
1
62
256
6
ByLayer
370
13
48
1
60
0
100
AcDbEllipse
10
240.586505
20
23.770409
30
0
11
-0.00653729335064164
21
0.149857478277354
31
0
210
0
220
0
230
1
40
0.092367
41
0.000809536045784252
42
1.57160586284002
0
ELLIPSE
5
1E8
100
AcDbEntity
8
1
62
256
6
ByLayer
370
13
48
1
60
0
100
AcDbEllipse
10
240.618949
20
23.77152
30
0
11
-0.00373239490690383
21
0.149953556904326
31
0
210
0
220
0
230
1
40
0.092336
41
0.00253753545375086
42
1.57333386224946
0
ELLIPSE
5
1E9
100
AcDbEntity
8
1
62
256
6
ByLayer
370
13
48
1
60
0
100
AcDbEllipse
10
240.843333
20
15.02455
30
0
11
0.46579001056217
21
-8.88780285931571
31
0
210
0
220
0
230
1
40
0.995725
41
3.06423017113142
42
3.11423538093015
0
ELLIPSE
5
1EA
100
AcDbEntity
8
1
62
256
6
ByLayer
370
13
48
1
60
0
100
AcDbEllipse
10
228.275556
20
7.043532
30
0
11
-0.0994383168616005
21
1.89739611603369
31
0
210
0
220
0
230
1
40
0.995725
41
0.761807904942409
42
1.26193471909813
0
ELLIPSE
5
1EB
100
AcDbEntity
8
1
62
256
6
ByLayer
370
13
48
1
60
0
100
AcDbEllipse
10
240.649067
20
22.021353
30
0
11
-0.0915879234251586
21
1.74760168582051
31
0
210
0
220
0
230
1
40
0.995725
41
-0.0273572726603378
42
-0.00872664625997129
0
ELLIPSE
5
1EC
100
AcDbEntity
8
1
62
256
6
ByLayer
370
13
48
1
60
0
100
AcDbEllipse
10
238.323675
20
24.242981
30
0
11
0.107288710298028
21
-2.04719054624688
31
0
210
0
220
0
230
1
40
0.995725
41
0.773852857220406
42
1.26193471909896
0
ELLIPSE
5
1ED
100
AcDbEntity
8
1
62
256
6
ByLayer
370
13
48
1
60
0
100
AcDbEllipse
10
224.734299
20
21.39924
30
0
11
-0.148731686424787
21
0.0194649801756601
31
0
210
0
220
0
230
1
40
0.016833
41
0.263130755729223
42
1.47983423648265
0
ELLIPSE
5
1EE
100
AcDbEntity
8
1
62
256
6
ByLayer
370
13
48
1
60
0
100
AcDbEllipse
10
239.974494
20
9.534894
30
0
11
0.00523359562429489
21
-0.0998629534754737
31
0
210
0
220
0
230
1
40
0.995725
41
-1.75405589825313
42
0.10471975512053
0
ELLIPSE
5
1EF
100
AcDbEntity
8
1
62
256
6
ByLayer
370
13
48
1
60
0
100
AcDbEllipse
10
224.738912
20
21.399482
30
0
11
0.00785039343644105
21
-0.149794430213186
31
0
210
0
220
0
230
1
40
0.995725
41
-3.03687289847261
42
-1.75405589825528
0
ELLIPSE
5
1F0
100
AcDbEntity
8
1
62
256
6
ByLayer
370
13
48
1
60
0
100
AcDbEllipse
10
240.027931
20
9.594498
30
0
11
-0.15738142641249
21
-0.0466723701642583
31
0
210
0
220
0
230
1
40
0.019797
41
-1.48863728998577
42
0.0821590367429871
0
ELLIPSE
5
1F1
100
AcDbEntity
8
1
62
256
6
ByLayer
370
13
48
1
60
0
100
AcDbEllipse
10
242.691784
20
16.135249
30
0
11
0.148731686424787
21
-0.0194649801756603
31
0
210
0
220
0
230
1
40
0.016833
41
-1.66175841710526
42
-0.0909620903140981
0
ELLIPSE
5
1F2
100
AcDbEntity
8
1
62
256
6
ByLayer
370
13
48
1
60
0
100
AcDbEllipse
10
239.546286
20
22.502291
30
0
11
-0.114373860316037
21
0.164068949153725
31
0
210
0
220
0
230
1
40
0.07853
41
-1.61960141451367
42
-0.0488050877195115
0
ELLIPSE
5
1F3
100
AcDbEntity
8
1
62
256
6
ByLayer
370
13
48
1
60
0
100
AcDbEllipse
10
226.643186
20
21.752585
30
0
11
0.00523359562429489
21
-0.0998629534754737
31
0
210
0
220
0
230
1
40
0.995725
41
1.38753675533522
42
-3.03687289847126
0
ELLIPSE
5
1F4
100
AcDbEntity
8
1
62
256
6
ByLayer
370
13
48
1
60
0
100
AcDbEllipse
10
226.925347
20
21.606287
30
0
11
0.0104671912485881
21
-0.199725906950915
31
0
210
0
220
0
230
1
40
0.995725
41
-3.14157313675573
42
-1.75405589825518
0
ELLIPSE
5
1F5
100
AcDbEntity
8
1
62
256
6
ByLayer
370
13
48
1
60
0
100
AcDbEllipse
10
238.342123
20
24.243948
30
0
11
-0.094204721237306
21
1.79753316255823
31
0
210
0
220
0
230
1
40
0.995725
41
-3.141592653589
42
-1.87965793449004
0
ELLIPSE
5
1F6
100
AcDbEntity
8
1
62
256
6
ByLayer
370
13
48
1
60
0
100
AcDbEllipse
10
233.249051
20
15.640606
30
0
11
0.161488764830057
21
-3.08138919525491
31
0
210
0
220
0
230
1
40
0.995725
41
-0.853733431166155
42
0
0
ELLIPSE
5
1F7
100
AcDbEntity
8
1
62
256
6
ByLayer
370
13
48
1
60
0
100
AcDbEllipse
10
233.249051
20
15.640606
30
0
11
0.161488764830057
21
-3.08138919525491
31
0
210
0
220
0
230
1
40
0.995725
41
0
42
-2.28787053660728
0
ELLIPSE
5
1F8
100
AcDbEntity
8
1
62
256
6
ByLayer
370
13
48
1
60
0
100
AcDbEllipse
10
238.263888
20
24.239847
30
0
11
-1.59242934825112
21
-1.39349696568973
31
0
210
0
220
0
230
1
40
0.74335
41
1.15768450151264
42
1.97984155689277
0
ELLIPSE
5
1F9
100
AcDbEntity
8
1
62
256
6
ByLayer
370
13
48
1
60
0
100
AcDbEllipse
10
240.667516
20
22.022319
30
0
11
0.0994383168615867
21
-1.89739611603369
31
0
210
0
220
0
230
1
40
0.995725
41
3.11423538093029
42
3.13286600733063
0
ELLIPSE
5
1FA
100
AcDbEntity
8
1
62
256
6
ByLayer
370
13
48
1
60
0
100
AcDbEllipse
10
228.275556
20
7.043532
30
0
11
-0.094204721237306
21
1.79753316255823
31
0
210
0
220
0
230
1
40
0.995725
41
0
42
1.26193471909811
0
ELLIPSE
5
1FB
100
AcDbEntity
8
1
62
256
6
ByLayer
370
13
48
1
60
0
100
AcDbEllipse
10
241.041015
20
23.221604
30
0
11
0.036635169370058
21
-0.699040674328197
31
0
210
0
220
0
230
1
40
0.995725
41
1.67551608191451
42
3.0642301711306
0
ELLIPSE
5
1FC
100
AcDbEntity
8
1
62
256
6
ByLayer
370
13
48
1
60
0
100
AcDbEllipse
10
240.875234
20
16.068724
30
0
11
0.148731686424787
21
-0.0194649801756603
31
0
210
0
220
0
230
1
40
0.016833
41
-2.85804977878792
42
-1.66175841710469
0
ELLIPSE
5
1FD
100
AcDbEntity
8
1
62
256
6
ByLayer
370
13
48
1
60
0
100
AcDbEllipse
10
239.213517
20
7.616766
30
0
11
-0.094204721237306
21
1.79753316255823
31
0
210
0
220
0
230
1
40
0.995725
41
-0.400544394527605
42
8.0873912696254E-13
0
ELLIPSE
5
1FE
100
AcDbEntity
8
1
62
256
6
ByLayer
370
13
48
1
60
0
100
AcDbEllipse
10
226.252802
20
7.576746
30
0
11
0.010467191248588
21
-0.199725906950916
31
0
210
0
220
0
230
1
40
0.995725
41
-0.00872664626026965
42
1.26193471909829
0
ELLIPSE
5
1FF
100
AcDbEntity
8
1
62
256
6
ByLayer
370
13
48
1
60
0
100
AcDbEllipse
10
239.692333
20
9.681192
30
0
11
0.0455100421909158
21
0.194753269702414
31
0
210
0
220
0
230
1
40
0.088753
41
-3.11589220190964
42
-1.54509587511456
0
ELLIPSE
5
200
100
AcDbEntity
8
1
62
256
6
ByLayer
370
13
48
1
60
0
100
AcDbEllipse
10
226.558545
20
15.106412
30
0
11
0.0444855628064993
21
-0.848835104541388
31
0
210
0
220
0
230
1
40
0.995725
41
-1.75405589825425
42
-1.46607657167519
0
ELLIPSE
5
201
100
AcDbEntity
8
1
62
256
6
ByLayer
370
13
48
1
60
0
100
AcDbEllipse
10
239.790539
20
22.870691
30
0
11
0.00523359562429475
21
-0.099862953475471
31
0
210
0
220
0
230
1
40
0.995725
41
-2.37978474864499
42
-1.46607657167419
0
ELLIPSE
5
202
100
AcDbEntity
8
1
62
256
6
ByLayer
370
13
48
1
60
0
100
AcDbEllipse
10
224.734299
20
21.39924
30
0
11
0.0235312926467132
21
-0.148142763125219
31
0
210
0
220
0
230
1
40
0.091865
41
-3.05123893761515
42
-1.58049283524986
0
ELLIPSE
5
203
100
AcDbEntity
8
1
62
256
6
ByLayer
370
13
48
1
60
0
100
AcDbEllipse
10
240.872
20
16.312638
30
0
11
0.148163665863163
21
0.0233993187505343
31
0
210
0
220
0
230
1
40
0.009655
41
1.66279490126864
42
2.85602956830704
0
ELLIPSE
5
204
100
AcDbEntity
8
1
62
256
6
ByLayer
370
13
48
1
60
0
100
AcDbEllipse
10
226.234354
20
7.575779
30
0
11
-0.00261679781214743
21
0.0499314767377296
31
0
210
0
220
0
230
1
40
0.995725
41
3.13286600732938
42
-1.87965793449105
0
ELLIPSE
5
205
100
AcDbEntity
8
1
62
256
6
ByLayer
370
13
48
1
60
0
100
AcDbEllipse
10
233.22396
20
15.639291
30
0
11
0.156043507061183
21
-2.97748748746712
31
0
210
0
220
0
230
1
40
0.995725
41
0
42
6.28318530717959
0
ELLIPSE
5
206
100
AcDbEntity
8
1
62
256
6
ByLayer
370
13
48
1
60
0
100
AcDbEllipse
10
225.159874
20
22.930924
30
0
11
-0.300351321608398
21
0.184900888626519
31
0
210
0
220
0
230
1
40
0.479615
41
-1.86916058278929
42
-0.781758788888273
0
ELLIPSE
5
207
100
AcDbEntity
8
1
62
256
6
ByLayer
370
13
48
1
60
0
100
AcDbEllipse
10
226.580523
20
21.692498
30
0
11
-0.157381426407307
21
-0.0466723701629881
31
0
210
0
220
0
230
1
40
0.019797
41
-3.05943361683426
42
-1.48863729007028
0
ELLIPSE
5
208
100
AcDbEntity
8
1
62
256
6
ByLayer
370
13
48
1
60
0
100
AcDbEllipse
10
240.662904
20
22.022078
30
0
11
0.0994383168615867
21
-1.89739611603369
31
0
210
0
220
0
230
1
40
0.995725
41
3.11423538092947
42
3.13286600732985
0
ELLIPSE
5
209
100
AcDbEntity
8
1
62
256
6
ByLayer
370
13
48
1
60
0
100
AcDbEllipse
10
228.257107
20
7.042565
30
0
11
0.107288710298028
21
-2.04719054624688
31
0
210
0
220
0
230
1
40
0.995725
41
-2.36773979636938
42
-1.87965793449082
0
ELLIPSE
5
20A
100
AcDbEntity
8
1
62
256
6
ByLayer
370
13
48
1
60
0
100
AcDbEllipse
10
241.878768
20
9.887997
30
0
11
0.00785039343644105
21
-0.149794430213186
31
0
210
0
220
0
230
1
40
0.995725
41
0.104719755118906
42
1.38753675533625
0
ELLIPSE
5
20B
100
AcDbEntity
8
1
62
256
6
ByLayer
370
13
48
1
60
0
100
AcDbEllipse
10
225.755897
20
16.261962
30
0
11
-0.457939617125792
21
8.73800842910252
31
0
210
0
220
0
230
1
40
0.995725
41
3.0642301711306
42
3.11423538092933
0
ELLIPSE
5
20C
100
AcDbEntity
8
1
62
256
6
ByLayer
370
13
48
1
60
0
100
AcDbEllipse
10
224.464268
20
15.080078
30
0
11
0.0366351693700582
21
-0.699040674328201
31
0
210
0
220
0
230
1
40
0.995725
41
-1.75405589825518
42
-1.46607657167606
0
ELLIPSE
5
20D
100
AcDbEntity
8
1
62
256
6
ByLayer
370
13
48
1
60
0
100
AcDbEllipse
10
227.071393
20
8.785188
30
0
11
0.0104671912485881
21
-0.199725906950915
31
0
210
0
220
0
230
1
40
0.995725
41
-1.46607657167604
42
-1.72590777094403E-05
0
ELLIPSE
5
20E
100
AcDbEntity
8
1
62
256
6
ByLayer
370
13
48
1
60
0
100
AcDbEllipse
10
225.950163
20
9.26516
30
0
11
0.0994383168615867
21
-1.89739611603369
31
0
210
0
220
0
230
1
40
0.995725
41
-0.0273572726611505
42
-0.00872664626080421
0
ELLIPSE
5
20F
100
AcDbEntity
8
1
62
256
6
ByLayer
370
13
48
1
60
0
100
AcDbEllipse
10
241.874155
20
9.887756
30
0
11
0.148731686424787
21
-0.0194649801756603
31
0
210
0
220
0
230
1
40
0.016833
41
-1.66175841710394
42
-0.0909620903084588
0
ELLIPSE
5
210
100
AcDbEntity
8
1
62
256
6
ByLayer
370
13
48
1
60
0
100
AcDbEllipse
10
241.880274
20
9.899802
30
0
11
-0.0435637040544539
21
-0.259139630111609
31
0
210
0
220
0
230
1
40
0.947521
41
0.30815298147081
42
1.60922962168332
0
ELLIPSE
5
211
100
AcDbEntity
8
1
62
256
6
ByLayer
370
13
48
1
60
0
100
AcDbEllipse
10
225.931715
20
9.264193
30
0
11
-0.0915879234251586
21
1.74760168582051
31
0
210
0
220
0
230
1
40
0.995725
41
3.11423538092946
42
3.13286600732981
0
ELLIPSE
5
212
100
AcDbEntity
8
1
62
256
6
ByLayer
370
13
48
1
60
0
100
AcDbEllipse
10
226.638574
20
21.752343
30
0
11
0.00523359562429489
21
-0.0998629534754737
31
0
210
0
220
0
230
1
40
0.995725
41
1.38753675533609
42
3.14158141713651
0
ELLIPSE
5
213
100
AcDbEntity
8
1
62
256
6
ByLayer
370
13
48
1
60
0
100
AcDbEllipse
10
226.822528
20
8.416546
30
0
11
0.00523359562429475
21
-0.099862953475471
31
0
210
0
220
0
230
1
40
0.995725
41
0.761807904944026
42
1.67551608191503
0
ELLIPSE
5
214
100
AcDbEntity
8
1
62
256
6
ByLayer
370
13
48
1
60
0
100
AcDbEllipse
10
241.054584
20
23.771422
30
0
11
0.00379960965785709
21
0.149951868832795
31
0
210
0
220
0
230
1
40
0.092094
41
0.00716942111041693
42
1.57796574790525
0
ELLIPSE
5
215
100
AcDbEntity
8
1
62
256
6
ByLayer
370
13
48
1
60
0
100
AcDbEllipse
10
226.925347
20
21.606287
30
0
11
0.198308915233049
21
-0.0259533069008805
31
0
210
0
220
0
230
1
40
0.016833
41
1.4798342364846
42
3.05063056328346
0
ELLIPSE
5
216
100
AcDbEntity
8
1
62
256
6
ByLayer
370
13
48
1
60
0
100
AcDbEllipse
10
224.44582
20
15.079111
30
0
11
-0.0287847759336212
21
0.549246244115015
31
0
210
0
220
0
230
1
40
0.995725
41
1.38753675533543
42
1.67551608191458
0
ELLIPSE
5
217
100
AcDbEntity
8
1
62
256
6
ByLayer
370
13
48
1
60
0
100
AcDbEllipse
10
225.989506
20
7.515476
30
0
11
0.00373239490690328
21
-0.149953556904326
31
0
210
0
220
0
230
1
40
0.092336
41
-1.56825879134033
42
-0.0414707750422488
0
ELLIPSE
5
218
100
AcDbEntity
8
1
62
256
6
ByLayer
370
13
48
1
60
0
100
AcDbEllipse
10
225.553871
20
7.515573
30
0
11
-0.00379960965785735
21
-0.149951868832795
31
0
210
0
220
0
230
1
40
0.092094
41
-1.56362690568454
42
-0.0717426686092287
0
ELLIPSE
5
219
100
AcDbEntity
8
1
62
256
6
ByLayer
370
13
48
1
60
0
100
AcDbEllipse
10
226.08337
20
15.172752
30
0
11
-0.198308915233049
21
0.0259533069008801
31
0
210
0
220
0
230
1
40
0.016833
41
-1.66175841710519
42
-0.0909620903126926
0
ELLIPSE
5
21A
100
AcDbEntity
8
1
62
256
6
ByLayer
370
13
48
1
60
0
100
AcDbEllipse
10
225.736455
20
14.974357
30
0
11
-0.148163665863161
21
-0.0233993187505444
31
0
210
0
220
0
230
1
40
0.009655
41
-3.04959407911989
42
-1.4787977523216
0
ELLIPSE
5
21B
100
AcDbEntity
8
1
62
256
6
ByLayer
370
13
48
1
60
0
100
AcDbEllipse
10
226.595442
20
15.108346
30
0
11
-0.0261679781214738
21
0.499314767377287
31
0
210
0
220
0
230
1
40
0.995725
41
1.38753675533554
42
1.67551608191459
0
ELLIPSE
5
21C
100
AcDbEntity
8
1
62
256
6
ByLayer
370
13
48
1
60
0
100
AcDbEllipse
10
224.737405
20
21.387677
30
0
11
-0.0435637040527801
21
-0.259139630112193
31
0
210
0
220
0
230
1
40
0.947521
41
-2.833439672126
42
-1.53236303191409
0
ELLIPSE
5
21D
100
AcDbEntity
8
1
62
256
6
ByLayer
370
13
48
1
60
0
100
AcDbEllipse
10
226.827141
20
8.416788
30
0
11
0.00523359562429475
21
-0.099862953475471
31
0
210
0
220
0
230
1
40
0.995725
41
0.761807904943156
42
1.67551608191389
0
ELLIPSE
5
21E
100
AcDbEntity
8
1
62
256
6
ByLayer
370
13
48
1
60
0
100
AcDbEllipse
10
237.788659
20
24.214942
30
0
11
0.0942047212372931
21
-1.79753316255824
31
0
210
0
220
0
230
1
40
0.995725
41
0
42
0.400544394529229
0
ELLIPSE
5
21F
100
AcDbEntity
8
1
62
256
6
ByLayer
370
13
48
1
60
0
100
AcDbEllipse
10
240.022237
20
16.179133
30
0
11
0.0444855628064993
21
-0.848835104541388
31
0
210
0
220
0
230
1
40
0.995725
41
1.38753675533555
42
1.67551608191461
0
ELLIPSE
5
220
100
AcDbEntity
8
1
62
256
6
ByLayer
370
13
48
1
60
0
100
AcDbEllipse
10
223.91667
20
15.151747
30
0
11
-0.148731686424787
21
0.0194649801756601
31
0
210
0
220
0
230
1
40
0.016833
41
0.26318191249181
42
1.47983423648447
0
ELLIPSE
5
221
100
AcDbEntity
8
1
62
256
6
ByLayer
370
13
48
1
60
0
100
AcDbEllipse
10
225.553603
20
8.064667
30
0
11
-0.028784775933621
21
0.549246244115011
31
0
210
0
220
0
230
1
40
0.995725
41
1.67551608191453
42
3.06423017113071
0
ELLIPSE
5
222
100
AcDbEntity
8
1
62
256
6
ByLayer
370
13
48
1
60
0
100
AcDbEllipse
10
242.148799
20
16.207159
30
0
11
0.0366351693700582
21
-0.699040674328201
31
0
210
0
220
0
230
1
40
0.995725
41
1.38753675533544
42
1.67551608191455
0
ELLIPSE
5
223
100
AcDbEntity
8
1
62
256
6
ByLayer
370
13
48
1
60
0
100
AcDbEllipse
10
240.824885
20
15.023583
30
0
11
-0.457939617125792
21
8.73800842910252
31
0
210
0
220
0
230
1
40
0.995725
41
-0.0773624824592005
42
-0.0273572726604685
0
ELLIPSE
5
224
100
AcDbEntity
8
1
62
256
6
ByLayer
370
13
48
1
60
0
100
AcDbEllipse
10
233.327288
20
15.644706
30
0
11
0.164592752017125
21
-3.14061679904833
31
0
210
0
220
0
230
1
40
0.995725
41
0
42
6.28318530717959
0
ELLIPSE
5
225
100
AcDbEntity
8
1
62
256
6
ByLayer
370
13
48
1
60
0
100
AcDbEllipse
10
242.689692
20
16.293076
30
0
11
0.148163665863163
21
0.0233993187505343
31
0
210
0
220
0
230
1
40
0.009655
41
0.0919985744760602
42
1.66279490126826
0
ELLIPSE
5
226
100
AcDbEntity
8
1
62
256
6
ByLayer
370
13
48
1
60
0
100
AcDbEllipse
10
233.633584
20
9.447243
30
0
11
0.0104671912485881
21
-0.199725906950915
31
0
210
0
220
0
230
1
40
0.092371
41
0
42
1.5707963267949
0
ELLIPSE
5
227
100
AcDbEntity
8
1
62
256
6
ByLayer
370
13
48
1
60
0
100
AcDbEllipse
10
241.581909
20
23.30752
30
0
11
0.148163665863163
21
0.0233993187505343
31
0
210
0
220
0
230
1
40
0.009655
41
0.0919985744809805
42
1.66279490126864
0
ELLIPSE
5
228
100
AcDbEntity
8
1
62
256
6
ByLayer
370
13
48
1
60
0
100
AcDbEllipse
10
246.310992
20
0
30
0
11
-47.3200966284454
21
19.8601817552689
31
0
210
0
220
0
230
1
40
0.251788
41
0.817910512812902
42
0.984233231114306
0
ELLIPSE
5
229
100
AcDbEntity
8
1
62
256
6
ByLayer
370
13
48
1
60
0
100
AcDbEllipse
10
241.453762
20
10.738289
30
0
11
0.136073486231645
21
-2.59643679036189
31
0
210
0
220
0
230
1
40
0.995725
41
-0.990362103391485
42
-0.858139698776689
0
ELLIPSE
5
22A
100
AcDbEntity
8
1
62
256
6
ByLayer
370
13
48
1
60
0
100
AcDbEllipse
10
254.603846
20
8E-06
30
0
11
-252.593439437022
21
0.114589423817406
31
0
210
0
220
0
230
1
40
0.092638
41
-1.45099975154995
42
-1.44174438402932
0
ELLIPSE
5
22B
100
AcDbEntity
8
1
62
256
6
ByLayer
370
13
48
1
60
0
100
AcDbEllipse
10
225.638878
20
16.281939
30
0
11
0.523359562429404
21
-9.98629534754574
31
0
210
0
220
0
230
1
40
0.995725
41
-1.22779782610522E-06
42
0.307190187536242
0
ELLIPSE
5
22C
100
AcDbEntity
8
1
62
256
6
ByLayer
370
13
48
1
60
0
100
AcDbEllipse
10
241.268769
20
-14.33102
30
0
11
-0.0640921416211615
21
-0.515993889500278
31
0
210
0
220
0
230
1
40
0.112987
41
-1.64178785279128
42
-0.0709915259919633
0
ELLIPSE
5
22D
100
AcDbEntity
8
1
62
256
6
ByLayer
370
13
48
1
60
0
100
AcDbEllipse
10
226.254478
20
9.541179
30
0
11
0.136073486231645
21
-2.59643679036189
31
0
210
0
220
0
230
1
40
0.995725
41
-2.08239418575105
42
-0.581932527432311
0
ELLIPSE
5
22E
100
AcDbEntity
8
1
62
256
6
ByLayer
370
13
48
1
60
0
100
AcDbEllipse
10
240.574423
20
-14.631121
30
0
11
-0.295574829854344
21
-2.48539257104035
31
0
210
0
220
0
230
1
40
0.118237
41
0
42
6.28318530717959
0
ELLIPSE
5
22F
100
AcDbEntity
8
1
62
256
6
ByLayer
370
13
48
1
60
0
100
AcDbEllipse
10
225.664116
20
9.51024
30
0
11
-0.10990550811019
21
2.0971220229846
31
0
210
0
220
0
230
1
40
0.995725
41
2.21256348620492
42
2.71619434556735
0
ELLIPSE
5
230
100
AcDbEntity
8
1
62
256
6
ByLayer
370
13
48
1
60
0
100
AcDbEllipse
10
225.664116
20
9.51024
30
0
11
-0.10990550811019
21
2.0971220229846
31
0
210
0
220
0
230
1
40
0.995725
41
-2.74205116609537
42
-2.08304175457694
0
ELLIPSE
5
231
100
AcDbEntity
8
1
62
256
6
ByLayer
370
13
48
1
60
0
100
AcDbEllipse
10
227.628304
20
8.981753
30
0
11
0.0261679781214702
21
-0.499314767377287
31
0
210
0
220
0
230
1
40
0.092371
41
-1.0059478256034
42
-0.630730776736684
0
ELLIPSE
5
232
100
AcDbEntity
8
1
62
256
6
ByLayer
370
13
48
1
60
0
100
AcDbEllipse
10
241.604857
20
0.131016
30
0
11
-0.0212866254481674
21
1.01119963540563
31
0
210
0
220
0
230
1
40
0.102284
41
-0.119424594490186
42
1.06428130837127
0
ELLIPSE
5
233
100
AcDbEntity
8
1
62
256
6
ByLayer
370
13
48
1
60
0
100
AcDbEllipse
10
1207.903067
20
-0.429822
30
0
11
-1103.90129731509
21
0.498532102189296
31
0
210
0
220
0
230
1
40
0.04671
41
-0.466783335680893
42
-0.46070795887774
0
ELLIPSE
5
234
100
AcDbEntity
8
1
62
256
6
ByLayer
370
13
48
1
60
0
100
AcDbEllipse
10
245.475404
20
2.279183
30
0
11
-5.83800000254455
21
-1.99920464056592
31
0
210
0
220
0
230
1
40
0.851937
41
-0.37655826469628
42
-0.229006195008608
0
ELLIPSE
5
235
100
AcDbEntity
8
1
62
256
6
ByLayer
370
13
48
1
60
0
100
AcDbEllipse
10
241.314382
20
10.730985
30
0
11
-0.0803021728472392
21
2.59919109528923
31
0
210
0
220
0
230
1
40
0.529806
41
2.96729161862858
42
-3.13021399274227
0
ELLIPSE
5
236
100
AcDbEntity
8
1
62
256
6
ByLayer
370
13
48
1
60
0
100
AcDbEllipse
10
225.546634
20
16.277104
30
0
11
-0.471023606186529
21
8.98766581279117
31
0
210
0
220
0
230
1
40
0.995725
41
-2.91693381338445
42
-2.83440246605355
0
ELLIPSE
5
237
100
AcDbEntity
8
1
62
256
6
ByLayer
370
13
48
1
60
0
100
AcDbEllipse
10
232.867064
20
8.585946
30
0
11
-3.96879667936179
21
-0.704906653576571
31
0
210
0
220
0
230
1
40
0.015321
41
-3.01817314116133
42
-2.71671454028602
0
ELLIPSE
5
238
100
AcDbEntity
8
1
62
256
6
ByLayer
370
13
48
1
60
0
100
AcDbEllipse
10
254.603943
20
-5.3E-05
30
0
11
-250.003079663452
21
0.113423283518864
31
0
210
0
220
0
230
1
40
0.092638
41
-1.42828724871895
42
-1.41744967603358
0
ELLIPSE
5
239
100
AcDbEntity
8
1
62
256
6
ByLayer
370
13
48
1
60
0
100
AcDbEllipse
10
219
20
1.699287
30
0
11
-0.494140727472495
21
13.9800108903563
31
0
210
0
220
0
230
1
40
0.355903
41
-0.537145256043453
42
-0.380425275248316
0
ELLIPSE
5
23A
100
AcDbEntity
8
1
62
256
6
ByLayer
370
13
48
1
60
0
100
AcDbEllipse
10
224.604447
20
19.630346
30
0
11
-0.143594274774579
21
2.73994198455218
31
0
210
0
220
0
230
1
40
0.016833
41
0.326127687959769
42
0.836829632654778
0
ELLIPSE
5
23B
100
AcDbEntity
8
1
62
256
6
ByLayer
370
13
48
1
60
0
100
AcDbEllipse
10
185.222648
20
0
30
0
11
-252.593484683533
21
0.11459042933953
31
0
210
0
220
0
230
1
40
0.092638
41
-1.78536648516156
42
-1.7312535433399
0
ELLIPSE
5
23C
100
AcDbEntity
8
1
62
256
6
ByLayer
370
13
48
1
60
0
100
AcDbEllipse
10
229.120892
20
8.389618
30
0
11
-0.0261679781214739
21
0.499314767377288
31
0
210
0
220
0
230
1
40
0.995725
41
0.927295218001729
42
1.13806179252791
0
ELLIPSE
5
23D
100
AcDbEntity
8
1
62
256
6
ByLayer
370
13
48
1
60
0
100
AcDbEllipse
10
241.64187
20
8.492896
30
0
11
-0.0190690707678641
21
-0.501607026758376
31
0
210
0
220
0
230
1
40
0.195483
41
-0.786740978470636
42
-0.331356153711746
0
ELLIPSE
5
23E
100
AcDbEntity
8
1
62
256
6
ByLayer
370
13
48
1
60
0
100
AcDbEllipse
10
234.002789
20
-6.524831
30
0
11
2
21
0
31
0
210
0
220
0
230
1
40
0.994521
41
2.49187205428528
42
2.7662703051112
0
ELLIPSE
5
23F
100
AcDbEntity
8
1
62
256
6
ByLayer
370
13
48
1
60
0
100
AcDbEllipse
10
238.965057
20
8.905529
30
0
11
-0.0261679781214738
21
0.499314767377286
31
0
210
0
220
0
230
1
40
0.995725
41
-0.990362103391528
42
-0.927295220885105
0
ELLIPSE
5
240
100
AcDbEntity
8
1
62
256
6
ByLayer
370
13
48
1
60
0
100
AcDbEllipse
10
223.020675
20
7.675885
30
0
11
-0.293690420649032
21
-0.95590058940195
31
0
210
0
220
0
230
1
40
0.0868
41
-1.53907871771949
42
-0.133410270436717
0
ELLIPSE
5
241
100
AcDbEntity
8
1
62
256
6
ByLayer
370
13
48
1
60
0
100
AcDbEllipse
10
241.455536
20
0
30
0
11
-3.97290435787427
21
23.3975250864334
31
0
210
0
220
0
230
1
40
0.085661
41
1.59664242377261
42
1.73450174068301
0
ELLIPSE
5
242
100
AcDbEntity
8
1
62
256
6
ByLayer
370
13
48
1
60
0
100
AcDbEllipse
10
235.491694
20
11.627477
30
0
11
-1.6556419177655
21
-2.05486645384036
31
0
210
0
220
0
230
1
40
0.966608
41
0.713732916531706
42
1.074903344907
0
ELLIPSE
5
243
100
AcDbEntity
8
1
62
256
6
ByLayer
370
13
48
1
60
0
100
AcDbEllipse
10
241.530865
20
-1.995737
30
0
11
-2.22180864356491
21
3.54098191607282
31
0
210
0
220
0
230
1
40
0.381362
41
-1.00461746183318
42
-0.861277772371032
0
ELLIPSE
5
244
100
AcDbEntity
8
1
62
256
6
ByLayer
370
13
48
1
60
0
100
AcDbEllipse
10
241.500707
20
0.126303
30
0
11
-0.0106433127276197
21
0.505599817856446
31
0
210
0
220
0
230
1
40
0.102284
41
-0.119424594472227
42
0.226185644167679
0
ELLIPSE
5
245
100
AcDbEntity
8
1
62
256
6
ByLayer
370
13
48
1
60
0
100
AcDbEllipse
10
232.557876
20
-2.445353
30
0
11
0.575695518672344
21
-10.9849248823003
31
0
210
0
220
0
230
1
40
0.995725
41
-3.14159265358978
42
-2.83440246605356
0
ELLIPSE
5
246
100
AcDbEntity
8
1
62
256
6
ByLayer
370
13
48
1
60
0
100
AcDbEllipse
10
236.097669
20
-6.982549
30
0
11
-6.03299099366057
21
-0.0263218268020329
31
0
210
0
220
0
230
1
40
0.989073
41
3.00708493951485
42
-2.98967702324861
0
ELLIPSE
5
247
100
AcDbEntity
8
1
62
256
6
ByLayer
370
13
48
1
60
0
100
AcDbEllipse
10
232.65012
20
-2.440519
30
0
11
-0.523359562429476
21
9.98629534754574
31
0
210
0
220
0
230
1
40
0.995725
41
0
42
0.307190187536242
0
ELLIPSE
5
248
100
AcDbEntity
8
1
62
256
6
ByLayer
370
13
48
1
60
0
100
AcDbEllipse
10
226.056594
20
9.530809
30
0
11
-1.65564191867041
21
-2.05486645321095
31
0
210
0
220
0
230
1
40
0.966608
41
1.54124461065776
42
1.85179470946482
0
ELLIPSE
5
249
100
AcDbEntity
8
1
62
256
6
ByLayer
370
13
48
1
60
0
100
AcDbEllipse
10
219
20
5.856884
30
0
11
-4.99962208770661
21
0.0753403935689179
31
0
210
0
220
0
230
1
40
0.815944
41
1.77033809985848
42
1.88824161248083
0
ELLIPSE
5
24A
100
AcDbEntity
8
1
62
256
6
ByLayer
370
13
48
1
60
0
100
AcDbEllipse
10
228.793937
20
7.856833
30
0
11
0.353010790461904
21
-0.935619250452587
31
0
210
0
220
0
230
1
40
0.088046
41
-1.59884006173132
42
-0.028043734936437
0
ELLIPSE
5
24B
100
AcDbEntity
8
1
62
256
6
ByLayer
370
13
48
1
60
0
100
AcDbEllipse
10
241.610223
20
7.463769
30
0
11
-0.00949402646888437
21
0.500185534654747
31
0
210
0
220
0
230
1
40
0.104995
41
1.9233683341802
42
-2.78902064620124
0
ELLIPSE
5
24C
100
AcDbEntity
8
1
62
256
6
ByLayer
370
13
48
1
60
0
100
AcDbEllipse
10
232.074424
20
8.544406
30
0
11
0.0523359562429404
21
-0.998629534754574
31
0
210
0
220
0
230
1
40
0.092371
41
-1.5707963267949
42
0
0
ELLIPSE
5
24D
100
AcDbEntity
8
1
62
256
6
ByLayer
370
13
48
1
60
0
100
AcDbEllipse
10
241.083715
20
9.016563
30
0
11
-0.0189880529388684
21
1.00037106933369
31
0
210
0
220
0
230
1
40
0.104995
41
-3.13808649660061
42
-2.59343631251297
0
ELLIPSE
5
24E
100
AcDbEntity
8
1
62
256
6
ByLayer
370
13
48
1
60
0
100
AcDbEllipse
10
981.103558
20
0
30
0
11
-1218.42185975582
21
17.9796187592817
31
0
210
0
220
0
230
1
40
0.012292
41
0.89848994056761
42
0.916664726524116
0
ELLIPSE
5
24F
100
AcDbEntity
8
1
62
256
6
ByLayer
370
13
48
1
60
0
100
AcDbEllipse
10
225.39719
20
9.496251
30
0
11
-2.29348548723301
21
1.847901456102
31
0
210
0
220
0
230
1
40
0.775936
41
3.05283506781222
42
-2.77958348583809
0
ELLIPSE
5
250
100
AcDbEntity
8
1
62
256
6
ByLayer
370
13
48
1
60
0
100
AcDbEllipse
10
234.002789
20
-6.012606
30
0
11
2
21
0
31
0
210
0
220
0
230
1
40
0.994521
41
0.749858864104696
42
2.95113359618421
0
ELLIPSE
5
251
100
AcDbEntity
8
1
62
256
6
ByLayer
370
13
48
1
60
0
100
AcDbEllipse
10
225.546634
20
16.277104
30
0
11
-0.471023606186529
21
8.98766581279117
31
0
210
0
220
0
230
1
40
0.995725
41
2.79252680319577
42
3.02206401946907
0
ELLIPSE
5
252
100
AcDbEntity
8
1
62
256
6
ByLayer
370
13
48
1
60
0
100
AcDbEllipse
10
236.635371
20
8.783435
30
0
11
-0.318392324471923
21
-0.395166970889694
31
0
210
0
220
0
230
1
40
0.966608
41
-2.12586324802871
42
-2.06669027881875
0
ELLIPSE
5
253
100
AcDbEntity
8
1
62
256
6
ByLayer
370
13
48
1
60
0
100
AcDbEllipse
10
226.254478
20
9.541179
30
0
11
0.136073486231645
21
-2.59643679036189
31
0
210
0
220
0
230
1
40
0.995725
41
0.687062733516936
42
1.13806179252794
0
ELLIPSE
5
254
100
AcDbEntity
8
1
62
256
6
ByLayer
370
13
48
1
60
0
100
AcDbEllipse
10
223.487208
20
10.915906
30
0
11
-0.026167978121474
21
0.49931476737729
31
0
210
0
220
0
230
1
40
0.995725
41
-2.08239418575108
42
-1.46607657167526
0
ELLIPSE
5
255
100
AcDbEntity
8
1
62
256
6
ByLayer
370
13
48
1
60
0
100
AcDbEllipse
10
225.90823
20
15.374419
30
0
11
0.136073486231645
21
-2.59643679036189
31
0
210
0
220
0
230
1
40
0.995725
41
-2.20424198809738
42
-1.46607657167527
0
ELLIPSE
5
256
100
AcDbEntity
8
1
62
256
6
ByLayer
370
13
48
1
60
0
100
AcDbEllipse
10
243.592433
20
0
30
0
11
-2.84588086259083
21
-23.3976524330335
31
0
210
0
220
0
230
1
40
0.116467
41
-1.30124777140016
42
-0.0858610597632969
0
ELLIPSE
5
257
100
AcDbEntity
8
1
62
256
6
ByLayer
370
13
48
1
60
0
100
AcDbEllipse
10
228.879362
20
8.37696
30
0
11
-0.318392676605446
21
-0.395166625626847
31
0
210
0
220
0
230
1
40
0.966608
41
-2.12586228202623
42
-1.28979794421784
0
ELLIPSE
5
258
100
AcDbEntity
8
1
62
256
6
ByLayer
370
13
48
1
60
0
100
AcDbEllipse
10
5.5
20
-29.498313
30
0
11
-0.5
21
5.05319527541181E-16
31
0
210
0
220
0
230
1
40
0.5
41
1.5707963267949
42
3.14159265358979
0
ELLIPSE
5
259
100
AcDbEntity
8
1
62
256
6
ByLayer
370
13
48
1
60
0
100
AcDbEllipse
10
225.111055
20
8.179471
30
0
11
-3.96879667591277
21
-0.704906652949949
31
0
210
0
220
0
230
1
40
0.015321
41
-3.01817314078251
42
-2.71671454009865
0
ELLIPSE
5
25A
100
AcDbEntity
8
1
62
256
6
ByLayer
370
13
48
1
60
0
100
AcDbEllipse
10
234.002789
20
-6.012606
30
0
11
-2.09999999999999
21
2.12234201567295E-15
31
0
210
0
220
0
230
1
40
0.994521
41
-2.75507855183075
42
-0.287750301864507
0
ELLIPSE
5
25B
100
AcDbEntity
8
1
62
256
6
ByLayer
370
13
48
1
60
0
100
AcDbEllipse
10
225.710238
20
9.512657
30
0
11
0.136073486231645
21
-2.59643679036189
31
0
210
0
220
0
230
1
40
0.995725
41
0.0555653949272816
42
1.07574208457342
0
ELLIPSE
5
25C
100
AcDbEntity
8
1
62
256
6
ByLayer
370
13
48
1
60
0
100
AcDbEllipse
10
219
20
6.575457
30
0
11
-3
21
3.03191716524709E-15
31
0
210
0
220
0
230
1
40
0.759766
41
-3.00121767443507
42
-1.69566291283513
0
ELLIPSE
5
25D
100
AcDbEntity
8
1
62
256
6
ByLayer
370
13
48
1
60
0
100
AcDbEllipse
10
247.091475
20
0.685819
30
0
11
-6.03299099262953
21
-0.0263218265793856
31
0
210
0
220
0
230
1
40
0.989073
41
0.0283136433529316
42
0.151915630390003
0
ELLIPSE
5
25E
100
AcDbEntity
8
1
62
256
6
ByLayer
370
13
48
1
60
0
100
AcDbEllipse
10
225.395926
20
0
30
0
11
-1.23697215236517
21
23.3997193903119
31
0
210
0
220
0
230
1
40
0.092638
41
-0.119796597760922
42
-0.00489770803490895
0
POINT
5
70
100
AcDbEntity
8
1
62
256
6
ByLayer
370
18
48
1
60
0
100
AcDbPoint
10
0
20
0
30
0
39
0
210
0
220
0
230
1
50
360
0
POINT
5
72
100
AcDbEntity
8
80
62
256
6
ByLayer
370
18
48
1
60
0
100
AcDbPoint
10
0
20
0
30
0
39
0
210
0
220
0
230
1
50
360
0
POINT
5
74
100
AcDbEntity
8
81
62
256
6
ByLayer
370
18
48
1
60
0
100
AcDbPoint
10
243
20
0
30
0
39
0
210
0
220
0
230
1
50
360
0
POINT
5
76
100
AcDbEntity
8
1
62
256
6
ByLayer
370
18
48
1
60
1
100
AcDbPoint
10
0
20
-34
30
0
39
0
210
0
220
0
230
1
50
360
0
POINT
5
77
100
AcDbEntity
8
1
62
256
6
ByLayer
370
18
48
1
60
1
100
AcDbPoint
10
243
20
-24
30
0
39
0
210
0
220
0
230
1
50
360
0
POINT
5
78
100
AcDbEntity
8
1
62
256
6
ByLayer
370
18
48
1
60
1
100
AcDbPoint
10
-18
20
-25
30
0
39
0
210
0
220
0
230
1
50
360
0
POINT
5
79
100
AcDbEntity
8
1
62
256
6
ByLayer
370
18
48
1
60
1
100
AcDbPoint
10
0
20
-34
30
0
39
0
210
0
220
0
230
1
50
360
0
POINT
5
7A
100
AcDbEntity
8
1
62
256
6
ByLayer
370
18
48
1
60
1
100
AcDbPoint
10
243
20
-24
30
0
39
0
210
0
220
0
230
1
50
360
0
POINT
5
7B
100
AcDbEntity
8
1
62
256
6
ByLayer
370
18
48
1
60
1
100
AcDbPoint
10
17.5518
20
-34
30
0
39
0
210
0
220
0
230
1
50
360
0
POINT
5
7C
100
AcDbEntity
8
1
62
256
6
ByLayer
370
18
48
1
60
1
100
AcDbPoint
10
46
20
-24
30
0
39
0
210
0
220
0
230
1
50
360
0
POINT
5
7D
100
AcDbEntity
8
1
62
256
6
ByLayer
370
18
48
1
60
1
100
AcDbPoint
10
243
20
-24
30
0
39
0
210
0
220
0
230
1
50
360
0
POINT
5
7E
100
AcDbEntity
8
1
62
256
6
ByLayer
370
18
48
1
60
1
100
AcDbPoint
10
241.7234
20
-12
30
0
39
0
210
0
220
0
230
1
50
360
0
SPLINE
5
25F
100
AcDbEntity
8
1
62
256
6
ByLayer
370
18
48
1
60
0
100
AcDbSpline
70
4
71
3
72
18
73
14
40
0
40
0
40
0
40
0
40
0.12499999999998
40
0.12499999999998
40
0.249999999999959
40
0.249999999999959
40
0.499999999999973
40
0.499999999999973
40
0.749999999999986
40
0.749999999999986
40
0.874999999999993
40
0.874999999999993
40
1
40
1
40
1
40
1
41
1
10
231.833294205629
20
15.9539417311047
30
0
41
1
10
231.863386815406
20
15.9562205370452
30
0
41
1
10
231.892471722503
20
15.9692532615383
30
0
41
1
10
231.947137616773
20
16.0046266339495
30
0
41
1
10
231.972528552686
20
16.0270868861027
30
0
41
1
10
232.043330933246
20
16.1021789820249
30
0
41
1
10
232.083677285638
20
16.1625978356275
30
0
41
1
10
232.149348867431
20
16.2921053088164
30
0
41
1
10
232.17460403993
20
16.360924920744
30
0
41
1
10
232.19463294567
20
16.4650630072619
30
0
41
1
10
232.198253326502
20
16.4999067948239
30
0
41
1
10
232.195728255809
20
16.5672038176976
30
0
41
1
10
232.189802531023
20
16.5997652543855
30
0
41
1
10
232.17468385455
20
16.6270374968399
30
0
0
SPLINE
5
260
100
AcDbEntity
8
1
62
256
6
ByLayer
370
18
48
1
60
0
100
AcDbSpline
70
4
71
3
72
8
73
4
40
0
40
0
40
0
40
0
40
1
40
1
40
1
40
1
41
1
10
231.873802353241
20
15.1810002295548
30
0
41
1
10
231.867505416107
20
15.1808167001105
30
0
41
1
10
231.861209507106
20
15.1806332051133
30
0
41
1
10
231.854914587425
20
15.1804497432582
30
0
0
SPLINE
5
261
100
AcDbEntity
8
1
62
256
6
ByLayer
370
18
48
1
60
0
100
AcDbSpline
70
4
71
3
72
18
73
14
40
0
40
0
40
0
40
0
40
0.125000000000028
40
0.125000000000028
40
0.250000000000055
40
0.250000000000055
40
0.500000000000044
40
0.500000000000044
40
0.750000000000034
40
0.750000000000034
40
0.875000000000017
40
0.875000000000017
40
1
40
1
40
1
40
1
41
1
10
234.668878086185
20
16.1025483852554
30
0
41
1
10
234.635414151083
20
16.1014970498886
30
0
41
1
10
234.602203594125
20
16.1112866195929
30
0
41
1
10
234.539090266042
20
16.1405423409843
30
0
41
1
10
234.509390834018
20
16.1601478914194
30
0
41
1
10
234.426058967271
20
16.2272702482705
30
0
41
1
10
234.377883760266
20
16.283137049367
30
0
41
1
10
234.299034981342
20
16.4052326027779
30
0
41
1
10
234.268588518887
20
16.4710268694026
30
0
41
1
10
234.242953430791
20
16.5720744959704
30
0
41
1
10
234.237757487755
20
16.6065646102785
30
0
41
1
10
234.238130198256
20
16.6737109314787
30
0
41
1
10
234.243460427307
20
16.7072295662275
30
0
41
1
10
234.259000939456
20
16.7362719265815
30
0
0
SPLINE
5
262
100
AcDbEntity
8
1
62
256
6
ByLayer
370
18
48
1
60
0
100
AcDbSpline
70
4
71
3
72
18
73
14
40
0
40
0
40
0
40
0
40
0.125
40
0.125
40
0.25
40
0.25
40
0.5
40
0.5
40
0.75
40
0.75
40
0.875
40
0.875
40
1
40
1
40
1
40
1
41
1
10
232.820954925372
20
17.0484393502811
30
0
41
1
10
232.83723643454
20
17.0219434947084
30
0
41
1
10
232.862372290311
20
17.0018644788738
30
0
41
1
10
232.919096512
20
16.9697575662553
30
0
41
1
10
232.950698449704
20
16.9579656228052
30
0
41
1
10
233.049744908582
20
16.9316616112241
30
0
41
1
10
233.12164798585
20
16.9259933556264
30
0
41
1
10
233.266189659956
20
16.9335817750537
30
0
41
1
10
233.338558847821
20
16.9467602952771
30
0
41
1
10
233.439523700454
20
16.9836167260242
30
0
41
1
10
233.47185601554
20
16.9988097806713
30
0
41
1
10
233.529757311698
20
17.0368595643679
30
0
41
1
10
233.555526947086
20
17.0595741224147
30
0
41
1
10
233.572221721022
20
17.0878115746902
30
0
0
SPLINE
5
263
100
AcDbEntity
8
1
62
256
6
ByLayer
370
18
48
1
60
0
100
AcDbSpline
70
4
71
3
72
8
73
4
40
0
40
0
40
0
40
0
40
1
40
1
40
1
40
1
41
1
10
234.709386233797
20
15.3296068837055
30
0
41
1
10
234.716349168566
20
15.3301182747013
30
0
41
1
10
234.723311372122
20
15.3306296079406
30
0
41
1
10
234.730272871665
20
15.3311408855783
30
0
0
SPLINE
5
264
100
AcDbEntity
8
1
62
256
6
ByLayer
370
18
48
1
60
0
100
AcDbSpline
70
4
71
3
72
16
73
12
40
0
40
0
40
0
40
0
40
0.249999999999964
40
0.249999999999964
40
0.499999999999928
40
0.499999999999928
40
0.749999999999891
40
0.749999999999891
40
0.874999999999946
40
0.874999999999946
40
1
40
1
40
1
40
1
41
1
10
234.19139152639
20
14.2361947875467
30
0
41
1
10
234.154439588538
20
14.2121002306309
30
0
41
1
10
234.115403044618
20
14.19096673947
30
0
41
1
10
234.033847917886
20
14.1561984441167
30
0
41
1
10
233.991377322638
20
14.1424762472225
30
0
41
1
10
233.903977237058
20
14.1273981310139
30
0
41
1
10
233.858887127736
20
14.1256483615896
30
0
41
1
10
233.796781762244
20
14.1442060309323
30
0
41
1
10
233.777657553873
20
14.1542601757681
30
0
41
1
10
233.748481052846
20
14.1820524981385
30
0
41
1
10
233.738654169569
20
14.1996576880752
30
0
41
1
10
233.733964367534
20
14.2186260876381
30
0
0
SPLINE
5
265
100
AcDbEntity
8
1
62
256
6
ByLayer
370
18
48
1
60
0
100
AcDbSpline
70
4
71
3
72
16
73
12
40
0
40
0
40
0
40
0
40
0.25
40
0.25
40
0.5
40
0.5
40
0.75
40
0.75
40
0.875
40
0.875
40
1
40
1
40
1
40
1
41
1
10
232.524446268007
20
14.1488338883685
30
0
41
1
10
232.48517818973
20
14.168933923502
30
0
41
1
10
232.447376608596
20
14.1922399251265
30
0
41
1
10
232.376385238929
20
14.2454054008599
30
0
41
1
10
232.343146969121
20
14.275185132896
30
0
41
1
10
232.285891765043
20
14.3426430409976
30
0
41
1
10
232.261465216772
20
14.3802846276286
30
0
41
1
10
232.245472094616
20
14.4417579759194
30
0
41
1
10
232.244198859104
20
14.4626768510112
30
0
41
1
10
232.252716234726
20
14.5002626631984
30
0
41
1
10
232.26250884242
20
14.5166747748226
30
0
41
1
10
232.276054115443
20
14.5293130911711
30
0
0
SPLINE
5
266
100
AcDbEntity
8
1
62
256
6
ByLayer
370
18
48
1
60
0
100
AcDbSpline
70
4
71
3
72
16
73
12
40
0
40
0
40
0
40
0
40
0.250000000000005
40
0.250000000000005
40
0.500000000000009
40
0.500000000000009
40
0.750000000000014
40
0.750000000000014
40
0.875000000000007
40
0.875000000000007
40
1
40
1
40
1
40
1
41
1
10
234.039428321854
20
17.1358254647998
30
0
41
1
10
234.078696400131
20
17.1157254296662
30
0
41
1
10
234.116305003902
20
17.0924093145268
30
0
41
1
10
234.186416252344
20
17.0391977135945
30
0
41
1
10
234.218980004685
20
17.0093826315958
30
0
41
1
10
234.273952062777
20
16.9418050688832
30
0
41
1
10
234.296815719027
20
16.9040815745522
30
0
41
1
10
234.308762211463
20
16.8423961513842
30
0
41
1
10
234.308390102809
20
16.8213910474585
30
0
41
1
10
234.296133539786
20
16.7836092727633
30
0
41
1
10
234.284264189368
20
16.7670883236648
30
0
41
1
10
234.268671123706
20
16.7543426870517
30
0
0
SPLINE
5
267
100
AcDbEntity
8
1
62
256
6
ByLayer
370
18
48
1
60
0
100
AcDbSpline
70
4
71
3
72
16
73
12
40
0
40
0
40
0
40
0
40
0.124999999999951
40
0.124999999999951
40
0.249999999999902
40
0.249999999999902
40
0.499999999999934
40
0.499999999999934
40
0.749999999999967
40
0.749999999999967
40
1
40
1
40
1
40
1
41
1
10
232.962054671517
20
14.1781720146628
30
0
41
1
10
232.961418727008
20
14.1588528132346
30
0
41
1
10
232.955513666982
20
14.1403267355727
30
0
41
1
10
232.932902208196
20
14.1097101199827
30
0
41
1
10
232.916290140622
20
14.0977629138601
30
0
41
1
10
232.860864259418
20
14.0734022676537
30
0
41
1
10
232.817438682479
20
14.0704686773493
30
0
41
1
10
232.731415949525
20
14.0764535720255
30
0
41
1
10
232.688387385212
20
14.0856974213232
30
0
41
1
10
232.60461930186
20
14.1117645486895
30
0
41
1
10
232.563687188712
20
14.1287477543011
30
0
41
1
10
232.524446268007
20
14.1488338883685
30
0
0
SPLINE
5
268
100
AcDbEntity
8
1
62
256
6
ByLayer
370
18
48
1
60
0
100
AcDbSpline
70
4
71
3
72
16
73
12
40
0
40
0
40
0
40
0
40
0.125000000000002
40
0.125000000000002
40
0.250000000000003
40
0.250000000000003
40
0.500000000000002
40
0.500000000000002
40
0.750000000000001
40
0.750000000000001
40
1
40
1
40
1
40
1
41
1
10
232.165222535483
20
16.6441056177069
30
0
41
1
10
232.150375209176
20
16.6553004479701
30
0
41
1
10
232.138868202608
20
16.6706966407052
30
0
41
1
10
232.126495886057
20
16.7074644360433
30
0
41
1
10
232.125697614139
20
16.7286761235625
30
0
41
1
10
232.135290280817
20
16.7909675515283
30
0
41
1
10
232.155595735046
20
16.8309465914482
30
0
41
1
10
232.205390370863
20
16.9038473507973
30
0
41
1
10
232.235350580086
20
16.9369651111677
30
0
41
1
10
232.300320362058
20
16.9971934417901
30
0
41
1
10
232.335556681363
20
17.0243866723598
30
0
41
1
10
232.372483063471
20
17.0484645656216
30
0
0
SPLINE
5
269
100
AcDbEntity
8
1
62
256
6
ByLayer
370
18
48
1
60
0
100
AcDbSpline
70
4
71
3
72
16
73
12
40
0
40
0
40
0
40
0
40
0.124999999999945
40
0.124999999999945
40
0.249999999999889
40
0.249999999999889
40
0.499999999999926
40
0.499999999999926
40
0.749999999999963
40
0.749999999999963
40
1
40
1
40
1
40
1
41
1
10
233.582670567633
20
17.10548376356
30
0
41
1
10
233.585361945435
20
17.1249106856826
30
0
41
1
10
233.593355250091
20
17.1435462036081
30
0
41
1
10
233.61972457386
20
17.1743597605568
30
0
41
1
10
233.637993288717
20
17.1863937878845
30
0
41
1
10
233.697418652211
20
17.210964038076
30
0
41
1
10
233.742410862011
20
17.2139797321296
30
0
41
1
10
233.830710243336
20
17.2081141515387
30
0
41
1
10
233.874414328412
20
17.1989057047841
30
0
41
1
10
233.959061690115
20
17.1728846584435
30
0
41
1
10
234.000187401149
20
17.1559115988671
30
0
41
1
10
234.039428321854
20
17.1358254647998
30
0
0
SPLINE
5
26A
100
AcDbEntity
8
1
62
256
6
ByLayer
370
18
48
1
60
0
100
AcDbSpline
70
4
71
3
72
16
73
12
40
0
40
0
40
0
40
0
40
0.125
40
0.125
40
0.25
40
0.25
40
0.5
40
0.5
40
0.75
40
0.75
40
1
40
1
40
1
40
1
41
1
10
234.730272871665
20
15.3311408855783
30
0
41
1
10
234.749603701477
20
15.3248410441151
30
0
41
1
10
234.770379911955
20
15.3237125219843
30
0
41
1
10
234.810165866619
20
15.3337822172392
30
0
41
1
10
234.82899739937
20
15.3449460546772
30
0
41
1
10
234.876613911858
20
15.3877743291039
30
0
41
1
10
234.89808502549
20
15.4271567063916
30
0
41
1
10
234.929283837687
20
15.5095760549991
30
0
41
1
10
234.938865890144
20
15.5531247222265
30
0
41
1
10
234.949859798379
20
15.6409815237612
30
0
41
1
10
234.95119709191
20
15.6855265484332
30
0
41
1
10
234.948882553313
20
15.7296905757624
30
0
0
SPLINE
5
26B
100
AcDbEntity
8
1
62
256
6
ByLayer
370
18
48
1
60
0
100
AcDbSpline
70
4
71
3
72
16
73
12
40
0
40
0
40
0
40
0
40
0.249999999999974
40
0.249999999999974
40
0.499999999999949
40
0.499999999999949
40
0.749999999999923
40
0.749999999999923
40
0.874999999999962
40
0.874999999999962
40
1
40
1
40
1
40
1
41
1
10
231.614992036548
20
15.5549687774059
30
0
41
1
10
231.612675896122
20
15.5991633694552
30
0
41
1
10
231.613814370227
20
15.643597805483
30
0
41
1
10
231.62393806668
20
15.7315085139703
30
0
41
1
10
231.632833133387
20
15.7749927679195
30
0
41
1
10
231.661836441895
20
15.8574689649242
30
0
41
1
10
231.681718556935
20
15.8968193671294
30
0
41
1
10
231.725807485412
20
15.9396290086389
30
0
41
1
10
231.742835786187
20
15.950450624478
30
0
41
1
10
231.778660069136
20
15.9601461330408
30
0
41
1
10
231.797241188744
20
15.9588986359912
30
0
41
1
10
231.814452367484
20
15.9525148926445
30
0
0
SPLINE
5
26C
100
AcDbEntity
8
1
62
256
6
ByLayer
370
18
48
1
60
0
100
AcDbSpline
70
4
71
3
72
16
73
12
40
0
40
0
40
0
40
0
40
0.249999999999968
40
0.249999999999968
40
0.499999999999935
40
0.499999999999935
40
0.749999999999903
40
0.749999999999903
40
0.874999999999951
40
0.874999999999951
40
1
40
1
40
1
40
1
41
1
10
232.372483063471
20
17.0484645656216
30
0
41
1
10
232.409435001323
20
17.0725591225374
30
0
41
1
10
232.44827856788
20
17.0936825001832
30
0
41
1
10
232.528953573387
20
17.1284046703376
30
0
41
1
10
232.570749651169
20
17.1420915172694
30
0
41
1
10
232.655866590762
20
17.157049978867
30
0
41
1
10
232.699393808063
20
17.1587178405912
30
0
41
1
10
232.757452543835
20
17.1399480963713
30
0
41
1
10
232.77493140804
20
17.1298077227016
30
0
41
1
10
232.800368721666
20
17.1018194378232
30
0
41
1
10
232.808118862218
20
17.0841054104122
30
0
41
1
10
232.810760871616
20
17.0650296905847
30
0
0
SPLINE
5
26D
100
AcDbEntity
8
1
62
256
6
ByLayer
370
18
48
1
60
0
100
AcDbSpline
70
4
71
3
72
20
73
16
40
0
40
0
40
0
40
0
40
0.12500000000001
40
0.12500000000001
40
0.25000000000002
40
0.25000000000002
40
0.37500000000003
40
0.37500000000003
40
0.50000000000004
40
0.50000000000004
40
0.750000000000022
40
0.750000000000022
40
0.875000000000011
40
0.875000000000011
40
1
40
1
40
1
40
1
41
1
10
234.367996584875
20
14.6565111179703
30
0
41
1
10
234.349539847223
20
14.6837192513857
30
0
41
1
10
234.340703764333
20
14.7164027543394
30
0
41
1
10
234.333282355908
20
14.7836681016827
30
0
41
1
10
234.334865245712
20
14.8181312090723
30
0
41
1
10
234.344872306323
20
14.8871583565673
30
0
41
1
10
234.353441604393
20
14.921816992692
30
0
41
1
10
234.375736728929
20
14.9891283192422
30
0
41
1
10
234.389538754432
20
15.0221531479974
30
0
41
1
10
234.43875825694
20
15.1194269607459
30
0
41
1
10
234.480823844108
20
15.1800772272744
30
0
41
1
10
234.556850686083
20
15.2557087143324
30
0
41
1
10
234.584416319433
20
15.2783461271103
30
0
41
1
10
234.644004410264
20
15.3139448840541
30
0
41
1
10
234.6759747606
20
15.327152986446
30
0
41
1
10
234.709386233797
20
15.3296068837055
30
0
0
SPLINE
5
26E
100
AcDbEntity
8
1
62
256
6
ByLayer
370
18
48
1
60
0
100
AcDbSpline
70
4
71
3
72
16
73
12
40
0
40
0
40
0
40
0
40
0.250000000000028
40
0.250000000000028
40
0.500000000000056
40
0.500000000000056
40
0.750000000000083
40
0.750000000000083
40
0.875000000000042
40
0.875000000000042
40
1
40
1
40
1
40
1
41
1
10
234.948882553313
20
15.7296905757624
30
0
41
1
10
234.946566412887
20
15.7738851678117
30
0
41
1
10
234.940596534786
20
15.817947070886
30
0
41
1
10
234.920459004514
20
15.9042718556823
30
0
41
1
10
234.906392806205
20
15.9465527607224
30
0
41
1
10
234.86664412474
20
16.0254258186114
30
0
41
1
10
234.841194796913
20
16.0624005005642
30
0
41
1
10
234.78882593644
20
16.1001550035603
30
0
41
1
10
234.769114407438
20
16.1090511665095
30
0
41
1
10
234.728733729648
20
16.1147529423096
30
0
41
1
10
234.708308055582
20
16.1114611858266
30
0
41
1
10
234.689810651724
20
16.1032060349646
30
0
0
SPLINE
5
26F
100
AcDbEntity
8
1
62
256
6
ByLayer
370
18
48
1
60
0
100
AcDbSpline
70
4
71
3
72
8
73
4
40
0
40
0
40
0
40
0
40
1
40
1
40
1
40
1
41
1
10
234.268671123706
20
16.7543426870517
30
0
41
1
10
234.265447958307
20
16.7483198697236
30
0
41
1
10
234.262224566419
20
16.7422962927671
30
0
41
1
10
234.259000939456
20
16.7362719265815
30
0
0
SPLINE
5
270
100
AcDbEntity
8
1
62
256
6
ByLayer
370
18
48
1
60
0
100
AcDbSpline
70
4
71
3
72
8
73
4
40
0
40
0
40
0
40
0
40
1
40
1
40
1
40
1
41
1
10
234.689810651724
20
16.1032060349646
30
0
41
1
10
234.682833844938
20
16.1029868369206
30
0
41
1
10
234.675856332184
20
16.1027676205843
30
0
41
1
10
234.668878086185
20
16.1025483852554
30
0
0
SPLINE
5
271
100
AcDbEntity
8
1
62
256
6
ByLayer
370
18
48
1
60
0
100
AcDbSpline
70
4
71
3
72
18
73
14
40
0
40
0
40
0
40
0
40
0.12500000000001
40
0.12500000000001
40
0.250000000000021
40
0.250000000000021
40
0.500000000000015
40
0.500000000000015
40
0.750000000000009
40
0.750000000000009
40
0.875000000000005
40
0.875000000000005
40
1
40
1
40
1
40
1
41
1
10
232.283679499969
20
14.5472766882287
30
0
41
1
10
232.295858669442
20
14.575965823855
30
0
41
1
10
232.298362886116
20
14.6090018436071
30
0
41
1
10
232.293809249384
20
14.6763513550173
30
0
41
1
10
232.286559945026
20
14.7105491354887
30
0
41
1
10
232.25581299604
20
14.8118140730986
30
0
41
1
10
232.22340345536
20
14.8778564881164
30
0
41
1
10
232.144534512532
20
14.99977560212
30
0
41
1
10
232.098269232864
20
15.0554611741773
30
0
41
1
10
232.01984167711
20
15.1228742891572
30
0
41
1
10
231.992171550623
20
15.1425796209037
30
0
41
1
10
231.934235574726
20
15.1719573759402
30
0
41
1
10
231.903983073949
20
15.1818798716381
30
0
41
1
10
231.873802353241
20
15.1810002295548
30
0
0
SPLINE
5
272
100
AcDbEntity
8
1
62
256
6
ByLayer
370
18
48
1
60
0
100
AcDbSpline
70
4
71
3
72
8
73
4
40
0
40
0
40
0
40
0
40
1
40
1
40
1
40
1
41
1
10
234.367996584875
20
14.6565111179703
30
0
41
1
10
234.371832270212
20
14.6508567146656
30
0
41
1
10
234.375667639265
20
14.6452030716945
30
0
41
1
10
234.379502703666
20
14.6395501605159
30
0
0
SPLINE
5
273
100
AcDbEntity
8
1
62
256
6
ByLayer
370
18
48
1
60
0
100
AcDbSpline
70
4
71
3
72
16
73
12
40
0
40
0
40
0
40
0
40
0.125000000000042
40
0.125000000000042
40
0.250000000000085
40
0.250000000000085
40
0.500000000000057
40
0.500000000000057
40
0.750000000000028
40
0.750000000000028
40
1
40
1
40
1
40
1
41
1
10
231.854914587425
20
15.1804497432582
30
0
41
1
10
231.838403599963
20
15.1722715117462
30
0
41
1
10
231.819947411053
20
15.1690869066875
30
0
41
1
10
231.783084703225
20
15.1751396157562
30
0
41
1
10
231.764846040091
20
15.1843606865503
30
0
41
1
10
231.71701308442
20
15.2221866663171
30
0
41
1
10
231.693109645279
20
15.259191064058
30
0
41
1
10
231.655743223957
20
15.3380170610407
30
0
41
1
10
231.642337108486
20
15.3803609694372
30
0
41
1
10
231.62309916793
20
15.4666333869131
30
0
41
1
10
231.617306575145
20
15.5108047500768
30
0
41
1
10
231.614992036548
20
15.5549687774059
30
0
0
SPLINE
5
274
100
AcDbEntity
8
1
62
256
6
ByLayer
370
18
48
1
60
0
100
AcDbSpline
70
4
71
3
72
8
73
4
40
0
40
0
40
0
40
0
40
1
40
1
40
1
40
1
41
1
10
231.814452367484
20
15.9525148926445
30
0
41
1
10
231.820731979922
20
15.9529904340932
30
0
41
1
10
231.827012579724
20
15.9534660459935
30
0
41
1
10
231.833294205629
20
15.9539417311047
30
0
0
SPLINE
5
275
100
AcDbEntity
8
1
62
256
6
ByLayer
370
18
48
1
60
0
100
AcDbSpline
70
4
71
3
72
8
73
4
40
0
40
0
40
0
40
0
40
1
40
1
40
1
40
1
41
1
10
233.572221721022
20
17.0878115746902
30
0
41
1
10
233.575704936117
20
17.0937030662661
30
0
41
1
10
233.579187881695
20
17.099593786243
30
0
41
1
10
233.582670567633
20
17.10548376356
30
0
0
SPLINE
5
276
100
AcDbEntity
8
1
62
256
6
ByLayer
370
18
48
1
60
0
100
AcDbSpline
70
4
71
3
72
18
73
14
40
0
40
0
40
0
40
0
40
0.125000000000045
40
0.125000000000045
40
0.250000000000091
40
0.250000000000091
40
0.500000000000089
40
0.500000000000089
40
0.750000000000087
40
0.750000000000087
40
0.875000000000043
40
0.875000000000043
40
1
40
1
40
1
40
1
41
1
10
233.721725514053
20
14.2351092645291
30
0
41
1
10
233.702180142611
20
14.2614340683281
30
0
41
1
10
233.674154617537
20
14.2813616430116
30
0
41
1
10
233.612439777223
20
14.3132070083908
30
0
41
1
10
233.578761234383
20
14.3248901215773
30
0
41
1
10
233.474709034171
20
14.3509317933714
30
0
41
1
10
233.401100325296
20
14.3565106606042
30
0
41
1
10
233.256560950158
20
14.3489223616608
30
0
41
1
10
233.185889233689
20
14.3358328021436
30
0
41
1
10
233.089941163335
20
14.2992392898149
30
0
41
1
10
233.059692463783
20
14.2841554328309
30
0
41
1
10
233.006771949533
20
14.2463666808532
30
0
41
1
10
232.983888032938
20
14.2238033569199
30
0
41
1
10
232.970458718403
20
14.19573704012
30
0
0
SPLINE
5
277
100
AcDbEntity
8
1
62
256
6
ByLayer
370
18
48
1
60
0
100
AcDbSpline
70
4
71
3
72
8
73
4
40
0
40
0
40
0
40
0
40
1
40
1
40
1
40
1
41
1
10
232.276054115443
20
14.5293130911711
30
0
41
1
10
232.278595393736
20
14.5353001723103
30
0
41
1
10
232.281137181871
20
14.5412880279277
30
0
41
1
10
232.283679499969
20
14.5472766882287
30
0
0
SPLINE
5
278
100
AcDbEntity
8
1
62
256
6
ByLayer
370
18
48
1
60
0
100
AcDbSpline
70
4
71
3
72
8
73
4
40
0
40
0
40
0
40
0
40
1
40
1
40
1
40
1
41
1
10
232.810760871616
20
17.0650296905847
30
0
41
1
10
232.814158262207
20
17.0595002827999
30
0
41
1
10
232.817556271998
20
17.0539701784132
30
0
41
1
10
232.820954925372
20
17.0484393502811
30
0
0
SPLINE
5
279
100
AcDbEntity
8
1
62
256
6
ByLayer
370
18
48
1
60
0
100
AcDbSpline
70
4
71
3
72
8
73
4
40
0
40
0
40
0
40
0
40
1
40
1
40
1
40
1
41
1
10
232.970458718403
20
14.1957370401199
30
0
41
1
10
232.967656812173
20
14.1898812544287
30
0
41
1
10
232.964855470349
20
14.1840262557908
30
0
41
1
10
232.962054671517
20
14.1781720146628
30
0
0
SPLINE
5
27A
100
AcDbEntity
8
1
62
256
6
ByLayer
370
18
48
1
60
0
100
AcDbSpline
70
4
71
3
72
8
73
4
40
0
40
0
40
0
40
0
40
1
40
1
40
1
40
1
41
1
10
232.17468385455
20
16.6270374968399
30
0
41
1
10
232.171529478078
20
16.6327276060292
30
0
41
1
10
232.168375712779
20
16.6384169703394
30
0
41
1
10
232.165222535483
20
16.6441056177069
30
0
0
SPLINE
5
27B
100
AcDbEntity
8
1
62
256
6
ByLayer
370
18
48
1
60
0
100
AcDbSpline
70
4
71
3
72
16
73
12
40
0
40
0
40
0
40
0
40
0.125000000000002
40
0.125000000000002
40
0.250000000000003
40
0.250000000000003
40
0.500000000000002
40
0.500000000000002
40
0.750000000000001
40
0.750000000000001
40
1
40
1
40
1
40
1
41
1
10
234.379502703666
20
14.6395501605159
30
0
41
1
10
234.396405463267
20
14.6284630509471
30
0
41
1
10
234.410000714465
20
14.6131762984756
30
0
41
1
10
234.426130896
20
14.5766054444962
30
0
41
1
10
234.4285858152
20
14.555480578182
30
0
41
1
10
234.422992630811
20
14.4933987542014
30
0
41
1
10
234.404253809444
20
14.4535018180307
30
0
41
1
10
234.356735821998
20
14.3807203727669
30
0
41
1
10
234.327451133537
20
14.3476380149396
30
0
41
1
10
234.263360629917
20
14.2874557653429
30
0
41
1
10
234.228317908498
20
14.2602726808085
30
0
41
1
10
234.19139152639
20
14.2361947875467
30
0
0
SPLINE
5
27C
100
AcDbEntity
8
1
62
256
6
ByLayer
370
18
48
1
60
0
100
AcDbSpline
70
4
71
3
72
8
73
4
40
0
40
0
40
0
40
0
40
1
40
1
40
1
40
1
41
1
10
233.733964367534
20
14.2186260876381
30
0
41
1
10
233.729885089837
20
14.2241197592339
30
0
41
1
10
233.725805476292
20
14.2296141422815
30
0
41
1
10
233.721725514053
20
14.2351092645291
30
0
0
SPLINE
5
27D
100
AcDbEntity
8
1
62
256
6
ByLayer
370
18
48
1
60
0
100
AcDbSpline
70
4
71
3
72
30
73
26
40
0
40
0
40
0
40
0
40
0.0050414800462702
40
0.0127266938187286
40
0.0280971213636455
40
0.0588379764534791
40
0.120319686633147
40
0.243283106992481
40
0.366246527351816
40
0.485367340824921
40
0.489209947711151
40
0.496895161483609
40
0.504580375256067
40
0.519950802800984
40
0.550691657890818
40
0.612173368070485
40
0.73513678842982
40
0.858100208789155
40
0.919581918968822
40
0.950322774058656
40
0.965693201603573
40
0.98106362914849
40
0.988748842920948
40
0.996434056693406
40
1
40
1
40
1
40
1
41
1
10
241.245173674231
20
-13.9787511634531
30
0
41
1
10
241.273170952315
20
-13.9675617222808
30
0
41
1
10
241.34363797876
20
-13.9327893990654
30
0
41
1
10
241.480386952635
20
-13.7971508971023
30
0
41
1
10
241.523309450739
20
-13.4951286109072
30
0
41
1
10
241.588462061976
20
-12.9906436412953
30
0
41
1
10
241.724904343619
20
-11.9681400925901
30
0
41
1
10
241.914859173731
20
-10.5142059866097
30
0
41
1
10
242.151947525557
20
-8.78680179266857
30
0
41
1
10
242.305495032153
20
-7.6212363549123
30
0
41
1
10
242.384581729116
20
-6.99211532110868
30
0
41
1
10
242.380028996097
20
-6.8818028631182
30
0
41
1
10
242.347441572928
20
-6.73099733223774
30
0
41
1
10
242.312706497594
20
-6.48022320023773
30
0
41
1
10
242.228342488667
20
-5.97149759487567
30
0
41
1
10
242.068980504796
20
-4.95686475737796
30
0
41
1
10
241.837404971428
20
-3.50636871858404
30
0
41
1
10
241.604428430215
20
-2.05701329509333
30
0
41
1
10
241.447119657057
20
-1.04033706903786
30
0
41
1
10
241.359596941711
20
-0.536098305054367
30
0
41
1
10
241.324668124438
20
-0.245729122782535
30
0
41
1
10
241.297125794985
20
-0.0487559094404162
30
0
41
1
10
241.22612556812
20
0.124776629958063
30
0
41
1
10
241.13420693408
20
0.2164351452343
30
0
41
1
10
241.07524979921
20
0.24867513751019
30
0
41
1
10
241.056288387128
20
0.257166897238306
30
0
0
SPLINE
5
27E
100
AcDbEntity
8
1
62
256
6
ByLayer
370
18
48
1
60
0
100
AcDbSpline
70
4
71
1
72
4
73
2
40
0
40
0
40
1
40
1
41
1
10
241.755461960467
20
0.226269201804058
30
0
41
1
10
241.420025499427
20
0.204983866300012
30
0
0
SPLINE
5
27F
100
AcDbEntity
8
1
62
256
6
ByLayer
370
18
48
1
60
0
100
AcDbSpline
70
4
71
3
72
12
73
8
40
0
40
0
40
0
40
0
40
0.44101884104609
40
0.44101884104609
40
0.720346478908699
40
0.720346478908699
40
1
40
1
40
1
40
1
41
1
10
241.856297981034
20
-0.123723854502856
30
0
41
1
10
241.860257764379
20
-0.137457081823413
30
0
41
1
10
241.86384679566
20
-0.15130144567209
30
0
41
1
10
241.869091215029
20
-0.174048721765018
30
0
41
1
10
241.870974030201
20
-0.182906398427889
30
0
41
1
10
241.874436272903
20
-0.20068832994366
30
0
41
1
10
241.876015848771
20
-0.209615243035387
30
0
41
1
10
241.877441505756
20
-0.21856512559026
30
0
0
SPLINE
5
280
100
AcDbEntity
8
1
62
256
6
ByLayer
370
18
48
1
60
0
100
AcDbSpline
70
4
71
1
72
4
73
2
40
0
40
0
40
1
40
1
41
1
10
242.555958110734
20
-6.84477148910696
30
0
41
1
10
242.990160650643
20
-7.20499356432271
30
0
0
SPLINE
5
281
100
AcDbEntity
8
1
62
256
6
ByLayer
370
18
48
1
60
0
100
AcDbSpline
70
4
71
3
72
12
73
8
40
0
40
0
40
0
40
0
40
0.499999999999922
40
0.499999999999922
40
0.749999999999961
40
0.749999999999961
40
1
40
1
40
1
40
1
41
1
10
241.46470521094
20
0.475518535994013
30
0
41
1
10
241.531820335428
20
0.466672766807875
30
0
41
1
10
241.596055297994
20
0.437804905779927
30
0
41
1
10
241.673063730679
20
0.372003898075633
30
0
41
1
10
241.695509450655
20
0.346281306264558
30
0
41
1
10
241.731901573908
20
0.289573825727501
30
0
41
1
10
241.745314905149
20
0.258492541864712
30
0
41
1
10
241.755465232709
20
0.22635188089555
30
0
0
SPLINE
5
282
100
AcDbEntity
8
1
62
256
6
ByLayer
370
18
48
1
60
0
100
AcDbSpline
70
4
71
3
72
12
73
8
40
0
40
0
40
0
40
0
40
0.441018840867278
40
0.441018840867278
40
0.720346478816475
40
0.720346478816475
40
1
40
1
40
1
40
1
41
1
10
241.448710350842
20
-14.9380656437466
30
0
41
1
10
241.434901627512
20
-14.9420038921059
30
0
41
1
10
241.420981171648
20
-14.9455734358635
30
0
41
1
10
241.398108974879
20
-14.9507895147986
30
0
41
1
10
241.38920268041
20
-14.9526621928748
30
0
41
1
10
241.371323228284
20
-14.9561059049395
30
0
41
1
10
241.362347397946
20
-14.9576770866593
30
0
41
1
10
241.353348527959
20
-14.959095248833
30
0
0
SPLINE
5
283
100
AcDbEntity
8
1
62
256
6
ByLayer
370
18
48
1
60
0
100
AcDbSpline
70
4
71
1
72
4
73
2
40
0
40
0
40
1
40
1
41
1
10
241.353368705889
20
-14.9592649885657
30
0
41
1
10
241.260180841381
20
-14.1753497442007
30
0
0
SPLINE
5
284
100
AcDbEntity
8
1
62
256
6
ByLayer
370
18
48
1
60
0
100
AcDbSpline
70
4
71
1
72
4
73
2
40
0
40
0
40
1
40
1
41
1
10
242.979329004946
20
-7.53782988261494
30
0
41
1
10
242.993165867283
20
-7.43330431506797
30
0
0
SPLINE
5
285
100
AcDbEntity
8
1
62
256
6
ByLayer
370
18
48
1
60
0
100
AcDbSpline
70
4
71
1
72
4
73
2
40
0
40
0
40
1
40
1
41
1
10
241.464704534157
20
0.475429194193936
30
0
41
1
10
241.061013066972
20
0.528284998897107
30
0
0
SPLINE
5
286
100
AcDbEntity
8
1
62
256
6
ByLayer
370
18
48
1
60
0
100
AcDbSpline
70
4
71
1
72
4
73
2
40
0
40
0
40
1
40
1
41
1
10
242.886152637382
20
-8.24169702134728
30
0
41
1
10
242.946471987811
20
-7.78603632425785
30
0
0
SPLINE
5
287
100
AcDbEntity
8
1
62
256
6
ByLayer
370
18
48
1
60
0
100
AcDbSpline
70
4
71
3
72
10
73
6
40
0
40
0
40
0
40
0
40
0.53820620272086
40
0.53820620272086
40
1
40
1
40
1
40
1
41
1
10
241.802776162421
20
-14.8370937989298
30
0
41
1
10
241.739255890049
20
-14.8552074793821
30
0
41
1
10
241.675736082485
20
-14.8733242073382
30
0
41
1
10
241.55771409579
20
-14.9069811644729
30
0
41
1
10
241.503211975166
20
-14.9225217786377
30
0
41
1
10
241.44871035097
20
-14.9380656437101
30
0
0
SPLINE
5
288
100
AcDbEntity
8
1
62
256
6
ByLayer
370
18
48
1
60
0
100
AcDbSpline
70
4
71
3
72
10
73
6
40
0
40
0
40
0
40
0
40
0.772130665068846
40
0.772130665068846
40
1
40
1
40
1
40
1
41
1
10
241.755386996133
20
0.226264444894269
30
0
41
1
10
241.781358646103
20
0.136185848891444
30
0
41
1
10
241.807332194361
20
0.0461061128224856
30
0
41
1
10
241.840968195887
20
-0.0705560568074191
30
0
41
1
10
241.848632844662
20
-0.0971398091786853
30
0
41
1
10
241.856297980885
20
-0.123723853983449
30
0
0
SPLINE
5
289
100
AcDbEntity
8
1
62
256
6
ByLayer
370
18
48
1
60
0
100
AcDbSpline
70
4
71
1
72
4
73
2
40
0
40
0
40
1
40
1
41
1
10
242.935251136466
20
-6.86020797663909
30
0
41
1
10
242.863960106554
20
-6.41256024175999
30
0
0
SPLINE
5
28A
100
AcDbEntity
8
1
62
256
6
ByLayer
370
18
48
1
60
0
100
AcDbSpline
70
4
71
1
72
4
73
2
40
0
40
0
40
1
40
1
41
1
10
241.800713127593
20
-14.8378632353739
30
0
41
1
10
241.411419951329
20
-14.1383896297465
30
0
0
SPLINE
5
28B
100
AcDbEntity
8
1
62
256
6
ByLayer
370
18
48
1
60
0
100
AcDbSpline
70
4
71
2
72
12
73
9
40
0
40
0
40
0
40
0.25
40
0.5
40
0.5
40
0.75
40
0.75
40
0.875
40
1
40
1
40
1
41
1
10
241.411419951329
20
-14.1383896297466
30
0
41
1
10
241.459904071479
20
-14.1245632024735
30
0
41
1
10
241.545634050099
20
-14.070449340751
30
0
41
1
10
241.579899576961
20
-14.0312304595557
30
0
41
1
10
241.612669916063
20
-13.993722907399
30
0
41
1
10
241.63423661022
20
-13.9463727598851
30
0
41
1
10
241.64425255442
20
-13.9243825358908
30
0
41
1
10
241.658535536238
20
-13.875038031327
30
0
41
1
10
241.661952578272
20
-13.8492252242598
30
0
0
SPLINE
5
28C
100
AcDbEntity
8
1
62
256
6
ByLayer
370
18
48
1
60
0
100
AcDbSpline
70
4
71
1
72
4
73
2
40
0
40
0
40
1
40
1
41
1
10
242.05124575453
20
-14.5486988298874
30
0
41
1
10
242.886152637382
20
-8.24169702134728
30
0
0
SPLINE
5
28D
100
AcDbEntity
8
1
62
256
6
ByLayer
370
18
48
1
60
0
100
AcDbSpline
70
4
71
2
72
6
73
3
40
0
40
0
40
0
40
1
40
1
40
1
41
1
10
241.260180841381
20
-14.1753497442007
30
0
41
1
10
241.308508526836
20
-14.1677373279575
30
0
41
1
10
241.355543154003
20
-14.1543242589015
30
0
0
SPLINE
5
28E
100
AcDbEntity
8
1
62
256
6
ByLayer
370
18
48
1
60
0
100
AcDbSpline
70
4
71
1
72
4
73
2
40
0
40
0
40
1
40
1
41
1
10
241.661952578272
20
-13.8492252242594
30
0
41
1
10
242.05124575453
20
-14.5486988298874
30
0
0
SPLINE
5
28F
100
AcDbEntity
8
1
62
256
6
ByLayer
370
18
48
1
60
0
100
AcDbSpline
70
4
71
3
72
12
73
8
40
0
40
0
40
0
40
0
40
0.500000000000067
40
0.500000000000067
40
0.750000000000033
40
0.750000000000033
40
1
40
1
40
1
40
1
41
1
10
242.051250855155
20
-14.5486152338416
30
0
41
1
10
242.042356361313
20
-14.615362650671
30
0
41
1
10
242.013331276546
20
-14.6792474793128
30
0
41
1
10
241.947166936331
20
-14.7558331661595
30
0
41
1
10
241.921302936062
20
-14.7781562059735
30
0
41
1
10
241.864283768532
20
-14.8143496550333
30
0
41
1
10
241.83303153472
20
-14.8276897732705
30
0
41
1
10
241.800714090604
20
-14.837784768332
30
0
0
SPLINE
5
290
100
AcDbEntity
8
1
62
256
6
ByLayer
370
18
48
1
60
0
100
AcDbSpline
70
4
71
2
72
12
73
9
40
0
40
0
40
0
40
0.25
40
0.5
40
0.5
40
0.75
40
0.75
40
0.875
40
1
40
1
40
1
41
1
10
241.420025499427
20
0.204983866300012
30
0
41
1
10
241.406122901691
20
0.25320234847814
30
0
41
1
10
241.351710924064
20
0.338462624080108
30
0
41
1
10
241.312275984138
20
0.372540414732555
30
0
41
1
10
241.274561801047
20
0.405131209555492
30
0
41
1
10
241.22695079926
20
0.426579742698124
30
0
41
1
10
241.204839430052
20
0.436540810885987
30
0
41
1
10
241.155223084205
20
0.450745538170736
30
0
41
1
10
241.129268073122
20
0.454143858691197
30
0
0
SPLINE
5
291
100
AcDbEntity
8
1
62
256
6
ByLayer
370
18
48
1
60
0
100
AcDbSpline
70
4
71
1
72
4
73
2
40
0
40
0
40
1
40
1
41
1
10
242.993165867283
20
-7.43330431506789
30
0
41
1
10
242.558963327374
20
-7.07308223985575
30
0
0
SPLINE
5
292
100
AcDbEntity
8
1
62
256
6
ByLayer
370
18
48
1
60
0
100
AcDbSpline
70
4
71
1
72
4
73
2
40
0
40
0
40
1
40
1
41
1
10
241.877532521851
20
-0.218624280087937
30
0
41
1
10
241.457189228962
20
0.0545733750391264
30
0
0
SPLINE
5
293
100
AcDbEntity
8
1
62
256
6
ByLayer
370
18
48
1
60
0
100
AcDbSpline
70
4
71
3
72
27
73
23
40
0
40
0
40
0
40
0
40
0.0030862551678897
40
0.0188323026476442
40
0.0503243976071533
40
0.113308587526171
40
0.239276967364208
40
0.365245347202244
40
0.487277215170342
40
0.49121372704028
40
0.499086750780158
40
0.506959774520035
40
0.52270582199979
40
0.554197916959299
40
0.617182106878317
40
0.743150486716353
40
0.869118866554389
40
0.932103056473408
40
0.963595151432917
40
0.979341198912671
40
0.995087246392426
40
1
40
1
40
1
40
1
41
1
10
241.290598888685
20
-13.7673580637969
30
0
41
1
10
241.299246977295
20
-13.7578564181247
30
0
41
1
10
241.346841776136
20
-13.6955767598585
30
0
41
1
10
241.379717997622
20
-13.4642446610055
30
0
41
1
10
241.444792430019
20
-12.9603650401085
30
0
41
1
10
241.58124871497
20
-11.9377565500872
30
0
41
1
10
241.771238301759
20
-10.4835564128729
30
0
41
1
10
242.008337074311
20
-8.75607629447276
30
0
41
1
10
242.161778378098
20
-7.5913170327689
30
0
41
1
10
242.239322229872
20
-6.97446906634553
30
0
41
1
10
242.235770288888
20
-6.88840574153821
30
0
41
1
10
242.204647893569
20
-6.74437995207683
30
0
41
1
10
242.169435670456
20
-6.49016099323444
30
0
41
1
10
242.085284583359
20
-5.98271933333928
30
0
41
1
10
241.925855621704
20
-4.96766005876003
30
0
41
1
10
241.694320665633
20
-3.51741817984245
30
0
41
1
10
241.461289455868
20
-2.06772266132668
30
0
41
1
10
241.30411748305
20
-1.05193056684948
30
0
41
1
10
241.216180357967
20
-0.545304291774386
30
0
41
1
10
241.180969511581
20
-0.252590553645604
30
0
41
1
10
241.157977551951
20
-0.0881600113011984
30
0
41
1
10
241.125826150954
20
-0.0018802532785855
30
0
41
1
10
241.116524273096
20
0.0173971518195515
30
0
0
SPLINE
5
294
100
AcDbEntity
8
1
62
256
6
ByLayer
370
18
48
1
60
0
100
AcDbSpline
70
4
71
2
72
7
73
4
40
0
40
0
40
0
40
0.5
40
1
40
1
40
1
41
1
10
242.558963327374
20
-7.07308223985584
30
0
41
1
10
242.566455467085
20
-7.01648558266069
30
0
41
1
10
242.565029418027
20
-6.90173167282268
30
0
41
1
10
242.555958110734
20
-6.84477148910688
30
0
0
SPLINE
5
295
100
AcDbEntity
8
1
62
256
6
ByLayer
370
18
48
1
60
0
100
AcDbSpline
70
4
71
2
72
6
73
3
40
0
40
0
40
0
40
1
40
1
40
1
41
1
10
241.457189228962
20
0.0545733750391832
30
0
41
1
10
241.449534875488
20
0.102636279794069
30
0
41
1
10
241.436047913246
20
0.149413210378327
30
0
0
SPLINE
5
296
100
AcDbEntity
8
1
62
256
6
ByLayer
370
18
48
1
60
0
100
AcDbSpline
70
4
71
1
72
4
73
2
40
0
40
0
40
1
40
1
41
1
10
242.990160650643
20
-7.20499356432259
30
0
41
1
10
242.974066489648
20
-7.10393576331936
30
0
0
SPLINE
5
297
100
AcDbEntity
8
1
62
256
6
ByLayer
370
18
48
1
60
0
100
AcDbSpline
70
4
71
1
72
4
73
2
40
0
40
0
40
1
40
1
41
1
10
241.436047913246
20
0.149413210378356
30
0
41
1
10
241.856297980885
20
-0.123723853983193
30
0
0
SPLINE
5
298
100
AcDbEntity
8
1
62
256
6
ByLayer
370
18
48
1
60
0
100
AcDbSpline
70
4
71
3
72
8
73
4
40
0
40
0
40
0
40
0
40
1
40
1
40
1
40
1
41
1
10
242.991122535724
20
-7.21063861562098
30
0
41
1
10
242.995995704889
20
-7.24664119367082
30
0
41
1
10
242.999465411161
20
-7.28274513936344
30
0
41
1
10
242.999943169459
20
-7.31904114364227
30
0
0
SPLINE
5
299
100
AcDbEntity
8
1
62
256
6
ByLayer
370
18
48
1
60
0
100
AcDbSpline
70
4
71
1
72
4
73
2
40
0
40
0
40
1
40
1
41
1
10
242.946471987811
20
-7.78603632425785
30
0
41
1
10
242.979329004946
20
-7.53782988261494
30
0
0
SPLINE
5
29A
100
AcDbEntity
8
1
62
256
6
ByLayer
370
18
48
1
60
0
100
AcDbSpline
70
4
71
1
72
4
73
2
40
0
40
0
40
1
40
1
41
1
10
241.355543154003
20
-14.1543242589015
30
0
41
1
10
241.44871035097
20
-14.93806564371
30
0
0
SPLINE
5
29B
100
AcDbEntity
8
1
62
256
6
ByLayer
370
18
48
1
60
0
100
AcDbSpline
70
4
71
3
72
8
73
4
40
0
40
0
40
0
40
0
40
1
40
1
40
1
40
1
41
1
10
242.999943169459
20
-7.31904114364227
30
0
41
1
10
243.000415193704
20
-7.35490152348089
30
0
41
1
10
242.997984280206
20
-7.39065045859525
30
0
41
1
10
242.994156289464
20
-7.42633542504305
30
0
0
SPLINE
5
29C
100
AcDbEntity
8
1
62
256
6
ByLayer
370
18
48
1
60
0
100
AcDbSpline
70
4
71
3
72
12
73
8
40
0
40
0
40
0
40
0
40
0.115854130721515
40
0.268293260082457
40
0.420732389443399
40
0.496951954123869
40
1
40
1
40
1
40
1
41
1
10
242.096209138714
20
-6.67419461834552
30
0
41
1
10
242.100577930706
20
-6.70167983194483
30
0
41
1
10
242.111291060671
20
-6.76485068688402
30
0
41
1
10
242.132038650359
20
-6.86086476142876
30
0
41
1
10
242.134870955075
20
-6.92949134105342
30
0
41
1
10
242.11328949714
20
-7.10116811664946
30
0
41
1
10
242.095936583131
20
-7.23763348617885
30
0
41
1
10
242.080693454958
20
-7.35647124052539
30
0
0
SPLINE
5
29D
100
AcDbEntity
8
1
62
256
6
ByLayer
370
18
48
1
60
0
100
AcDbSpline
70
4
71
1
72
4
73
2
40
0
40
0
40
1
40
1
41
1
10
242.974066489648
20
-7.10393576331936
30
0
41
1
10
242.935251136466
20
-6.86020797663909
30
0
0
SPLINE
5
29E
100
AcDbEntity
8
1
62
256
6
ByLayer
370
18
48
1
60
0
100
AcDbSpline
70
4
71
1
72
4
73
2
40
0
40
0
40
1
40
1
41
1
10
241.129268073122
20
0.454143858691225
30
0
41
1
10
241.464704534157
20
0.475429194193936
30
0
0
SPLINE
5
29F
100
AcDbEntity
8
1
62
256
6
ByLayer
370
18
48
1
60
0
100
AcDbSpline
70
4
71
1
72
4
73
2
40
0
40
0
40
1
40
1
41
1
10
242.863960106554
20
-6.41256024175999
30
0
41
1
10
241.877532521851
20
-0.21862428008788
30
0
0
SPLINE
5
2A0
100
AcDbEntity
8
1
62
256
6
ByLayer
370
13
48
1
60
0
100
AcDbSpline
70
4
71
3
72
10
73
6
40
0
40
0
40
0
40
0
40
0.470344360286854
40
0.470344360286854
40
1
40
1
40
1
40
1
41
1
10
239.686971248823
20
22.8547601479977
30
0
41
1
10
239.686990114171
20
22.8545718116584
30
0
41
1
10
239.699836311936
20
22.8543199880532
30
0
41
1
10
239.74791045542
20
22.8538123243312
30
0
41
1
10
239.785868608966
20
22.8535693715146
30
0
41
1
10
239.825066322975
20
22.8534455367379
30
0
0
SPLINE
5
2A1
100
AcDbEntity
8
1
62
256
6
ByLayer
370
13
48
1
60
0
100
AcDbSpline
70
4
71
3
72
20
73
16
40
0
40
0
40
0
40
0
40
0.0624999999999911
40
0.0624999999999911
40
0.124999999999982
40
0.124999999999982
40
0.156249999999984
40
0.156249999999984
40
0.187499999999985
40
0.187499999999985
40
0.249999999999988
40
0.249999999999988
40
0.499999999999988
40
0.499999999999988
40
1
40
1
40
1
40
1
41
1
10
227.08984225181
20
8.78615489458721
30
0
41
1
10
227.206070286511
20
8.86717844641831
30
0
41
1
10
227.328511986004
20
8.93530485267451
30
0
41
1
10
227.585411929183
20
9.04661600435799
30
0
41
1
10
227.721519477226
20
9.08995796175032
30
0
41
1
10
227.926054620727
20
9.13329389828002
30
0
41
1
10
227.994497413374
20
9.14425938470444
30
0
41
1
10
228.131900203113
20
9.1593836132264
30
0
41
1
10
228.200936887843
20
9.16253309649903
30
0
41
1
10
228.40794027053
20
9.17338541214977
30
0
41
1
10
228.545944752713
20
9.18059097971008
30
0
41
1
10
229.235957486633
20
9.21674617308742
30
0
41
1
10
229.787963681006
20
9.24572315298835
30
0
41
1
10
231.443992989964
20
9.33251122178012
30
0
41
1
10
232.548013523839
20
9.39035095466107
30
0
41
1
10
233.652033037024
20
9.44821016563228
30
0
0
SPLINE
5
2A2
100
AcDbEntity
8
1
62
256
6
ByLayer
370
13
48
1
60
0
100
AcDbSpline
70
4
71
3
72
22
73
18
40
0
40
0
40
0
40
0
40
0.124999999999992
40
0.124999999999992
40
0.249999999999986
40
0.249999999999986
40
0.374999999999979
40
0.374999999999979
40
0.499999999999973
40
0.499999999999973
40
0.624999999999967
40
0.624999999999967
40
0.68749999999999
40
0.68749999999999
40
0.750000000000013
40
0.750000000000013
40
1
40
1
40
1
40
1
41
1
10
224.78529775925
20
7.94066417309739
30
0
41
1
10
224.795201698278
20
7.87589063879983
30
0
41
1
10
224.812318017319
20
7.81364854234087
30
0
41
1
10
224.862159481662
20
7.69464281469254
30
0
41
1
10
224.895182632014
20
7.63725090516172
30
0
41
1
10
224.972634385725
20
7.53376284070947
30
0
41
1
10
225.017721445689
20
7.48675602123132
30
0
41
1
10
225.118923289096
20
7.40456862488415
30
0
41
1
10
225.173454745559
20
7.37023227038213
30
0
41
1
10
225.290396355781
20
7.31510455425882
30
0
41
1
10
225.353008430359
20
7.29450897578377
30
0
41
1
10
225.447682786985
20
7.27526692496153
30
0
41
1
10
225.479590878702
20
7.27076440402772
30
0
41
1
10
225.544098935602
20
7.26553826539353
30
0
41
1
10
225.576778362978
20
7.2652269078325
30
0
41
1
10
225.739712603733
20
7.26231731147303
30
0
41
1
10
225.870056668704
20
7.26258148025136
30
0
41
1
10
226.000396944418
20
7.26579704697244
30
0
0
SPLINE
5
2A3
100
AcDbEntity
8
1
62
256
6
ByLayer
370
13
48
1
60
0
100
AcDbSpline
70
4
71
3
72
8
73
4
40
0
40
0
40
0
40
0
40
1
40
1
40
1
40
1
41
1
10
240.813940881607
20
24.024407161867
30
0
41
1
10
240.748387093587
20
24.0242248302957
30
0
41
1
10
240.682834259758
20
24.0232992921613
30
0
41
1
10
240.617282313949
20
24.0216820893874
30
0
0
SPLINE
5
2A4
100
AcDbEntity
8
1
62
256
6
ByLayer
370
13
48
1
60
0
100
AcDbSpline
70
4
71
3
72
9
73
5
40
0
40
0
40
0
40
0
40
0.5134952717628
40
1
40
1
40
1
40
1
41
1
10
240.617282313949
20
24.0216820893874
30
0
41
1
10
240.595143946488
20
24.0211310579102
30
0
41
1
10
240.552060416011
20
24.0191533117699
30
0
41
1
10
240.508974632735
20
24.0172977667134
30
0
41
1
10
240.488013299254
20
24.016389406918
30
0
0
SPLINE
5
2A5
100
AcDbEntity
8
1
62
256
6
ByLayer
370
13
48
1
60
0
100
AcDbSpline
70
4
71
2
72
6
73
3
40
0
40
0
40
0
40
1
40
1
40
1
41
1
10
223.449436262944
20
15.1633254958344
30
0
41
0.999116442697018
10
223.447054215958
20
15.1451243026032
30
0
41
0.998835603708712
10
223.445564656397
20
15.1268272303981
30
0
0
SPLINE
5
2A6
100
AcDbEntity
8
1
62
256
6
ByLayer
370
13
48
1
60
0
100
AcDbSpline
70
4
71
3
72
20
73
16
40
0
40
0
40
0
40
0
40
0.500000000000027
40
0.500000000000027
40
0.750000000000034
40
0.750000000000034
40
0.875000000000031
40
0.875000000000031
40
0.90625000000003
40
0.90625000000003
40
0.921875000000029
40
0.921875000000029
40
0.937500000000029
40
0.937500000000029
40
1
40
1
40
1
40
1
41
1
10
233.64405142892
20
9.24751739807684
30
0
41
1
10
234.643953434991
20
9.29992004171567
30
0
41
1
10
235.64385583987
20
9.3523150753494
30
0
41
1
10
237.143708732695
20
9.43092125991984
30
0
41
1
10
237.643658575587
20
9.45714471981171
30
0
41
1
10
238.393585928573
20
9.49643051273662
30
0
41
1
10
238.643562155111
20
9.50951732165635
30
0
41
1
10
238.956029822276
20
9.52592713969892
30
0
41
1
10
239.018526957596
20
9.52913784932767
30
0
41
1
10
239.112265070628
20
9.53410406118272
30
0
41
1
10
239.143511838932
20
9.53574501157547
30
0
41
1
10
239.206108915147
20
9.53697865023742
30
0
41
1
10
239.237446654178
20
9.53681998111688
30
0
41
1
10
239.394332263367
20
9.53213120297062
30
0
41
1
10
239.520464850006
20
9.51603399734384
30
0
41
1
10
239.647281753554
20
9.48639935942586
30
0
0
SPLINE
5
2A7
100
AcDbEntity
8
1
62
256
6
ByLayer
370
13
48
1
60
0
100
AcDbSpline
70
4
71
3
72
8
73
4
40
0
40
0
40
0
40
0
40
1
40
1
40
1
40
1
41
1
10
224.897076176785
20
23.1750839907826
30
0
41
1
10
224.844833019434
20
23.1804192586535
30
0
41
1
10
224.79254748621
20
23.1857602613304
30
0
41
1
10
224.740350021923
20
23.1910893456577
30
0
0
SPLINE
5
2A8
100
AcDbEntity
8
1
62
256
6
ByLayer
370
13
48
1
60
0
100
AcDbSpline
70
4
71
3
72
10
73
6
40
0
40
0
40
0
40
0
40
0.5
40
0.5
40
1
40
1
40
1
40
1
41
1
10
226.894949215285
20
8.34788347540999
30
0
41
1
10
226.891273613589
20
8.34769084528759
30
0
41
1
10
226.873977397777
20
8.35699804160802
30
0
41
1
10
226.822589639776
20
8.38833647463554
30
0
41
1
10
226.788397109554
20
8.41036880038416
30
0
41
1
10
226.755715336686
20
8.43209987841283
30
0
0
SPLINE
5
2A9
100
AcDbEntity
8
1
62
256
6
ByLayer
370
13
48
1
60
0
100
AcDbSpline
70
4
71
3
72
24
73
20
40
0
40
0
40
0
40
0
40
0.0312499999999923
40
0.0312499999999923
40
0.0624999999999846
40
0.0624999999999846
40
0.12499999999997
40
0.12499999999997
40
0.156249999999962
40
0.156249999999962
40
0.171874999999958
40
0.171874999999958
40
0.187499999999955
40
0.187499999999955
40
0.249999999999952
40
0.249999999999952
40
0.499999999999968
40
0.499999999999968
40
1
40
1
40
1
40
1
41
1
10
227.18500255289
20
8.62087626457665
30
0
41
1
10
227.240741765447
20
8.65973254386631
30
0
41
1
10
227.299076861927
20
8.69593758549382
30
0
41
1
10
227.419136670877
20
8.76174530704998
30
0
41
1
10
227.480438572574
20
8.79115984796636
30
0
41
1
10
227.668052967104
20
8.86922986065696
30
0
41
1
10
227.79810413834
20
8.90787545920739
30
0
41
1
10
228.00055593185
20
8.94486918160467
30
0
41
1
10
228.068260888866
20
8.95343646860223
30
0
41
1
10
228.170132018079
20
8.96094536068168
30
0
41
1
10
228.204149665075
20
8.96241627176104
30
0
41
1
10
228.272147402944
20
8.96599765492428
30
0
41
1
10
228.306147359057
20
8.96776983243143
30
0
41
1
10
228.476145367687
20
8.97666089509613
30
0
41
1
10
228.61214319463
20
8.98378362164283
30
0
41
1
10
229.29213078298
20
9.01942358820997
30
0
41
1
10
229.836118650563
20
9.04797307904249
30
0
41
1
10
231.468089506712
20
9.13349802994173
30
0
41
1
10
232.556070945628
20
9.19049875704422
30
0
41
1
10
233.64405142892
20
9.24751739807681
30
0
0
SPLINE
5
2AA
100
AcDbEntity
8
1
62
256
6
ByLayer
370
13
48
1
60
0
100
AcDbSpline
70
4
71
3
72
9
73
5
40
0
40
0
40
0
40
0
40
0.513495271762609
40
1
40
1
40
1
40
1
41
1
10
224.611235920454
20
23.1828407428029
30
0
41
1
10
224.633310610094
20
23.1846068194638
30
0
41
1
10
224.676364855248
20
23.1871433628567
30
0
41
1
10
224.719408567368
20
23.1898016733847
30
0
41
1
10
224.740350021925
20
23.191089345656
30
0
0
SPLINE
5
2AB
100
AcDbEntity
8
1
62
256
6
ByLayer
370
13
48
1
60
0
100
AcDbSpline
70
4
71
2
72
6
73
3
40
0
40
0
40
0
40
1
40
1
40
1
41
1
10
223.433633523856
20
15.3045955457363
30
0
41
0.997409491337352
10
223.430835682605
20
15.2507516681265
30
0
41
1
10
223.435760323613
20
15.1970583558746
30
0
0
SPLINE
5
2AC
100
AcDbEntity
8
1
62
256
6
ByLayer
370
13
48
1
60
0
100
AcDbSpline
70
4
71
1
72
4
73
2
40
0
40
0
40
1
40
1
41
1
10
224.611235920454
20
23.1828407428029
30
0
41
1
10
224.812216260919
20
22.9512155656938
30
0
0
SPLINE
5
2AD
100
AcDbEntity
8
1
62
256
6
ByLayer
370
13
48
1
60
0
100
AcDbSpline
70
4
71
3
72
12
73
8
40
0
40
0
40
0
40
0
40
0.0640873132382777
40
0.0640873132382777
40
0.585545332916302
40
0.585545332916302
40
1
40
1
40
1
40
1
41
1
10
241.824375736984
20
8.3401914801012
30
0
41
1
10
241.818904515955
20
8.33436076915007
30
0
41
1
10
241.813339795176
20
8.32860784258591
30
0
41
1
10
241.761654647337
20
8.27677721657381
30
0
41
1
10
241.711011046268
20
8.23692887087054
30
0
41
1
10
241.611813745506
20
8.17675870738648
30
0
41
1
10
241.564823872412
20
8.15421760782374
30
0
41
1
10
241.516546307226
20
8.13637082657092
30
0
0
SPLINE
5
2AE
100
AcDbEntity
8
1
62
256
6
ByLayer
370
13
48
1
60
0
100
AcDbSpline
70
4
71
2
72
6
73
3
40
0
40
0
40
0
40
1
40
1
40
1
41
0.998835603708712
10
223.445564656397
20
15.1268272303981
30
0
41
0.998293048640334
10
223.442684590943
20
15.0914498162083
30
0
41
1
10
223.443155184393
20
15.0559560065361
30
0
0
SPLINE
5
2AF
100
AcDbEntity
8
1
62
256
6
ByLayer
370
13
48
1
60
0
100
AcDbSpline
70
4
71
3
72
10
73
6
40
0
40
0
40
0
40
0
40
0.5
40
0.5
40
1
40
1
40
1
40
1
41
1
10
226.920872678488
20
8.43216749152379
30
0
41
1
10
226.917196037691
20
8.4319748069444
30
0
41
1
10
226.896924840166
20
8.43188333428279
30
0
41
1
10
226.835824240236
20
8.43188785287819
30
0
41
1
10
226.794913050694
20
8.43197604363607
30
0
41
1
10
226.755715336686
20
8.4320998784128
30
0
0
SPLINE
5
2B0
100
AcDbEntity
8
1
62
256
6
ByLayer
370
13
48
1
60
0
100
AcDbSpline
70
4
71
3
72
14
73
10
40
0
40
0
40
0
40
0
40
0.0288455662485764
40
0.0288455662485764
40
0.19070463854041
40
0.19070463854041
40
0.352563710832244
40
0.352563710832244
40
1
40
1
40
1
40
1
41
1
10
224.442028669474
20
22.9343456407071
30
0
41
1
10
224.445748379305
20
22.9347827942992
30
0
41
1
10
224.449461339978
20
22.935208132139
30
0
41
1
10
224.473811516058
20
22.9376751510956
30
0
41
1
10
224.493960038657
20
22.9388612775997
30
0
41
1
10
224.53454235064
20
22.9417329472313
30
0
41
1
10
224.554770465359
20
22.9430584156792
30
0
41
1
10
224.655302617009
20
22.9486205934689
30
0
41
1
10
224.734432504039
20
22.9505198163558
30
0
41
1
10
224.812216260919
20
22.9512155656938
30
0
0
SPLINE
5
2B1
100
AcDbEntity
8
1
62
256
6
ByLayer
370
13
48
1
60
0
100
AcDbSpline
70
4
71
2
72
6
73
3
40
0
40
0
40
0
40
1
40
1
40
1
41
1
10
223.667749863994
20
15.0697851841669
30
0
41
0.997409491337352
10
223.666984981349
20
15.1274753178549
30
0
41
1
10
223.674470876453
20
15.1846749550046
30
0
0
SPLINE
5
2B2
100
AcDbEntity
8
1
62
256
6
ByLayer
370
13
48
1
60
0
100
AcDbSpline
70
4
71
3
72
20
73
16
40
0
40
0
40
0
40
0
40
0.062499999999991
40
0.062499999999991
40
0.124999999999982
40
0.124999999999982
40
0.156249999999984
40
0.156249999999984
40
0.187499999999985
40
0.187499999999985
40
0.249999999999988
40
0.249999999999988
40
0.499999999999988
40
0.499999999999988
40
1
40
1
40
1
40
1
41
1
10
239.564734605263
20
22.5032579629817
30
0
41
1
10
239.448506570563
20
22.4222344111506
30
0
41
1
10
239.32606487107
20
22.3541080048944
30
0
41
1
10
239.06916492789
20
22.2427968532109
30
0
41
1
10
238.933057379847
20
22.1994548958186
30
0
41
1
10
238.728522236346
20
22.1561189592889
30
0
41
1
10
238.660079443699
20
22.1451534728644
30
0
41
1
10
238.522676653961
20
22.1300292443425
30
0
41
1
10
238.453639969231
20
22.1268797610699
30
0
41
1
10
238.246636586544
20
22.1160274454191
30
0
41
1
10
238.10863210436
20
22.1088218778588
30
0
41
1
10
237.418619370441
20
22.0726666844815
30
0
41
1
10
236.866613176067
20
22.0436897045805
30
0
41
1
10
235.21058386711
20
21.9569016357887
30
0
41
1
10
234.106563333235
20
21.8990619029078
30
0
41
1
10
233.002543820049
20
21.8412026919366
30
0
0
SPLINE
5
2B3
100
AcDbEntity
8
1
62
256
6
ByLayer
370
13
48
1
60
0
100
AcDbSpline
70
4
71
3
72
22
73
18
40
0
40
0
40
0
40
0
40
0.125
40
0.125
40
0.25
40
0.25
40
0.375
40
0.375
40
0.5
40
0.5
40
0.625
40
0.625
40
0.75
40
0.75
40
0.875
40
0.875
40
1
40
1
40
1
40
1
41
1
10
241.832381499117
20
23.3468149632624
30
0
41
1
10
241.823722805412
20
23.4034443702231
30
0
41
1
10
241.809613252836
20
23.4581606069999
30
0
41
1
10
241.769352918802
20
23.5633667887663
30
0
41
1
10
241.743113707507
20
23.614573700682
30
0
41
1
10
241.680615312498
20
23.7094211898181
30
0
41
1
10
241.644870287779
20
23.7530766482585
30
0
41
1
10
241.563875515224
20
23.8324209519764
30
0
41
1
10
241.518643391064
20
23.8680365931724
30
0
41
1
10
241.423327506443
20
23.9281338808912
30
0
41
1
10
241.372605223137
20
23.9530966973033
30
0
41
1
10
241.265296634571
20
23.9921986035223
30
0
41
1
10
241.210574939983
20
24.005919585608
30
0
41
1
10
241.099023469467
20
24.0218475441512
30
0
41
1
10
241.04185540394
20
24.0222846029964
30
0
41
1
10
240.927897041924
20
24.0242033179059
30
0
41
1
10
240.870918627442
20
24.0245656399999
30
0
41
1
10
240.813940881607
20
24.024407161867
30
0
0
SPLINE
5
2B4
100
AcDbEntity
8
1
62
256
6
ByLayer
370
13
48
1
60
0
100
AcDbSpline
70
4
71
3
72
8
73
4
40
0
40
0
40
0
40
0
40
1
40
1
40
1
40
1
41
1
10
240.333818721818
20
23.9840893869318
30
0
41
1
10
240.385217998335
20
23.9948563246012
30
0
41
1
10
240.436658819135
20
24.0056333951457
30
0
41
1
10
240.488013299255
20
24.0163894069198
30
0
0
SPLINE
5
2B5
100
AcDbEntity
8
1
62
256
6
ByLayer
370
13
48
1
60
0
100
AcDbSpline
70
4
71
3
72
18
73
14
40
0
40
0
40
0
40
0
40
0.5
40
0.5
40
0.749999999999993
40
0.749999999999993
40
0.874999999999997
40
0.874999999999997
40
0.906249999999998
40
0.906249999999998
40
0.937499999999998
40
0.937499999999998
40
1
40
1
40
1
40
1
41
1
10
233.652033037024
20
9.44821016563228
30
0
41
1
10
234.661378679422
20
9.5011077292794
30
0
41
1
10
235.670724644462
20
9.55399728969226
30
0
41
1
10
237.184743156715
20
9.63334651868414
30
0
41
1
10
237.689415260369
20
9.65981915682428
30
0
41
1
10
238.446425226087
20
9.69947163040467
30
0
41
1
10
238.698760955618
20
9.71271800586339
30
0
41
1
10
239.014181635759
20
9.72924420411786
30
0
41
1
10
239.077249875818
20
9.73304543520015
30
0
41
1
10
239.203456496501
20
9.73845934760556
30
0
41
1
10
239.266650398501
20
9.73833963197049
30
0
41
1
10
239.456509662806
20
9.72932001623201
30
0
41
1
10
239.583447624131
20
9.71191438854046
30
0
41
1
10
239.710781382332
20
9.6821589717666
30
0
0
SPLINE
5
2B6
100
AcDbEntity
8
1
62
256
6
ByLayer
370
13
48
1
60
0
100
AcDbSpline
70
4
71
2
72
6
73
3
40
0
40
0
40
0
40
1
40
1
40
1
41
1
10
223.452280732668
20
14.9487856055421
30
0
41
0.997409491337352
10
223.443870000502
20
15.0020420667101
30
0
41
1
10
223.443155184393
20
15.0559560065361
30
0
0
SPLINE
5
2B7
100
AcDbEntity
8
1
62
256
6
ByLayer
370
13
48
1
60
0
100
AcDbSpline
70
4
71
2
72
6
73
3
40
0
40
0
40
0
40
1
40
1
40
1
41
0.998835603708705
10
223.445564656397
20
15.1268272303986
30
0
41
0.998293048640346
10
223.439002421504
20
15.1617097945958
30
0
41
1
10
223.435760323613
20
15.1970583558746
30
0
0
SPLINE
5
2B8
100
AcDbEntity
8
1
62
256
6
ByLayer
370
13
48
1
60
0
100
AcDbSpline
70
4
71
2
72
6
73
3
40
0
40
0
40
0
40
1
40
1
40
1
41
1
10
223.667749863994
20
15.0697851841669
30
0
41
0.997409491337352
10
223.668514746639
20
15.0120950504776
30
0
41
1
10
223.677514576083
20
14.9551084460053
30
0
0
SPLINE
5
2B9
100
AcDbEntity
8
1
62
256
6
ByLayer
370
13
48
1
60
0
100
AcDbSpline
70
4
71
3
72
10
73
6
40
0
40
0
40
0
40
0
40
0.437251963447982
40
0.437251963447982
40
1
40
1
40
1
40
1
41
1
10
239.71306616853
20
22.9376032107014
30
0
41
1
10
239.714859036324
20
22.9342894711855
30
0
41
1
10
239.724529750398
20
22.9256817104605
30
0
41
1
10
239.761144948735
20
22.8973636969586
30
0
41
1
10
239.792384550107
20
22.8751766147665
30
0
41
1
10
239.825066322975
20
22.8534455367379
30
0
0
SPLINE
5
2BA
100
AcDbEntity
8
1
62
256
6
ByLayer
370
13
48
1
60
0
100
AcDbSpline
70
4
71
3
72
24
73
20
40
0
40
0
40
0
40
0
40
0.0514081714720487
40
0.0514081714720487
40
0.102816342944097
40
0.102816342944097
40
0.154224514416146
40
0.154224514416146
40
0.205632685888194
40
0.205632685888194
40
0.308449028832296
40
0.308449028832296
40
0.411265371776397
40
0.411265371776397
40
0.6168980576646
40
0.6168980576646
40
0.822530743552803
40
0.822530743552803
40
1
40
1
40
1
40
1
41
1
10
242.067370085223
20
8.84711002712191
30
0
41
1
10
242.066024847507
20
8.82962391583561
30
0
41
1
10
242.064329161785
20
8.81069562833403
30
0
41
1
10
242.060204044437
20
8.77334062796538
30
0
41
1
10
242.057795208513
20
8.75525876871646
30
0
41
1
10
242.053105407105
20
8.72395135114061
30
0
41
1
10
242.050802429243
20
8.71037201943435
30
0
41
1
10
242.046324629281
20
8.68592881811642
30
0
41
1
10
242.044170679191
20
8.67519127122182
30
0
41
1
10
242.037860186733
20
8.64562281440442
30
0
41
1
10
242.033912537242
20
8.6296506862632
30
0
41
1
10
242.026323651817
20
8.60152056670171
30
0
41
1
10
242.022676981639
20
8.5894375966455
30
0
41
1
10
242.012092440476
20
8.55713727843568
30
0
41
1
10
242.005468004991
20
8.54065817078973
30
0
41
1
10
241.992719946186
20
8.51294556899381
30
0
41
1
10
241.986600320132
20
8.50186075669509
30
0
41
1
10
241.975554508393
20
8.48477417829406
30
0
41
1
10
241.970572334401
20
8.47825421578111
30
0
41
1
10
241.965703257892
20
8.47286898711329
30
0
0
SPLINE
5
2BB
100
AcDbEntity
8
1
62
256
6
ByLayer
370
13
48
1
60
0
100
AcDbSpline
70
4
71
3
72
10
73
6
40
0
40
0
40
0
40
0
40
0.196352315112956
40
0.196352315112956
40
1
40
1
40
1
40
1
41
1
10
241.954912744815
20
8.46254350194428
30
0
41
1
10
241.952245174666
20
8.46037640451544
30
0
41
1
10
241.949608654431
20
8.45851033933201
30
0
41
1
10
241.936319302199
20
8.45029895492303
30
0
41
1
10
241.926090674719
20
8.44806001193183
30
0
41
1
10
241.916158767461
20
8.44868756534757
30
0
0
SPLINE
5
2BC
100
AcDbEntity
8
1
62
256
6
ByLayer
370
13
48
1
60
0
100
AcDbSpline
70
4
71
1
72
4
73
2
40
0
40
0
40
1
40
1
41
1
10
224.78529775925
20
7.94066417309739
30
0
41
1
10
224.755266580128
20
7.93982112770178
30
0
0
SPLINE
5
2BD
100
AcDbEntity
8
1
62
256
6
ByLayer
370
13
48
1
60
0
100
AcDbSpline
70
4
71
3
72
24
73
20
40
0
40
0
40
0
40
0
40
0.0312499999999887
40
0.0312499999999887
40
0.0624999999999775
40
0.0624999999999775
40
0.124999999999967
40
0.124999999999967
40
0.156249999999962
40
0.156249999999962
40
0.17187499999996
40
0.17187499999996
40
0.187499999999957
40
0.187499999999957
40
0.249999999999959
40
0.249999999999959
40
0.499999999999969
40
0.499999999999969
40
1
40
1
40
1
40
1
41
1
10
239.432676705481
20
22.6666028717856
30
0
41
1
10
239.376937492924
20
22.6277465924959
30
0
41
1
10
239.318602396444
20
22.5915415508684
30
0
41
1
10
239.198542587494
20
22.525733829312
30
0
41
1
10
239.137240685798
20
22.4963192883956
30
0
41
1
10
238.949626291268
20
22.4182492757046
30
0
41
1
10
238.819575120033
20
22.3796036771539
30
0
41
1
10
238.617123326523
20
22.342609954756
30
0
41
1
10
238.549418369508
20
22.3340426677583
30
0
41
1
10
238.447547240295
20
22.3265337756785
30
0
41
1
10
238.413529593299
20
22.3250628645991
30
0
41
1
10
238.34553185543
20
22.3214814814359
30
0
41
1
10
238.311531899317
20
22.3197093039287
30
0
41
1
10
238.141533890688
20
22.310818241264
30
0
41
1
10
238.005536063745
20
22.3036955147174
30
0
41
1
10
237.325548475397
20
22.2680555481503
30
0
41
1
10
236.781560607815
20
22.2395060573178
30
0
41
1
10
235.14958975167
20
22.1539811064188
30
0
41
1
10
234.061608312737
20
22.0969803793154
30
0
41
1
10
232.973627829448
20
22.039961738283
30
0
0
SPLINE
5
2BE
100
AcDbEntity
8
1
62
256
6
ByLayer
370
13
48
1
60
0
100
AcDbSpline
70
4
71
3
72
12
73
8
40
0
40
0
40
0
40
0
40
0.25000000000006
40
0.25000000000006
40
0.50000000000012
40
0.50000000000012
40
1
40
1
40
1
40
1
41
1
10
241.062023229893
20
8.29730154341769
30
0
41
1
10
241.040256839814
20
8.29671592745126
30
0
41
1
10
241.019823381595
20
8.29702482690524
30
0
41
1
10
240.978475538297
20
8.2973198931123
30
0
41
1
10
240.957728239269
20
8.29741982139316
30
0
41
1
10
240.895562107812
20
8.29776876047384
30
0
41
1
10
240.854170097097
20
8.29803516938838
30
0
41
1
10
240.812751293587
20
8.29828420050293
30
0
0
SPLINE
5
2BF
100
AcDbEntity
8
1
62
256
6
ByLayer
370
13
48
1
60
0
100
AcDbSpline
70
4
71
3
72
12
73
8
40
0
40
0
40
0
40
0
40
0.25
40
0.25
40
0.5
40
0.5
40
1
40
1
40
1
40
1
41
1
10
224.812216260919
20
22.9512155656938
30
0
41
1
10
224.835750278049
20
22.9518938190686
30
0
41
1
10
224.858371628458
20
22.9516995821857
30
0
41
1
10
224.903943630179
20
22.9516258947408
30
0
41
1
10
224.926780881132
20
22.9516354961992
30
0
41
1
10
224.99523971584
20
22.9516163437216
30
0
41
1
10
225.040842564287
20
22.9515706154615
30
0
41
1
10
225.086464128798
20
22.9515418417178
30
0
0
SPLINE
5
2C0
100
AcDbEntity
8
1
62
256
6
ByLayer
370
13
48
1
60
0
100
AcDbSpline
70
4
71
3
72
8
73
4
40
0
40
0
40
0
40
0
40
1
40
1
40
1
40
1
41
1
10
241.257101456475
20
8.3021464822539
30
0
41
1
10
241.190258317072
20
8.29892472329058
30
0
41
1
10
241.125349328788
20
8.29760705211689
30
0
41
1
10
241.062023229892
20
8.29730154341769
30
0
0
SPLINE
5
2C1
100
AcDbEntity
8
1
62
256
6
ByLayer
370
13
48
1
60
0
100
AcDbSpline
70
4
71
2
72
6
73
3
40
0
40
0
40
0
40
1
40
1
40
1
41
1
10
242.949929394373
20
16.2176939521929
30
0
41
0.997409491337352
10
242.949164511728
20
16.2753840858822
30
0
41
1
10
242.940164682284
20
16.3323706903545
30
0
0
SPLINE
5
2C2
100
AcDbEntity
8
1
62
256
6
ByLayer
370
13
48
1
60
0
100
AcDbSpline
70
4
71
3
72
20
73
16
40
0
40
0
40
0
40
0
40
0.499999999999986
40
0.499999999999986
40
0.749999999999973
40
0.749999999999973
40
0.874999999999973
40
0.874999999999973
40
0.906249999999972
40
0.906249999999972
40
0.921874999999972
40
0.921874999999972
40
0.937499999999972
40
0.937499999999972
40
1
40
1
40
1
40
1
41
1
10
232.973627829448
20
22.0399617382829
30
0
41
1
10
231.973725823376
20
21.9875590946441
30
0
41
1
10
230.973823418496
20
21.9351640610103
30
0
41
1
10
229.473970525671
20
21.8565578764399
30
0
41
1
10
228.97402068278
20
21.8303344165481
30
0
41
1
10
228.224093329793
20
21.7910486236232
30
0
41
1
10
227.974117103256
20
21.7779618147035
30
0
41
1
10
227.661649436091
20
21.7615519966609
30
0
41
1
10
227.599152300771
20
21.7583412870321
30
0
41
1
10
227.505414187739
20
21.7533750751771
30
0
41
1
10
227.474167419435
20
21.7517341247843
30
0
41
1
10
227.41157034322
20
21.7505004861224
30
0
41
1
10
227.380232604189
20
21.7506591552429
30
0
41
1
10
227.223346995
20
21.7553479333892
30
0
41
1
10
227.097214408359
20
21.7714451390158
30
0
41
1
10
226.970397504812
20
21.8010797769339
30
0
0
SPLINE
5
2C3
100
AcDbEntity
8
1
62
256
6
ByLayer
370
13
48
1
60
0
100
AcDbSpline
70
4
71
2
72
6
73
3
40
0
40
0
40
0
40
1
40
1
40
1
41
1
10
242.949929394373
20
16.2176939521929
30
0
41
0.997409491337352
10
242.950694277018
20
16.1600038185048
30
0
41
1
10
242.943208381914
20
16.1028041813552
30
0
0
SPLINE
5
2C4
100
AcDbEntity
8
1
62
256
6
ByLayer
370
13
48
1
60
0
100
AcDbSpline
70
4
71
3
72
26
73
22
40
0
40
0
40
0
40
0
40
0.250000000000066
40
0.250000000000066
40
0.375000000000057
40
0.375000000000057
40
0.500000000000047
40
0.500000000000047
40
0.625000000000037
40
0.625000000000037
40
0.687500000000032
40
0.687500000000032
40
0.718750000000029
40
0.718750000000029
40
0.750000000000026
40
0.750000000000026
40
0.81250000000002
40
0.81250000000002
40
0.875000000000013
40
0.875000000000013
40
1
40
1
40
1
40
1
41
1
10
241.916158767461
20
8.44868756534748
30
0
41
1
10
241.878953800937
20
8.42756477430746
30
0
41
1
10
241.837316701716
20
8.40654866131067
30
0
41
1
10
241.763538804947
20
8.37660720027165
30
0
41
1
10
241.737464535297
20
8.36708123053523
30
0
41
1
10
241.680918707226
20
8.34937823360778
30
0
41
1
10
241.650540920248
20
8.34123869886716
30
0
41
1
10
241.58795099653
20
8.32808513006918
30
0
41
1
10
241.556160712593
20
8.32333885044719
30
0
41
1
10
241.510600920774
20
8.31938990215107
30
0
41
1
10
241.495729706954
20
8.31850292250095
30
0
41
1
10
241.473778572275
20
8.31738635352906
30
0
41
1
10
241.466466216565
20
8.31701827500174
30
0
41
1
10
241.452137332758
20
8.31654147815999
30
0
41
1
10
241.445117974334
20
8.31643601882661
30
0
41
1
10
241.422825730756
20
8.31497405600183
30
0
41
1
10
241.40637577707
20
8.31251081389951
30
0
41
1
10
241.375679333173
20
8.30964927334153
30
0
41
1
10
241.360840085432
20
8.30869548082646
30
0
41
1
10
241.315917310782
20
8.30545453398
30
0
41
1
10
241.286243223906
20
8.30355108041118
30
0
41
1
10
241.257101456475
20
8.3021464822539
30
0
0
SPLINE
5
2C5
100
AcDbEntity
8
1
62
256
6
ByLayer
370
13
48
1
60
0
100
AcDbSpline
70
4
71
1
72
4
73
2
40
0
40
0
40
1
40
1
41
1
10
223.363485305688
20
15.3020886080023
30
0
41
1
10
223.433633523856
20
15.3045955457363
30
0
0
SPLINE
5
2C6
100
AcDbEntity
8
1
62
256
6
ByLayer
370
13
48
1
60
0
100
AcDbSpline
70
4
71
1
72
4
73
2
40
0
40
0
40
1
40
1
41
1
10
240.998634991547
20
8.19952268055155
30
0
41
1
10
241.062023229893
20
8.29730154341769
30
0
0
SPLINE
5
2C7
100
AcDbEntity
8
1
62
256
6
ByLayer
370
13
48
1
60
0
100
AcDbSpline
70
4
71
1
72
4
73
2
40
0
40
0
40
1
40
1
41
1
10
223.355472024303
20
15.0829572903498
30
0
41
1
10
223.443827408032
20
15.0901664072975
30
0
0
SPLINE
5
2C8
100
AcDbEntity
8
1
62
256
6
ByLayer
370
13
48
1
60
0
100
AcDbSpline
70
4
71
3
72
24
73
20
40
0
40
0
40
0
40
0
40
0.0453611707754921
40
0.0453611707754921
40
0.090722341550984
40
0.090722341550984
40
0.136083512326476
40
0.136083512326476
40
0.181444683101968
40
0.181444683101968
40
0.272167024652953
40
0.272167024652953
40
0.362889366203938
40
0.362889366203938
40
0.544334049305901
40
0.544334049305901
40
0.725778732407864
40
0.725778732407864
40
1
40
1
40
1
40
1
41
1
10
224.755266580128
20
7.93982112770178
30
0
41
1
10
224.758432244833
20
7.92257142279396
30
0
41
1
10
224.762097186215
20
7.90392407385437
30
0
41
1
10
224.770104366523
20
7.86720490026335
30
0
41
1
10
224.774390075552
20
7.8494738872491
30
0
41
1
10
224.782326701986
20
7.81882819271667
30
0
41
1
10
224.786036490569
20
7.80556397674746
30
0
41
1
10
224.793044770945
20
7.78172273539229
30
0
41
1
10
224.796309300748
20
7.77126915899575
30
0
41
1
10
224.80567596902
20
7.74252230735803
30
0
41
1
10
224.811271534883
20
7.72705031794047
30
0
41
1
10
224.821759245769
20
7.69986755264867
30
0
41
1
10
224.826648953398
20
7.68823195519624
30
0
41
1
10
224.840551813962
20
7.65721496733133
30
0
41
1
10
224.848862495896
20
7.64151857602266
30
0
41
1
10
224.86443747518
20
7.6152903217556
30
0
41
1
10
224.871682255677
20
7.60490590832578
30
0
41
1
10
224.888897628641
20
7.58355625949727
30
0
41
1
10
224.898399787516
20
7.57492004185056
30
0
41
1
10
224.907305561338
20
7.56911658702404
30
0
0
SPLINE
5
2C9
100
AcDbEntity
8
1
62
256
6
ByLayer
370
13
48
1
60
0
100
AcDbSpline
70
4
71
1
72
4
73
2
40
0
40
0
40
1
40
1
41
1
10
225.086464128798
20
22.9515418417178
30
0
41
1
10
224.897076176785
20
23.1750839907826
30
0
0
SPLINE
5
2CA
100
AcDbEntity
8
1
62
256
6
ByLayer
370
13
48
1
60
0
100
AcDbSpline
70
4
71
3
72
18
73
14
40
0
40
0
40
0
40
0
40
0.5
40
0.5
40
0.749999999999993
40
0.749999999999993
40
0.874999999999996
40
0.874999999999996
40
0.906249999999997
40
0.906249999999997
40
0.937499999999998
40
0.937499999999998
40
1
40
1
40
1
40
1
41
1
10
233.002543820049
20
21.8412026919366
30
0
41
1
10
231.993198177651
20
21.7883051282895
30
0
41
1
10
230.983852212612
20
21.7354155678766
30
0
41
1
10
229.469833700359
20
21.6560663388847
30
0
41
1
10
228.965161596705
20
21.6295937007446
30
0
41
1
10
228.208151630987
20
21.5899412271642
30
0
41
1
10
227.955815901456
20
21.5766948517055
30
0
41
1
10
227.640395221315
20
21.560168653451
30
0
41
1
10
227.577326981255
20
21.5563674223687
30
0
41
1
10
227.451120360573
20
21.5509535099633
30
0
41
1
10
227.387926458573
20
21.5510732255984
30
0
41
1
10
227.198067194268
20
21.5600928413369
30
0
41
1
10
227.071129232943
20
21.5774984690284
30
0
41
1
10
226.943795474741
20
21.6072538858023
30
0
0
SPLINE
5
2CB
100
AcDbEntity
8
1
62
256
6
ByLayer
370
13
48
1
60
0
100
AcDbSpline
70
4
71
3
72
8
73
4
40
0
40
0
40
0
40
0
40
1
40
1
40
1
40
1
41
1
10
224.393325627732
20
23.1626408508026
30
0
41
1
10
224.465871292612
20
23.1702517376752
30
0
41
1
10
224.538505888021
20
23.1770059280618
30
0
41
1
10
224.611235920454
20
23.1828407428029
30
0
0
SPLINE
5
2CC
100
AcDbEntity
8
1
62
256
6
ByLayer
370
13
48
1
60
0
100
AcDbSpline
70
4
71
1
72
4
73
2
40
0
40
0
40
1
40
1
41
1
10
223.674470876453
20
15.1846749550046
30
0
41
1
10
223.449436262944
20
15.1633254958344
30
0
0
SPLINE
5
2CD
100
AcDbEntity
8
1
62
256
6
ByLayer
370
13
48
1
60
0
100
AcDbSpline
70
4
71
1
72
4
73
2
40
0
40
0
40
1
40
1
41
1
10
223.677514576083
20
14.9551084460053
30
0
41
1
10
223.452280732668
20
14.9487856055421
30
0
0
SPLINE
5
2CE
100
AcDbEntity
8
1
62
256
6
ByLayer
370
13
48
1
60
0
100
AcDbSpline
70
4
71
1
72
4
73
2
40
0
40
0
40
1
40
1
41
1
10
223.443155184393
20
15.0559560065361
30
0
41
1
10
223.667749863994
20
15.0697851841669
30
0
0
SPLINE
5
2CF
100
AcDbEntity
8
1
62
256
6
ByLayer
370
13
48
1
60
0
100
AcDbSpline
70
4
71
3
72
9
73
5
40
0
40
0
40
0
40
0
40
0.513495271763145
40
1
40
1
40
1
40
1
41
1
10
226.000396944418
20
7.26579704697241
30
0
41
1
10
226.022535311879
20
7.26634807844951
30
0
41
1
10
226.065618842356
20
7.26832582458982
30
0
41
1
10
226.108704625632
20
7.27018136964634
30
0
41
1
10
226.129665959112
20
7.27108972944177
30
0
0
SPLINE
5
2D0
100
AcDbEntity
8
1
62
256
6
ByLayer
370
13
48
1
60
0
100
AcDbSpline
70
4
71
3
72
8
73
4
40
0
40
0
40
0
40
0
40
1
40
1
40
1
40
1
41
1
10
215.66738405474
20
2.82647025796257
30
0
41
1
10
214.806000225153
20
3.22918541381529
30
0
41
1
10
213.947070234421
20
3.63963990836783
30
0
41
1
10
213.090475771909
20
4.05746059321064
30
0
0
SPLINE
5
2D1
100
AcDbEntity
8
1
62
256
6
ByLayer
370
13
48
1
60
0
100
AcDbSpline
70
4
71
3
72
18
73
14
40
0
40
0
40
0
40
0
40
0.125
40
0.125
40
0.25
40
0.25
40
0.375
40
0.375
40
0.5
40
0.5
40
0.75
40
0.75
40
1
40
1
40
1
40
1
41
1
10
5.49999999999997
20
-27.197533014896
30
0
41
1
10
5.5331183619886
20
-27.197533014896
30
0
41
1
10
5.56567694370481
20
-27.1995026580579
30
0
41
1
10
5.62972133566616
20
-27.2072122555809
30
0
41
1
10
5.66154354218739
20
-27.2130480694634
30
0
41
1
10
5.72214649856302
20
-27.2282429091525
30
0
41
1
10
5.75087897885176
20
-27.2375315286339
30
0
41
1
10
5.8052384884854
20
-27.259437487858
30
0
41
1
10
5.83093052062634
20
-27.272154639518
30
0
41
1
10
5.89997612824273
20
-27.3137174239843
30
0
41
1
10
5.93710206073182
20
-27.3470902458003
30
0
41
1
10
5.98680620220951
20
-27.4186740847385
30
0
41
1
10
5.99999999999997
20
-27.4575544853432
30
0
41
1
10
5.99999999999997
20
-27.4965076027925
30
0
0
SPLINE
5
2D2
100
AcDbEntity
8
1
62
256
6
ByLayer
370
13
48
1
60
0
100
AcDbSpline
70
4
71
3
72
8
73
4
40
0
40
0
40
0
40
0
40
1
40
1
40
1
40
1
41
1
10
225.589878543203
20
23.0808264537501
30
0
41
1
10
225.509171558395
20
23.0742637862085
30
0
41
1
10
225.426766606578
20
23.0685368362862
30
0
41
1
10
225.342695324921
20
23.0636937556642
30
0
0
SPLINE
5
2D3
100
AcDbEntity
8
1
62
256
6
ByLayer
370
13
48
1
60
0
100
AcDbSpline
70
4
71
3
72
23
73
19
40
0
40
0
40
0
40
0
40
0.124999999999997
40
0.124999999999997
40
0.249999999999994
40
0.249999999999994
40
0.374999999999991
40
0.374999999999991
40
0.499999999999988
40
0.624999999999985
40
0.624999999999985
40
0.749999999999982
40
0.749999999999982
40
0.87499999999998
40
0.87499999999998
40
0.93749999999999
40
0.93749999999999
40
1
40
1
40
1
40
1
41
1
10
227.999476950795
20
7.61978028991302
30
0
41
1
10
227.898530937841
20
7.52732496595789
30
0
41
1
10
227.791019925729
20
7.44303172694637
30
0
41
1
10
227.561841690486
20
7.29118569605308
30
0
41
1
10
227.442509459987
20
7.22522085104879
30
0
41
1
10
227.195284459864
20
7.11314801330406
30
0
41
1
10
227.066759108206
20
7.06678568693155
30
0
41
1
10
226.801510842867
20
6.99486011740152
30
0
41
1
10
226.533451422067
20
6.94506167481279
30
0
41
1
10
226.25974126077
20
6.93785777582769
30
0
41
1
10
225.983221481745
20
6.9527766627323
30
0
41
1
10
225.846428035536
20
6.97121154607839
30
0
41
1
10
225.57852294798
20
7.0288922723806
30
0
41
1
10
225.44694923978
20
7.06815980863107
30
0
41
1
10
225.253410457198
20
7.14330922972263
30
0
41
1
10
225.189749884026
20
7.17103091708856
30
0
41
1
10
225.066104068819
20
7.23089005027731
30
0
41
1
10
225.005837835592
20
7.26313232041761
30
0
41
1
10
224.947151413128
20
7.29763933422188
30
0
0
SPLINE
5
2D4
100
AcDbEntity
8
1
62
256
6
ByLayer
370
13
48
1
60
0
100
AcDbSpline
70
4
71
3
72
26
73
22
40
0
40
0
40
0
40
0
40
0.125000000000005
40
0.125000000000005
40
0.250000000000011
40
0.250000000000011
40
0.312500000000013
40
0.312500000000013
40
0.375000000000015
40
0.375000000000015
40
0.437500000000017
40
0.437500000000017
40
0.500000000000019
40
0.500000000000019
40
0.562500000000021
40
0.562500000000021
40
0.625000000000023
40
0.625000000000023
40
0.750000000000026
40
0.750000000000026
40
1
40
1
40
1
40
1
41
1
10
222.566795679059
20
7.78215892036692
30
0
41
1
10
222.517797968171
20
7.73343239953354
30
0
41
1
10
222.470341499656
20
7.68412985134836
30
0
41
1
10
222.381822521931
20
7.58381295565627
30
0
41
1
10
222.339992180833
20
7.53199234491672
30
0
41
1
10
222.288342889596
20
7.45255280090635
30
0
41
1
10
222.27299660128
20
7.4257923240541
30
0
41
1
10
222.24746494017
20
7.37106384228758
30
0
41
1
10
222.237454923288
20
7.34327365269306
30
0
41
1
10
222.224850152074
20
7.2881876404027
30
0
41
1
10
222.2221761471
20
7.26031741765601
30
0
41
1
10
222.22481925219
20
7.20598093399371
30
0
41
1
10
222.230006238242
20
7.17975431403838
30
0
41
1
10
222.246939152207
20
7.12884981099489
30
0
41
1
10
222.258709990153
20
7.10424969299359
30
0
41
1
10
222.286370102725
20
7.05795430762095
30
0
41
1
10
222.302339745731
20
7.03599401467977
30
0
41
1
10
222.354817407043
20
6.97293620591216
30
0
41
1
10
222.395810847783
20
6.93469027413823
30
0
41
1
10
222.524817168108
20
6.83130082048677
30
0
41
1
10
222.619896986974
20
6.77556463929665
30
0
41
1
10
222.718557350709
20
6.73186905740099
30
0
0
SPLINE
5
2D5
100
AcDbEntity
8
1
62
256
6
ByLayer
370
13
48
1
60
0
100
AcDbSpline
70
4
71
3
72
12
73
8
40
0
40
0
40
0
40
0
40
0.250000000000063
40
0.250000000000063
40
0.500000000000126
40
0.500000000000126
40
1
40
1
40
1
40
1
41
1
10
219.798542667991
20
10.8402172534404
30
0
41
1
10
219.803929881325
20
10.8621323053842
30
0
41
1
10
219.816799518636
20
10.88165377773
30
0
41
1
10
219.849438543842
20
10.9129461768738
30
0
41
1
10
219.869180658007
20
10.9251263478717
30
0
41
1
10
219.932008868486
20
10.9533649862988
30
0
41
1
10
219.979122650525
20
10.9618215476799
30
0
41
1
10
220.026915602621
20
10.9630876834678
30
0
0
SPLINE
5
2D6
100
AcDbEntity
8
1
62
256
6
ByLayer
370
13
48
1
60
0
100
AcDbSpline
70
4
71
3
72
8
73
4
40
0
40
0
40
0
40
0
40
1
40
1
40
1
40
1
41
1
10
241.088074300127
20
0.597655612800963
30
0
41
1
10
241.218791572937
20
0.615292466530292
30
0
41
1
10
241.34868696115
20
0.62186607284093
30
0
41
1
10
241.478737105274
20
0.618780744351767
30
0
0
SPLINE
5
2D7
100
AcDbEntity
8
1
62
256
6
ByLayer
370
13
48
1
60
0
100
AcDbSpline
70
4
71
3
72
14
73
10
40
0
40
0
40
0
40
0
40
0.5
40
0.5
40
0.750000000000039
40
0.750000000000039
40
0.87500000000002
40
0.87500000000002
40
1
40
1
40
1
40
1
41
1
10
231.31656661371
20
8.97307207233501
30
0
41
1
10
231.475170997127
20
8.92398053987705
30
0
41
1
10
231.633513164593
20
8.89093598513583
30
0
41
1
10
231.872355969918
20
8.86195104831114
30
0
41
1
10
231.952180872772
20
8.85577254406718
30
0
41
1
10
232.072406325107
20
8.85167173606968
30
0
41
1
10
232.112562798394
20
8.85116812645725
30
0
41
1
10
232.193068354884
20
8.85190376687501
30
0
41
1
10
232.233657432863
20
8.85316263011003
30
0
41
1
10
232.273390009808
20
8.8552449262329
30
0
0
SPLINE
5
2D8
100
AcDbEntity
8
1
62
256
6
ByLayer
370
13
48
1
60
0
100
AcDbSpline
70
4
71
3
72
34
73
30
40
0
40
0
40
0
40
0
40
0.0063021308818508
40
0.0063021308818508
40
0.058602018730174
40
0.058602018730174
40
0.110901906578497
40
0.110901906578497
40
0.163201794426821
40
0.163201794426821
40
0.215501682275144
40
0.215501682275144
40
0.267801570123467
40
0.267801570123467
40
0.32010145797179
40
0.32010145797179
40
0.372401345820114
40
0.372401345820114
40
0.477001121516761
40
0.477001121516761
40
0.581600897213409
40
0.581600897213409
40
0.686200672910057
40
0.686200672910057
40
0.790800448606704
40
0.790800448606704
40
0.895400224303352
40
0.895400224303352
40
1
40
1
40
1
40
1
41
1
10
176.834994481137
20
-19.299432157052
30
0
41
1
10
176.730376692416
20
-19.3249750460015
30
0
41
1
10
176.625762699157
20
-19.3504089166661
30
0
41
1
10
175.653017766174
20
-19.5858981685496
30
0
41
1
10
174.785147411996
20
-19.7885971017432
30
0
41
1
10
173.048371015086
20
-20.176700696818
30
0
41
1
10
172.179851957936
20
-20.3620104467824
30
0
41
1
10
170.440508730182
20
-20.7133508960471
30
0
41
1
10
169.569685271592
20
-20.8793706497983
30
0
41
1
10
167.822958092452
20
-21.1903752783452
30
0
41
1
10
166.946843137992
20
-21.3353809552917
30
0
41
1
10
165.187570725886
20
-21.6033344149192
30
0
41
1
10
164.304788380925
20
-21.7263618046974
30
0
41
1
10
162.532839867429
20
-21.9526474514036
30
0
41
1
10
161.643674245864
20
-22.0559052164099
30
0
41
1
10
159.85888383211
20
-22.2446371672329
30
0
41
1
10
158.962931725605
20
-22.3301373507103
30
0
41
1
10
156.268046965204
20
-22.5625220026641
30
0
41
1
10
154.462272666065
20
-22.685313895294
30
0
41
1
10
150.832124775653
20
-22.8813603488219
30
0
41
1
10
149.007809174149
20
-22.9546466102707
30
0
41
1
10
145.340968083262
20
-23.0643999361596
30
0
41
1
10
143.498120285176
20
-23.1008723787631
30
0
41
1
10
139.795197393703
20
-23.1474494417969
30
0
41
1
10
137.937047569413
20
-23.1575121442888
30
0
41
1
10
134.205431448927
20
-23.1616584494047
30
0
41
1
10
132.33132950725
20
-23.1557953310849
30
0
41
1
10
128.573820181694
20
-23.1378300211289
30
0
41
1
10
126.689678828566
20
-23.125741221092
30
0
41
1
10
124.8
20
-23.1142244209839
30
0
0
SPLINE
5
2D9
100
AcDbEntity
8
1
62
256
6
ByLayer
370
13
48
1
60
0
100
AcDbSpline
70
4
71
3
72
14
73
10
40
0
40
0
40
0
40
0
40
0.25
40
0.25
40
0.5
40
0.5
40
0.75
40
0.75
40
1
40
1
40
1
40
1
41
1
10
222.794778113973
20
6.70130923779325
30
0
41
1
10
222.721642713809
20
6.68276832299779
30
0
41
1
10
222.648115324665
20
6.67503885076059
30
0
41
1
10
222.500383746221
20
6.67960389311321
30
0
41
1
10
222.428511330336
20
6.69186800513728
30
0
41
1
10
222.289861783432
20
6.73076831878475
30
0
41
1
10
222.222132709506
20
6.7577345395467
30
0
41
1
10
222.09266603039
20
6.82043073880476
30
0
41
1
10
222.03075695268
20
6.85607660530241
30
0
41
1
10
221.970490802514
20
6.89436407343862
30
0
0
SPLINE
5
2DA
100
AcDbEntity
8
1
62
256
6
ByLayer
370
13
48
1
60
0
100
AcDbSpline
70
4
71
3
72
19
73
15
40
0
40
0
40
0
40
0
40
0.249999999999997
40
0.249999999999997
40
0.374999999999997
40
0.374999999999997
40
0.499999999999996
40
0.499999999999996
40
0.749999999999998
40
0.749999999999998
40
0.812499999999999
40
0.812499999999999
40
0.875
40
1
40
1
40
1
40
1
41
1
10
18.1540990899625
20
-21.7811227763902
30
0
41
1
10
18.000967475445
20
-22.07566826799
30
0
41
1
10
17.8837054907088
20
-22.3667000999781
30
0
41
1
10
17.7637758720107
20
-22.796970200142
30
0
41
1
10
17.7331396987001
20
-22.9400978833006
30
0
41
1
10
17.6925530560381
20
-23.2188151459667
30
0
41
1
10
17.6824044153678
20
-23.3547212712661
30
0
41
1
10
17.68234081167
20
-23.7521905879596
30
0
41
1
10
17.7220297973813
20
-24.0036327866808
30
0
41
1
10
17.8213282943473
20
-24.3010536188667
30
0
41
1
10
17.8438004300182
20
-24.3597717284861
30
0
41
1
10
17.8933831216337
20
-24.4744415946642
30
0
41
1
10
17.9747667169928
20
-24.6426723958641
30
0
41
1
10
18.0768852459622
20
-24.7998468417398
30
0
41
1
10
18.1539395100423
20
-24.8999192299909
30
0
0
SPLINE
5
2DB
100
AcDbEntity
8
1
62
256
6
ByLayer
370
13
48
1
60
0
100
AcDbSpline
70
4
71
3
72
8
73
4
40
0
40
0
40
0
40
0
40
1
40
1
40
1
40
1
41
1
10
221.170554967957
20
10.8913350265889
30
0
41
1
10
221.25728504667
20
10.8918159661992
30
0
41
1
10
221.344638417789
20
10.8871850471419
30
0
41
1
10
221.43203541875
20
10.8697002397163
30
0
0
SPLINE
5
2DC
100
AcDbEntity
8
1
62
256
6
ByLayer
370
13
48
1
60
0
100
AcDbSpline
70
4
71
3
72
20
73
16
40
0
40
0
40
0
40
0
40
0.125
40
0.125
40
0.250000000000001
40
0.250000000000001
40
0.375000000000001
40
0.375000000000001
40
0.500000000000001
40
0.500000000000001
40
0.625000000000002
40
0.625000000000002
40
0.750000000000002
40
0.750000000000002
40
1
40
1
40
1
40
1
41
1
10
6
20
-3.571
30
0
41
1
10
6
20
-3.60393322509643
30
0
41
1
10
5.99677802951547
20
-3.63631595001573
30
0
41
1
10
5.98415574729458
20
-3.70002633954874
30
0
41
1
10
5.97460706229406
20
-3.73167708988237
30
0
41
1
10
5.94964138722897
20
-3.79211448094432
30
0
41
1
10
5.93436036703305
20
-3.82078736336274
30
0
41
1
10
5.89825058475375
20
-3.87507092443721
30
0
41
1
10
5.87720587398627
20
-3.90081594433366
30
0
41
1
10
5.83118489707979
20
-3.94700451121324
30
0
41
1
10
5.80606785289076
20
-3.96773917479186
30
0
41
1
10
5.75151945639119
20
-4.00437912552908
30
0
41
1
10
5.72235822232544
20
-4.02002157401955
30
0
41
1
10
5.63204318454247
20
-4.05764032847557
30
0
41
1
10
5.56624413343685
20
-4.071
30
0
41
1
10
5.5
20
-4.071
30
0
0
SPLINE
5
2DD
100
AcDbEntity
8
1
62
256
6
ByLayer
370
13
48
1
60
0
100
AcDbSpline
70
4
71
3
72
61
73
57
40
0
40
0
40
0
40
0
40
0.0372851472920717
40
0.0372851472920717
40
0.0473134270077798
40
0.0473134270077798
40
0.0573417067234878
40
0.0573417067234878
40
0.0773982661549033
40
0.0773982661549033
40
0.117511385017734
40
0.117511385017734
40
0.157624503880564
40
0.157624503880564
40
0.197737622743394
40
0.197737622743394
40
0.237850741606225
40
0.237850741606225
40
0.277963860469055
40
0.277963860469055
40
0.318076979331886
40
0.318076979331886
40
0.338133538763301
40
0.338133538763301
40
0.358190098194716
40
0.358190098194716
40
0.398303217057547
40
0.398303217057547
40
0.438416335920377
40
0.438416335920377
40
0.458472895351792
40
0.458472895351792
40
0.478529454783207
40
0.478529454783207
40
0.488557734498915
40
0.488557734498915
40
0.498586014214622
40
0.498586014214622
40
0.50861429393033
40
0.50861429393033
40
0.518642573646037
40
0.538699133077453
40
0.538699133077453
40
0.558755692508868
40
0.558755692508868
40
0.578812251940283
40
0.578812251940283
40
0.598868811371698
40
0.598868811371698
40
0.679095049097359
40
0.679095049097359
40
0.759321286823019
40
0.759321286823019
40
0.839547524548679
40
0.839547524548679
40
1
40
1
40
1
40
1
41
1
10
176.327307631215
20
-19.1610686411409
30
0
41
1
10
174.820112605023
20
-19.5157415905296
30
0
41
1
10
173.313647094302
20
-19.850137197402
30
0
41
1
10
171.399033462382
20
-20.2299944239839
30
0
41
1
10
170.993250584764
20
-20.3078062125005
30
0
41
1
10
170.181383772574
20
-20.4581898680522
30
0
41
1
10
169.775261835105
20
-20.5309086528132
30
0
41
1
10
168.555339437526
20
-20.7444089864956
30
0
41
1
10
167.739910614683
20
-20.881092246136
30
0
41
1
10
165.285881763398
20
-21.2651161430317
30
0
41
1
10
163.639049228773
20
-21.4832260979455
30
0
41
1
10
160.322726804313
20
-21.8553909157093
30
0
41
1
10
158.653296142778
20
-22.0099160207815
30
0
41
1
10
155.29139344229
20
-22.2704621396976
30
0
41
1
10
153.601264298848
20
-22.375547581489
30
0
41
1
10
150.205759960631
20
-22.5429406262838
30
0
41
1
10
148.499164848589
20
-22.6053436739815
30
0
41
1
10
145.075495691703
20
-22.6953442177271
30
0
41
1
10
143.358274058281
20
-22.7231636577373
30
0
41
1
10
139.91122186477
20
-22.7602761018418
30
0
41
1
10
138.181368103445
20
-22.7695237436011
30
0
41
1
10
135.576076354774
20
-22.7736127355537
30
0
41
1
10
134.705890406239
20
-22.7733149448825
30
0
41
1
10
132.961838433665
20
-22.7701596647366
30
0
41
1
10
132.08779714101
20
-22.7673752513555
30
0
41
1
10
129.464130737493
20
-22.7575929543099
30
0
41
1
10
127.711735818223
20
-22.748879798627
30
0
41
1
10
124.200439934612
20
-22.7267655110706
30
0
41
1
10
122.441511227293
20
-22.7126164064259
30
0
41
1
10
119.798343487074
20
-22.6910306177398
30
0
41
1
10
118.91649277334
20
-22.6840769339817
30
0
41
1
10
117.151215662929
20
-22.6731248542838
30
0
41
1
10
116.267559226515
20
-22.6691093139836
30
0
41
1
10
114.94209414038
20
-22.6687170642688
30
0
41
1
10
114.500262837325
20
-22.6695312866334
30
0
41
1
10
113.616582184002
20
-22.6735792157656
30
0
41
1
10
113.174732961331
20
-22.6767152363779
30
0
41
1
10
112.291021377484
20
-22.682938031862
30
0
41
1
10
111.849159018012
20
-22.6859921793193
30
0
41
1
10
110.965425705761
20
-22.6901607620095
30
0
41
1
10
109.639812353761
20
-22.6939170044972
30
0
41
1
10
108.314167003148
20
-22.6920144752717
30
0
41
1
10
106.546626068272
20
-22.6877624010114
30
0
41
1
10
105.66284908186
20
-22.6849016753553
30
0
41
1
10
103.895291225441
20
-22.6792744432436
30
0
41
1
10
103.011510268931
20
-22.6764801579882
30
0
41
1
10
101.243952802019
20
-22.6723062994999
30
0
41
1
10
100.36017775516
20
-22.6710760019268
30
0
41
1
10
95.9413098279779
20
-22.6679148284072
30
0
41
1
10
92.4062182673421
20
-22.674459533413
30
0
41
1
10
85.3360320576106
20
-22.6767916917868
30
0
41
1
10
81.8009380346056
20
-22.6745619265184
30
0
41
1
10
74.7307504460723
20
-22.671449661803
30
0
41
1
10
71.1956566381441
20
-22.670409568735
30
0
41
1
10
60.5903752060037
20
-22.6706831945512
30
0
41
1
10
53.5201875729494
20
-22.6751053988379
30
0
41
1
10
46.45
20
-22.6750650599895
30
0
0
SPLINE
5
2DE
100
AcDbEntity
8
1
62
256
6
ByLayer
370
13
48
1
60
0
100
AcDbSpline
70
4
71
3
72
54
73
50
40
0
40
0
40
0
40
0
40
0.125000000000001
40
0.125000000000001
40
0.156250000000001
40
0.156250000000001
40
0.187500000000001
40
0.187500000000001
40
0.250000000000002
40
0.250000000000002
40
0.312500000000002
40
0.312500000000002
40
0.343750000000002
40
0.343750000000002
40
0.375000000000002
40
0.375000000000002
40
0.437500000000002
40
0.437500000000002
40
0.468750000000002
40
0.468750000000002
40
0.500000000000002
40
0.500000000000002
40
0.531250000000003
40
0.531250000000003
40
0.562500000000003
40
0.562500000000003
40
0.593750000000003
40
0.593750000000003
40
0.625000000000003
40
0.625000000000003
40
0.687500000000003
40
0.687500000000003
40
0.718750000000003
40
0.718750000000003
40
0.750000000000002
40
0.750000000000002
40
0.781250000000002
40
0.781250000000002
40
0.812500000000002
40
0.812500000000002
40
0.843750000000002
40
0.843750000000002
40
0.875000000000002
40
0.875000000000002
40
0.906250000000001
40
0.906250000000001
40
0.937500000000001
40
0.937500000000001
40
1
40
1
40
1
40
1
41
1
10
210.306993695237
20
4.88500813159516
30
0
41
1
10
206.833047068782
20
6.41270268709209
30
0
41
1
10
203.366269963367
20
7.90248145242779
30
0
41
1
10
199.027903595219
20
9.68814498919119
30
0
41
1
10
198.159982687734
20
10.041444854453
30
0
41
1
10
196.423292526636
20
10.7396415594206
30
0
41
1
10
195.5543088203
20
11.084624239985
30
0
41
1
10
192.949670067084
20
12.1042192237255
30
0
41
1
10
191.215102688229
20
12.7639815508743
30
0
41
1
10
187.746436949213
20
14.0375636024298
30
0
41
1
10
186.012275954091
20
14.6512743350543
30
0
41
1
10
183.409024047981
20
15.5332377994722
30
0
41
1
10
182.540959659974
20
15.8208303133228
30
0
41
1
10
180.803923310797
20
16.3827212034718
30
0
41
1
10
179.935271550857
20
16.6569102610378
30
0
41
1
10
177.331660791886
20
17.4575544894187
30
0
41
1
10
175.598129565359
20
17.9628921918158
30
0
41
1
10
172.997823471409
20
18.6733291429984
30
0
41
1
10
172.130959643029
20
18.9020889639367
30
0
41
1
10
170.396012007792
20
19.342292031937
30
0
41
1
10
169.527973180059
20
19.5537582716306
30
0
41
1
10
167.787492398633
20
19.9560036626575
30
0
41
1
10
166.914929269137
20
20.1467964078735
30
0
41
1
10
165.162342405136
20
20.5049756368692
30
0
41
1
10
164.283521385311
20
20.6721800235539
30
0
41
1
10
162.519403673218
20
20.9833439661502
30
0
41
1
10
161.634095732131
20
21.1272911530004
30
0
41
1
10
159.855560527292
20
21.392867845613
30
0
41
1
10
158.962419863812
20
21.5146352265076
30
0
41
1
10
156.272657281171
20
21.8518380466932
30
0
41
1
10
154.465982140979
20
22.0396161190465
30
0
41
1
10
151.739194900698
20
22.2796325492853
30
0
41
1
10
150.827137591289
20
22.3526288941594
30
0
41
1
10
148.999334185692
20
22.486209947361
30
0
41
1
10
148.083674583881
20
22.5467940625476
30
0
41
1
10
146.249143538523
20
22.6571483091652
30
0
41
1
10
145.330304128463
20
22.7069401106488
30
0
41
1
10
143.489575647571
20
22.7969627296658
30
0
41
1
10
142.567611829497
20
22.8371233153143
30
0
41
1
10
140.71971931979
20
22.9084571676996
30
0
41
1
10
139.793790222628
20
22.9396309793693
30
0
41
1
10
137.937159466479
20
22.9939327115902
30
0
41
1
10
137.006425723121
20
23.017059467929
30
0
41
1
10
135.142069556935
20
23.0563628012581
30
0
41
1
10
134.208104344518
20
23.0725358934585
30
0
41
1
10
132.336310046546
20
23.099354310607
30
0
41
1
10
131.398527526304
20
23.110031547878
30
0
41
1
10
128.579716429655
20
23.136015857134
30
0
41
1
10
126.693222473505
20
23.1453891358307
30
0
41
1
10
124.8
20
23.151065560207
30
0
0
SPLINE
5
2DF
100
AcDbEntity
8
1
62
256
6
ByLayer
370
13
48
1
60
0
100
AcDbSpline
70
4
71
3
72
8
73
4
40
0
40
0
40
0
40
0
40
1
40
1
40
1
40
1
41
1
10
227.538118329176
20
8.57775469546149
30
0
41
1
10
227.565910625825
20
8.57868174730996
30
0
41
1
10
227.594332477491
20
8.5784920545893
30
0
41
1
10
227.622237410308
20
8.57708217196299
30
0
0
SPLINE
5
2E0
100
AcDbEntity
8
1
62
256
6
ByLayer
370
13
48
1
60
0
100
AcDbSpline
70
4
71
3
72
8
73
4
40
0
40
0
40
0
40
0
40
1
40
1
40
1
40
1
41
1
10
220.026915112324
20
10.9630826950577
30
0
41
1
10
220.150951667209
20
12.2250635246311
30
0
41
1
10
220.27203527554
20
13.4855135437192
30
0
41
1
10
220.389399487776
20
14.744687209114
30
0
0
SPLINE
5
2E1
100
AcDbEntity
8
1
62
256
6
ByLayer
370
13
48
1
60
0
100
AcDbSpline
70
4
71
3
72
10
73
6
40
0
40
0
40
0
40
0
40
0.5
40
0.5
40
1
40
1
40
1
40
1
41
1
10
240.125564676753
20
-4.14898862878226
30
0
41
1
10
240.179846194131
20
-4.44336810593731
30
0
41
1
10
240.213174168869
20
-4.73745502807074
30
0
41
1
10
240.240266845249
20
-5.32489823243685
30
0
41
1
10
240.234025691175
20
-5.61825495503015
30
0
41
1
10
240.207920433505
20
-5.91122479501803
30
0
0
SPLINE
5
2E2
100
AcDbEntity
8
1
62
256
6
ByLayer
370
13
48
1
60
0
100
AcDbSpline
70
4
71
3
72
8
73
4
40
0
40
0
40
0
40
0
40
1
40
1
40
1
40
1
41
1
10
-2.84E-14
20
-26.7613352297609
30
0
41
1
10
0.166657416166501
20
-26.9067424437056
30
0
41
1
10
0.333324220354257
20
-27.0521415880536
30
0
41
1
10
0.499999999999972
20
-27.197533014896
30
0
0
SPLINE
5
2E3
100
AcDbEntity
8
1
62
256
6
ByLayer
370
13
48
1
60
0
100
AcDbSpline
70
4
71
3
72
26
73
22
40
0
40
0
40
0
40
0
40
0.0625
40
0.0625
40
0.125
40
0.125
40
0.1875
40
0.1875
40
0.25
40
0.25
40
0.3125
40
0.3125
40
0.375
40
0.375
40
0.5
40
0.5
40
0.625
40
0.625
40
0.75
40
0.75
40
1
40
1
40
1
40
1
41
1
10
124.8
20
-8.92502175490446
30
0
41
1
10
123.267981189459
20
-8.79572315424261
30
0
41
1
10
121.734382279017
20
-8.68895231778862
30
0
41
1
10
118.663862320533
20
-8.52382162685058
30
0
41
1
10
117.126558776721
20
-8.4656631511443
30
0
41
1
10
114.051216759392
20
-8.38746438170216
30
0
41
1
10
112.513462258268
20
-8.36806640281691
30
0
41
1
10
109.437865540755
20
-8.35020157483595
30
0
41
1
10
107.900026854505
20
-8.35087134192042
30
0
41
1
10
104.824332009984
20
-8.35638179877608
30
0
41
1
10
103.286474245971
20
-8.36160151154871
30
0
41
1
10
100.210773470392
20
-8.36852450112377
30
0
41
1
10
98.6729274462048
20
-8.37094614733218
30
0
41
1
10
94.0594023418462
20
-8.37512173232233
30
0
41
1
10
90.9837337557344
20
-8.37437509188473
30
0
41
1
10
84.8323910647572
20
-8.37419368160963
30
0
41
1
10
81.7567197589684
20
-8.37402104173813
30
0
41
1
10
75.6053757845006
20
-8.37468894836482
30
0
41
1
10
72.529703336742
20
-8.37539380659382
30
0
41
1
10
63.3026863262341
20
-8.37723321955164
30
0
41
1
10
57.1513421897832
20
-8.37801720759384
30
0
41
1
10
51.0000000000001
20
-8.37720491425227
30
0
0
SPLINE
5
2E4
100
AcDbEntity
8
1
62
256
6
ByLayer
370
13
48
1
60
0
100
AcDbSpline
70
4
71
3
72
10
73
6
40
0
40
0
40
0
40
0
40
0.586854505211861
40
0.586854505211861
40
1
40
1
40
1
40
1
41
1
10
219.375362088472
20
8.84291658288788
30
0
41
1
10
215.803589302894
20
8.96703968915847
30
0
41
1
10
212.234778714767
20
9.02423654543779
30
0
41
1
10
206.154550480111
20
9.00979178040396
30
0
41
1
10
203.642821499819
20
8.97129474253896
30
0
41
1
10
201.130557214812
20
8.90128151075243
30
0
0
SPLINE
5
2E5
100
AcDbEntity
8
1
62
256
6
ByLayer
370
13
48
1
60
0
100
AcDbSpline
70
4
71
3
72
8
73
4
40
0
40
0
40
0
40
0
40
1
40
1
40
1
40
1
41
1
10
0.499999999999957
20
-31.268533014896
30
0
41
1
10
0.333324220354243
20
-31.1231415880536
30
0
41
1
10
0.166657416166501
20
-30.9777424437056
30
0
41
1
10
-2.84E-14
20
-30.8323352297609
30
0
0
SPLINE
5
2E6
100
AcDbEntity
8
1
62
256
6
ByLayer
370
13
48
1
60
0
100
AcDbSpline
70
4
71
3
72
8
73
4
40
0
40
0
40
0
40
0
40
1
40
1
40
1
40
1
41
1
10
215.621687277722
20
21.5781984831245
30
0
41
1
10
215.897669419224
20
22.015941488615
30
0
41
1
10
216.165992587326
20
22.4585379302602
30
0
41
1
10
216.427266697093
20
22.9052771198692
30
0
0
SPLINE
5
2E7
100
AcDbEntity
8
1
62
256
6
ByLayer
370
13
48
1
60
0
100
AcDbSpline
70
4
71
2
72
12
73
9
40
0
40
0
40
0
40
0.308791251173484
40
0.308791251173484
40
0.617582502346969
40
0.617582502346969
40
0.926373753520453
40
0.926373753520453
40
1
40
1
40
1
41
1
10
45.9999999999993
20
-13.2717407235466
30
0
41
1
10
41.9899301971019
20
-14.0139253492484
30
0
41
1
10
38.4569892721543
20
-15.7117285528805
30
0
41
1
10
34.8058724271536
20
-17.466322815271
30
0
41
1
10
32.0004873209426
20
-20.0679271083515
30
0
41
1
10
29.2201382052379
20
-22.646314004206
30
0
41
1
10
27.5329464350664
20
-25.8120806507956
30
0
41
1
10
27.1503849977446
20
-26.5299007942765
30
0
41
1
10
26.8332486477488
20
-27.261727058688
30
0
0
SPLINE
5
2E8
100
AcDbEntity
8
1
62
256
6
ByLayer
370
13
48
1
60
0
100
AcDbSpline
70
4
71
3
72
28
73
24
40
0
40
0
40
0
40
0
40
0.126198920626621
40
0.126198920626621
40
0.189298380939931
40
0.189298380939931
40
0.252397841253242
40
0.252397841253242
40
0.504795682506485
40
0.504795682506485
40
0.567895142819796
40
0.567895142819796
40
0.630994603133107
40
0.630994603133107
40
0.75719352375973
40
0.75719352375973
40
0.883392444386354
40
0.883392444386354
40
0.946491904699666
40
0.946491904699666
40
0.978041634856322
40
0.978041634856322
40
1
40
1
40
1
40
1
41
1
10
215.621687277708
20
21.5781984831333
30
0
41
1
10
213.946911217315
20
21.6911348094447
30
0
41
1
10
212.272701389733
20
21.769691877207
30
0
41
1
10
209.760475779692
20
21.8362010179499
30
0
41
1
10
208.922869161504
20
21.8498047808476
30
0
41
1
10
207.248829982826
20
21.8598610994611
30
0
41
1
10
206.412177726077
20
21.8563213490461
30
0
41
1
10
202.230007920864
20
21.7957454251785
30
0
41
1
10
198.887848232558
20
21.6093479597315
30
0
41
1
10
194.701985544125
20
21.2040001372984
30
0
41
1
10
193.864392231853
20
21.1143690190466
30
0
41
1
10
192.190546219015
20
20.9184800866535
30
0
41
1
10
191.353984239053
20
20.8121948163777
30
0
41
1
10
188.844929280068
20
20.468720513781
30
0
41
1
10
187.173117939042
20
20.207322015252
30
0
41
1
10
183.828924905157
20
19.6093608450146
30
0
41
1
10
182.156249793517
20
19.2701656544707
30
0
41
1
10
179.644091368747
20
18.7371282989559
30
0
41
1
10
178.806300823911
20
18.5557115117116
30
0
41
1
10
177.54959555709
20
18.2797308879421
30
0
41
1
10
177.130611002065
20
18.1868342048408
30
0
41
1
10
176.419358472359
20
18.0261815901396
30
0
41
1
10
176.127264805357
20
17.9592796656598
30
0
41
1
10
175.83492849849
20
17.8914667828349
30
0
0
SPLINE
5
2E9
100
AcDbEntity
8
1
62
256
6
ByLayer
370
13
48
1
60
0
100
AcDbSpline
70
4
71
3
72
12
73
8
40
0
40
0
40
0
40
0
40
0.249999999999992
40
0.249999999999992
40
0.499999999999983
40
0.499999999999983
40
1
40
1
40
1
40
1
41
1
10
222.878572909859
20
10.7519230262512
30
0
41
1
10
222.869489227494
20
10.8195781940001
30
0
41
1
10
222.857180030511
20
10.8868381544644
30
0
41
1
10
222.825392814452
20
11.0204797130077
30
0
41
1
10
222.805772693497
20
11.0871750444286
30
0
41
1
10
222.736443689099
20
11.2816334496848
30
0
41
1
10
222.676181117783
20
11.4047788229252
30
0
41
1
10
222.601151793674
20
11.5210960794208
30
0
0
SPLINE
5
2EA
100
AcDbEntity
8
1
62
256
6
ByLayer
370
13
48
1
60
0
100
AcDbSpline
70
4
71
3
72
14
73
10
40
0
40
0
40
0
40
0
40
0.0533664826416812
40
0.0533664826416812
40
0.52668324132084
40
0.52668324132084
40
0.76334162066042
40
0.76334162066042
40
1
40
1
40
1
40
1
41
1
10
197.202579993751
20
10.4241952583766
30
0
41
1
10
197.604474643044
20
10.4500254064649
30
0
41
1
10
198.006349412779
20
10.4749094722183
30
0
41
1
10
201.972373664008
20
10.7111055468838
30
0
41
1
10
205.535338525459
20
10.8484284460573
30
0
41
1
10
210.883247786763
20
10.9353938792196
30
0
41
1
10
212.666630372767
20
10.9445641025746
30
0
41
1
10
216.232517890895
20
10.9226389625163
30
0
41
1
10
218.015367909873
20
10.8915546393266
30
0
41
1
10
219.798542668006
20
10.8402172534364
30
0
0
SPLINE
5
2EB
100
AcDbEntity
8
1
62
256
6
ByLayer
370
13
48
1
60
0
100
AcDbSpline
70
4
71
3
72
16
73
12
40
0
40
0
40
0
40
0
40
0.249999999999967
40
0.249999999999967
40
0.374999999999972
40
0.374999999999972
40
0.499999999999977
40
0.499999999999977
40
0.749999999999989
40
0.749999999999989
40
1
40
1
40
1
40
1
41
1
10
241.154656219559
20
8.16379829303912
30
0
41
1
10
241.007295825276
20
8.18291396003303
30
0
41
1
10
240.864628598616
20
8.21322653201173
30
0
41
1
10
240.653994852595
20
8.27557409375086
30
0
41
1
10
240.584278441702
20
8.29927184403198
30
0
41
1
10
240.447681517085
20
8.35195445757108
30
0
41
1
10
240.380570408639
20
8.38099679510799
30
0
41
1
10
240.18252061178
20
8.47657685106344
30
0
41
1
10
240.054832245628
20
8.5514041757817
30
0
41
1
10
239.80780579538
20
8.7281674671712
30
0
41
1
10
239.692570461428
20
8.82724851751556
30
0
41
1
10
239.586596423833
20
8.9381021300311
30
0
0
SPLINE
5
2EC
100
AcDbEntity
8
1
62
256
6
ByLayer
370
13
48
1
60
0
100
AcDbSpline
70
4
71
3
72
16
73
12
40
0
40
0
40
0
40
0
40
0.469565954175832
40
0.469565954175832
40
0.704348931263749
40
0.704348931263749
40
0.821740419807707
40
0.821740419807707
40
0.939131908351666
40
0.939131908351666
40
1
40
1
40
1
40
1
41
1
10
18.1540990899625
20
-21.7811227763902
30
0
41
1
10
18.459189467844
20
-20.6205636998587
30
0
41
1
10
18.8570866439087
20
-19.4790052628821
30
0
41
1
10
19.5992633583567
20
-17.7949856795277
30
0
41
1
10
19.8710673356914
20
-17.2384076560676
30
0
41
1
10
20.3178299152968
20
-16.41101580766
30
0
41
1
10
20.4732204624047
20
-16.1366196829664
30
0
41
1
10
20.7951678161548
20
-15.5942380299113
30
0
41
1
10
20.9619581306023
20
-15.3258646735657
30
0
41
1
10
21.2238094054019
20
-14.9224858248575
30
0
41
1
10
21.3147234525563
20
-14.7854740044016
30
0
41
1
10
21.4071342868642
20
-14.6491822462159
30
0
0
SPLINE
5
2ED
100
AcDbEntity
8
1
62
256
6
ByLayer
370
13
48
1
60
0
100
AcDbSpline
70
4
71
3
72
10
73
6
40
0
40
0
40
0
40
0
40
0.246432795276287
40
0.246432795276287
40
1
40
1
40
1
40
1
41
1
10
0
20
4.071
30
0
41
1
10
0.0410698531254923
20
4.071
30
0
41
1
10
0.0821402764839974
20
4.071
30
0
41
1
10
0.248802294970289
20
4.071
30
0
41
1
10
0.374398598796674
20
4.071
30
0
41
1
10
0.5
20
4.071
30
0
0
SPLINE
5
2EE
100
AcDbEntity
8
1
62
256
6
ByLayer
370
13
48
1
60
0
100
AcDbSpline
70
4
71
3
72
52
73
48
40
0
40
0
40
0
40
0
40
0.12500000000001
40
0.12500000000001
40
0.250000000000021
40
0.250000000000021
40
0.281250000000023
40
0.281250000000023
40
0.312500000000024
40
0.312500000000024
40
0.375000000000028
40
0.375000000000028
40
0.40625000000003
40
0.40625000000003
40
0.437500000000031
40
0.437500000000031
40
0.500000000000035
40
0.500000000000035
40
0.562500000000038
40
0.562500000000038
40
0.578125000000038
40
0.578125000000038
40
0.593750000000039
40
0.593750000000039
40
0.625000000000036
40
0.625000000000036
40
0.656250000000033
40
0.656250000000033
40
0.671875000000032
40
0.671875000000032
40
0.687500000000031
40
0.687500000000031
40
0.750000000000024
40
0.750000000000024
40
0.781250000000021
40
0.781250000000021
40
0.796875000000019
40
0.796875000000019
40
0.812500000000018
40
0.812500000000018
40
0.875000000000012
40
0.875000000000012
40
0.906250000000009
40
0.906250000000009
40
0.937500000000006
40
0.937500000000006
40
1
40
1
40
1
40
1
41
1
10
220.50218253494
20
1.957780368622
30
0
41
1
10
221.416898562014
20
1.76757189876867
30
0
41
1
10
222.338686243814
20
1.59805963559626
30
0
41
1
10
224.205491805548
20
1.32702159902945
30
0
41
1
10
225.150398813972
20
1.22517134434096
30
0
41
1
10
226.353484390952
20
1.16210364933573
30
0
41
1
10
226.595206748587
20
1.15276349109868
30
0
41
1
10
227.076709527907
20
1.14136141874889
30
0
41
1
10
227.317007154622
20
1.13926717270402
30
0
41
1
10
228.036436778337
20
1.14461530688297
30
0
41
1
10
228.514112461797
20
1.16363337298296
30
0
41
1
10
229.227207687076
20
1.21933124610337
30
0
41
1
10
229.464334900646
20
1.24243741582268
30
0
41
1
10
229.937337458798
20
1.29860038868051
30
0
41
1
10
230.172870119679
20
1.33166287982169
30
0
41
1
10
230.867234073975
20
1.4453461823102
30
0
41
1
10
231.317126931709
20
1.54074287443257
30
0
41
1
10
232.188035267235
20
1.77503681293379
30
0
41
1
10
232.609098187097
20
1.91386259312102
30
0
41
1
10
233.114324017447
20
2.11918386381336
30
0
41
1
10
233.21456033012
20
2.1619689075408
30
0
41
1
10
233.410938274588
20
2.25005391349012
30
0
41
1
10
233.50720418357
20
2.29539273052669
30
0
41
1
10
233.790195286587
20
2.43532335775046
30
0
41
1
10
233.971123021054
20
2.53382316646651
30
0
41
1
10
234.31710793921
20
2.74152093338114
30
0
41
1
10
234.482167435483
20
2.85071733269396
30
0
41
1
10
234.717312509055
20
3.02290039918978
30
0
41
1
10
234.793617461479
20
3.08169465958585
30
0
41
1
10
234.941946133696
20
3.20216910836558
30
0
41
1
10
235.014151318733
20
3.26402491522245
30
0
41
1
10
235.360522896255
20
3.57744687775897
30
0
41
1
10
235.593034659378
20
3.84268625454703
30
0
41
1
10
235.876049699909
20
4.26193190467163
30
0
41
1
10
235.959371849928
20
4.40526356495118
30
0
41
1
10
236.067437320709
20
4.62576369656512
30
0
41
1
10
236.100709427756
20
4.70039061008259
30
0
41
1
10
236.160912113637
20
4.84997551865163
30
0
41
1
10
236.187909832818
20
4.92503061757023
30
0
41
1
10
236.307798823729
20
5.30158391853902
30
0
41
1
10
236.355705626009
20
5.6068889381782
30
0
41
1
10
236.359474542469
20
6.07060870318222
30
0
41
1
10
236.349168353624
20
6.22684617158214
30
0
41
1
10
236.306637302802
20
6.53613752083697
30
0
41
1
10
236.274525224375
20
6.68953224957221
30
0
41
1
10
236.147707145639
20
7.14620092842719
30
0
41
1
10
236.022668807077
20
7.44597661380953
30
0
41
1
10
235.860235346205
20
7.74143947514793
30
0
0
SPLINE
5
2EF
100
AcDbEntity
8
1
62
256
6
ByLayer
370
13
48
1
60
0
100
AcDbSpline
70
4
71
3
72
8
73
4
40
0
40
0
40
0
40
0
40
1
40
1
40
1
40
1
41
1
10
219.107106212144
20
-0.161609646009651
30
0
41
1
10
219.499337437222
20
-0.255035697176794
30
0
41
1
10
219.89371350286
20
-0.319916919542663
30
0
41
1
10
220.29021049735
20
-0.355805602030443
30
0
0
SPLINE
5
2F0
100
AcDbEntity
8
1
62
256
6
ByLayer
370
13
48
1
60
0
100
AcDbSpline
70
4
71
3
72
14
73
10
40
0
40
0
40
0
40
0
40
0.500000000000003
40
0.500000000000003
40
0.625000000000002
40
0.625000000000002
40
0.750000000000002
40
0.750000000000002
40
1
40
1
40
1
40
1
41
1
10
44.2449981520431
20
-23.3695737169457
30
0
41
1
10
43.6032408440027
20
-23.411803149264
30
0
41
1
10
42.9742530448215
20
-23.4698306952915
30
0
41
1
10
42.203232800599
20
-23.5576422862054
30
0
41
1
10
42.0497978425496
20
-23.5759445478278
30
0
41
1
10
41.744481191298
20
-23.6138136580309
30
0
41
1
10
41.5920840076752
20
-23.6334509630274
30
0
41
1
10
41.1422549918308
20
-23.6931854521652
30
0
41
1
10
40.851711943741
20
-23.7341543281324
30
0
41
1
10
40.5702199111059
20
-23.7747586551992
30
0
0
SPLINE
5
2F1
100
AcDbEntity
8
1
62
256
6
ByLayer
370
13
48
1
60
0
100
AcDbSpline
70
4
71
3
72
34
73
30
40
0
40
0
40
0
40
0
40
0.10466325162552
40
0.10466325162552
40
0.209326503251041
40
0.209326503251041
40
0.313989754876561
40
0.313989754876561
40
0.366321380689318
40
0.366321380689318
40
0.418653006502075
40
0.418653006502075
40
0.52331625812759
40
0.52331625812759
40
0.627979509753105
40
0.627979509753105
40
0.680311135565859
40
0.680311135565859
40
0.732642761378614
40
0.732642761378614
40
0.837306013004123
40
0.837306013004123
40
0.889637638816877
40
0.889637638816877
40
0.915803451723255
40
0.915803451723255
40
0.941969264629632
40
0.941969264629632
40
1
40
1
40
1
40
1
41
1
10
219.221536353242
20
8.29875194373713
30
0
41
1
10
218.754347610815
20
8.41188663686526
30
0
41
1
10
218.28227077767
20
8.50544298195493
30
0
41
1
10
217.329261797763
20
8.65952169694907
30
0
41
1
10
216.848316864614
20
8.71998682849301
30
0
41
1
10
215.877494255976
20
8.81066847545225
30
0
41
1
10
215.387613059036
20
8.84086060418116
30
0
41
1
10
214.645492784712
20
8.86406537136514
30
0
41
1
10
214.396897557667
20
8.86810614678024
30
0
41
1
10
213.897097505034
20
8.86875370410422
30
0
41
1
10
213.645321244213
20
8.86533777899814
30
0
41
1
10
212.891180181206
20
8.84391757734502
30
0
41
1
10
212.389707201052
20
8.81486081075175
30
0
41
1
10
211.389202477688
20
8.72754452760381
30
0
41
1
10
210.890169977375
20
8.66929748800675
30
0
41
1
10
210.143428372004
20
8.55928895523223
30
0
41
1
10
209.894816539669
20
8.51883517859491
30
0
41
1
10
209.398206854556
20
8.43004965531645
30
0
41
1
10
209.149394264079
20
8.38153768481419
30
0
41
1
10
208.411418779317
20
8.2250950614274
30
0
41
1
10
207.930459568798
20
8.10647314394842
30
0
41
1
10
207.227885306806
20
7.90554206844695
30
0
41
1
10
206.996853541798
20
7.83470823868981
30
0
41
1
10
206.655560217887
20
7.72215013473505
30
0
41
1
10
206.542673498109
20
7.68357658587263
30
0
41
1
10
206.318772132384
20
7.60418878016608
30
0
41
1
10
206.207684223429
20
7.56333859903873
30
0
41
1
10
205.856756516527
20
7.42931582129972
30
0
41
1
10
205.623462218695
20
7.33270420276267
30
0
41
1
10
205.3999531113
20
7.23107427713526
30
0
0
SPLINE
5
2F2
100
AcDbEntity
8
1
62
256
6
ByLayer
370
13
48
1
60
0
100
AcDbSpline
70
2053
71
3
72
95
73
91
40
0
40
0
40
0
40
0
40
0.0312499999999944
40
0.0312499999999944
40
0.0468749999999946
40
0.0468749999999946
40
0.0624999999999948
40
0.0624999999999948
40
0.0937499999999952
40
0.0937499999999952
40
0.109374999999993
40
0.109374999999993
40
0.12499999999999
40
0.12499999999999
40
0.15624999999999
40
0.15624999999999
40
0.187499999999989
40
0.187499999999989
40
0.203124999999989
40
0.203124999999989
40
0.218749999999989
40
0.218749999999989
40
0.249999999999988
40
0.249999999999988
40
0.265624999999987
40
0.265624999999987
40
0.281249999999987
40
0.281249999999987
40
0.312499999999986
40
0.312499999999986
40
0.328124999999985
40
0.328124999999985
40
0.343749999999984
40
0.343749999999984
40
0.374999999999977
40
0.374999999999977
40
0.406249999999971
40
0.406249999999971
40
0.421874999999968
40
0.421874999999968
40
0.437499999999965
40
0.437499999999965
40
0.468749999999964
40
0.468749999999964
40
0.484374999999964
40
0.484374999999964
40
0.499999999999964
40
0.499999999999964
40
0.531249999999963
40
0.531249999999963
40
0.546874999999963
40
0.546874999999963
40
0.562499999999963
40
0.578124999999963
40
0.578124999999963
40
0.593749999999962
40
0.593749999999962
40
0.624999999999962
40
0.624999999999962
40
0.640624999999964
40
0.640624999999964
40
0.656249999999965
40
0.656249999999965
40
0.687499999999968
40
0.687499999999968
40
0.718749999999972
40
0.718749999999972
40
0.734374999999973
40
0.734374999999973
40
0.749999999999975
40
0.749999999999975
40
0.781249999999979
40
0.781249999999979
40
0.796874999999981
40
0.796874999999981
40
0.812499999999982
40
0.812499999999982
40
0.843749999999986
40
0.843749999999986
40
0.874999999999989
40
0.874999999999989
40
0.906249999999993
40
0.906249999999993
40
0.921874999999992
40
0.921874999999992
40
0.937499999999992
40
0.937499999999992
40
0.968749999999996
40
0.968749999999996
40
1
40
1
40
1
40
1
41
1
10
234.002789113499
20
-2.66425205310725
30
0
41
1
10
234.145213360592
20
-2.66425205310725
30
0
41
1
10
234.285127888286
20
-2.67884460180133
30
0
41
1
10
234.491393234708
20
-2.72168901379453
30
0
41
1
10
234.559542482967
20
-2.73949067687667
30
0
41
1
10
234.694598529071
20
-2.78230713377596
30
0
41
1
10
234.761357847464
20
-2.8073290720944
30
0
41
1
10
234.955196776975
20
-2.89145670798399
30
0
41
1
10
235.077459328023
20
-2.95999246040088
30
0
41
1
10
235.250466150102
20
-3.08130520222423
30
0
41
1
10
235.306653187304
20
-3.1251069648402
30
0
41
1
10
235.413288623766
20
-3.21723939349823
30
0
41
1
10
235.463937540213
20
-3.26566460851146
30
0
41
1
10
235.608114704556
20
-3.41778705944989
30
0
41
1
10
235.694235948182
20
-3.528737375937
30
0
41
1
10
235.844148342092
20
-3.76714148316748
30
0
41
1
10
235.906222728695
20
-3.89165137466026
30
0
41
1
10
235.981066903102
20
-4.08586487959658
30
0
41
1
10
236.002948129752
20
-4.15185359643957
30
0
41
1
10
236.040496005346
20
-4.28635545067107
30
0
41
1
10
236.056068120393
20
-4.35467027407842
30
0
41
1
10
236.092666194503
20
-4.55925041626503
30
0
41
1
10
236.104048310942
20
-4.69644854361763
30
0
41
1
10
236.101995708647
20
-4.90341345825192
30
0
41
1
10
236.098062185588
20
-4.97292547299577
30
0
41
1
10
236.08377700211
20
-5.11064440008758
30
0
41
1
10
236.073481360805
20
-5.17867033282647
30
0
41
1
10
236.03342019616
20
-5.38033037180068
30
0
41
1
10
235.994566177737
20
-5.51156731531933
30
0
41
1
10
235.917629263564
20
-5.70356733666901
30
0
41
1
10
235.888766536168
20
-5.766839262216
30
0
41
1
10
235.82587190861
20
-5.88918471380697
30
0
41
1
10
235.791723707555
20
-5.9485880941387
30
0
41
1
10
235.681237529997
20
-6.12156071458804
30
0
41
1
10
235.596945353544
20
-6.22994737040699
30
0
41
1
10
235.405462743819
20
-6.43200054758319
30
0
41
1
10
235.300696009463
20
-6.52294875201517
30
0
41
1
10
235.131781403616
20
-6.64278594631116
30
0
41
1
10
235.073411449827
20
-6.68004350513664
30
0
41
1
10
234.95237121981
20
-6.74898721053304
30
0
41
1
10
234.889322907151
20
-6.78083455583058
30
0
41
1
10
234.696103928903
20
-6.86622180250649
30
0
41
1
10
234.563218890789
20
-6.90932871647584
30
0
41
1
10
234.357759964412
20
-6.9532955474919
30
0
41
1
10
234.288244599207
20
-6.96447734833015
30
0
41
1
10
234.147058232768
20
-6.97957440158171
30
0
41
1
10
234.07593409965
20
-6.98338786960718
30
0
41
1
10
233.864579501785
20
-6.98366970929004
30
0
41
1
10
233.724907266521
20
-6.96925880811219
30
0
41
1
10
233.517253783828
20
-6.92560214450788
30
0
41
1
10
233.448387365553
20
-6.90729767067464
30
0
41
1
10
233.314561482753
20
-6.86422489076628
30
0
41
1
10
233.18377854051
20
-6.81453467819077
30
0
41
1
10
233.058891693559
20
-6.75198221542485
30
0
41
1
10
232.936946195402
20
-6.68298877929948
30
0
41
1
10
232.877350380861
20
-6.64515581206416
30
0
41
1
10
232.706664415992
20
-6.52450406213259
30
0
41
1
10
232.602273272237
20
-6.43393573223489
30
0
41
1
10
232.459145534357
20
-6.28341280047297
30
0
41
1
10
232.413499083723
20
-6.23049755171221
30
0
41
1
10
232.328197694514
20
-6.12145324088095
30
0
41
1
10
232.288439330866
20
-6.06526931090255
30
0
41
1
10
232.177524869806
20
-5.89188058606604
30
0
41
1
10
232.114650420208
20
-5.76988369520461
30
0
41
1
10
232.011357821434
20
-5.51274440885328
30
0
41
1
10
231.972321427663
20
-5.38091682795746
30
0
41
1
10
231.932233346614
20
-5.17947441244641
30
0
41
1
10
231.921947704745
20
-5.11164786800143
30
0
41
1
10
231.907648737
20
-4.97460552194275
30
0
41
1
10
231.903638526383
20
-4.90503465144562
30
0
41
1
10
231.901456684572
20
-4.69700747007067
30
0
41
1
10
231.912892118106
20
-4.55980128756036
30
0
41
1
10
231.949195408379
20
-4.35621256525758
30
0
41
1
10
231.964509384934
20
-4.28872257364117
30
0
41
1
10
232.001799666597
20
-4.15452479328795
30
0
41
1
10
232.023893081165
20
-4.08760500884785
30
0
41
1
10
232.098966708861
20
-3.89239291014019
30
0
41
1
10
232.160940131643
20
-3.76825224288657
30
0
41
1
10
232.308965899291
20
-3.53219095586448
30
0
41
1
10
232.396175094467
20
-3.41931075733149
30
0
41
1
10
232.588652798943
20
-3.21589947497699
30
0
41
1
10
232.69424039722
20
-3.12433024458724
30
0
41
1
10
232.867021744423
20
-3.00267041242387
30
0
41
1
10
232.927384217752
20
-2.96458111911645
30
0
41
1
10
233.050542997329
20
-2.89539524409017
30
0
41
1
10
233.113500285555
20
-2.86413579510861
30
0
41
1
10
233.306429189207
20
-2.78018665212727
30
0
41
1
10
233.440717662489
20
-2.7371595384659
30
0
41
1
10
233.719370840128
20
-2.67886289813271
30
0
41
1
10
233.860364866405
20
-2.66425205310725
30
0
41
1
10
234.002789113499
20
-2.66425205310725
30
0
0
SPLINE
5
2F3
100
AcDbEntity
8
1
62
256
6
ByLayer
370
13
48
1
60
0
100
AcDbSpline
70
4
71
3
72
18
73
14
40
0
40
0
40
0
40
0
40
0.179063060299065
40
0.179063060299065
40
0.35812612059813
40
0.35812612059813
40
0.537189180897195
40
0.537189180897195
40
0.71625224119626
40
0.71625224119626
40
0.895315301495325
40
0.895315301495325
40
1
40
1
40
1
40
1
41
1
10
46.0100000000003
20
-13.2665908517885
30
0
41
1
10
46.0100000000003
20
-13.0024471364538
30
0
41
1
10
46.01
20
-12.7278800852487
30
0
41
1
10
46.01
20
-12.158768349023
30
0
41
1
10
46.01
20
-11.8619127124575
30
0
41
1
10
46.01
20
-11.2577027510013
30
0
41
1
10
46.01
20
-10.9546087551861
30
0
41
1
10
46.01
20
-10.3464945011322
30
0
41
1
10
46.01
20
-10.0383185928176
30
0
41
1
10
46.01
20
-9.43822750284659
30
0
41
1
10
46.01
20
-9.14650938312056
30
0
41
1
10
46.01
20
-8.69730237202828
30
0
41
1
10
46.01
20
-8.53366710849809
30
0
41
1
10
46.01
20
-8.374657851797
30
0
0
SPLINE
5
2F4
100
AcDbEntity
8
1
62
256
6
ByLayer
370
13
48
1
60
0
100
AcDbSpline
70
4
71
3
72
8
73
4
40
0
40
0
40
0
40
0
40
1
40
1
40
1
40
1
41
1
10
51.0000000000001
20
-8.37720491425225
30
0
41
1
10
49.3333332924687
20
-8.37678397831417
30
0
41
1
10
47.6666666118528
20
-8.37624760154287
30
0
41
1
10
46.0000000000001
20
-8.37557286712604
30
0
0
SPLINE
5
2F5
100
AcDbEntity
8
1
62
256
6
ByLayer
370
13
48
1
60
0
100
AcDbSpline
70
4
71
3
72
24
73
20
40
0
40
0
40
0
40
0
40
0.0625000000000001
40
0.0625000000000001
40
0.125
40
0.125
40
0.1875
40
0.1875
40
0.250000000000001
40
0.250000000000001
40
0.312500000000001
40
0.312500000000001
40
0.375000000000001
40
0.375000000000001
40
0.5
40
0.5
40
0.75
40
0.75
40
1
40
1
40
1
40
1
41
1
10
124.8
20
-23.1142244209839
30
0
41
1
10
123.268414783308
20
-23.1099710044078
30
0
41
1
10
121.735012401355
20
-23.1061574909533
30
0
41
1
10
118.664822860867
20
-23.1016604794378
30
0
41
1
10
117.127624693004
20
-23.1010086928841
30
0
41
1
10
114.052376618698
20
-23.1033180618747
30
0
41
1
10
112.51464792207
20
-23.1062266314017
30
0
41
1
10
109.439061198801
20
-23.1144659796917
30
0
41
1
10
107.901205289791
20
-23.1197373549349
30
0
41
1
10
104.82546449373
20
-23.1308138653141
30
0
41
1
10
103.28757762693
20
-23.1366509226657
30
0
41
1
10
100.211827867472
20
-23.1478778043715
30
0
41
1
10
98.6739659874231
20
-23.1532276068125
30
0
41
1
10
94.0603589475141
20
-23.1688295537827
30
0
41
1
10
90.9846147818576
20
-23.1786993969882
30
0
41
1
10
81.7573915551931
20
-23.209110648635
30
0
41
1
10
75.6059151379518
20
-23.229855003137
30
0
41
1
10
63.3029600458107
20
-23.2711346168
30
0
41
1
10
57.1514807170823
20
-23.2916372442542
30
0
41
1
10
51
20
-23.3120349128243
30
0
0
SPLINE
5
2F6
100
AcDbEntity
8
1
62
256
6
ByLayer
370
13
48
1
60
0
100
AcDbSpline
70
4
71
3
72
14
73
10
40
0
40
0
40
0
40
0
40
0.25
40
0.25
40
0.5
40
0.5
40
0.75
40
0.75
40
1
40
1
40
1
40
1
41
1
10
227.894599543143
20
8.52521749515296
30
0
41
1
10
227.922215734162
20
8.51796466580979
30
0
41
1
10
227.947046305561
20
8.50941900589612
30
0
41
1
10
227.988786643865
20
8.49060540322725
30
0
41
1
10
228.00628097267
20
8.48005343173469
30
0
41
1
10
228.032567483606
20
8.45798871798695
30
0
41
1
10
228.041520024574
20
8.4465097667906
30
0
41
1
10
228.051601406737
20
8.42271811160956
30
0
41
1
10
228.052574349004
20
8.41039385007255
30
0
41
1
10
228.049832509097
20
8.39836847911641
30
0
0
SPLINE
5
2F7
100
AcDbEntity
8
1
62
256
6
ByLayer
370
13
48
1
60
0
100
AcDbSpline
70
4
71
3
72
8
73
4
40
0
40
0
40
0
40
0
40
1
40
1
40
1
40
1
41
1
10
46
20
-23.3119089944394
30
0
41
1
10
45.4139126865303
20
-23.3118916925188
30
0
41
1
10
44.828914174179
20
-23.3311504036037
30
0
41
1
10
44.2449981520432
20
-23.3695737169457
30
0
0
SPLINE
5
2F8
100
AcDbEntity
8
1
62
256
6
ByLayer
370
13
48
1
60
0
100
AcDbSpline
70
4
71
3
72
16
73
12
40
0
40
0
40
0
40
0
40
0.250000000000002
40
0.250000000000002
40
0.500000000000005
40
0.500000000000005
40
0.625000000000001
40
0.625000000000001
40
0.749999999999998
40
0.749999999999998
40
1
40
1
40
1
40
1
41
1
10
222.949288860142
20
6.65496868632891
30
0
41
1
10
223.504142130831
20
6.50839939740794
30
0
41
1
10
224.058767276614
20
6.40845862553451
30
0
41
1
10
225.168103435859
20
6.29255347132067
30
0
41
1
10
225.722808601575
20
6.27668443622045
30
0
41
1
10
226.554787708422
20
6.31457488265653
30
0
41
1
10
226.832421663536
20
6.33757595090935
30
0
41
1
10
227.386184634491
20
6.40438452812302
30
0
41
1
10
227.660467497873
20
6.44794410875477
30
0
41
1
10
228.47549390675
20
6.60838984940227
30
0
41
1
10
229.008475891559
20
6.7549072193695
30
0
41
1
10
229.530279642044
20
6.94092778654939
30
0
0
SPLINE
5
2F9
100
AcDbEntity
8
1
62
256
6
ByLayer
370
13
48
1
60
0
100
AcDbSpline
70
4
71
1
72
4
73
2
40
0
40
0
40
1
40
1
41
1
10
46.0100000000001
20
-22.6845442119937
30
0
41
1
10
46.0100000000001
20
-13.2717407235529
30
0
0
SPLINE
5
2FA
100
AcDbEntity
8
1
62
256
6
ByLayer
370
13
48
1
60
0
100
AcDbSpline
70
4
71
3
72
38
73
34
40
0
40
0
40
0
40
0
40
0.125
40
0.125
40
0.1875
40
0.1875
40
0.249999999999999
40
0.249999999999999
40
0.374999999999998
40
0.374999999999998
40
0.437499999999998
40
0.437499999999998
40
0.499999999999997
40
0.499999999999997
40
0.624999999999996
40
0.624999999999996
40
0.656249999999996
40
0.656249999999996
40
0.687499999999996
40
0.687499999999996
40
0.749999999999997
40
0.749999999999997
40
0.781249999999997
40
0.781249999999997
40
0.812499999999997
40
0.812499999999997
40
0.874999999999998
40
0.874999999999998
40
0.937499999999998
40
0.937499999999998
40
0.968749999999999
40
0.968749999999999
40
1
40
1
40
1
40
1
41
1
10
26.8348724108077
20
-12.2549370976019
30
0
41
1
10
26.176098611454
20
-12.3720146367964
30
0
41
1
10
25.5325195499605
20
-12.5434959080401
30
0
41
1
10
24.5876066708809
20
-12.8748262644891
30
0
41
1
10
24.2760765530839
20
-12.9977402918682
30
0
41
1
10
23.6598643550314
20
-13.2686171404886
30
0
41
1
10
23.3540169503585
20
-13.417318596635
30
0
41
1
10
22.4655735505635
20
-13.8920350682463
30
0
41
1
10
21.9059129042268
20
-14.2477745081078
30
0
41
1
10
21.1166833354266
20
-14.8402934690017
30
0
41
1
10
20.8620373207489
20
-15.0476782397074
30
0
41
1
10
20.3706219472938
20
-15.4830833884585
30
0
41
1
10
20.1386771486774
20
-15.7068195358931
30
0
41
1
10
19.4847405902038
20
-16.3951167834216
30
0
41
1
10
19.1035740175411
20
-16.8765640610694
30
0
41
1
10
18.7043397277243
20
-17.5078697105087
30
0
41
1
10
18.6281826577539
20
-17.6360500565746
30
0
41
1
10
18.4852904624594
20
-17.8935414168449
30
0
41
1
10
18.4188268498778
20
-18.0222632799752
30
0
41
1
10
18.2345314639182
20
-18.4083002905632
30
0
41
1
10
18.1318166996213
20
-18.6654957660253
30
0
41
1
10
18.0090031179452
20
-19.0507870031632
30
0
41
1
10
17.9732895694931
20
-19.1791346066612
30
0
41
1
10
17.9128250390047
20
-19.4356500746537
30
0
41
1
10
17.8879459057229
20
-19.5643547951689
30
0
41
1
10
17.8308892204013
20
-19.9450612162294
30
0
41
1
10
17.8159519821977
20
-20.1918831768246
30
0
41
1
10
17.8329435996188
20
-20.6716565246184
30
0
41
1
10
17.8646039862117
20
-20.9046415761285
30
0
41
1
10
17.9472572130917
20
-21.243712039326
30
0
41
1
10
17.980815539612
20
-21.3552544886428
30
0
41
1
10
18.0590690826621
20
-21.5722964117295
30
0
41
1
10
18.1037980487136
20
-21.6780610499842
30
0
41
1
10
18.1540990899625
20
-21.7811227763902
30
0
0
SPLINE
5
2FB
100
AcDbEntity
8
1
62
256
6
ByLayer
370
13
48
1
60
0
100
AcDbSpline
70
4
71
3
72
8
73
4
40
0
40
0
40
0
40
0
40
1
40
1
40
1
40
1
41
1
10
51.0000000000001
20
23.3999892803903
30
0
41
1
10
49.333333384214
20
23.3999897532203
30
0
41
1
10
47.6666666889908
20
23.3999900494075
30
0
41
1
10
46.0000000000001
20
23.3999900494075
30
0
0
SPLINE
5
2FC
100
AcDbEntity
8
1
62
256
6
ByLayer
370
13
48
1
60
0
100
AcDbSpline
70
4
71
3
72
8
73
4
40
0
40
0
40
0
40
0
40
1
40
1
40
1
40
1
41
1
10
222.794778113972
20
6.70130923779328
30
0
41
1
10
222.845738492762
20
6.68416101204059
30
0
41
1
10
222.897241186304
20
6.66871752939701
30
0
41
1
10
222.949288860142
20
6.65496868632897
30
0
0
SPLINE
5
2FD
100
AcDbEntity
8
1
62
256
6
ByLayer
370
13
48
1
60
0
100
AcDbSpline
70
4
71
3
72
14
73
10
40
0
40
0
40
0
40
0
40
0.124999999999973
40
0.124999999999973
40
0.249999999999946
40
0.249999999999946
40
0.499999999999964
40
0.499999999999964
40
1
40
1
40
1
40
1
41
1
10
235.762708723844
20
9.03811237124634
30
0
41
1
10
235.799334960787
20
9.040031870988
30
0
41
1
10
235.836663465277
20
9.04285649521728
30
0
41
1
10
235.9105441693
20
9.05021189586481
30
0
41
1
10
235.947318261127
20
9.05474726555386
30
0
41
1
10
236.057213947035
20
9.07090821137274
30
0
41
1
10
236.129908900444
20
9.08507994258005
30
0
41
1
10
236.346835960251
20
9.1379507659004
30
0
41
1
10
236.489843189205
20
9.18678837329634
30
0
41
1
10
236.633042717522
20
9.25169677854723
30
0
0
SPLINE
5
2FE
100
AcDbEntity
8
1
62
256
6
ByLayer
370
13
48
1
60
0
100
AcDbSpline
70
4
71
3
72
18
73
14
40
0
40
0
40
0
40
0
40
0.125000000000011
40
0.125000000000011
40
0.250000000000023
40
0.250000000000023
40
0.500000000000027
40
0.500000000000027
40
0.62500000000002
40
0.62500000000002
40
0.750000000000013
40
0.750000000000013
40
1
40
1
40
1
40
1
41
1
10
221.170554967953
20
10.8913350266053
30
0
41
1
10
221.275192062725
20
10.8228047142572
30
0
41
1
10
221.377845810411
20
10.7498833589103
30
0
41
1
10
221.576336056238
20
10.5971167173554
30
0
41
1
10
221.671474876871
20
10.5178781889225
30
0
41
1
10
221.945456583348
20
10.2725864603902
30
0
41
1
10
222.112929740801
20
10.099029688278
30
0
41
1
10
222.34424619079
20
9.82726441010001
30
0
41
1
10
222.418019882919
20
9.73475394114459
30
0
41
1
10
222.559199771957
20
9.54630408973418
30
0
41
1
10
222.62687366213
20
9.44993350167556
30
0
41
1
10
222.817779092262
20
9.16061847054416
30
0
41
1
10
222.929717385643
20
8.96703264307388
30
0
41
1
10
223.027868627708
20
8.77300885893322
30
0
0
SPLINE
5
2FF
100
AcDbEntity
8
1
62
256
6
ByLayer
370
13
48
1
60
0
100
AcDbSpline
70
4
71
3
72
10
73
6
40
0
40
0
40
0
40
0
40
0.5
40
0.5
40
1
40
1
40
1
40
1
41
1
10
221.970490802514
20
6.89436407343865
30
0
41
1
10
221.542809003001
20
7.16607303818805
30
0
41
1
10
221.097071033126
20
7.4154797386602
30
0
41
1
10
220.178532384885
20
7.88086635725273
30
0
41
1
10
219.705637964648
20
8.09673048913783
30
0
41
1
10
219.221536353239
20
8.29875194373787
30
0
0
SPLINE
5
300
100
AcDbEntity
8
1
62
256
6
ByLayer
370
13
48
1
60
0
100
AcDbSpline
70
4
71
3
72
8
73
4
40
0
40
0
40
0
40
0
40
1
40
1
40
1
40
1
41
1
10
44.2449981469966
20
-22.689445444724
30
0
41
1
10
44.2449981486549
20
-22.9161548688158
30
0
41
1
10
44.2449981503371
20
-23.1428642928895
30
0
41
1
10
44.2449981520431
20
-23.369573716945
30
0
0
SPLINE
5
301
100
AcDbEntity
8
1
62
256
6
ByLayer
370
13
48
1
60
0
100
AcDbSpline
70
4
71
3
72
8
73
4
40
0
40
0
40
0
40
0
40
1
40
1
40
1
40
1
41
1
10
220.29021049735
20
-0.355805602029903
30
0
41
1
10
220.895814484892
20
-0.410621475855578
30
0
41
1
10
221.501446804762
20
-0.46528469727204
30
0
41
1
10
222.107106212145
20
-0.519800500922287
30
0
0
SPLINE
5
302
100
AcDbEntity
8
1
62
256
6
ByLayer
370
13
48
1
60
0
100
AcDbSpline
70
4
71
3
72
18
73
14
40
0
40
0
40
0
40
0
40
0.249999999999991
40
0.249999999999991
40
0.374999999999974
40
0.374999999999974
40
0.499999999999958
40
0.499999999999958
40
0.749999999999926
40
0.749999999999926
40
0.874999999999963
40
0.874999999999963
40
1
40
1
40
1
40
1
41
1
10
228.698222874135
20
8.66787835608662
30
0
41
1
10
228.692902324299
20
8.66759951788512
30
0
41
1
10
228.69416626852
20
8.6778579700177
30
0
41
1
10
228.709431364179
20
8.70627630088347
30
0
41
1
10
228.716790018652
20
8.71778080965845
30
0
41
1
10
228.736732277842
20
8.74327916923804
30
0
41
1
10
228.749583358611
20
8.75752395413463
30
0
41
1
10
228.795666620214
20
8.79999096288307
30
0
41
1
10
228.837854314282
20
8.82868370201044
30
0
41
1
10
228.91114327968
20
8.85986897089069
30
0
41
1
10
228.937655393467
20
8.86854695316762
30
0
41
1
10
228.991800116243
20
8.88102849122134
30
0
41
1
10
229.019665439611
20
8.88498331357519
30
0
41
1
10
229.048333783946
20
8.88650132418792
30
0
0
SPLINE
5
303
100
AcDbEntity
8
1
62
256
6
ByLayer
370
13
48
1
60
0
100
AcDbSpline
70
4
71
3
72
8
73
4
40
0
40
0
40
0
40
0
40
1
40
1
40
1
40
1
41
1
10
222.107106212145
20
-23.2830363438974
30
0
41
1
10
221.107106211416
20
-23.203473773982
30
0
41
1
10
220.107106211409
20
-23.1239111951083
30
0
41
1
10
219.107106212144
20
-23.0443486069951
30
0
0
SPLINE
5
304
100
AcDbEntity
8
1
62
256
6
ByLayer
370
13
48
1
60
0
100
AcDbSpline
70
4
71
3
72
10
73
6
40
0
40
0
40
0
40
0
40
0.465712561840147
40
0.465712561840147
40
1
40
1
40
1
40
1
41
1
10
46.4500000000001
20
-22.6750650599895
30
0
41
1
10
46.4500000000001
20
-21.2145168444523
30
0
41
1
10
46.4500000000001
20
-19.7539686320371
30
0
41
1
10
46.4500000000001
20
-16.6178105616516
30
0
41
1
10
46.4500000000001
20
-14.9422007046678
30
0
41
1
10
46.4500000000001
20
-13.2665908517885
30
0
0
SPLINE
5
305
100
AcDbEntity
8
1
62
256
6
ByLayer
370
13
48
1
60
0
100
AcDbSpline
70
4
71
3
72
8
73
4
40
0
40
0
40
0
40
0
40
1
40
1
40
1
40
1
41
1
10
227.929956732343
20
7.79920609890743
30
0
41
1
10
227.951391865019
20
7.82253285462463
30
0
41
1
10
227.972435739482
20
7.84628504875693
30
0
41
1
10
227.993058048494
20
7.87043435414651
30
0
0
SPLINE
5
306
100
AcDbEntity
8
1
62
256
6
ByLayer
370
13
48
1
60
0
100
AcDbSpline
70
4
71
3
72
8
73
4
40
0
40
0
40
0
40
0
40
1
40
1
40
1
40
1
41
1
10
46.0000000000001
20
-8.37557286712604
30
0
41
1
10
45.4138961118339
20
-8.3753355884391
30
0
41
1
10
44.8288977316339
20
-8.37579211034409
30
0
41
1
10
44.2449982606152
20
-8.37693643976442
30
0
0
SPLINE
5
307
100
AcDbEntity
8
1
62
256
6
ByLayer
370
13
48
1
60
0
100
AcDbSpline
70
4
71
3
72
18
73
14
40
0
40
0
40
0
40
0
40
0.249999999999956
40
0.249999999999956
40
0.374999999999934
40
0.374999999999934
40
0.499999999999913
40
0.499999999999913
40
0.749999999999956
40
0.749999999999956
40
0.874999999999978
40
0.874999999999978
40
1
40
1
40
1
40
1
41
1
10
238.892767032725
20
9.40242624544081
30
0
41
1
10
238.950143375315
20
9.40543321213926
30
0
41
1
10
239.00790019997
20
9.39825863256902
30
0
41
1
10
239.089198500554
20
9.37488247479243
30
0
41
1
10
239.115080972486
20
9.36511126764049
30
0
41
1
10
239.163228505425
20
9.34316685134323
30
0
41
1
10
239.185882986987
20
9.33077558058829
30
0
41
1
10
239.245871405469
20
9.29385139109957
30
0
41
1
10
239.276691628691
20
9.26898343393447
30
0
41
1
10
239.308902401287
20
9.24334374112854
30
0
41
1
10
239.317575045892
20
9.23651820830014
30
0
41
1
10
239.330658044537
20
9.22758174548576
30
0
41
1
10
239.335215172145
20
9.22533950067611
30
0
41
1
10
239.337875860782
20
9.2254789414589
30
0
0
SPLINE
5
308
100
AcDbEntity
8
1
62
256
6
ByLayer
370
13
48
1
60
0
100
AcDbSpline
70
4
71
3
72
8
73
4
40
0
40
0
40
0
40
0
40
1
40
1
40
1
40
1
41
1
10
46.0100000000001
20
-22.6887741218183
30
0
41
1
10
45.4216660489612
20
-22.6889978232617
30
0
41
1
10
44.8333320979941
20
-22.6892216633286
30
0
41
1
10
44.2449981469966
20
-22.689445444724
30
0
0
SPLINE
5
309
100
AcDbEntity
8
1
62
256
6
ByLayer
370
13
48
1
60
0
100
AcDbSpline
70
4
71
3
72
12
73
8
40
0
40
0
40
0
40
0
40
0.499999999999999
40
0.499999999999999
40
0.749999999999999
40
0.749999999999999
40
1
40
1
40
1
40
1
41
1
10
223.027868627709
20
8.77300885893285
30
0
41
1
10
223.081681691465
20
9.10427353898265
30
0
41
1
10
223.104665028054
20
9.43684062731768
30
0
41
1
10
223.074389638257
20
9.93842665381339
30
0
41
1
10
223.053012451636
20
10.1070616478228
30
0
41
1
10
222.985298026884
20
10.4351427652437
30
0
41
1
10
222.939040694607
20
10.5955911812275
30
0
41
1
10
222.878572909859
20
10.7519230262512
30
0
0
SPLINE
5
30A
100
AcDbEntity
8
1
62
256
6
ByLayer
370
13
48
1
60
0
100
AcDbSpline
70
4
71
3
72
12
73
8
40
0
40
0
40
0
40
0
40
0.124649866685341
40
0.124649866685341
40
0.299719893348269
40
0.299719893348269
40
1
40
1
40
1
40
1
41
1
10
198.949449119793
20
9.73112519197645
30
0
41
1
10
199.536934779525
20
9.50766522083256
30
0
41
1
10
200.124511873395
20
9.28232076067928
30
0
41
1
10
201.537677602484
20
8.73617773752531
30
0
41
1
10
202.363618341129
20
8.4135531651724
30
0
41
1
10
206.491310287412
20
6.78577696801008
30
0
41
1
10
209.788955119191
20
5.43605088813874
30
0
41
1
10
213.090475771909
20
4.05746059321061
30
0
0
SPLINE
5
30B
100
AcDbEntity
8
1
62
256
6
ByLayer
370
13
48
1
60
0
100
AcDbSpline
70
4
71
3
72
16
73
12
40
0
40
0
40
0
40
0
40
0.250000000000002
40
0.250000000000002
40
0.500000000000005
40
0.500000000000005
40
0.625000000000004
40
0.625000000000004
40
0.750000000000002
40
0.750000000000002
40
1
40
1
40
1
40
1
41
1
10
44.2449981469966
20
-22.689445444724
30
0
41
1
10
43.9120509309887
20
-22.6895720860515
30
0
41
1
10
43.5844834633128
20
-22.7147800587368
30
0
41
1
10
42.9393594341353
20
-22.8118686065131
30
0
41
1
10
42.6218067111474
20
-22.8837670774288
30
0
41
1
10
42.1528017163001
20
-23.0257609757202
30
0
41
1
10
41.9982591301938
20
-23.0786802902589
30
0
41
1
10
41.6966938723845
20
-23.1936544505457
30
0
41
1
10
41.5490397102607
20
-23.2558941032074
30
0
41
1
10
41.1148970056502
20
-23.4560115261129
30
0
41
1
10
40.8371938429523
20
-23.607235499936
30
0
41
1
10
40.5702199111059
20
-23.7747586551992
30
0
0
SPLINE
5
30C
100
AcDbEntity
8
1
62
256
6
ByLayer
370
13
48
1
60
0
100
AcDbSpline
70
4
71
3
72
10
73
6
40
0
40
0
40
0
40
0
40
0.5
40
0.5
40
1
40
1
40
1
40
1
41
1
10
236.633042717522
20
9.25169677854723
30
0
41
1
10
236.658906601919
20
9.26342016555532
30
0
41
1
10
236.686819114758
20
9.27307244464723
30
0
41
1
10
236.744210755764
20
9.28698412119758
30
0
41
1
10
236.77381721555
20
9.29136018009771
30
0
41
1
10
236.804342502347
20
9.2929765172193
30
0
0
SPLINE
5
30D
100
AcDbEntity
8
1
62
256
6
ByLayer
370
13
48
1
60
0
100
AcDbSpline
70
4
71
3
72
18
73
14
40
0
40
0
40
0
40
0
40
0.124999999999999
40
0.124999999999999
40
0.249999999999999
40
0.249999999999999
40
0.374999999999998
40
0.374999999999998
40
0.499999999999998
40
0.499999999999998
40
0.749999999999999
40
0.749999999999999
40
1
40
1
40
1
40
1
41
1
10
5.5
20
4.071
30
0
41
1
10
5.53311836198864
20
4.071
30
0
41
1
10
5.56567694370484
20
4.06774205109016
30
0
41
1
10
5.62972133566619
20
4.05498192252259
30
0
41
1
10
5.66154354218742
20
4.04532095818553
30
0
41
1
10
5.72214649856305
20
4.02014098073175
30
0
41
1
10
5.7508789788518
20
4.00473867431307
30
0
41
1
10
5.80523848848543
20
3.96836502711199
30
0
41
1
10
5.83093052062637
20
3.94722698913094
30
0
41
1
10
5.89997612824277
20
3.87802788825485
30
0
41
1
10
5.93710206073186
20
3.82231798197651
30
0
41
1
10
5.98680620220954
20
3.70229608162887
30
0
41
1
10
6
20
3.63685881207022
30
0
41
1
10
6
20
3.571
30
0
0
SPLINE
5
30E
100
AcDbEntity
8
1
62
256
6
ByLayer
370
13
48
1
60
0
100
AcDbSpline
70
4
71
3
72
8
73
4
40
0
40
0
40
0
40
0
40
1
40
1
40
1
40
1
41
1
10
221.170554967955
20
10.891335026613
30
0
41
1
10
221.154233440735
20
10.8949570273993
30
0
41
1
10
221.13783366976
20
10.898088060533
30
0
41
1
10
221.121349742163
20
10.9006910236776
30
0
0
SPLINE
5
30F
100
AcDbEntity
8
1
62
256
6
ByLayer
370
13
48
1
60
0
100
AcDbSpline
70
4
71
3
72
60
73
56
40
0
40
0
40
0
40
0
40
0.0312500000000015
40
0.0312500000000015
40
0.0625000000000031
40
0.0625000000000031
40
0.0781250000000034
40
0.0781250000000034
40
0.0937500000000037
40
0.0937500000000037
40
0.125000000000004
40
0.125000000000004
40
0.140625000000005
40
0.140625000000005
40
0.156250000000005
40
0.156250000000005
40
0.164062500000005
40
0.164062500000005
40
0.171875000000005
40
0.171875000000005
40
0.187500000000005
40
0.187500000000005
40
0.203125000000004
40
0.203125000000004
40
0.218750000000004
40
0.218750000000004
40
0.250000000000004
40
0.250000000000004
40
0.312500000000003
40
0.312500000000003
40
0.375000000000003
40
0.375000000000003
40
0.437500000000002
40
0.437500000000002
40
0.500000000000002
40
0.500000000000002
40
0.562500000000002
40
0.562500000000002
40
0.593750000000001
40
0.593750000000001
40
0.625000000000001
40
0.625000000000001
40
0.687500000000002
40
0.687500000000002
40
0.718750000000002
40
0.718750000000002
40
0.750000000000001
40
0.750000000000001
40
0.812500000000001
40
0.812500000000001
40
0.875000000000001
40
0.875000000000001
40
0.9375
40
0.9375
40
1
40
1
40
1
40
1
41
1
10
211.453619893585
20
-23.0443486069951
30
0
41
1
10
210.509903285915
20
-23.0329105528133
30
0
41
1
10
209.564549260456
20
-23.0221502064219
30
0
41
1
10
207.673135403325
20
-23.0002494105309
30
0
41
1
10
206.727008676512
20
-22.9891799692473
30
0
41
1
10
205.30949232997
20
-22.9697577394824
30
0
41
1
10
204.837284809994
20
-22.9627834272315
30
0
41
1
10
203.893933007509
20
-22.9471361363932
30
0
41
1
10
203.422395553127
20
-22.9384562885842
30
0
41
1
10
202.013139300525
20
-22.9086354363513
30
0
41
1
10
201.081802937046
20
-22.8839414011432
30
0
41
1
10
199.704787185451
20
-22.8324294771984
30
0
41
1
10
199.249142355763
20
-22.8127987261933
30
0
41
1
10
198.345982378472
20
-22.766770367743
30
0
41
1
10
197.898433876176
20
-22.7404111018651
30
0
41
1
10
197.235193966302
20
-22.6933702483925
30
0
41
1
10
197.015481857635
20
-22.676415535658
30
0
41
1
10
196.578554286902
20
-22.6398421614218
30
0
41
1
10
196.361373752376
20
-22.62018897876
30
0
41
1
10
195.710805999714
20
-22.5588398134
30
0
41
1
10
195.27827030474
20
-22.5148588868986
30
0
41
1
10
194.413275510847
20
-22.4221403073843
30
0
41
1
10
193.980811050754
20
-22.3734249460735
30
0
41
1
10
193.115522116551
20
-22.2716852596897
30
0
41
1
10
192.68276284201
20
-22.2186792151187
30
0
41
1
10
191.384475695284
20
-22.0531128763121
30
0
41
1
10
190.519074736685
20
-21.9339220990577
30
0
41
1
10
187.924262858582
20
-21.5491221482028
30
0
41
1
10
186.195800835161
20
-21.2564816096404
30
0
41
1
10
182.737114980543
20
-20.6022691659157
30
0
41
1
10
181.006282091558
20
-20.2407148765472
30
0
41
1
10
177.540501802198
20
-19.4631002458396
30
0
41
1
10
175.804051481463
20
-19.0474714863691
30
0
41
1
10
172.311081168065
20
-18.1871681946874
30
0
41
1
10
170.553944657243
20
-17.741968341325
30
0
41
1
10
167.022448043435
20
-16.8438401100001
30
0
41
1
10
165.247704337399
20
-16.3902975413994
30
0
41
1
10
162.570329599984
20
-15.7138921772119
30
0
41
1
10
161.675326630569
20
-15.4890772936477
30
0
41
1
10
159.879921823626
20
-15.0425626559225
30
0
41
1
10
158.979455903807
20
-14.8208581236562
30
0
41
1
10
156.272580711593
20
-14.1638436954577
30
0
41
1
10
154.45970746847
20
-13.736331001905
30
0
41
1
10
151.726429387445
20
-13.1208842837532
30
0
41
1
10
150.81300787997
20
-12.9200407999316
30
0
41
1
10
148.981240917248
20
-12.5286704728216
30
0
41
1
10
148.062511100016
20
-12.3381384582161
30
0
41
1
10
145.301928274063
20
-11.7847185282297
30
0
41
1
10
143.455843778495
20
-11.4396104436083
30
0
41
1
10
139.752868689244
20
-10.7988804127399
30
0
41
1
10
137.895970280688
20
-10.5032887304292
30
0
41
1
10
134.171778648251
20
-9.96318434025346
30
0
41
1
10
132.304565876534
20
-9.71823189236369
30
0
41
1
10
128.560495695226
20
-9.27820071917668
30
0
41
1
10
126.683406921892
20
-9.08436459687812
30
0
41
1
10
124.8
20
-8.92502175490446
30
0
0
SPLINE
5
310
100
AcDbEntity
8
1
62
256
6
ByLayer
370
13
48
1
60
0
100
AcDbSpline
70
4
71
3
72
14
73
10
40
0
40
0
40
0
40
0
40
0.25
40
0.25
40
0.5
40
0.5
40
0.75
40
0.75
40
1
40
1
40
1
40
1
41
1
10
241.060771020956
20
0.631373127189448
30
0
41
1
10
241.061884140875
20
0.681984102632441
30
0
41
1
10
241.063867052529
20
0.729146599599005
30
0
41
1
10
241.069457417746
20
0.813148619809823
30
0
41
1
10
241.072987370168
20
0.849060188219141
30
0
41
1
10
241.081446659665
20
0.90733831985014
30
0
41
1
10
241.086183200234
20
0.928494053816195
30
0
41
1
10
241.09669036627
20
0.954519250304827
30
0
41
1
10
241.102202854601
20
0.958709211505322
30
0
41
1
10
241.107938066798
20
0.953937359324186
30
0
0
SPLINE
5
311
100
AcDbEntity
8
1
62
256
6
ByLayer
370
13
48
1
60
0
100
AcDbSpline
70
4
71
3
72
17
73
13
40
0
40
0
40
0
40
0
40
0.124999999999999
40
0.124999999999999
40
0.187499999999998
40
0.218749999999998
40
0.218749999999998
40
0.249999999999998
40
0.249999999999998
40
0.499999999999999
40
0.499999999999999
40
1
40
1
40
1
40
1
41
1
10
40.5581351826982
20
-9.28170354338781
30
0
41
1
10
39.9779876899114
20
-9.3759581428306
30
0
41
1
10
39.4022803759471
20
-9.4850274991245
30
0
41
1
10
38.5453201360553
20
-9.6706550216993
30
0
41
1
10
38.1184914071371
20
-9.76897868642055
30
0
41
1
10
37.6941398501918
20
-9.87556749133594
30
0
41
1
10
37.4117901136526
20
-9.94846612425775
30
0
41
1
10
37.2707708351445
20
-9.98543456946913
30
0
41
1
10
36.0001207577473
20
-10.3132239644928
30
0
41
1
10
34.8664318161084
20
-10.5896129730319
30
0
41
1
10
31.4506189993458
20
-11.3758303778882
30
0
41
1
10
29.1521368606923
20
-11.8431503136433
30
0
41
1
10
26.8329899942946
20
-12.2552716232092
30
0
0
SPLINE
5
312
100
AcDbEntity
8
1
62
256
6
ByLayer
370
13
48
1
60
0
100
AcDbSpline
70
4
71
3
72
17
73
13
40
0
40
0
40
0
40
0
40
0.499999999999999
40
0.499999999999999
40
0.749999999999999
40
0.749999999999999
40
0.781249999999999
40
0.781249999999999
40
0.812499999999999
40
0.875
40
0.875
40
1
40
1
40
1
40
1
41
1
10
26.8330664890018
20
-27.2621474129228
30
0
41
1
10
29.1559601095861
20
-26.7783476638065
30
0
41
1
10
31.4576363955894
20
-26.2297452916345
30
0
41
1
10
34.8774267439381
20
-25.3068948594882
30
0
41
1
10
36.0114940446283
20
-24.9827229601713
30
0
41
1
10
37.2828829633389
20
-24.5981703378024
30
0
41
1
10
37.4239862970638
20
-24.5547667000064
30
0
41
1
10
37.7065388688654
20
-24.4694010018439
30
0
41
1
10
38.1311480259647
20
-24.3446043998085
30
0
41
1
10
38.5580930852138
20
-24.2295428120926
30
0
41
1
10
39.4150935896303
20
-24.0123823592034
30
0
41
1
10
39.9905714366112
20
-23.8848798352543
30
0
41
1
10
40.5702199111059
20
-23.7747586551992
30
0
0
SPLINE
5
313
100
AcDbEntity
8
1
62
256
6
ByLayer
370
13
48
1
60
0
100
AcDbSpline
70
4
71
3
72
10
73
6
40
0
40
0
40
0
40
0
40
0.5
40
0.5
40
1
40
1
40
1
40
1
41
1
10
221.43203541875
20
10.8697002397159
30
0
41
1
10
221.685847700138
20
10.8216824643247
30
0
41
1
10
221.930670188995
20
10.7921807262646
30
0
41
1
10
222.41092587937
20
10.7566059901592
30
0
41
1
10
222.646223690991
20
10.7504326753676
30
0
41
1
10
222.878572909859
20
10.7519230262513
30
0
0
SPLINE
5
314
100
AcDbEntity
8
1
62
256
6
ByLayer
370
13
48
1
60
0
100
AcDbSpline
70
4
71
3
72
46
73
42
40
0
40
0
40
0
40
0
40
0.0624999999999994
40
0.0624999999999994
40
0.124999999999999
40
0.124999999999999
40
0.156249999999998
40
0.156249999999998
40
0.187499999999998
40
0.187499999999998
40
0.249999999999997
40
0.249999999999997
40
0.281249999999997
40
0.281249999999997
40
0.312499999999996
40
0.312499999999996
40
0.374999999999996
40
0.374999999999996
40
0.406249999999996
40
0.406249999999996
40
0.437499999999995
40
0.437499999999995
40
0.499999999999995
40
0.499999999999995
40
0.562499999999994
40
0.562499999999994
40
0.593749999999994
40
0.593749999999994
40
0.624999999999994
40
0.624999999999994
40
0.749999999999994
40
0.749999999999994
40
0.781249999999995
40
0.781249999999995
40
0.812499999999995
40
0.812499999999995
40
0.874999999999997
40
0.874999999999997
40
0.937499999999998
40
0.937499999999998
40
1
40
1
40
1
40
1
41
1
10
18.1539395100423
20
-24.8999192299909
30
0
41
1
10
18.054001472061
20
-25.083135754212
30
0
41
1
10
17.9766792068015
20
-25.2609547915884
30
0
41
1
10
17.8666287725011
20
-25.6053914042566
30
0
41
1
10
17.8338949720515
20
-25.7720121487623
30
0
41
1
10
17.8201856843397
20
-26.012967520537
30
0
41
1
10
17.8216393609799
20
-26.0912334691215
30
0
41
1
10
17.8361906219933
20
-26.2423961504065
30
0
41
1
10
17.8492238845785
20
-26.3155258338598
30
0
41
1
10
17.9049017149107
20
-26.5278000884805
30
0
41
1
10
17.9640954249124
20
-26.6598418009158
30
0
41
1
10
18.0860838136142
20
-26.8439535103818
30
0
41
1
10
18.1324299125109
20
-26.9032088387182
30
0
41
1
10
18.2351967268872
20
-27.0159441641404
30
0
41
1
10
18.2915156191194
20
-27.0693923034453
30
0
41
1
10
18.474590592776
20
-27.221471023979
30
0
41
1
10
18.615306435779
20
-27.3118959805578
30
0
41
1
10
18.8530012812783
20
-27.4323979988029
30
0
41
1
10
18.9366908191099
20
-27.4700334790321
30
0
41
1
10
19.1129235136805
20
-27.5403791993516
30
0
41
1
10
19.2055254113296
20
-27.5730789451494
30
0
41
1
10
19.4929897428076
20
-27.6629591345584
30
0
41
1
10
19.6985187119328
20
-27.7124062861474
30
0
41
1
10
20.1356044792952
20
-27.7926358631074
30
0
41
1
10
20.3671834878862
20
-27.8234039297999
30
0
41
1
10
20.7335949222531
20
-27.8566496218394
30
0
41
1
10
20.8591956913109
20
-27.8655782687528
30
0
41
1
10
21.1143401509917
20
-27.8791148193233
30
0
41
1
10
21.2440991205958
20
-27.8837524829717
30
0
41
1
10
21.9035035437286
20
-27.8969526773436
30
0
41
1
10
22.4645611030704
20
-27.8759647546558
30
0
41
1
10
23.207027995628
20
-27.8162997493439
30
0
41
1
10
23.3578887705205
20
-27.8026224693971
30
0
41
1
10
23.6609593137643
20
-27.7722268987913
30
0
41
1
10
23.8134706475613
20
-27.7554941839744
30
0
41
1
10
24.2739016116259
20
-27.7009341241734
30
0
41
1
10
24.5847053498672
20
-27.6587659464491
30
0
41
1
10
25.2141452149531
20
-27.5635995378943
30
0
41
1
10
25.5327786485849
20
-27.5106029901314
30
0
41
1
10
26.1782136472369
20
-27.3940500554433
30
0
41
1
10
26.5060067518457
20
-27.330270937124
30
0
41
1
10
26.8348823961745
20
-27.2617691914407
30
0
0
SPLINE
5
315
100
AcDbEntity
8
1
62
256
6
ByLayer
370
13
48
1
60
0
100
AcDbSpline
70
4
71
3
72
8
73
4
40
0
40
0
40
0
40
0
40
1
40
1
40
1
40
1
41
1
10
227.538118329177
20
8.57775469546493
30
0
41
1
10
227.489934455341
20
8.57614745336195
30
0
41
1
10
227.441792969864
20
8.57526998089983
30
0
41
1
10
227.393731423851
20
8.5755496239066
30
0
0
SPLINE
5
316
100
AcDbEntity
8
1
62
256
6
ByLayer
370
13
48
1
60
0
100
AcDbSpline
70
4
71
3
72
8
73
4
40
0
40
0
40
0
40
0
40
1
40
1
40
1
40
1
41
1
10
219.221536353245
20
8.29875194374497
30
0
41
1
10
219.274886597432
20
8.47769668157861
30
0
41
1
10
219.325248705489
20
8.65717588950574
30
0
41
1
10
219.373627077769
20
8.8370099164234
30
0
0
SPLINE
5
317
100
AcDbEntity
8
1
62
256
6
ByLayer
370
13
48
1
60
0
100
AcDbSpline
70
4
71
3
72
46
73
42
40
0
40
0
40
0
40
0
40
0.0464492252722839
40
0.129419234863718
40
0.218491757971384
40
0.313758861657569
40
0.415250674248723
40
0.522930765437767
40
0.532512742004603
40
0.542394819976522
40
0.552577715688223
40
0.56306212583383
40
0.573848725425152
40
0.584938165517156
40
0.596331070716659
40
0.60802803648768
40
0.620029626264839
40
0.632336368384758
40
0.644948752844218
40
0.657867227893097
40
0.671092196469578
40
0.684624012484762
40
0.69846297696376
40
0.712609334050369
40
0.727063266882611
40
0.741824893346743
40
0.756894261717755
40
0.77227134619494
40
0.787956042341635
40
0.803948162439086
40
0.820247430764986
40
0.836853478808247
40
0.853765840432386
40
0.870983947000895
40
0.888507122479074
40
0.90633457852783
40
0.924465409606141
40
0.942898588100112
40
0.961632959497778
40
0.980667237630088
40
1
40
1
40
1
40
1
41
1
10
42.6678837899839
20
-8.53579330159957
30
0
41
1
10
42.7019840381319
20
-8.60956817738162
30
0
41
1
10
42.7998577847999
20
-8.81656574166971
30
0
41
1
10
42.9780863859084
20
-9.17223974339257
30
0
41
1
10
43.217824040498
20
-9.61428427694202
30
0
41
1
10
43.4981875186253
20
-10.091099177012
30
0
41
1
10
43.8217354129943
20
-10.5992612336913
30
0
41
1
10
44.0709001134276
20
-10.9613537384973
30
0
41
1
10
44.2197733439974
20
-11.1695447042009
30
0
41
1
10
44.2546064185411
20
-11.2180356049137
30
0
41
1
10
44.2906472554874
20
-11.2679189141432
30
0
41
1
10
44.327914198335
20
-11.3191814719601
30
0
41
1
10
44.3664295128951
20
-11.3718044618171
30
0
41
1
10
44.406213716177
20
-11.4257689467034
30
0
41
1
10
44.4472870295045
20
-11.4810542373425
30
0
41
1
10
44.4896688320285
20
-11.5376382664163
30
0
41
1
10
44.5333776678415
20
-11.5954974017888
30
0
41
1
10
44.5784310930099
20
-11.6546064165165
30
0
41
1
10
44.6248455618291
20
-11.7149384154747
30
0
41
1
10
44.6726362967524
20
-11.7764647746978
30
0
41
1
10
44.7218171575477
20
-11.8391550780763
30
0
41
1
10
44.7724005054481
20
-11.9029770559765
30
0
41
1
10
44.8243970636025
20
-11.9678965248121
30
0
41
1
10
44.8778157736223
20
-12.0338773281515
30
0
41
1
10
44.932663648469
20
-12.1008812795248
30
0
41
1
10
44.9889456218425
20
-12.1688681072234
30
0
41
1
10
45.0466643942863
20
-12.2377954013554
30
0
41
1
10
45.1058202762525
20
-12.3076185634686
30
0
41
1
10
45.1664110283943
20
-12.3782907589376
30
0
41
1
10
45.2284316994199
20
-12.4497628727843
30
0
41
1
10
45.2918744617568
20
-12.5219834678322
30
0
41
1
10
45.3567284457665
20
-12.5948987509199
30
0
41
1
10
45.4229795715553
20
-12.6684525267311
30
0
41
1
10
45.4906103841069
20
-12.7425862192314
30
0
41
1
10
45.5595998720397
20
-12.8172386556014
30
0
41
1
10
45.6299233479372
20
-12.8923467835051
30
0
41
1
10
45.7015520943568
20
-12.9678428388345
30
0
41
1
10
45.7744539111268
20
-13.0436651267163
30
0
41
1
10
45.848590221913
20
-13.119716748617
30
0
41
1
10
45.9239263486501
20
-13.1960234096763
30
0
41
1
10
45.9745109384963
20
-13.2463710556539
30
0
41
1
10
46.0000000000001
20
-13.2717407235466
30
0
0
SPLINE
5
318
100
AcDbEntity
8
1
62
256
6
ByLayer
370
13
48
1
60
0
100
AcDbSpline
70
4
71
3
72
10
73
6
40
0
40
0
40
0
40
0
40
0.5
40
0.5
40
1
40
1
40
1
40
1
41
1
10
215.954522297142
20
1.06955998559346
30
0
41
1
10
216.440244922623
20
0.762886161489973
30
0
41
1
10
216.945292951055
20
0.505536102348458
30
0
41
1
10
217.995180553206
20
0.0925996543772953
30
0
41
1
10
218.539941060155
20
-0.0631893971390127
30
0
41
1
10
219.107106212143
20
-0.161609646009424
30
0
0
SPLINE
5
319
100
AcDbEntity
8
1
62
256
6
ByLayer
370
13
48
1
60
0
100
AcDbSpline
70
4
71
3
72
14
73
10
40
0
40
0
40
0
40
0
40
0.25
40
0.25
40
0.5
40
0.5
40
0.75
40
0.75
40
1
40
1
40
1
40
1
41
1
10
223.027868627709
20
8.7730088589328
30
0
41
1
10
223.016241927504
20
8.68105813151797
30
0
41
1
10
222.998441966499
20
8.5904488916396
30
0
41
1
10
222.949475664858
20
8.41213500837793
30
0
41
1
10
222.917965702139
20
8.32368575933813
30
0
41
1
10
222.841256404422
20
8.15413589119748
30
0
41
1
10
222.79635820186
20
8.07332850940224
30
0
41
1
10
222.69234980374
20
7.92033090213351
30
0
41
1
10
222.632403279295
20
7.84740339897073
30
0
41
1
10
222.566795679059
20
7.78215892036692
30
0
0
SPLINE
5
31A
100
AcDbEntity
8
1
62
256
6
ByLayer
370
13
48
1
60
0
100
AcDbSpline
70
4
71
3
72
20
73
16
40
0
40
0
40
0
40
0
40
0.125000000000001
40
0.125000000000001
40
0.250000000000001
40
0.250000000000001
40
0.375000000000002
40
0.375000000000002
40
0.500000000000002
40
0.500000000000002
40
0.625000000000002
40
0.625000000000002
40
0.750000000000003
40
0.750000000000003
40
1
40
1
40
1
40
1
41
1
10
5.99999999999996
20
-31.0675076027925
30
0
41
1
10
5.99999999999997
20
-31.080962010327
30
0
41
1
10
5.99677802951543
20
-31.09414941444
30
0
41
1
10
5.98415574729455
20
-31.1200169935347
30
0
41
1
10
5.97460706229403
20
-31.132827336719
30
0
41
1
10
5.94964138722892
20
-31.1572191139859
30
0
41
1
10
5.93436036703302
20
-31.1687556935702
30
0
41
1
10
5.89825058475371
20
-31.1905426353914
30
0
41
1
10
5.87720587398624
20
-31.2008461165011
30
0
41
1
10
5.83118489707975
20
-31.2192929262407
30
0
41
1
10
5.80606785289073
20
-31.2275533431178
30
0
41
1
10
5.75151945639116
20
-31.242127423306
30
0
41
1
10
5.72235822232541
20
-31.248336483291
30
0
41
1
10
5.63204318454244
20
-31.2632543930297
30
0
41
1
10
5.56624413343683
20
-31.268533014896
30
0
41
1
10
5.49999999999996
20
-31.268533014896
30
0
0
SPLINE
5
31B
100
AcDbEntity
8
1
62
256
6
ByLayer
370
13
48
1
60
0
100
AcDbSpline
70
4
71
3
72
8
73
4
40
0
40
0
40
0
40
0
40
1
40
1
40
1
40
1
41
1
10
51
20
-23.3120349128243
30
0
41
1
10
49.3333333106227
20
-23.3120003821316
30
0
41
1
10
47.6666666404055
20
-23.3119581962108
30
0
41
1
10
46.0000000000001
20
-23.3119089944394
30
0
0
SPLINE
5
31C
100
AcDbEntity
8
1
62
256
6
ByLayer
370
13
48
1
60
0
100
AcDbSpline
70
4
71
3
72
12
73
8
40
0
40
0
40
0
40
0
40
0.284602461049307
40
0.284602461049307
40
0.642301230524653
40
0.642301230524653
40
1
40
1
40
1
40
1
41
1
10
46.4499797111394
20
-8.36655586167726
30
0
41
1
10
46.4499250043861
20
-8.79692446703712
30
0
41
1
10
46.4498777118989
20
-9.26024299247658
30
0
41
1
10
46.4497923912094
20
-10.3369891868806
30
0
41
1
10
46.4497598904632
20
-10.9580491491004
30
0
41
1
10
46.4497291977955
20
-12.161221699739
30
0
41
1
10
46.4497310150464
20
-12.7429747157119
30
0
41
1
10
46.4497498762313
20
-13.2665908514122
30
0
0
SPLINE
5
31D
100
AcDbEntity
8
1
62
256
6
ByLayer
370
13
48
1
60
0
100
AcDbSpline
70
4
71
3
72
14
73
10
40
0
40
0
40
0
40
0
40
0.5
40
0.5
40
0.75
40
0.75
40
0.875
40
0.875
40
1
40
1
40
1
40
1
41
1
10
215.621687277727
20
21.578198483132
30
0
41
1
10
216.252275118023
20
20.3357441211749
30
0
41
1
10
216.955230795762
20
19.1384028724314
30
0
41
1
10
218.140972056409
20
17.4242464385799
30
0
41
1
10
218.558103235234
20
16.8665032021593
30
0
41
1
10
219.219284804164
20
16.0520090835832
30
0
41
1
10
219.445872547845
20
15.7838820092009
30
0
41
1
10
219.909762782632
20
15.2569504822215
30
0
41
1
10
220.146934511195
20
14.9982643278808
30
0
41
1
10
220.389372130808
20
14.7443937031855
30
0
0
SPLINE
5
31E
100
AcDbEntity
8
1
62
256
6
ByLayer
370
13
48
1
60
0
100
AcDbSpline
70
4
71
3
72
14
73
10
40
0
40
0
40
0
40
0
40
0.25
40
0.25
40
0.5
40
0.5
40
0.75
40
0.75
40
1
40
1
40
1
40
1
41
1
10
217.114180846977
20
2.19332056379366
30
0
41
1
10
217.337480523555
20
2.10134309375584
30
0
41
1
10
217.564977545373
20
2.02487461633646
30
0
41
1
10
218.028358256971
20
1.90252798969468
30
0
41
1
10
218.264653509033
20
1.85659835506883
30
0
41
1
10
218.744374169679
20
1.7969314176519
30
0
41
1
10
218.983117023583
20
1.78372054893961
30
0
41
1
10
219.458530782045
20
1.78937738843652
30
0
41
1
10
219.69520081934
20
1.80825058078668
30
0
41
1
10
219.93077243622
20
1.84348494386532
30
0
0
SPLINE
5
31F
100
AcDbEntity
8
1
62
256
6
ByLayer
370
13
48
1
60
0
100
AcDbSpline
70
4
71
1
72
4
73
2
40
0
40
0
40
1
40
1
41
1
10
46.4500000000003
20
-13.2665908519819
30
0
41
1
10
46.0000000000003
20
-13.2665908519819
30
0
0
SPLINE
5
320
100
AcDbEntity
8
1
62
256
6
ByLayer
370
13
48
1
60
0
100
AcDbSpline
70
4
71
3
72
10
73
6
40
0
40
0
40
0
40
0
40
0.753567204723711
40
0.753567204723711
40
1
40
1
40
1
40
1
41
1
10
0.5
20
-4.071
30
0
41
1
10
0.374398598796674
20
-4.071
30
0
41
1
10
0.248802294970275
20
-4.071
30
0
41
1
10
0.0821402764839974
20
-4.071
30
0
41
1
10
0.0410698531254923
20
-4.071
30
0
41
1
10
0
20
-4.071
30
0
0
SPLINE
5
321
100
AcDbEntity
8
1
62
256
6
ByLayer
370
13
48
1
60
0
100
AcDbSpline
70
4
71
3
72
10
73
6
40
0
40
0
40
0
40
0
40
0.5
40
0.5
40
1
40
1
40
1
40
1
41
1
10
231.136758314409
20
8.99595105241394
30
0
41
1
10
231.167337119694
20
8.9975536196921
30
0
41
1
10
231.198275052232
20
8.9962830757523
30
0
41
1
10
231.258456623205
20
8.98846255301021
30
0
41
1
10
231.287865549188
20
8.98195568078364
30
0
41
1
10
231.31656661371
20
8.97307207233501
30
0
0
SPLINE
5
322
100
AcDbEntity
8
1
62
256
6
ByLayer
370
13
48
1
60
0
100
AcDbSpline
70
4
71
3
72
14
73
10
40
0
40
0
40
0
40
0
40
0.250000000000003
40
0.250000000000003
40
0.375000000000004
40
0.375000000000004
40
0.500000000000006
40
0.500000000000006
40
1
40
1
40
1
40
1
41
1
10
40.5581351826984
20
-9.28170354338829
30
0
41
1
10
40.8408647584414
20
-9.13494785667999
30
0
41
1
10
41.1313532099064
20
-9.00534947991653
30
0
41
1
10
41.5787927439632
20
-8.83677432735593
30
0
41
1
10
41.729895488829
20
-8.78489776709074
30
0
41
1
10
42.0360882560125
20
-8.68993122581256
30
0
41
1
10
42.1914850097274
20
-8.64679087383587
30
0
41
1
10
42.9697059724691
20
-8.45566760857739
30
0
41
1
10
43.6022311930776
20
-8.37819613822811
30
0
41
1
10
44.244998260615
20
-8.37693643976442
30
0
0
SPLINE
5
323
100
AcDbEntity
8
1
62
256
6
ByLayer
370
13
48
1
60
0
100
AcDbSpline
70
4
71
3
72
8
73
4
40
0
40
0
40
0
40
0
40
1
40
1
40
1
40
1
41
1
10
46.45
20
-22.6750650059885
30
0
41
1
10
46.3033333331452
20
-22.675120012666
30
0
41
1
10
46.1566666664803
20
-22.6751753926895
30
0
41
1
10
46.01
20
-22.675231128394
30
0
0
SPLINE
5
324
100
AcDbEntity
8
1
62
256
6
ByLayer
370
13
48
1
60
0
100
AcDbSpline
70
4
71
3
72
8
73
4
40
0
40
0
40
0
40
0
40
1
40
1
40
1
40
1
41
1
10
217.113667428528
20
2.19353207214812
30
0
41
1
10
216.623587360127
20
2.39545506730727
30
0
41
1
10
216.140868056167
20
2.60510647461882
30
0
41
1
10
215.66738405474
20
2.82647025796254
30
0
0
SPLINE
5
325
100
AcDbEntity
8
1
62
256
6
ByLayer
370
13
48
1
60
0
100
AcDbSpline
70
4
71
3
72
8
73
4
40
0
40
0
40
0
40
0
40
1
40
1
40
1
40
1
41
1
10
223.900809752592
20
17.0839414066115
30
0
41
1
10
223.886940997104
20
17.0572011702889
30
0
41
1
10
223.87159758655
20
17.0331407575316
30
0
41
1
10
223.85566143541
20
17.011637382559
30
0
0
SPLINE
5
326
100
AcDbEntity
8
1
62
256
6
ByLayer
370
13
48
1
60
0
100
AcDbSpline
70
4
71
3
72
36
73
32
40
0
40
0
40
0
40
0
40
0.008531838792914
40
0.008531838792914
40
0.0607143735932866
40
0.0607143735932866
40
0.112896908393659
40
0.112896908393659
40
0.165079443194032
40
0.165079443194032
40
0.217261977994404
40
0.217261977994404
40
0.269444512794777
40
0.269444512794777
40
0.32162704759515
40
0.32162704759515
40
0.347718314995337
40
0.347718314995337
40
0.373809582395523
40
0.373809582395523
40
0.425992117195896
40
0.425992117195896
40
0.478174651996269
40
0.478174651996269
40
0.582539721597015
40
0.582539721597015
40
0.686904791197761
40
0.686904791197761
40
0.791269860798507
40
0.791269860798507
40
1
40
1
40
1
40
1
41
1
10
147.583305221728
20
-12.2544564952629
30
0
41
1
10
147.298771130221
20
-12.2743860825939
30
0
41
1
10
147.014158364675
20
-12.2940274745512
30
0
41
1
10
144.988245629906
20
-12.4319064744793
30
0
41
1
10
143.244200054169
20
-12.5406143415207
30
0
41
1
10
139.749342996741
20
-12.7348430503182
30
0
41
1
10
137.998515870726
20
-12.8202787380329
30
0
41
1
10
134.488938791704
20
-12.9647422916978
30
0
41
1
10
132.729047658367
20
-13.0232040405786
30
0
41
1
10
129.210436362954
20
-13.115811259847
30
0
41
1
10
127.450882109431
20
-13.1504988404804
30
0
41
1
10
123.931300711901
20
-13.2041674648741
30
0
41
1
10
122.171276393224
20
-13.2233308925364
30
0
41
1
10
118.650763574358
20
-13.2507464667729
30
0
41
1
10
116.890269315193
20
-13.2586303570367
30
0
41
1
10
114.249160841526
20
-13.2648795039366
30
0
41
1
10
113.368723888448
20
-13.2661155558524
30
0
41
1
10
111.607778470617
20
-13.2667345748341
30
0
41
1
10
110.727280543465
20
-13.266204307712
30
0
41
1
10
108.085787292846
20
-13.2659850077804
30
0
41
1
10
106.324770128314
20
-13.2665810036331
30
0
41
1
10
102.802706445632
20
-13.2666299145013
30
0
41
1
10
101.041666256836
20
-13.2666063422964
30
0
41
1
10
95.758571145402
20
-13.2666453038908
30
0
41
1
10
92.2365273450007
20
-13.266627354432
30
0
41
1
10
85.1924518107126
20
-13.2665007962517
30
0
41
1
10
81.6704201983507
20
-13.2664103122023
30
0
41
1
10
74.626345228688
20
-13.2664409683979
30
0
41
1
10
71.104302728229
20
-13.2665488423287
30
0
41
1
10
60.5381683887765
20
-13.2666960037109
30
0
41
1
10
53.4940700888791
20
-13.2666014507682
30
0
41
1
10
46.4500000000214
20
-13.2665908517885
30
0
0
SPLINE
5
327
100
AcDbEntity
8
1
62
256
6
ByLayer
370
13
48
1
60
0
100
AcDbSpline
70
4
71
3
72
20
73
16
40
0
40
0
40
0
40
0
40
0.124999999999996
40
0.124999999999996
40
0.249999999999993
40
0.249999999999993
40
0.499999999999994
40
0.499999999999994
40
0.624999999999995
40
0.624999999999995
40
0.749999999999997
40
0.749999999999997
40
0.874999999999998
40
0.874999999999998
40
1
40
1
40
1
40
1
41
1
10
219.375362088472
20
8.84291658288782
30
0
41
1
10
219.396690407793
20
8.90989100977455
30
0
41
1
10
219.417114478773
20
8.98051392280692
30
0
41
1
10
219.45688928446
20
9.1289124964552
30
0
41
1
10
219.476347511697
20
9.20720604273339
30
0
41
1
10
219.532875182928
20
9.44943300160634
30
0
41
1
10
219.567633447439
20
9.6182986097653
30
0
41
1
10
219.617938331537
20
9.88219475939948
30
0
41
1
10
219.634358438941
20
9.97180968188863
30
0
41
1
10
219.666173006168
20
10.1491224022733
30
0
41
1
10
219.681685634046
20
10.2374976737944
30
0
41
1
10
219.712853204373
20
10.4135156799996
30
0
41
1
10
219.728558908413
20
10.5016370538599
30
0
41
1
10
219.76151151491
20
10.6744681601593
30
0
41
1
10
219.778507877228
20
10.7587162150685
30
0
41
1
10
219.798542668005
20
10.8402172534365
30
0
0
SPLINE
5
328
100
AcDbEntity
8
1
62
256
6
ByLayer
370
13
48
1
60
0
100
AcDbSpline
70
4
71
3
72
14
73
10
40
0
40
0
40
0
40
0
40
0.412243600531862
40
0.412243600531862
40
0.618365400797791
40
0.618365400797791
40
0.824487201063721
40
0.824487201063721
40
1
40
1
40
1
40
1
41
1
10
124.8
20
23.1510655602071
30
0
41
1
10
123.269975833442
20
23.1605668662782
30
0
41
1
10
121.737989480871
20
23.1676583973114
30
0
41
1
10
119.436844931932
20
23.1767928000351
30
0
41
1
10
118.669263845444
20
23.1795796846205
30
0
41
1
10
117.132988139814
20
23.1848998333883
30
0
41
1
10
116.364187317722
20
23.1874362519799
30
0
41
1
10
114.940839009936
20
23.1920597468648
30
0
41
1
10
114.286209683306
20
23.1941615469951
30
0
41
1
10
113.631552636259
20
23.1962541047018
30
0
0
SPLINE
5
329
100
AcDbEntity
8
1
62
256
6
ByLayer
370
13
48
1
60
0
100
AcDbSpline
70
4
71
3
72
10
73
6
40
0
40
0
40
0
40
0
40
0.178855544845974
40
0.178855544845974
40
1
40
1
40
1
40
1
41
1
10
73.4763189603833
20
23.3268375467508
30
0
41
1
10
72.1363131410793
20
23.3311980653245
30
0
41
1
10
70.796307605663
20
23.3355590747302
30
0
41
1
10
63.3041983826789
20
23.3599438292564
30
0
41
1
10
57.1521004756025
20
23.3799725694741
30
0
41
1
10
51.0000000000001
20
23.3999892803903
30
0
0
SPLINE
5
32A
100
AcDbEntity
8
1
62
256
6
ByLayer
370
13
48
1
60
0
100
AcDbSpline
70
4
71
3
72
10
73
6
40
0
40
0
40
0
40
0
40
0.5
40
0.5
40
1
40
1
40
1
40
1
41
1
10
232.759378833543
20
7.57893047144387
30
0
41
1
10
233.316537451091
20
7.60812991729799
30
0
41
1
10
233.85478153141
20
7.63633809425977
30
0
41
1
10
234.889869415264
20
7.69058475161535
30
0
41
1
10
235.386733061354
20
7.71662427191339
30
0
41
1
10
235.860235346205
20
7.7414394751479
30
0
0
SPLINE
5
32B
100
AcDbEntity
8
1
62
256
6
ByLayer
370
13
48
1
60
0
100
AcDbSpline
70
4
71
3
72
28
73
24
40
0
40
0
40
0
40
0
40
0.0665181778990399
40
0.0665181778990399
40
0.13303635579808
40
0.13303635579808
40
0.26607271159616
40
0.26607271159616
40
0.39910906739424
40
0.39910906739424
40
0.53214542319232
40
0.53214542319232
40
0.665181778990399
40
0.665181778990399
40
0.731699956889438
40
0.731699956889438
40
0.798218134788478
40
0.798218134788478
40
0.864736312687517
40
0.864736312687517
40
0.931254490586556
40
0.931254490586556
40
1
40
1
40
1
40
1
41
1
10
216.427266697085
20
22.9052771198571
30
0
41
1
10
215.498842456798
20
22.9671990677805
30
0
41
1
10
214.57052847779
20
23.0178948734386
30
0
41
1
10
212.713627696729
20
23.0966848375508
30
0
41
1
10
211.784736847083
20
23.1247824707781
30
0
41
1
10
208.99949857238
20
23.1749699260471
30
0
41
1
10
207.144817503215
20
23.1629756327245
30
0
41
1
10
203.435998090977
20
23.048631795188
30
0
41
1
10
201.581862473569
20
22.9462936201208
30
0
41
1
10
197.870694684815
20
22.6520596952145
30
0
41
1
10
196.0123392552
20
22.4599404416332
30
0
41
1
10
192.301033011937
20
21.9890982041989
30
0
41
1
10
190.446784795341
20
21.7104890118044
30
0
41
1
10
187.665640653519
20
21.2291827154118
30
0
41
1
10
186.738715383959
20
21.058111822944
30
0
41
1
10
184.885205203777
20
20.6943654139525
30
0
41
1
10
183.95882143547
20
20.5014475802987
30
0
41
1
10
182.104317190596
20
20.0958790709638
30
0
41
1
10
181.176048249493
20
19.8832698520209
30
0
41
1
10
179.318212987706
20
19.4428991247403
30
0
41
1
10
178.388195150725
20
19.2151488093305
30
0
41
1
10
176.493751710777
20
18.7390234956396
30
0
41
1
10
175.529141235727
20
18.4903136551032
30
0
41
1
10
174.562418394597
20
18.2359669888554
30
0
0
SPLINE
5
32C
100
AcDbEntity
8
1
62
256
6
ByLayer
370
13
48
1
60
0
100
AcDbSpline
70
4
71
3
72
10
73
6
40
0
40
0
40
0
40
0
40
0.5
40
0.5
40
1
40
1
40
1
40
1
41
1
10
210.306993695237
20
4.88500813159516
30
0
41
1
10
210.773537943996
20
4.73193899645551
30
0
41
1
10
211.239503084988
20
4.58564189492995
30
0
41
1
10
212.167587890329
20
4.30911699299168
30
0
41
1
10
212.629970352471
20
4.17879774775903
30
0
41
1
10
213.090475771909
20
4.05746059321064
30
0
0
SPLINE
5
32D
100
AcDbEntity
8
1
62
256
6
ByLayer
370
13
48
1
60
0
100
AcDbSpline
70
4
71
3
72
12
73
8
40
0
40
0
40
0
40
0
40
0.25
40
0.25
40
0.5
40
0.5
40
1
40
1
40
1
40
1
41
1
10
229.530279642044
20
6.94092778654948
30
0
41
1
10
229.812190201739
20
7.04142756670615
30
0
41
1
10
230.090571202818
20
7.12758406298235
30
0
41
1
10
230.641146920009
20
7.27569856055368
30
0
41
1
10
230.913331351288
20
7.33762645208679
30
0
41
1
10
231.720795933476
20
7.49164403090415
30
0
41
1
10
232.247161600018
20
7.55208630372385
30
0
41
1
10
232.759378833543
20
7.57893047144387
30
0
0
SPLINE
5
32E
100
AcDbEntity
8
1
62
256
6
ByLayer
370
13
48
1
60
0
100
AcDbSpline
70
4
71
3
72
10
73
6
40
0
40
0
40
0
40
0
40
0.806108221291737
40
0.806108221291737
40
1
40
1
40
1
40
1
41
1
10
223.85566143541
20
17.011637382559
30
0
41
1
10
223.81925528529
20
16.9625129051041
30
0
41
1
10
223.787621083916
20
16.9147406632496
30
0
41
1
10
223.758382811686
20
16.8647375295283
30
0
41
1
10
223.753194300718
20
16.8554882560759
30
0
41
1
10
223.74867345325
20
16.847018687772
30
0
0
SPLINE
5
32F
100
AcDbEntity
8
1
62
256
6
ByLayer
370
13
48
1
60
0
100
AcDbSpline
70
4
71
3
72
8
73
4
40
0
40
0
40
0
40
0
40
1
40
1
40
1
40
1
41
1
10
241.061638806807
20
0.490580585419082
30
0
41
1
10
241.06005410628
20
0.538600085696686
30
0
41
1
10
241.05978285666
20
0.586443593516606
30
0
41
1
10
241.060771020956
20
0.631373127189448
30
0
0
SPLINE
5
330
100
AcDbEntity
8
1
62
256
6
ByLayer
370
13
48
1
60
0
100
AcDbSpline
70
4
71
3
72
8
73
4
40
0
40
0
40
0
40
0
40
1
40
1
40
1
40
1
41
1
10
222.718557350709
20
6.73186905740084
30
0
41
1
10
222.743757631257
20
6.72070813237738
30
0
41
1
10
222.769177351834
20
6.71051443654923
30
0
41
1
10
222.794778113972
20
6.70130923779294
30
0
0
SPLINE
5
331
100
AcDbEntity
8
1
62
256
6
ByLayer
370
13
48
1
60
0
100
AcDbSpline
70
4
71
3
72
22
73
18
40
0
40
0
40
0
40
0
40
0.0265339246566687
40
0.0265339246566687
40
0.0914316630128911
40
0.0914316630128911
40
0.221227139725336
40
0.221227139725336
40
0.480818093150225
40
0.480818093150225
40
0.545715831506447
40
0.545715831506447
40
0.610613569862669
40
0.610613569862669
40
0.740409046575113
40
0.740409046575113
40
1
40
1
40
1
40
1
41
1
10
25.8808075954991
20
-12.4884736596705
30
0
41
1
10
25.7765356689281
20
-12.5796664202727
30
0
41
1
10
25.6731691734352
20
-12.6714798067084
30
0
41
1
10
25.3205875205843
20
-12.9895989421541
30
0
41
1
10
25.0760452531062
20
-13.2188151855516
30
0
41
1
10
24.3591434695171
20
-13.9164398894387
30
0
41
1
10
23.9034662306508
20
-14.3948005387942
30
0
41
1
10
22.6013812747883
20
-15.8684213644081
30
0
41
1
10
21.8191830524889
20
-16.9018156046653
30
0
41
1
10
20.9532325112112
20
-18.2588126492517
30
0
41
1
10
20.7854306060953
20
-18.5339766626164
30
0
41
1
10
20.4633534849785
20
-19.0877972782726
30
0
41
1
10
20.3089595090826
20
-19.3667011155325
30
0
41
1
10
19.8650123899959
20
-20.2092919910965
30
0
41
1
10
19.5946222213465
20
-20.7787806480114
30
0
41
1
10
18.8557038935112
20
-22.5089144420079
30
0
41
1
10
18.4586811742797
20
-23.6910265212786
30
0
41
1
10
18.1539395100423
20
-24.899919229991
30
0
0
SPLINE
5
332
100
AcDbEntity
8
1
62
256
6
ByLayer
370
13
48
1
60
0
100
AcDbSpline
70
4
71
3
72
8
73
4
40
0
40
0
40
0
40
0
40
1
40
1
40
1
40
1
41
1
10
219.373627077769
20
8.83700991642343
30
0
41
1
10
219.374159659519
20
8.83898965067837
30
0
41
1
10
219.374738500854
20
8.84095841531177
30
0
41
1
10
219.375362088472
20
8.84291658288788
30
0
0
SPLINE
5
333
100
AcDbEntity
8
1
62
256
6
ByLayer
370
13
48
1
60
0
100
AcDbSpline
70
4
71
3
72
8
73
4
40
0
40
0
40
0
40
0
40
1
40
1
40
1
40
1
41
1
10
220.026886288787
20
10.963086906822
30
0
41
1
10
220.406196904666
20
10.9731372192241
30
0
41
1
10
220.770973779781
20
10.9526736791803
30
0
41
1
10
221.121349742163
20
10.9006910236777
30
0
0
SPLINE
5
334
100
AcDbEntity
8
1
62
256
6
ByLayer
370
13
48
1
60
0
100
AcDbSpline
70
4
71
3
72
18
73
14
40
0
40
0
40
0
40
0
40
0.125
40
0.125
40
0.250000000000001
40
0.250000000000001
40
0.375000000000001
40
0.375000000000001
40
0.500000000000001
40
0.500000000000001
40
0.750000000000001
40
0.750000000000001
40
1
40
1
40
1
40
1
41
1
10
227.554549027963
20
7.49787800907546
30
0
41
1
10
227.54158787575
20
7.48509729943163
30
0
41
1
10
227.533233985656
20
7.47605652823549
30
0
41
1
10
227.528353281614
20
7.46712497503077
30
0
41
1
10
227.531728357926
20
7.46706809847396
30
0
41
1
10
227.548059610003
20
7.47462160521428
30
0
41
1
10
227.561099549352
20
7.48224443389717
30
0
41
1
10
227.593059509067
20
7.50294330892237
30
0
41
1
10
227.612263314154
20
7.51619900636408
30
0
41
1
10
227.67532858426
20
7.56239837854244
30
0
41
1
10
227.723358883469
20
7.6007092826745
30
0
41
1
10
227.826162336558
20
7.69216638335166
30
0
41
1
10
227.878228599887
20
7.74291302492543
30
0
41
1
10
227.929956732343
20
7.79920609890758
30
0
0
SPLINE
5
335
100
AcDbEntity
8
1
62
256
6
ByLayer
370
13
48
1
60
0
100
AcDbSpline
70
4
71
3
72
10
73
6
40
0
40
0
40
0
40
0
40
0.5
40
0.5
40
1
40
1
40
1
40
1
41
1
10
227.622237410308
20
8.57708217195975
30
0
41
1
10
227.672552968058
20
8.57454000383592
30
0
41
1
10
227.720980192396
20
8.56714250611412
30
0
41
1
10
227.813185285844
20
8.54735920148747
30
0
41
1
10
227.855975529441
20
8.53536130462084
30
0
41
1
10
227.894599543143
20
8.52521749515239
30
0
0
SPLINE
5
336
100
AcDbEntity
8
1
62
256
6
ByLayer
370
13
48
1
60
0
100
AcDbSpline
70
4
71
2
72
6
73
3
40
0
40
0
40
0
40
1
40
1
40
1
41
1
10
198.767400781503
20
9.80031701578383
30
0
41
1
10
198.507002544071
20
9.89877648562305
30
0
41
1
10
198.267306341069
20
9.99710291176513
30
0
0
SPLINE
5
337
100
AcDbEntity
8
1
62
256
6
ByLayer
370
13
48
1
60
0
100
AcDbSpline
70
4
71
1
72
4
73
2
40
0
40
0
40
1
40
1
41
1
10
46.0000000000001
20
23.3999999999999
30
0
41
1
10
45.8481292643029
20
23.4076706334197
30
0
0
SPLINE
5
338
100
AcDbEntity
8
1
62
256
6
ByLayer
370
13
48
1
60
0
100
AcDbSpline
70
4
71
1
72
4
73
2
40
0
40
0
40
1
40
1
41
1
10
45.8481292643029
20
23.4076706334197
30
0
41
1
10
44.5987006038466
20
23.4707763344261
30
0
0
SPLINE
5
339
100
AcDbEntity
8
1
62
256
6
ByLayer
370
13
48
1
60
0
100
AcDbSpline
70
4
71
3
72
15
73
11
40
0
40
0
40
0
40
0
40
0.186593992631776
40
0.373369928867921
40
0.560124614858402
40
0.648106880730083
40
0.73597294660223
40
0.823979592254223
40
0.91212190564114
40
1
40
1
40
1
40
1
41
1
10
17.0518
20
-29.5000000000001
30
0
41
1
10
18.8799807128507
20
-29.2430187414145
30
0
41
1
10
22.5214407138194
20
-28.6438795243674
30
0
41
1
10
27.9409808390228
20
-27.4934694555663
30
0
41
1
10
32.3539829058178
20
-26.3299382164095
30
0
41
1
10
35.7925990862153
20
-25.3158345457008
30
0
41
1
10
38.2629681758481
20
-24.4749139426426
30
0
41
1
10
40.8022346756433
20
-23.8542981833455
30
0
41
1
10
43.3913908232853
20
-23.4830215369592
30
0
41
1
10
45.1283003814138
20
-23.400187161033
30
0
41
1
10
46
20
-23.4000000000001
30
0
0
SPLINE
5
33A
100
AcDbEntity
8
1
62
256
6
ByLayer
370
13
48
1
60
0
100
AcDbSpline
70
4
71
3
72
15
73
11
40
0
40
0
40
0
40
0
40
0.048183618595138
40
0.146310543821697
40
0.24422017472212
40
0.342081438091967
40
0.440049586356791
40
0.538069031740945
40
0.769140706641322
40
1
40
1
40
1
40
1
41
1
10
44.5987006038466
20
23.4707763344261
30
0
41
1
10
44.1439646802206
20
23.4786452408253
30
0
41
1
10
42.7683398647991
20
23.5456859699291
30
0
41
1
10
40.4898409785733
20
23.9137994726989
30
0
41
1
10
37.8110181220537
20
24.6192074408289
30
0
41
1
10
35.1893517978359
20
25.5051645187835
30
0
41
1
10
32.5289631555258
20
26.2695797674436
30
0
41
1
10
28.6446760034908
20
27.3129495487961
30
0
41
1
10
23.4958160371098
20
28.47292162731
30
0
41
1
10
19.2072882033105
20
29.1969747653358
30
0
41
1
10
17.0518
20
29.5
30
0
0
SPLINE
5
33B
100
AcDbEntity
8
1
62
256
6
ByLayer
370
13
48
1
60
0
100
AcDbSpline
70
4
71
2
72
6
73
3
40
0
40
0
40
0
40
1
40
1
40
1
41
1
10
241.821210170497
20
8.33687497248565
30
0
41
1
10
241.889138076597
20
8.40786669008898
30
0
41
1
10
241.958380134285
20
8.46374158036772
30
0
0
SPLINE
5
33C
100
AcDbEntity
8
1
62
256
6
ByLayer
370
13
48
1
60
0
100
AcDbSpline
70
4
71
2
72
6
73
3
40
0
40
0
40
0
40
1
40
1
40
1
41
1
10
224.903732387315
20
7.56994536549445
30
0
41
1
10
224.978435646182
20
7.5216143295946
30
0
41
1
10
225.053412091251
20
7.45811191168605
30
0
0
LINE
5
7F
100
AcDbEntity
8
SK1
62
256
6
ByLayer
370
13
48
1
60
0
100
AcDbLine
10
-16.5
20
-24.8475
30
0
11
-16.5
21
24.8475
31
0
39
0
210
0
220
0
230
1
0
LINE
5
81
100
AcDbEntity
8
SK1
62
256
6
ByLayer
370
13
48
1
60
0
100
AcDbLine
10
-8
20
-24.9975
30
0
11
-8
21
24.9975
31
0
39
0
210
0
220
0
230
1
0
LINE
5
82
100
AcDbEntity
8
SK1
62
256
6
ByLayer
370
13
48
1
60
0
100
AcDbLine
10
-2
20
-24.9975
30
0
11
-2
21
24.9975
31
0
39
0
210
0
220
0
230
1
0
LINE
5
83
100
AcDbEntity
8
SK1
62
256
6
ByLayer
370
13
48
1
60
0
100
AcDbLine
10
-0.3
20
-24.8
30
0
11
-0.3
21
24.8
31
0
39
0
210
0
220
0
230
1
0
LINE
5
84
100
AcDbEntity
8
SK1
62
256
6
ByLayer
370
13
48
1
60
0
100
AcDbLine
10
-9.296888
20
-24.65
30
0
11
-9.296888
21
24.65
31
0
39
0
210
0
220
0
230
1
0
LINE
5
85
100
AcDbEntity
8
SK1
62
256
6
ByLayer
370
13
48
1
60
0
100
AcDbLine
10
-1.57646
20
-24.8
30
0
11
-1.57646
21
24.8
31
0
39
0
210
0
220
0
230
1
0
LINE
5
86
100
AcDbEntity
8
1
62
256
6
ByLayer
370
18
48
1
60
0
100
AcDbLine
10
232.970459
20
14.195737
30
0
11
232.835771
21
14.188678
31
0
39
0
210
0
220
0
230
1
0
LINE
5
87
100
AcDbEntity
8
1
62
256
6
ByLayer
370
18
48
1
60
0
100
AcDbLine
10
232.826345
20
14.17106
30
0
11
232.835771
21
14.188678
31
0
39
0
210
0
220
0
230
1
0
LINE
5
88
100
AcDbEntity
8
1
62
256
6
ByLayer
370
18
48
1
60
0
100
AcDbLine
10
232.810761
20
17.06503
30
0
11
232.675051
21
17.057917
31
0
39
0
210
0
220
0
230
1
0
LINE
5
89
100
AcDbEntity
8
1
62
256
6
ByLayer
370
18
48
1
60
0
100
AcDbLine
10
231.814452
20
15.952515
30
0
11
231.746727
21
15.948966
31
0
39
0
210
0
220
0
230
1
0
LINE
5
8A
100
AcDbEntity
8
1
62
256
6
ByLayer
370
18
48
1
60
0
100
AcDbLine
10
234.259001
20
16.736272
30
0
11
234.124314
21
16.729213
31
0
39
0
210
0
220
0
230
1
0
LINE
5
8B
100
AcDbEntity
8
1
62
256
6
ByLayer
370
18
48
1
60
0
100
AcDbLine
10
234.709386
20
15.329607
30
0
11
234.574699
21
15.322548
31
0
39
0
210
0
220
0
230
1
0
LINE
5
8C
100
AcDbEntity
8
1
62
256
6
ByLayer
370
18
48
1
60
0
100
AcDbLine
10
234.124314
20
16.729213
30
0
11
234.132962
21
16.74723
31
0
39
0
210
0
220
0
230
1
0
LINE
5
8D
100
AcDbEntity
8
1
62
256
6
ByLayer
370
18
48
1
60
0
100
AcDbLine
10
232.686268
20
17.041381
30
0
11
232.675051
21
17.057917
31
0
39
0
210
0
220
0
230
1
0
LINE
5
8E
100
AcDbEntity
8
1
62
256
6
ByLayer
370
18
48
1
60
0
100
AcDbLine
10
234.268671
20
16.754343
30
0
11
234.132962
21
16.74723
31
0
39
0
210
0
220
0
230
1
0
LINE
5
8F
100
AcDbEntity
8
1
62
256
6
ByLayer
370
18
48
1
60
0
100
AcDbLine
10
234.668878
20
16.102548
30
0
11
234.534191
21
16.09549
31
0
39
0
210
0
220
0
230
1
0
LINE
5
90
100
AcDbEntity
8
1
62
256
6
ByLayer
370
18
48
1
60
0
100
AcDbLine
10
231.854915
20
15.18045
30
0
11
231.7866
21
15.17687
31
0
39
0
210
0
220
0
230
1
0
LINE
5
91
100
AcDbEntity
8
1
62
256
6
ByLayer
370
18
48
1
60
0
100
AcDbLine
10
234.554101
20
16.096094
30
0
11
234.534191
21
16.09549
31
0
39
0
210
0
220
0
230
1
0
LINE
5
92
100
AcDbEntity
8
1
62
256
6
ByLayer
370
18
48
1
60
0
100
AcDbLine
10
234.574699
20
15.322548
30
0
11
234.594563
21
15.324029
31
0
39
0
210
0
220
0
230
1
0
LINE
5
93
100
AcDbEntity
8
1
62
256
6
ByLayer
370
18
48
1
60
0
100
AcDbLine
10
232.962055
20
14.178172
30
0
11
232.826345
21
14.17106
31
0
39
0
210
0
220
0
230
1
0
LINE
5
94
100
AcDbEntity
8
1
62
256
6
ByLayer
370
18
48
1
60
0
100
AcDbLine
10
234.367997
20
14.656511
30
0
11
234.233309
21
14.649452
31
0
39
0
210
0
220
0
230
1
0
LINE
5
95
100
AcDbEntity
8
1
62
256
6
ByLayer
370
18
48
1
60
0
100
AcDbLine
10
234.243793
20
14.632438
30
0
11
234.233309
21
14.649452
31
0
39
0
210
0
220
0
230
1
0
LINE
5
96
100
AcDbEntity
8
1
62
256
6
ByLayer
370
18
48
1
60
0
100
AcDbLine
10
234.379503
20
14.63955
30
0
11
234.243793
21
14.632438
31
0
39
0
210
0
220
0
230
1
0
LINE
5
97
100
AcDbEntity
8
1
62
256
6
ByLayer
370
18
48
1
60
0
100
AcDbLine
10
232.820955
20
17.048439
30
0
11
232.686268
21
17.041381
31
0
39
0
210
0
220
0
230
1
0
LINE
5
98
100
AcDbEntity
8
1
62
256
6
ByLayer
370
18
48
1
60
0
100
AcDbLine
10
242.558963
20
-7.073082
30
0
11
241.661953
21
-13.849225
31
0
39
0
210
0
220
0
230
1
0
LINE
5
99
100
AcDbEntity
8
1
62
256
6
ByLayer
370
18
48
1
60
0
100
AcDbLine
10
241.420025
20
0.204984
30
0
11
241.436048
21
0.149413
31
0
39
0
210
0
220
0
230
1
0
LINE
5
9A
100
AcDbEntity
8
1
62
256
6
ByLayer
370
18
48
1
60
0
100
AcDbLine
10
241.260181
20
-14.17535
30
0
11
241.229288
21
-14.180216
31
0
39
0
210
0
220
0
230
1
0
LINE
5
9B
100
AcDbEntity
8
1
62
256
6
ByLayer
370
18
48
1
60
0
100
AcDbLine
10
241.062517
20
0.462884
30
0
11
241.129268
21
0.454144
31
0
39
0
210
0
220
0
230
1
0
LINE
5
9C
100
AcDbEntity
8
1
62
256
6
ByLayer
370
18
48
1
60
0
100
AcDbLine
10
241.457189
20
0.054573
30
0
11
242.555958
21
-6.844771
31
0
39
0
210
0
220
0
230
1
0
LINE
5
9D
100
AcDbEntity
8
1
62
256
6
ByLayer
370
18
48
1
60
0
100
AcDbLine
10
241.41142
20
-14.13839
30
0
11
241.355543
21
-14.154324
31
0
39
0
210
0
220
0
230
1
0
LINE
5
9E
100
AcDbEntity
8
1
62
256
6
ByLayer
370
13
48
1
60
0
100
AcDbLine
10
224.490372
20
21.418967
30
0
11
224.467982
21
21.6323
31
0
39
0
210
0
220
0
230
1
0
LINE
5
9F
100
AcDbEntity
8
1
62
256
6
ByLayer
370
13
48
1
60
0
100
AcDbLine
10
242.675855
20
16.292351
30
0
11
241.568072
21
23.306795
31
0
39
0
210
0
220
0
230
1
0
LINE
5
A0
100
AcDbEntity
8
1
62
256
6
ByLayer
370
13
48
1
60
0
100
AcDbLine
10
240.223505
20
23.960981
30
0
11
240.256217
21
23.962696
31
0
39
0
210
0
220
0
230
1
0
LINE
5
A1
100
AcDbEntity
8
1
62
256
6
ByLayer
370
13
48
1
60
0
100
AcDbLine
10
241.734037
20
23.331194
30
0
11
242.84182
21
16.316749
31
0
39
0
210
0
220
0
230
1
0
LINE
5
A2
100
AcDbEntity
8
1
62
256
6
ByLayer
370
13
48
1
60
0
100
AcDbLine
10
239.824666
20
9.308597
30
0
11
241.570629
21
9.58593
31
0
39
0
210
0
220
0
230
1
0
LINE
5
A3
100
AcDbEntity
8
1
62
256
6
ByLayer
370
13
48
1
60
0
100
AcDbLine
10
226.445446
20
7.525963
30
0
11
226.440833
21
7.525722
31
0
39
0
210
0
220
0
230
1
0
LINE
5
A4
100
AcDbEntity
8
1
62
256
6
ByLayer
370
13
48
1
60
0
100
AcDbLine
10
226.755715
20
8.4321
30
0
11
225.722619
21
14.973632
31
0
39
0
210
0
220
0
230
1
0
LINE
5
A5
100
AcDbEntity
8
1
62
256
6
ByLayer
370
13
48
1
60
0
100
AcDbLine
10
223.451899
20
15.656114
30
0
11
223.457301
21
16.21303
31
0
39
0
210
0
220
0
230
1
0
LINE
5
A6
100
AcDbEntity
8
1
62
256
6
ByLayer
370
13
48
1
60
0
100
AcDbLine
10
226.925485
20
8.432409
30
0
11
226.920873
21
8.432167
31
0
39
0
210
0
220
0
230
1
0
LINE
5
A7
100
AcDbEntity
8
1
62
256
6
ByLayer
370
13
48
1
60
0
100
AcDbLine
10
223.50719
20
14.601102
30
0
11
223.452281
21
14.948786
31
0
39
0
210
0
220
0
230
1
0
LINE
5
A8
100
AcDbEntity
8
1
62
256
6
ByLayer
370
13
48
1
60
0
100
AcDbLine
10
224.715513
20
21.547639
30
0
11
226.627587
21
21.851356
31
0
39
0
210
0
220
0
230
1
0
LINE
5
A9
100
AcDbEntity
8
1
62
256
6
ByLayer
370
13
48
1
60
0
100
AcDbLine
10
226.361463
20
7.324783
30
0
11
226.129666
21
7.27109
31
0
39
0
210
0
220
0
230
1
0
LINE
5
AA
100
AcDbEntity
8
1
62
256
6
ByLayer
370
13
48
1
60
0
100
AcDbLine
10
241.902166
20
9.739841
30
0
11
239.990092
21
9.436123
31
0
39
0
210
0
220
0
230
1
0
LINE
5
AB
100
AcDbEntity
8
1
62
256
6
ByLayer
370
13
48
1
60
0
100
AcDbLine
10
242.844484
20
16.115879
30
0
11
242.026855
21
9.868385
31
0
39
0
210
0
220
0
230
1
0
LINE
5
AC
100
AcDbEntity
8
1
62
256
6
ByLayer
370
13
48
1
60
0
100
AcDbLine
10
240.333819
20
23.984089
30
0
11
240.223505
21
23.960981
31
0
39
0
210
0
220
0
230
1
0
LINE
5
AD
100
AcDbEntity
8
1
62
256
6
ByLayer
370
13
48
1
60
0
100
AcDbLine
10
226.103721
20
15.03024
30
0
11
227.089842
21
8.786155
31
0
39
0
210
0
220
0
230
1
0
LINE
5
AE
100
AcDbEntity
8
1
62
256
6
ByLayer
370
13
48
1
60
0
100
AcDbLine
10
242.844484
20
16.115879
30
0
11
242.839871
21
16.115637
31
0
39
0
210
0
220
0
230
1
0
LINE
5
AF
100
AcDbEntity
8
1
62
256
6
ByLayer
370
13
48
1
60
0
100
AcDbLine
10
223.674471
20
15.184675
30
0
11
224.490372
21
21.418967
31
0
39
0
210
0
220
0
230
1
0
LINE
5
B0
100
AcDbEntity
8
1
62
256
6
ByLayer
370
13
48
1
60
0
100
AcDbLine
10
242.84182
20
16.316749
30
0
11
242.837208
21
16.316508
31
0
39
0
210
0
220
0
230
1
0
LINE
5
B1
100
AcDbEntity
8
1
62
256
6
ByLayer
370
13
48
1
60
0
100
AcDbLine
10
241.729425
20
23.330952
30
0
11
242.837208
21
16.316508
31
0
39
0
210
0
220
0
230
1
0
LINE
5
B2
100
AcDbEntity
8
1
62
256
6
ByLayer
370
13
48
1
60
0
100
AcDbLine
10
241.570629
20
9.58593
30
0
11
241.913235
21
9.64035
31
0
39
0
210
0
220
0
230
1
0
LINE
5
B3
100
AcDbEntity
8
1
62
256
6
ByLayer
370
13
48
1
60
0
100
AcDbLine
10
240.584568
20
23.920507
30
0
11
240.579956
21
23.920266
31
0
39
0
210
0
220
0
230
1
0
LINE
5
B4
100
AcDbEntity
8
1
62
256
6
ByLayer
370
13
48
1
60
0
100
AcDbLine
10
242.940165
20
16.332371
30
0
11
241.832381
21
23.346815
31
0
39
0
210
0
220
0
230
1
0
LINE
5
B5
100
AcDbEntity
8
1
62
256
6
ByLayer
370
13
48
1
60
0
100
AcDbLine
10
223.50719
20
14.601102
30
0
11
224.755267
21
7.939821
31
0
39
0
210
0
220
0
230
1
0
LINE
5
B6
100
AcDbEntity
8
1
62
256
6
ByLayer
370
13
48
1
60
0
100
AcDbLine
10
240.861397
20
16.067999
30
0
11
240.014095
21
9.593773
31
0
39
0
210
0
220
0
230
1
0
LINE
5
B7
100
AcDbEntity
8
1
62
256
6
ByLayer
370
13
48
1
60
0
100
AcDbLine
10
226.261534
20
7.376936
30
0
11
226.033111
21
7.366972
31
0
39
0
210
0
220
0
230
1
0
LINE
5
B8
100
AcDbEntity
8
1
62
256
6
ByLayer
370
13
48
1
60
0
100
AcDbLine
10
241.570629
20
9.58593
30
0
11
241.257101
21
8.302146
31
0
39
0
210
0
220
0
230
1
0
LINE
5
B9
100
AcDbEntity
8
1
62
256
6
ByLayer
370
13
48
1
60
0
100
AcDbLine
10
239.990092
20
9.436123
30
0
11
239.98548
21
9.435881
31
0
39
0
210
0
220
0
230
1
0
LINE
5
BA
100
AcDbEntity
8
1
62
256
6
ByLayer
370
13
48
1
60
0
100
AcDbLine
10
226.008114
20
7.515862
30
0
11
226.236536
21
7.525826
31
0
39
0
210
0
220
0
230
1
0
LINE
5
BB
100
AcDbEntity
8
1
62
256
6
ByLayer
370
13
48
1
60
0
100
AcDbLine
10
225.40944
20
22.951338
30
0
11
225.086464
21
22.951542
31
0
39
0
210
0
220
0
230
1
0
LINE
5
BC
100
AcDbEntity
8
1
62
256
6
ByLayer
370
13
48
1
60
0
100
AcDbLine
10
241.960626
20
9.481709
30
0
11
241.881235
21
8.736074
31
0
39
0
210
0
220
0
230
1
0
LINE
5
BD
100
AcDbEntity
8
1
62
256
6
ByLayer
370
13
48
1
60
0
100
AcDbLine
10
239.119312
20
9.414299
30
0
11
228.181351
21
8.841065
31
0
39
0
210
0
220
0
230
1
0
LINE
5
BE
100
AcDbEntity
8
1
62
256
6
ByLayer
370
13
48
1
60
0
100
AcDbLine
10
227.498367
20
21.87318
30
0
11
238.436328
21
22.446414
31
0
39
0
210
0
220
0
230
1
0
LINE
5
BF
100
AcDbEntity
8
1
62
256
6
ByLayer
370
13
48
1
60
0
100
AcDbLine
10
223.744505
20
12.478399
30
0
11
224.483892
21
9.388199
31
0
39
0
210
0
220
0
230
1
0
LINE
5
C0
100
AcDbEntity
8
1
62
256
6
ByLayer
370
13
48
1
60
0
100
AcDbLine
10
226.899561
20
8.348125
30
0
11
226.894949
21
8.347883
31
0
39
0
210
0
220
0
230
1
0
LINE
5
C1
100
AcDbEntity
8
1
62
256
6
ByLayer
370
13
48
1
60
0
100
AcDbLine
10
241.902166
20
9.739841
30
0
11
241.897554
21
9.739599
31
0
39
0
210
0
220
0
230
1
0
LINE
5
C2
100
AcDbEntity
8
1
62
256
6
ByLayer
370
13
48
1
60
0
100
AcDbLine
10
240.619794
20
23.921714
30
0
11
240.615182
21
23.921472
31
0
39
0
210
0
220
0
230
1
0
LINE
5
C3
100
AcDbEntity
8
1
62
256
6
ByLayer
370
13
48
1
60
0
100
AcDbLine
10
224.605537
20
22.589519
30
0
11
224.462462
21
22.566793
31
0
39
0
210
0
220
0
230
1
0
LINE
5
C4
100
AcDbEntity
8
1
62
256
6
ByLayer
370
13
48
1
60
0
100
AcDbLine
10
240.356146
20
23.910543
30
0
11
240.584568
21
23.920507
31
0
39
0
210
0
220
0
230
1
0
LINE
5
C5
100
AcDbEntity
8
1
62
256
6
ByLayer
370
13
48
1
60
0
100
AcDbLine
10
241.916159
20
8.448688
30
0
11
241.881235
21
8.736074
31
0
39
0
210
0
220
0
230
1
0
LINE
5
C6
100
AcDbEntity
8
1
62
256
6
ByLayer
370
13
48
1
60
0
100
AcDbLine
10
241.897554
20
9.739599
30
0
11
239.98548
21
9.435881
31
0
39
0
210
0
220
0
230
1
0
LINE
5
C7
100
AcDbEntity
8
1
62
256
6
ByLayer
370
13
48
1
60
0
100
AcDbLine
10
242.026855
20
9.868385
30
0
11
242.022243
21
9.868144
31
0
39
0
210
0
220
0
230
1
0
LINE
5
C8
100
AcDbEntity
8
1
62
256
6
ByLayer
370
13
48
1
60
0
100
AcDbLine
10
242.943208
20
16.102804
30
0
11
242.127307
21
9.868512
31
0
39
0
210
0
220
0
230
1
0
LINE
5
C9
100
AcDbEntity
8
1
62
256
6
ByLayer
370
13
48
1
60
0
100
AcDbLine
10
224.897076
20
23.175084
30
0
11
225.009201
21
23.163633
31
0
39
0
210
0
220
0
230
1
0
LINE
5
CA
100
AcDbEntity
8
1
62
256
6
ByLayer
370
13
48
1
60
0
100
AcDbLine
10
241.860319
20
9.887031
30
0
11
242.677948
21
16.134524
31
0
39
0
210
0
220
0
230
1
0
LINE
5
CB
100
AcDbEntity
8
1
62
256
6
ByLayer
370
13
48
1
60
0
100
AcDbLine
10
223.451899
20
15.656114
30
0
11
223.433634
21
15.304596
31
0
39
0
210
0
220
0
230
1
0
LINE
5
CC
100
AcDbEntity
8
1
62
256
6
ByLayer
370
13
48
1
60
0
100
AcDbLine
10
226.925485
20
8.432409
30
0
11
226.874705
21
8.753946
31
0
39
0
210
0
220
0
230
1
0
LINE
5
CD
100
AcDbEntity
8
1
62
256
6
ByLayer
370
13
48
1
60
0
100
AcDbLine
10
226.727897
20
21.632436
30
0
11
226.74191
21
21.73951
31
0
39
0
210
0
220
0
230
1
0
LINE
5
CE
100
AcDbEntity
8
1
62
256
6
ByLayer
370
13
48
1
60
0
100
AcDbLine
10
240.352147
20
23.910328
30
0
11
240.579956
21
23.920266
31
0
39
0
210
0
220
0
230
1
0
LINE
5
CF
100
AcDbEntity
8
1
62
256
6
ByLayer
370
13
48
1
60
0
100
AcDbLine
10
242.185862
20
10.315955
30
0
11
242.06737
21
8.84711
31
0
39
0
210
0
220
0
230
1
0
LINE
5
D0
100
AcDbEntity
8
1
62
256
6
ByLayer
370
13
48
1
60
0
100
AcDbLine
10
224.883642
20
7.956285
30
0
11
223.775859
21
14.97073
31
0
39
0
210
0
220
0
230
1
0
LINE
5
D1
100
AcDbEntity
8
1
62
256
6
ByLayer
370
13
48
1
60
0
100
AcDbLine
10
241.458678
20
8.668954
30
0
11
241.913235
21
9.64035
31
0
39
0
210
0
220
0
230
1
0
LINE
5
D2
100
AcDbEntity
8
1
62
256
6
ByLayer
370
13
48
1
60
0
100
AcDbLine
10
225.883972
20
14.997789
30
0
11
226.920873
21
8.432167
31
0
39
0
210
0
220
0
230
1
0
LINE
5
D3
100
AcDbEntity
8
1
62
256
6
ByLayer
370
13
48
1
60
0
100
AcDbLine
10
223.677515
20
14.955108
30
0
11
224.785298
21
7.940664
31
0
39
0
210
0
220
0
230
1
0
LINE
5
D4
100
AcDbEntity
8
1
62
256
6
ByLayer
370
13
48
1
60
0
100
AcDbLine
10
223.773196
20
15.1716
30
0
11
224.590825
21
21.419094
31
0
39
0
210
0
220
0
230
1
0
LINE
5
D5
100
AcDbEntity
8
1
62
256
6
ByLayer
370
13
48
1
60
0
100
AcDbLine
10
242.839871
20
16.115637
30
0
11
242.022243
21
9.868144
31
0
39
0
210
0
220
0
230
1
0
LINE
5
D6
100
AcDbEntity
8
1
62
256
6
ByLayer
370
13
48
1
60
0
100
AcDbLine
10
241.734037
20
23.331194
30
0
11
241.729425
21
23.330952
31
0
39
0
210
0
220
0
230
1
0
LINE
5
D7
100
AcDbEntity
8
1
62
256
6
ByLayer
370
13
48
1
60
0
100
AcDbLine
10
223.451899
20
15.656114
30
0
11
223.531873
21
16.407221
31
0
39
0
210
0
220
0
230
1
0
LINE
5
D8
100
AcDbEntity
8
1
62
256
6
ByLayer
370
13
48
1
60
0
100
AcDbLine
10
240.550856
20
16.259173
30
0
11
239.564735
21
22.503258
31
0
39
0
210
0
220
0
230
1
0
LINE
5
D9
100
AcDbEntity
8
1
62
256
6
ByLayer
370
13
48
1
60
0
100
AcDbLine
10
226.874705
20
8.753946
30
0
11
225.888584
21
14.998031
31
0
39
0
210
0
220
0
230
1
0
LINE
5
DA
100
AcDbEntity
8
1
62
256
6
ByLayer
370
13
48
1
60
0
100
AcDbLine
10
240.356146
20
23.910543
30
0
11
240.351533
21
23.910301
31
0
39
0
210
0
220
0
230
1
0
LINE
5
DB
100
AcDbEntity
8
1
62
256
6
ByLayer
370
13
48
1
60
0
100
AcDbLine
10
226.737298
20
21.739269
30
0
11
225.881308
21
15.19866
31
0
39
0
210
0
220
0
230
1
0
LINE
5
DC
100
AcDbEntity
8
1
62
256
6
ByLayer
370
13
48
1
60
0
100
AcDbLine
10
239.917165
20
23.778587
30
0
11
240.075912
21
23.786907
31
0
39
0
210
0
220
0
230
1
0
LINE
5
DD
100
AcDbEntity
8
1
62
256
6
ByLayer
370
13
48
1
60
0
100
AcDbLine
10
223.641625
20
16.631836
30
0
11
223.449436
21
15.163325
31
0
39
0
210
0
220
0
230
1
0
LINE
5
DE
100
AcDbEntity
8
1
62
256
6
ByLayer
370
13
48
1
60
0
100
AcDbLine
10
240.014095
20
9.593773
30
0
11
241.860319
21
9.887031
31
0
39
0
210
0
220
0
230
1
0
LINE
5
DF
100
AcDbEntity
8
1
62
256
6
ByLayer
370
13
48
1
60
0
100
AcDbLine
10
239.825066
20
22.853446
30
0
11
240.858163
21
16.311913
31
0
39
0
210
0
220
0
230
1
0
LINE
5
E0
100
AcDbEntity
8
1
62
256
6
ByLayer
370
13
48
1
60
0
100
AcDbLine
10
239.710781
20
9.682159
30
0
11
240.552758
21
16.115694
31
0
39
0
210
0
220
0
230
1
0
LINE
5
E1
100
AcDbEntity
8
1
62
256
6
ByLayer
370
13
48
1
60
0
100
AcDbLine
10
241.458678
20
8.668954
30
0
11
241.881235
21
8.736074
31
0
39
0
210
0
220
0
230
1
0
LINE
5
E2
100
AcDbEntity
8
1
62
256
6
ByLayer
370
13
48
1
60
0
100
AcDbLine
10
225.888584
20
14.998031
30
0
11
225.883972
21
14.997789
31
0
39
0
210
0
220
0
230
1
0
LINE
5
E3
100
AcDbEntity
8
1
62
256
6
ByLayer
370
13
48
1
60
0
100
AcDbLine
10
224.605537
20
22.589519
30
0
11
224.704444
21
21.647129
31
0
39
0
210
0
220
0
230
1
0
LINE
5
E4
100
AcDbEntity
8
1
62
256
6
ByLayer
370
13
48
1
60
0
100
AcDbLine
10
239.887464
20
9.637332
30
0
11
239.875769
21
9.547969
31
0
39
0
210
0
220
0
230
1
0
LINE
5
E5
100
AcDbEntity
8
1
62
256
6
ByLayer
370
13
48
1
60
0
100
AcDbLine
10
240.602346
20
8.299549
30
0
11
240.812751
21
8.298284
31
0
39
0
210
0
220
0
230
1
0
LINE
5
E6
100
AcDbEntity
8
1
62
256
6
ByLayer
370
13
48
1
60
0
100
AcDbLine
10
223.904926
20
14.993195
30
0
11
225.01271
21
7.97875
31
0
39
0
210
0
220
0
230
1
0
LINE
5
E7
100
AcDbEntity
8
1
62
256
6
ByLayer
370
13
48
1
60
0
100
AcDbLine
10
241.062897
20
23.921615
30
0
11
241.058284
21
23.921373
31
0
39
0
210
0
220
0
230
1
0
LINE
5
E8
100
AcDbEntity
8
1
62
256
6
ByLayer
370
13
48
1
60
0
100
AcDbLine
10
225.885921
20
15.198901
30
0
11
225.881308
21
15.19866
31
0
39
0
210
0
220
0
230
1
0
LINE
5
E9
100
AcDbEntity
8
1
62
256
6
ByLayer
370
13
48
1
60
0
100
AcDbLine
10
226.74191
20
21.73951
30
0
11
226.737298
21
21.739269
31
0
39
0
210
0
220
0
230
1
0
LINE
5
EA
100
AcDbEntity
8
1
62
256
6
ByLayer
370
13
48
1
60
0
100
AcDbLine
10
240.572668
20
23.769684
30
0
11
240.344245
21
23.759719
31
0
39
0
210
0
220
0
230
1
0
LINE
5
EB
100
AcDbEntity
8
1
62
256
6
ByLayer
370
13
48
1
60
0
100
AcDbLine
10
226.943795
20
21.607254
30
0
11
226.101819
21
15.173719
31
0
39
0
210
0
220
0
230
1
0
LINE
5
EC
100
AcDbEntity
8
1
62
256
6
ByLayer
370
13
48
1
60
0
100
AcDbLine
10
240.256217
20
23.962696
30
0
11
240.488013
21
24.016389
31
0
39
0
210
0
220
0
230
1
0
LINE
5
ED
100
AcDbEntity
8
1
62
256
6
ByLayer
370
13
48
1
60
0
100
AcDbLine
10
224.720463
20
21.398515
30
0
11
223.902834
21
15.151022
31
0
39
0
210
0
220
0
230
1
0
LINE
5
EE
100
AcDbEntity
8
1
62
256
6
ByLayer
370
13
48
1
60
0
100
AcDbLine
10
226.793014
20
21.978882
30
0
11
224.704444
21
21.647129
31
0
39
0
210
0
220
0
230
1
0
LINE
5
EF
100
AcDbEntity
8
1
62
256
6
ByLayer
370
13
48
1
60
0
100
AcDbLine
10
239.692194
20
22.85507
30
0
11
239.740135
21
22.551509
31
0
39
0
210
0
220
0
230
1
0
LINE
5
F0
100
AcDbEntity
8
1
62
256
6
ByLayer
370
13
48
1
60
0
100
AcDbLine
10
226.566687
20
21.691773
30
0
11
224.720463
21
21.398515
31
0
39
0
210
0
220
0
230
1
0
LINE
5
F1
100
AcDbEntity
8
1
62
256
6
ByLayer
370
13
48
1
60
0
100
AcDbLine
10
225.719385
20
15.217547
30
0
11
226.566687
21
21.691773
31
0
39
0
210
0
220
0
230
1
0
LINE
5
F2
100
AcDbEntity
8
1
62
256
6
ByLayer
370
13
48
1
60
0
100
AcDbLine
10
225.885921
20
15.198901
30
0
11
226.727897
21
21.632436
31
0
39
0
210
0
220
0
230
1
0
LINE
5
F3
100
AcDbEntity
8
SK1
62
256
6
ByLayer
370
13
48
1
60
0
100
AcDbLine
10
-10.5
20
-24.8475
30
0
11
-10.5
21
24.8475
31
0
39
0
210
0
220
0
230
1
0
LINE
5
F4
100
AcDbEntity
8
SK1
62
256
6
ByLayer
370
13
48
1
60
0
100
AcDbLine
10
-10.07646
20
-24.65
30
0
11
-10.07646
21
24.65
31
0
39
0
210
0
220
0
230
1
0
LINE
5
F5
100
AcDbEntity
8
SK1
62
256
6
ByLayer
370
13
48
1
60
0
100
AcDbLine
10
-18
20
-24.445576
30
0
11
-18
21
24.445576
31
0
39
0
210
0
220
0
230
1
0
LINE
5
F6
100
AcDbEntity
8
1
62
256
6
ByLayer
370
13
48
1
60
0
100
AcDbLine
10
219.107106
20
23.16
30
0
11
219.107106
21
22.941055
31
0
39
0
210
0
220
0
230
1
0
LINE
5
F7
100
AcDbEntity
8
1
62
256
6
ByLayer
370
13
48
1
60
0
100
AcDbLine
10
0
20
-30.832335
30
0
11
0
21
-29.748313
31
0
39
0
210
0
220
0
230
1
0
LINE
5
F8
100
AcDbEntity
8
1
62
256
6
ByLayer
370
13
48
1
60
0
100
AcDbLine
10
240.523346
20
-23.283036
30
0
11
241.597398
21
-15.169497
31
0
39
0
210
0
220
0
230
1
0
LINE
5
F9
100
AcDbEntity
8
1
62
256
6
ByLayer
370
13
48
1
60
0
100
AcDbLine
10
241.801746
20
7.615509
30
0
11
241.805533
21
0.899736
31
0
39
0
210
0
220
0
230
1
0
LINE
5
FA
100
AcDbEntity
8
1
62
256
6
ByLayer
370
13
48
1
60
0
100
AcDbLine
10
241.801746
20
7.615509
30
0
11
241.637268
21
6.994695
31
0
39
0
210
0
220
0
230
1
0
LINE
5
FB
100
AcDbEntity
8
1
62
256
6
ByLayer
370
13
48
1
60
0
100
AcDbLine
10
239.403178
20
1.46123
30
0
11
239.554625
21
-0.944876
31
0
39
0
210
0
220
0
230
1
0
LINE
5
FC
100
AcDbEntity
8
1
62
256
6
ByLayer
370
13
48
1
60
0
100
AcDbLine
10
0
20
-33.5
30
0
11
0
21
-30.832335
31
0
39
0
210
0
220
0
230
1
0
LINE
5
FD
100
AcDbEntity
8
1
62
256
6
ByLayer
370
13
48
1
60
0
100
AcDbLine
10
241.496301
20
0.628432
30
0
11
241.485454
21
0.629852
31
0
39
0
210
0
220
0
230
1
0
LINE
5
FE
100
AcDbEntity
8
1
62
256
6
ByLayer
370
13
48
1
60
0
100
AcDbLine
10
236.633043
20
9.251697
30
0
11
236.450907
21
9.242151
31
0
39
0
210
0
220
0
230
1
0
LINE
5
FF
100
AcDbEntity
8
1
62
256
6
ByLayer
370
13
48
1
60
0
100
AcDbLine
10
240.523346
20
-23.283036
30
0
11
222.107106
21
-23.283036
31
0
39
0
210
0
220
0
230
1
0
LINE
5
100
100
AcDbEntity
8
1
62
256
6
ByLayer
370
13
48
1
60
0
100
AcDbLine
10
228.419656
20
8.552735
30
0
11
227.8946
21
8.525217
31
0
39
0
210
0
220
0
230
1
0
LINE
5
101
100
AcDbEntity
8
1
62
256
6
ByLayer
370
13
48
1
60
0
100
AcDbLine
10
240.125565
20
-4.148989
30
0
11
242.057238
21
-6.053522
31
0
39
0
210
0
220
0
230
1
0
LINE
5
102
100
AcDbEntity
8
1
62
256
6
ByLayer
370
13
48
1
60
0
100
AcDbLine
10
241.591938
20
8.019788
30
0
11
241.522355
21
8.016141
31
0
39
0
210
0
220
0
230
1
0
LINE
5
103
100
AcDbEntity
8
1
62
256
6
ByLayer
370
13
48
1
60
0
100
AcDbLine
10
215.667384
20
2.82647
30
0
11
215.954522
21
1.06956
31
0
39
0
210
0
220
0
230
1
0
LINE
5
104
100
AcDbEntity
8
1
62
256
6
ByLayer
370
13
48
1
60
0
100
AcDbLine
10
219.107106
20
-23.044349
30
0
11
211.45362
21
-23.044349
31
0
39
0
210
0
220
0
230
1
0
LINE
5
105
100
AcDbEntity
8
1
62
256
6
ByLayer
370
13
48
1
60
0
100
AcDbLine
10
6
20
-3.571
30
0
11
6
21
3.571
31
0
39
0
210
0
220
0
230
1
0
LINE
5
106
100
AcDbEntity
8
1
62
256
6
ByLayer
370
13
48
1
60
0
100
AcDbLine
10
232.12676
20
7.545776
30
0
11
232.759379
21
7.57893
31
0
39
0
210
0
220
0
230
1
0
LINE
5
107
100
AcDbEntity
8
1
62
256
6
ByLayer
370
13
48
1
60
0
100
AcDbLine
10
221.432035
20
10.8697
30
0
11
222.601152
21
11.521096
31
0
39
0
210
0
220
0
230
1
0
LINE
5
108
100
AcDbEntity
8
1
62
256
6
ByLayer
370
13
48
1
60
0
100
AcDbLine
10
241.637268
20
6.994695
30
0
11
241.601366
21
6.992813
31
0
39
0
210
0
220
0
230
1
0
LINE
5
109
100
AcDbEntity
8
1
62
256
6
ByLayer
370
13
48
1
60
0
100
AcDbLine
10
51
20
23.4
30
0
11
51
21
-8.377205
31
0
39
0
210
0
220
0
230
1
0
LINE
5
10A
100
AcDbEntity
8
1
62
256
6
ByLayer
370
13
48
1
60
0
100
AcDbLine
10
241.131906
20
-0.243209
30
0
11
242.057238
21
-6.053522
31
0
39
0
210
0
220
0
230
1
0
LINE
5
10B
100
AcDbEntity
8
1
62
256
6
ByLayer
370
13
48
1
60
0
100
AcDbLine
10
239.420137
20
2.248956
30
0
11
241.060771
21
0.631373
31
0
39
0
210
0
220
0
230
1
0
LINE
5
10C
100
AcDbEntity
8
1
62
256
6
ByLayer
370
13
48
1
60
0
100
AcDbLine
10
46
20
-23.311909
30
0
11
46
21
-23.4
31
0
39
0
210
0
220
0
230
1
0
LINE
5
10D
100
AcDbEntity
8
1
62
256
6
ByLayer
370
13
48
1
60
0
100
AcDbLine
10
241.504087
20
0.619678
30
0
11
241.480543
21
0.62276
31
0
39
0
210
0
220
0
230
1
0
LINE
5
10E
100
AcDbEntity
8
1
62
256
6
ByLayer
370
13
48
1
60
0
100
AcDbLine
10
242.079658
20
-7.756664
30
0
11
241.215161
21
-14.287197
31
0
39
0
210
0
220
0
230
1
0
LINE
5
10F
100
AcDbEntity
8
1
62
256
6
ByLayer
370
13
48
1
60
0
100
AcDbLine
10
46
20
23.4
30
0
11
46
21
-8.375573
31
0
39
0
210
0
220
0
230
1
0
LINE
5
110
100
AcDbEntity
8
1
62
256
6
ByLayer
370
13
48
1
60
0
100
AcDbLine
10
7
20
-34
30
0
11
7
21
34
31
0
39
0
210
0
220
0
230
1
0
LINE
5
111
100
AcDbEntity
8
1
62
256
6
ByLayer
370
13
48
1
60
0
100
AcDbLine
10
0
20
-26.761335
30
0
11
0
21
-4.071
31
0
39
0
210
0
220
0
230
1
0
LINE
5
112
100
AcDbEntity
8
1
62
256
6
ByLayer
370
13
48
1
60
0
100
AcDbLine
10
235.860235
20
7.741439
30
0
11
240.01981
21
7.959434
31
0
39
0
210
0
220
0
230
1
0
LINE
5
113
100
AcDbEntity
8
1
62
256
6
ByLayer
370
13
48
1
60
0
100
AcDbLine
10
0.5
20
4.071
30
0
11
5.5
21
4.071
31
0
39
0
210
0
220
0
230
1
0
LINE
5
114
100
AcDbEntity
8
1
62
256
6
ByLayer
370
13
48
1
60
0
100
AcDbLine
10
0.5
20
-34
30
0
11
0.5
21
-31.268533
31
0
39
0
210
0
220
0
230
1
0
LINE
5
115
100
AcDbEntity
8
1
62
256
6
ByLayer
370
13
48
1
60
0
100
AcDbLine
10
241.805533
20
0.899736
30
0
11
241.512373
21
0.785997
31
0
39
0
210
0
220
0
230
1
0
LINE
5
116
100
AcDbEntity
8
1
62
256
6
ByLayer
370
13
48
1
60
0
100
AcDbLine
10
5.5
20
-31.268533
30
0
11
5.5
21
-29.748313
31
0
39
0
210
0
220
0
230
1
0
LINE
5
117
100
AcDbEntity
8
1
62
256
6
ByLayer
370
13
48
1
60
0
100
AcDbLine
10
223.743922
20
16.80211
30
0
11
224.472728
21
22.37091
31
0
39
0
210
0
220
0
230
1
0
LINE
5
118
100
AcDbEntity
8
1
62
256
6
ByLayer
370
13
48
1
60
0
100
AcDbLine
10
222.107106
20
23.4
30
0
11
222.107106
21
23.219883
31
0
39
0
210
0
220
0
230
1
0
LINE
5
119
100
AcDbEntity
8
1
62
256
6
ByLayer
370
13
48
1
60
0
100
AcDbLine
10
241.496301
20
0.628432
30
0
11
241.504087
21
0.619678
31
0
39
0
210
0
220
0
230
1
0
LINE
5
11A
100
AcDbEntity
8
1
62
256
6
ByLayer
370
13
48
1
60
0
100
AcDbLine
10
5.5
20
-4.071
30
0
11
0.5
21
-4.071
31
0
39
0
210
0
220
0
230
1
0
LINE
5
11B
100
AcDbEntity
8
1
62
256
6
ByLayer
370
13
48
1
60
0
100
AcDbLine
10
222.107106
20
-23.283036
30
0
11
222.107106
21
-0.519801
31
0
39
0
210
0
220
0
230
1
0
LINE
5
11C
100
AcDbEntity
8
1
62
256
6
ByLayer
370
13
48
1
60
0
100
AcDbLine
10
236.804343
20
9.292977
30
0
11
238.892767
21
9.402426
31
0
39
0
210
0
220
0
230
1
0
LINE
5
11D
100
AcDbEntity
8
1
62
256
6
ByLayer
370
13
48
1
60
0
100
AcDbLine
10
6
20
-31.067508
30
0
11
6
21
-27.496508
31
0
39
0
210
0
220
0
230
1
0
LINE
5
11E
100
AcDbEntity
8
1
62
256
6
ByLayer
370
13
48
1
60
0
100
AcDbLine
10
228.658567
20
8.575354
30
0
11
228.424077
21
8.563064
31
0
39
0
210
0
220
0
230
1
0
LINE
5
11F
100
AcDbEntity
8
1
62
256
6
ByLayer
370
13
48
1
60
0
100
AcDbLine
10
0.5
20
4.071
30
0
11
0.5
21
34
31
0
39
0
210
0
220
0
230
1
0
LINE
5
120
100
AcDbEntity
8
1
62
256
6
ByLayer
370
13
48
1
60
0
100
AcDbLine
10
0
20
4.071
30
0
11
0
21
33.5
31
0
39
0
210
0
220
0
230
1
0
LINE
5
121
100
AcDbEntity
8
1
62
256
6
ByLayer
370
13
48
1
60
0
100
AcDbLine
10
0
20
-29.748313
30
0
11
5.5
21
-29.748313
31
0
39
0
210
0
220
0
230
1
0
LINE
5
122
100
AcDbEntity
8
1
62
256
6
ByLayer
370
13
48
1
60
0
100
AcDbLine
10
0
20
-4.071
30
0
11
0
21
4.071
31
0
39
0
210
0
220
0
230
1
0
LINE
5
123
100
AcDbEntity
8
1
62
256
6
ByLayer
370
13
48
1
60
0
100
AcDbLine
10
240.01981
20
7.959434
30
0
11
241.103071
21
8.016205
31
0
39
0
210
0
220
0
230
1
0
LINE
5
124
100
AcDbEntity
8
1
62
256
6
ByLayer
370
13
48
1
60
0
100
AcDbLine
10
222.601152
20
11.521096
30
0
11
221.12135
21
13.800521
31
0
39
0
210
0
220
0
230
1
0
LINE
5
125
100
AcDbEntity
8
1
62
256
6
ByLayer
370
13
48
1
60
0
100
AcDbLine
10
239.3471
20
9.225962
30
0
11
228.707447
21
8.668362
31
0
39
0
210
0
220
0
230
1
0
LINE
5
126
100
AcDbEntity
8
1
62
256
6
ByLayer
370
13
48
1
60
0
100
AcDbLine
10
0
20
-29.748313
30
0
11
0
21
-26.749378
31
0
39
0
210
0
220
0
230
1
0
LINE
5
127
100
AcDbEntity
8
1
62
256
6
ByLayer
370
13
48
1
60
0
100
AcDbLine
10
51
20
-23.312035
30
0
11
51
21
-23.4
31
0
39
0
210
0
220
0
230
1
0
LINE
5
128
100
AcDbEntity
8
1
62
256
6
ByLayer
370
13
48
1
60
0
100
AcDbLine
10
224.472728
20
22.37091
30
0
11
224.426882
21
23.245708
31
0
39
0
210
0
220
0
230
1
0
LINE
5
129
100
AcDbEntity
8
1
62
256
6
ByLayer
370
13
48
1
60
0
100
AcDbLine
10
241.515332
20
8.137948
30
0
11
241.410348
21
8.132446
31
0
39
0
210
0
220
0
230
1
0
LINE
5
12A
100
AcDbEntity
8
1
62
256
6
ByLayer
370
13
48
1
60
0
100
AcDbLine
10
240.01981
20
7.959434
30
0
11
239.420137
21
2.248956
31
0
39
0
210
0
220
0
230
1
0
LINE
5
12B
100
AcDbEntity
8
1
62
256
6
ByLayer
370
13
48
1
60
0
100
AcDbLine
10
5.5
20
-27.197361
30
0
11
5.5
21
-29.748313
31
0
39
0
210
0
220
0
230
1
0
LINE
5
12C
100
AcDbEntity
8
1
62
256
6
ByLayer
370
13
48
1
60
0
100
AcDbLine
10
241.596044
20
1.135272
30
0
11
241.574402
21
1.138106
31
0
39
0
210
0
220
0
230
1
0
LINE
5
12D
100
AcDbEntity
8
1
62
256
6
ByLayer
370
13
48
1
60
0
100
AcDbLine
10
241.591938
20
8.019788
30
0
11
241.801746
21
7.615509
31
0
39
0
210
0
220
0
230
1
0
LINE
5
12E
100
AcDbEntity
8
1
62
256
6
ByLayer
370
13
48
1
60
0
100
AcDbLine
10
219.107106
20
-23.044349
30
0
11
219.107106
21
-0.16161
31
0
39
0
210
0
220
0
230
1
0
LINE
5
12F
100
AcDbEntity
8
1
62
256
6
ByLayer
370
13
48
1
60
0
100
AcDbLine
10
241.131906
20
-0.243209
30
0
11
239.403178
21
1.46123
31
0
39
0
210
0
220
0
230
1
0
LINE
5
130
100
AcDbEntity
8
1
62
256
6
ByLayer
370
13
48
1
60
0
100
AcDbLine
10
225.550457
20
22.779609
30
0
11
225.589879
21
23.080826
31
0
39
0
210
0
220
0
230
1
0
LINE
5
131
100
AcDbEntity
8
1
62
256
6
ByLayer
370
13
48
1
60
0
100
AcDbLine
10
7.5
20
29.5
30
0
11
7.5
21
-29.5
31
0
39
0
210
0
220
0
230
1
0
LINE
5
132
100
AcDbEntity
8
1
62
256
6
ByLayer
370
13
48
1
60
0
100
AcDbLine
10
124.8
20
-23.114224
30
0
11
124.8
21
-23.16
31
0
39
0
210
0
220
0
230
1
0
LINE
5
133
100
AcDbEntity
8
1
62
256
6
ByLayer
370
13
48
1
60
0
100
AcDbLine
10
5.5
20
-31.268533
30
0
11
0.5
21
-31.268533
31
0
39
0
210
0
220
0
230
1
0
LINE
5
134
100
AcDbEntity
8
1
62
256
6
ByLayer
370
13
48
1
60
0
100
AcDbLine
10
241.597398
20
-15.169497
30
0
11
241.200702
21
-14.845201
31
0
39
0
210
0
220
0
230
1
0
LINE
5
135
100
AcDbEntity
8
1
62
256
6
ByLayer
370
13
48
1
60
0
100
AcDbLine
10
221.12135
20
10.900691
30
0
11
221.12135
21
13.800521
31
0
39
0
210
0
220
0
230
1
0
LINE
5
136
100
AcDbEntity
8
1
62
256
6
ByLayer
370
13
48
1
60
0
100
AcDbLine
10
222.566796
20
7.782159
30
0
11
222.928431
21
7.67105
31
0
39
0
210
0
220
0
230
1
0
LINE
5
137
100
AcDbEntity
8
1
62
256
6
ByLayer
370
13
48
1
60
0
100
AcDbLine
10
17.0518
20
29.5
30
0
11
17.0518
21
-29.5
31
0
39
0
210
0
220
0
230
1
0
LINE
5
138
100
AcDbEntity
8
1
62
256
6
ByLayer
370
13
48
1
60
0
100
AcDbLine
10
231.98218
20
8.539572
30
0
11
239.586596
21
8.938102
31
0
39
0
210
0
220
0
230
1
0
LINE
5
139
100
AcDbEntity
8
1
62
256
6
ByLayer
370
13
48
1
60
0
100
AcDbLine
10
5.5
20
-4.071
30
0
11
5.5
21
4.071
31
0
39
0
210
0
220
0
230
1
0
LINE
5
13A
100
AcDbEntity
8
1
62
256
6
ByLayer
370
13
48
1
60
0
100
AcDbLine
10
223.978929
20
10.994012
30
0
11
223.35128
21
14.968268
31
0
39
0
210
0
220
0
230
1
0
LINE
5
13B
100
AcDbEntity
8
1
62
256
6
ByLayer
370
13
48
1
60
0
100
AcDbLine
10
124.8
20
-8.925022
30
0
11
124.8
21
23.151066
31
0
39
0
210
0
220
0
230
1
0
LINE
5
13C
100
AcDbEntity
8
1
62
256
6
ByLayer
370
13
48
1
60
0
100
AcDbLine
10
242.079658
20
-7.756664
30
0
11
240.20792
21
-5.911225
31
0
39
0
210
0
220
0
230
1
0
LINE
5
13D
100
AcDbEntity
8
1
62
256
6
ByLayer
370
13
48
1
60
0
100
AcDbLine
10
229.144499
20
6.92071
30
0
11
229.53028
21
6.940928
31
0
39
0
210
0
220
0
230
1
0
LINE
5
13E
100
AcDbEntity
8
1
62
256
6
ByLayer
370
13
48
1
60
0
100
AcDbLine
10
224.474018
20
21.46382
30
0
11
223.90081
21
17.083941
31
0
39
0
210
0
220
0
230
1
0
LINE
5
13F
100
AcDbEntity
8
1
62
256
6
ByLayer
370
13
48
1
60
0
100
AcDbLine
10
241.596044
20
1.135272
30
0
11
241.805533
21
0.899736
31
0
39
0
210
0
220
0
230
1
0
LINE
5
140
100
AcDbEntity
8
1
62
256
6
ByLayer
370
13
48
1
60
0
100
AcDbLine
10
0.5
20
-27.197533
30
0
11
5.5
21
-27.197533
31
0
39
0
210
0
220
0
230
1
0
LINE
5
141
100
AcDbEntity
8
1
62
256
6
ByLayer
370
13
48
1
60
0
100
AcDbLine
10
0.5
20
-27.197533
30
0
11
0.5
21
-4.071
31
0
39
0
210
0
220
0
230
1
0
LINE
5
142
100
AcDbEntity
8
1
62
256
6
ByLayer
370
13
48
1
60
0
100
AcDbLine
10
219.930772
20
1.843485
30
0
11
220.29021
21
-0.355806
31
0
39
0
210
0
220
0
230
1
0
LINE
5
143
100
AcDbEntity
8
1
62
256
6
ByLayer
370
13
48
1
60
0
100
AcDbLine
10
241.564214
20
7.290113
30
0
11
241.515332
21
8.137948
31
0
39
0
210
0
220
0
230
1
0
LINE
5
144
100
AcDbEntity
8
1
62
256
6
ByLayer
370
13
48
1
60
0
100
AcDbLine
10
228.698223
20
8.667878
30
0
11
228.707447
21
8.668362
31
0
39
0
210
0
220
0
230
1
0
LINE
5
145
100
AcDbEntity
8
1
62
256
6
ByLayer
370
13
48
1
60
0
100
AcDbLine
10
229.048334
20
8.886501
30
0
11
231.136758
21
8.995951
31
0
39
0
210
0
220
0
230
1
0
LINE
5
146
100
AcDbEntity
8
4
62
256
6
ByLayer
370
18
48
0.05
60
0
100
AcDbLine
10
243
20
0
30
0
11
0
21
0
31
0
39
0
210
0
220
0
230
1
0
LINE
5
148
100
AcDbEntity
8
SK4
62
256
6
ByLayer
370
13
48
0.05
60
0
100
AcDbLine
10
243
20
0
30
0
11
-18
21
0
31
0
39
0
210
0
220
0
230
1
0
LINE
5
14A
100
AcDbEntity
8
SK1
62
256
6
ByLayer
370
13
48
1
60
0
100
AcDbLine
10
-9.296888
20
24.65
30
0
11
-10.07646
21
24.65
31
0
39
0
210
0
220
0
230
1
0
LINE
5
14B
100
AcDbEntity
8
SK1
62
256
6
ByLayer
370
13
48
1
60
0
100
AcDbLine
10
-10.07646
20
-24.65
30
0
11
-9.296888
21
-24.65
31
0
39
0
210
0
220
0
230
1
0
LINE
5
14C
100
AcDbEntity
8
SK1
62
256
6
ByLayer
370
13
48
1
60
0
100
AcDbLine
10
-0.3
20
24.8
30
0
11
-1.57646
21
24.8
31
0
39
0
210
0
220
0
230
1
0
LINE
5
14D
100
AcDbEntity
8
SK1
62
256
6
ByLayer
370
13
48
1
60
0
100
AcDbLine
10
-1.57646
20
-24.8
30
0
11
-0.3
21
-24.8
31
0
39
0
210
0
220
0
230
1
0
LINE
5
14E
100
AcDbEntity
8
SK1
62
256
6
ByLayer
370
13
48
1
60
0
100
AcDbLine
10
-18
20
-24.445576
30
0
11
-16.5
21
-24.8475
31
0
39
0
210
0
220
0
230
1
0
LINE
5
14F
100
AcDbEntity
8
SK1
62
256
6
ByLayer
370
13
48
1
60
0
100
AcDbLine
10
-16.5
20
24.8475
30
0
11
-18
21
24.445576
31
0
39
0
210
0
220
0
230
1
0
LINE
5
150
100
AcDbEntity
8
SK1
62
256
6
ByLayer
370
13
48
1
60
0
100
AcDbLine
10
-10.07646
20
24.65
30
0
11
-10.5
21
24.8475
31
0
39
0
210
0
220
0
230
1
0
LINE
5
151
100
AcDbEntity
8
SK1
62
256
6
ByLayer
370
13
48
1
60
0
100
AcDbLine
10
-10.5
20
-24.8475
30
0
11
-10.07646
21
-24.65
31
0
39
0
210
0
220
0
230
1
0
LINE
5
152
100
AcDbEntity
8
SK1
62
256
6
ByLayer
370
13
48
1
60
0
100
AcDbLine
10
-10.5
20
24.8475
30
0
11
-16.5
21
24.8475
31
0
39
0
210
0
220
0
230
1
0
LINE
5
153
100
AcDbEntity
8
SK1
62
256
6
ByLayer
370
13
48
1
60
0
100
AcDbLine
10
-16.5
20
-24.8475
30
0
11
-10.5
21
-24.8475
31
0
39
0
210
0
220
0
230
1
0
LINE
5
154
100
AcDbEntity
8
SK1
62
256
6
ByLayer
370
13
48
1
60
0
100
AcDbLine
10
-2
20
24.9975
30
0
11
-8
21
24.9975
31
0
39
0
210
0
220
0
230
1
0
LINE
5
155
100
AcDbEntity
8
SK1
62
256
6
ByLayer
370
13
48
1
60
0
100
AcDbLine
10
-8
20
-24.9975
30
0
11
-2
21
-24.9975
31
0
39
0
210
0
220
0
230
1
0
LINE
5
156
100
AcDbEntity
8
SK1
62
256
6
ByLayer
370
13
48
1
60
0
100
AcDbLine
10
-1.57646
20
24.8
30
0
11
-2
21
24.9975
31
0
39
0
210
0
220
0
230
1
0
LINE
5
157
100
AcDbEntity
8
SK1
62
256
6
ByLayer
370
13
48
1
60
0
100
AcDbLine
10
-2
20
-24.9975
30
0
11
-1.57646
21
-24.8
31
0
39
0
210
0
220
0
230
1
0
LINE
5
158
100
AcDbEntity
8
SK1
62
256
6
ByLayer
370
13
48
1
60
0
100
AcDbLine
10
-9.296888
20
-24.65
30
0
11
-8
21
-24.9975
31
0
39
0
210
0
220
0
230
1
0
LINE
5
159
100
AcDbEntity
8
SK1
62
256
6
ByLayer
370
13
48
1
60
0
100
AcDbLine
10
-8
20
24.9975
30
0
11
-9.296888
21
24.65
31
0
39
0
210
0
220
0
230
1
0
LINE
5
15A
100
AcDbEntity
8
1
62
256
6
ByLayer
370
13
48
1
60
0
100
AcDbLine
10
113.630824
20
23.196323
30
0
11
73.475972
21
23.326907
31
0
39
0
210
0
220
0
230
1
0
LINE
5
15B
100
AcDbEntity
8
1
62
256
6
ByLayer
370
13
48
1
60
0
100
AcDbLine
10
46
20
-23.4
30
0
11
51
21
-23.4
31
0
39
0
210
0
220
0
230
1
0
LINE
5
15C
100
AcDbEntity
8
1
62
256
6
ByLayer
370
13
48
1
60
0
100
AcDbLine
10
51
20
-23.4
30
0
11
124.8
21
-23.16
31
0
39
0
210
0
220
0
230
1
0
LINE
5
15D
100
AcDbEntity
8
1
62
256
6
ByLayer
370
13
48
1
60
0
100
AcDbLine
10
224.169584
20
23.4
30
0
11
222.107106
21
23.4
31
0
39
0
210
0
220
0
230
1
0
LINE
5
15E
100
AcDbEntity
8
1
62
256
6
ByLayer
370
13
48
1
60
0
100
AcDbLine
10
222.107106
20
23.4
30
0
11
219.107106
21
23.16
31
0
39
0
210
0
220
0
230
1
0
LINE
5
15F
100
AcDbEntity
8
1
62
256
6
ByLayer
370
13
48
1
60
0
100
AcDbLine
10
124.8
20
-23.16
30
0
11
135.217909
21
-23.16
31
0
39
0
210
0
220
0
230
1
0
LINE
5
160
100
AcDbEntity
8
1
62
256
6
ByLayer
370
13
48
1
60
0
100
AcDbLine
10
219.107106
20
23.16
30
0
11
208.804242
21
23.16
31
0
39
0
210
0
220
0
230
1
0
LINE
5
161
100
AcDbEntity
8
1
62
256
6
ByLayer
370
13
48
1
60
0
100
AcDbLine
10
0
20
-33.5
30
0
11
0.5
21
-34
31
0
39
0
210
0
220
0
230
1
0
LINE
5
162
100
AcDbEntity
8
1
62
256
6
ByLayer
370
13
48
1
60
0
100
AcDbLine
10
7.5
20
-29.5
30
0
11
17.0518
21
-29.5
31
0
39
0
210
0
220
0
230
1
0
LINE
5
163
100
AcDbEntity
8
1
62
256
6
ByLayer
370
13
48
1
60
0
100
AcDbLine
10
17.0518
20
29.5
30
0
11
7.5
21
29.5
31
0
39
0
210
0
220
0
230
1
0
LINE
5
164
100
AcDbEntity
8
1
62
256
6
ByLayer
370
13
48
1
60
0
100
AcDbLine
10
0.5
20
34
30
0
11
0
21
33.5
31
0
39
0
210
0
220
0
230
1
0
LINE
5
165
100
AcDbEntity
8
1
62
256
6
ByLayer
370
13
48
1
60
0
100
AcDbLine
10
7
20
34
30
0
11
0.5
21
34
31
0
39
0
210
0
220
0
230
1
0
LINE
5
166
100
AcDbEntity
8
1
62
256
6
ByLayer
370
13
48
1
60
0
100
AcDbLine
10
0.5
20
-34
30
0
11
7
21
-34
31
0
39
0
210
0
220
0
230
1
0
LINE
5
167
100
AcDbEntity
8
1
62
256
6
ByLayer
370
18
48
1
60
0
100
AcDbLine
10
233.069124
20
16.923247
30
0
11
233.193846
21
16.929784
31
0
39
0
210
0
220
0
230
1
0
LINE
5
168
100
AcDbEntity
8
1
62
256
6
ByLayer
370
18
48
1
60
0
100
AcDbLine
10
233.328904
20
14.35272
30
0
11
233.204182
21
14.346184
31
0
39
0
210
0
220
0
230
1
0
LINE
5
169
100
AcDbEntity
8
1
62
256
6
ByLayer
370
18
48
1
60
0
100
AcDbLine
10
233.3573
20
12.792368
30
0
11
233.423789
21
12.795853
31
0
39
0
210
0
220
0
230
1
0
LINE
5
16A
100
AcDbEntity
8
1
62
256
6
ByLayer
370
18
48
1
60
0
100
AcDbLine
10
233.125474
20
18.488041
30
0
11
233.058985
21
18.484556
31
0
39
0
210
0
220
0
230
1
0
LINE
5
16B
100
AcDbEntity
8
1
62
256
6
ByLayer
370
13
48
1
60
0
100
AcDbLine
10
241.649065
20
8.81585
30
0
11
242.103622
21
9.787246
31
0
39
0
210
0
220
0
230
1
0
LINE
5
16C
100
AcDbEntity
8
1
62
256
6
ByLayer
370
13
48
1
60
0
100
AcDbLine
10
240.729959
20
16.289405
30
0
11
239.743837
21
22.53349
31
0
39
0
210
0
220
0
230
1
0
LINE
5
16D
100
AcDbEntity
8
1
62
256
6
ByLayer
370
13
48
1
60
0
100
AcDbLine
10
239.890641
20
9.655239
30
0
11
240.732618
21
16.088774
31
0
39
0
210
0
220
0
230
1
0
LINE
5
16E
100
AcDbEntity
8
81
62
256
6
ByLayer
370
18
48
1
60
0
100
AcDbLine
10
243
20
0
30
0
11
250
21
0
31
0
39
0
210
0
220
0
230
1
0
LINE
5
16F
100
AcDbEntity
8
80
62
256
6
ByLayer
370
18
48
1
60
0
100
AcDbLine
10
0
20
0
30
0
11
-7
21
0
31
0
39
0
210
0
220
0
230
1
0
LINE
5
170
100
AcDbEntity
8
SK2
62
256
6
ByLayer
370
13
48
1
60
0
100
AcDbLine
10
-38.725
20
25
30
0
11
-38.725
21
-25
31
0
39
0
210
0
220
0
230
1
0
LINE
5
172
100
AcDbEntity
8
SK2
62
256
6
ByLayer
370
13
48
1
60
0
100
AcDbLine
10
-19.5875
20
-25
30
0
11
-41.9
21
-25
31
0
39
0
210
0
220
0
230
1
0
LINE
5
173
100
AcDbEntity
8
SK2
62
256
6
ByLayer
370
13
48
1
60
0
100
AcDbLine
10
-19.5875
20
25
30
0
11
-41.9
21
25
31
0
39
0
210
0
220
0
230
1
0
LINE
5
174
100
AcDbEntity
8
1
62
256
6
ByLayer
370
18
48
1
60
1
100
AcDbLine
10
-38.725
20
-25
30
0
11
-39.650575
21
-20.825003
31
0
39
0
210
0
220
0
230
1
0
LINE
5
175
100
AcDbEntity
8
1
62
256
6
ByLayer
370
18
48
1
60
1
100
AcDbLine
10
-39.650575
20
-20.825003
30
0
11
-37.799425
21
-20.824997
31
0
39
0
210
0
220
0
230
1
0
LINE
5
176
100
AcDbEntity
8
1
62
256
6
ByLayer
370
18
48
1
60
1
100
AcDbLine
10
-37.799425
20
-20.824997
30
0
11
-38.725
21
-25
31
0
39
0
210
0
220
0
230
1
0
LINE
5
177
100
AcDbEntity
8
1
62
256
6
ByLayer
370
18
48
1
60
1
100
AcDbLine
10
-38.725
20
25
30
0
11
-37.799425
21
20.825003
31
0
39
0
210
0
220
0
230
1
0
LINE
5
178
100
AcDbEntity
8
1
62
256
6
ByLayer
370
18
48
1
60
1
100
AcDbLine
10
-37.799425
20
20.825003
30
0
11
-39.650575
21
20.824997
31
0
39
0
210
0
220
0
230
1
0
LINE
5
179
100
AcDbEntity
8
1
62
256
6
ByLayer
370
18
48
1
60
1
100
AcDbLine
10
-39.650575
20
20.824997
30
0
11
-38.725
21
25
31
0
39
0
210
0
220
0
230
1
0
LINE
5
17A
100
AcDbEntity
8
SK2
62
256
6
ByLayer
370
13
48
1
60
0
100
AcDbLine
10
-48.725
20
-34
30
0
11
-48.725
21
34
31
0
39
0
210
0
220
0
230
1
0
LINE
5
17B
100
AcDbEntity
8
SK2
62
256
6
ByLayer
370
13
48
1
60
0
100
AcDbLine
10
-1.5875
20
34
30
0
11
-51.9
21
34
31
0
39
0
210
0
220
0
230
1
0
LINE
5
17C
100
AcDbEntity
8
SK2
62
256
6
ByLayer
370
13
48
1
60
0
100
AcDbLine
10
-1.5875
20
-34
30
0
11
-51.9
21
-34
31
0
39
0
210
0
220
0
230
1
0
LINE
5
17D
100
AcDbEntity
8
1
62
256
6
ByLayer
370
18
48
1
60
1
100
AcDbLine
10
-48.725
20
34
30
0
11
-47.799425
21
29.825003
31
0
39
0
210
0
220
0
230
1
0
LINE
5
17E
100
AcDbEntity
8
1
62
256
6
ByLayer
370
18
48
1
60
1
100
AcDbLine
10
-47.799425
20
29.825003
30
0
11
-49.650575
21
29.824997
31
0
39
0
210
0
220
0
230
1
0
LINE
5
17F
100
AcDbEntity
8
1
62
256
6
ByLayer
370
18
48
1
60
1
100
AcDbLine
10
-49.650575
20
29.824997
30
0
11
-48.725
21
34
31
0
39
0
210
0
220
0
230
1
0
LINE
5
180
100
AcDbEntity
8
1
62
256
6
ByLayer
370
18
48
1
60
1
100
AcDbLine
10
-48.725
20
-34
30
0
11
-49.650575
21
-29.825003
31
0
39
0
210
0
220
0
230
1
0
LINE
5
181
100
AcDbEntity
8
1
62
256
6
ByLayer
370
18
48
1
60
1
100
AcDbLine
10
-49.650575
20
-29.825003
30
0
11
-47.799425
21
-29.824997
31
0
39
0
210
0
220
0
230
1
0
LINE
5
182
100
AcDbEntity
8
1
62
256
6
ByLayer
370
18
48
1
60
1
100
AcDbLine
10
-47.799425
20
-29.824997
30
0
11
-48.725
21
-34
31
0
39
0
210
0
220
0
230
1
0
LINE
5
183
100
AcDbEntity
8
2
62
256
6
ByLayer
370
13
48
1
60
0
100
AcDbLine
10
269.975
20
24
30
0
11
269.975
21
-24
31
0
39
0
210
0
220
0
230
1
0
LINE
5
185
100
AcDbEntity
8
2
62
256
6
ByLayer
370
13
48
1
60
0
100
AcDbLine
10
244.5875
20
-24
30
0
11
273.15
21
-24
31
0
39
0
210
0
220
0
230
1
0
LINE
5
186
100
AcDbEntity
8
2
62
256
6
ByLayer
370
13
48
1
60
0
100
AcDbLine
10
244.5875
20
24
30
0
11
273.15
21
24
31
0
39
0
210
0
220
0
230
1
0
LINE
5
187
100
AcDbEntity
8
1
62
256
6
ByLayer
370
18
48
1
60
1
100
AcDbLine
10
269.975
20
-24
30
0
11
269.049425
21
-19.825003
31
0
39
0
210
0
220
0
230
1
0
LINE
5
188
100
AcDbEntity
8
1
62
256
6
ByLayer
370
18
48
1
60
1
100
AcDbLine
10
269.049425
20
-19.825003
30
0
11
270.900575
21
-19.824997
31
0
39
0
210
0
220
0
230
1
0
LINE
5
189
100
AcDbEntity
8
1
62
256
6
ByLayer
370
18
48
1
60
1
100
AcDbLine
10
270.900575
20
-19.824997
30
0
11
269.975
21
-24
31
0
39
0
210
0
220
0
230
1
0
LINE
5
18A
100
AcDbEntity
8
1
62
256
6
ByLayer
370
18
48
1
60
1
100
AcDbLine
10
269.975
20
24
30
0
11
270.900575
21
19.825003
31
0
39
0
210
0
220
0
230
1
0
LINE
5
18B
100
AcDbEntity
8
1
62
256
6
ByLayer
370
18
48
1
60
1
100
AcDbLine
10
270.900575
20
19.825003
30
0
11
269.049425
21
19.824997
31
0
39
0
210
0
220
0
230
1
0
LINE
5
18C
100
AcDbEntity
8
1
62
256
6
ByLayer
370
18
48
1
60
1
100
AcDbLine
10
269.049425
20
19.824997
30
0
11
269.975
21
24
31
0
39
0
210
0
220
0
230
1
0
LINE
5
341
100
AcDbEntity
8
1
62
256
6
ByLayer
370
18
48
1
60
1
100
AcDbLine
10
-38.725
20
-25
30
0
11
-39.650575
21
-20.825003
31
0
39
0
210
0
220
0
230
1
0
LINE
5
342
100
AcDbEntity
8
1
62
256
6
ByLayer
370
18
48
1
60
1
100
AcDbLine
10
-39.650575
20
-20.825003
30
0
11
-37.799425
21
-20.824997
31
0
39
0
210
0
220
0
230
1
0
LINE
5
343
100
AcDbEntity
8
1
62
256
6
ByLayer
370
18
48
1
60
1
100
AcDbLine
10
-37.799425
20
-20.824997
30
0
11
-38.725
21
-25
31
0
39
0
210
0
220
0
230
1
0
LINE
5
345
100
AcDbEntity
8
1
62
256
6
ByLayer
370
18
48
1
60
1
100
AcDbLine
10
-38.725
20
25
30
0
11
-37.799425
21
20.825003
31
0
39
0
210
0
220
0
230
1
0
LINE
5
346
100
AcDbEntity
8
1
62
256
6
ByLayer
370
18
48
1
60
1
100
AcDbLine
10
-37.799425
20
20.825003
30
0
11
-39.650575
21
20.824997
31
0
39
0
210
0
220
0
230
1
0
LINE
5
347
100
AcDbEntity
8
1
62
256
6
ByLayer
370
18
48
1
60
1
100
AcDbLine
10
-39.650575
20
20.824997
30
0
11
-38.725
21
25
31
0
39
0
210
0
220
0
230
1
0
LINE
5
34B
100
AcDbEntity
8
1
62
256
6
ByLayer
370
18
48
1
60
1
100
AcDbLine
10
-48.725
20
34
30
0
11
-47.799425
21
29.825003
31
0
39
0
210
0
220
0
230
1
0
LINE
5
34C
100
AcDbEntity
8
1
62
256
6
ByLayer
370
18
48
1
60
1
100
AcDbLine
10
-47.799425
20
29.825003
30
0
11
-49.650575
21
29.824997
31
0
39
0
210
0
220
0
230
1
0
LINE
5
34D
100
AcDbEntity
8
1
62
256
6
ByLayer
370
18
48
1
60
1
100
AcDbLine
10
-49.650575
20
29.824997
30
0
11
-48.725
21
34
31
0
39
0
210
0
220
0
230
1
0
LINE
5
34F
100
AcDbEntity
8
1
62
256
6
ByLayer
370
18
48
1
60
1
100
AcDbLine
10
-48.725
20
-34
30
0
11
-49.650575
21
-29.825003
31
0
39
0
210
0
220
0
230
1
0
LINE
5
350
100
AcDbEntity
8
1
62
256
6
ByLayer
370
18
48
1
60
1
100
AcDbLine
10
-49.650575
20
-29.825003
30
0
11
-47.799425
21
-29.824997
31
0
39
0
210
0
220
0
230
1
0
LINE
5
351
100
AcDbEntity
8
1
62
256
6
ByLayer
370
18
48
1
60
1
100
AcDbLine
10
-47.799425
20
-29.824997
30
0
11
-48.725
21
-34
31
0
39
0
210
0
220
0
230
1
0
LINE
5
355
100
AcDbEntity
8
1
62
256
6
ByLayer
370
18
48
1
60
1
100
AcDbLine
10
269.975
20
-24
30
0
11
269.049425
21
-19.825003
31
0
39
0
210
0
220
0
230
1
0
LINE
5
356
100
AcDbEntity
8
1
62
256
6
ByLayer
370
18
48
1
60
1
100
AcDbLine
10
269.049425
20
-19.825003
30
0
11
270.900575
21
-19.824997
31
0
39
0
210
0
220
0
230
1
0
LINE
5
357
100
AcDbEntity
8
1
62
256
6
ByLayer
370
18
48
1
60
1
100
AcDbLine
10
270.900575
20
-19.824997
30
0
11
269.975
21
-24
31
0
39
0
210
0
220
0
230
1
0
LINE
5
359
100
AcDbEntity
8
1
62
256
6
ByLayer
370
18
48
1
60
1
100
AcDbLine
10
269.975
20
24
30
0
11
270.900575
21
19.825003
31
0
39
0
210
0
220
0
230
1
0
LINE
5
35A
100
AcDbEntity
8
1
62
256
6
ByLayer
370
18
48
1
60
1
100
AcDbLine
10
270.900575
20
19.825003
30
0
11
269.049425
21
19.824997
31
0
39
0
210
0
220
0
230
1
0
LINE
5
35B
100
AcDbEntity
8
1
62
256
6
ByLayer
370
18
48
1
60
1
100
AcDbLine
10
269.049425
20
19.824997
30
0
11
269.975
21
24
31
0
39
0
210
0
220
0
230
1
0
MTEXT
5
33D
100
AcDbEntity
8
SK2
62
256
6
ByLayer
370
18
48
1
60
0
100
AcDbMText
10
-40.736672
20
-6.949399
30
0
210
0
220
0
230
1
1
%%c
40
4.5
41
0
44
1.084337
50
90
71
7
72
5
7
iso_b_vert
0
MTEXT
5
340
100
AcDbEntity
8
SK2
62
256
6
ByLayer
370
18
48
1
60
0
100
AcDbMText
10
-40.736672
20
4.265444
30
0
210
0
220
0
230
1
1
\W0.6740;50
40
4.5
41
0
44
1.084337
50
90
71
7
72
5
7
iso_b_vert
0
MTEXT
5
349
100
AcDbEntity
8
SK2
62
256
6
ByLayer
370
18
48
1
60
0
100
AcDbMText
10
-50.736672
20
-6.949399
30
0
210
0
220
0
230
1
1
%%c
40
4.5
41
0
44
1.084337
50
90
71
7
72
5
7
iso_b_vert
0
MTEXT
5
34A
100
AcDbEntity
8
SK2
62
256
6
ByLayer
370
18
48
1
60
0
100
AcDbMText
10
-50.736672
20
4.265444
30
0
210
0
220
0
230
1
1
\W0.6740;68
40
4.5
41
0
44
1.084337
50
90
71
7
72
5
7
iso_b_vert
0
MTEXT
5
353
100
AcDbEntity
8
2
62
256
6
ByLayer
370
18
48
1
60
0
100
AcDbMText
10
267.963328
20
-7.186314
30
0
210
0
220
0
230
1
1
%%c
40
4.5
41
0
44
1.084337
50
90
71
7
72
5
7
iso_b_vert
0
MTEXT
5
354
100
AcDbEntity
8
2
62
256
6
ByLayer
370
18
48
1
60
0
100
AcDbMText
10
267.963328
20
4.02853
30
0
210
0
220
0
230
1
1
\W0.7361;48
40
4.5
41
0
44
1.084337
50
90
71
7
72
5
7
iso_b_vert
0
MTEXT
5
35D
100
AcDbEntity
8
SK6
62
256
6
ByLayer
370
18
48
1
60
0
100
AcDbMText
10
9.308916
20
-94.592562
30
0
210
0
220
0
230
1
1
\W0.7794;DS20-D4800DM50-04
40
3.5
41
0
44
1.084337
50
0
71
7
72
5
7
iso_b_vert
0
HATCH
5
344
100
AcDbEntity
8
SK2
62
256
6
ByLayer
370
13
48
1
60
0
100
AcDbHatch
10
0
20
0
30
0
210
0
220
0
230
1
2
ANSI31
70
0
71
0
91
1
92
5
93
3
72
1
10
-38.7250000000001
20
-25
11
-39.650575216528
21
-20.8250033998276
72
1
10
-39.650575216528
20
-20.8250033998276
11
-37.7994247834721
21
-20.8249966001723
72
1
10
-37.7994247834721
20
-20.8249966001723
11
-38.7250000000001
21
-25
97
0
75
0
76
1
52
0
41
0.0062
77
0
78
1
53
45
43
0
44
0
45
-0.0139193969876572
46
0.0139193969876572
79
0
47
0
98
1
10
0
20
0
0
HATCH
5
348
100
AcDbEntity
8
SK2
62
256
6
ByLayer
370
13
48
1
60
0
100
AcDbHatch
10
0
20
0
30
0
210
0
220
0
230
1
2
ANSI31
70
0
71
0
91
1
92
5
93
3
72
1
10
-38.7250000000001
20
25
11
-37.7994247834721
21
20.8250033998276
72
1
10
-37.7994247834721
20
20.8250033998276
11
-39.650575216528
21
20.8249966001724
72
1
10
-39.650575216528
20
20.8249966001724
11
-38.7250000000001
21
25
97
0
75
0
76
1
52
0
41
0.0062
77
0
78
1
53
45
43
0
44
0
45
-0.0139193969876572
46
0.0139193969876572
79
0
47
0
98
1
10
0
20
0
0
HATCH
5
34E
100
AcDbEntity
8
SK2
62
256
6
ByLayer
370
13
48
1
60
0
100
AcDbHatch
10
0
20
0
30
0
210
0
220
0
230
1
2
ANSI31
70
0
71
0
91
1
92
5
93
3
72
1
10
-48.7250000000001
20
34
11
-47.7994247834721
21
29.8250033998276
72
1
10
-47.7994247834721
20
29.8250033998276
11
-49.650575216528
21
29.8249966001724
72
1
10
-49.650575216528
20
29.8249966001724
11
-48.7250000000001
21
34
97
0
75
0
76
1
52
0
41
0.0062
77
0
78
1
53
45
43
0
44
0
45
-0.0139193969876572
46
0.0139193969876572
79
0
47
0
98
1
10
0
20
0
0
HATCH
5
352
100
AcDbEntity
8
SK2
62
256
6
ByLayer
370
13
48
1
60
0
100
AcDbHatch
10
0
20
0
30
0
210
0
220
0
230
1
2
ANSI31
70
0
71
0
91
1
92
5
93
3
72
1
10
-48.7250000000001
20
-34
11
-49.650575216528
21
-29.8250033998276
72
1
10
-49.650575216528
20
-29.8250033998276
11
-47.7994247834721
21
-29.8249966001724
72
1
10
-47.7994247834721
20
-29.8249966001724
11
-48.7250000000001
21
-34
97
0
75
0
76
1
52
0
41
0.0062
77
0
78
1
53
45
43
0
44
0
45
-0.0139193969876572
46
0.0139193969876572
79
0
47
0
98
1
10
0
20
0
0
HATCH
5
358
100
AcDbEntity
8
2
62
256
6
ByLayer
370
13
48
1
60
0
100
AcDbHatch
10
0
20
0
30
0
210
0
220
0
230
1
2
ANSI31
70
0
71
0
91
1
92
5
93
3
72
1
10
269.975
20
-24.0000000000003
11
269.049424783472
21
-19.8250033998279
72
1
10
269.049424783472
20
-19.8250033998279
11
270.900575216528
21
-19.8249966001727
72
1
10
270.900575216528
20
-19.8249966001727
11
269.975
21
-24.0000000000003
97
0
75
0
76
1
52
0
41
0.0062
77
0
78
1
53
45
43
0
44
0
45
-0.0139193969876572
46
0.0139193969876572
79
0
47
0
98
1
10
0
20
0
0
HATCH
5
35C
100
AcDbEntity
8
2
62
256
6
ByLayer
370
13
48
1
60
0
100
AcDbHatch
10
0
20
0
30
0
210
0
220
0
230
1
2
ANSI31
70
0
71
0
91
1
92
5
93
3
72
1
10
269.975
20
23.9999999999997
11
270.900575216528
21
19.8250033998273
72
1
10
270.900575216528
20
19.8250033998273
11
269.049424783472
21
19.8249966001721
72
1
10
269.049424783472
20
19.8249966001721
11
269.975
21
23.9999999999997
97
0
75
0
76
1
52
0
41
0.0062
77
0
78
1
53
45
43
0
44
0
45
-0.0139193969876572
46
0.0139193969876572
79
0
47
0
98
1
10
0
20
0
0
DIMENSION
5
360
100
AcDbEntity
8
2
62
256
6
ByLayer
370
18
48
1
60
0
100
AcDbDimension
2
_U0
10
243
20
-82.85
30
0
11
121.5
21
-82.85
31
0
70
32
71
1
72
1
41
1
210
0
220
0
230
1
3
Standard
100
AcDbAlignedDimension
13
0
23
-34
33
0
14
243
24
-24
34
0
50
0
100
AcDbRotatedDimension
1001
ACAD
1000
DSTYLE
1002
{
1070
   371
1070
    13
1070
   372
1070
    13
1070
   170
1070
     0
1070
   144
1040
1.0
1070
   277
1070
     2
1070
   284
1070
     8
1070
   278
1070
    46
1070
   146
1040
0.777778
1070
   345
1005
16
1070
   347
1005
16
1070
   346
1005
16
1070
   344
1005
0
1070
   343
1005
0
1070
   172
1070
     1
1070
    76
1070
     0
1070
    75
1070
     0
1070
   282
1070
     0
1070
   281
1070
     0
1070
    71
1070
     0
1070
    74
1070
     0
1070
   279
1070
     0
1070
   173
1070
     1
1070
   340
1005
33E
1070
   271
1070
     1
1070
   272
1070
     2
1070
    77
1070
     1
1070
    73
1070
     1
1070
   171
1070
     3
1070
   274
1070
     4
1070
   177
1070
   150
1070
   176
1070
     9
1070
   178
1070
    43
1070
    78
1070
     8
1070
    48
1040
-0.1
1070
    41
1040
4.175
1070
   147
1040
2.25
1070
    42
1040
1.5875
1070
    44
1040
3.175
1070
   140
1040
4.5
1002
}
1001
ACAD_DSTYLE_DIM_LINETYPE
1070
   380
1005
16
1001
ACAD_DSTYLE_DIM_EXT1_LINETYPE
1070
   381
1005
16
1001
ACAD_DSTYLE_DIM_EXT2_LINETYPE
1070
   382
1005
16
0
DIMENSION
5
379
100
AcDbEntity
8
SK2
62
256
6
ByLayer
370
18
48
1
60
0
100
AcDbDimension
2
_U1
10
0
20
-82.85
30
0
11
-9
21
-82.85
31
0
70
32
71
1
72
1
41
1
210
0
220
0
230
1
3
Standard
100
AcDbAlignedDimension
13
-18
23
-25
33
0
14
0
24
-34
34
0
50
0
100
AcDbRotatedDimension
1001
ACAD
1000
DSTYLE
1002
{
1070
   371
1070
    13
1070
   372
1070
    13
1070
   170
1070
     0
1070
   144
1040
1.0
1070
   277
1070
     2
1070
   284
1070
     8
1070
   278
1070
    46
1070
   146
1040
0.777778
1070
   345
1005
16
1070
   347
1005
16
1070
   346
1005
16
1070
   344
1005
0
1070
   343
1005
0
1070
   172
1070
     1
1070
    76
1070
     0
1070
    75
1070
     0
1070
   282
1070
     0
1070
   281
1070
     0
1070
    71
1070
     0
1070
    74
1070
     0
1070
   279
1070
     0
1070
   173
1070
     1
1070
   340
1005
33E
1070
   271
1070
     1
1070
   272
1070
     2
1070
    77
1070
     1
1070
    73
1070
     1
1070
   171
1070
     3
1070
   274
1070
     4
1070
   177
1070
   150
1070
   176
1070
     9
1070
   178
1070
    43
1070
    78
1070
     8
1070
    48
1040
-0.1
1070
    41
1040
4.175
1070
   147
1040
2.25
1070
    42
1040
1.5875
1070
    44
1040
3.175
1070
   140
1040
4.5
1002
}
1001
ACAD_DSTYLE_DIM_LINETYPE
1070
   380
1005
16
1001
ACAD_DSTYLE_DIM_EXT1_LINETYPE
1070
   381
1005
16
1001
ACAD_DSTYLE_DIM_EXT2_LINETYPE
1070
   382
1005
16
0
DIMENSION
5
392
100
AcDbEntity
8
SK2
62
256
6
ByLayer
370
18
48
1
60
0
100
AcDbDimension
2
_U2
10
17.5518
20
-72.85
30
0
11
130.2759
21
-72.85
31
0
70
32
71
1
72
1
41
1
210
0
220
0
230
1
3
Standard
100
AcDbAlignedDimension
13
243
23
-24
33
0
14
17.5518
24
-34
34
0
50
0
100
AcDbRotatedDimension
1001
ACAD
1000
DSTYLE
1002
{
1070
   371
1070
    13
1070
   372
1070
    13
1070
   170
1070
     0
1070
   144
1040
1.0
1070
   277
1070
     2
1070
   284
1070
     8
1070
   278
1070
    46
1070
   146
1040
0.777778
1070
   345
1005
16
1070
   347
1005
16
1070
   346
1005
16
1070
   344
1005
0
1070
   343
1005
0
1070
   172
1070
     1
1070
    76
1070
     0
1070
    75
1070
     0
1070
   282
1070
     0
1070
   281
1070
     0
1070
    71
1070
     0
1070
    74
1070
     0
1070
   279
1070
     0
1070
   173
1070
     1
1070
   340
1005
33E
1070
   271
1070
     1
1070
   272
1070
     2
1070
    77
1070
     1
1070
    73
1070
     1
1070
   171
1070
     3
1070
   274
1070
     4
1070
   177
1070
   150
1070
   176
1070
     9
1070
   178
1070
    43
1070
    78
1070
     8
1070
    48
1040
-0.1
1070
    41
1040
4.175
1070
   147
1040
2.25
1070
    42
1040
1.5875
1070
    44
1040
3.175
1070
   140
1040
4.5
1002
}
1001
ACAD_DSTYLE_DIM_LINETYPE
1070
   380
1005
16
1001
ACAD_DSTYLE_DIM_EXT1_LINETYPE
1070
   381
1005
16
1001
ACAD_DSTYLE_DIM_EXT2_LINETYPE
1070
   382
1005
16
0
DIMENSION
5
3AA
100
AcDbEntity
8
SK2
62
256
6
ByLayer
370
18
48
1
60
0
100
AcDbDimension
2
_U3
10
243
20
-62.85
30
0
11
144.5
21
-62.85
31
0
70
32
71
1
72
1
41
1
210
0
220
0
230
1
3
Standard
100
AcDbAlignedDimension
13
46
23
-24
33
0
14
243
24
-24
34
0
50
0
100
AcDbRotatedDimension
1001
ACAD
1000
DSTYLE
1002
{
1070
   371
1070
    13
1070
   372
1070
    13
1070
   170
1070
     0
1070
   144
1040
1.0
1070
   277
1070
     2
1070
   284
1070
     8
1070
   278
1070
    46
1070
   146
1040
0.777778
1070
   345
1005
16
1070
   347
1005
16
1070
   346
1005
16
1070
   344
1005
0
1070
   343
1005
0
1070
   172
1070
     1
1070
    76
1070
     0
1070
    75
1070
     0
1070
   282
1070
     0
1070
   281
1070
     0
1070
    71
1070
     0
1070
    74
1070
     0
1070
   279
1070
     0
1070
   173
1070
     1
1070
   340
1005
33E
1070
   271
1070
     1
1070
   272
1070
     2
1070
    77
1070
     1
1070
    73
1070
     1
1070
   171
1070
     3
1070
   274
1070
     4
1070
   177
1070
   150
1070
   176
1070
     9
1070
   178
1070
    43
1070
    78
1070
     8
1070
    48
1040
-0.1
1070
    41
1040
4.175
1070
   147
1040
2.25
1070
    42
1040
1.5875
1070
    44
1040
3.175
1070
   140
1040
4.5
1002
}
1001
ACAD_DSTYLE_DIM_LINETYPE
1070
   380
1005
16
1001
ACAD_DSTYLE_DIM_EXT1_LINETYPE
1070
   381
1005
16
1001
ACAD_DSTYLE_DIM_EXT2_LINETYPE
1070
   382
1005
16
0
DIMENSION
5
3C2
100
AcDbEntity
8
2
62
256
6
ByLayer
370
18
48
1
60
0
100
AcDbDimension
2
_U4
10
243
20
-52.85
30
0
11
265.029464
21
-52.85
31
0
70
32
71
1
72
1
41
1
210
0
220
0
230
1
3
Standard
100
AcDbAlignedDimension
13
241.7234
23
-12
33
0
14
243
24
0
34
0
50
0
100
AcDbRotatedDimension
1001
ACAD
1000
DSTYLE
1002
{
1070
   371
1070
    13
1070
   372
1070
    13
1070
   170
1070
     0
1070
   144
1040
1.0
1070
   277
1070
     2
1070
   284
1070
     8
1070
   278
1070
    46
1070
   146
1040
0.777778
1070
   345
1005
16
1070
   347
1005
16
1070
   346
1005
16
1070
   344
1005
0
1070
   343
1005
0
1070
   172
1070
     1
1070
    76
1070
     0
1070
    75
1070
     0
1070
   282
1070
     0
1070
   281
1070
     0
1070
    71
1070
     0
1070
    74
1070
     0
1070
   279
1070
     0
1070
   173
1070
     1
1070
   340
1005
33E
1070
   271
1070
     2
1070
   272
1070
     2
1070
    77
1070
     1
1070
    73
1070
     1
1070
   171
1070
     3
1070
   274
1070
     4
1070
   177
1070
   150
1070
   176
1070
     9
1070
   178
1070
    43
1070
    78
1070
     8
1070
    48
1040
-0.1
1070
    41
1040
4.175
1070
   147
1040
2.25
1070
    42
1040
1.5875
1070
    44
1040
3.175
1070
   140
1040
4.5
1002
}
1001
ACAD_DSTYLE_DIM_LINETYPE
1070
   380
1005
16
1001
ACAD_DSTYLE_DIM_EXT1_LINETYPE
1070
   381
1005
16
1001
ACAD_DSTYLE_DIM_EXT2_LINETYPE
1070
   382
1005
16
0
ENDSEC
0
SECTION
2
OBJECTS
0
DICTIONARY
5
44c
330
0
100
AcDbDictionary
280
0
281
1
3
ACAD_GROUP
350
44d
3
ACAD_MLINESTYLE
350
44e
0
DICTIONARY
5
44d
330
0
100
AcDbDictionary
280
0
281
1
0
DICTIONARY
5
44e
330
0
100
AcDbDictionary
280
0
281
1
3
Standard
350
18
0
MLINESTYLE
5
18
330
44e
100
AcDbMlineStyle
2
Standard
70
0
3

62
256
51
90
52
90
71
2
49
-0.5
62
256
6
ByLayer
49
0.5
62
256
6
ByLayer
0
RASTERVARIABLES
5
43a
330

100
AcDbRasterVariables
90
0
70
1
71
1
72
1
0
ENDSEC
0
EOF
