0
SECTION
2
HEADER
9
$ACADVER
1
AC1015
9
$DWGCODEPAGE
3
ANSI_1252
9
$HANDSEED
5
45a
9
$ANGBASE
50
0
9
$ANGDIR
70
0
9
$ATTMODE
70
1
9
$AUNITS
70
0
9
$AUPREC
70
0
9
$CECOLOR
62
256
9
$CELTSCALE
40
1
9
$CELTYPE
6
ByLayer
9
$CELWEIGHT
370
18
9
$CLAYER
8
0
9
$CMLJUST
70
0
9
$CMLSCALE
40
1
9
$CMLSTYLE
2
Standard
9
$DIMSTYLE
2
Standard
9
$TEXTSIZE
40
0.2
9
$TEXTSTYLE
7
Standard
9
$LUNITS
70
2
9
$LUPREC
70
4
9
$EXTNAMES
290
1
9
$INSUNITS
70
4
9
$LTSCALE
40
1
9
$LWDISPLAY
290
1
9
$PDMODE
70
0
9
$PDSIZE
40
0
9
$PLINEGEN
70
0
0
ENDSEC
0
SECTION
2
CLASSES
0
CLASS
1
RASTERVARIABLES
2
AcDbRasterVariables
3
ISM
90
0
280
0
281
0
0
ENDSEC
0
SECTION
2
TABLES
0
TABLE
2
VPORT
5
450
100
AcDbSymbolTable
0
VPORT
5
1
100
AcDbSymbolTableRecord
100
AcDbViewportTableRecord
2
*Active
70
0
10
0
20
0
11
1
21
1
12
-1
22
1
13
0
23
0
14
0.5
24
0.5
15
10
25
10
16
0
26
0
36
1
17
0
27
0
37
0
0
ENDTAB
0
TABLE
2
LTYPE
5
451
100
AcDbSymbolTable
0
LTYPE
5
14
100
AcDbSymbolTableRecord
100
AcDbLinetypeTableRecord
70
0
2
ByBlock
3

72
65
73
0
40
0
0
LTYPE
5
15
100
AcDbSymbolTableRecord
100
AcDbLinetypeTableRecord
70
0
2
ByLayer
3

72
65
73
0
40
0
0
LTYPE
5
16
100
AcDbSymbolTableRecord
100
AcDbLinetypeTableRecord
70
0
2
Continuous
3
Solid line
72
65
73
0
40
0
0
LTYPE
5
6E
100
AcDbSymbolTableRecord
100
AcDbLinetypeTableRecord
70
0
2
CENTER
3
____ _ ____ _ ____ _ ____
72
65
73
4
40
47.5
49
22
74
0
49
-8.5
74
0
49
8.5
74
0
49
-8.5
74
0
0
LTYPE
5
6F
100
AcDbSymbolTableRecord
100
AcDbLinetypeTableRecord
70
0
2
DASHED
3
__ __ __ __ __ __ __ __ __
72
65
73
2
40
25.72
49
12.86
74
0
49
-12.86
74
0
0
ENDTAB
0
TABLE
2
LAYER
5
452
100
AcDbSymbolTable
0
LAYER
5
10
100
AcDbSymbolTableRecord
100
AcDbLayerTableRecord
2
0
70
0
62
7
6
Continuous
290
1
370
-3
390
0
0
LAYER
5
71
100
AcDbSymbolTableRecord
100
AcDbLayerTableRecord
2
1
70
0
62
4
6
Continuous
290
1
370
-3
390
0
0
LAYER
5
73
100
AcDbSymbolTableRecord
100
AcDbLayerTableRecord
2
80
70
0
62
-6
6
Continuous
290
1
370
-3
390
0
0
LAYER
5
75
100
AcDbSymbolTableRecord
100
AcDbLayerTableRecord
2
81
70
0
62
-3
6
Continuous
290
1
370
-3
390
0
0
LAYER
5
148
100
AcDbSymbolTableRecord
100
AcDbLayerTableRecord
2
4
70
0
62
-2
6
CENTER
290
1
370
-3
390
0
0
LAYER
5
185
100
AcDbSymbolTableRecord
100
AcDbLayerTableRecord
2
2
70
0
62
7
6
Continuous
290
1
370
-3
390
0
0
LAYER
5
364
100
AcDbSymbolTableRecord
100
AcDbLayerTableRecord
2
Defpoints
70
0
62
7
6
Continuous
290
0
370
-3
390
0
0
LAYER
5
43c
100
AcDbSymbolTableRecord
100
AcDbLayerTableRecord
2
SK1
70
0
62
4
6
Continuous
290
1
370
-3
390
0
0
LAYER
5
43d
100
AcDbSymbolTableRecord
100
AcDbLayerTableRecord
2
SK4
70
0
62
2
6
CENTER
290
1
370
-3
390
0
0
LAYER
5
43e
100
AcDbSymbolTableRecord
100
AcDbLayerTableRecord
2
SK2
70
0
62
7
6
Continuous
290
1
370
-3
390
0
0
LAYER
5
43f
100
AcDbSymbolTableRecord
100
AcDbLayerTableRecord
2
SK6
70
0
62
5
6
Continuous
290
1
370
-3
390
0
0
ENDTAB
0
TABLE
2
STYLE
5
453
100
AcDbSymbolTable
0
STYLE
5
11
100
AcDbSymbolTableRecord
100
AcDbTextStyleTableRecord
2
Standard
3
txt
70
0
71
0
40
0
41
1
42
0
50
0
0
STYLE
5
33F
100
AcDbSymbolTableRecord
100
AcDbTextStyleTableRecord
2
iso_b_vert
3
simplex.shx
70
0
71
0
40
0
41
1
42
0
50
0
0
STYLE
5
340
100
AcDbSymbolTableRecord
100
AcDbTextStyleTableRecord
2
DWGDirectTextStyle
3
simplex
70
0
71
0
40
0
41
1
42
0
50
0
0
ENDTAB
0
TABLE
2
DIMSTYLE
5
454
100
AcDbSymbolTable
100
AcDbDimStyleTable
0
DIMSTYLE
105
27
100
AcDbSymbolTableRecord
100
AcDbDimStyleTableRecord
2
Standard
70
0
3
<>
41
0.18
42
0.0625
44
0.18
140
0.18
147
0.09
73
0
74
0
77
1
271
2
275
0
278
52
280
0
340
11
0
ENDTAB
0
TABLE
2
VIEW
5
455
100
AcDbSymbolTable
0
ENDTAB
0
TABLE
2
UCS
5
456
100
AcDbSymbolTable
0
ENDTAB
0
TABLE
2
APPID
5
457
100
AcDbSymbolTable
0
APPID
5
12
100
AcDbSymbolTableRecord
100
AcDbRegAppTableRecord
2
ACAD
70
0
0
APPID
5
360
100
AcDbSymbolTableRecord
100
AcDbRegAppTableRecord
2
ACAD_DSTYLE_DIMBREAK
70
0
0
APPID
5
3FB
100
AcDbSymbolTableRecord
100
AcDbRegAppTableRecord
2
ACAD_DSTYLE_DIM_LINETYPE
70
0
0
APPID
5
3FC
100
AcDbSymbolTableRecord
100
AcDbRegAppTableRecord
2
ACAD_DSTYLE_DIM_EXT1_LINETYPE
70
0
0
APPID
5
3FD
100
AcDbSymbolTableRecord
100
AcDbRegAppTableRecord
2
ACAD_DSTYLE_DIM_EXT2_LINETYPE
70
0
0
APPID
5
438
100
AcDbSymbolTableRecord
100
AcDbRegAppTableRecord
2
ACAD_MLEADERVER
70
0
0
ENDTAB
0
TABLE
2
BLOCK_RECORD
5
458
100
AcDbSymbolTable
0
BLOCK_RECORD
5
1F
100
AcDbSymbolTableRecord
100
AcDbBlockTableRecord
2
*Model_Space
340
0
70
0
0
BLOCK_RECORD
5
1B
100
AcDbSymbolTableRecord
100
AcDbBlockTableRecord
2
*Paper_Space
340
0
70
0
0
BLOCK_RECORD
5
23
100
AcDbSymbolTableRecord
100
AcDbBlockTableRecord
2
*Paper_Space0
340
0
70
0
0
BLOCK_RECORD
5
365
100
AcDbSymbolTableRecord
100
AcDbBlockTableRecord
2
*D1
340
0
70
0
0
BLOCK_RECORD
5
371
100
AcDbSymbolTableRecord
100
AcDbBlockTableRecord
2
_U0
340
0
70
0
0
BLOCK_RECORD
5
37D
100
AcDbSymbolTableRecord
100
AcDbBlockTableRecord
2
*D3
340
0
70
0
0
BLOCK_RECORD
5
38A
100
AcDbSymbolTableRecord
100
AcDbBlockTableRecord
2
_U1
340
0
70
0
0
BLOCK_RECORD
5
396
100
AcDbSymbolTableRecord
100
AcDbBlockTableRecord
2
*D5
340
0
70
0
0
BLOCK_RECORD
5
3A2
100
AcDbSymbolTableRecord
100
AcDbBlockTableRecord
2
_U2
340
0
70
0
0
BLOCK_RECORD
5
3AE
100
AcDbSymbolTableRecord
100
AcDbBlockTableRecord
2
*D7
340
0
70
0
0
BLOCK_RECORD
5
3BA
100
AcDbSymbolTableRecord
100
AcDbBlockTableRecord
2
_U3
340
0
70
0
0
BLOCK_RECORD
5
3C6
100
AcDbSymbolTableRecord
100
AcDbBlockTableRecord
2
*D9
340
0
70
0
0
BLOCK_RECORD
5
3D4
100
AcDbSymbolTableRecord
100
AcDbBlockTableRecord
2
_U4
340
0
70
0
0
ENDTAB
0
ENDSEC
0
SECTION
2
BLOCKS
0
BLOCK
5
20
100
AcDbEntity
8
0
100
AcDbBlockBegin
2
*Model_Space
70
0
10
0
20
0
30
0
3
*Model_Space
0
ENDBLK
5
21
100
AcDbEntity
8
0
100
AcDbBlockEnd
0
BLOCK
5
1C
100
AcDbEntity
8
0
100
AcDbBlockBegin
2
*Paper_Space
70
0
10
0
20
0
30
0
3
*Paper_Space
0
ENDBLK
5
1D
100
AcDbEntity
8
0
100
AcDbBlockEnd
0
BLOCK
5
24
100
AcDbEntity
8
0
100
AcDbBlockBegin
2
*Paper_Space0
70
0
10
0
20
0
30
0
3
*Paper_Space0
0
ENDBLK
5
25
100
AcDbEntity
8
0
100
AcDbBlockEnd
0
BLOCK
5
366
100
AcDbEntity
8
0
100
AcDbBlockBegin
2
*D1
70
1
10
0
20
0
30
0
3
*D1
0
LINE
5
368
100
AcDbEntity
8
0
62
256
6
ByLayer
370
-2
48
1
60
0
100
AcDbLine
10
0
20
-35.5875
30
0
11
0
21
-86.025
31
0
39
0
210
0
220
0
230
1
0
LINE
5
369
100
AcDbEntity
8
0
62
256
6
ByLayer
370
-2
48
1
60
0
100
AcDbLine
10
236
20
-24.5875
30
0
11
236
21
-86.025
31
0
39
0
210
0
220
0
230
1
0
LINE
5
36A
100
AcDbEntity
8
0
62
256
6
ByLayer
370
-2
48
1
60
0
100
AcDbLine
10
4.175
20
-82.85
30
0
11
231.825
21
-82.85
31
0
39
0
210
0
220
0
230
1
0
SOLID
5
36B
100
AcDbEntity
8
0
62
256
6
ByLayer
370
-1
48
1
60
0
100
AcDbTrace
10
4.175
20
-82.154167
30
0
11
4.175
21
-83.545833
31
0
12
0
22
-82.85
32
0
13
0
23
-82.85
33
0
39
0
210
0
220
0
230
1
0
SOLID
5
36C
100
AcDbEntity
8
0
62
256
6
ByLayer
370
-1
48
1
60
0
100
AcDbTrace
10
231.825
20
-83.545833
30
0
11
231.825
21
-82.154167
31
0
12
236
22
-82.85
32
0
13
236
23
-82.85
33
0
39
0
210
0
220
0
230
1
0
MTEXT
5
36D
100
AcDbEntity
8
0
62
256
6
ByLayer
370
18
48
1
60
0
100
AcDbMText
10
118
20
-73.45625
30
0
210
0
220
0
230
1
1
\A1;236
40
4.5
41
0
44
1
50
0
71
5
72
5
7
iso_b_vert
0
POINT
5
36E
100
AcDbEntity
8
Defpoints
62
0
6
ByLayer
370
-1
48
1
60
0
100
AcDbPoint
10
0
20
-34
30
0
39
0
210
0
220
0
230
1
50
360
0
POINT
5
36F
100
AcDbEntity
8
Defpoints
62
0
6
ByLayer
370
-1
48
1
60
0
100
AcDbPoint
10
236
20
-23
30
0
39
0
210
0
220
0
230
1
50
360
0
POINT
5
370
100
AcDbEntity
8
Defpoints
62
0
6
ByLayer
370
-1
48
1
60
0
100
AcDbPoint
10
236
20
-82.85
30
0
39
0
210
0
220
0
230
1
50
360
0
ENDBLK
5
367
100
AcDbEntity
8
0
100
AcDbBlockEnd
0
BLOCK
5
378
100
AcDbEntity
8
0
100
AcDbBlockBegin
2
_U0
70
0
10
0
20
0
30
0
3
_U0
0
MTEXT
5
372
100
AcDbEntity
8
2
62
256
6
ByLayer
370
18
48
1
60
0
100
AcDbMText
10
113.869387
20
-81.522328
30
0
210
0
220
0
230
1
1
\W0.7138;236
40
4.5
41
0
44
1.084337
50
0
71
7
72
5
7
iso_b_vert
0
LINE
5
373
100
AcDbEntity
8
2
62
256
6
ByLayer
370
13
48
1
60
0
100
AcDbLine
10
0
20
-35.5875
30
0
11
0
21
-86.025
31
0
39
0
210
0
220
0
230
1
0
LINE
5
374
100
AcDbEntity
8
2
62
256
6
ByLayer
370
13
48
1
60
0
100
AcDbLine
10
236
20
-24.5875
30
0
11
236
21
-86.025
31
0
39
0
210
0
220
0
230
1
0
LINE
5
375
100
AcDbEntity
8
2
62
256
6
ByLayer
370
13
48
1
60
0
100
AcDbLine
10
0
20
-82.85
30
0
11
236
21
-82.85
31
0
39
0
210
0
220
0
230
1
0
SOLID
5
376
100
AcDbEntity
8
2
62
256
6
ByLayer
370
18
48
1
60
0
100
AcDbTrace
10
0
20
-82.85
30
0
11
4.174997
21
-81.924425
31
0
12
4.175003
22
-83.775575
32
0
13
4.175003
23
-83.775575
33
0
39
0
210
0
220
0
230
1
0
SOLID
5
377
100
AcDbEntity
8
2
62
256
6
ByLayer
370
18
48
1
60
0
100
AcDbTrace
10
236
20
-82.85
30
0
11
231.825003
21
-83.775575
31
0
12
231.824997
22
-81.924425
32
0
13
231.824997
23
-81.924425
33
0
39
0
210
0
220
0
230
1
0
ENDBLK
5
379
100
AcDbEntity
8
0
100
AcDbBlockEnd
0
BLOCK
5
37E
100
AcDbEntity
8
0
100
AcDbBlockBegin
2
*D3
70
1
10
0
20
0
30
0
3
*D3
0
LINE
5
380
100
AcDbEntity
8
0
62
256
6
ByLayer
370
-2
48
1
60
0
100
AcDbLine
10
-18
20
-26.5875
30
0
11
-18
21
-86.025
31
0
39
0
210
0
220
0
230
1
0
LINE
5
381
100
AcDbEntity
8
0
62
256
6
ByLayer
370
-2
48
1
60
0
100
AcDbLine
10
0
20
-35.5875
30
0
11
0
21
-86.025
31
0
39
0
210
0
220
0
230
1
0
LINE
5
382
100
AcDbEntity
8
0
62
256
6
ByLayer
370
-2
48
1
60
0
100
AcDbLine
10
-22.175
20
-82.85
30
0
11
-26.35
21
-82.85
31
0
39
0
210
0
220
0
230
1
0
LINE
5
383
100
AcDbEntity
8
0
62
256
6
ByLayer
370
-2
48
1
60
0
100
AcDbLine
10
4.175
20
-82.85
30
0
11
8.35
21
-82.85
31
0
39
0
210
0
220
0
230
1
0
SOLID
5
384
100
AcDbEntity
8
0
62
256
6
ByLayer
370
-1
48
1
60
0
100
AcDbTrace
10
-22.175
20
-83.545833
30
0
11
-22.175
21
-82.154167
31
0
12
-18
22
-82.85
32
0
13
-18
23
-82.85
33
0
39
0
210
0
220
0
230
1
0
SOLID
5
385
100
AcDbEntity
8
0
62
256
6
ByLayer
370
-1
48
1
60
0
100
AcDbTrace
10
4.175
20
-82.154167
30
0
11
4.175
21
-83.545833
31
0
12
0
22
-82.85
32
0
13
0
23
-82.85
33
0
39
0
210
0
220
0
230
1
0
MTEXT
5
386
100
AcDbEntity
8
0
62
256
6
ByLayer
370
18
48
1
60
0
100
AcDbMText
10
-9
20
-73.45625
30
0
210
0
220
0
230
1
1
\A1;18
40
4.5
41
0
44
1
50
0
71
5
72
5
7
iso_b_vert
0
POINT
5
387
100
AcDbEntity
8
Defpoints
62
0
6
ByLayer
370
-1
48
1
60
0
100
AcDbPoint
10
-18
20
-25
30
0
39
0
210
0
220
0
230
1
50
360
0
POINT
5
388
100
AcDbEntity
8
Defpoints
62
0
6
ByLayer
370
-1
48
1
60
0
100
AcDbPoint
10
0
20
-34
30
0
39
0
210
0
220
0
230
1
50
360
0
POINT
5
389
100
AcDbEntity
8
Defpoints
62
0
6
ByLayer
370
-1
48
1
60
0
100
AcDbPoint
10
0
20
-82.85
30
0
39
0
210
0
220
0
230
1
50
360
0
ENDBLK
5
37F
100
AcDbEntity
8
0
100
AcDbBlockEnd
0
BLOCK
5
391
100
AcDbEntity
8
0
100
AcDbBlockBegin
2
_U1
70
0
10
0
20
0
30
0
3
_U1
0
MTEXT
5
38B
100
AcDbEntity
8
SK2
62
256
6
ByLayer
370
18
48
1
60
0
100
AcDbMText
10
-10.886828
20
-81.522328
30
0
210
0
220
0
230
1
1
\W0.5321;18
40
4.5
41
0
44
1.084337
50
0
71
7
72
5
7
iso_b_vert
0
LINE
5
38C
100
AcDbEntity
8
SK2
62
256
6
ByLayer
370
13
48
1
60
0
100
AcDbLine
10
-18
20
-26.5875
30
0
11
-18
21
-86.025
31
0
39
0
210
0
220
0
230
1
0
LINE
5
38D
100
AcDbEntity
8
SK2
62
256
6
ByLayer
370
13
48
1
60
0
100
AcDbLine
10
0
20
-35.5875
30
0
11
0
21
-86.025
31
0
39
0
210
0
220
0
230
1
0
LINE
5
38E
100
AcDbEntity
8
SK2
62
256
6
ByLayer
370
13
48
1
60
0
100
AcDbLine
10
-18
20
-82.85
30
0
11
0
21
-82.85
31
0
39
0
210
0
220
0
230
1
0
SOLID
5
38F
100
AcDbEntity
8
SK2
62
256
6
ByLayer
370
18
48
1
60
0
100
AcDbTrace
10
-18
20
-82.85
30
0
11
-13.825003
21
-81.924425
31
0
12
-13.824997
22
-83.775575
32
0
13
-13.824997
23
-83.775575
33
0
39
0
210
0
220
0
230
1
0
SOLID
5
390
100
AcDbEntity
8
SK2
62
256
6
ByLayer
370
18
48
1
60
0
100
AcDbTrace
10
0
20
-82.85
30
0
11
-4.174997
21
-83.775575
31
0
12
-4.175003
22
-81.924425
32
0
13
-4.175003
23
-81.924425
33
0
39
0
210
0
220
0
230
1
0
ENDBLK
5
392
100
AcDbEntity
8
0
100
AcDbBlockEnd
0
BLOCK
5
397
100
AcDbEntity
8
0
100
AcDbBlockBegin
2
*D5
70
1
10
0
20
0
30
0
3
*D5
0
LINE
5
399
100
AcDbEntity
8
0
62
256
6
ByLayer
370
-2
48
1
60
0
100
AcDbLine
10
236
20
-24.5875
30
0
11
236
21
-76.025
31
0
39
0
210
0
220
0
230
1
0
LINE
5
39A
100
AcDbEntity
8
0
62
256
6
ByLayer
370
-2
48
1
60
0
100
AcDbLine
10
18.3957
20
-35.5875
30
0
11
18.3957
21
-76.025
31
0
39
0
210
0
220
0
230
1
0
LINE
5
39B
100
AcDbEntity
8
0
62
256
6
ByLayer
370
-2
48
1
60
0
100
AcDbLine
10
231.825
20
-72.85
30
0
11
22.5707
21
-72.85
31
0
39
0
210
0
220
0
230
1
0
SOLID
5
39C
100
AcDbEntity
8
0
62
256
6
ByLayer
370
-1
48
1
60
0
100
AcDbTrace
10
231.825
20
-73.545833
30
0
11
231.825
21
-72.154167
31
0
12
236
22
-72.85
32
0
13
236
23
-72.85
33
0
39
0
210
0
220
0
230
1
0
SOLID
5
39D
100
AcDbEntity
8
0
62
256
6
ByLayer
370
-1
48
1
60
0
100
AcDbTrace
10
22.5707
20
-72.154167
30
0
11
22.5707
21
-73.545833
31
0
12
18.3957
22
-72.85
32
0
13
18.3957
23
-72.85
33
0
39
0
210
0
220
0
230
1
0
MTEXT
5
39E
100
AcDbEntity
8
0
62
256
6
ByLayer
370
18
48
1
60
0
100
AcDbMText
10
127.19785
20
-63.45625
30
0
210
0
220
0
230
1
1
\A1;217.6
40
4.5
41
0
44
1
50
0
71
5
72
5
7
iso_b_vert
0
POINT
5
39F
100
AcDbEntity
8
Defpoints
62
0
6
ByLayer
370
-1
48
1
60
0
100
AcDbPoint
10
236
20
-23
30
0
39
0
210
0
220
0
230
1
50
360
0
POINT
5
3A0
100
AcDbEntity
8
Defpoints
62
0
6
ByLayer
370
-1
48
1
60
0
100
AcDbPoint
10
18.3957
20
-34
30
0
39
0
210
0
220
0
230
1
50
360
0
POINT
5
3A1
100
AcDbEntity
8
Defpoints
62
0
6
ByLayer
370
-1
48
1
60
0
100
AcDbPoint
10
18.3957
20
-72.85
30
0
39
0
210
0
220
0
230
1
50
360
0
ENDBLK
5
398
100
AcDbEntity
8
0
100
AcDbBlockEnd
0
BLOCK
5
3A9
100
AcDbEntity
8
0
100
AcDbBlockBegin
2
_U2
70
0
10
0
20
0
30
0
3
_U2
0
MTEXT
5
3A3
100
AcDbEntity
8
SK2
62
256
6
ByLayer
370
18
48
1
60
0
100
AcDbMText
10
121.036709
20
-71.522328
30
0
210
0
220
0
230
1
1
\W0.6864;217.6
40
4.5
41
0
44
1.084337
50
0
71
7
72
5
7
iso_b_vert
0
LINE
5
3A4
100
AcDbEntity
8
SK2
62
256
6
ByLayer
370
13
48
1
60
0
100
AcDbLine
10
236
20
-24.5875
30
0
11
236
21
-76.025
31
0
39
0
210
0
220
0
230
1
0
LINE
5
3A5
100
AcDbEntity
8
SK2
62
256
6
ByLayer
370
13
48
1
60
0
100
AcDbLine
10
18.3957
20
-35.5875
30
0
11
18.3957
21
-76.025
31
0
39
0
210
0
220
0
230
1
0
LINE
5
3A6
100
AcDbEntity
8
SK2
62
256
6
ByLayer
370
13
48
1
60
0
100
AcDbLine
10
236
20
-72.85
30
0
11
18.3957
21
-72.85
31
0
39
0
210
0
220
0
230
1
0
SOLID
5
3A7
100
AcDbEntity
8
SK2
62
256
6
ByLayer
370
18
48
1
60
0
100
AcDbTrace
10
236
20
-72.85
30
0
11
231.825003
21
-73.775575
31
0
12
231.824997
22
-71.924425
32
0
13
231.824997
23
-71.924425
33
0
39
0
210
0
220
0
230
1
0
SOLID
5
3A8
100
AcDbEntity
8
SK2
62
256
6
ByLayer
370
18
48
1
60
0
100
AcDbTrace
10
18.3957
20
-72.85
30
0
11
22.570697
21
-71.924425
31
0
12
22.570703
22
-73.775575
32
0
13
22.570703
23
-73.775575
33
0
39
0
210
0
220
0
230
1
0
ENDBLK
5
3AA
100
AcDbEntity
8
0
100
AcDbBlockEnd
0
BLOCK
5
3AF
100
AcDbEntity
8
0
100
AcDbBlockBegin
2
*D7
70
1
10
0
20
0
30
0
3
*D7
0
LINE
5
3B1
100
AcDbEntity
8
0
62
256
6
ByLayer
370
-2
48
1
60
0
100
AcDbLine
10
47
20
-24.5875
30
0
11
47
21
-66.025
31
0
39
0
210
0
220
0
230
1
0
LINE
5
3B2
100
AcDbEntity
8
0
62
256
6
ByLayer
370
-2
48
1
60
0
100
AcDbLine
10
236
20
-24.5875
30
0
11
236
21
-66.025
31
0
39
0
210
0
220
0
230
1
0
LINE
5
3B3
100
AcDbEntity
8
0
62
256
6
ByLayer
370
-2
48
1
60
0
100
AcDbLine
10
51.175
20
-62.85
30
0
11
231.825
21
-62.85
31
0
39
0
210
0
220
0
230
1
0
SOLID
5
3B4
100
AcDbEntity
8
0
62
256
6
ByLayer
370
-1
48
1
60
0
100
AcDbTrace
10
51.175
20
-62.154167
30
0
11
51.175
21
-63.545833
31
0
12
47
22
-62.85
32
0
13
47
23
-62.85
33
0
39
0
210
0
220
0
230
1
0
SOLID
5
3B5
100
AcDbEntity
8
0
62
256
6
ByLayer
370
-1
48
1
60
0
100
AcDbTrace
10
231.825
20
-63.545833
30
0
11
231.825
21
-62.154167
31
0
12
236
22
-62.85
32
0
13
236
23
-62.85
33
0
39
0
210
0
220
0
230
1
0
MTEXT
5
3B6
100
AcDbEntity
8
0
62
256
6
ByLayer
370
18
48
1
60
0
100
AcDbMText
10
141.5
20
-53.45625
30
0
210
0
220
0
230
1
1
\A1;189
40
4.5
41
0
44
1
50
0
71
5
72
5
7
iso_b_vert
0
POINT
5
3B7
100
AcDbEntity
8
Defpoints
62
0
6
ByLayer
370
-1
48
1
60
0
100
AcDbPoint
10
47
20
-23
30
0
39
0
210
0
220
0
230
1
50
360
0
POINT
5
3B8
100
AcDbEntity
8
Defpoints
62
0
6
ByLayer
370
-1
48
1
60
0
100
AcDbPoint
10
236
20
-23
30
0
39
0
210
0
220
0
230
1
50
360
0
POINT
5
3B9
100
AcDbEntity
8
Defpoints
62
0
6
ByLayer
370
-1
48
1
60
0
100
AcDbPoint
10
236
20
-62.85
30
0
39
0
210
0
220
0
230
1
50
360
0
ENDBLK
5
3B0
100
AcDbEntity
8
0
100
AcDbBlockEnd
0
BLOCK
5
3C1
100
AcDbEntity
8
0
100
AcDbBlockBegin
2
_U3
70
0
10
0
20
0
30
0
3
_U3
0
MTEXT
5
3BB
100
AcDbEntity
8
SK2
62
256
6
ByLayer
370
18
48
1
60
0
100
AcDbMText
10
137.931801
20
-61.522328
30
0
210
0
220
0
230
1
1
\W0.6328;189
40
4.5
41
0
44
1.084337
50
0
71
7
72
5
7
iso_b_vert
0
LINE
5
3BC
100
AcDbEntity
8
SK2
62
256
6
ByLayer
370
13
48
1
60
0
100
AcDbLine
10
47
20
-24.5875
30
0
11
47
21
-66.025
31
0
39
0
210
0
220
0
230
1
0
LINE
5
3BD
100
AcDbEntity
8
SK2
62
256
6
ByLayer
370
13
48
1
60
0
100
AcDbLine
10
236
20
-24.5875
30
0
11
236
21
-66.025
31
0
39
0
210
0
220
0
230
1
0
LINE
5
3BE
100
AcDbEntity
8
SK2
62
256
6
ByLayer
370
13
48
1
60
0
100
AcDbLine
10
47
20
-62.85
30
0
11
236
21
-62.85
31
0
39
0
210
0
220
0
230
1
0
SOLID
5
3BF
100
AcDbEntity
8
SK2
62
256
6
ByLayer
370
18
48
1
60
0
100
AcDbTrace
10
47
20
-62.85
30
0
11
51.174997
21
-61.924425
31
0
12
51.175003
22
-63.775575
32
0
13
51.175003
23
-63.775575
33
0
39
0
210
0
220
0
230
1
0
SOLID
5
3C0
100
AcDbEntity
8
SK2
62
256
6
ByLayer
370
18
48
1
60
0
100
AcDbTrace
10
236
20
-62.85
30
0
11
231.825003
21
-63.775575
31
0
12
231.824997
22
-61.924425
32
0
13
231.824997
23
-61.924425
33
0
39
0
210
0
220
0
230
1
0
ENDBLK
5
3C2
100
AcDbEntity
8
0
100
AcDbBlockEnd
0
BLOCK
5
3C7
100
AcDbEntity
8
0
100
AcDbBlockBegin
2
*D9
70
1
10
0
20
0
30
0
3
*D9
0
LINE
5
3C9
100
AcDbEntity
8
0
62
256
6
ByLayer
370
-2
48
1
60
0
100
AcDbLine
10
234.7234
20
-13.0875
30
0
11
234.7234
21
-56.025
31
0
39
0
210
0
220
0
230
1
0
LINE
5
3CA
100
AcDbEntity
8
0
62
256
6
ByLayer
370
-2
48
1
60
0
100
AcDbLine
10
236
20
-1.5875
30
0
11
236
21
-56.025
31
0
39
0
210
0
220
0
230
1
0
LINE
5
3CB
100
AcDbEntity
8
0
62
256
6
ByLayer
370
-2
48
1
60
0
100
AcDbLine
10
236
20
-52.85
30
0
11
271.708929
21
-52.85
31
0
39
0
210
0
220
0
230
1
0
LINE
5
3CC
100
AcDbEntity
8
0
62
256
6
ByLayer
370
-2
48
1
60
0
100
AcDbLine
10
230.5484
20
-52.85
30
0
11
226.3734
21
-52.85
31
0
39
0
210
0
220
0
230
1
0
LINE
5
3CD
100
AcDbEntity
8
0
62
256
6
ByLayer
370
-2
48
1
60
0
100
AcDbLine
10
240.175
20
-52.85
30
0
11
244.35
21
-52.85
31
0
39
0
210
0
220
0
230
1
0
SOLID
5
3CE
100
AcDbEntity
8
0
62
256
6
ByLayer
370
-1
48
1
60
0
100
AcDbTrace
10
230.5484
20
-53.545833
30
0
11
230.5484
21
-52.154167
31
0
12
234.7234
22
-52.85
32
0
13
234.7234
23
-52.85
33
0
39
0
210
0
220
0
230
1
0
SOLID
5
3CF
100
AcDbEntity
8
0
62
256
6
ByLayer
370
-1
48
1
60
0
100
AcDbTrace
10
240.175
20
-52.154167
30
0
11
240.175
21
-53.545833
31
0
12
236
22
-52.85
32
0
13
236
23
-52.85
33
0
39
0
210
0
220
0
230
1
0
MTEXT
5
3D0
100
AcDbEntity
8
0
62
256
6
ByLayer
370
18
48
1
60
0
100
AcDbMText
10
258.029464
20
-43.45625
30
0
210
0
220
0
230
1
1
\A1;1.28
40
4.5
41
0
44
1
50
0
71
5
72
5
7
iso_b_vert
0
POINT
5
3D1
100
AcDbEntity
8
Defpoints
62
0
6
ByLayer
370
-1
48
1
60
0
100
AcDbPoint
10
234.7234
20
-11.5
30
0
39
0
210
0
220
0
230
1
50
360
0
POINT
5
3D2
100
AcDbEntity
8
Defpoints
62
0
6
ByLayer
370
-1
48
1
60
0
100
AcDbPoint
10
236
20
0
30
0
39
0
210
0
220
0
230
1
50
360
0
POINT
5
3D3
100
AcDbEntity
8
Defpoints
62
0
6
ByLayer
370
-1
48
1
60
0
100
AcDbPoint
10
236
20
-52.85
30
0
39
0
210
0
220
0
230
1
50
360
0
ENDBLK
5
3C8
100
AcDbEntity
8
0
100
AcDbBlockEnd
0
BLOCK
5
3DB
100
AcDbEntity
8
0
100
AcDbBlockBegin
2
_U4
70
0
10
0
20
0
30
0
3
_U4
0
MTEXT
5
3D5
100
AcDbEntity
8
2
62
256
6
ByLayer
370
18
48
1
60
0
100
AcDbMText
10
248.351
20
-51.522328
30
0
210
0
220
0
230
1
1
\W0.6563;1.28
40
4.5
41
0
44
1.084337
50
0
71
7
72
5
7
iso_b_vert
0
LINE
5
3D6
100
AcDbEntity
8
2
62
256
6
ByLayer
370
13
48
1
60
0
100
AcDbLine
10
234.7234
20
-13.0875
30
0
11
234.7234
21
-56.025
31
0
39
0
210
0
220
0
230
1
0
LINE
5
3D7
100
AcDbEntity
8
2
62
256
6
ByLayer
370
13
48
1
60
0
100
AcDbLine
10
236
20
-1.5875
30
0
11
236
21
-56.025
31
0
39
0
210
0
220
0
230
1
0
LINE
5
3D8
100
AcDbEntity
8
2
62
256
6
ByLayer
370
13
48
1
60
0
100
AcDbLine
10
257.549041
20
-52.85
30
0
11
223.4734
21
-52.85
31
0
39
0
210
0
220
0
230
1
0
SOLID
5
3D9
100
AcDbEntity
8
2
62
256
6
ByLayer
370
18
48
1
60
0
100
AcDbTrace
10
234.7234
20
-52.85
30
0
11
230.548403
21
-53.775575
31
0
12
230.548397
22
-51.924425
32
0
13
230.548397
23
-51.924425
33
0
39
0
210
0
220
0
230
1
0
SOLID
5
3DA
100
AcDbEntity
8
2
62
256
6
ByLayer
370
18
48
1
60
0
100
AcDbTrace
10
236
20
-52.85
30
0
11
240.174997
21
-51.924425
31
0
12
240.175003
22
-53.775575
32
0
13
240.175003
23
-53.775575
33
0
39
0
210
0
220
0
230
1
0
ENDBLK
5
3DC
100
AcDbEntity
8
0
100
AcDbBlockEnd
0
ENDSEC
0
SECTION
2
ENTITIES
0
ARC
5
18E
100
AcDbEntity
8
SK1
62
256
6
ByLayer
370
13
48
1
60
0
100
AcDbCircle
39
0
10
-0.3
20
25.4
30
0
40
0.600000000000001
210
0
220
0
230
1
100
AcDbArc
50
270
51
300
0
ARC
5
18F
100
AcDbEntity
8
SK1
62
256
6
ByLayer
370
13
48
1
60
0
100
AcDbCircle
39
0
10
-0.3
20
-25.4
30
0
40
0.600000000000001
210
0
220
0
230
1
100
AcDbArc
50
60
51
90
0
ARC
5
190
100
AcDbEntity
8
1
62
256
6
ByLayer
370
13
48
1
60
0
100
AcDbCircle
39
0
10
7.5
20
-30
30
0
40
0.5
210
0
220
0
230
1
100
AcDbArc
50
90
51
180
0
ARC
5
191
100
AcDbEntity
8
1
62
256
6
ByLayer
370
13
48
1
60
0
100
AcDbCircle
39
0
10
7.5
20
30
30
0
40
0.5
210
0
220
0
230
1
100
AcDbArc
50
180
51
270
0
ARC
5
192
100
AcDbEntity
8
1
62
256
6
ByLayer
370
13
48
1
60
0
100
AcDbCircle
39
0
10
232.546286
20
21.503091
30
0
40
0.2
210
0
220
0
230
1
100
AcDbArc
50
8.974534
51
93
0
ARC
5
193
100
AcDbEntity
8
1
62
256
6
ByLayer
370
13
48
1
60
0
100
AcDbCircle
39
0
10
232.692333
20
8.681992
30
0
40
0.2
210
0
220
0
230
1
100
AcDbArc
50
273
51
352.543899
0
ARC
5
194
100
AcDbEntity
8
1
62
256
6
ByLayer
370
13
48
1
60
0
100
AcDbCircle
39
0
10
219.925347
20
20.607087
30
0
40
0.2
210
0
220
0
230
1
100
AcDbArc
50
76.847115
51
93
0
ARC
5
195
100
AcDbEntity
8
1
62
256
6
ByLayer
370
13
48
1
60
0
100
AcDbCircle
39
0
10
220.071393
20
7.785988
30
0
40
0.2
210
0
220
0
230
1
100
AcDbArc
50
273
51
304.880681
0
ELLIPSE
5
196
100
AcDbEntity
8
1
62
256
6
ByLayer
370
18
48
1
60
0
100
AcDbEllipse
10
227.204527
20
-6.91953
30
0
11
-2.35000000000001
21
2.37500177944356E-15
31
0
210
0
220
0
230
1
40
0.994055
41
-0.623704165360945
42
-0.493033579048701
0
ELLIPSE
5
197
100
AcDbEntity
8
1
62
256
6
ByLayer
370
18
48
1
60
0
100
AcDbEllipse
10
227.204527
20
-7.027154
30
0
11
-2.35000000000001
21
2.37500177944356E-15
31
0
210
0
220
0
230
1
40
0.994055
41
-0.588852476528368
42
-0.519639135053633
0
ELLIPSE
5
198
100
AcDbEntity
8
1
62
256
6
ByLayer
370
13
48
1
60
0
100
AcDbEllipse
10
232.546286
20
21.503091
30
0
11
-0.197551554484215
21
-0.0311990916673928
31
0
210
0
220
0
230
1
40
0.009655
41
1.66279490126908
42
-3.14146319859044
0
ELLIPSE
5
199
100
AcDbEntity
8
1
62
256
6
ByLayer
370
13
48
1
60
0
100
AcDbEllipse
10
233.843333
20
14.02535
30
0
11
0.465790010554875
21
-8.88780285931609
31
0
210
0
220
0
230
1
40
0.995725
41
3.06423017113143
42
3.11423538093014
0
ELLIPSE
5
19A
100
AcDbEntity
8
1
62
256
6
ByLayer
370
13
48
1
60
0
100
AcDbEllipse
10
232.213517
20
6.617566
30
0
11
-0.0942047212358189
21
1.79753316255831
31
0
210
0
220
0
230
1
40
0.995725
41
-0.400544394527601
42
7.92881497022098E-13
0
ELLIPSE
5
19B
100
AcDbEntity
8
1
62
256
6
ByLayer
370
13
48
1
60
0
100
AcDbEllipse
10
234.425717
20
7.929207
30
0
11
-0.0435637040559626
21
-0.259139630111164
31
0
210
0
220
0
230
1
40
0.947521
41
0.308152981475945
42
1.2854243777767
0
ELLIPSE
5
19C
100
AcDbEntity
8
1
62
256
6
ByLayer
370
13
48
1
60
0
100
AcDbEllipse
10
232.974494
20
8.535695
30
0
11
0.00523359562421147
21
-0.09986295347545
31
0
210
0
220
0
230
1
40
0.995725
41
-1.75405589825289
42
0.10471975512001
0
ELLIPSE
5
19D
100
AcDbEntity
8
1
62
256
6
ByLayer
370
13
48
1
60
0
100
AcDbEllipse
10
235.134962
20
15.207235
30
0
11
-0.0287847759331669
21
0.549246244115039
31
0
210
0
220
0
230
1
40
0.995725
41
-1.75405589825437
42
-1.46607657167522
0
ELLIPSE
5
19E
100
AcDbEntity
8
1
62
256
6
ByLayer
370
13
48
1
60
0
100
AcDbEllipse
10
232.692333
20
8.681992
30
0
11
0.045510042190917
21
0.194753269702413
31
0
210
0
220
0
230
1
40
0.088753
41
-3.11589220193527
42
-1.54509587511456
0
ELLIPSE
5
19F
100
AcDbEntity
8
1
62
256
6
ByLayer
370
13
48
1
60
0
100
AcDbEllipse
10
235.689692
20
15.293876
30
0
11
0.148163665863161
21
0.023399318750542
31
0
210
0
220
0
230
1
40
0.009655
41
0.0919985744748214
42
1.66279490126894
0
ELLIPSE
5
1A0
100
AcDbEntity
8
1
62
256
6
ByLayer
370
13
48
1
60
0
100
AcDbEllipse
10
219.08337
20
14.173553
30
0
11
-0.19830891523305
21
0.0259533069008784
31
0
210
0
220
0
230
1
40
0.016833
41
-1.66175841710562
42
-0.0909620903084502
0
ELLIPSE
5
1A1
100
AcDbEntity
8
1
62
256
6
ByLayer
370
13
48
1
60
0
100
AcDbEllipse
10
233.027931
20
8.595298
30
0
11
-0.0427993177759892
21
-0.158580925149159
31
0
210
0
220
0
230
1
40
0.080206
41
-1.54458133971798
42
0.0262149871142001
0
ELLIPSE
5
1A2
100
AcDbEntity
8
1
62
256
6
ByLayer
370
13
48
1
60
0
100
AcDbEllipse
10
232.546286
20
21.503091
30
0
11
0.0104671912484241
21
-0.199725906950923
31
0
210
0
220
0
230
1
40
0.995725
41
3.14157394909799
42
-2.58708947813791
0
ELLIPSE
5
1A3
100
AcDbEntity
8
1
62
256
6
ByLayer
370
13
48
1
60
0
100
AcDbEllipse
10
231.660053
20
6.58856
30
0
11
0.0942047212358175
21
-1.79753316255831
31
0
210
0
220
0
230
1
40
0.995725
41
2.0755337873073
42
2.74715904466462
0
ELLIPSE
5
1A4
100
AcDbEntity
8
1
62
256
6
ByLayer
370
13
48
1
60
0
100
AcDbEllipse
10
218.950163
20
8.26596
30
0
11
0.0994383168600295
21
-1.89739611603377
31
0
210
0
220
0
230
1
40
0.995725
41
-0.0273572726613198
42
-0.00872664626080421
0
ELLIPSE
5
1A5
100
AcDbEntity
8
1
62
256
6
ByLayer
370
13
48
1
60
0
100
AcDbEllipse
10
218.989506
20
6.516276
30
0
11
0.00373239490690328
21
-0.149953556904326
31
0
210
0
220
0
230
1
40
0.092336
41
-1.56825879134033
42
-0.0414707750417362
0
ELLIPSE
5
1A6
100
AcDbEntity
8
1
62
256
6
ByLayer
370
13
48
1
60
0
100
AcDbEllipse
10
218.553603
20
7.065467
30
0
11
-0.0287847759331666
21
0.549246244115034
31
0
210
0
220
0
230
1
40
0.995725
41
1.67551608191453
42
3.06423017113071
0
ELLIPSE
5
1A7
100
AcDbEntity
8
1
62
256
6
ByLayer
370
13
48
1
60
0
100
AcDbEllipse
10
233.838721
20
14.025109
30
0
11
0.465790010554875
21
-8.88780285931609
31
0
210
0
220
0
230
1
40
0.995725
41
3.0642301711306
42
3.11423538092933
0
ELLIPSE
5
1A8
100
AcDbEntity
8
1
62
256
6
ByLayer
370
13
48
1
60
0
100
AcDbEllipse
10
234.054584
20
22.772223
30
0
11
0.0037996096578295
21
0.149951868832796
31
0
210
0
220
0
230
1
40
0.092094
41
0.00716942111041693
42
1.57796574790525
0
ELLIPSE
5
1A9
100
AcDbEntity
8
1
62
256
6
ByLayer
370
13
48
1
60
0
100
AcDbEllipse
10
219.296351
20
6.564609
30
0
11
-0.145139532363184
21
0.037875006869916
31
0
210
0
220
0
230
1
40
0.028078
41
1.48264787473431
42
3.05344420152795
0
ELLIPSE
5
1AA
100
AcDbEntity
8
1
62
256
6
ByLayer
370
13
48
1
60
0
100
AcDbEllipse
10
219.580523
20
20.693298
30
0
11
-0.0427993177780721
21
-0.158580925156416
31
0
210
0
220
0
230
1
40
0.080206
41
-3.11537766647276
42
-1.54458133969616
0
ELLIPSE
5
1AB
100
AcDbEntity
8
1
62
256
6
ByLayer
370
13
48
1
60
0
100
AcDbEllipse
10
219.925347
20
20.607087
30
0
11
-0.0455100421909348
21
-0.194753269702409
31
0
210
0
220
0
230
1
40
0.088753
41
1.59649677847495
42
-3.11589220188552
0
ELLIPSE
5
1AC
100
AcDbEntity
8
1
62
256
6
ByLayer
370
13
48
1
60
0
100
AcDbEllipse
10
219.643186
20
20.753385
30
0
11
0.00523359562421147
21
-0.09986295347545
31
0
210
0
220
0
230
1
40
0.995725
41
1.38753675533546
42
-3.03687289847095
0
ELLIPSE
5
1AD
100
AcDbEntity
8
1
62
256
6
ByLayer
370
13
48
1
60
0
100
AcDbEllipse
10
218.774346
20
15.263729
30
0
11
0.465790010554875
21
-8.88780285931609
31
0
210
0
220
0
230
1
40
0.995725
41
-0.0773624824600088
42
-0.0273572726612927
0
ELLIPSE
5
1AE
100
AcDbEntity
8
1
62
256
6
ByLayer
370
13
48
1
60
0
100
AcDbEllipse
10
221.275556
20
6.044332
30
0
11
-0.0942047212358189
21
1.79753316255831
31
0
210
0
220
0
230
1
40
0.995725
41
0
42
1.26193471909811
0
ELLIPSE
5
1AF
100
AcDbEntity
8
1
62
256
6
ByLayer
370
13
48
1
60
0
100
AcDbEllipse
10
234.581909
20
22.308321
30
0
11
0.148163665863161
21
0.023399318750542
31
0
210
0
220
0
230
1
40
0.009655
41
0.0919985744735827
42
1.66279490126883
0
ELLIPSE
5
1B0
100
AcDbEntity
8
1
62
256
6
ByLayer
370
13
48
1
60
0
100
AcDbEllipse
10
217.44582
20
14.079911
30
0
11
-0.0287847759331669
21
0.549246244115039
31
0
210
0
220
0
230
1
40
0.995725
41
1.38753675533543
42
1.67551608191458
0
ELLIPSE
5
1B1
100
AcDbEntity
8
1
62
256
6
ByLayer
370
13
48
1
60
0
100
AcDbEllipse
10
218.572052
20
7.066434
30
0
11
0.0366351693694843
21
-0.699040674328227
31
0
210
0
220
0
230
1
40
0.995725
41
-1.4660765716761
42
-0.0773624824598964
0
ELLIPSE
5
1B2
100
AcDbEntity
8
1
62
256
6
ByLayer
370
13
48
1
60
0
100
AcDbEllipse
10
219.306759
20
6.563322
30
0
11
0.0127690523123569
21
-0.243648032548676
31
0
210
0
220
0
230
1
40
0.995725
41
0.174532925198584
42
1.26193471909794
0
ELLIPSE
5
1B3
100
AcDbEntity
8
1
62
256
6
ByLayer
370
13
48
1
60
0
100
AcDbEllipse
10
217.734299
20
20.40004
30
0
11
-0.148731686424787
21
0.0194649801756588
31
0
210
0
220
0
230
1
40
0.016833
41
-0.0909620903112785
42
1.4798342364678
0
ELLIPSE
5
1B4
100
AcDbEntity
8
1
62
256
6
ByLayer
370
13
48
1
60
0
100
AcDbEllipse
10
233.364877
20
22.711534
30
0
11
0.010467191248424
21
-0.199725906950921
31
0
210
0
220
0
230
1
40
0.995725
41
3.13286600733109
42
-1.87965793448986
0
ELLIPSE
5
1B5
100
AcDbEntity
8
1
62
256
6
ByLayer
370
13
48
1
60
0
100
AcDbEllipse
10
233.312104
20
22.723988
30
0
11
0.145139532363185
21
-0.0378750068699144
31
0
210
0
220
0
230
1
40
0.028078
41
3.05344420152922
42
-1.65894477885533
0
ELLIPSE
5
1B6
100
AcDbEntity
8
1
62
256
6
ByLayer
370
13
48
1
60
0
100
AcDbEllipse
10
234.041015
20
22.222404
30
0
11
0.0366351693694843
21
-0.699040674328227
31
0
210
0
220
0
230
1
40
0.995725
41
1.67551608191451
42
3.06423017113072
0
ELLIPSE
5
1B7
100
AcDbEntity
8
1
62
256
6
ByLayer
370
13
48
1
60
0
100
AcDbEllipse
10
218.159874
20
21.931725
30
0
11
-0.300351321605268
21
0.184900888623129
31
0
210
0
220
0
230
1
40
0.479615
41
-1.86916058280016
42
-0.781758788884489
0
ELLIPSE
5
1B8
100
AcDbEntity
8
1
62
256
6
ByLayer
370
13
48
1
60
0
100
AcDbEllipse
10
234.045628
20
22.222646
30
0
11
0.0366351693694843
21
-0.699040674328227
31
0
210
0
220
0
230
1
40
0.995725
41
1.67551608191533
42
3.06423017113149
0
ELLIPSE
5
1B9
100
AcDbEntity
8
1
62
256
6
ByLayer
370
13
48
1
60
0
100
AcDbEllipse
10
219.928933
20
22.646608
30
0
11
-1.72936595007089
21
1.21940905088561
31
0
210
0
220
0
230
1
40
0.74335
41
1.16175109670202
42
1.98390815207357
0
ELLIPSE
5
1BA
100
AcDbEntity
8
1
62
256
6
ByLayer
370
13
48
1
60
0
100
AcDbEllipse
10
219.572381
20
14.107938
30
0
11
-0.0366351693694852
21
0.699040674328232
31
0
210
0
220
0
230
1
40
0.995725
41
1.38753675533552
42
1.67551608191455
0
ELLIPSE
5
1BB
100
AcDbEntity
8
1
62
256
6
ByLayer
370
13
48
1
60
0
100
AcDbEllipse
10
232.546286
20
21.503091
30
0
11
-0.114373860316065
21
0.164068949153705
31
0
210
0
220
0
230
1
40
0.07853
41
-1.61960141451367
42
-0.0488050877195115
0
ELLIPSE
5
1BC
100
AcDbEntity
8
1
62
256
6
ByLayer
370
13
48
1
60
0
100
AcDbEllipse
10
218.733221
20
14.219072
30
0
11
-0.148731686424787
21
0.0194649801756588
31
0
210
0
220
0
230
1
40
0.016833
41
1.4798342364841
42
3.05063056328133
0
ELLIPSE
5
1BD
100
AcDbEntity
8
1
62
256
6
ByLayer
370
13
48
1
60
0
100
AcDbEllipse
10
232.969881
20
8.535453
30
0
11
0.00523359562421147
21
-0.09986295347545
31
0
210
0
220
0
230
1
40
0.995725
41
-6.34410669295608E-06
42
0.10471975512056
0
ELLIPSE
5
1BE
100
AcDbEntity
8
1
62
256
6
ByLayer
370
13
48
1
60
0
100
AcDbEllipse
10
233.875234
20
15.069524
30
0
11
0.148731686424787
21
-0.0194649801756576
31
0
210
0
220
0
230
1
40
0.016833
41
-2.85804977879156
42
-1.66175841710589
0
ELLIPSE
5
1BF
100
AcDbEntity
8
1
62
256
6
ByLayer
370
13
48
1
60
0
100
AcDbEllipse
10
217.734299
20
20.40004
30
0
11
0.0235312926468261
21
-0.148142763125201
31
0
210
0
220
0
230
1
40
0.091865
41
-3.05123893802522
42
-1.58049283530254
0
ELLIPSE
5
1C0
100
AcDbEntity
8
1
62
256
6
ByLayer
370
13
48
1
60
0
100
AcDbEllipse
10
231.323675
20
23.243781
30
0
11
0.107288710296347
21
-2.04719054624696
31
0
210
0
220
0
230
1
40
0.995725
41
0.7738528572206
42
1.26193471909899
0
ELLIPSE
5
1C1
100
AcDbEntity
8
1
62
256
6
ByLayer
370
13
48
1
60
0
100
AcDbEllipse
10
233.040686
20
15.1809
30
0
11
0.0366351693694846
21
-0.699040674328232
31
0
210
0
220
0
230
1
40
0.995725
41
1.38753675533552
42
1.6755160819146
0
ELLIPSE
5
1C2
100
AcDbEntity
8
1
62
256
6
ByLayer
370
13
48
1
60
0
100
AcDbEllipse
10
221.275556
20
6.044332
30
0
11
-0.0994383168600313
21
1.89739611603376
31
0
210
0
220
0
230
1
40
0.995725
41
0.761807904942466
42
1.26193471909814
0
ELLIPSE
5
1C3
100
AcDbEntity
8
1
62
256
6
ByLayer
370
13
48
1
60
0
100
AcDbEllipse
10
232.692333
20
8.681992
30
0
11
-0.19830891523305
21
0.0259533069008784
31
0
210
0
220
0
230
1
40
0.016833
41
-3.14144018084992
42
-1.66175841710449
0
ELLIPSE
5
1C4
100
AcDbEntity
8
1
62
256
6
ByLayer
370
13
48
1
60
0
100
AcDbEllipse
10
216.918763
20
13.99472
30
0
11
-0.148163665863161
21
-0.0233993187505446
31
0
210
0
220
0
230
1
40
0.009655
41
-1.47879775232142
42
0.0919985744723613
0
ELLIPSE
5
1C5
100
AcDbEntity
8
1
62
256
6
ByLayer
370
13
48
1
60
0
100
AcDbEllipse
10
219.02195
20
6.517387
30
0
11
0.00653729335064122
21
-0.149857478277354
31
0
210
0
220
0
230
1
40
0.092367
41
-1.56998679074977
42
0.000809536045656042
0
ELLIPSE
5
1C6
100
AcDbEntity
8
1
62
256
6
ByLayer
370
13
48
1
60
0
100
AcDbEllipse
10
219.576993
20
14.108179
30
0
11
0.0366351693694846
21
-0.699040674328232
31
0
210
0
220
0
230
1
40
0.995725
41
-1.75405589825427
42
-1.46607657167524
0
ELLIPSE
5
1C7
100
AcDbEntity
8
1
62
256
6
ByLayer
370
13
48
1
60
0
100
AcDbEllipse
10
233.027931
20
8.595298
30
0
11
-0.157381426434348
21
-0.0466723701704863
31
0
210
0
220
0
230
1
40
0.019797
41
-1.48863728985731
42
0.082159036727205
0
ELLIPSE
5
1C8
100
AcDbEntity
8
1
62
256
6
ByLayer
370
13
48
1
60
0
100
AcDbEllipse
10
217.638498
20
21.330867
30
0
11
-0.043563704057222
21
-0.259139630110728
31
0
210
0
220
0
230
1
40
0.947521
41
-2.83343967211002
42
-2.19739446868142
0
ELLIPSE
5
1C9
100
AcDbEntity
8
1
62
256
6
ByLayer
370
13
48
1
60
0
100
AcDbEllipse
10
226.633584
20
8.448044
30
0
11
0.0104671912484241
21
-0.199725906950923
31
0
210
0
220
0
230
1
40
0.092371
41
0
42
1.5707963267949
0
ELLIPSE
5
1CA
100
AcDbEntity
8
1
62
256
6
ByLayer
370
13
48
1
60
0
100
AcDbEllipse
10
235.691784
20
15.136049
30
0
11
0.148731686424787
21
-0.0194649801756576
31
0
210
0
220
0
230
1
40
0.016833
41
-1.66175841710551
42
-0.0909620903119791
0
ELLIPSE
5
1CB
100
AcDbEntity
8
1
62
256
6
ByLayer
370
13
48
1
60
0
100
AcDbEllipse
10
221.270944
20
6.04409
30
0
11
-0.0994383168600313
21
1.89739611603376
31
0
210
0
220
0
230
1
40
0.995725
41
0.76180790494327
42
1.26193471909897
0
ELLIPSE
5
1CC
100
AcDbEntity
8
1
62
256
6
ByLayer
370
13
48
1
60
0
100
AcDbEllipse
10
233.31092
20
22.725757
30
0
11
0.0127690523123569
21
-0.243648032548676
31
0
210
0
220
0
230
1
40
0.995725
41
-2.96705972838966
42
-1.87965793449026
0
ELLIPSE
5
1CD
100
AcDbEntity
8
1
62
256
6
ByLayer
370
13
48
1
60
0
100
AcDbEllipse
10
219.580523
20
20.693298
30
0
11
-0.157381426410668
21
-0.0466723701640859
31
0
210
0
220
0
230
1
40
0.019797
41
-3.05943361683274
42
-1.48863729009348
0
ELLIPSE
5
1CE
100
AcDbEntity
8
1
62
256
6
ByLayer
370
13
48
1
60
0
100
AcDbEllipse
10
219.822528
20
7.417347
30
0
11
0.00523359562421254
21
-0.0998629534754704
31
0
210
0
220
0
230
1
40
0.995725
41
0.761807904944741
42
1.67551608191532
0
ELLIPSE
5
1CF
100
AcDbEntity
8
1
62
256
6
ByLayer
370
13
48
1
60
0
100
AcDbEllipse
10
218.026546
20
6.980276
30
0
11
-0.148163665863161
21
-0.0233993187505446
31
0
210
0
220
0
230
1
40
0.009655
41
-1.47879775232091
42
-0.264793552088792
0
ELLIPSE
5
1D0
100
AcDbEntity
8
1
62
256
6
ByLayer
370
13
48
1
60
0
100
AcDbEllipse
10
234.874155
20
8.888556
30
0
11
-0.0235312926468169
21
0.148142763125202
31
0
210
0
220
0
230
1
40
0.091865
41
1.56109981840455
42
3.13189614514058
0
ELLIPSE
5
1D1
100
AcDbEntity
8
1
62
256
6
ByLayer
370
13
48
1
60
0
100
AcDbEllipse
10
231.738288
20
6.59266
30
0
11
-1.40394107568587
21
-1.50837379634659
31
0
210
0
220
0
230
1
40
0.735668
41
2.56900210139492
42
-2.89202615041449
0
ELLIPSE
5
1D2
100
AcDbEntity
8
1
62
256
6
ByLayer
370
13
48
1
60
0
100
AcDbEllipse
10
217.464268
20
14.080878
30
0
11
0.0366351693694845
21
-0.699040674328231
31
0
210
0
220
0
230
1
40
0.995725
41
-1.75405589825518
42
-1.46607657167606
0
ELLIPSE
5
1D3
100
AcDbEntity
8
1
62
256
6
ByLayer
370
13
48
1
60
0
100
AcDbEllipse
10
234.878768
20
8.888798
30
0
11
0.00785039343631831
21
-0.149794430213196
31
0
210
0
220
0
230
1
40
0.995725
41
0.104719755119517
42
1.38753675533625
0
ELLIPSE
5
1D4
100
AcDbEntity
8
1
62
256
6
ByLayer
370
13
48
1
60
0
100
AcDbEllipse
10
219.250373
20
6.527352
30
0
11
0.00653729335064122
21
-0.149857478277354
31
0
210
0
220
0
230
1
40
0.092367
41
-1.56998679074977
42
-0.0232440763777076
0
ELLIPSE
5
1D5
100
AcDbEntity
8
1
62
256
6
ByLayer
370
13
48
1
60
0
100
AcDbEllipse
10
231.342123
20
23.244748
30
0
11
-0.0942047212358189
21
1.79753316255831
31
0
210
0
220
0
230
1
40
0.995725
41
-3.141592653589
42
-1.87965793449006
0
ELLIPSE
5
1D6
100
AcDbEntity
8
1
62
256
6
ByLayer
370
13
48
1
60
0
100
AcDbEllipse
10
219.252802
20
6.577546
30
0
11
0.010467191248424
21
-0.199725906950921
31
0
210
0
220
0
230
1
40
0.995725
41
-0.00872664626041236
42
1.26193471909844
0
ELLIPSE
5
1D7
100
AcDbEntity
8
1
62
256
6
ByLayer
370
13
48
1
60
0
100
AcDbEllipse
10
233.824885
20
14.024384
30
0
11
-0.457939617118564
21
8.7380084291029
31
0
210
0
220
0
230
1
40
0.995725
41
-0.0773624824591907
42
-0.0273572726604685
0
ELLIPSE
5
1D8
100
AcDbEntity
8
1
62
256
6
ByLayer
370
13
48
1
60
0
100
AcDbEllipse
10
219.638574
20
20.753144
30
0
11
0.00523359562421147
21
-0.09986295347545
31
0
210
0
220
0
230
1
40
0.995725
41
1.38753675533603
42
3.11837220864484
0
ELLIPSE
5
1D9
100
AcDbEntity
8
1
62
256
6
ByLayer
370
13
48
1
60
0
100
AcDbEllipse
10
233.346428
20
22.710567
30
0
11
-0.00261679781210595
21
0.0499314767377283
31
0
210
0
220
0
230
1
40
0.995725
41
-0.00872664625923374
42
1.26193471909933
0
ELLIPSE
5
1DA
100
AcDbEntity
8
1
62
256
6
ByLayer
370
13
48
1
60
0
100
AcDbEllipse
10
233.022237
20
15.179933
30
0
11
0.0444855628058027
21
-0.848835104541425
31
0
210
0
220
0
230
1
40
0.995725
41
1.38753675533551
42
1.67551608191457
0
ELLIPSE
5
1DB
100
AcDbEntity
8
1
62
256
6
ByLayer
370
13
48
1
60
0
100
AcDbEllipse
10
217.738912
20
20.400282
30
0
11
0.00785039343631831
21
-0.149794430213196
31
0
210
0
220
0
230
1
40
0.995725
41
-3.036872898472
42
-1.75405589825527
0
ELLIPSE
5
1DC
100
AcDbEntity
8
1
62
256
6
ByLayer
370
13
48
1
60
0
100
AcDbEllipse
10
233.667516
20
21.02312
30
0
11
0.0994383168600295
21
-1.89739611603377
31
0
210
0
220
0
230
1
40
0.995725
41
3.11423538093016
42
3.13286600733066
0
ELLIPSE
5
1DD
100
AcDbEntity
8
1
62
256
6
ByLayer
370
13
48
1
60
0
100
AcDbEllipse
10
233.532407
20
15.259006
30
0
11
0.197551554484215
21
0.0311990916673893
31
0
210
0
220
0
230
1
40
0.009655
41
-1.47879775232014
42
0.000129455051793031
0
ELLIPSE
5
1DE
100
AcDbEntity
8
1
62
256
6
ByLayer
370
13
48
1
60
0
100
AcDbEllipse
10
226.327288
20
14.645507
30
0
11
0.164592752014548
21
-3.14061679904847
31
0
210
0
220
0
230
1
40
0.995725
41
0
42
6.28318530717959
0
ELLIPSE
5
1DF
100
AcDbEntity
8
1
62
256
6
ByLayer
370
13
48
1
60
0
100
AcDbEllipse
10
233.662904
20
21.022878
30
0
11
0.0994383168600295
21
-1.89739611603377
31
0
210
0
220
0
230
1
40
0.995725
41
3.11423538092932
42
3.13286600732983
0
ELLIPSE
5
1E0
100
AcDbEntity
8
1
62
256
6
ByLayer
370
13
48
1
60
0
100
AcDbEllipse
10
233.618949
20
22.77232
30
0
11
-0.00373239490690377
21
0.149953556904326
31
0
210
0
220
0
230
1
40
0.092336
41
0.0025375354558029
42
1.57333386224946
0
ELLIPSE
5
1E1
100
AcDbEntity
8
1
62
256
6
ByLayer
370
13
48
1
60
0
100
AcDbEllipse
10
220.071393
20
7.785988
30
0
11
0.0104671912484241
21
-0.199725906950923
31
0
210
0
220
0
230
1
40
0.995725
41
-1.46607657167604
42
-1.72590776470009E-05
0
ELLIPSE
5
1E2
100
AcDbEntity
8
1
62
256
6
ByLayer
370
13
48
1
60
0
100
AcDbEllipse
10
231.263888
20
23.240648
30
0
11
-1.59242934826566
21
-1.39349696569991
31
0
210
0
220
0
230
1
40
0.74335
41
1.15768450151749
42
1.9798415568904
0
ELLIPSE
5
1E3
100
AcDbEntity
8
1
62
256
6
ByLayer
370
13
48
1
60
0
100
AcDbEllipse
10
219.609645
20
22.629875
30
0
11
-2.21586716766768
21
1.36412156985623
31
0
210
0
220
0
230
1
40
0.479615
41
1.27243195139144
42
1.31166520827118
0
ELLIPSE
5
1E4
100
AcDbEntity
8
1
62
256
6
ByLayer
370
13
48
1
60
0
100
AcDbEllipse
10
219.925347
20
20.607087
30
0
11
0.0104671912484241
21
-0.199725906950923
31
0
210
0
220
0
230
1
40
0.995725
41
-3.14157313675569
42
-1.75405589825518
0
ELLIPSE
5
1E5
100
AcDbEntity
8
1
62
256
6
ByLayer
370
13
48
1
60
0
100
AcDbEllipse
10
219.558545
20
14.107213
30
0
11
0.0444855628058027
21
-0.848835104541425
31
0
210
0
220
0
230
1
40
0.995725
41
-1.75405589825425
42
-1.46607657167525
0
ELLIPSE
5
1E6
100
AcDbEntity
8
1
62
256
6
ByLayer
370
13
48
1
60
0
100
AcDbEllipse
10
220.404162
20
22.671514
30
0
11
-0.0942047212358189
21
1.79753316255831
31
0
210
0
220
0
230
1
40
0.995725
41
2.74104825906057
42
3.14159265358897
0
ELLIPSE
5
1E7
100
AcDbEntity
8
1
62
256
6
ByLayer
370
13
48
1
60
0
100
AcDbEllipse
10
226.249051
20
14.641407
30
0
11
0.161488764827528
21
-3.08138919525505
31
0
210
0
220
0
230
1
40
0.995725
41
-0.853733431166157
42
0
0
ELLIPSE
5
1E8
100
AcDbEntity
8
1
62
256
6
ByLayer
370
13
48
1
60
0
100
AcDbEllipse
10
226.249051
20
14.641407
30
0
11
0.161488764827528
21
-3.08138919525505
31
0
210
0
220
0
230
1
40
0.995725
41
0
42
-2.28787053660729
0
ELLIPSE
5
1E9
100
AcDbEntity
8
1
62
256
6
ByLayer
370
13
48
1
60
0
100
AcDbEllipse
10
219.085272
20
14.030074
30
0
11
-0.197551554484215
21
-0.0311990916673928
31
0
210
0
220
0
230
1
40
0.009655
41
0.0919985744698925
42
1.66279490126838
0
ELLIPSE
5
1EA
100
AcDbEntity
8
1
62
256
6
ByLayer
370
13
48
1
60
0
100
AcDbEllipse
10
234.874155
20
8.888556
30
0
11
0.148731686424787
21
-0.0194649801756576
31
0
210
0
220
0
230
1
40
0.016833
41
-1.66175841708909
42
-0.0909620903140981
0
ELLIPSE
5
1EB
100
AcDbEntity
8
1
62
256
6
ByLayer
370
13
48
1
60
0
100
AcDbEllipse
10
219.595442
20
14.109146
30
0
11
-0.0261679781210608
21
0.499314767377309
31
0
210
0
220
0
230
1
40
0.995725
41
1.38753675533554
42
1.67551608191459
0
ELLIPSE
5
1EC
100
AcDbEntity
8
1
62
256
6
ByLayer
370
13
48
1
60
0
100
AcDbEllipse
10
216.91667
20
14.152547
30
0
11
-0.148731686424787
21
0.0194649801756588
31
0
210
0
220
0
230
1
40
0.016833
41
-0.0909620903105779
42
1.4798342364841
0
ELLIPSE
5
1ED
100
AcDbEntity
8
1
62
256
6
ByLayer
370
13
48
1
60
0
100
AcDbEllipse
10
218.755897
20
15.262762
30
0
11
-0.457939617118564
21
8.7380084291029
31
0
210
0
220
0
230
1
40
0.995725
41
3.06423017113061
42
3.11423538092933
0
ELLIPSE
5
1EE
100
AcDbEntity
8
1
62
256
6
ByLayer
370
13
48
1
60
0
100
AcDbEllipse
10
219.24819
20
6.577304
30
0
11
0.010467191248424
21
-0.199725906950921
31
0
210
0
220
0
230
1
40
0.995725
41
0.0114035669058013
42
1.26193471909918
0
ELLIPSE
5
1EF
100
AcDbEntity
8
1
62
256
6
ByLayer
370
13
48
1
60
0
100
AcDbEllipse
10
231.342123
20
23.244748
30
0
11
-0.0994383168600313
21
1.89739611603376
31
0
210
0
220
0
230
1
40
0.995725
41
-2.37978474864568
42
-1.87965793449002
0
ELLIPSE
5
1F0
100
AcDbEntity
8
1
62
256
6
ByLayer
370
13
48
1
60
0
100
AcDbEllipse
10
233.649067
20
21.022153
30
0
11
-0.0915879234237129
21
1.74760168582058
31
0
210
0
220
0
230
1
40
0.995725
41
-0.0273572726605033
42
-0.00872664625997129
0
ELLIPSE
5
1F1
100
AcDbEntity
8
1
62
256
6
ByLayer
370
13
48
1
60
0
100
AcDbEllipse
10
218.931715
20
8.264993
30
0
11
-0.0915879234237129
21
1.74760168582058
31
0
210
0
220
0
230
1
40
0.995725
41
3.11423538092932
42
3.13286600732984
0
ELLIPSE
5
1F2
100
AcDbEntity
8
1
62
256
6
ByLayer
370
13
48
1
60
0
100
AcDbEllipse
10
232.692333
20
8.681992
30
0
11
0.0104671912484241
21
-0.199725906950923
31
0
210
0
220
0
230
1
40
0.995725
41
-0.280778212086851
42
2.11747652031568E-05
0
ELLIPSE
5
1F3
100
AcDbEntity
8
1
62
256
6
ByLayer
370
13
48
1
60
0
100
AcDbEllipse
10
219.234354
20
6.576579
30
0
11
-0.00261679781210595
21
0.0499314767377283
31
0
210
0
220
0
230
1
40
0.995725
41
3.13286600732938
42
-1.87965793449107
0
ELLIPSE
5
1F4
100
AcDbEntity
8
1
62
256
6
ByLayer
370
13
48
1
60
0
100
AcDbEllipse
10
234.027179
20
22.221679
30
0
11
-0.0287847759331666
21
0.549246244115034
31
0
210
0
220
0
230
1
40
0.995725
41
-1.46607657167527
42
-0.0773624824590391
0
ELLIPSE
5
1F5
100
AcDbEntity
8
1
62
256
6
ByLayer
370
13
48
1
60
0
100
AcDbEllipse
10
225.984095
20
20.841036
30
0
11
0.0104671912484241
21
-0.199725906950923
31
0
210
0
220
0
230
1
40
0.092371
41
1.5707963267949
42
-3.14159265356672
0
ELLIPSE
5
1F6
100
AcDbEntity
8
1
62
256
6
ByLayer
370
13
48
1
60
0
100
AcDbEllipse
10
220.071393
20
7.785988
30
0
11
0.114373860316061
21
-0.164068949153709
31
0
210
0
220
0
230
1
40
0.07853
41
3.35013676243024E-05
42
1.52199123907684
0
ELLIPSE
5
1F7
100
AcDbEntity
8
1
62
256
6
ByLayer
370
13
48
1
60
0
100
AcDbEllipse
10
230.788659
20
23.215742
30
0
11
0.0942047212358175
21
-1.79753316255831
31
0
210
0
220
0
230
1
40
0.995725
41
0
42
0.400544394529214
0
ELLIPSE
5
1F8
100
AcDbEntity
8
1
62
256
6
ByLayer
370
13
48
1
60
0
100
AcDbEllipse
10
217.737405
20
20.388477
30
0
11
-0.0435637040634937
21
-0.259139630108863
31
0
210
0
220
0
230
1
40
0.947521
41
-2.8334396720866
42
-1.53236303186863
0
ELLIPSE
5
1F9
100
AcDbEntity
8
1
62
256
6
ByLayer
370
13
48
1
60
0
100
AcDbEllipse
10
234.874155
20
8.888556
30
0
11
0.00785039343631831
21
-0.149794430213196
31
0
210
0
220
0
230
1
40
0.995725
41
0.10471975511874
42
1.38753675533529
0
ELLIPSE
5
1FA
100
AcDbEntity
8
1
62
256
6
ByLayer
370
13
48
1
60
0
100
AcDbEllipse
10
235.153411
20
15.208201
30
0
11
0.0366351693694845
21
-0.699040674328231
31
0
210
0
220
0
230
1
40
0.995725
41
1.38753675533622
42
1.67551608191537
0
ELLIPSE
5
1FB
100
AcDbEntity
8
1
62
256
6
ByLayer
370
13
48
1
60
0
100
AcDbEllipse
10
233.872
20
15.313439
30
0
11
0.148163665863161
21
0.023399318750542
31
0
210
0
220
0
230
1
40
0.009655
41
1.66279490126875
42
2.85602956830575
0
ELLIPSE
5
1FC
100
AcDbEntity
8
1
62
256
6
ByLayer
370
13
48
1
60
0
100
AcDbEllipse
10
219.925347
20
20.607087
30
0
11
0.19830891523305
21
-0.0259533069008769
31
0
210
0
220
0
230
1
40
0.016833
41
1.47983423648333
42
3.05063056328134
0
ELLIPSE
5
1FD
100
AcDbEntity
8
1
62
256
6
ByLayer
370
13
48
1
60
0
100
AcDbEllipse
10
233.586505
20
22.771209
30
0
11
-0.00653729335064158
21
0.149857478277354
31
0
210
0
220
0
230
1
40
0.092367
41
0.000809536045784252
42
1.57160586284002
0
ELLIPSE
5
1FE
100
AcDbEntity
8
1
62
256
6
ByLayer
370
13
48
1
60
0
100
AcDbEllipse
10
221.257107
20
6.043365
30
0
11
0.107288710296347
21
-2.04719054624696
31
0
210
0
220
0
230
1
40
0.995725
41
-2.36773979636919
42
-1.87965793449082
0
ELLIPSE
5
1FF
100
AcDbEntity
8
1
62
256
6
ByLayer
370
13
48
1
60
0
100
AcDbEllipse
10
233.059135
20
15.181867
30
0
11
-0.0261679781210608
21
0.499314767377309
31
0
210
0
220
0
230
1
40
0.995725
41
-1.75405589825426
42
-1.46607657167521
0
ELLIPSE
5
200
100
AcDbEntity
8
1
62
256
6
ByLayer
370
13
48
1
60
0
100
AcDbEllipse
10
233.097982
20
22.714598
30
0
11
-0.279378559899378
21
-0.215283244303554
31
0
210
0
220
0
230
1
40
0.479615
41
-2.35983386470228
42
-1.27243207081222
0
ELLIPSE
5
201
100
AcDbEntity
8
1
62
256
6
ByLayer
370
13
48
1
60
0
100
AcDbEllipse
10
233.358082
20
22.761244
30
0
11
-0.00653729335064158
21
0.149857478277354
31
0
210
0
220
0
230
1
40
0.092367
41
0.000809536045784252
42
1.57160586284021
0
ELLIPSE
5
202
100
AcDbEntity
8
1
62
256
6
ByLayer
370
13
48
1
60
0
100
AcDbEllipse
10
235.148799
20
15.20796
30
0
11
0.0366351693694845
21
-0.699040674328231
31
0
210
0
220
0
230
1
40
0.995725
41
1.3875367553354
42
1.67551608191455
0
ELLIPSE
5
203
100
AcDbEntity
8
1
62
256
6
ByLayer
370
13
48
1
60
0
100
AcDbEllipse
10
234.880274
20
8.900603
30
0
11
-0.0435637040364437
21
-0.259139630117092
31
0
210
0
220
0
230
1
40
0.947521
41
0.308152981403446
42
1.60922962160687
0
ELLIPSE
5
204
100
AcDbEntity
8
1
62
256
6
ByLayer
370
13
48
1
60
0
100
AcDbEllipse
10
218.553871
20
6.516374
30
0
11
-0.00379960965782938
21
-0.149951868832796
31
0
210
0
220
0
230
1
40
0.092094
41
-1.56362690568454
42
-0.0717426686087021
0
ELLIPSE
5
205
100
AcDbEntity
8
1
62
256
6
ByLayer
370
13
48
1
60
0
100
AcDbEllipse
10
218.736455
20
13.975158
30
0
11
-0.148163665863161
21
-0.0233993187505446
31
0
210
0
220
0
230
1
40
0.009655
41
-3.04959407911497
42
-1.47879775232066
0
ELLIPSE
5
206
100
AcDbEntity
8
1
62
256
6
ByLayer
370
13
48
1
60
0
100
AcDbEllipse
10
233.534309
20
15.115527
30
0
11
0.19830891523305
21
-0.0259533069008769
31
0
210
0
220
0
230
1
40
0.016833
41
0.000152472685523696
42
1.47983423648432
0
ELLIPSE
5
207
100
AcDbEntity
8
1
62
256
6
ByLayer
370
13
48
1
60
0
100
AcDbEllipse
10
231.583178
20
23.257381
30
0
11
-2.06113714513271
21
-1.58826930378928
31
0
210
0
220
0
230
1
40
0.479615
41
1.82992716651524
42
1.86916044832842
0
ELLIPSE
5
208
100
AcDbEntity
8
1
62
256
6
ByLayer
370
13
48
1
60
0
100
AcDbEllipse
10
226.22396
20
14.640092
30
0
11
0.156043507058741
21
-2.97748748746726
31
0
210
0
220
0
230
1
40
0.995725
41
0
42
6.28318530717959
0
ELLIPSE
5
209
100
AcDbEntity
8
1
62
256
6
ByLayer
370
13
48
1
60
0
100
AcDbEllipse
10
219.827141
20
7.417588
30
0
11
0.00523359562421254
21
-0.0998629534754704
31
0
210
0
220
0
230
1
40
0.995725
41
0.761807904943533
42
1.67551608191389
0
ELLIPSE
5
20A
100
AcDbEntity
8
1
62
256
6
ByLayer
370
13
48
1
60
0
100
AcDbEllipse
10
232.790539
20
21.871491
30
0
11
0.00523359562421254
21
-0.0998629534754704
31
0
210
0
220
0
230
1
40
0.995725
41
-2.37978474864501
42
-1.46607657167419
0
ELLIPSE
5
20B
100
AcDbEntity
8
1
62
256
6
ByLayer
370
13
48
1
60
0
100
AcDbEllipse
10
220.071393
20
7.785988
30
0
11
0.197551554484215
21
0.0311990916673893
31
0
210
0
220
0
230
1
40
0.009655
41
-3.04959407911205
42
-1.47879775232188
0
ELLIPSE
5
20C
100
AcDbEntity
8
1
62
256
6
ByLayer
370
18
48
1
60
0
100
AcDbEllipse
10
226.281937
20
14.64313
30
0
11
0.0877359970442914
21
-1.67410255206264
31
0
210
0
220
0
230
1
40
0.995725
41
-2.61799387799147
42
-1.5707963267949
0
ELLIPSE
5
20D
100
AcDbEntity
8
1
62
256
6
ByLayer
370
18
48
1
60
0
100
AcDbEllipse
10
227.375169
20
15.443092
30
0
11
-0.21341648092763
21
0.330813521388769
31
0
210
0
220
0
230
1
40
0.48867
41
0.291314926054775
42
1.57317835191166
0
ELLIPSE
5
20E
100
AcDbEntity
8
1
62
256
6
ByLayer
370
18
48
1
60
0
100
AcDbEllipse
10
226.281937
20
14.64313
30
0
11
0.0877359970442914
21
-1.67410255206264
31
0
210
0
220
0
230
1
40
0.995725
41
1.5707963267949
42
2.61799387799147
0
ELLIPSE
5
20F
100
AcDbEntity
8
1
62
256
6
ByLayer
370
18
48
1
60
0
100
AcDbEllipse
10
226.281937
20
14.64313
30
0
11
0.0877359970442914
21
-1.67410255206264
31
0
210
0
220
0
230
1
40
0.995725
41
2.61799387799148
42
-2.61799387799147
0
ELLIPSE
5
210
100
AcDbEntity
8
1
62
256
6
ByLayer
370
18
48
1
60
0
100
AcDbEllipse
10
226.281937
20
14.64313
30
0
11
0.0877359970442914
21
-1.67410255206264
31
0
210
0
220
0
230
1
40
0.995725
41
0.523598775598307
42
1.5707963267949
0
ELLIPSE
5
211
100
AcDbEntity
8
1
62
256
6
ByLayer
370
18
48
1
60
0
100
AcDbEllipse
10
226.281937
20
14.64313
30
0
11
0.0877359970442914
21
-1.67410255206264
31
0
210
0
220
0
230
1
40
0.995725
41
-0.523598775598285
42
0.523598775598307
0
ELLIPSE
5
212
100
AcDbEntity
8
1
62
256
6
ByLayer
370
18
48
1
60
0
100
AcDbEllipse
10
226.059023
20
16.116783
30
0
11
-0.391877312291973
21
-0.020537419687869
31
0
210
0
220
0
230
1
40
0.491826
41
0.288932900934257
42
1.5707963267949
0
ELLIPSE
5
213
100
AcDbEntity
8
1
62
256
6
ByLayer
370
18
48
1
60
0
100
AcDbEllipse
10
225.331902
20
15.879766
30
0
11
-0.328810806110967
21
-0.21495357752658
31
0
210
0
220
0
230
1
40
0.490768
41
2.94329838355332
42
-2.46819100314319
0
ELLIPSE
5
214
100
AcDbEntity
8
1
62
256
6
ByLayer
370
18
48
1
60
0
100
AcDbEllipse
10
227.375169
20
15.443092
30
0
11
-0.21341648092631
21
0.330813521389079
31
0
210
0
220
0
230
1
40
0.48867
41
1.57317835191917
42
2.85504177777704
0
ELLIPSE
5
215
100
AcDbEntity
8
1
62
256
6
ByLayer
370
18
48
1
60
0
100
AcDbEllipse
10
226.136653
20
14.635516
30
0
11
0.0675290843392084
21
-1.28853168869388
31
0
210
0
220
0
230
1
40
0.995725
41
-0.773927979467149
42
-2.21217808980824E-14
0
ELLIPSE
5
216
100
AcDbEntity
8
1
62
256
6
ByLayer
370
18
48
1
60
0
100
AcDbEllipse
10
226.281937
20
14.64313
30
0
11
0.0877359970442914
21
-1.67410255206264
31
0
210
0
220
0
230
1
40
0.995725
41
-1.5707963267949
42
-0.523598775598285
0
ELLIPSE
5
217
100
AcDbEntity
8
1
62
256
6
ByLayer
370
18
48
1
60
0
100
AcDbEllipse
10
226.214283
20
13.154249
30
0
11
-0.391877312293397
21
-0.0205374196886174
31
0
210
0
220
0
230
1
40
0.491826
41
-1.5707963267949
42
-0.288932900933125
0
ELLIPSE
5
218
100
AcDbEntity
8
1
62
256
6
ByLayer
370
18
48
1
60
0
100
AcDbEllipse
10
226.136653
20
14.635516
30
0
11
0.0675290843392084
21
-1.28853168869388
31
0
210
0
220
0
230
1
40
0.995725
41
-1.8941510985487
42
-1.23150380240866
0
ELLIPSE
5
219
100
AcDbEntity
8
1
62
256
6
ByLayer
370
18
48
1
60
0
100
AcDbEllipse
10
226.136653
20
14.635516
30
0
11
0.0675290843392084
21
-1.28853168869388
31
0
210
0
220
0
230
1
40
0.995725
41
1.0471975511966
42
2.0943951023932
0
ELLIPSE
5
21A
100
AcDbEntity
8
1
62
256
6
ByLayer
370
18
48
1
60
0
100
AcDbEllipse
10
226.806936
20
15.957069
30
0
11
-0.349478313243788
21
0.179405951069364
31
0
210
0
220
0
230
1
40
0.490768
41
2.94809584056045
42
-0.625095735375437
0
ELLIPSE
5
21B
100
AcDbEntity
8
1
62
256
6
ByLayer
370
18
48
1
60
0
100
AcDbEllipse
10
226.281937
20
14.64313
30
0
11
-0.0942047212358189
21
1.79753316255831
31
0
210
0
220
0
230
1
40
0.995725
41
0
42
6.28318530717959
0
ELLIPSE
5
21C
100
AcDbEntity
8
1
62
256
6
ByLayer
370
18
48
1
60
0
100
AcDbEllipse
10
226.136653
20
14.635516
30
0
11
-0.0675290843392094
21
1.28853168869388
31
0
210
0
220
0
230
1
40
0.995725
41
-3.03890209425327
42
-2.0943951023932
0
ELLIPSE
5
21D
100
AcDbEntity
8
1
62
256
6
ByLayer
370
18
48
1
60
0
100
AcDbEllipse
10
227.452799
20
13.961824
30
0
11
-0.177667934091965
21
-0.351309387089479
31
0
210
0
220
0
230
1
40
0.48867
41
-1.57317835192548
42
-0.291314926057937
0
ELLIPSE
5
21E
100
AcDbEntity
8
1
62
256
6
ByLayer
370
18
48
1
60
0
100
AcDbEllipse
10
226.208142
20
14.639263
30
0
11
-0.149157475290047
21
2.84609417405066
31
0
210
0
220
0
230
1
40
0.995725
41
9.25163458699469E-05
42
3.14158693516111
0
ELLIPSE
5
21F
100
AcDbEntity
8
1
62
256
6
ByLayer
370
18
48
1
60
0
100
AcDbEllipse
10
226.941404
20
13.391266
30
0
11
-0.328810806110984
21
-0.214953577526597
31
0
210
0
220
0
230
1
40
0.490768
41
0.673401308867718
42
-2.94809584056024
0
ELLIPSE
5
220
100
AcDbEntity
8
1
62
256
6
ByLayer
370
18
48
1
60
0
100
AcDbEllipse
10
226.136653
20
14.635516
30
0
11
0.0675290843392084
21
-1.28853168869388
31
0
210
0
220
0
230
1
40
0.995725
41
2.0943951023932
42
3.14159265358977
0
ELLIPSE
5
221
100
AcDbEntity
8
1
62
256
6
ByLayer
370
18
48
1
60
0
100
AcDbEllipse
10
226.136653
20
14.635516
30
0
11
0.0675290843392084
21
-1.28853168869388
31
0
210
0
220
0
230
1
40
0.995725
41
-3.14159265358977
42
-2.3498297590569
0
ELLIPSE
5
222
100
AcDbEntity
8
1
62
256
6
ByLayer
370
18
48
1
60
0
100
AcDbEllipse
10
227.452799
20
13.961824
30
0
11
-0.177667934094834
21
-0.35130938709026
31
0
210
0
220
0
230
1
40
0.48867
41
-2.85504177777698
42
-1.57317835191341
0
ELLIPSE
5
223
100
AcDbEntity
8
1
62
256
6
ByLayer
370
18
48
1
60
0
100
AcDbEllipse
10
227.611687
20
14.712819
30
0
11
-0.0206256003553244
21
0.393559899646776
31
0
210
0
220
0
230
1
40
0.48763
41
-2.94566969474591
42
-0.320422399685667
0
ELLIPSE
5
224
100
AcDbEntity
8
1
62
256
6
ByLayer
370
18
48
1
60
0
100
AcDbEllipse
10
225.46637
20
13.313963
30
0
11
-0.349478313243799
21
0.179405951069336
31
0
210
0
220
0
230
1
40
0.490768
41
2.51649656479985
42
-2.94329838355338
0
ELLIPSE
5
225
100
AcDbEntity
8
1
62
256
6
ByLayer
370
18
48
1
60
0
100
AcDbEllipse
10
226.274632
20
14.642747
30
0
11
-0.149157475290047
21
2.84609417405066
31
0
210
0
220
0
230
1
40
0.995725
41
0
42
6.28318530717959
0
ELLIPSE
5
226
100
AcDbEntity
8
1
62
256
6
ByLayer
370
18
48
1
60
0
100
AcDbEllipse
10
227.204527
20
-6.152851
30
0
11
2
21
0
31
0
210
0
220
0
230
1
40
0.994055
41
0.426176678502179
42
3.02849513799601
0
ELLIPSE
5
227
100
AcDbEntity
8
1
62
256
6
ByLayer
370
18
48
1
60
0
100
AcDbEllipse
10
227.204527
20
-6.098412
30
0
11
-1.5
21
1.51595858262354E-15
31
0
210
0
220
0
230
1
40
0.994055
41
-3.12343056354422
42
0
0
ELLIPSE
5
228
100
AcDbEntity
8
1
62
256
6
ByLayer
370
18
48
1
60
0
100
AcDbEllipse
10
227.204527
20
-6.098412
30
0
11
-1.5
21
1.51595858262354E-15
31
0
210
0
220
0
230
1
40
0.994055
41
0
42
0.346360451860438
0
ELLIPSE
5
229
100
AcDbEntity
8
1
62
256
6
ByLayer
370
13
48
1
60
0
100
AcDbEllipse
10
1114.895521
20
-1E-06
30
0
11
-1532.25824027651
21
17.8358683837185
31
0
210
0
220
0
230
1
40
0.008871
41
0.943266890039338
42
0.95733220266939
0
ELLIPSE
5
22A
100
AcDbEntity
8
1
62
256
6
ByLayer
370
13
48
1
60
0
100
AcDbEllipse
10
952.473547
20
-0.317302
30
0
11
-852.302890822606
21
0.384425842833705
31
0
210
0
220
0
230
1
40
0.052001
41
-0.525331448688338
42
-0.518269967091501
0
ELLIPSE
5
22B
100
AcDbEntity
8
1
62
256
6
ByLayer
370
13
48
1
60
0
100
AcDbEllipse
10
218.638878
20
15.282739
30
0
11
0.523359562421208
21
-9.98629534754617
31
0
210
0
220
0
230
1
40
0.995725
41
-9.46300582796633E-06
42
0.307190187536233
0
ELLIPSE
5
22C
100
AcDbEntity
8
1
62
256
6
ByLayer
370
13
48
1
60
0
100
AcDbEllipse
10
236.553937
20
0
30
0
11
-45.9156209054771
21
19.4397647216397
31
0
210
0
220
0
230
1
40
0.233264
41
0.819933682700704
42
1.02444528176322
0
ELLIPSE
5
22D
100
AcDbEntity
8
1
62
256
6
ByLayer
370
13
48
1
60
0
100
AcDbEllipse
10
225.867064
20
7.586747
30
0
11
-3.96879667375758
21
-0.704906652556922
31
0
210
0
220
0
230
1
40
0.015321
41
-3.01817314108194
42
-2.71671453998275
0
ELLIPSE
5
22E
100
AcDbEntity
8
1
62
256
6
ByLayer
370
13
48
1
60
0
100
AcDbEllipse
10
234.455002
20
0
30
0
11
-3.81554215582171
21
22.422658304958
31
0
210
0
220
0
230
1
40
0.084934
41
1.594080492402
42
1.74300714627956
0
ELLIPSE
5
22F
100
AcDbEntity
8
1
62
256
6
ByLayer
370
13
48
1
60
0
100
AcDbEllipse
10
219.254478
20
8.54198
30
0
11
0.136073486229514
21
-2.596436790362
31
0
210
0
220
0
230
1
40
0.995725
41
-2.08239418575105
42
-0.581932527432326
0
ELLIPSE
5
230
100
AcDbEntity
8
1
62
256
6
ByLayer
370
13
48
1
60
0
100
AcDbEllipse
10
227.002789
20
-5.965762
30
0
11
2
21
0
31
0
210
0
220
0
230
1
40
0.994055
41
0.751036944180714
42
2.96870704767145
0
ELLIPSE
5
231
100
AcDbEntity
8
1
62
256
6
ByLayer
370
13
48
1
60
0
100
AcDbEllipse
10
247.119692
20
1.5E-05
30
0
11
-242.068671232492
21
0.109813922158618
31
0
210
0
220
0
230
1
40
0.092638
41
-1.4477769962697
42
-1.43811987611863
0
ELLIPSE
5
232
100
AcDbEntity
8
1
62
256
6
ByLayer
370
13
48
1
60
0
100
AcDbEllipse
10
212
20
6.170534
30
0
11
-3
21
3.03191716524709E-15
31
0
210
0
220
0
230
1
40
0.759491
41
-2.76766684889322
42
-1.69227766487317
0
ELLIPSE
5
233
100
AcDbEntity
8
1
62
256
6
ByLayer
370
13
48
1
60
0
100
AcDbEllipse
10
218.90823
20
14.375219
30
0
11
0.136073486229514
21
-2.596436790362
31
0
210
0
220
0
230
1
40
0.995725
41
-2.20424198809739
42
-1.46607657167524
0
ELLIPSE
5
234
100
AcDbEntity
8
1
62
256
6
ByLayer
370
13
48
1
60
0
100
AcDbEllipse
10
218.664116
20
8.51104
30
0
11
-0.109905508108455
21
2.09712202298469
31
0
210
0
220
0
230
1
40
0.995725
41
2.21256348620486
42
2.7161943455673
0
ELLIPSE
5
235
100
AcDbEntity
8
1
62
256
6
ByLayer
370
13
48
1
60
0
100
AcDbEllipse
10
218.664116
20
8.51104
30
0
11
-0.109905508108455
21
2.09712202298469
31
0
210
0
220
0
230
1
40
0.995725
41
-2.74205116609543
42
-2.083041754577
0
ELLIPSE
5
236
100
AcDbEntity
8
1
62
256
6
ByLayer
370
13
48
1
60
0
100
AcDbEllipse
10
225.074424
20
7.545206
30
0
11
0.0523359562421208
21
-0.998629534754617
31
0
210
0
220
0
230
1
40
0.092371
41
-1.5707963267949
42
0
0
ELLIPSE
5
237
100
AcDbEntity
8
1
62
256
6
ByLayer
370
13
48
1
60
0
100
AcDbEllipse
10
234.268769
20
-14.311894
30
0
11
-0.0638451900685651
21
-0.51594308739111
31
0
210
0
220
0
230
1
40
0.113522
41
-1.64601388235048
42
-0.0752175555481816
0
ELLIPSE
5
238
100
AcDbEntity
8
1
62
256
6
ByLayer
370
13
48
1
60
0
100
AcDbEllipse
10
217.604447
20
18.631146
30
0
11
-0.143594274786902
21
2.73994198476544
31
0
210
0
220
0
230
1
40
0.016833
41
0.326127687946918
42
0.836829632620146
0
ELLIPSE
5
239
100
AcDbEntity
8
1
62
256
6
ByLayer
370
13
48
1
60
0
100
AcDbEllipse
10
218.347276
20
0
30
0
11
-1.18543164746417
21
22.4247311129409
31
0
210
0
220
0
230
1
40
0.092638
41
-0.123019372964774
42
-0.00489770415934745
0
ELLIPSE
5
23A
100
AcDbEntity
8
1
62
256
6
ByLayer
370
13
48
1
60
0
100
AcDbEllipse
10
221.879362
20
7.37776
30
0
11
-0.31839267658542
21
-0.395166625647377
31
0
210
0
220
0
230
1
40
0.966608
41
-2.12586228208057
42
-1.28979794427784
0
ELLIPSE
5
23B
100
AcDbEntity
8
1
62
256
6
ByLayer
370
13
48
1
60
0
100
AcDbEllipse
10
222.120892
20
7.390418
30
0
11
-0.0261679781210611
21
0.499314767377309
31
0
210
0
220
0
230
1
40
0.995725
41
0.927295218001659
42
1.13806179252791
0
ELLIPSE
5
23C
100
AcDbEntity
8
1
62
256
6
ByLayer
370
13
48
1
60
0
100
AcDbEllipse
10
218.111055
20
7.180271
30
0
11
-3.96879667213425
21
-0.70490665226352
31
0
210
0
220
0
230
1
40
0.015321
41
-3.01817314070395
42
-2.71671453989386
0
ELLIPSE
5
23D
100
AcDbEntity
8
1
62
256
6
ByLayer
370
13
48
1
60
0
100
AcDbEllipse
10
234.604857
20
0.122728
30
0
11
-0.0217369292280055
21
1.0112489019854
31
0
210
0
220
0
230
1
40
0.102187
41
-0.123780277969372
42
1.05992562490454
0
ELLIPSE
5
23E
100
AcDbEntity
8
1
62
256
6
ByLayer
370
13
48
1
60
0
100
AcDbEllipse
10
216.020675
20
6.676685
30
0
11
-0.29369042064903
21
-0.95590058940195
31
0
210
0
220
0
230
1
40
0.0868
41
-1.53907871771949
42
-1.39194541304743E-05
0
ELLIPSE
5
23F
100
AcDbEntity
8
1
62
256
6
ByLayer
370
13
48
1
60
0
100
AcDbEllipse
10
236.592877
20
0
30
0
11
-2.71588477683231
21
-22.4227487154914
31
0
210
0
220
0
230
1
40
0.116997
41
-1.28907187127388
42
-0.090018809818079
0
ELLIPSE
5
240
100
AcDbEntity
8
1
62
256
6
ByLayer
370
13
48
1
60
0
100
AcDbEllipse
10
225.557876
20
-3.444553
30
0
11
0.57569551866333
21
-10.9849248823008
31
0
210
0
220
0
230
1
40
0.995725
41
-3.14159265358978
42
-2.83440246605355
0
ELLIPSE
5
241
100
AcDbEntity
8
1
62
256
6
ByLayer
370
13
48
1
60
0
100
AcDbEllipse
10
227.002789
20
-5.965762
30
0
11
-2.1
21
2.12234201567296E-15
31
0
210
0
220
0
230
1
40
0.994055
41
-2.75439127440655
42
-0.271747632283097
0
ELLIPSE
5
242
100
AcDbEntity
8
1
62
256
6
ByLayer
370
13
48
1
60
0
100
AcDbEllipse
10
5.5
20
-29.498313
30
0
11
-0.5
21
5.05319527541181E-16
31
0
210
0
220
0
230
1
40
0.5
41
1.5707963267949
42
3.14159265358979
0
ELLIPSE
5
243
100
AcDbEntity
8
1
62
256
6
ByLayer
370
13
48
1
60
0
100
AcDbEllipse
10
218.546634
20
15.277905
30
0
11
-0.471023606179095
21
8.98766581279155
31
0
210
0
220
0
230
1
40
0.995725
41
2.79252680319576
42
3.02206401946906
0
ELLIPSE
5
244
100
AcDbEntity
8
1
62
256
6
ByLayer
370
13
48
1
60
0
100
AcDbEllipse
10
217.749828
20
6.145421
30
0
11
-3.84717853329935
21
0.493687097643741
31
0
210
0
220
0
230
1
40
0.197004
41
-0.669180054128461
42
-0.453634867478009
0
ELLIPSE
5
245
100
AcDbEntity
8
1
62
256
6
ByLayer
370
13
48
1
60
0
100
AcDbEllipse
10
231.965057
20
7.906329
30
0
11
-0.0261679781210608
21
0.499314767377308
31
0
210
0
220
0
230
1
40
0.995725
41
-0.990362103391599
42
-0.927295220885108
0
ELLIPSE
5
246
100
AcDbEntity
8
1
62
256
6
ByLayer
370
13
48
1
60
0
100
AcDbEllipse
10
221.793937
20
6.857633
30
0
11
0.353010790461904
21
-0.935619250452587
31
0
210
0
220
0
230
1
40
0.088046
41
-1.59884006173132
42
-0.0280437349367605
0
ELLIPSE
5
247
100
AcDbEntity
8
1
62
256
6
ByLayer
370
13
48
1
60
0
100
AcDbEllipse
10
212
20
1.292054
30
0
11
-0.494061601264189
21
13.9954230504054
31
0
210
0
220
0
230
1
40
0.355511
41
-0.53712935302837
42
-0.384576032566081
0
ELLIPSE
5
248
100
AcDbEntity
8
1
62
256
6
ByLayer
370
13
48
1
60
0
100
AcDbEllipse
10
234.104219
20
8.018438
30
0
11
-0.0194504315855623
21
1.00034701675769
31
0
210
0
220
0
230
1
40
0.104907
41
-3.13813801486382
42
-2.60050373085095
0
ELLIPSE
5
249
100
AcDbEntity
8
1
62
256
6
ByLayer
370
13
48
1
60
0
100
AcDbEllipse
10
238.592487
20
2.239965
30
0
11
-5.85780778298315
21
-1.95897153591301
31
0
210
0
220
0
230
1
40
0.837237
41
-0.373870623536946
42
-0.226318554408322
0
ELLIPSE
5
24A
100
AcDbEntity
8
1
62
256
6
ByLayer
370
13
48
1
60
0
100
AcDbEllipse
10
227.002789
20
-6.499263
30
0
11
2
21
0
31
0
210
0
220
0
230
1
40
0.994055
41
2.51592490762207
42
2.78305844206279
0
ELLIPSE
5
24B
100
AcDbEntity
8
1
62
256
6
ByLayer
370
13
48
1
60
0
100
AcDbEllipse
10
218.39719
20
8.497051
30
0
11
-2.29348548686715
21
1.84790145595034
31
0
210
0
220
0
230
1
40
0.775936
41
3.05283506783567
42
-2.7795834857851
0
ELLIPSE
5
24C
100
AcDbEntity
8
1
62
256
6
ByLayer
370
13
48
1
60
0
100
AcDbEllipse
10
234.64187
20
7.493696
30
0
11
-0.0190690707679138
21
-0.50160702675872
31
0
210
0
220
0
230
1
40
0.195483
41
-0.786740978470842
42
-0.331356153712627
0
ELLIPSE
5
24D
100
AcDbEntity
8
1
62
256
6
ByLayer
370
13
48
1
60
0
100
AcDbEllipse
10
216.487208
20
9.916707
30
0
11
-0.026167978121061
21
0.499314767377312
31
0
210
0
220
0
230
1
40
0.995725
41
-2.08239418575109
42
-1.46607657167532
0
ELLIPSE
5
24E
100
AcDbEntity
8
1
62
256
6
ByLayer
370
13
48
1
60
0
100
AcDbEllipse
10
234.323506
20
9.732263
30
0
11
-0.0810662451132979
21
2.59915576714625
31
0
210
0
220
0
230
1
40
0.529595
41
2.97481779745482
42
-3.13037433356012
0
ELLIPSE
5
24F
100
AcDbEntity
8
1
62
256
6
ByLayer
370
13
48
1
60
0
100
AcDbEllipse
10
234.453762
20
9.739089
30
0
11
0.136073486229514
21
-2.59643679036201
31
0
210
0
220
0
230
1
40
0.995725
41
-0.990362103391473
42
-0.858139698776692
0
ELLIPSE
5
250
100
AcDbEntity
8
1
62
256
6
ByLayer
370
13
48
1
60
0
100
AcDbEllipse
10
218.710238
20
8.513457
30
0
11
0.136073486229514
21
-2.596436790362
31
0
210
0
220
0
230
1
40
0.995725
41
0.0555653949272747
42
1.07574208457342
0
ELLIPSE
5
251
100
AcDbEntity
8
1
62
256
6
ByLayer
370
13
48
1
60
0
100
AcDbEllipse
10
225.65012
20
-3.439719
30
0
11
-0.523359562421216
21
9.98629534754617
31
0
210
0
220
0
230
1
40
0.995725
41
0
42
0.307190187536239
0
ELLIPSE
5
252
100
AcDbEntity
8
1
62
256
6
ByLayer
370
13
48
1
60
0
100
AcDbEllipse
10
234.530865
20
-1.999123
30
0
11
-2.2331352592729
21
3.62484931527211
31
0
210
0
220
0
230
1
40
0.367348
41
-1.01306387997957
42
-0.869724190824038
0
ELLIPSE
5
253
100
AcDbEntity
8
1
62
256
6
ByLayer
370
13
48
1
60
0
100
AcDbEllipse
10
219.056594
20
8.531609
30
0
11
-1.65564191742645
21
-2.05486645372213
31
0
210
0
220
0
230
1
40
0.966608
41
1.54124461014804
42
1.85179470899985
0
ELLIPSE
5
254
100
AcDbEntity
8
1
62
256
6
ByLayer
370
13
48
1
60
0
100
AcDbEllipse
10
234.500707
20
0.122409
30
0
11
-0.010868464613615
21
0.50562445097544
31
0
210
0
220
0
230
1
40
0.102187
41
-0.123780277971298
42
0.221829960747795
0
ELLIPSE
5
255
100
AcDbEntity
8
1
62
256
6
ByLayer
370
13
48
1
60
0
100
AcDbEllipse
10
229.097669
20
-6.96467
30
0
11
-6.03299554480594
21
-0.0252449192286544
31
0
210
0
220
0
230
1
40
0.98861
41
3.00726343127812
42
-2.98949853149381
0
ELLIPSE
5
256
100
AcDbEntity
8
1
62
256
6
ByLayer
370
13
48
1
60
0
100
AcDbEllipse
10
247.119621
20
5.5E-05
30
0
11
-239.58569212212
21
0.108680977325392
31
0
210
0
220
0
230
1
40
0.092638
41
-1.42409132730984
42
-1.41424336234704
0
ELLIPSE
5
257
100
AcDbEntity
8
1
62
256
6
ByLayer
370
13
48
1
60
0
100
AcDbEllipse
10
234.631016
20
6.465659
30
0
11
-0.0097252157895812
21
0.50017350831166
31
0
210
0
220
0
230
1
40
0.104907
41
1.92331681591835
42
-2.78907216446467
0
ELLIPSE
5
258
100
AcDbEntity
8
1
62
256
6
ByLayer
370
13
48
1
60
0
100
AcDbEllipse
10
233.628103
20
-14.329611
30
0
11
-0.294354790781617
21
-2.48591925943479
31
0
210
0
220
0
230
1
40
0.118512
41
0
42
6.28318530717959
0
ELLIPSE
5
259
100
AcDbEntity
8
1
62
256
6
ByLayer
370
13
48
1
60
0
100
AcDbEllipse
10
228.491694
20
10.628278
30
0
11
-1.6556419181839
21
-2.05486645343306
31
0
210
0
220
0
230
1
40
0.966608
41
0.713732916749125
42
1.07490334512987
0
ELLIPSE
5
25A
100
AcDbEntity
8
1
62
256
6
ByLayer
370
13
48
1
60
0
100
AcDbEllipse
10
218.546634
20
15.277905
30
0
11
-0.471023606179095
21
8.98766581279155
31
0
210
0
220
0
230
1
40
0.995725
41
-2.91693381338446
42
-2.83440246605356
0
ELLIPSE
5
25B
100
AcDbEntity
8
1
62
256
6
ByLayer
370
13
48
1
60
0
100
AcDbEllipse
10
220.628304
20
7.982553
30
0
11
0.0261679781210604
21
-0.499314767377309
31
0
210
0
220
0
230
1
40
0.092371
41
-1.00594782560334
42
-0.630730776736619
0
ELLIPSE
5
25C
100
AcDbEntity
8
1
62
256
6
ByLayer
370
13
48
1
60
0
100
AcDbEllipse
10
219.254478
20
8.54198
30
0
11
0.136073486229514
21
-2.596436790362
31
0
210
0
220
0
230
1
40
0.995725
41
0.687062733516919
42
1.13806179252794
0
ELLIPSE
5
25D
100
AcDbEntity
8
1
62
256
6
ByLayer
370
13
48
1
60
0
100
AcDbEllipse
10
177.738504
20
0
30
0
11
-242.068754194308
21
0.10981589508497
31
0
210
0
220
0
230
1
40
0.092638
41
-1.79684337370081
42
-1.74032686631203
0
ELLIPSE
5
25E
100
AcDbEntity
8
1
62
256
6
ByLayer
370
13
48
1
60
0
100
AcDbEllipse
10
212
20
5.662772
30
0
11
-4.99980256881236
21
0.0554994844450739
31
0
210
0
220
0
230
1
40
0.800647
41
1.73807691273503
42
1.82770928152758
0
ELLIPSE
5
25F
100
AcDbEntity
8
1
62
256
6
ByLayer
370
13
48
1
60
0
100
AcDbEllipse
10
229.635371
20
7.784235
30
0
11
-0.318391938934847
21
-0.395167349003848
31
0
210
0
220
0
230
1
40
0.966608
41
-2.12586430563991
42
-2.06669134131094
0
ELLIPSE
5
260
100
AcDbEntity
8
1
62
256
6
ByLayer
370
13
48
1
60
0
100
AcDbEllipse
10
240.091475
20
0.700105
30
0
11
-6.03299543248756
21
-0.0252444658726712
31
0
210
0
220
0
230
1
40
0.98861
41
0.0284922095621845
42
0.152094197749841
0
POINT
5
70
100
AcDbEntity
8
1
62
256
6
ByLayer
370
18
48
1
60
0
100
AcDbPoint
10
0
20
0
30
0
39
0
210
0
220
0
230
1
50
360
0
POINT
5
72
100
AcDbEntity
8
80
62
256
6
ByLayer
370
18
48
1
60
0
100
AcDbPoint
10
0
20
0
30
0
39
0
210
0
220
0
230
1
50
360
0
POINT
5
74
100
AcDbEntity
8
81
62
256
6
ByLayer
370
18
48
1
60
0
100
AcDbPoint
10
236
20
0
30
0
39
0
210
0
220
0
230
1
50
360
0
POINT
5
76
100
AcDbEntity
8
1
62
256
6
ByLayer
370
18
48
1
60
1
100
AcDbPoint
10
0
20
-34
30
0
39
0
210
0
220
0
230
1
50
360
0
POINT
5
77
100
AcDbEntity
8
1
62
256
6
ByLayer
370
18
48
1
60
1
100
AcDbPoint
10
236
20
-23
30
0
39
0
210
0
220
0
230
1
50
360
0
POINT
5
78
100
AcDbEntity
8
1
62
256
6
ByLayer
370
18
48
1
60
1
100
AcDbPoint
10
-18
20
-25
30
0
39
0
210
0
220
0
230
1
50
360
0
POINT
5
79
100
AcDbEntity
8
1
62
256
6
ByLayer
370
18
48
1
60
1
100
AcDbPoint
10
0
20
-34
30
0
39
0
210
0
220
0
230
1
50
360
0
POINT
5
7A
100
AcDbEntity
8
1
62
256
6
ByLayer
370
18
48
1
60
1
100
AcDbPoint
10
236
20
-23
30
0
39
0
210
0
220
0
230
1
50
360
0
POINT
5
7B
100
AcDbEntity
8
1
62
256
6
ByLayer
370
18
48
1
60
1
100
AcDbPoint
10
18.3957
20
-34
30
0
39
0
210
0
220
0
230
1
50
360
0
POINT
5
7C
100
AcDbEntity
8
1
62
256
6
ByLayer
370
18
48
1
60
1
100
AcDbPoint
10
47
20
-23
30
0
39
0
210
0
220
0
230
1
50
360
0
POINT
5
7D
100
AcDbEntity
8
1
62
256
6
ByLayer
370
18
48
1
60
1
100
AcDbPoint
10
236
20
-23
30
0
39
0
210
0
220
0
230
1
50
360
0
POINT
5
7E
100
AcDbEntity
8
1
62
256
6
ByLayer
370
18
48
1
60
1
100
AcDbPoint
10
234.7234
20
-11.5
30
0
39
0
210
0
220
0
230
1
50
360
0
SPLINE
5
261
100
AcDbEntity
8
1
62
256
6
ByLayer
370
18
48
1
60
0
100
AcDbSpline
70
4
71
1
72
4
73
2
40
0
40
0
40
1
40
1
41
1
10
234.800713127584
20
-14.8338678554399
30
0
41
1
10
234.411419951323
20
-14.1193534682081
30
0
0
SPLINE
5
262
100
AcDbEntity
8
1
62
256
6
ByLayer
370
18
48
1
60
0
100
AcDbSpline
70
4
71
1
72
4
73
2
40
0
40
0
40
1
40
1
41
1
10
235.555958110736
20
-6.82915276751189
30
0
41
1
10
235.990160650644
20
-7.20457458133436
30
0
0
SPLINE
5
263
100
AcDbEntity
8
1
62
256
6
ByLayer
370
18
48
1
60
0
100
AcDbSpline
70
4
71
3
72
12
73
8
40
0
40
0
40
0
40
0
40
0.5
40
0.5
40
0.75
40
0.75
40
1
40
1
40
1
40
1
41
1
10
234.464705210931
20
0.472342338910494
30
0
41
1
10
234.531820335419
20
0.463500714133716
30
0
41
1
10
234.596055297984
20
0.43464630356138
30
0
41
1
10
234.673063730669
20
0.368876161793395
30
0
41
1
10
234.695509450645
20
0.343165609883215
30
0
41
1
10
234.7319015739
20
0.286484669789388
30
0
41
1
10
234.74531490514
20
0.255417937499914
30
0
41
1
10
234.755465232701
20
0.223292324347511
30
0
0
SPLINE
5
264
100
AcDbEntity
8
1
62
256
6
ByLayer
370
18
48
1
60
0
100
AcDbSpline
70
4
71
3
72
27
73
23
40
0
40
0
40
0
40
0
40
0.0030864405857975
40
0.0188334796970736
40
0.0503275579196259
40
0.11331571436473
40
0.239292027254939
40
0.365268340145148
40
0.487307893257538
40
0.491244653035357
40
0.499118172590995
40
0.506991692146633
40
0.52273873125791
40
0.554232809480462
40
0.617220965925566
40
0.743197278815775
40
0.869173591705984
40
0.932161748151089
40
0.963655826373641
40
0.979402865484917
40
0.995149904596193
40
1
40
1
40
1
40
1
41
1
10
234.290598963856
20
-13.7480074877902
30
0
41
1
10
234.299247022491
20
-13.7385103175714
30
0
41
1
10
234.34684178197
20
-13.6762598586009
30
0
41
1
10
234.379717997613
20
-13.4450361919727
30
0
41
1
10
234.44479243001
20
-12.941392664915
30
0
41
1
10
234.581248714962
20
-11.9192633202186
30
0
41
1
10
234.771238301751
20
-10.4657445514889
30
0
41
1
10
235.008337074302
20
-8.7390738474738
30
0
41
1
10
235.16177837809
20
-7.57486033613293
30
0
41
1
10
235.239322229863
20
-6.95830139510113
30
0
41
1
10
235.235770288879
20
-6.87227839544292
30
0
41
1
10
235.20464789356
20
-6.72832008956362
30
0
41
1
10
235.169435670448
20
-6.47422024554047
30
0
41
1
10
235.085284583351
20
-5.96701634848557
30
0
41
1
10
234.925855621695
20
-4.95243268203052
30
0
41
1
10
234.694320665624
20
-3.50287031694734
30
0
41
1
10
234.461289455859
20
-2.05385405626763
30
0
41
1
10
234.304117483041
20
-1.03853791327901
30
0
41
1
10
234.216180357959
20
-0.532149018993806
30
0
41
1
10
234.180969511572
20
-0.239572432492935
30
0
41
1
10
234.158017317447
20
-0.0755031903005943
30
0
41
1
10
234.126021954736
20
0.0104946535321915
30
0
41
1
10
234.116881106886
20
0.029547309247846
30
0
0
SPLINE
5
265
100
AcDbEntity
8
1
62
256
6
ByLayer
370
18
48
1
60
0
100
AcDbSpline
70
4
71
2
72
6
73
3
40
0
40
0
40
0
40
1
40
1
40
1
41
1
10
234.457189228943
20
0.0669593944465419
30
0
41
1
10
234.449534875526
20
0.114999779023123
30
0
41
1
10
234.436047913218
20
0.161754792386063
30
0
0
SPLINE
5
266
100
AcDbEntity
8
1
62
256
6
ByLayer
370
18
48
1
60
0
100
AcDbSpline
70
4
71
1
72
4
73
2
40
0
40
0
40
1
40
1
41
1
10
235.946471988129
20
-7.78534508995906
30
0
41
1
10
235.979329004839
20
-7.53725494917092
30
0
0
SPLINE
5
267
100
AcDbEntity
8
1
62
256
6
ByLayer
370
18
48
1
60
0
100
AcDbSpline
70
4
71
2
72
6
73
3
40
0
40
0
40
0
40
1
40
1
40
1
41
1
10
234.260180841389
20
-14.1562962649224
30
0
41
1
10
234.308508526799
20
-14.1486874155019
30
0
41
1
10
234.355543153995
20
-14.1352806311603
30
0
0
SPLINE
5
268
100
AcDbEntity
8
1
62
256
6
ByLayer
370
18
48
1
60
0
100
AcDbSpline
70
4
71
1
72
4
73
2
40
0
40
0
40
1
40
1
41
1
10
234.353368705886
20
-14.9552127255881
30
0
41
1
10
234.260180841389
20
-14.1562962649224
30
0
0
SPLINE
5
269
100
AcDbEntity
8
1
62
256
6
ByLayer
370
18
48
1
60
0
100
AcDbSpline
70
4
71
1
72
4
73
2
40
0
40
0
40
1
40
1
41
1
10
235.863960105289
20
-6.41251254709553
30
0
41
1
10
234.877532521832
20
-0.221478774760584
30
0
0
SPLINE
5
26A
100
AcDbEntity
8
1
62
256
6
ByLayer
370
18
48
1
60
0
100
AcDbSpline
70
4
71
1
72
4
73
2
40
0
40
0
40
1
40
1
41
1
10
234.464704534148
20
0.472249499261522
30
0
41
1
10
234.061310317854
20
0.525041637090482
30
0
0
SPLINE
5
26B
100
AcDbEntity
8
1
62
256
6
ByLayer
370
18
48
1
60
0
100
AcDbSpline
70
4
71
1
72
4
73
2
40
0
40
0
40
1
40
1
41
1
10
235.990160650644
20
-7.20457458133436
30
0
41
1
10
235.974066489516
20
-7.10356413033668
30
0
0
SPLINE
5
26C
100
AcDbEntity
8
1
62
256
6
ByLayer
370
18
48
1
60
0
100
AcDbSpline
70
4
71
1
72
4
73
2
40
0
40
0
40
1
40
1
41
1
10
235.051245754521
20
-14.5448389385346
30
0
41
1
10
235.886152636366
20
-8.24079229635402
30
0
0
SPLINE
5
26D
100
AcDbEntity
8
1
62
256
6
ByLayer
370
18
48
1
60
0
100
AcDbSpline
70
4
71
3
72
12
73
8
40
0
40
0
40
0
40
0
40
0.5
40
0.5
40
0.75
40
0.75
40
1
40
1
40
1
40
1
41
1
10
235.051250855153
20
-14.5447518419442
30
0
41
1
10
235.042356361314
20
-14.6114679844317
30
0
41
1
10
235.013331276547
20
-14.675322955347
30
0
41
1
10
234.94716693633
20
-14.7518727230747
30
0
41
1
10
234.921302936059
20
-14.7741853158552
30
0
41
1
10
234.864283768528
20
-14.8103618363638
30
0
41
1
10
234.833031534717
20
-14.8236957156878
30
0
41
1
10
234.800714090596
20
-14.8337859924712
30
0
0
SPLINE
5
26E
100
AcDbEntity
8
1
62
256
6
ByLayer
370
18
48
1
60
0
100
AcDbSpline
70
4
71
3
72
10
73
6
40
0
40
0
40
0
40
0
40
0.538207622757682
40
0.538207622757682
40
1
40
1
40
1
40
1
41
1
10
234.802775209238
20
-14.8330956169566
30
0
41
1
10
234.739254940287
20
-14.8512007965995
30
0
41
1
10
234.675735136118
20
-14.8693090824374
30
0
41
1
10
234.557713467146
20
-14.902950181115
30
0
41
1
10
234.503211660843
20
-14.9184833863344
30
0
41
1
10
234.448710350964
20
-14.934019905242
30
0
0
SPLINE
5
26F
100
AcDbEntity
8
1
62
256
6
ByLayer
370
18
48
1
60
0
100
AcDbSpline
70
4
71
3
72
30
73
26
40
0
40
0
40
0
40
0
40
0.0051026963670988
40
0.0127874374031496
40
0.0281569194752512
40
0.0588958836194545
40
0.120373811907861
40
0.243329668484674
40
0.366285525061487
40
0.485399011120275
40
0.4892413816383
40
0.496926122674351
40
0.504610863710402
40
0.519980345782503
40
0.550719309926707
40
0.612197238215113
40
0.735153094791926
40
0.858108951368739
40
0.919586879657146
40
0.950325843801349
40
0.965695325873451
40
0.981064807945552
40
0.988749548981603
40
0.996434290017654
40
1
40
1
40
1
40
1
41
1
10
234.244148536534
20
-13.960198151576
30
0
41
1
10
234.272489373909
20
-13.9489410520495
30
0
41
1
10
234.34333851055
20
-13.9141464691299
30
0
41
1
10
234.480386952626
20
-13.7782746236795
30
0
41
1
10
234.523309450731
20
-13.4763938506518
30
0
41
1
10
234.588462061968
20
-12.9721452585167
30
0
41
1
10
234.72490434361
20
-11.9501208059658
30
0
41
1
10
234.914859173723
20
-10.4968679438205
30
0
41
1
10
235.151947525548
20
-8.77027312868987
30
0
41
1
10
235.305495032144
20
-7.60525381903204
30
0
41
1
10
235.384581729108
20
-6.97642756119112
30
0
41
1
10
235.380028996088
20
-6.86616679033125
30
0
41
1
10
235.34744157292
20
-6.71543191969477
30
0
41
1
10
235.312706497585
20
-6.46477528843323
30
0
41
1
10
235.228342488659
20
-5.95628804750675
30
0
41
1
10
235.068980504788
20
-4.94213061832525
30
0
41
1
10
234.837404971419
20
-3.4923142124529
30
0
41
1
10
234.604428430207
20
-2.04363788744595
30
0
41
1
10
234.447119657048
20
-1.02743802714079
30
0
41
1
10
234.359596941703
20
-0.523435525273896
30
0
41
1
10
234.32466812443
20
-0.233202396083527
30
0
41
1
10
234.297125794977
20
-0.036321474948295
30
0
41
1
10
234.226125568111
20
0.137129755419664
30
0
41
1
10
234.134207001909
20
0.228745256296037
30
0
41
1
10
234.075249945664
20
0.260970130016034
30
0
41
1
10
234.056288610052
20
0.269457891173658
30
0
0
SPLINE
5
270
100
AcDbEntity
8
1
62
256
6
ByLayer
370
18
48
1
60
0
100
AcDbSpline
70
4
71
2
72
7
73
4
40
0
40
0
40
0
40
0.5
40
1
40
1
40
1
41
1
10
235.558963327358
20
-7.05735654277913
30
0
41
1
10
235.566455467073
20
-7.00078640401264
30
0
41
1
10
235.565029418025
20
-6.88608626235958
30
0
41
1
10
235.555958110736
20
-6.82915276751189
30
0
0
SPLINE
5
271
100
AcDbEntity
8
1
62
256
6
ByLayer
370
18
48
1
60
0
100
AcDbSpline
70
4
71
1
72
4
73
2
40
0
40
0
40
1
40
1
41
1
10
235.935251136857
20
-6.85995054609839
30
0
41
1
10
235.863960105289
20
-6.41251254709553
30
0
0
SPLINE
5
272
100
AcDbEntity
8
1
62
256
6
ByLayer
370
18
48
1
60
0
100
AcDbSpline
70
4
71
1
72
4
73
2
40
0
40
0
40
1
40
1
41
1
10
234.129268073106
20
0.46634265845725
30
0
41
1
10
234.464704534148
20
0.472249499261551
30
0
0
SPLINE
5
273
100
AcDbEntity
8
1
62
256
6
ByLayer
370
18
48
1
60
0
100
AcDbSpline
70
4
71
3
72
12
73
8
40
0
40
0
40
0
40
0
40
0.441018848791361
40
0.441018848791361
40
0.720346482786144
40
0.720346482786144
40
1
40
1
40
1
40
1
41
1
10
234.44871035084
20
-14.9340199052773
30
0
41
1
10
234.434901627281
20
-14.9379563151537
30
0
41
1
10
234.420981171181
20
-14.9415241938524
30
0
41
1
10
234.398108974311
20
-14.9467378452933
30
0
41
1
10
234.389202679978
20
-14.9486096533895
30
0
41
1
10
234.371323228127
20
-14.9520517702561
30
0
41
1
10
234.362347397927
20
-14.9536222266983
30
0
41
1
10
234.35334852808
20
-14.9550397376484
30
0
0
SPLINE
5
274
100
AcDbEntity
8
1
62
256
6
ByLayer
370
18
48
1
60
0
100
AcDbSpline
70
4
71
3
72
12
73
8
40
0
40
0
40
0
40
0
40
0.115854158990324
40
0.268293128935485
40
0.420732098880647
40
0.496951583853227
40
1
40
1
40
1
40
1
41
1
10
235.096209121801
20
-6.65646021147404
30
0
41
1
10
235.100577918764
20
-6.68393258278596
30
0
41
1
10
235.111291053294
20
-6.74707387513914
30
0
41
1
10
235.13203865035
20
-6.84304299617421
30
0
41
1
10
235.134870955067
20
-6.91163742067275
30
0
41
1
10
235.113289470694
20
-7.08323396696613
30
0
41
1
10
235.09593652942
20
-7.2196356072858
30
0
41
1
10
235.080693373468
20
-7.33841789277488
30
0
0
SPLINE
5
275
100
AcDbEntity
8
1
62
256
6
ByLayer
370
18
48
1
60
0
100
AcDbSpline
70
4
71
1
72
4
73
2
40
0
40
0
40
1
40
1
41
1
10
234.755461960458
20
0.223206251302884
30
0
41
1
10
234.420025499418
20
0.217299410497731
30
0
0
SPLINE
5
276
100
AcDbEntity
8
1
62
256
6
ByLayer
370
18
48
1
60
0
100
AcDbSpline
70
4
71
1
72
4
73
2
40
0
40
0
40
1
40
1
41
1
10
235.974066489516
20
-7.10356413033668
30
0
41
1
10
235.935251136857
20
-6.85995054609839
30
0
0
SPLINE
5
277
100
AcDbEntity
8
1
62
256
6
ByLayer
370
18
48
1
60
0
100
AcDbSpline
70
4
71
2
72
12
73
9
40
0
40
0
40
0
40
0.25
40
0.5
40
0.5
40
0.75
40
0.75
40
0.875
40
1
40
1
40
1
41
1
10
234.411419951323
20
-14.1193534682082
30
0
41
1
10
234.459904071471
20
-14.1055335193367
30
0
41
1
10
234.545634050094
20
-14.0514450127754
30
0
41
1
10
234.579899576954
20
-14.0122445076681
30
0
41
1
10
234.612669916055
20
-13.9747545297521
30
0
41
1
10
234.634236610213
20
-13.9274265682482
30
0
41
1
10
234.644252554407
20
-13.9054466478297
30
0
41
1
10
234.658535536229
20
-13.8561252637335
30
0
41
1
10
234.661952578263
20
-13.8303245513018
30
0
0
SPLINE
5
278
100
AcDbEntity
8
1
62
256
6
ByLayer
370
18
48
1
60
0
100
AcDbSpline
70
4
71
3
72
12
73
8
40
0
40
0
40
0
40
0
40
0.441018848276428
40
0.441018848276428
40
0.720346482527857
40
0.720346482527857
40
1
40
1
40
1
40
1
41
1
10
234.856297980857
20
-0.126619405962799
30
0
41
1
10
234.860257764279
20
-0.140346205503249
30
0
41
1
10
234.863846795627
20
-0.154184090180877
30
0
41
1
10
234.869091215024
20
-0.176920724620203
30
0
41
1
10
234.870974030174
20
-0.185774258389898
30
0
41
1
10
234.874436272835
20
-0.203547876339343
30
0
41
1
10
234.876015848692
20
-0.212470617519926
30
0
41
1
10
234.877441505656
20
-0.221416319757083
30
0
0
SPLINE
5
279
100
AcDbEntity
8
1
62
256
6
ByLayer
370
18
48
1
60
0
100
AcDbSpline
70
4
71
3
72
10
73
6
40
0
40
0
40
0
40
0
40
0.77238517860428
40
0.77238517860428
40
1
40
1
40
1
40
1
41
1
10
234.755386996125
20
0.223204931224615
30
0
41
1
10
234.781367207015
20
0.133138875518654
30
0
41
1
10
234.807349315704
20
0.0430716099717756
30
0
41
1
10
234.840985317633
20
-0.0735358693455055
30
0
41
1
10
234.848641406058
20
-0.100077482777522
30
0
41
1
10
234.856297980856
20
-0.126619405959502
30
0
0
SPLINE
5
27A
100
AcDbEntity
8
1
62
256
6
ByLayer
370
18
48
1
60
0
100
AcDbSpline
70
4
71
3
72
8
73
4
40
0
40
0
40
0
40
0
40
1
40
1
40
1
40
1
41
1
10
235.999943169459
20
-7.31856872336314
30
0
41
1
10
236.000415193703
20
-7.354412300657
30
0
41
1
10
235.997984280218
20
-7.39014448544407
30
0
41
1
10
235.994156289493
20
-7.42581273153726
30
0
0
SPLINE
5
27B
100
AcDbEntity
8
1
62
256
6
ByLayer
370
18
48
1
60
0
100
AcDbSpline
70
4
71
1
72
4
73
2
40
0
40
0
40
1
40
1
41
1
10
234.661952578263
20
-13.8303245513014
30
0
41
1
10
235.051245754521
20
-14.5448389385346
30
0
0
SPLINE
5
27C
100
AcDbEntity
8
1
62
256
6
ByLayer
370
18
48
1
60
0
100
AcDbSpline
70
4
71
2
72
12
73
9
40
0
40
0
40
0
40
0.25
40
0.5
40
0.5
40
0.75
40
0.75
40
0.875
40
1
40
1
40
1
41
1
10
234.420025499418
20
0.217299410497731
30
0
41
1
10
234.406122901681
20
0.265495299805224
30
0
41
1
10
234.351710924051
20
0.350715626528739
30
0
41
1
10
234.312275984124
20
0.384777449961348
30
0
41
1
10
234.274561801033
20
0.417352974298268
30
0
41
1
10
234.226950799245
20
0.438791457687529
30
0
41
1
10
234.204839430039
20
0.448747858595567
30
0
41
1
10
234.155223084189
20
0.462945930226709
30
0
41
1
10
234.129268073106
20
0.466342658457194
30
0
0
SPLINE
5
27D
100
AcDbEntity
8
1
62
256
6
ByLayer
370
18
48
1
60
0
100
AcDbSpline
70
4
71
1
72
4
73
2
40
0
40
0
40
1
40
1
41
1
10
234.355543153995
20
-14.1352806311603
30
0
41
1
10
234.448710350964
20
-14.934019905242
30
0
0
SPLINE
5
27E
100
AcDbEntity
8
1
62
256
6
ByLayer
370
18
48
1
60
0
100
AcDbSpline
70
4
71
3
72
8
73
4
40
0
40
0
40
0
40
0
40
1
40
1
40
1
40
1
41
1
10
235.991122535757
20
-7.210216987818
30
0
41
1
10
235.995995704905
20
-7.24620269670379
30
0
41
1
10
235.999465411162
20
-7.28228972573589
30
0
41
1
10
235.999943169459
20
-7.31856872336314
30
0
0
SPLINE
5
27F
100
AcDbEntity
8
1
62
256
6
ByLayer
370
18
48
1
60
0
100
AcDbSpline
70
4
71
1
72
4
73
2
40
0
40
0
40
1
40
1
41
1
10
234.877532521832
20
-0.221478774760641
30
0
41
1
10
234.457189228943
20
0.0669593944465134
30
0
0
SPLINE
5
280
100
AcDbEntity
8
1
62
256
6
ByLayer
370
18
48
1
60
0
100
AcDbSpline
70
4
71
1
72
4
73
2
40
0
40
0
40
1
40
1
41
1
10
235.979329004839
20
-7.53725494917092
30
0
41
1
10
235.993165867267
20
-7.43277835660152
30
0
0
SPLINE
5
281
100
AcDbEntity
8
1
62
256
6
ByLayer
370
18
48
1
60
0
100
AcDbSpline
70
4
71
1
72
4
73
2
40
0
40
0
40
1
40
1
41
1
10
235.993165867267
20
-7.43277835660149
30
0
41
1
10
235.558963327358
20
-7.05735654277916
30
0
0
SPLINE
5
282
100
AcDbEntity
8
1
62
256
6
ByLayer
370
18
48
1
60
0
100
AcDbSpline
70
4
71
1
72
4
73
2
40
0
40
0
40
1
40
1
41
1
10
234.436047913218
20
0.161754792386063
30
0
41
1
10
234.856297980856
20
-0.126619405959247
30
0
0
SPLINE
5
283
100
AcDbEntity
8
1
62
256
6
ByLayer
370
18
48
1
60
0
100
AcDbSpline
70
4
71
1
72
4
73
2
40
0
40
0
40
1
40
1
41
1
10
235.886152636366
20
-8.24079229635402
30
0
41
1
10
235.946471988129
20
-7.78534508995906
30
0
0
SPLINE
5
284
100
AcDbEntity
8
1
62
256
6
ByLayer
370
13
48
1
60
0
100
AcDbSpline
70
4
71
3
72
22
73
18
40
0
40
0
40
0
40
0
40
0.125
40
0.125
40
0.25
40
0.25
40
0.375
40
0.375
40
0.5
40
0.5
40
0.625
40
0.625
40
0.75
40
0.75
40
0.875
40
0.875
40
1
40
1
40
1
40
1
41
1
10
234.832381499117
20
22.3476152809423
30
0
41
1
10
234.823722805412
20
22.4042446879031
30
0
41
1
10
234.809613252836
20
22.4589609246798
30
0
41
1
10
234.769352918802
20
22.5641671064462
30
0
41
1
10
234.743113707507
20
22.6153740183619
30
0
41
1
10
234.680615312498
20
22.7102215074979
30
0
41
1
10
234.644870287778
20
22.7538769659384
30
0
41
1
10
234.563875515224
20
22.8332212696564
30
0
41
1
10
234.518643391064
20
22.8688369108524
30
0
41
1
10
234.423327506443
20
22.9289341985714
30
0
41
1
10
234.372605223136
20
22.9538970149832
30
0
41
1
10
234.265296634571
20
22.9929989212023
30
0
41
1
10
234.210574939983
20
23.0067199032881
30
0
41
1
10
234.099023469467
20
23.0226478618311
30
0
41
1
10
234.04185540394
20
23.0230849206764
30
0
41
1
10
233.927897041924
20
23.0250036355857
30
0
41
1
10
233.870918627441
20
23.0253659576799
30
0
41
1
10
233.813940881606
20
23.025207479547
30
0
0
SPLINE
5
285
100
AcDbEntity
8
1
62
256
6
ByLayer
370
13
48
1
60
0
100
AcDbSpline
70
4
71
3
72
10
73
6
40
0
40
0
40
0
40
0
40
0.379774261695431
40
0.379774261695431
40
1
40
1
40
1
40
1
41
1
10
232.690606514196
20
21.8553689790693
30
0
41
1
10
232.69590810414
20
21.8552170197816
30
0
41
1
10
232.70685646548
20
21.8550461728001
30
0
41
1
10
232.74791045542
20
21.8546126420115
30
0
41
1
10
232.785868608966
20
21.8543696891948
30
0
41
1
10
232.825066322975
20
21.8542458544181
30
0
0
SPLINE
5
286
100
AcDbEntity
8
1
62
256
6
ByLayer
370
13
48
1
60
0
100
AcDbSpline
70
4
71
3
72
20
73
16
40
0
40
0
40
0
40
0
40
0.499999999999986
40
0.499999999999986
40
0.749999999999973
40
0.749999999999973
40
0.874999999999966
40
0.874999999999966
40
0.906249999999964
40
0.906249999999964
40
0.921874999999963
40
0.921874999999963
40
0.937499999999962
40
0.937499999999962
40
1
40
1
40
1
40
1
41
1
10
226.64405142892
20
8.24831771575674
30
0
41
1
10
227.643949880195
20
8.30072017309666
30
0
41
1
10
228.6438487303
20
8.35311502057718
30
0
41
1
10
230.14369629091
20
8.43172092545737
30
0
41
1
10
230.643644359176
20
8.45794429170314
30
0
41
1
10
231.393569041633
20
8.49722994629789
30
0
41
1
10
231.643544366219
20
8.51031669695854
30
0
41
1
10
231.956010912622
20
8.52672646634321
30
0
41
1
10
232.018507841636
20
8.52993721235785
30
0
41
1
10
232.112245610792
20
8.53490331884743
30
0
41
1
10
232.143492248897
20
8.53654462108727
30
0
41
1
10
232.20608964784
20
8.53777891010029
30
0
41
1
10
232.237427768286
20
8.53762056027011
30
0
41
1
10
232.394316397157
20
8.53293320624397
30
0
41
1
10
232.520454923777
20
8.51683663459025
30
0
41
1
10
232.647281753555
20
8.48719967710571
30
0
0
SPLINE
5
287
100
AcDbEntity
8
1
62
256
6
ByLayer
370
13
48
1
60
0
100
AcDbSpline
70
4
71
2
72
6
73
3
40
0
40
0
40
0
40
1
40
1
40
1
41
1
10
235.949929394373
20
15.2184942698728
30
0
41
0.997409491337352
10
235.950694277018
20
15.1608041361848
30
0
41
1
10
235.943208381914
20
15.1036044990351
30
0
0
SPLINE
5
288
100
AcDbEntity
8
1
62
256
6
ByLayer
370
13
48
1
60
0
100
AcDbSpline
70
4
71
3
72
8
73
4
40
0
40
0
40
0
40
0
40
1
40
1
40
1
40
1
41
1
10
217.897076176785
20
22.1758843084626
30
0
41
1
10
217.844833019434
20
22.1812195763334
30
0
41
1
10
217.79254748621
20
22.1865605790104
30
0
41
1
10
217.740350021923
20
22.1918896633376
30
0
0
SPLINE
5
289
100
AcDbEntity
8
1
62
256
6
ByLayer
370
13
48
1
60
0
100
AcDbSpline
70
4
71
3
72
24
73
20
40
0
40
0
40
0
40
0
40
0.0312499999999945
40
0.0312499999999945
40
0.062499999999989
40
0.062499999999989
40
0.124999999999978
40
0.124999999999978
40
0.156249999999972
40
0.156249999999972
40
0.17187499999997
40
0.17187499999997
40
0.187499999999967
40
0.187499999999967
40
0.249999999999968
40
0.249999999999968
40
0.499999999999975
40
0.499999999999975
40
1
40
1
40
1
40
1
41
1
10
220.18500255289
20
7.6216765822565
30
0
41
1
10
220.240741765446
20
7.66053286154619
30
0
41
1
10
220.299076861927
20
7.69673790317373
30
0
41
1
10
220.419136670877
20
7.76254562472988
30
0
41
1
10
220.480438572574
20
7.79196016564626
30
0
41
1
10
220.668052967104
20
7.87003017833695
30
0
41
1
10
220.79810413834
20
7.90867577688743
30
0
41
1
10
221.00055593185
20
7.94566949928469
30
0
41
1
10
221.068260888866
20
7.95423678628225
30
0
41
1
10
221.170132018078
20
7.96174567836169
30
0
41
1
10
221.204149665075
20
7.96321658944109
30
0
41
1
10
221.272147402944
20
7.9667979726043
30
0
41
1
10
221.306147359057
20
7.96857015011145
30
0
41
1
10
221.476145367686
20
7.97746121277615
30
0
41
1
10
221.61214319463
20
7.98458393932287
30
0
41
1
10
222.29213078298
20
8.02022390588999
30
0
41
1
10
222.836118650563
20
8.04877339672254
30
0
41
1
10
224.468089506712
20
8.13429834762181
30
0
41
1
10
225.556070945627
20
8.19129907472424
30
0
41
1
10
226.644051428919
20
8.24831771575685
30
0
0
SPLINE
5
28A
100
AcDbEntity
8
1
62
256
6
ByLayer
370
13
48
1
60
0
100
AcDbSpline
70
4
71
3
72
10
73
6
40
0
40
0
40
0
40
0
40
0.5
40
0.5
40
1
40
1
40
1
40
1
41
1
10
232.713505643405
20
21.9399125483275
30
0
41
1
10
232.709830041709
20
21.9397199182051
30
0
41
1
10
232.719934686791
20
21.9300358276334
30
0
41
1
10
232.761144948735
20
21.8981640146389
30
0
41
1
10
232.792384550105
20
21.8759769324447
30
0
41
1
10
232.825066322975
20
21.8542458544182
30
0
0
SPLINE
5
28B
100
AcDbEntity
8
1
62
256
6
ByLayer
370
13
48
1
60
0
100
AcDbSpline
70
4
71
2
72
6
73
3
40
0
40
0
40
0
40
1
40
1
40
1
41
1
10
216.452280732668
20
13.9495859232219
30
0
41
0.997409491337352
10
216.443870000502
20
14.00284238439
30
0
41
1
10
216.443155184393
20
14.0567563242161
30
0
0
SPLINE
5
28C
100
AcDbEntity
8
1
62
256
6
ByLayer
370
13
48
1
60
0
100
AcDbSpline
70
4
71
3
72
24
73
20
40
0
40
0
40
0
40
0
40
0.0453611707763373
40
0.0453611707763373
40
0.0907223415526747
40
0.0907223415526747
40
0.136083512329012
40
0.136083512329012
40
0.181444683105349
40
0.181444683105349
40
0.272167024658012
40
0.272167024658012
40
0.362889366210675
40
0.362889366210675
40
0.544334049315993
40
0.544334049315993
40
0.72577873242131
40
0.72577873242131
40
1
40
1
40
1
40
1
41
1
10
217.755266580128
20
6.94062144538174
30
0
41
1
10
217.758432244832
20
6.92337174047398
30
0
41
1
10
217.762097186215
20
6.90472439153487
30
0
41
1
10
217.770104366523
20
6.86800521794387
30
0
41
1
10
217.774390075552
20
6.85027420492978
30
0
41
1
10
217.782326701985
20
6.81962851039734
30
0
41
1
10
217.786036490569
20
6.80636429442779
30
0
41
1
10
217.793044770945
20
6.78252305307262
30
0
41
1
10
217.796309300748
20
6.77206947667611
30
0
41
1
10
217.80567596902
20
6.74332262503833
30
0
41
1
10
217.811271534883
20
6.72785063562057
30
0
41
1
10
217.821759245769
20
6.70066787032869
30
0
41
1
10
217.826648953398
20
6.68903227287623
30
0
41
1
10
217.840551813962
20
6.65801528501146
30
0
41
1
10
217.848862495896
20
6.64231889370294
30
0
41
1
10
217.86443747518
20
6.61609063943581
30
0
41
1
10
217.871682255677
20
6.60570622600596
30
0
41
1
10
217.888897628639
20
6.58435657717828
30
0
41
1
10
217.898399787515
20
6.57572035953177
30
0
41
1
10
217.907305561337
20
6.5699169047052
30
0
0
SPLINE
5
28D
100
AcDbEntity
8
1
62
256
6
ByLayer
370
13
48
1
60
0
100
AcDbSpline
70
4
71
3
72
14
73
10
40
0
40
0
40
0
40
0
40
0.0288455662502195
40
0.0288455662502195
40
0.19070463854192
40
0.19070463854192
40
0.352563710833621
40
0.352563710833621
40
1
40
1
40
1
40
1
41
1
10
217.442028669475
20
21.9351459583872
30
0
41
1
10
217.445748379306
20
21.9355831119793
30
0
41
1
10
217.449461339979
20
21.9360084498192
30
0
41
1
10
217.473811516059
20
21.9384754687757
30
0
41
1
10
217.493960038658
20
21.9396615952797
30
0
41
1
10
217.53454235064
20
21.9425332649113
30
0
41
1
10
217.55477046536
20
21.9438587333592
30
0
41
1
10
217.65530261701
20
21.9494209111488
30
0
41
1
10
217.73443250404
20
21.9513201340357
30
0
41
1
10
217.812216260919
20
21.9520158833738
30
0
0
SPLINE
5
28E
100
AcDbEntity
8
1
62
256
6
ByLayer
370
13
48
1
60
0
100
AcDbSpline
70
4
71
2
72
6
73
3
40
0
40
0
40
0
40
1
40
1
40
1
41
1
10
216.449436262944
20
14.1641258135144
30
0
41
0.999116442697011
10
216.447054215957
20
14.1459246202831
30
0
41
0.998835603708708
10
216.445564656396
20
14.1276275480778
30
0
0
SPLINE
5
28F
100
AcDbEntity
8
1
62
256
6
ByLayer
370
13
48
1
60
0
100
AcDbSpline
70
4
71
3
72
24
73
20
40
0
40
0
40
0
40
0
40
0.051408171471833
40
0.051408171471833
40
0.102816342943666
40
0.102816342943666
40
0.154224514415499
40
0.154224514415499
40
0.205632685887332
40
0.205632685887332
40
0.308449028830999
40
0.308449028830999
40
0.411265371774666
40
0.411265371774666
40
0.616898057662002
40
0.616898057662002
40
0.822530743549338
40
0.822530743549338
40
1
40
1
40
1
40
1
41
1
10
235.067370085223
20
7.84791034480187
30
0
41
1
10
235.066024847507
20
7.83042423351606
30
0
41
1
10
235.064329161786
20
7.81149594601445
30
0
41
1
10
235.060204044437
20
7.77414094564588
30
0
41
1
10
235.057795208513
20
7.75605908639716
30
0
41
1
10
235.053105407105
20
7.72475166882126
30
0
41
1
10
235.050802429243
20
7.71117233711499
30
0
41
1
10
235.046324629281
20
7.6867291357967
30
0
41
1
10
235.044170679191
20
7.67599158890206
30
0
41
1
10
235.037860186733
20
7.64642313208461
30
0
41
1
10
235.033912537243
20
7.63045100394325
30
0
41
1
10
235.026323651817
20
7.60232088438175
30
0
41
1
10
235.022676981639
20
7.59023791432531
30
0
41
1
10
235.012092440476
20
7.55793759611572
30
0
41
1
10
235.005468004991
20
7.5414584884698
30
0
41
1
10
234.992719946186
20
7.51374588667389
30
0
41
1
10
234.986600320132
20
7.50266107437528
30
0
41
1
10
234.975554508393
20
7.48557449597399
30
0
41
1
10
234.970572334401
20
7.47905453346087
30
0
41
1
10
234.965703257892
20
7.47366930479296
30
0
0
SPLINE
5
290
100
AcDbEntity
8
1
62
256
6
ByLayer
370
13
48
1
60
0
100
AcDbSpline
70
4
71
3
72
10
73
6
40
0
40
0
40
0
40
0
40
0.196352315163477
40
0.196352315163477
40
1
40
1
40
1
40
1
41
1
10
234.954912744818
20
7.4633438196264
30
0
41
1
10
234.952245174668
20
7.46117672219663
30
0
41
1
10
234.949608654432
20
7.45931065701254
30
0
41
1
10
234.936319302199
20
7.45109927260296
30
0
41
1
10
234.926090674719
20
7.4488603296117
30
0
41
1
10
234.916158767461
20
7.44948788302744
30
0
0
SPLINE
5
291
100
AcDbEntity
8
1
62
256
6
ByLayer
370
13
48
1
60
0
100
AcDbSpline
70
4
71
3
72
9
73
5
40
0
40
0
40
0
40
0
40
0.513495271762831
40
1
40
1
40
1
40
1
41
1
10
219.000396944418
20
6.26659736465234
30
0
41
1
10
219.022535311879
20
6.26714839612944
30
0
41
1
10
219.065618842356
20
6.26912614226978
30
0
41
1
10
219.108704625632
20
6.2709816873263
30
0
41
1
10
219.129665959113
20
6.2718900471217
30
0
0
SPLINE
5
292
100
AcDbEntity
8
1
62
256
6
ByLayer
370
13
48
1
60
0
100
AcDbSpline
70
4
71
1
72
4
73
2
40
0
40
0
40
1
40
1
41
1
10
216.677514576083
20
13.9559087636852
30
0
41
1
10
216.452280732668
20
13.9495859232219
30
0
0
SPLINE
5
293
100
AcDbEntity
8
1
62
256
6
ByLayer
370
13
48
1
60
0
100
AcDbSpline
70
4
71
3
72
26
73
22
40
0
40
0
40
0
40
0
40
0.249999999999965
40
0.249999999999965
40
0.374999999999989
40
0.374999999999989
40
0.500000000000013
40
0.500000000000013
40
0.625000000000038
40
0.625000000000038
40
0.687499999999999
40
0.687499999999999
40
0.718750000000029
40
0.718750000000029
40
0.750000000000058
40
0.750000000000058
40
0.812500000000019
40
0.812500000000019
40
0.874999999999979
40
0.874999999999979
40
1
40
1
40
1
40
1
41
1
10
234.916158767461
20
7.44948788302744
30
0
41
1
10
234.878953800937
20
7.4283650919873
30
0
41
1
10
234.837316701716
20
7.4073489789904
30
0
41
1
10
234.763538804947
20
7.37740751795147
30
0
41
1
10
234.737464535297
20
7.36788154821505
30
0
41
1
10
234.680918707225
20
7.3501785512876
30
0
41
1
10
234.650540920248
20
7.34203901654695
30
0
41
1
10
234.587950996529
20
7.32888544774889
30
0
41
1
10
234.556160712593
20
7.324139168127
30
0
41
1
10
234.510600920774
20
7.32019021983098
30
0
41
1
10
234.495729706954
20
7.31930324018086
30
0
41
1
10
234.473778572274
20
7.31818667120894
30
0
41
1
10
234.466466216564
20
7.31781859268162
30
0
41
1
10
234.452137332758
20
7.31734179583992
30
0
41
1
10
234.445117974333
20
7.31723633650651
30
0
41
1
10
234.422825730755
20
7.31577437368168
30
0
41
1
10
234.406375777069
20
7.31331113157938
30
0
41
1
10
234.375679333172
20
7.31044959102141
30
0
41
1
10
234.360840085432
20
7.30949579850633
30
0
41
1
10
234.315917310782
20
7.30625485165993
30
0
41
1
10
234.286243223907
20
7.30435139809111
30
0
41
1
10
234.257101456475
20
7.30294679993384
30
0
0
SPLINE
5
294
100
AcDbEntity
8
1
62
256
6
ByLayer
370
13
48
1
60
0
100
AcDbSpline
70
4
71
3
72
18
73
14
40
0
40
0
40
0
40
0
40
0.499999999999993
40
0.499999999999993
40
0.74999999999999
40
0.74999999999999
40
0.874999999999988
40
0.874999999999988
40
0.906249999999991
40
0.906249999999991
40
0.937499999999994
40
0.937499999999994
40
1
40
1
40
1
40
1
41
1
10
226.002543820049
20
20.8420030096165
30
0
41
1
10
224.993198177651
20
20.7891054459694
30
0
41
1
10
223.983852212611
20
20.7362158855566
30
0
41
1
10
222.469833700358
20
20.6568666565647
30
0
41
1
10
221.965161596704
20
20.6303940184245
30
0
41
1
10
221.208151630986
20
20.5907415448442
30
0
41
1
10
220.955815901456
20
20.5774951693855
30
0
41
1
10
220.640395221315
20
20.560968971131
30
0
41
1
10
220.577326981255
20
20.5571677400487
30
0
41
1
10
220.451120360573
20
20.5517538276433
30
0
41
1
10
220.387926458573
20
20.5518735432783
30
0
41
1
10
220.198067194268
20
20.5608931590168
30
0
41
1
10
220.071129232942
20
20.5782987867084
30
0
41
1
10
219.943795474741
20
20.6080542034823
30
0
0
SPLINE
5
295
100
AcDbEntity
8
1
62
256
6
ByLayer
370
13
48
1
60
0
100
AcDbSpline
70
4
71
1
72
4
73
2
40
0
40
0
40
1
40
1
41
1
10
233.998655118596
20
7.20035404500075
30
0
41
1
10
234.062023229893
20
7.29810186109765
30
0
0
SPLINE
5
296
100
AcDbEntity
8
1
62
256
6
ByLayer
370
13
48
1
60
0
100
AcDbSpline
70
4
71
3
72
20
73
16
40
0
40
0
40
0
40
0
40
0.0624999999999979
40
0.0624999999999979
40
0.124999999999996
40
0.124999999999996
40
0.156250000000001
40
0.156250000000001
40
0.187500000000006
40
0.187500000000006
40
0.250000000000004
40
0.250000000000004
40
0.500000000000006
40
0.500000000000006
40
1
40
1
40
1
40
1
41
1
10
220.08984225181
20
7.78695521226715
30
0
41
1
10
220.206070286511
20
7.86797876409821
30
0
41
1
10
220.328511986004
20
7.93610517035438
30
0
41
1
10
220.585411929183
20
8.04741632203783
30
0
41
1
10
220.721519477226
20
8.09075827943022
30
0
41
1
10
220.926054620727
20
8.13409421596
30
0
41
1
10
220.994497413374
20
8.14505970238443
30
0
41
1
10
221.131900203113
20
8.16018393090641
30
0
41
1
10
221.200936887842
20
8.16333341417905
30
0
41
1
10
221.407940270529
20
8.17418572982976
30
0
41
1
10
221.545944752713
20
8.18139129739009
30
0
41
1
10
222.235957486632
20
8.21754649076743
30
0
41
1
10
222.787963681006
20
8.24652347066839
30
0
41
1
10
224.443992989964
20
8.33331153946017
30
0
41
1
10
225.548013523838
20
8.39115127234109
30
0
41
1
10
226.652033037024
20
8.44901048331232
30
0
0
SPLINE
5
297
100
AcDbEntity
8
1
62
256
6
ByLayer
370
13
48
1
60
0
100
AcDbSpline
70
4
71
2
72
6
73
3
40
0
40
0
40
0
40
1
40
1
40
1
41
1
10
216.433633523856
20
14.3053958634164
30
0
41
0.997409491337352
10
216.430835682605
20
14.2515519858066
30
0
41
1
10
216.435760323612
20
14.1978586735545
30
0
0
SPLINE
5
298
100
AcDbEntity
8
1
62
256
6
ByLayer
370
13
48
1
60
0
100
AcDbSpline
70
4
71
3
72
9
73
5
40
0
40
0
40
0
40
0
40
0.513495271762808
40
1
40
1
40
1
40
1
41
1
10
217.611235920453
20
22.1836410604829
30
0
41
1
10
217.633310610094
20
22.1854071371438
30
0
41
1
10
217.676364855248
20
22.1879436805367
30
0
41
1
10
217.719408567368
20
22.1906019910646
30
0
41
1
10
217.740350021925
20
22.191889663336
30
0
0
SPLINE
5
299
100
AcDbEntity
8
1
62
256
6
ByLayer
370
13
48
1
60
0
100
AcDbSpline
70
4
71
3
72
8
73
4
40
0
40
0
40
0
40
0
40
1
40
1
40
1
40
1
41
1
10
233.813940881606
20
23.025207479547
30
0
41
1
10
233.748387093587
20
23.0250251479757
30
0
41
1
10
233.682834259758
20
23.0240996098413
30
0
41
1
10
233.617282313949
20
23.0224824070673
30
0
0
SPLINE
5
29A
100
AcDbEntity
8
1
62
256
6
ByLayer
370
13
48
1
60
0
100
AcDbSpline
70
4
71
3
72
12
73
8
40
0
40
0
40
0
40
0
40
0.249999999999935
40
0.249999999999935
40
0.49999999999987
40
0.49999999999987
40
1
40
1
40
1
40
1
41
1
10
217.812216260919
20
21.9520158833738
30
0
41
1
10
217.835750278049
20
21.9526941367486
30
0
41
1
10
217.858371628458
20
21.9524998998656
30
0
41
1
10
217.903943630179
20
21.9524262124207
30
0
41
1
10
217.926780881132
20
21.9524358138792
30
0
41
1
10
217.99523971584
20
21.9524166614015
30
0
41
1
10
218.040842564287
20
21.9523709331414
30
0
41
1
10
218.086464128798
20
21.9523421593978
30
0
0
SPLINE
5
29B
100
AcDbEntity
8
1
62
256
6
ByLayer
370
13
48
1
60
0
100
AcDbSpline
70
4
71
3
72
24
73
20
40
0
40
0
40
0
40
0
40
0.0312499999999918
40
0.0312499999999918
40
0.0624999999999836
40
0.0624999999999836
40
0.124999999999955
40
0.124999999999955
40
0.156249999999948
40
0.156249999999948
40
0.17187499999995
40
0.17187499999995
40
0.187499999999952
40
0.187499999999952
40
0.249999999999962
40
0.249999999999962
40
0.499999999999975
40
0.499999999999975
40
1
40
1
40
1
40
1
41
1
10
232.432676705481
20
21.6674031894657
30
0
41
1
10
232.376937492925
20
21.628546910176
30
0
41
1
10
232.318602396444
20
21.5923418685484
30
0
41
1
10
232.198542587494
20
21.5265341469921
30
0
41
1
10
232.137240685798
20
21.4971196060756
30
0
41
1
10
231.949626291269
20
21.4190495933846
30
0
41
1
10
231.819575120034
20
21.3804039948339
30
0
41
1
10
231.617123326523
20
21.343410272436
30
0
41
1
10
231.549418369508
20
21.3348429854382
30
0
41
1
10
231.447547240296
20
21.3273340933584
30
0
41
1
10
231.4135295933
20
21.325863182279
30
0
41
1
10
231.34553185543
20
21.3222817991158
30
0
41
1
10
231.311531899318
20
21.3205096216086
30
0
41
1
10
231.141533890689
20
21.3116185589439
30
0
41
1
10
231.005536063746
20
21.3044958323972
30
0
41
1
10
230.325548475398
20
21.2688558658302
30
0
41
1
10
229.781560607816
20
21.2403063749977
30
0
41
1
10
228.149589751671
20
21.1547814240987
30
0
41
1
10
227.061608312736
20
21.0977806969952
30
0
41
1
10
225.973627829448
20
21.0407620559628
30
0
0
SPLINE
5
29C
100
AcDbEntity
8
1
62
256
6
ByLayer
370
13
48
1
60
0
100
AcDbSpline
70
4
71
1
72
4
73
2
40
0
40
0
40
1
40
1
41
1
10
216.674470876453
20
14.1854752726845
30
0
41
1
10
216.449436262944
20
14.1641258135144
30
0
0
SPLINE
5
29D
100
AcDbEntity
8
1
62
256
6
ByLayer
370
13
48
1
60
0
100
AcDbSpline
70
4
71
1
72
4
73
2
40
0
40
0
40
1
40
1
41
1
10
216.355472024303
20
14.0837576080297
30
0
41
1
10
216.443827408032
20
14.0909667249774
30
0
0
SPLINE
5
29E
100
AcDbEntity
8
1
62
256
6
ByLayer
370
13
48
1
60
0
100
AcDbSpline
70
4
71
2
72
6
73
3
40
0
40
0
40
0
40
1
40
1
40
1
41
1
10
235.949929394373
20
15.2184942698728
30
0
41
0.997409491337352
10
235.949164511728
20
15.2761844035621
30
0
41
1
10
235.940164682284
20
15.3331710080344
30
0
0
SPLINE
5
29F
100
AcDbEntity
8
1
62
256
6
ByLayer
370
13
48
1
60
0
100
AcDbSpline
70
4
71
3
72
8
73
4
40
0
40
0
40
0
40
0
40
1
40
1
40
1
40
1
41
1
10
217.429135371881
20
22.1671274370566
30
0
41
1
10
217.489771464635
20
22.1732493788562
30
0
41
1
10
217.550470382591
20
22.1787661051967
30
0
41
1
10
217.611235920453
20
22.1836410604829
30
0
0
SPLINE
5
2A0
100
AcDbEntity
8
1
62
256
6
ByLayer
370
13
48
1
60
0
100
AcDbSpline
70
4
71
3
72
12
73
8
40
0
40
0
40
0
40
0
40
0.0590320357754544
40
0.0590320357754544
40
0.539356876055932
40
0.539356876055932
40
1
40
1
40
1
40
1
41
1
10
234.824375736972
20
7.34099179776862
30
0
41
1
10
234.818904515947
20
7.33516108682181
30
0
41
1
10
234.813339795173
20
7.32940816026186
30
0
41
1
10
234.761654647337
20
7.27757753425371
30
0
41
1
10
234.711011046268
20
7.23772918855053
30
0
41
1
10
234.602737175674
20
7.17205344490964
30
0
41
1
10
234.545274705525
20
7.14587810143468
30
0
41
1
10
234.486471158394
20
7.12671489190751
30
0
0
SPLINE
5
2A1
100
AcDbEntity
8
1
62
256
6
ByLayer
370
13
48
1
60
0
100
AcDbSpline
70
4
71
3
72
9
73
5
40
0
40
0
40
0
40
0
40
0.513495271762783
40
1
40
1
40
1
40
1
41
1
10
233.617282313949
20
23.0224824070673
30
0
41
1
10
233.595143946488
20
23.0219313755902
30
0
41
1
10
233.552060416011
20
23.0199536294499
30
0
41
1
10
233.508974632735
20
23.0180980843934
30
0
41
1
10
233.488013299254
20
23.0171897245979
30
0
0
SPLINE
5
2A2
100
AcDbEntity
8
1
62
256
6
ByLayer
370
13
48
1
60
0
100
AcDbSpline
70
4
71
2
72
6
73
3
40
0
40
0
40
0
40
1
40
1
40
1
41
1
10
216.667749863994
20
14.0705855018468
30
0
41
0.997409491337352
10
216.666984981349
20
14.1282756355349
30
0
41
1
10
216.674470876453
20
14.1854752726845
30
0
0
SPLINE
5
2A3
100
AcDbEntity
8
1
62
256
6
ByLayer
370
13
48
1
60
0
100
AcDbSpline
70
4
71
3
72
20
73
16
40
0
40
0
40
0
40
0
40
0.500000000000014
40
0.500000000000014
40
0.750000000000014
40
0.750000000000014
40
0.875000000000014
40
0.875000000000014
40
0.906250000000014
40
0.906250000000014
40
0.921875000000014
40
0.921875000000014
40
0.937500000000014
40
0.937500000000014
40
1
40
1
40
1
40
1
41
1
10
225.973627829447
20
21.0407620559629
30
0
41
1
10
224.973729378171
20
20.988359598623
30
0
41
1
10
223.973830528068
20
20.9359647511425
30
0
41
1
10
222.473982967456
20
20.8573588462623
30
0
41
1
10
221.974034899191
20
20.8311354800165
30
0
41
1
10
221.224110216734
20
20.7918498254217
30
0
41
1
10
220.974134892148
20
20.7787630747611
30
0
41
1
10
220.661668345746
20
20.7623533053765
30
0
41
1
10
220.599171416731
20
20.7591425593617
30
0
41
1
10
220.505433647574
20
20.7541764528722
30
0
41
1
10
220.47418700947
20
20.7525351506324
30
0
41
1
10
220.411589610527
20
20.7513008616194
30
0
41
1
10
220.380251490081
20
20.7514592114495
30
0
41
1
10
220.22336286121
20
20.7561465654757
30
0
41
1
10
220.09722433459
20
20.7722431371294
30
0
41
1
10
219.970397504812
20
20.8018800946139
30
0
0
SPLINE
5
2A4
100
AcDbEntity
8
1
62
256
6
ByLayer
370
13
48
1
60
0
100
AcDbSpline
70
4
71
1
72
4
73
2
40
0
40
0
40
1
40
1
41
1
10
216.363485305688
20
14.3028889256823
30
0
41
1
10
216.433633523856
20
14.3053958634164
30
0
0
SPLINE
5
2A5
100
AcDbEntity
8
1
62
256
6
ByLayer
370
13
48
1
60
0
100
AcDbSpline
70
4
71
3
72
12
73
8
40
0
40
0
40
0
40
0
40
0.25
40
0.25
40
0.5
40
0.5
40
1
40
1
40
1
40
1
41
1
10
234.062023229893
20
7.29810186109765
30
0
41
1
10
234.040256839814
20
7.29751624513116
30
0
41
1
10
234.019823381596
20
7.29782514458518
30
0
41
1
10
233.978475538297
20
7.29812021079223
30
0
41
1
10
233.957728239269
20
7.2982201390731
30
0
41
1
10
233.895562107812
20
7.29856907815378
30
0
41
1
10
233.854170097097
20
7.29883548706835
30
0
41
1
10
233.812751293587
20
7.29908451818287
30
0
0
SPLINE
5
2A6
100
AcDbEntity
8
1
62
256
6
ByLayer
370
13
48
1
60
0
100
AcDbSpline
70
4
71
1
72
4
73
2
40
0
40
0
40
1
40
1
41
1
10
216.443155184393
20
14.0567563242161
30
0
41
1
10
216.667749863994
20
14.0705855018468
30
0
0
SPLINE
5
2A7
100
AcDbEntity
8
1
62
256
6
ByLayer
370
13
48
1
60
0
100
AcDbSpline
70
4
71
1
72
4
73
2
40
0
40
0
40
1
40
1
41
1
10
218.086464128798
20
21.9523421593978
30
0
41
1
10
217.897076176785
20
22.1758843084626
30
0
0
SPLINE
5
2A8
100
AcDbEntity
8
1
62
256
6
ByLayer
370
13
48
1
60
0
100
AcDbSpline
70
4
71
2
72
6
73
3
40
0
40
0
40
0
40
1
40
1
40
1
41
0.998835603708708
10
216.445564656396
20
14.1276275480778
30
0
41
0.998293048640341
10
216.442684590943
20
14.0922501338881
30
0
41
1
10
216.443155184393
20
14.0567563242161
30
0
0
SPLINE
5
2A9
100
AcDbEntity
8
1
62
256
6
ByLayer
370
13
48
1
60
0
100
AcDbSpline
70
4
71
3
72
10
73
6
40
0
40
0
40
0
40
0
40
0.5
40
0.5
40
1
40
1
40
1
40
1
41
1
10
219.920872678488
20
7.4329678092036
30
0
41
1
10
219.917196037691
20
7.43277512462421
30
0
41
1
10
219.896924840166
20
7.43268365196238
30
0
41
1
10
219.835824240236
20
7.43268817055778
30
0
41
1
10
219.794913050694
20
7.43277636131583
30
0
41
1
10
219.755715336686
20
7.43290019609242
30
0
0
SPLINE
5
2AA
100
AcDbEntity
8
1
62
256
6
ByLayer
370
13
48
1
60
0
100
AcDbSpline
70
4
71
3
72
8
73
4
40
0
40
0
40
0
40
0
40
1
40
1
40
1
40
1
41
1
10
234.257101456475
20
7.30294679993384
30
0
41
1
10
234.190258317072
20
7.29972504097051
30
0
41
1
10
234.125349328788
20
7.29840736979685
30
0
41
1
10
234.062023229893
20
7.29810186109765
30
0
0
SPLINE
5
2AB
100
AcDbEntity
8
1
62
256
6
ByLayer
370
13
48
1
60
0
100
AcDbSpline
70
4
71
3
72
20
73
16
40
0
40
0
40
0
40
0
40
0.0625000000000116
40
0.0625000000000116
40
0.125000000000023
40
0.125000000000023
40
0.156250000000023
40
0.156250000000023
40
0.187500000000022
40
0.187500000000022
40
0.250000000000021
40
0.250000000000021
40
0.500000000000019
40
0.500000000000019
40
1
40
1
40
1
40
1
41
1
10
232.564734605263
20
21.5040582806616
30
0
41
1
10
232.448506570563
20
21.4230347288305
30
0
41
1
10
232.32606487107
20
21.3549083225744
30
0
41
1
10
232.069164927891
20
21.2435971708909
30
0
41
1
10
231.933057379848
20
21.2002552134986
30
0
41
1
10
231.728522236347
20
21.1569192769688
30
0
41
1
10
231.6600794437
20
21.1459537905443
30
0
41
1
10
231.522676653961
20
21.1308295620223
30
0
41
1
10
231.453639969231
20
21.1276800787497
30
0
41
1
10
231.246636586544
20
21.116827763099
30
0
41
1
10
231.108632104361
20
21.1096221955387
30
0
41
1
10
230.418619370441
20
21.0734670021613
30
0
41
1
10
229.866613176068
20
21.0444900222603
30
0
41
1
10
228.21058386711
20
20.9577019534686
30
0
41
1
10
227.106563333235
20
20.8998622205876
30
0
41
1
10
226.00254382005
20
20.8420030096164
30
0
0
SPLINE
5
2AC
100
AcDbEntity
8
1
62
256
6
ByLayer
370
13
48
1
60
0
100
AcDbSpline
70
4
71
2
72
6
73
3
40
0
40
0
40
0
40
1
40
1
40
1
41
1
10
216.667749863994
20
14.0705855018468
30
0
41
0.997409491337352
10
216.668514746639
20
14.0128953681575
30
0
41
1
10
216.677514576083
20
13.9559087636852
30
0
0
SPLINE
5
2AD
100
AcDbEntity
8
1
62
256
6
ByLayer
370
13
48
1
60
0
100
AcDbSpline
70
4
71
3
72
8
73
4
40
0
40
0
40
0
40
0
40
1
40
1
40
1
40
1
41
1
10
233.333818721817
20
22.9848897046118
30
0
41
1
10
233.385217998335
20
22.9956566422812
30
0
41
1
10
233.436658819135
20
23.0064337128256
30
0
41
1
10
233.488013299255
20
23.0171897245997
30
0
0
SPLINE
5
2AE
100
AcDbEntity
8
1
62
256
6
ByLayer
370
13
48
1
60
0
100
AcDbSpline
70
4
71
1
72
4
73
2
40
0
40
0
40
1
40
1
41
1
10
217.611235920453
20
22.1836410604829
30
0
41
1
10
217.812216260919
20
21.9520158833738
30
0
0
SPLINE
5
2AF
100
AcDbEntity
8
1
62
256
6
ByLayer
370
13
48
1
60
0
100
AcDbSpline
70
4
71
1
72
4
73
2
40
0
40
0
40
1
40
1
41
1
10
217.78529775925
20
6.94146449077732
30
0
41
1
10
217.755266580128
20
6.94062144538174
30
0
0
SPLINE
5
2B0
100
AcDbEntity
8
1
62
256
6
ByLayer
370
13
48
1
60
0
100
AcDbSpline
70
4
71
2
72
6
73
3
40
0
40
0
40
0
40
1
40
1
40
1
41
0.998835603708703
10
216.445564656396
20
14.1276275480786
30
0
41
0.998293048640349
10
216.439002421504
20
14.1625101122757
30
0
41
1
10
216.435760323612
20
14.1978586735545
30
0
0
SPLINE
5
2B1
100
AcDbEntity
8
1
62
256
6
ByLayer
370
13
48
1
60
0
100
AcDbSpline
70
4
71
3
72
10
73
6
40
0
40
0
40
0
40
0
40
0.5
40
0.5
40
1
40
1
40
1
40
1
41
1
10
219.894949215285
20
7.34868379308983
30
0
41
1
10
219.891273613589
20
7.34849116296743
30
0
41
1
10
219.873977397777
20
7.35779835928764
30
0
41
1
10
219.822589639776
20
7.38913679231516
30
0
41
1
10
219.788397109555
20
7.41116911806569
30
0
41
1
10
219.755715336686
20
7.43290019609239
30
0
0
SPLINE
5
2B2
100
AcDbEntity
8
1
62
256
6
ByLayer
370
13
48
1
60
0
100
AcDbSpline
70
4
71
3
72
18
73
14
40
0
40
0
40
0
40
0
40
0.499999999999993
40
0.499999999999993
40
0.74999999999999
40
0.74999999999999
40
0.874999999999995
40
0.874999999999995
40
0.906249999999996
40
0.906249999999996
40
0.937499999999997
40
0.937499999999997
40
1
40
1
40
1
40
1
41
1
10
226.652033037024
20
8.44901048331221
30
0
41
1
10
227.661378679423
20
8.5019080469593
30
0
41
1
10
228.670724644462
20
8.55479760737217
30
0
41
1
10
230.184743156715
20
8.63414683636404
30
0
41
1
10
230.689415260369
20
8.66061947450419
30
0
41
1
10
231.446425226087
20
8.70027194808458
30
0
41
1
10
231.698760955618
20
8.7135183235433
30
0
41
1
10
232.014181635759
20
8.73004452179777
30
0
41
1
10
232.077249875818
20
8.73384575288006
30
0
41
1
10
232.203456496501
20
8.73925966528549
30
0
41
1
10
232.266650398501
20
8.73913994965039
30
0
41
1
10
232.456509662806
20
8.73012033391194
30
0
41
1
10
232.583447624131
20
8.71271470622031
30
0
41
1
10
232.710781382333
20
8.68295928944642
30
0
0
SPLINE
5
2B3
100
AcDbEntity
8
1
62
256
6
ByLayer
370
13
48
1
60
0
100
AcDbSpline
70
4
71
3
72
22
73
18
40
0
40
0
40
0
40
0
40
0.125000000000033
40
0.125000000000033
40
0.250000000000066
40
0.250000000000066
40
0.375000000000098
40
0.375000000000098
40
0.500000000000131
40
0.500000000000131
40
0.625000000000164
40
0.625000000000164
40
0.687500000000154
40
0.687500000000154
40
0.750000000000144
40
0.750000000000144
40
1
40
1
40
1
40
1
41
1
10
217.78529775925
20
6.94146449077732
30
0
41
1
10
217.795201698277
20
6.87669095647968
30
0
41
1
10
217.812318017319
20
6.81444886002114
30
0
41
1
10
217.862159481661
20
6.69544313237279
30
0
41
1
10
217.895182632014
20
6.63805122284191
30
0
41
1
10
217.972634385725
20
6.5345631583896
30
0
41
1
10
218.017721445689
20
6.48755633891139
30
0
41
1
10
218.118923289095
20
6.40536894256405
30
0
41
1
10
218.173454745559
20
6.37103258806204
30
0
41
1
10
218.290396355781
20
6.31590487193878
30
0
41
1
10
218.353008430358
20
6.29530929346362
30
0
41
1
10
218.447682786985
20
6.2760672426414
30
0
41
1
10
218.479590878701
20
6.2715647217077
30
0
41
1
10
218.544098935601
20
6.26633858307343
30
0
41
1
10
218.576778362978
20
6.2660272255124
30
0
41
1
10
218.739712603733
20
6.26311762915296
30
0
41
1
10
218.870056668703
20
6.26338179793126
30
0
41
1
10
219.000396944418
20
6.26659736465237
30
0
0
SPLINE
5
2B4
100
AcDbEntity
8
1
62
256
6
ByLayer
370
18
48
1
60
0
100
AcDbSpline
70
4
71
3
72
16
73
12
40
0
40
0
40
0
40
0
40
0.125000000000042
40
0.125000000000042
40
0.250000000000085
40
0.250000000000085
40
0.500000000000057
40
0.500000000000057
40
0.750000000000028
40
0.750000000000028
40
1
40
1
40
1
40
1
41
1
10
224.854914587425
20
14.1812500609382
30
0
41
1
10
224.838403599963
20
14.1730718294261
30
0
41
1
10
224.819947411053
20
14.1698872243674
30
0
41
1
10
224.783084703225
20
14.1759399334362
30
0
41
1
10
224.764846040091
20
14.1851610042303
30
0
41
1
10
224.71701308442
20
14.222986983997
30
0
41
1
10
224.693109645279
20
14.259991381738
30
0
41
1
10
224.655743223957
20
14.3388173787207
30
0
41
1
10
224.642337108486
20
14.3811612871172
30
0
41
1
10
224.62309916793
20
14.4674337045931
30
0
41
1
10
224.617306575144
20
14.5116050677567
30
0
41
1
10
224.614992036548
20
14.5557690950859
30
0
0
SPLINE
5
2B5
100
AcDbEntity
8
1
62
256
6
ByLayer
370
18
48
1
60
0
100
AcDbSpline
70
4
71
3
72
18
73
14
40
0
40
0
40
0
40
0
40
0.124999999999978
40
0.124999999999978
40
0.249999999999956
40
0.249999999999956
40
0.499999999999971
40
0.499999999999971
40
0.749999999999986
40
0.749999999999986
40
0.874999999999993
40
0.874999999999993
40
1
40
1
40
1
40
1
41
1
10
224.833294205629
20
14.9547420487847
30
0
41
1
10
224.863386815406
20
14.9570208547251
30
0
41
1
10
224.892471722502
20
14.9700535792182
30
0
41
1
10
224.947137616773
20
15.0054269516295
30
0
41
1
10
224.972528552686
20
15.0278872037826
30
0
41
1
10
225.043330933246
20
15.1029792997049
30
0
41
1
10
225.083677285638
20
15.1633981533075
30
0
41
1
10
225.149348867431
20
15.2929056264964
30
0
41
1
10
225.17460403993
20
15.3617252384239
30
0
41
1
10
225.19463294567
20
15.4658633249419
30
0
41
1
10
225.198253326502
20
15.5007071125038
30
0
41
1
10
225.195728255809
20
15.5680041353775
30
0
41
1
10
225.189802531023
20
15.6005655720655
30
0
41
1
10
225.17468385455
20
15.6278378145198
30
0
0
SPLINE
5
2B6
100
AcDbEntity
8
1
62
256
6
ByLayer
370
18
48
1
60
0
100
AcDbSpline
70
4
71
3
72
8
73
4
40
0
40
0
40
0
40
0
40
1
40
1
40
1
40
1
41
1
10
226.572221721022
20
16.0886118923702
30
0
41
1
10
226.575704936117
20
16.094503383946
30
0
41
1
10
226.579187881695
20
16.100394103923
30
0
41
1
10
226.582670567632
20
16.1062840812399
30
0
0
SPLINE
5
2B7
100
AcDbEntity
8
1
62
256
6
ByLayer
370
18
48
1
60
0
100
AcDbSpline
70
4
71
3
72
8
73
4
40
0
40
0
40
0
40
0
40
1
40
1
40
1
40
1
41
1
10
227.367996584875
20
13.6573114356502
30
0
41
1
10
227.371832270212
20
13.6516570323455
30
0
41
1
10
227.375667639265
20
13.6460033893744
30
0
41
1
10
227.379502703666
20
13.6403504781959
30
0
0
SPLINE
5
2B8
100
AcDbEntity
8
1
62
256
6
ByLayer
370
18
48
1
60
0
100
AcDbSpline
70
4
71
3
72
18
73
14
40
0
40
0
40
0
40
0
40
0.125
40
0.125
40
0.25
40
0.25
40
0.5
40
0.5
40
0.75
40
0.75
40
0.875
40
0.875
40
1
40
1
40
1
40
1
41
1
10
225.820954925372
20
16.0492396679611
30
0
41
1
10
225.83723643454
20
16.0227438123883
30
0
41
1
10
225.862372290311
20
16.0026647965538
30
0
41
1
10
225.919096512
20
15.9705578839352
30
0
41
1
10
225.950698449704
20
15.9587659404851
30
0
41
1
10
226.049744908582
20
15.932461928904
30
0
41
1
10
226.12164798585
20
15.9267936733063
30
0
41
1
10
226.266189659956
20
15.9343820927336
30
0
41
1
10
226.338558847821
20
15.947560612957
30
0
41
1
10
226.439523700454
20
15.9844170437042
30
0
41
1
10
226.47185601554
20
15.9996100983512
30
0
41
1
10
226.529757311698
20
16.0376598820478
30
0
41
1
10
226.555526947086
20
16.0603744400947
30
0
41
1
10
226.572221721022
20
16.0886118923702
30
0
0
SPLINE
5
2B9
100
AcDbEntity
8
1
62
256
6
ByLayer
370
18
48
1
60
0
100
AcDbSpline
70
4
71
3
72
18
73
14
40
0
40
0
40
0
40
0
40
0.12500000000001
40
0.12500000000001
40
0.250000000000019
40
0.250000000000019
40
0.500000000000012
40
0.500000000000012
40
0.750000000000004
40
0.750000000000004
40
0.875000000000002
40
0.875000000000002
40
1
40
1
40
1
40
1
41
1
10
225.283679499969
20
13.5480770059086
30
0
41
1
10
225.295858669442
20
13.576766141535
30
0
41
1
10
225.298362886116
20
13.6098021612871
30
0
41
1
10
225.293809249384
20
13.6771516726972
30
0
41
1
10
225.286559945025
20
13.7113494531687
30
0
41
1
10
225.25581299604
20
13.8126143907786
30
0
41
1
10
225.22340345536
20
13.8786568057964
30
0
41
1
10
225.144534512532
20
14.0005759198
30
0
41
1
10
225.098269232864
20
14.0562614918572
30
0
41
1
10
225.01984167711
20
14.1236746068372
30
0
41
1
10
224.992171550623
20
14.1433799385836
30
0
41
1
10
224.934235574726
20
14.1727576936201
30
0
41
1
10
224.903983073949
20
14.182680189318
30
0
41
1
10
224.873802353241
20
14.1818005472347
30
0
0
SPLINE
5
2BA
100
AcDbEntity
8
1
62
256
6
ByLayer
370
18
48
1
60
0
100
AcDbSpline
70
4
71
3
72
16
73
12
40
0
40
0
40
0
40
0
40
0.125000000000055
40
0.125000000000055
40
0.250000000000111
40
0.250000000000111
40
0.500000000000074
40
0.500000000000074
40
0.750000000000037
40
0.750000000000037
40
1
40
1
40
1
40
1
41
1
10
226.582670567632
20
16.1062840812399
30
0
41
1
10
226.585361945435
20
16.1257110033625
30
0
41
1
10
226.593355250091
20
16.1443465212881
30
0
41
1
10
226.61972457386
20
16.1751600782367
30
0
41
1
10
226.637993288717
20
16.1871941055644
30
0
41
1
10
226.697418652211
20
16.211764355756
30
0
41
1
10
226.742410862011
20
16.2147800498095
30
0
41
1
10
226.830710243336
20
16.2089144692186
30
0
41
1
10
226.874414328412
20
16.199706022464
30
0
41
1
10
226.959061690115
20
16.1736849761235
30
0
41
1
10
227.000187401149
20
16.1567119165471
30
0
41
1
10
227.039428321854
20
16.1366257824797
30
0
0
SPLINE
5
2BB
100
AcDbEntity
8
1
62
256
6
ByLayer
370
18
48
1
60
0
100
AcDbSpline
70
4
71
3
72
8
73
4
40
0
40
0
40
0
40
0
40
1
40
1
40
1
40
1
41
1
10
227.689810651724
20
15.1040063526445
30
0
41
1
10
227.682833844938
20
15.1037871546005
30
0
41
1
10
227.675856332184
20
15.1035679382642
30
0
41
1
10
227.668878086185
20
15.1033487029354
30
0
0
SPLINE
5
2BC
100
AcDbEntity
8
1
62
256
6
ByLayer
370
18
48
1
60
0
100
AcDbSpline
70
4
71
3
72
8
73
4
40
0
40
0
40
0
40
0
40
1
40
1
40
1
40
1
41
1
10
225.17468385455
20
15.6278378145198
30
0
41
1
10
225.171529478078
20
15.6335279237091
30
0
41
1
10
225.168375712779
20
15.6392172880193
30
0
41
1
10
225.165222535483
20
15.6449059353868
30
0
0
SPLINE
5
2BD
100
AcDbEntity
8
1
62
256
6
ByLayer
370
18
48
1
60
0
100
AcDbSpline
70
4
71
3
72
8
73
4
40
0
40
0
40
0
40
0
40
1
40
1
40
1
40
1
41
1
10
225.276054115443
20
13.5301134088511
30
0
41
1
10
225.278595393736
20
13.5361004899902
30
0
41
1
10
225.281137181871
20
13.5420883456077
30
0
41
1
10
225.283679499969
20
13.5480770059086
30
0
0
SPLINE
5
2BE
100
AcDbEntity
8
1
62
256
6
ByLayer
370
18
48
1
60
0
100
AcDbSpline
70
4
71
3
72
16
73
12
40
0
40
0
40
0
40
0
40
0.124999999999952
40
0.124999999999952
40
0.249999999999904
40
0.249999999999904
40
0.499999999999936
40
0.499999999999936
40
0.749999999999968
40
0.749999999999968
40
1
40
1
40
1
40
1
41
1
10
225.962054671517
20
13.1789723323427
30
0
41
1
10
225.961418727008
20
13.1596531309145
30
0
41
1
10
225.955513666982
20
13.1411270532526
30
0
41
1
10
225.932902208196
20
13.1105104376626
30
0
41
1
10
225.916290140622
20
13.09856323154
30
0
41
1
10
225.860864259417
20
13.0742025853336
30
0
41
1
10
225.817438682479
20
13.0712689950292
30
0
41
1
10
225.731415949525
20
13.0772538897054
30
0
41
1
10
225.688387385212
20
13.0864977390031
30
0
41
1
10
225.60461930186
20
13.1125648663694
30
0
41
1
10
225.563687188712
20
13.1295480719811
30
0
41
1
10
225.524446268007
20
13.1496342060484
30
0
0
SPLINE
5
2BF
100
AcDbEntity
8
1
62
256
6
ByLayer
370
18
48
1
60
0
100
AcDbSpline
70
4
71
3
72
16
73
12
40
0
40
0
40
0
40
0
40
0.249999999999968
40
0.249999999999968
40
0.499999999999935
40
0.499999999999935
40
0.749999999999903
40
0.749999999999903
40
0.874999999999951
40
0.874999999999951
40
1
40
1
40
1
40
1
41
1
10
225.372483063471
20
16.0492648833015
30
0
41
1
10
225.409435001323
20
16.0733594402173
30
0
41
1
10
225.448278567879
20
16.0944828178631
30
0
41
1
10
225.528953573387
20
16.1292049880176
30
0
41
1
10
225.570749651169
20
16.1428918349493
30
0
41
1
10
225.655866590762
20
16.157850296547
30
0
41
1
10
225.699393808063
20
16.1595181582712
30
0
41
1
10
225.757452543835
20
16.1407484140513
30
0
41
1
10
225.77493140804
20
16.1306080403815
30
0
41
1
10
225.800368721666
20
16.1026197555032
30
0
41
1
10
225.808118862218
20
16.0849057280922
30
0
41
1
10
225.810760871616
20
16.0658300082647
30
0
0
SPLINE
5
2C0
100
AcDbEntity
8
1
62
256
6
ByLayer
370
18
48
1
60
0
100
AcDbSpline
70
4
71
3
72
16
73
12
40
0
40
0
40
0
40
0
40
0.250000000000029
40
0.250000000000029
40
0.500000000000058
40
0.500000000000058
40
0.750000000000087
40
0.750000000000087
40
0.875000000000044
40
0.875000000000044
40
1
40
1
40
1
40
1
41
1
10
227.948882553313
20
14.7304908934423
30
0
41
1
10
227.946566412887
20
14.7746854854916
30
0
41
1
10
227.940596534785
20
14.8187473885659
30
0
41
1
10
227.920459004514
20
14.9050721733622
30
0
41
1
10
227.906392806205
20
14.9473530784023
30
0
41
1
10
227.86664412474
20
15.0262261362913
30
0
41
1
10
227.841194796913
20
15.0632008182442
30
0
41
1
10
227.78882593644
20
15.1009553212403
30
0
41
1
10
227.769114407438
20
15.1098514841894
30
0
41
1
10
227.728733729648
20
15.1155532599896
30
0
41
1
10
227.708308055582
20
15.1122615035065
30
0
41
1
10
227.689810651724
20
15.1040063526445
30
0
0
SPLINE
5
2C1
100
AcDbEntity
8
1
62
256
6
ByLayer
370
18
48
1
60
0
100
AcDbSpline
70
4
71
3
72
8
73
4
40
0
40
0
40
0
40
0
40
1
40
1
40
1
40
1
41
1
10
224.873802353241
20
14.1818005472347
30
0
41
1
10
224.867505416107
20
14.1816170177904
30
0
41
1
10
224.861209507106
20
14.1814335227932
30
0
41
1
10
224.854914587425
20
14.1812500609382
30
0
0
SPLINE
5
2C2
100
AcDbEntity
8
1
62
256
6
ByLayer
370
18
48
1
60
0
100
AcDbSpline
70
4
71
3
72
16
73
12
40
0
40
0
40
0
40
0
40
0.250000000000005
40
0.250000000000005
40
0.500000000000009
40
0.500000000000009
40
0.750000000000014
40
0.750000000000014
40
0.875000000000007
40
0.875000000000007
40
1
40
1
40
1
40
1
41
1
10
227.039428321854
20
16.1366257824797
30
0
41
1
10
227.078696400131
20
16.1165257473462
30
0
41
1
10
227.116305003901
20
16.0932096322067
30
0
41
1
10
227.186416252344
20
16.0399980312744
30
0
41
1
10
227.218980004685
20
16.0101829492757
30
0
41
1
10
227.273952062777
20
15.9426053865632
30
0
41
1
10
227.296815719027
20
15.9048818922321
30
0
41
1
10
227.308762211463
20
15.8431964690641
30
0
41
1
10
227.308390102809
20
15.8221913651384
30
0
41
1
10
227.296133539785
20
15.7844095904432
30
0
41
1
10
227.284264189368
20
15.7678886413447
30
0
41
1
10
227.268671123706
20
15.7551430047316
30
0
0
SPLINE
5
2C3
100
AcDbEntity
8
1
62
256
6
ByLayer
370
18
48
1
60
0
100
AcDbSpline
70
4
71
3
72
16
73
12
40
0
40
0
40
0
40
0
40
0.125
40
0.125
40
0.25
40
0.25
40
0.5
40
0.5
40
0.75
40
0.75
40
1
40
1
40
1
40
1
41
1
10
227.730272871665
20
14.3319412032582
30
0
41
1
10
227.749603701477
20
14.325641361795
30
0
41
1
10
227.770379911955
20
14.3245128396642
30
0
41
1
10
227.810165866619
20
14.3345825349192
30
0
41
1
10
227.82899739937
20
14.3457463723571
30
0
41
1
10
227.876613911858
20
14.3885746467838
30
0
41
1
10
227.89808502549
20
14.4279570240716
30
0
41
1
10
227.929283837687
20
14.5103763726791
30
0
41
1
10
227.938865890144
20
14.5539250399065
30
0
41
1
10
227.949859798379
20
14.6417818414411
30
0
41
1
10
227.95119709191
20
14.6863268661132
30
0
41
1
10
227.948882553313
20
14.7304908934423
30
0
0
SPLINE
5
2C4
100
AcDbEntity
8
1
62
256
6
ByLayer
370
18
48
1
60
0
100
AcDbSpline
70
4
71
3
72
8
73
4
40
0
40
0
40
0
40
0
40
1
40
1
40
1
40
1
41
1
10
224.814452367484
20
14.9533152103244
30
0
41
1
10
224.820731979922
20
14.9537907517732
30
0
41
1
10
224.827012579724
20
14.9542663636735
30
0
41
1
10
224.833294205629
20
14.9547420487847
30
0
0
SPLINE
5
2C5
100
AcDbEntity
8
1
62
256
6
ByLayer
370
18
48
1
60
0
100
AcDbSpline
70
4
71
3
72
16
73
12
40
0
40
0
40
0
40
0
40
0.125000000000002
40
0.125000000000002
40
0.250000000000004
40
0.250000000000004
40
0.500000000000002
40
0.500000000000002
40
0.750000000000001
40
0.750000000000001
40
1
40
1
40
1
40
1
41
1
10
225.165222535483
20
15.6449059353868
30
0
41
1
10
225.150375209176
20
15.6561007656501
30
0
41
1
10
225.138868202608
20
15.6714969583852
30
0
41
1
10
225.126495886057
20
15.7082647537232
30
0
41
1
10
225.125697614139
20
15.7294764412425
30
0
41
1
10
225.135290280817
20
15.7917678692082
30
0
41
1
10
225.155595735046
20
15.8317469091281
30
0
41
1
10
225.205390370863
20
15.9046476684772
30
0
41
1
10
225.235350580086
20
15.9377654288476
30
0
41
1
10
225.300320362058
20
15.9979937594701
30
0
41
1
10
225.335556681363
20
16.0251869900397
30
0
41
1
10
225.372483063471
20
16.0492648833015
30
0
0
SPLINE
5
2C6
100
AcDbEntity
8
1
62
256
6
ByLayer
370
18
48
1
60
0
100
AcDbSpline
70
4
71
3
72
8
73
4
40
0
40
0
40
0
40
0
40
1
40
1
40
1
40
1
41
1
10
227.268671123706
20
15.7551430047316
30
0
41
1
10
227.265447958307
20
15.7491201874036
30
0
41
1
10
227.262224566419
20
15.743096610447
30
0
41
1
10
227.259000939456
20
15.7370722442614
30
0
0
SPLINE
5
2C7
100
AcDbEntity
8
1
62
256
6
ByLayer
370
18
48
1
60
0
100
AcDbSpline
70
4
71
3
72
8
73
4
40
0
40
0
40
0
40
0
40
1
40
1
40
1
40
1
41
1
10
225.810760871616
20
16.0658300082647
30
0
41
1
10
225.814158262207
20
16.0603006004798
30
0
41
1
10
225.817556271998
20
16.0547704960932
30
0
41
1
10
225.820954925372
20
16.0492396679611
30
0
0
SPLINE
5
2C8
100
AcDbEntity
8
1
62
256
6
ByLayer
370
18
48
1
60
0
100
AcDbSpline
70
4
71
3
72
16
73
12
40
0
40
0
40
0
40
0
40
0.249999999999976
40
0.249999999999976
40
0.499999999999952
40
0.499999999999952
40
0.749999999999928
40
0.749999999999928
40
0.874999999999964
40
0.874999999999964
40
1
40
1
40
1
40
1
41
1
10
224.614992036548
20
14.5557690950859
30
0
41
1
10
224.612675896122
20
14.5999636871352
30
0
41
1
10
224.613814370227
20
14.644398123163
30
0
41
1
10
224.62393806668
20
14.7323088316502
30
0
41
1
10
224.632833133387
20
14.7757930855994
30
0
41
1
10
224.661836441895
20
14.8582692826042
30
0
41
1
10
224.681718556935
20
14.8976196848093
30
0
41
1
10
224.725807485412
20
14.9404293263189
30
0
41
1
10
224.742835786187
20
14.9512509421579
30
0
41
1
10
224.778660069136
20
14.9609464507208
30
0
41
1
10
224.797241188744
20
14.9596989536711
30
0
41
1
10
224.814452367484
20
14.9533152103244
30
0
0
SPLINE
5
2C9
100
AcDbEntity
8
1
62
256
6
ByLayer
370
18
48
1
60
0
100
AcDbSpline
70
4
71
3
72
18
73
14
40
0
40
0
40
0
40
0
40
0.125000000000045
40
0.125000000000045
40
0.250000000000091
40
0.250000000000091
40
0.500000000000088
40
0.500000000000088
40
0.750000000000086
40
0.750000000000086
40
0.875000000000043
40
0.875000000000043
40
1
40
1
40
1
40
1
41
1
10
226.721725514053
20
13.235909582209
30
0
41
1
10
226.702180142611
20
13.2622343860081
30
0
41
1
10
226.674154617537
20
13.2821619606915
30
0
41
1
10
226.612439777223
20
13.3140073260707
30
0
41
1
10
226.578761234383
20
13.3256904392572
30
0
41
1
10
226.474709034171
20
13.3517321110513
30
0
41
1
10
226.401100325295
20
13.3573109782842
30
0
41
1
10
226.256560950158
20
13.3497226793407
30
0
41
1
10
226.185889233689
20
13.3366331198236
30
0
41
1
10
226.089941163334
20
13.3000396074948
30
0
41
1
10
226.059692463783
20
13.2849557505108
30
0
41
1
10
226.006771949533
20
13.2471669985331
30
0
41
1
10
225.983888032938
20
13.2246036745998
30
0
41
1
10
225.970458718403
20
13.1965373577999
30
0
0
SPLINE
5
2CA
100
AcDbEntity
8
1
62
256
6
ByLayer
370
18
48
1
60
0
100
AcDbSpline
70
4
71
3
72
8
73
4
40
0
40
0
40
0
40
0
40
1
40
1
40
1
40
1
41
1
10
227.709386233797
20
14.3304072013854
30
0
41
1
10
227.716349168566
20
14.3309185923812
30
0
41
1
10
227.723311372122
20
14.3314299256205
30
0
41
1
10
227.730272871665
20
14.3319412032582
30
0
0
SPLINE
5
2CB
100
AcDbEntity
8
1
62
256
6
ByLayer
370
18
48
1
60
0
100
AcDbSpline
70
4
71
3
72
16
73
12
40
0
40
0
40
0
40
0
40
0.125000000000008
40
0.125000000000008
40
0.250000000000017
40
0.250000000000017
40
0.500000000000011
40
0.500000000000011
40
0.750000000000006
40
0.750000000000006
40
1
40
1
40
1
40
1
41
1
10
227.379502703666
20
13.6403504781959
30
0
41
1
10
227.396405463267
20
13.629263368627
30
0
41
1
10
227.410000714465
20
13.6139766161555
30
0
41
1
10
227.426130895999
20
13.5774057621761
30
0
41
1
10
227.4285858152
20
13.556280895862
30
0
41
1
10
227.422992630811
20
13.4941990718813
30
0
41
1
10
227.404253809444
20
13.4543021357106
30
0
41
1
10
227.356735821998
20
13.3815206904468
30
0
41
1
10
227.327451133537
20
13.3484383326195
30
0
41
1
10
227.263360629917
20
13.2882560830228
30
0
41
1
10
227.228317908498
20
13.2610729984884
30
0
41
1
10
227.19139152639
20
13.2369951052266
30
0
0
SPLINE
5
2CC
100
AcDbEntity
8
1
62
256
6
ByLayer
370
18
48
1
60
0
100
AcDbSpline
70
4
71
3
72
20
73
16
40
0
40
0
40
0
40
0
40
0.125000000000009
40
0.125000000000009
40
0.250000000000018
40
0.250000000000018
40
0.375000000000027
40
0.375000000000027
40
0.500000000000036
40
0.500000000000036
40
0.750000000000016
40
0.750000000000016
40
0.875000000000008
40
0.875000000000008
40
1
40
1
40
1
40
1
41
1
10
227.367996584875
20
13.6573114356502
30
0
41
1
10
227.349539847223
20
13.6845195690657
30
0
41
1
10
227.340703764332
20
13.7172030720194
30
0
41
1
10
227.333282355908
20
13.7844684193626
30
0
41
1
10
227.334865245712
20
13.8189315267522
30
0
41
1
10
227.344872306323
20
13.8879586742472
30
0
41
1
10
227.353441604393
20
13.9226173103719
30
0
41
1
10
227.375736728929
20
13.9899286369221
30
0
41
1
10
227.389538754432
20
14.0229534656773
30
0
41
1
10
227.43875825694
20
14.1202272784259
30
0
41
1
10
227.480823844108
20
14.1808775449543
30
0
41
1
10
227.556850686083
20
14.2565090320123
30
0
41
1
10
227.584416319433
20
14.2791464447903
30
0
41
1
10
227.644004410264
20
14.3147452017341
30
0
41
1
10
227.6759747606
20
14.3279533041259
30
0
41
1
10
227.709386233797
20
14.3304072013854
30
0
0
SPLINE
5
2CD
100
AcDbEntity
8
1
62
256
6
ByLayer
370
18
48
1
60
0
100
AcDbSpline
70
4
71
3
72
8
73
4
40
0
40
0
40
0
40
0
40
1
40
1
40
1
40
1
41
1
10
225.970458718403
20
13.1965373577999
30
0
41
1
10
225.967656812173
20
13.1906815721086
30
0
41
1
10
225.964855470349
20
13.1848265734708
30
0
41
1
10
225.962054671517
20
13.1789723323427
30
0
0
SPLINE
5
2CE
100
AcDbEntity
8
1
62
256
6
ByLayer
370
18
48
1
60
0
100
AcDbSpline
70
4
71
3
72
16
73
12
40
0
40
0
40
0
40
0
40
0.249999999999964
40
0.249999999999964
40
0.499999999999928
40
0.499999999999928
40
0.749999999999891
40
0.749999999999891
40
0.874999999999946
40
0.874999999999946
40
1
40
1
40
1
40
1
41
1
10
227.19139152639
20
13.2369951052266
30
0
41
1
10
227.154439588538
20
13.2129005483109
30
0
41
1
10
227.115403044618
20
13.19176705715
30
0
41
1
10
227.033847917886
20
13.1569987617967
30
0
41
1
10
226.991377322638
20
13.1432765649024
30
0
41
1
10
226.903977237058
20
13.1281984486938
30
0
41
1
10
226.858887127736
20
13.1264486792695
30
0
41
1
10
226.796781762244
20
13.1450063486123
30
0
41
1
10
226.777657553873
20
13.1550604934481
30
0
41
1
10
226.748481052846
20
13.1828528158184
30
0
41
1
10
226.738654169569
20
13.2004580057551
30
0
41
1
10
226.733964367534
20
13.219426405318
30
0
0
SPLINE
5
2CF
100
AcDbEntity
8
1
62
256
6
ByLayer
370
18
48
1
60
0
100
AcDbSpline
70
4
71
3
72
18
73
14
40
0
40
0
40
0
40
0
40
0.125000000000029
40
0.125000000000029
40
0.250000000000058
40
0.250000000000058
40
0.500000000000043
40
0.500000000000043
40
0.750000000000027
40
0.750000000000027
40
0.875000000000011
40
0.875000000000011
40
1
40
1
40
1
40
1
41
1
10
227.668878086185
20
15.1033487029354
30
0
41
1
10
227.635414151083
20
15.1022973675685
30
0
41
1
10
227.602203594124
20
15.1120869372728
30
0
41
1
10
227.539090266042
20
15.1413426586643
30
0
41
1
10
227.509390834018
20
15.1609482090993
30
0
41
1
10
227.426058967271
20
15.2280705659504
30
0
41
1
10
227.377883760266
20
15.283937367047
30
0
41
1
10
227.299034981342
20
15.4060329204578
30
0
41
1
10
227.268588518887
20
15.4718271870825
30
0
41
1
10
227.242953430791
20
15.5728748136504
30
0
41
1
10
227.237757487755
20
15.6073649279584
30
0
41
1
10
227.238130198256
20
15.6745112491587
30
0
41
1
10
227.243460427307
20
15.7080298839074
30
0
41
1
10
227.259000939456
20
15.7370722442614
30
0
0
SPLINE
5
2D0
100
AcDbEntity
8
1
62
256
6
ByLayer
370
18
48
1
60
0
100
AcDbSpline
70
4
71
3
72
16
73
12
40
0
40
0
40
0
40
0
40
0.25
40
0.25
40
0.5
40
0.5
40
0.75
40
0.75
40
0.875
40
0.875
40
1
40
1
40
1
40
1
41
1
10
225.524446268007
20
13.1496342060484
30
0
41
1
10
225.48517818973
20
13.169734241182
30
0
41
1
10
225.447376608596
20
13.1930402428064
30
0
41
1
10
225.376385238929
20
13.2462057185398
30
0
41
1
10
225.343146969121
20
13.275985450576
30
0
41
1
10
225.285891765043
20
13.3434433586776
30
0
41
1
10
225.261465216772
20
13.3810849453085
30
0
41
1
10
225.245472094616
20
13.4425582935994
30
0
41
1
10
225.244198859104
20
13.4634771686912
30
0
41
1
10
225.252716234726
20
13.5010629808784
30
0
41
1
10
225.26250884242
20
13.5174750925025
30
0
41
1
10
225.276054115443
20
13.5301134088511
30
0
0
SPLINE
5
2D1
100
AcDbEntity
8
1
62
256
6
ByLayer
370
18
48
1
60
0
100
AcDbSpline
70
4
71
3
72
8
73
4
40
0
40
0
40
0
40
0
40
1
40
1
40
1
40
1
41
1
10
226.733964367534
20
13.219426405318
30
0
41
1
10
226.729885089837
20
13.2249200769139
30
0
41
1
10
226.725805476292
20
13.2304144599615
30
0
41
1
10
226.721725514053
20
13.235909582209
30
0
0
SPLINE
5
2D2
100
AcDbEntity
8
1
62
256
6
ByLayer
370
13
48
1
60
0
100
AcDbSpline
70
4
71
3
72
14
73
10
40
0
40
0
40
0
40
0
40
0.25
40
0.25
40
0.499999999999999
40
0.499999999999999
40
0.749999999999999
40
0.749999999999999
40
1
40
1
40
1
40
1
41
1
10
234.060771020939
20
0.645595973595533
30
0
41
1
10
234.061884147404
20
0.696117904627386
30
0
41
1
10
234.063866677929
20
0.743149772354855
30
0
41
1
10
234.069457012244
20
0.826848540858919
30
0
41
1
10
234.072986139716
20
0.862575058430878
30
0
41
1
10
234.081445502991
20
0.920452757021792
30
0
41
1
10
234.086181803821
20
0.941390776776984
30
0
41
1
10
234.096687416719
20
0.966952892639
30
0
41
1
10
234.102201410635
20
0.970912796548362
30
0
41
1
10
234.10793806678
20
0.965901979807143
30
0
0
SPLINE
5
2D3
100
AcDbEntity
8
1
62
256
6
ByLayer
370
13
48
1
60
0
100
AcDbSpline
70
4
71
3
72
8
73
4
40
0
40
0
40
0
40
0
40
1
40
1
40
1
40
1
41
1
10
215.107106212144
20
-22.3033950942759
30
0
41
1
10
214.107106211416
20
-22.2271832825302
30
0
41
1
10
213.107106211408
20
-22.1509714614363
30
0
41
1
10
212.107106212144
20
-22.0747596307006
30
0
0
SPLINE
5
2D4
100
AcDbEntity
8
1
62
256
6
ByLayer
370
13
48
1
60
0
100
AcDbSpline
70
4
71
3
72
8
73
4
40
0
40
0
40
0
40
0
40
1
40
1
40
1
40
1
41
1
10
52
20
-22.3401899026271
30
0
41
1
10
50.3333333055303
20
-22.3401678539528
30
0
41
1
10
48.6666666202095
20
-22.3401351212978
30
0
41
1
10
47
20
-22.340086564255
30
0
0
SPLINE
5
2D5
100
AcDbEntity
8
1
62
256
6
ByLayer
370
13
48
1
60
0
100
AcDbSpline
70
4
71
3
72
38
73
34
40
0
40
0
40
0
40
0
40
0.124999999999999
40
0.124999999999999
40
0.187499999999998
40
0.187499999999998
40
0.218749999999998
40
0.218749999999998
40
0.249999999999997
40
0.249999999999997
40
0.374999999999996
40
0.374999999999996
40
0.437499999999996
40
0.437499999999996
40
0.468749999999996
40
0.468749999999996
40
0.499999999999996
40
0.499999999999996
40
0.624999999999995
40
0.624999999999995
40
0.656249999999995
40
0.656249999999995
40
0.687499999999995
40
0.687499999999995
40
0.749999999999996
40
0.749999999999996
40
0.812499999999997
40
0.812499999999997
40
0.874999999999998
40
0.874999999999998
40
0.937499999999999
40
0.937499999999999
40
1
40
1
40
1
40
1
41
1
10
27.5913630026508
20
-12.5575232865942
30
0
41
1
10
26.9475887167682
20
-12.6872483565709
30
0
41
1
10
26.3175463294633
20
-12.8657106753321
30
0
41
1
10
25.3914495273432
20
-13.2015578294748
30
0
41
1
10
25.0859366801659
20
-13.324960038476
30
0
41
1
10
24.6324634432502
20
-13.5274654547387
30
0
41
1
10
24.4821065589022
20
-13.5978734557567
30
0
41
1
10
24.1830169618861
20
-13.7446147938932
30
0
41
1
10
24.0344615285024
20
-13.8208849331657
30
0
41
1
10
23.3039339942019
20
-14.2129045486345
30
0
41
1
10
22.7514350831649
20
-14.5628355682472
30
0
41
1
10
21.9718238600806
20
-15.1424011900444
30
0
41
1
10
21.7201928432469
20
-15.3447542464605
30
0
41
1
10
21.3558340189782
20
-15.662655475286
30
0
41
1
10
21.2362404773473
20
-15.7713216960127
30
0
41
1
10
21.0042883004054
20
-15.9910947750806
30
0
41
1
10
20.891690565794
20
-16.1023937666566
30
0
41
1
10
20.3456452766083
20
-16.665849702804
30
0
41
1
10
19.9621998193572
20
-17.1385513559466
30
0
41
1
10
19.5581270954783
20
-17.7584432406281
30
0
41
1
10
19.4813449099471
20
-17.8836315166814
30
0
41
1
10
19.3378855985067
20
-18.1331672657171
30
0
41
1
10
19.2709033026675
20
-18.2579601140027
30
0
41
1
10
19.0842417137029
20
-18.6323552356043
30
0
41
1
10
18.9789081163494
20
-18.8819902387347
30
0
41
1
10
18.8080248234548
20
-19.3811013689943
30
0
41
1
10
18.7424698268014
20
-19.6305795257896
30
0
41
1
10
18.6544654726981
20
-20.1291864996247
30
0
41
1
10
18.632951635793
20
-20.3714708493966
30
0
41
1
10
18.6350817852567
20
-20.8421197122992
30
0
41
1
10
18.6586627636717
20
-21.0705091868791
30
0
41
1
10
18.7505760748598
20
-21.5134826903406
30
0
41
1
10
18.819476195484
20
-21.7288797677786
30
0
41
1
10
18.9098285720148
20
-21.9328198633763
30
0
0
SPLINE
5
2D6
100
AcDbEntity
8
1
62
256
6
ByLayer
370
13
48
1
60
0
100
AcDbSpline
70
4
71
3
72
8
73
4
40
0
40
0
40
0
40
0
40
1
40
1
40
1
40
1
41
1
10
0.499999999999957
20
-31.268533014896
30
0
41
1
10
0.333324220354243
20
-31.1231415880536
30
0
41
1
10
0.166657416166501
20
-30.9777424437056
30
0
41
1
10
-2.84E-14
20
-30.8323352297609
30
0
0
SPLINE
5
2D7
100
AcDbEntity
8
1
62
256
6
ByLayer
370
13
48
1
60
0
100
AcDbSpline
70
4
71
3
72
10
73
6
40
0
40
0
40
0
40
0
40
0.806108221289992
40
0.806108221289992
40
1
40
1
40
1
40
1
41
1
10
216.85566143541
20
16.012437700239
30
0
41
1
10
216.81925528529
20
15.9633132227842
30
0
41
1
10
216.787621083916
20
15.9155409809297
30
0
41
1
10
216.758382811686
20
15.8655378472084
30
0
41
1
10
216.753194300718
20
15.8562885737559
30
0
41
1
10
216.74867345325
20
15.8478190054519
30
0
0
SPLINE
5
2D8
100
AcDbEntity
8
1
62
256
6
ByLayer
370
13
48
1
60
0
100
AcDbSpline
70
4
71
3
72
18
73
14
40
0
40
0
40
0
40
0
40
0.125000000000011
40
0.125000000000011
40
0.250000000000023
40
0.250000000000023
40
0.375000000000035
40
0.375000000000035
40
0.500000000000047
40
0.500000000000047
40
0.750000000000023
40
0.750000000000023
40
1
40
1
40
1
40
1
41
1
10
220.554549027962
20
6.49867832675537
30
0
41
1
10
220.54158787575
20
6.48589761711153
30
0
41
1
10
220.533233985656
20
6.47685684591539
30
0
41
1
10
220.528353281614
20
6.46792529271065
30
0
41
1
10
220.531728357926
20
6.46786841615383
30
0
41
1
10
220.548059610003
20
6.47542192289418
30
0
41
1
10
220.561099549352
20
6.48304475157704
30
0
41
1
10
220.593059509066
20
6.50374362660224
30
0
41
1
10
220.612263314154
20
6.51699932404395
30
0
41
1
10
220.67532858426
20
6.56319869622232
30
0
41
1
10
220.723358883469
20
6.6015096003544
30
0
41
1
10
220.826162336557
20
6.69296670103157
30
0
41
1
10
220.878228599887
20
6.74371334260533
30
0
41
1
10
220.929956732343
20
6.80000641658748
30
0
0
SPLINE
5
2D9
100
AcDbEntity
8
1
62
256
6
ByLayer
370
13
48
1
60
0
100
AcDbSpline
70
4
71
3
72
8
73
4
40
0
40
0
40
0
40
0
40
1
40
1
40
1
40
1
41
1
10
47
20
-8.03189172239829
30
0
41
1
10
46.4136099995278
20
-8.03165753176611
30
0
41
1
10
45.8286128135871
20
-8.03220906038493
30
0
41
1
10
45.2449982615758
20
-8.03353840655922
30
0
0
SPLINE
5
2DA
100
AcDbEntity
8
1
62
256
6
ByLayer
370
13
48
1
60
0
100
AcDbSpline
70
4
71
3
72
18
73
14
40
0
40
0
40
0
40
0
40
0.125000000000002
40
0.125000000000002
40
0.250000000000003
40
0.250000000000003
40
0.500000000000007
40
0.500000000000007
40
0.625000000000009
40
0.625000000000009
40
0.75000000000001
40
0.75000000000001
40
1
40
1
40
1
40
1
41
1
10
214.170554952281
20
10.4856666136872
30
0
41
1
10
214.275335042484
20
10.4170488683617
30
0
41
1
10
214.37812826462
20
10.3440276643505
30
0
41
1
10
214.576867286706
20
10.1910540573473
30
0
41
1
10
214.672119677542
20
10.1117058151498
30
0
41
1
10
214.946413199935
20
9.86607066619069
30
0
41
1
10
215.114056181694
20
9.69226649481377
30
0
41
1
10
215.345579184593
20
9.42011531011792
30
0
41
1
10
215.419413587682
20
9.32747361032776
30
0
41
1
10
215.560699163295
20
9.13875732054564
30
0
41
1
10
215.628415163845
20
9.04225444416133
30
0
41
1
10
215.819389685803
20
8.75259857287213
30
0
41
1
10
215.931345582377
20
8.5587944227079
30
0
41
1
10
216.029476936528
20
8.36455122262635
30
0
0
SPLINE
5
2DB
100
AcDbEntity
8
1
62
256
6
ByLayer
370
13
48
1
60
0
100
AcDbSpline
70
4
71
3
72
14
73
10
40
0
40
0
40
0
40
0
40
0.25
40
0.25
40
0.5
40
0.5
40
0.75
40
0.75
40
1
40
1
40
1
40
1
41
1
10
220.894599543143
20
7.52601781283289
30
0
41
1
10
220.922215734162
20
7.51876498348972
30
0
41
1
10
220.947046305561
20
7.51021932357605
30
0
41
1
10
220.988786643865
20
7.49140572090718
30
0
41
1
10
221.00628097267
20
7.48085374941462
30
0
41
1
10
221.032567483606
20
7.45878903566688
30
0
41
1
10
221.041520024573
20
7.44731008447053
30
0
41
1
10
221.051601406737
20
7.42351842928946
30
0
41
1
10
221.052574349004
20
7.41119416775248
30
0
41
1
10
221.049832509097
20
7.39916879679635
30
0
0
SPLINE
5
2DC
100
AcDbEntity
8
1
62
256
6
ByLayer
370
13
48
1
60
0
100
AcDbSpline
70
4
71
3
72
8
73
4
40
0
40
0
40
0
40
0
40
1
40
1
40
1
40
1
41
1
10
234.06163880679
20
0.50495781573531
30
0
41
1
10
234.060054073463
20
0.552955809801432
30
0
41
1
10
234.059782813671
20
0.600743801820784
30
0
41
1
10
234.060771020939
20
0.645595973595533
30
0
0
SPLINE
5
2DD
100
AcDbEntity
8
1
62
256
6
ByLayer
370
13
48
1
60
0
100
AcDbSpline
70
4
71
3
72
40
73
36
40
0
40
0
40
0
40
0
40
0.0625000000000001
40
0.0625000000000001
40
0.125
40
0.125
40
0.15625
40
0.15625
40
0.1875
40
0.1875
40
0.25
40
0.25
40
0.28125
40
0.28125
40
0.3125
40
0.3125
40
0.375
40
0.375
40
0.40625
40
0.40625
40
0.4375
40
0.4375
40
0.5
40
0.5
40
0.5625
40
0.5625
40
0.625
40
0.625
40
0.75
40
0.75
40
0.8125
40
0.8125
40
0.875
40
0.875
40
1
40
1
40
1
40
1
41
1
10
18.909568615331
20
-24.7958760398217
30
0
41
1
10
18.8198750946701
20
-24.9787749247822
30
0
41
1
10
18.7521070514063
20
-25.1559889439555
30
0
41
1
10
18.6599288263585
20
-25.4988215730505
30
0
41
1
10
18.6355132336944
20
-25.664442744028
30
0
41
1
10
18.6333218779023
20
-25.9036878827815
30
0
41
1
10
18.6384443357959
20
-25.9816836081531
30
0
41
1
10
18.6597342643054
20
-26.132115153747
30
0
41
1
10
18.6758817979793
20
-26.2048741002563
30
0
41
1
10
18.7402886547238
20
-26.4160077194252
30
0
41
1
10
18.8046241839774
20
-26.5472232710946
30
0
41
1
10
18.9328290118133
20
-26.7301070362274
30
0
41
1
10
18.9809353724799
20
-26.7888391210076
30
0
41
1
10
19.087436375865
20
-26.9012404534794
30
0
41
1
10
19.1454212243113
20
-26.9545088013305
30
0
41
1
10
19.3328550389678
20
-27.1060223966893
30
0
41
1
10
19.4756458279648
20
-27.1960331252236
30
0
41
1
10
19.7152901309432
20
-27.3157850048774
30
0
41
1
10
19.7994270566169
20
-27.3531512152332
30
0
41
1
10
19.9761316024976
20
-27.4229120287688
30
0
41
1
10
20.068996032116
20
-27.45539037166
30
0
41
1
10
20.35753150024
20
-27.544704306804
30
0
41
1
10
20.5630780422437
20
-27.5935682072201
30
0
41
1
10
20.9987381184838
20
-27.6721755653806
30
0
41
1
10
21.2288653945984
20
-27.701907769798
30
0
41
1
10
21.7129246260494
20
-27.7436289548793
30
0
41
1
10
21.9678403376974
20
-27.7555157443728
30
0
41
1
10
22.7527903774492
20
-27.7656946847472
30
0
41
1
10
23.3068630741396
20
-27.7394568198354
30
0
41
1
10
24.1823263170224
20
-27.6575123441735
30
0
41
1
10
24.4827961755124
20
-27.6227558850068
30
0
41
1
10
25.0875891049849
20
-27.5409225602859
30
0
41
1
10
25.3930889653265
20
-27.4937670479918
30
0
41
1
10
26.3189265337946
20
-27.3347827639813
30
0
41
1
10
26.9484783033612
20
-27.2057144569352
30
0
41
1
10
27.5913794328416
20
-27.0538808020711
30
0
0
SPLINE
5
2DE
100
AcDbEntity
8
1
62
256
6
ByLayer
370
13
48
1
60
0
100
AcDbSpline
70
4
71
3
72
18
73
14
40
0
40
0
40
0
40
0
40
0.249999999999999
40
0.249999999999999
40
0.374999999999999
40
0.374999999999999
40
0.5
40
0.5
40
0.750000000000001
40
0.750000000000001
40
0.875
40
0.875
40
1
40
1
40
1
40
1
41
1
10
231.892767032725
20
8.40322656312074
30
0
41
1
10
231.950143375315
20
8.40623352981922
30
0
41
1
10
232.00790019997
20
8.39905895024896
30
0
41
1
10
232.089198500554
20
8.37568279247236
30
0
41
1
10
232.115080972486
20
8.36591158532045
30
0
41
1
10
232.163228505424
20
8.34396716902316
30
0
41
1
10
232.185882986987
20
8.33157589826823
30
0
41
1
10
232.245871405469
20
8.2946517087795
30
0
41
1
10
232.276691628691
20
8.2697837516144
30
0
41
1
10
232.308902401287
20
8.24414405880847
30
0
41
1
10
232.317575045892
20
8.23731852598007
30
0
41
1
10
232.330658044537
20
8.22838206316573
30
0
41
1
10
232.335215172145
20
8.22613981835605
30
0
41
1
10
232.337875860782
20
8.22627925913883
30
0
0
SPLINE
5
2DF
100
AcDbEntity
8
1
62
256
6
ByLayer
370
13
48
1
60
0
100
AcDbSpline
70
4
71
3
72
14
73
10
40
0
40
0
40
0
40
0
40
0.0634511954232379
40
0.0634511954232379
40
0.531725597711619
40
0.531725597711619
40
0.76586279885581
40
0.76586279885581
40
1
40
1
40
1
40
1
41
1
10
191.018790702379
20
10.0303114459682
30
0
41
1
10
191.479477436709
20
10.0602164979148
30
0
41
1
10
191.940137874782
20
10.088820866129
30
0
41
1
10
195.800348078241
20
10.3175433264332
30
0
41
1
10
199.198872870933
20
10.4475928326627
30
0
41
1
10
204.299918806582
20
10.5289899178991
30
0
41
1
10
206.000959638528
20
10.5371843665536
30
0
41
1
10
209.402137685874
20
10.5149900332494
30
0
41
1
10
211.102612640695
20
10.4846105103042
30
0
41
1
10
212.803372173352
20
10.4347716563392
30
0
0
SPLINE
5
2E0
100
AcDbEntity
8
1
62
256
6
ByLayer
370
13
48
1
60
0
100
AcDbSpline
70
4
71
3
72
10
73
6
40
0
40
0
40
0
40
0
40
0.5
40
0.5
40
1
40
1
40
1
40
1
41
1
10
201.911859670238
20
5.43275174466265
30
0
41
1
10
202.374325407644
20
5.27399298313594
30
0
41
1
10
202.836283178256
20
5.12168282430198
30
0
41
1
10
203.756248122275
20
4.83266792956857
30
0
41
1
10
204.214548321563
20
4.69585695005773
30
0
41
1
10
204.670925857633
20
4.56784223494719
30
0
0
SPLINE
5
2E1
100
AcDbEntity
8
1
62
256
6
ByLayer
370
13
48
1
60
0
100
AcDbSpline
70
4
71
3
72
8
73
4
40
0
40
0
40
0
40
0
40
1
40
1
40
1
40
1
41
1
10
234.061825367004
20
0.591309813398198
30
0
41
1
10
234.201410509562
20
0.611487653049778
30
0
41
1
10
234.339985728855
20
0.618944172619734
30
0
41
1
10
234.478737105254
20
0.615399453066885
30
0
0
SPLINE
5
2E2
100
AcDbEntity
8
1
62
256
6
ByLayer
370
13
48
1
60
0
100
AcDbSpline
70
4
71
3
72
12
73
8
40
0
40
0
40
0
40
0
40
0.250000000000002
40
0.250000000000002
40
0.500000000000003
40
0.500000000000003
40
1
40
1
40
1
40
1
41
1
10
212.803372173345
20
10.4347716563408
30
0
41
1
10
212.809032018599
20
10.4567252760481
30
0
41
1
10
212.822137046445
20
10.4762100200035
30
0
41
1
10
212.855072102025
20
10.5074084805321
30
0
41
1
10
212.874958426933
20
10.5195789546543
30
0
41
1
10
212.938079677333
20
10.5477437858434
30
0
41
1
10
212.98538854526
20
10.5561916807604
30
0
41
1
10
213.033368820789
20
10.5574236327546
30
0
0
SPLINE
5
2E3
100
AcDbEntity
8
1
62
256
6
ByLayer
370
13
48
1
60
0
100
AcDbSpline
70
4
71
3
72
8
73
4
40
0
40
0
40
0
40
0
40
1
40
1
40
1
40
1
41
1
10
210.139157844397
20
2.05055621537545
30
0
41
1
10
209.587580500888
20
2.26954513268242
30
0
41
1
10
209.04389835775
20
2.49860021056705
30
0
41
1
10
208.510863302744
20
2.74389837235873
30
0
0
SPLINE
5
2E4
100
AcDbEntity
8
1
62
256
6
ByLayer
370
13
48
1
60
0
100
AcDbSpline
70
4
71
3
72
22
73
18
40
0
40
0
40
0
40
0
40
0.125
40
0.125
40
0.25
40
0.25
40
0.375
40
0.375
40
0.5
40
0.5
40
0.625
40
0.625
40
0.75
40
0.75
40
0.875
40
0.875
40
1
40
1
40
1
40
1
41
1
10
212.365273015625
20
8.43783611107014
30
0
41
1
10
212.38739208373
20
8.50473126602569
30
0
41
1
10
212.408856526145
20
8.57652947021353
30
0
41
1
10
212.449919181311
20
8.72503302265645
30
0
41
1
10
212.469670545765
20
8.80219816567751
30
0
41
1
10
212.508163225667
20
8.96222583809805
30
0
41
1
10
212.526959271139
20
9.04537761775168
30
0
41
1
10
212.563679125352
20
9.21632983092616
30
0
41
1
10
212.581319321053
20
9.302784414293
30
0
41
1
10
212.615679921352
20
9.47750020096657
30
0
41
1
10
212.632392616757
20
9.56576290484418
30
0
41
1
10
212.665492078671
20
9.74402060403062
30
0
41
1
10
212.681873863755
20
9.83406373198207
30
0
41
1
10
212.714312932404
20
10.010414410405
30
0
41
1
10
212.730460070642
20
10.0974044030832
30
0
41
1
10
212.76452191472
20
10.2686216682002
30
0
41
1
10
212.782412586703
20
10.3534728268143
30
0
41
1
10
212.803372173346
20
10.4347716563412
30
0
0
SPLINE
5
2E5
100
AcDbEntity
8
1
62
256
6
ByLayer
370
13
48
1
60
0
100
AcDbSpline
70
4
71
3
72
24
73
20
40
0
40
0
40
0
40
0
40
0.0625
40
0.0625
40
0.125
40
0.125
40
0.1875
40
0.1875
40
0.25
40
0.25
40
0.3125
40
0.3125
40
0.375
40
0.375
40
0.5
40
0.5
40
0.75
40
0.75
40
1
40
1
40
1
40
1
41
1
10
122.6
20
-22.1556120270327
30
0
41
1
10
121.135680357626
20
-22.1513856287381
30
0
41
1
10
119.669403506655
20
-22.1473896523157
30
0
41
1
10
116.733252734458
20
-22.1422799160642
30
0
41
1
10
115.263149145537
20
-22.1411196657622
30
0
41
1
10
112.32126552349
20
-22.1421587071235
30
0
41
1
10
110.850199485508
20
-22.1443514218951
30
0
41
1
10
107.907893497095
20
-22.1514327685875
30
0
41
1
10
106.436658253147
20
-22.1562294476869
30
0
41
1
10
103.494154508199
20
-22.1663432842108
30
0
41
1
10
102.022884646841
20
-22.1716759310091
30
0
41
1
10
99.080352542086
20
-22.1822187897774
30
0
41
1
10
97.6090955911553
20
-22.1873842379023
30
0
41
1
10
93.195319320188
20
-22.2026108239098
30
0
41
1
10
90.2527966895736
20
-22.2124493029357
30
0
41
1
10
81.4252294060468
20
-22.2420015674518
30
0
41
1
10
75.5401826316956
20
-22.2615780023078
30
0
41
1
10
63.7700910311318
20
-22.3008633711785
30
0
41
1
10
57.8850463309788
20
-22.3205946803541
30
0
41
1
10
51.9999999999999
20
-22.3401899026271
30
0
0
SPLINE
5
2E6
100
AcDbEntity
8
1
62
256
6
ByLayer
370
13
48
1
60
0
100
AcDbSpline
70
4
71
3
72
10
73
6
40
0
40
0
40
0
40
0
40
0.585137589112956
40
0.585137589112956
40
1
40
1
40
1
40
1
41
1
10
212.365273015625
20
8.43783611107017
30
0
41
1
10
208.958762560564
20
8.55846566097921
30
0
41
1
10
205.554967720585
20
8.61558442414989
30
0
41
1
10
199.73878089411
20
8.60691281834943
30
0
41
1
10
197.326120354699
20
8.57208978396812
30
0
41
1
10
194.912964292192
20
8.50702215833027
30
0
0
SPLINE
5
2E7
100
AcDbEntity
8
1
62
256
6
ByLayer
370
13
48
1
60
0
100
AcDbSpline
70
4
71
3
72
10
73
6
40
0
40
0
40
0
40
0
40
0.246432795276287
40
0.246432795276287
40
1
40
1
40
1
40
1
41
1
10
0
20
4.071
30
0
41
1
10
0.0410698531254923
20
4.071
30
0
41
1
10
0.0821402764839974
20
4.071
30
0
41
1
10
0.248802294970289
20
4.071
30
0
41
1
10
0.374398598796674
20
4.071
30
0
41
1
10
0.5
20
4.071
30
0
0
SPLINE
5
2E8
100
AcDbEntity
8
1
62
256
6
ByLayer
370
13
48
1
60
0
100
AcDbSpline
70
4
71
3
72
8
73
4
40
0
40
0
40
0
40
0
40
1
40
1
40
1
40
1
41
1
10
225.807211857373
20
6.58223761167915
30
0
41
1
10
226.543132900463
20
6.6208055992752
30
0
41
1
10
227.236729456577
20
6.65715545449945
30
0
41
1
10
227.880684792119
20
6.69090372359273
30
0
0
SPLINE
5
2E9
100
AcDbEntity
8
1
62
256
6
ByLayer
370
13
48
1
60
0
100
AcDbSpline
70
4
71
1
72
4
73
2
40
0
40
0
40
1
40
1
41
1
10
47.45
20
-12.862806716661
30
0
41
1
10
46.9999999999999
20
-12.862806716661
30
0
0
SPLINE
5
2EA
100
AcDbEntity
8
1
62
256
6
ByLayer
370
13
48
1
60
0
100
AcDbSpline
70
4
71
3
72
8
73
4
40
0
40
0
40
0
40
0
40
1
40
1
40
1
40
1
41
1
10
213.033337255015
20
10.5574228221944
30
0
41
1
10
213.410331039493
20
10.5671042848391
30
0
41
1
10
213.772960507858
20
10.5466360890022
30
0
41
1
10
214.121349742145
20
10.4950137294277
30
0
0
SPLINE
5
2EB
100
AcDbEntity
8
1
62
256
6
ByLayer
370
13
48
1
60
0
100
AcDbSpline
70
4
71
3
72
8
73
4
40
0
40
0
40
0
40
0
40
1
40
1
40
1
40
1
41
1
10
214.833981186987
20
7.00810879734246
30
0
41
1
10
214.820256111675
20
7.0061854384922
30
0
41
1
10
214.806496927184
20
7.00441271394757
30
0
41
1
10
214.792701599639
20
7.00279842464002
30
0
0
SPLINE
5
2EC
100
AcDbEntity
8
1
62
256
6
ByLayer
370
13
48
1
60
0
100
AcDbSpline
70
4
71
3
72
18
73
14
40
0
40
0
40
0
40
0
40
0.125000000000001
40
0.125000000000001
40
0.187500000000001
40
0.187500000000001
40
0.218750000000001
40
0.218750000000001
40
0.250000000000001
40
0.250000000000001
40
0.5
40
0.5
40
1
40
1
40
1
40
1
41
1
10
41.4118274366248
20
-9.01878224526354
30
0
41
1
10
40.8249055144741
20
-9.13021196622887
30
0
41
1
10
40.2438831823871
20
-9.25883961277609
30
0
41
1
10
39.3811213621385
20
-9.47735144626759
30
0
41
1
10
39.094997516517
20
-9.55445477004974
30
0
41
1
10
38.6680109521366
20
-9.67652066685642
30
0
41
1
10
38.5260487295029
20
-9.71827807043485
30
0
41
1
10
38.2428594338016
20
-9.80393591590394
30
0
41
1
10
38.1017387007076
20
-9.84814635000231
30
0
41
1
10
36.8328056767396
20
-10.2494030460823
30
0
41
1
10
35.6982110488941
20
-10.5847352439667
30
0
41
1
10
32.2676977252685
20
-11.5313518460982
30
0
41
1
10
29.9455141658222
20
-12.0832055279604
30
0
41
1
10
27.5891072437858
20
-12.557977805899
30
0
0
SPLINE
5
2ED
100
AcDbEntity
8
1
62
256
6
ByLayer
370
13
48
1
60
0
100
AcDbSpline
70
2053
71
3
72
96
73
92
40
0
40
0
40
0
40
0
40
0.0312500000000052
40
0.0312500000000052
40
0.0468750000000078
40
0.0468750000000078
40
0.0625000000000104
40
0.0625000000000104
40
0.0937500000000212
40
0.0937500000000212
40
0.109375000000024
40
0.109375000000024
40
0.125000000000027
40
0.14062500000003
40
0.14062500000003
40
0.156250000000033
40
0.156250000000033
40
0.187500000000038
40
0.187500000000038
40
0.203125000000041
40
0.203125000000041
40
0.218750000000044
40
0.218750000000044
40
0.250000000000051
40
0.250000000000051
40
0.265625000000054
40
0.265625000000054
40
0.281250000000058
40
0.281250000000058
40
0.312500000000064
40
0.312500000000064
40
0.328125000000065
40
0.328125000000065
40
0.343750000000067
40
0.343750000000067
40
0.375000000000074
40
0.375000000000074
40
0.406250000000081
40
0.406250000000081
40
0.421875000000084
40
0.421875000000084
40
0.437500000000088
40
0.437500000000088
40
0.468750000000089
40
0.468750000000089
40
0.484375000000092
40
0.484375000000092
40
0.500000000000096
40
0.500000000000096
40
0.531250000000097
40
0.531250000000097
40
0.546875000000094
40
0.546875000000094
40
0.562500000000092
40
0.578125000000089
40
0.578125000000089
40
0.593750000000087
40
0.593750000000087
40
0.625000000000082
40
0.625000000000082
40
0.640625000000078
40
0.640625000000078
40
0.656250000000073
40
0.656250000000073
40
0.687500000000067
40
0.687500000000067
40
0.718750000000062
40
0.718750000000062
40
0.734375000000059
40
0.734375000000059
40
0.750000000000055
40
0.750000000000055
40
0.781250000000049
40
0.781250000000049
40
0.796875000000047
40
0.796875000000047
40
0.812500000000044
40
0.812500000000044
40
0.843750000000039
40
0.843750000000039
40
0.875000000000034
40
0.875000000000034
40
0.90625000000003
40
0.90625000000003
40
0.921875000000025
40
0.921875000000025
40
0.93750000000002
40
0.93750000000002
40
0.96875000000001
40
0.96875000000001
40
1
40
1
40
1
40
1
41
1
10
227.002789113498
20
-2.67500854056218
30
0
41
1
10
227.145576237439
20
-2.67500854056218
30
0
41
1
10
227.285834536763
20
-2.68969807205605
30
0
41
1
10
227.492588467407
20
-2.73282360866898
30
0
41
1
10
227.560895996517
20
-2.75074192886581
30
0
41
1
10
227.696258896283
20
-2.79383996431773
30
0
41
1
10
227.76312582235
20
-2.81901240803745
30
0
41
1
10
227.957267462941
20
-2.90363912606398
30
0
41
1
10
228.079689613004
20
-2.97257137261886
30
0
41
1
10
228.252869238092
20
-3.09457376979262
30
0
41
1
10
228.309082145615
20
-3.13860920252162
30
0
41
1
10
228.415681079738
20
-3.23116128270831
30
0
41
1
10
228.516925999468
20
-3.32844172047413
30
0
41
1
10
228.607773831662
20
-3.43487384759786
30
0
41
1
10
228.693430242931
20
-3.54586025517156
30
0
41
1
10
228.733817353819
20
-3.60388377887637
30
0
41
1
10
228.845887755533
20
-3.7831608804193
30
0
41
1
10
228.907725370998
20
-3.9079823325439
30
0
41
1
10
228.982217923408
20
-4.10265111841949
30
0
41
1
10
229.003982668081
20
-4.16878955002846
30
0
41
1
10
229.041299627948
20
-4.30358541665984
30
0
41
1
10
229.056727246384
20
-4.37191246842821
30
0
41
1
10
229.092968828369
20
-4.57663545178522
30
0
41
1
10
229.104164697957
20
-4.71393261707391
30
0
41
1
10
229.101901424774
20
-4.92104942063602
30
0
41
1
10
229.097905696977
20
-4.99062467259665
30
0
41
1
10
229.083549830313
20
-5.12828119717773
30
0
41
1
10
229.073237857187
20
-5.19628791271276
30
0
41
1
10
229.033175723598
20
-5.39792380009823
30
0
41
1
10
228.994384750865
20
-5.52918882449498
30
0
41
1
10
228.917615163491
20
-5.72129772635987
30
0
41
1
10
228.888839368047
20
-5.78457504226404
30
0
41
1
10
228.826141512964
20
-5.90696607559164
30
0
41
1
10
228.792100217578
20
-5.96641242357686
30
0
41
1
10
228.681948459308
20
-6.13956927891752
30
0
41
1
10
228.597898303413
20
-6.24815229318963
30
0
41
1
10
228.406868480871
20
-6.4507294184663
30
0
41
1
10
228.30227812916
20
-6.54202252711451
30
0
41
1
10
228.133564184583
20
-6.66239313975498
30
0
41
1
10
228.075247579623
20
-6.69983478596157
30
0
41
1
10
227.95427744248
20
-6.7691518058997
30
0
41
1
10
227.891267279561
20
-6.80118173820921
30
0
41
1
10
227.697831915451
20
-6.88720604761622
30
0
41
1
10
227.564763678681
20
-6.93065862381565
30
0
41
1
10
227.358961686157
20
-6.97500557539968
30
0
41
1
10
227.289320506508
20
-6.9862907755703
30
0
41
1
10
227.147856673912
20
-7.00154089235886
30
0
41
1
10
227.076483569792
20
-7.00540795385604
30
0
41
1
10
226.864537780228
20
-7.0057287558237
30
0
41
1
10
226.724520571475
20
-6.99120738225761
30
0
41
1
10
226.516419850339
20
-6.94721901752615
30
0
41
1
10
226.44742110652
20
-6.928776332555
30
0
41
1
10
226.313383380216
20
-6.88539463694602
30
0
41
1
10
226.18243226067
20
-6.83536033830453
30
0
41
1
10
226.057451803048
20
-6.77241262123763
30
0
41
1
10
225.935445132996
20
-6.70300591042147
30
0
41
1
10
225.875892726016
20
-6.6649919691956
30
0
41
1
10
225.705378633543
20
-6.54382821334636
30
0
41
1
10
225.601124005112
20
-6.452922670665
30
0
41
1
10
225.458207360485
20
-6.30190990592035
30
0
41
1
10
225.412656082529
20
-6.24885593021563
30
0
41
1
10
225.327619031133
20
-6.13967343316034
30
0
41
1
10
225.287975940712
20
-6.08342237763813
30
0
41
1
10
225.177361260884
20
-5.90983308945124
30
0
41
1
10
225.114625489047
20
-5.78770360544678
30
0
41
1
10
225.011504116322
20
-5.53027639271741
30
0
41
1
10
224.972608527957
20
-5.3986822968929
30
0
41
1
10
224.93249606412
20
-5.19720941119385
30
0
41
1
10
224.9221833491
20
-5.12936012265857
30
0
41
1
10
224.907799838432
20
-4.99224437929516
30
0
41
1
10
224.903733679131
20
-4.92261519325678
30
0
41
1
10
224.901342444564
20
-4.71460686236469
30
0
41
1
10
224.912570696202
20
-4.57732865986179
30
0
41
1
10
224.948525737526
20
-4.3735158126301
30
0
41
1
10
224.96371713603
20
-4.305931646874
30
0
41
1
10
225.000758407543
20
-4.17150714186906
30
0
41
1
10
225.022722598819
20
-4.1044624414838
30
0
41
1
10
225.097414110329
20
-3.90884415294363
30
0
41
1
10
225.159145174694
20
-3.78437175196979
30
0
41
1
10
225.306762675156
20
-3.54756000702025
30
0
41
1
10
225.393823940794
20
-3.43422779837187
30
0
41
1
10
225.586178429196
20
-3.22988566769607
30
0
41
1
10
225.691758987248
20
-3.1378640526539
30
0
41
1
10
225.864622864683
20
-3.01556393100148
30
0
41
1
10
225.92504167341
20
-2.97725722769371
30
0
41
1
10
226.048390759502
20
-2.90764452325408
30
0
41
1
10
226.11145389951
20
-2.87619097727372
30
0
41
1
10
226.304731099916
20
-2.79171611545911
30
0
41
1
10
226.439255872316
20
-2.74841987877909
30
0
41
1
10
226.718622310197
20
-2.68971995750422
30
0
41
1
10
226.860001989557
20
-2.67500854056218
30
0
41
1
10
227.002789113498
20
-2.67500854056218
30
0
0
SPLINE
5
2EE
100
AcDbEntity
8
1
62
256
6
ByLayer
370
13
48
1
60
0
100
AcDbSpline
70
4
71
3
72
12
73
8
40
0
40
0
40
0
40
0
40
0.229721848712272
40
0.229721848712272
40
0.614860924356137
40
0.614860924356137
40
1
40
1
40
1
40
1
41
1
10
192.548359458036
20
9.39959822161163
30
0
41
1
10
193.476624753832
20
9.0476661088141
30
0
41
1
10
194.404870095465
20
8.69080291306344
30
0
41
1
10
196.889179530272
20
7.72392951087895
30
0
41
1
10
198.446103673899
20
7.10560605150721
30
0
41
1
10
201.558781993836
20
5.84992902907527
30
0
41
1
10
203.11462476497
20
5.21256097025125
30
0
41
1
10
204.670925857633
20
4.56784223494725
30
0
0
SPLINE
5
2EF
100
AcDbEntity
8
1
62
256
6
ByLayer
370
13
48
1
60
0
100
AcDbSpline
70
4
71
3
72
14
73
10
40
0
40
0
40
0
40
0
40
0.25
40
0.25
40
0.5
40
0.5
40
0.75
40
0.75
40
1
40
1
40
1
40
1
41
1
10
210.139725817918
20
2.0503307533908
30
0
41
1
10
210.349609040993
20
1.96702932062172
30
0
41
1
10
210.563335002844
20
1.89712851607308
30
0
41
1
10
210.998419658001
20
1.7839533857431
30
0
41
1
10
211.21977771085
20
1.74067678270592
30
0
41
1
10
211.670463110381
20
1.681929880853
30
0
41
1
10
211.895219483063
20
1.66706939375561
30
0
41
1
10
212.343051502612
20
1.66549609794274
30
0
41
1
10
212.566234368603
20
1.67877342697818
30
0
41
1
10
212.78865947255
20
1.70633407198383
30
0
0
SPLINE
5
2F0
100
AcDbEntity
8
1
62
256
6
ByLayer
370
13
48
1
60
0
100
AcDbSpline
70
4
71
3
72
14
73
10
40
0
40
0
40
0
40
0
40
0.125
40
0.125
40
0.25
40
0.25
40
0.5
40
0.5
40
1
40
1
40
1
40
1
41
1
10
228.762708723844
20
8.03891268892627
30
0
41
1
10
228.799334960786
20
8.04083218866791
30
0
41
1
10
228.836663465276
20
8.04365681289721
30
0
41
1
10
228.9105441693
20
8.05101221354474
30
0
41
1
10
228.947318261127
20
8.05554758323379
30
0
41
1
10
229.057213947035
20
8.0717085290527
30
0
41
1
10
229.129908900443
20
8.08588026025998
30
0
41
1
10
229.346835960251
20
8.13875108358033
30
0
41
1
10
229.489843189205
20
8.18758869097627
30
0
41
1
10
229.633042717522
20
8.25249709622713
30
0
0
SPLINE
5
2F1
100
AcDbEntity
8
1
62
256
6
ByLayer
370
13
48
1
60
0
100
AcDbSpline
70
4
71
3
72
12
73
8
40
0
40
0
40
0
40
0
40
0.500000000000003
40
0.500000000000003
40
0.750000000000002
40
0.750000000000002
40
1
40
1
40
1
40
1
41
1
10
209.001515073537
20
20.6520970897537
30
0
41
1
10
209.590210516199
20
19.5058700777621
30
0
41
1
10
210.243734524216
20
18.4004649278332
30
0
41
1
10
211.34027415047
20
16.8155608744766
30
0
41
1
10
211.725159218834
20
16.2994577785044
30
0
41
1
10
212.536606225126
20
15.2934950706062
30
0
41
1
10
212.963983929543
20
14.8029167280873
30
0
41
1
10
213.409383621777
20
14.3303633976951
30
0
0
SPLINE
5
2F2
100
AcDbEntity
8
1
62
256
6
ByLayer
370
13
48
1
60
0
100
AcDbSpline
70
4
71
3
72
32
73
28
40
0
40
0
40
0
40
0
40
0.104150901669862
40
0.104150901669862
40
0.208301803339723
40
0.208301803339723
40
0.312452705009585
40
0.312452705009585
40
0.364528155844516
40
0.364528155844516
40
0.416603606679447
40
0.416603606679447
40
0.520754508349308
40
0.520754508349308
40
0.62490541001917
40
0.62490541001917
40
0.676980860854101
40
0.676980860854101
40
0.729056311689032
40
0.729056311689032
40
0.833207213358899
40
0.833207213358899
40
0.885282664193832
40
0.885282664193832
40
0.937358115028766
40
0.937358115028766
40
1
40
1
40
1
40
1
41
1
10
212.224623463102
20
7.96318794508358
30
0
41
1
10
211.778165125385
20
8.07315643595544
30
0
41
1
10
211.326888725133
20
8.16434477688992
30
0
41
1
10
210.415593278622
20
8.31496355419188
30
0
41
1
10
209.955561790882
20
8.37433976915423
30
0
41
1
10
209.026666465807
20
8.46395158238465
30
0
41
1
10
208.557799299525
20
8.4941642199949
30
0
41
1
10
207.847271013486
20
8.51816415459766
30
0
41
1
10
207.609218308943
20
8.5225978953637
30
0
41
1
10
207.130526440983
20
8.52428078627037
30
0
41
1
10
206.889372171833
20
8.52150750544467
30
0
41
1
10
206.167475370304
20
8.50239619074657
30
0
41
1
10
205.687315988626
20
8.47537119195809
30
0
41
1
10
204.729053221965
20
8.39303683097435
30
0
41
1
10
204.250949268391
20
8.33774040060823
30
0
41
1
10
203.53528206
20
8.23281523079314
30
0
41
1
10
203.296975124648
20
8.19416563485632
30
0
41
1
10
202.8208611807
20
8.10920371573476
30
0
41
1
10
202.582336415209
20
8.0627262418831
30
0
41
1
10
201.875838015467
20
7.91290646116346
30
0
41
1
10
201.415308526053
20
7.7991105000356
30
0
41
1
10
200.742487784452
20
7.60597836836018
30
0
41
1
10
200.52122498468
20
7.53783769105408
30
0
41
1
10
200.085392836299
20
7.39332352714825
30
0
41
1
10
199.869876160459
20
7.31656798729031
30
0
41
1
10
199.410997837559
20
7.14004387093283
30
0
41
1
10
199.170107954465
20
7.0387773107
30
0
41
1
10
198.940436160139
20
6.93163013689602
30
0
0
SPLINE
5
2F3
100
AcDbEntity
8
1
62
256
6
ByLayer
370
13
48
1
60
0
100
AcDbSpline
70
4
71
3
72
8
73
4
40
0
40
0
40
0
40
0
40
1
40
1
40
1
40
1
41
1
10
216.900809752592
20
16.0847417242914
30
0
41
1
10
216.886940997104
20
16.0580014879686
30
0
41
1
10
216.871597586549
20
16.0339410752116
30
0
41
1
10
216.85566143541
20
16.012437700239
30
0
0
SPLINE
5
2F4
100
AcDbEntity
8
1
62
256
6
ByLayer
370
13
48
1
60
0
100
AcDbSpline
70
4
71
3
72
8
73
4
40
0
40
0
40
0
40
0
40
1
40
1
40
1
40
1
41
1
10
47.45
20
-21.710024358737
30
0
41
1
10
47.3033333324903
20
-21.710075585334
30
0
41
1
10
47.1566666657859
20
-21.7101285369518
30
0
41
1
10
47.01
20
-21.7101832697546
30
0
0
SPLINE
5
2F5
100
AcDbEntity
8
1
62
256
6
ByLayer
370
13
48
1
60
0
100
AcDbSpline
70
4
71
3
72
8
73
4
40
0
40
0
40
0
40
0
40
1
40
1
40
1
40
1
41
1
10
52
20
-8.03352918659834
30
0
41
1
10
50.3333332945227
20
-8.0330989006892
30
0
41
1
10
48.6666666167201
20
-8.03255735057795
30
0
41
1
10
47
20
-8.03189172239829
30
0
0
SPLINE
5
2F6
100
AcDbEntity
8
1
62
256
6
ByLayer
370
13
48
1
60
0
100
AcDbSpline
70
4
71
3
72
8
73
4
40
0
40
0
40
0
40
0
40
1
40
1
40
1
40
1
41
1
10
214.170554952283
20
10.4856666136945
30
0
41
1
10
214.154233426435
20
10.489285752113
30
0
41
1
10
214.137833660544
20
10.4924138269664
30
0
41
1
10
214.121349742145
20
10.4950137294276
30
0
0
SPLINE
5
2F7
100
AcDbEntity
8
1
62
256
6
ByLayer
370
13
48
1
60
0
100
AcDbSpline
70
4
71
3
72
10
73
6
40
0
40
0
40
0
40
0
40
0.5
40
0.5
40
1
40
1
40
1
40
1
41
1
10
220.622237410308
20
7.57788248963968
30
0
41
1
10
220.672552968058
20
7.57534032151582
30
0
41
1
10
220.720980192396
20
7.56794282379406
30
0
41
1
10
220.813185285844
20
7.54815951916737
30
0
41
1
10
220.855975529441
20
7.53616162230077
30
0
41
1
10
220.894599543143
20
7.52601781283232
30
0
0
SPLINE
5
2F8
100
AcDbEntity
8
1
62
256
6
ByLayer
370
13
48
1
60
0
100
AcDbSpline
70
4
71
3
72
8
73
4
40
0
40
0
40
0
40
0
40
1
40
1
40
1
40
1
41
1
10
208.510863302744
20
2.74389837235876
30
0
41
1
10
207.225699844082
20
3.33531957636939
30
0
41
1
10
205.945860303928
20
3.94374681014477
30
0
41
1
10
204.670925857633
20
4.56784223494725
30
0
0
SPLINE
5
2F9
100
AcDbEntity
8
1
62
256
6
ByLayer
370
13
48
1
60
0
100
AcDbSpline
70
4
71
3
72
8
73
4
40
0
40
0
40
0
40
0
40
1
40
1
40
1
40
1
41
1
10
220.538118329176
20
7.57855501314481
30
0
41
1
10
220.489934455341
20
7.57694777104186
30
0
41
1
10
220.441792969864
20
7.57607029857977
30
0
41
1
10
220.393731423851
20
7.57634994158653
30
0
0
SPLINE
5
2FA
100
AcDbEntity
8
1
62
256
6
ByLayer
370
13
48
1
60
0
100
AcDbSpline
70
4
71
3
72
50
73
46
40
0
40
0
40
0
40
0
40
0.125000000000001
40
0.125000000000001
40
0.156250000000001
40
0.156250000000001
40
0.187500000000001
40
0.187500000000001
40
0.250000000000002
40
0.250000000000002
40
0.312500000000003
40
0.312500000000003
40
0.343750000000003
40
0.343750000000003
40
0.375000000000003
40
0.375000000000003
40
0.437500000000003
40
0.437500000000003
40
0.468750000000003
40
0.468750000000003
40
0.500000000000003
40
0.500000000000003
40
0.531250000000003
40
0.531250000000003
40
0.562500000000003
40
0.562500000000003
40
0.593750000000002
40
0.593750000000002
40
0.625000000000002
40
0.625000000000002
40
0.687500000000002
40
0.687500000000002
40
0.750000000000002
40
0.750000000000002
40
0.781250000000002
40
0.781250000000002
40
0.812500000000002
40
0.812500000000002
40
0.875000000000002
40
0.875000000000002
40
0.906250000000001
40
0.906250000000001
40
0.937500000000001
40
0.937500000000001
40
1
40
1
40
1
40
1
41
1
10
201.911859670238
20
5.43275174466262
30
0
41
1
10
198.691562407295
20
6.83715017871435
30
0
41
1
10
195.47667334334
20
8.20355479827916
30
0
41
1
10
191.452546896068
20
9.83839859462731
30
0
41
1
10
190.647444336165
20
10.1617077393108
30
0
41
1
10
189.036375956109
20
10.8003679048762
30
0
41
1
10
188.23041633838
20
11.1157131335438
30
0
41
1
10
185.814778977946
20
12.0473079401689
30
0
41
1
10
184.206010165256
20
12.6496543957503
30
0
41
1
10
180.989075780319
20
13.8119879327201
30
0
41
1
10
179.380856448758
20
14.3718862959036
30
0
41
1
10
176.967121902634
20
15.1767089872534
30
0
41
1
10
176.162316691401
20
15.4391581586609
30
0
41
1
10
174.551978555034
20
15.9519190051408
30
0
41
1
10
173.746231891153
20
16.2022927162833
30
0
41
1
10
171.330237164619
20
16.9336442896422
30
0
41
1
10
169.720837502249
20
17.3953687694872
30
0
41
1
10
167.305348038272
20
18.0444873401855
30
0
41
1
10
166.499799199338
20
18.2536748345539
30
0
41
1
10
164.888277793356
20
18.656081643182
30
0
41
1
10
164.082133041057
20
18.8491045032881
30
0
41
1
10
162.466019792242
20
19.2157568061652
30
0
41
1
10
161.655994408862
20
19.3893220224014
30
0
41
1
10
160.029041033316
20
19.7150531043612
30
0
41
1
10
159.211867145898
20
19.8674709597183
30
0
41
1
10
157.571764519908
20
20.1514526172061
30
0
41
1
10
156.748952449217
20
20.2829515490865
30
0
41
1
10
155.097011294433
20
20.5262913805411
30
0
41
1
10
154.267992956369
20
20.6382860970964
30
0
41
1
10
151.772483716801
20
20.9491267897842
30
0
41
1
10
150.0975834635
20
21.1230141899369
30
0
41
1
10
146.728548100371
20
21.420180860274
30
0
41
1
10
145.034246325001
20
21.5434244309189
30
0
41
1
10
142.481473799192
20
21.6993470830297
30
0
41
1
10
141.629245637646
20
21.7464608643418
30
0
41
1
10
139.922293328561
20
21.8320384286697
30
0
41
1
10
139.067501539865
20
21.8704354602191
30
0
41
1
10
136.498228035339
20
21.9733500479495
30
0
41
1
10
134.77877854465
20
22.0255278547964
30
0
41
1
10
132.185833304144
20
22.0842507724156
30
0
41
1
10
131.319940661254
20
22.1005604671074
30
0
41
1
10
129.584651054318
20
22.1278713963986
30
0
41
1
10
128.715306898487
20
22.138912219329
30
0
41
1
10
126.102459572913
20
22.1661814071648
30
0
41
1
10
124.354236550419
20
22.1766713597331
30
0
41
1
10
122.6
20
22.1832792677915
30
0
0
SPLINE
5
2FB
100
AcDbEntity
8
1
62
256
6
ByLayer
370
13
48
1
60
0
100
AcDbSpline
70
4
71
3
72
17
73
13
40
0
40
0
40
0
40
0
40
0.499999999999993
40
0.499999999999993
40
0.749999999999991
40
0.749999999999991
40
0.781249999999991
40
0.781249999999991
40
0.812499999999992
40
0.874999999999995
40
0.874999999999995
40
1
40
1
40
1
40
1
41
1
10
27.5891925386282
20
-27.0543972501628
30
0
41
1
10
29.9494593920983
20
-26.4970367828759
30
0
41
1
10
32.274876869267
20
-25.8491598570056
30
0
41
1
10
35.7093432201431
20
-24.7379703544503
30
0
41
1
10
36.844524125779
20
-24.3445593114957
30
0
41
1
10
38.1141609738553
20
-23.873787878979
30
0
41
1
10
38.2553996426375
20
-23.8220777318346
30
0
41
1
10
38.5387567618995
20
-23.7217896580907
30
0
41
1
10
38.9648557199193
20
-23.5751430601036
30
0
41
1
10
39.3941332999482
20
-23.4398130707594
30
0
41
1
10
40.2569141294135
20
-23.1841974247417
30
0
41
1
10
40.8377299130277
20
-23.033825946633
30
0
41
1
10
41.4242118363026
20
-22.9036271989948
30
0
0
SPLINE
5
2FC
100
AcDbEntity
8
1
62
256
6
ByLayer
370
13
48
1
60
0
100
AcDbSpline
70
4
71
3
72
8
73
4
40
0
40
0
40
0
40
0
40
1
40
1
40
1
40
1
41
1
10
209.001515073531
20
20.6520970897441
30
0
41
1
10
209.266524943978
20
21.077024198112
30
0
41
1
10
209.524064612979
20
21.5066473307767
30
0
41
1
10
209.774740487859
20
21.9402510535358
30
0
0
SPLINE
5
2FD
100
AcDbEntity
8
1
62
256
6
ByLayer
370
13
48
1
60
0
100
AcDbSpline
70
4
71
3
72
16
73
12
40
0
40
0
40
0
40
0
40
0.25
40
0.25
40
0.375
40
0.375
40
0.5
40
0.5
40
0.75
40
0.75
40
1
40
1
40
1
40
1
41
1
10
41.4118274366249
20
-9.01878224526376
30
0
41
1
10
41.7041132888779
20
-8.85904666311134
30
0
41
1
10
42.004779541633
20
-8.71813954024208
30
0
41
1
10
42.4683910959499
20
-8.53485656381076
30
0
41
1
10
42.625036271398
20
-8.47845595731354
30
0
41
1
10
42.9426227532554
20
-8.37518628978822
30
0
41
1
10
43.1040682067581
20
-8.32819884776109
30
0
41
1
10
43.5904404550027
20
-8.2030472788571
30
0
41
1
10
43.9174551824529
20
-8.14043719829778
30
0
41
1
10
44.5770256785789
20
-8.05606441716751
30
0
41
1
10
44.9095813282213
20
-8.034302412898
30
0
41
1
10
45.2449982615755
20
-8.03353840655922
30
0
0
SPLINE
5
2FE
100
AcDbEntity
8
1
62
256
6
ByLayer
370
13
48
1
60
0
100
AcDbSpline
70
4
71
3
72
23
73
19
40
0
40
0
40
0
40
0
40
0.125000000000003
40
0.125000000000003
40
0.250000000000006
40
0.250000000000006
40
0.375000000000009
40
0.375000000000009
40
0.500000000000012
40
0.625000000000015
40
0.625000000000015
40
0.750000000000018
40
0.750000000000018
40
0.87500000000002
40
0.87500000000002
40
0.93750000000001
40
0.93750000000001
40
1
40
1
40
1
40
1
41
1
10
220.999476950794
20
6.62058060759293
30
0
41
1
10
220.89853093784
20
6.52812528363779
30
0
41
1
10
220.791019925729
20
6.44383204462628
30
0
41
1
10
220.561841690486
20
6.29198601373301
30
0
41
1
10
220.442509459987
20
6.22602116872872
30
0
41
1
10
220.195284459864
20
6.11394833098396
30
0
41
1
10
220.066759108206
20
6.06758600461148
30
0
41
1
10
219.801510842867
20
5.99566043508145
30
0
41
1
10
219.533451423994
20
5.94586201110423
30
0
41
1
10
219.25974126077
20
5.93865809350766
30
0
41
1
10
218.983221481745
20
5.95357698041227
30
0
41
1
10
218.846428035536
20
5.97201186375835
30
0
41
1
10
218.57852294798
20
6.02969259006056
30
0
41
1
10
218.44694923978
20
6.06896012631103
30
0
41
1
10
218.253410457198
20
6.14410954740259
30
0
41
1
10
218.189749884026
20
6.17183123476852
30
0
41
1
10
218.066104068819
20
6.23169036795727
30
0
41
1
10
218.005837835592
20
6.26393263809757
30
0
41
1
10
217.947151413127
20
6.29843965190184
30
0
0
SPLINE
5
2FF
100
AcDbEntity
8
1
62
256
6
ByLayer
370
13
48
1
60
0
100
AcDbSpline
70
4
71
3
72
12
73
8
40
0
40
0
40
0
40
0
40
0.5
40
0.5
40
0.75
40
0.75
40
1
40
1
40
1
40
1
41
1
10
216.029476936527
20
8.36455122262623
30
0
41
1
10
216.083793243009
20
8.69625160439898
30
0
41
1
10
216.107258097133
20
9.02929106587058
30
0
41
1
10
216.077627030518
20
9.53166407453762
30
0
41
1
10
216.056451322824
20
9.70058709013608
30
0
41
1
10
215.989075476739
20
10.0292717808917
30
0
41
1
10
215.942958569237
20
10.1900290169136
30
0
41
1
10
215.88259012089
20
10.3466754317663
30
0
0
SPLINE
5
300
100
AcDbEntity
8
1
62
256
6
ByLayer
370
13
48
1
60
0
100
AcDbSpline
70
4
71
3
72
8
73
4
40
0
40
0
40
0
40
0
40
1
40
1
40
1
40
1
41
1
10
218.590283877713
20
22.0847239276984
30
0
41
1
10
218.498049089098
20
22.0768100433783
30
0
41
1
10
218.403594908568
20
22.0700471360549
30
0
41
1
10
218.30696650309
20
22.0645111248901
30
0
0
SPLINE
5
301
100
AcDbEntity
8
1
62
256
6
ByLayer
370
13
48
1
60
0
100
AcDbSpline
70
4
71
3
72
10
73
6
40
0
40
0
40
0
40
0
40
0.5
40
0.5
40
1
40
1
40
1
40
1
41
1
10
208.82295190396
20
0.94909414282634
30
0
41
1
10
209.331276297902
20
0.643418186148665
30
0
41
1
10
209.85877903273
20
0.390668474675948
30
0
41
1
10
210.952696413419
20
-0.007267338614156
30
0
41
1
10
211.519037469571
20
-0.152657313926966
30
0
41
1
10
212.107106212144
20
-0.237927491448915
30
0
0
SPLINE
5
302
100
AcDbEntity
8
1
62
256
6
ByLayer
370
13
48
1
60
0
100
AcDbSpline
70
4
71
2
72
16
73
13
40
0
40
0
40
0
40
0.306550128213585
40
0.306550128213585
40
0.459825192320377
40
0.459825192320377
40
0.613100256427169
40
0.613100256427169
40
0.766375320533962
40
0.766375320533962
40
0.919650384640754
40
0.919650384640754
40
1
40
1
40
1
41
1
10
46.9999999999988
20
-12.8679568274865
30
0
41
1
10
42.9467771968535
20
-13.5795306924919
30
0
41
1
10
39.3728260967484
20
-15.2722744794129
30
0
41
1
10
37.5519887623932
20
-16.1346844560444
30
0
41
1
10
35.9042191915715
20
-17.2370501412667
30
0
41
1
10
34.2449709380749
20
-18.3470951198299
30
0
41
1
10
32.8411099814836
20
-19.6463474456194
30
0
41
1
10
31.4428701249478
20
-20.9403975273502
30
0
41
1
10
30.2994483842387
20
-22.4200075827574
30
0
41
1
10
29.173066917497
20
-23.8775671909747
30
0
41
1
10
28.3474629598359
20
-25.4445264008974
30
0
41
1
10
27.9279328573707
20
-26.2407756821628
30
0
41
1
10
27.5894114943542
20
-27.0538713470216
30
0
0
SPLINE
5
303
100
AcDbEntity
8
1
62
256
6
ByLayer
370
13
48
1
60
0
100
AcDbSpline
70
4
71
3
72
18
73
14
40
0
40
0
40
0
40
0
40
0.125
40
0.125
40
0.25
40
0.25
40
0.375
40
0.375
40
0.5
40
0.5
40
0.75
40
0.75
40
1
40
1
40
1
40
1
41
1
10
5.49999999999997
20
-27.197533014896
30
0
41
1
10
5.5331183619886
20
-27.197533014896
30
0
41
1
10
5.56567694370481
20
-27.1995026580579
30
0
41
1
10
5.62972133566616
20
-27.2072122555809
30
0
41
1
10
5.66154354218739
20
-27.2130480694634
30
0
41
1
10
5.72214649856302
20
-27.2282429091525
30
0
41
1
10
5.75087897885176
20
-27.2375315286339
30
0
41
1
10
5.8052384884854
20
-27.259437487858
30
0
41
1
10
5.83093052062634
20
-27.272154639518
30
0
41
1
10
5.89997612824273
20
-27.3137174239843
30
0
41
1
10
5.93710206073182
20
-27.3470902458003
30
0
41
1
10
5.98680620220951
20
-27.4186740847385
30
0
41
1
10
5.99999999999997
20
-27.4575544853432
30
0
41
1
10
5.99999999999997
20
-27.4965076027925
30
0
0
SPLINE
5
304
100
AcDbEntity
8
1
62
256
6
ByLayer
370
13
48
1
60
0
100
AcDbSpline
70
4
71
3
72
8
73
4
40
0
40
0
40
0
40
0
40
1
40
1
40
1
40
1
41
1
10
47.0099999999995
20
-21.7237296622396
30
0
41
1
10
46.4216660484667
20
-21.7239493457346
30
0
41
1
10
45.8333320972658
20
-21.7241696817217
30
0
41
1
10
45.2449981459049
20
-21.7243897032701
30
0
0
SPLINE
5
305
100
AcDbEntity
8
1
62
256
6
ByLayer
370
13
48
1
60
0
100
AcDbSpline
70
4
71
3
72
12
73
8
40
0
40
0
40
0
40
0
40
0.250000000000008
40
0.250000000000008
40
0.500000000000017
40
0.500000000000017
40
1
40
1
40
1
40
1
41
1
10
215.882590120888
20
10.3466754317685
30
0
41
1
10
215.873585572969
20
10.4145240582876
30
0
41
1
10
215.861342191976
20
10.4819804071556
30
0
41
1
10
215.829653118772
20
10.6160207827734
30
0
41
1
10
215.810065144067
20
10.6829188562238
30
0
41
1
10
215.740777527925
20
10.8779604763172
30
0
41
1
10
215.680467159458
20
11.0014772427715
30
0
41
1
10
215.605298695594
20
11.118142012636
30
0
0
SPLINE
5
306
100
AcDbEntity
8
1
62
256
6
ByLayer
370
13
48
1
60
0
100
AcDbSpline
70
4
71
3
72
14
73
10
40
0
40
0
40
0
40
0
40
0.519851709278666
40
0.519851709278666
40
0.779777563917998
40
0.779777563917998
40
0.909740491237663
40
0.909740491237663
40
1
40
1
40
1
40
1
41
1
10
18.9098285720148
20
-21.9328198633763
30
0
41
1
10
19.2073743401703
20
-20.7541275014438
30
0
41
1
10
19.6004324593858
20
-19.5948394368317
30
0
41
1
10
20.3390840778022
20
-17.8845017360579
30
0
41
1
10
20.6103461590697
20
-17.3191996639656
30
0
41
1
10
21.0572816946237
20
-16.4787727225667
30
0
41
1
10
21.2132578719125
20
-16.1993686417722
30
0
41
1
10
21.4878070381529
20
-15.7307360139849
30
0
41
1
10
21.6032282652756
20
-15.5400834192406
30
0
41
1
10
21.7214836359978
20
-15.3508226769615
30
0
0
SPLINE
5
307
100
AcDbEntity
8
1
62
256
6
ByLayer
370
13
48
1
60
0
100
AcDbSpline
70
4
71
3
72
18
73
14
40
0
40
0
40
0
40
0
40
0.250000000000023
40
0.250000000000023
40
0.375000000000036
40
0.375000000000036
40
0.500000000000049
40
0.500000000000049
40
0.750000000000075
40
0.750000000000075
40
0.875000000000038
40
0.875000000000038
40
1
40
1
40
1
40
1
41
1
10
221.698222874135
20
7.66867867376655
30
0
41
1
10
221.692902324299
20
7.66839983556505
30
0
41
1
10
221.69416626852
20
7.67865828769726
30
0
41
1
10
221.709431364179
20
7.70707661856221
30
0
41
1
10
221.716790018651
20
7.71858112733679
30
0
41
1
10
221.73673227784
20
7.74407948691575
30
0
41
1
10
221.749583358608
20
7.75832427181203
30
0
41
1
10
221.79566662021
20
7.80079128055968
30
0
41
1
10
221.837854314276
20
7.8294840196869
30
0
41
1
10
221.911143279672
20
7.86066928856772
30
0
41
1
10
221.937655393459
20
7.869347270845
30
0
41
1
10
221.991800116233
20
7.88182880889954
30
0
41
1
10
222.019665439601
20
7.88578363125393
30
0
41
1
10
222.048333783935
20
7.88730164186725
30
0
0
SPLINE
5
308
100
AcDbEntity
8
1
62
256
6
ByLayer
370
13
48
1
60
0
100
AcDbSpline
70
4
71
3
72
20
73
16
40
0
40
0
40
0
40
0
40
0.125
40
0.125
40
0.250000000000001
40
0.250000000000001
40
0.375000000000001
40
0.375000000000001
40
0.500000000000001
40
0.500000000000001
40
0.625000000000002
40
0.625000000000002
40
0.750000000000002
40
0.750000000000002
40
1
40
1
40
1
40
1
41
1
10
6
20
-3.571
30
0
41
1
10
6
20
-3.60393322509643
30
0
41
1
10
5.99677802951547
20
-3.63631595001573
30
0
41
1
10
5.98415574729458
20
-3.70002633954874
30
0
41
1
10
5.97460706229406
20
-3.73167708988237
30
0
41
1
10
5.94964138722897
20
-3.79211448094432
30
0
41
1
10
5.93436036703305
20
-3.82078736336274
30
0
41
1
10
5.89825058475375
20
-3.87507092443721
30
0
41
1
10
5.87720587398627
20
-3.90081594433366
30
0
41
1
10
5.83118489707979
20
-3.94700451121324
30
0
41
1
10
5.80606785289076
20
-3.96773917479186
30
0
41
1
10
5.75151945639119
20
-4.00437912552908
30
0
41
1
10
5.72235822232544
20
-4.02002157401955
30
0
41
1
10
5.63204318454247
20
-4.05764032847557
30
0
41
1
10
5.56624413343685
20
-4.071
30
0
41
1
10
5.5
20
-4.071
30
0
0
SPLINE
5
309
100
AcDbEntity
8
1
62
256
6
ByLayer
370
13
48
1
60
0
100
AcDbSpline
70
4
71
3
72
18
73
14
40
0
40
0
40
0
40
0
40
0.249999999999991
40
0.249999999999991
40
0.374999999999986
40
0.374999999999986
40
0.499999999999982
40
0.499999999999982
40
0.624999999999977
40
0.624999999999977
40
0.749999999999973
40
0.749999999999973
40
1
40
1
40
1
40
1
41
1
10
234.174944628298
20
7.16204293105523
30
0
41
1
10
234.025541402803
20
7.18030248369124
30
0
41
1
10
233.88091675011
20
7.21008317682785
30
0
41
1
10
233.667309432007
20
7.27205750438424
30
0
41
1
10
233.596763551569
20
7.29565084851285
30
0
41
1
10
233.458469589586
20
7.34826131032037
30
0
41
1
10
233.390480720315
20
7.37734327590366
30
0
41
1
10
233.256619605052
20
7.44132906670106
30
0
41
1
10
233.190748890569
20
7.47623062189905
30
0
41
1
10
233.061034500276
20
7.55236550752412
30
0
41
1
10
232.996845049982
20
7.59385053018005
30
0
41
1
10
232.81002946364
20
7.72708331475636
30
0
41
1
10
232.693796147565
20
7.82676671233588
30
0
41
1
10
232.586596423833
20
7.93890244771103
30
0
0
SPLINE
5
30A
100
AcDbEntity
8
1
62
256
6
ByLayer
370
13
48
1
60
0
100
AcDbSpline
70
4
71
3
72
8
73
4
40
0
40
0
40
0
40
0
40
1
40
1
40
1
40
1
41
1
10
212.363548281925
20
8.43221568657742
30
0
41
1
10
212.364081488751
20
8.43409929139716
30
0
41
1
10
212.364656857367
20
8.43597265091381
30
0
41
1
10
212.365273015625
20
8.43783611107017
30
0
0
SPLINE
5
30B
100
AcDbEntity
8
1
62
256
6
ByLayer
370
13
48
1
60
0
100
AcDbSpline
70
4
71
3
72
8
73
4
40
0
40
0
40
0
40
0
40
1
40
1
40
1
40
1
41
1
10
213.151928333694
20
-0.382804992683447
30
0
41
1
10
213.803633890358
20
-0.432241604920108
30
0
41
1
10
214.455360136866
20
-0.481560186341085
30
0
41
1
10
215.107106212144
20
-0.530764686685387
30
0
0
SPLINE
5
30C
100
AcDbEntity
8
1
62
256
6
ByLayer
370
13
48
1
60
0
100
AcDbSpline
70
4
71
1
72
4
73
2
40
0
40
0
40
1
40
1
41
1
10
47.0099999999995
20
-21.7194986907926
30
0
41
1
10
47.0099999999995
20
-12.8670793509838
30
0
0
SPLINE
5
30D
100
AcDbEntity
8
1
62
256
6
ByLayer
370
13
48
1
60
0
100
AcDbSpline
70
4
71
3
72
16
73
12
40
0
40
0
40
0
40
0
40
0.249999999999996
40
0.249999999999996
40
0.499999999999993
40
0.499999999999993
40
0.624999999999993
40
0.624999999999993
40
0.749999999999994
40
0.749999999999994
40
1
40
1
40
1
40
1
41
1
10
45.2449981509924
20
-22.4053652842681
30
0
41
1
10
44.9100410867833
20
-22.4303218291353
30
0
41
1
10
44.5786544304902
20
-22.4603087394715
30
0
41
1
10
43.9227169794097
20
-22.5296102955711
30
0
41
1
10
43.5981668389149
20
-22.5689268736296
30
0
41
1
10
43.1164217949299
20
-22.6338198231971
30
0
41
1
10
42.9566886138655
20
-22.6564315318302
30
0
41
1
10
42.638934036542
20
-22.7033586516552
30
0
41
1
10
42.4806676552059
20
-22.7277194460551
30
0
41
1
10
42.0150744728924
20
-22.8017900042977
30
0
41
1
10
41.7147541794245
20
-22.8528169822489
30
0
41
1
10
41.4242118363026
20
-22.9036271989948
30
0
0
SPLINE
5
30E
100
AcDbEntity
8
1
62
256
6
ByLayer
370
13
48
1
60
0
100
AcDbSpline
70
4
71
3
72
8
73
4
40
0
40
0
40
0
40
0
40
1
40
1
40
1
40
1
41
1
10
214.170554952285
20
10.4856666136703
30
0
41
1
10
214.257328486616
20
10.4861661714014
30
0
41
1
10
214.344571290336
20
10.4815660994847
30
0
41
1
10
214.432035423675
20
10.4640835026748
30
0
0
SPLINE
5
30F
100
AcDbEntity
8
1
62
256
6
ByLayer
370
13
48
1
60
0
100
AcDbSpline
70
4
71
3
72
12
73
8
40
0
40
0
40
0
40
0
40
0.25
40
0.25
40
0.5
40
0.5
40
1
40
1
40
1
40
1
41
1
10
222.562462067605
20
5.94341471368739
30
0
41
1
10
222.851687683324
20
6.04643249857219
30
0
41
1
10
223.13564298033
20
6.13376895061538
30
0
41
1
10
223.694427378215
20
6.2828957117575
30
0
41
1
10
223.969237450617
20
6.34464157978755
30
0
41
1
10
224.78041680045
20
6.49732825598176
30
0
41
1
10
225.303745197296
20
6.55585204208097
30
0
41
1
10
225.807211857373
20
6.58223761167929
30
0
0
SPLINE
5
310
100
AcDbEntity
8
1
62
256
6
ByLayer
370
13
48
1
60
0
100
AcDbSpline
70
4
71
3
72
10
73
6
40
0
40
0
40
0
40
0
40
0.5
40
0.5
40
1
40
1
40
1
40
1
41
1
10
229.633042717522
20
8.25249709622713
30
0
41
1
10
229.658906601919
20
8.26422048323533
30
0
41
1
10
229.686819114758
20
8.2738727623273
30
0
41
1
10
229.744210755765
20
8.28778443887765
30
0
41
1
10
229.773817215551
20
8.29216049777779
30
0
41
1
10
229.804342502348
20
8.29377683489929
30
0
0
SPLINE
5
311
100
AcDbEntity
8
1
62
256
6
ByLayer
370
13
48
1
60
0
100
AcDbSpline
70
4
71
3
72
30
73
26
40
0
40
0
40
0
40
0
40
0.12507035267391
40
0.12507035267391
40
0.187605529010865
40
0.187605529010865
40
0.25014070534782
40
0.25014070534782
40
0.37521105802173
40
0.37521105802173
40
0.50028141069564
40
0.50028141069564
40
0.562816587032596
40
0.562816587032596
40
0.625351763369552
40
0.625351763369552
40
0.750422116043465
40
0.750422116043465
40
0.875492468717379
40
0.875492468717379
40
0.938027645054337
40
0.938027645054337
40
0.969295233222817
40
0.969295233222817
40
1
40
1
40
1
40
1
41
1
10
209.001515073512
20
20.6520970897555
30
0
41
1
10
207.401164041474
20
20.7625225801155
30
0
41
1
10
205.801438669171
20
20.8402315759938
30
0
41
1
10
203.401073818665
20
20.9077993662193
30
0
41
1
10
202.600650523653
20
20.9221479948053
30
0
41
1
10
201.000913991242
20
20.9344384084379
30
0
41
1
10
200.201439415849
20
20.9323882659599
30
0
41
1
10
197.803760918882
20
20.901600074321
30
0
41
1
10
196.20630746542
20
20.8482496185598
30
0
41
1
10
193.01099449262
20
20.6749980807986
30
0
41
1
10
191.413120604514
20
20.5549682527958
30
0
41
1
10
189.01411583651
20
20.3264139178158
30
0
41
1
10
188.213806818386
20
20.2421158495081
30
0
41
1
10
186.61360485899
20
20.0578209951225
30
0
41
1
10
185.813889087357
20
19.9578519786633
30
0
41
1
10
183.415471620255
20
19.6350621301977
30
0
41
1
10
181.817495576279
20
19.38971813094
30
0
41
1
10
178.621878414164
20
18.8309318745481
30
0
41
1
10
177.02407137709
20
18.5155069358343
30
0
41
1
10
174.625971495158
20
18.0132189444237
30
0
41
1
10
173.826747730212
20
17.8416860714451
30
0
41
1
10
172.62590276455
20
17.5756361797822
30
0
41
1
10
172.225414268577
20
17.485431899605
30
0
41
1
10
171.430805682152
20
17.3031145630084
30
0
41
1
10
171.036669361251
20
17.2109767061735
30
0
41
1
10
170.642104357005
20
17.117628112457
30
0
0
SPLINE
5
312
100
AcDbEntity
8
1
62
256
6
ByLayer
370
13
48
1
60
0
100
AcDbSpline
70
4
71
3
72
28
73
24
40
0
40
0
40
0
40
0
40
0.131470831486122
40
0.131470831486122
40
0.262941662972244
40
0.262941662972244
40
0.394412494458366
40
0.394412494458366
40
0.460147910201426
40
0.460147910201426
40
0.525883325944486
40
0.525883325944486
40
0.657354157430607
40
0.657354157430607
40
0.788824988916727
40
0.788824988916727
40
0.854560404659787
40
0.854560404659787
40
0.920295820402848
40
0.920295820402848
40
0.986031236145908
40
0.986031236145908
40
1
40
1
40
1
40
1
41
1
10
209.774740487859
20
21.9402510535245
30
0
41
1
10
208.00708186899
20
22.0606425367654
30
0
41
1
10
206.239747670579
20
22.1386139358979
30
0
41
1
10
202.703733437479
20
22.2086159971865
30
0
41
1
10
200.938069572115
20
22.2006075170976
30
0
41
1
10
197.407830733418
20
22.0991307580003
30
0
41
1
10
195.643254154025
20
22.0056756969969
30
0
41
1
10
192.994758044297
20
21.8020326890885
30
0
41
1
10
192.111654240194
20
21.7235758350164
30
0
41
1
10
190.344482162726
20
21.5456347103604
30
0
41
1
10
189.460092019559
20
21.4461040821951
30
0
41
1
10
186.809323591345
20
21.1167685768049
30
0
41
1
10
185.04420226273
20
20.8561548421743
30
0
41
1
10
181.515031244484
20
20.2551272759942
30
0
41
1
10
179.751353934027
20
19.9143263996096
30
0
41
1
10
177.103379566816
20
19.345978650749
30
0
41
1
10
176.220153068706
20
19.1471739462608
30
0
41
1
10
174.451258217025
20
18.7325297154611
30
0
41
1
10
173.566321603047
20
18.5167361524493
30
0
41
1
10
171.794732092144
20
18.0721102666466
30
0
41
1
10
170.907830966841
20
17.8432509544455
30
0
41
1
10
169.829802412789
20
17.5603735949618
30
0
41
1
10
169.640768836185
20
17.510600861425
30
0
41
1
10
169.451635043666
20
17.4606369521133
30
0
0
SPLINE
5
313
100
AcDbEntity
8
1
62
256
6
ByLayer
370
13
48
1
60
0
100
AcDbSpline
70
4
71
3
72
20
73
16
40
0
40
0
40
0
40
0
40
0.0165431719023076
40
0.0165431719023076
40
0.157037004487693
40
0.157037004487693
40
0.438024669658462
40
0.438024669658462
40
0.508271585951154
40
0.508271585951154
40
0.578518502243846
40
0.578518502243846
40
0.719012334829231
40
0.719012334829231
40
1
40
1
40
1
40
1
41
1
10
25.7991769821226
20
-13.0408984563231
30
0
41
1
10
25.7414207932648
20
-13.0957616525249
30
0
41
1
10
25.6839877540732
20
-13.1508163149895
30
0
41
1
10
25.1418493620752
20
-13.6752313762791
30
0
41
1
10
24.6799354810486
20
-14.158095336592
30
0
41
1
10
23.3615008297847
20
-15.6463802563477
30
0
41
1
10
22.5714979425775
20
-16.691072807614
30
0
41
1
10
21.6997434866514
20
-18.0639835669889
30
0
41
1
10
21.5309645806739
20
-18.3424448654846
30
0
41
1
10
21.2070987064245
20
-18.9035156823787
30
0
41
1
10
21.0520433718612
20
-19.186121140413
30
0
41
1
10
20.606739861066
20
-20.0399697004531
30
0
41
1
10
20.336291294253
20
-20.6171904388134
30
0
41
1
10
19.5995031473384
20
-22.3710947829921
30
0
41
1
10
19.206925336518
20
-23.5698104829276
30
0
41
1
10
18.909568615331
20
-24.7958760398217
30
0
0
SPLINE
5
314
100
AcDbEntity
8
1
62
256
6
ByLayer
370
13
48
1
60
0
100
AcDbSpline
70
4
71
3
72
60
73
56
40
0
40
0
40
0
40
0
40
0.0342440966574524
40
0.0342440966574524
40
0.0543640113104224
40
0.0543640113104224
40
0.0744839259633924
40
0.0744839259633924
40
0.0946038406163625
40
0.0946038406163625
40
0.114723755269332
40
0.114723755269332
40
0.134843669922303
40
0.134843669922303
40
0.154963584575273
40
0.154963584575273
40
0.195203413881212
40
0.195203413881212
40
0.235443243187152
40
0.235443243187152
40
0.275683072493091
40
0.275683072493091
40
0.356162731104969
40
0.356162731104969
40
0.376282645757939
40
0.376282645757939
40
0.396402560410908
40
0.396402560410908
40
0.416522475063878
40
0.416522475063878
40
0.436642389716848
40
0.436642389716848
40
0.476882219022787
40
0.476882219022787
40
0.486942176349272
40
0.486942176349272
40
0.497002133675757
40
0.497002133675757
40
0.507062091002241
40
0.507062091002241
40
0.517122048328726
40
0.517122048328726
40
0.537241962981696
40
0.537241962981696
40
0.557361877634666
40
0.557361877634666
40
0.597601706940605
40
0.597601706940605
40
0.678081365552484
40
0.678081365552484
40
0.758561024164363
40
0.758561024164363
40
0.839040682776242
40
0.839040682776242
40
1
40
1
40
1
40
1
41
1
10
171.157844894744
20
-18.3423158656519
30
0
41
1
10
169.838346525911
20
-18.6516731940451
30
0
41
1
10
168.519562391285
20
-18.946156698242
30
0
41
1
10
166.423149794591
20
-19.3748642483495
30
0
41
1
10
165.646682625446
20
-19.5245901723398
30
0
41
1
10
164.090614615654
20
-19.8047613709636
30
0
41
1
10
163.311149018748
20
-19.9354796112183
30
0
41
1
10
161.747985154941
20
-20.1802920400264
30
0
41
1
10
160.964038369757
20
-20.2943832187102
30
0
41
1
10
159.389928233234
20
-20.5104590346397
30
0
41
1
10
158.599936662868
20
-20.6118873576017
30
0
41
1
10
157.014055208278
20
-20.7989776564093
30
0
41
1
10
156.217923960962
20
-20.8843553944818
30
0
41
1
10
154.622240409249
20
-21.0386189292855
30
0
41
1
10
153.82242847177
20
-21.1078200992699
30
0
41
1
10
151.417273999518
20
-21.2964232266741
30
0
41
1
10
149.806357469972
20
-21.3980616385147
30
0
41
1
10
146.569451812966
20
-21.5631961040159
30
0
41
1
10
144.943417708111
20
-21.6262407546567
30
0
41
1
10
141.675453297391
20
-21.7203586565376
30
0
41
1
10
140.032629440869
20
-21.7513035371906
30
0
41
1
10
135.09148910101
20
-21.8101883859343
30
0
41
1
10
131.777271496102
20
-21.8045496397022
30
0
41
1
10
127.604879762119
20
-21.7936572021074
30
0
41
1
10
126.768915241022
20
-21.791267494164
30
0
41
1
10
125.093972983929
20
-21.7854002802217
30
0
41
1
10
124.254742865469
20
-21.7819137308942
30
0
41
1
10
122.575123641567
20
-21.7731404962259
30
0
41
1
10
121.7346035203
20
-21.7678533554593
30
0
41
1
10
120.052119912586
20
-21.7547927712521
30
0
41
1
10
119.21015639805
20
-21.7470078806572
30
0
41
1
10
116.682215067426
20
-21.7227838569105
30
0
41
1
10
114.993843877644
20
-21.7057194018063
30
0
41
1
10
112.883851184574
20
-21.7007597397088
30
0
41
1
10
112.461830762699
20
-21.7005941136645
30
0
41
1
10
111.617747596411
20
-21.7023735100226
30
0
41
1
10
111.195684157223
20
-21.7045268896993
30
0
41
1
10
110.351521845134
20
-21.7097850429695
30
0
41
1
10
109.929423166707
20
-21.7127483165099
30
0
41
1
10
109.085202850801
20
-21.7174269052361
30
0
41
1
10
108.663081802521
20
-21.7190013878901
30
0
41
1
10
107.396695022022
20
-21.7216387339938
30
0
41
1
10
106.552404863838
20
-21.7208406535218
30
0
41
1
10
104.86379843751
20
-21.7184153202031
30
0
41
1
10
104.019484178092
20
-21.7170866622752
30
0
41
1
10
101.486530377192
20
-21.713907711507
30
0
41
1
10
99.7978838910755
20
-21.7127750607976
30
0
41
1
10
94.7319625813785
20
-21.7108102916421
30
0
41
1
10
91.3546797436919
20
-21.7102358327569
30
0
41
1
10
84.6001139482658
20
-21.7076294672988
30
0
41
1
10
81.2228306606771
20
-21.7059312721217
30
0
41
1
10
74.4682644620587
20
-21.7053537520297
30
0
41
1
10
71.0909814623673
20
-21.7063916227011
30
0
41
1
10
60.9591323310956
20
-21.7089635434589
30
0
41
1
10
54.2045660956973
20
-21.7101822295467
30
0
41
1
10
47.45
20
-21.7100244101505
30
0
0
SPLINE
5
315
100
AcDbEntity
8
1
62
256
6
ByLayer
370
13
48
1
60
0
100
AcDbSpline
70
4
71
3
72
28
73
24
40
0
40
0
40
0
40
0
40
0.0624999999999993
40
0.0624999999999993
40
0.124999999999999
40
0.124999999999999
40
0.156249999999999
40
0.156249999999999
40
0.187499999999998
40
0.187499999999998
40
0.249999999999998
40
0.249999999999998
40
0.312499999999998
40
0.312499999999998
40
0.374999999999998
40
0.374999999999998
40
0.499999999999998
40
0.499999999999998
40
0.624999999999999
40
0.624999999999999
40
0.749999999999999
40
0.749999999999999
40
1
40
1
40
1
40
1
41
1
10
122.6
20
-8.62884597303741
30
0
41
1
10
121.134631867557
20
-8.50073001687605
30
0
41
1
10
119.667710412746
20
-8.39316690508448
30
0
41
1
10
116.730882655715
20
-8.21839511241186
30
0
41
1
10
115.260671914204
20
-8.1511752748159
30
0
41
1
10
113.054219387721
20
-8.08016916096349
30
0
41
1
10
112.318711098791
20
-8.06156860396197
30
0
41
1
10
110.847650218579
20
-8.03376438352072
30
0
41
1
10
110.112098542124
20
-8.0243658511591
30
0
41
1
10
107.905399248674
20
-8.00559980865543
30
0
41
1
10
106.434209684971
20
-8.00516966054937
30
0
41
1
10
103.491801922472
20
-8.01043008889297
30
0
41
1
10
102.020581476481
20
-8.01659400735062
30
0
41
1
10
99.0781603918786
20
-8.02469495996408
30
0
41
1
10
97.6069560365633
20
-8.02742560127641
30
0
41
1
10
93.1933599652588
20
-8.03199398767413
30
0
41
1
10
90.250983064976
20
-8.03067195744546
30
0
41
1
10
84.3662194903606
20
-8.03010918869043
30
0
41
1
10
81.4238367819854
20
-8.02989215792476
30
0
41
1
10
75.539069349795
20
-8.03069423275073
30
0
41
1
10
72.5966850453918
20
-8.03157946210365
30
0
41
1
10
63.7695327228608
20
-8.03374210581501
30
0
41
1
10
57.8847655221544
20
-8.03433856681806
30
0
41
1
10
52
20
-8.03352918659837
30
0
0
SPLINE
5
316
100
AcDbEntity
8
1
62
256
6
ByLayer
370
13
48
1
60
0
100
AcDbSpline
70
4
71
3
72
18
73
14
40
0
40
0
40
0
40
0
40
0.124999999999999
40
0.124999999999999
40
0.249999999999999
40
0.249999999999999
40
0.374999999999998
40
0.374999999999998
40
0.499999999999998
40
0.499999999999998
40
0.749999999999999
40
0.749999999999999
40
1
40
1
40
1
40
1
41
1
10
5.5
20
4.071
30
0
41
1
10
5.53311836198864
20
4.071
30
0
41
1
10
5.56567694370484
20
4.06774205109016
30
0
41
1
10
5.62972133566619
20
4.05498192252259
30
0
41
1
10
5.66154354218742
20
4.04532095818553
30
0
41
1
10
5.72214649856305
20
4.02014098073175
30
0
41
1
10
5.7508789788518
20
4.00473867431307
30
0
41
1
10
5.80523848848543
20
3.96836502711199
30
0
41
1
10
5.83093052062637
20
3.94722698913094
30
0
41
1
10
5.89997612824277
20
3.87802788825485
30
0
41
1
10
5.93710206073186
20
3.82231798197651
30
0
41
1
10
5.98680620220954
20
3.70229608162887
30
0
41
1
10
6
20
3.63685881207022
30
0
41
1
10
6
20
3.571
30
0
0
SPLINE
5
317
100
AcDbEntity
8
1
62
256
6
ByLayer
370
13
48
1
60
0
100
AcDbSpline
70
4
71
3
72
8
73
4
40
0
40
0
40
0
40
0
40
1
40
1
40
1
40
1
41
1
10
52
20
22.4249958463649
30
0
41
1
10
50.3333333788469
20
22.4249961192047
30
0
41
1
10
48.6666666814384
20
22.4249962416551
30
0
41
1
10
47
20
22.4249962416551
30
0
0
SPLINE
5
318
100
AcDbEntity
8
1
62
256
6
ByLayer
370
13
48
1
60
0
100
AcDbSpline
70
4
71
3
72
18
73
14
40
0
40
0
40
0
40
0
40
0.249999999999993
40
0.249999999999993
40
0.499999999999987
40
0.499999999999987
40
0.562499999999985
40
0.562499999999985
40
0.624999999999983
40
0.624999999999983
40
0.749999999999989
40
0.749999999999989
40
1
40
1
40
1
40
1
41
1
10
215.733479896119
20
5.72065157416648
30
0
41
1
10
216.306404335565
20
5.55631649077338
30
0
41
1
10
216.879958292928
20
5.44209771935056
30
0
41
1
10
218.02893111261
20
5.30352344083991
30
0
41
1
10
218.604344862972
20
5.27927730593476
30
0
41
1
10
219.324776030351
20
5.30417553944167
30
0
41
1
10
219.468919111301
20
5.3119330383789
30
0
41
1
10
219.757313448374
20
5.33304521766769
30
0
41
1
10
219.901697958292
20
5.34642252297783
30
0
41
1
10
220.332429575989
20
5.39471868400722
30
0
41
1
10
220.617132726285
20
5.43782474830607
30
0
41
1
10
221.463842846814
20
5.59930415296566
30
0
41
1
10
222.018519797484
20
5.74967071340666
30
0
41
1
10
222.562462067605
20
5.94341471368728
30
0
0
SPLINE
5
319
100
AcDbEntity
8
1
62
256
6
ByLayer
370
13
48
1
60
0
100
AcDbSpline
70
4
71
3
72
8
73
4
40
0
40
0
40
0
40
0
40
1
40
1
40
1
40
1
41
1
10
45.2449981459049
20
-21.7243897032896
30
0
41
1
10
45.2449981475757
20
-21.9513815636349
30
0
41
1
10
45.2449981492715
20
-22.1783734239608
30
0
41
1
10
45.2449981509924
20
-22.4053652842672
30
0
0
SPLINE
5
31A
100
AcDbEntity
8
1
62
256
6
ByLayer
370
13
48
1
60
0
100
AcDbSpline
70
4
71
3
72
8
73
4
40
0
40
0
40
0
40
0
40
1
40
1
40
1
40
1
41
1
10
47
20
-22.340086564255
30
0
41
1
10
46.4136306359836
20
-22.3400694808371
30
0
41
1
10
45.8286332646507
20
-22.3618805590408
30
0
41
1
10
45.2449981509925
20
-22.4053652842681
30
0
0
SPLINE
5
31B
100
AcDbEntity
8
1
62
256
6
ByLayer
370
13
48
1
60
0
100
AcDbSpline
70
4
71
3
72
10
73
6
40
0
40
0
40
0
40
0
40
0.5
40
0.5
40
1
40
1
40
1
40
1
41
1
10
214.33437456359
20
6.92131929009443
30
0
41
1
10
214.000062060986
20
7.11565051141335
30
0
41
1
10
213.655974488419
20
7.29830177085111
30
0
41
1
10
212.951793572506
20
7.64447943504103
30
0
41
1
10
212.591678559263
20
7.8079799470311
30
0
41
1
10
212.224623463103
20
7.96318794508238
30
0
0
SPLINE
5
31C
100
AcDbEntity
8
1
62
256
6
ByLayer
370
13
48
1
60
0
100
AcDbSpline
70
4
71
3
72
30
73
26
40
0
40
0
40
0
40
0
40
0.0503574267960503
40
0.0503574267960503
40
0.155873268263153
40
0.155873268263153
40
0.208631188996705
40
0.208631188996705
40
0.261389109730257
40
0.261389109730257
40
0.314147030463809
40
0.314147030463809
40
0.366904951197361
40
0.366904951197361
40
0.472420792664467
40
0.472420792664467
40
0.577936634131572
40
0.577936634131572
40
0.630694554865125
40
0.630694554865125
40
0.683452475598678
40
0.683452475598678
40
0.788968317065786
40
0.788968317065786
40
1
40
1
40
1
40
1
41
1
10
171.703965034814
20
-18.4760545792711
30
0
41
1
10
170.914249062068
20
-18.6692641328862
30
0
41
1
10
170.12505465857
20
-18.8561544724561
30
0
41
1
10
167.681616980297
20
-19.4122386653566
30
0
41
1
10
166.025975218861
20
-19.7565158240643
30
0
41
1
10
163.532004077052
20
-20.2135532841897
30
0
41
1
10
162.698811517624
20
-20.3560909960227
30
0
41
1
10
161.026319719049
20
-20.6207861927962
30
0
41
1
10
160.18694445788
20
-20.7429022590938
30
0
41
1
10
158.501203318367
20
-20.9679458679919
30
0
41
1
10
157.655325440679
20
-21.070809994361
30
0
41
1
10
155.958722521428
20
-21.2585586523005
30
0
41
1
10
155.107710423103
20
-21.3434819563085
30
0
41
1
10
152.547037201778
20
-21.5749109352764
30
0
41
1
10
150.829972927842
20
-21.6983379508879
30
0
41
1
10
147.376917610336
20
-21.8974889019119
30
0
41
1
10
145.640712162044
20
-21.9730039041155
30
0
41
1
10
143.021249046543
20
-22.0586749853034
30
0
41
1
10
142.145641786245
20
-22.0826187490077
30
0
41
1
10
140.391281270802
20
-22.122589835762
30
0
41
1
10
139.512275984582
20
-22.1386248311558
30
0
41
1
10
136.869561870092
20
-22.1768502381302
30
0
41
1
10
135.099236869478
20
-22.1891881667394
30
0
41
1
10
129.771882758973
20
-22.2016426491154
30
0
41
1
10
126.198812563377
20
-22.1779484375328
30
0
41
1
10
122.6
20
-22.1556120270327
30
0
0
SPLINE
5
31D
100
AcDbEntity
8
1
62
256
6
ByLayer
370
13
48
1
60
0
100
AcDbSpline
70
4
71
3
72
10
73
6
40
0
40
0
40
0
40
0
40
0.5
40
0.5
40
1
40
1
40
1
40
1
41
1
10
224.136758314409
20
7.9967513700939
30
0
41
1
10
224.167337119694
20
7.99835393737206
30
0
41
1
10
224.198275052232
20
7.99708339343226
30
0
41
1
10
224.258456623205
20
7.98926287069023
30
0
41
1
10
224.287865549188
20
7.98275599846363
30
0
41
1
10
224.316566613709
20
7.973872390015
30
0
0
SPLINE
5
31E
100
AcDbEntity
8
1
62
256
6
ByLayer
370
13
48
1
60
0
100
AcDbSpline
70
4
71
3
72
14
73
10
40
0
40
0
40
0
40
0
40
0.25
40
0.25
40
0.5
40
0.5
40
0.75
40
0.75
40
1
40
1
40
1
40
1
41
1
10
45.2449981459049
20
-21.7243897032701
30
0
41
1
10
44.8967648271917
20
-21.7245199334461
30
0
41
1
10
44.554414007222
20
-21.7520766089531
30
0
41
1
10
43.8806352072017
20
-21.8581163918599
30
0
41
1
10
43.549211799125
20
-21.9366208155525
30
0
41
1
10
42.8970424061517
20
-22.143411868725
30
0
41
1
10
42.5847443321787
20
-22.2690154207568
30
0
41
1
10
41.9860444009233
20
-22.5583175257046
30
0
41
1
10
41.6993286127953
20
-22.7221619631244
30
0
41
1
10
41.4242118363026
20
-22.9036271989948
30
0
0
SPLINE
5
31F
100
AcDbEntity
8
1
62
256
6
ByLayer
370
13
48
1
60
0
100
AcDbSpline
70
4
71
3
72
8
73
4
40
0
40
0
40
0
40
0
40
1
40
1
40
1
40
1
41
1
10
220.929956732343
20
6.80000641658737
30
0
41
1
10
220.951391865019
20
6.82333317230459
30
0
41
1
10
220.972435739481
20
6.84708536643689
30
0
41
1
10
220.993058048494
20
6.87123467182653
30
0
0
SPLINE
5
320
100
AcDbEntity
8
1
62
256
6
ByLayer
370
13
48
1
60
0
100
AcDbSpline
70
4
71
3
72
10
73
6
40
0
40
0
40
0
40
0
40
0.5
40
0.5
40
1
40
1
40
1
40
1
41
1
10
233.232556654467
20
-4.16164299787533
30
0
41
1
10
233.287318998727
20
-4.45701134545834
30
0
41
1
10
233.32108576339
20
-4.75198932145972
30
0
41
1
10
233.349112702826
20
-5.34100462122453
30
0
41
1
10
233.343366056897
20
-5.63504246237136
30
0
41
1
10
233.317856341146
20
-5.92858174137461
30
0
0
SPLINE
5
321
100
AcDbEntity
8
1
62
256
6
ByLayer
370
13
48
1
60
0
100
AcDbSpline
70
4
71
3
72
46
73
42
40
0
40
0
40
0
40
0
40
0.0232289950964704
40
0.108145667444301
40
0.199351993081665
40
0.296941087182168
40
0.400942766995358
40
0.511318879063345
40
0.521131022808111
40
0.531250795009851
40
0.541678924709699
40
0.552416120917521
40
0.563463070544084
40
0.574820436094519
40
0.58648885313968
40
0.598468927579125
40
0.610761232707511
40
0.623366306094619
40
0.636284646288041
40
0.649516709346791
40
0.663062905213509
40
0.676923593932691
40
0.691099081722165
40
0.705589616905182
40
0.72039538571061
40
0.735516507949109
40
0.750953032573547
40
0.766704933132522
40
0.782772103126439
40
0.799154351276341
40
0.815851396716516
40
0.832862864122734
40
0.850188278788967
40
0.86782706166643
40
0.885778524379881
40
0.904041864237244
40
0.922616159249817
40
0.941500363181614
40
0.960693300647622
40
0.980193662282173
40
1
40
1
40
1
40
1
41
1
10
43.7543593224165
20
-8.23093991845687
30
0
41
1
10
43.7713025004783
20
-8.26724843005522
30
0
41
1
10
43.8512947783227
20
-8.43684967559659
30
0
41
1
10
44.0081199443864
20
-8.75410583829878
30
0
41
1
10
44.2450062867342
20
-9.1968058353938
30
0
41
1
10
44.5223070038404
20
-9.67474256463913
30
0
41
1
10
44.8425926376306
20
-10.1845052443627
30
0
41
1
10
45.0893719704015
20
-10.5479373747553
30
0
41
1
10
45.236841670452
20
-10.756945597446
30
0
41
1
10
45.2713182766608
20
-10.8055886604755
30
0
41
1
10
45.3069916091652
20
-10.8556315373033
30
0
41
1
10
45.3438799279338
20
-10.907061172839
30
0
41
1
10
45.382005443318
20
-10.9598588778067
30
0
41
1
10
45.421388611516
20
-11.0140058298356
30
0
41
1
10
45.4620495974924
20
-11.069481450387
30
0
41
1
10
45.5040077261243
20
-11.1262637754912
30
0
41
1
10
45.5472814903814
20
-11.1843292688405
30
0
41
1
10
45.5918883984714
20
-11.2436527906974
30
0
41
1
10
45.6378448604839
20
-11.3042075236498
30
0
41
1
10
45.6851660586411
20
-11.3659649109785
30
0
41
1
10
45.7338658168036
20
-11.428894592372
30
0
41
1
10
45.7839564649729
20
-11.4929643415302
30
0
41
1
10
45.8354487001018
20
-11.5581400046934
30
0
41
1
10
45.8883514430071
20
-11.62438544068
30
0
41
1
10
45.9426716916318
20
-11.691662462598
30
0
41
1
10
45.9984143708137
20
-11.7599307815244
30
0
41
1
10
46.0555821787781
20
-11.8291479524175
30
0
41
1
10
46.114175430597
20
-11.8992693225742
30
0
41
1
10
46.1741918988834
20
-11.9702479828319
30
0
41
1
10
46.2356266520527
20
-12.0420347221864
30
0
41
1
10
46.2984718904018
20
-12.1145779847247
30
0
41
1
10
46.3627167807466
20
-12.1878238346108
30
0
41
1
10
46.4283472886556
20
-12.2617159086518
30
0
41
1
10
46.4953460140381
20
-12.3361954365571
30
0
41
1
10
46.5636920102668
20
-12.4112010233225
30
0
41
1
10
46.6333606652494
20
-12.4866693663602
30
0
41
1
10
46.704323346773
20
-12.5625324176522
30
0
41
1
10
46.7765479545596
20
-12.6387281802236
30
0
41
1
10
46.849996010836
20
-12.7151593694885
30
0
41
1
10
46.9246329983428
20
-12.7918514681547
30
0
41
1
10
46.9747476299377
20
-12.8424570642571
30
0
41
1
10
47
20
-12.8679568274865
30
0
0
SPLINE
5
322
100
AcDbEntity
8
1
62
256
6
ByLayer
370
13
48
1
60
0
100
AcDbSpline
70
4
71
3
72
46
73
42
40
0
40
0
40
0
40
0
40
0.125000000000013
40
0.125000000000013
40
0.250000000000027
40
0.250000000000027
40
0.281250000000028
40
0.281250000000028
40
0.312500000000029
40
0.312500000000029
40
0.375000000000028
40
0.375000000000028
40
0.406250000000026
40
0.406250000000026
40
0.437500000000023
40
0.437500000000023
40
0.500000000000018
40
0.500000000000018
40
0.562500000000014
40
0.562500000000014
40
0.593750000000013
40
0.593750000000013
40
0.625000000000012
40
0.625000000000012
40
0.687500000000011
40
0.687500000000011
40
0.750000000000009
40
0.750000000000009
40
0.781250000000008
40
0.781250000000008
40
0.812500000000007
40
0.812500000000007
40
0.875000000000005
40
0.875000000000005
40
0.890625000000004
40
0.890625000000004
40
0.906250000000003
40
0.906250000000003
40
0.937500000000002
40
0.937500000000002
40
1
40
1
40
1
40
1
41
1
10
213.227452971533
20
1.77697946223012
30
0
41
1
10
214.079465886049
20
1.60807883658382
30
0
41
1
10
214.937608985073
20
1.45591515711169
30
0
41
1
10
216.674350885092
20
1.20743701157903
30
0
41
1
10
217.552860031399
20
1.11087776566276
30
0
41
1
10
218.670556461228
20
1.04358242158469
30
0
41
1
10
218.895559402848
20
1.03281225220724
30
0
41
1
10
219.345189733492
20
1.01738946590209
30
0
41
1
10
219.569641388865
20
1.012729074123
30
0
41
1
10
220.24182037725
20
1.008618081701
30
0
41
1
10
220.688377030434
20
1.0189931977209
30
0
41
1
10
221.355454045475
20
1.05770394300197
30
0
41
1
10
221.57735225927
20
1.07447502452627
30
0
41
1
10
222.020138481172
20
1.11649601725455
30
0
41
1
10
222.241770727505
20
1.14186155529873
30
0
41
1
10
222.89706102874
20
1.23086755949026
30
0
41
1
10
223.322327185507
20
1.30734142244282
30
0
41
1
10
224.14710420419
20
1.49835665085206
30
0
41
1
10
224.546654973293
20
1.61283903166088
30
0
41
1
10
225.12346407549
20
1.81784383369202
30
0
41
1
10
225.312827646793
20
1.89218012400812
30
0
41
1
10
225.675927277579
20
2.04988079821081
30
0
41
1
10
225.850331043568
20
2.13341186314261
30
0
41
1
10
226.351611635001
20
2.39836987164446
30
0
41
1
10
226.656747038455
20
2.59404883571662
30
0
41
1
10
227.202631326227
20
3.02753575099658
30
0
41
1
10
227.433590615068
20
3.2576032539715
30
0
41
1
10
227.718900092294
20
3.62210508618506
30
0
41
1
10
227.803761513855
20
3.7468561041382
30
0
41
1
10
227.952663257897
20
4.00296610579039
30
0
41
1
10
228.016791038203
20
4.13484473760425
30
0
41
1
10
228.17384422405
20
4.53161604008537
30
0
41
1
10
228.233502718079
20
4.80013649101784
30
0
41
1
10
228.255627317832
20
5.1404519060095
30
0
41
1
10
228.25741206309
20
5.2087498101798
30
0
41
1
10
228.25573107401
20
5.34581260419967
30
0
41
1
10
228.25224578044
20
5.41468538199368
30
0
41
1
10
228.234146495286
20
5.62015675229679
30
0
41
1
10
228.211931086376
20
5.75614616367776
30
0
41
1
10
228.116945779847
20
6.16134588339523
30
0
41
1
10
228.015978241108
20
6.42780149479896
30
0
41
1
10
227.880684792117
20
6.69090372358147
30
0
0
SPLINE
5
323
100
AcDbEntity
8
1
62
256
6
ByLayer
370
13
48
1
60
0
100
AcDbSpline
70
4
71
3
72
14
73
10
40
0
40
0
40
0
40
0
40
0.499999999999961
40
0.499999999999961
40
0.74999999999998
40
0.74999999999998
40
0.87499999999999
40
0.87499999999999
40
1
40
1
40
1
40
1
41
1
10
224.316566613709
20
7.973872390015
30
0
41
1
10
224.475170997127
20
7.92478085755704
30
0
41
1
10
224.633513164593
20
7.89173630281579
30
0
41
1
10
224.872355969918
20
7.86275136599113
30
0
41
1
10
224.952180872772
20
7.85657286174717
30
0
41
1
10
225.072406325107
20
7.85247205374966
30
0
41
1
10
225.112562798394
20
7.85196844413724
30
0
41
1
10
225.193068354884
20
7.85270408455503
30
0
41
1
10
225.233657432872
20
7.85396294779048
30
0
41
1
10
225.273390009808
20
7.85604524391286
30
0
0
SPLINE
5
324
100
AcDbEntity
8
1
62
256
6
ByLayer
370
13
48
1
60
0
100
AcDbSpline
70
4
71
3
72
20
73
16
40
0
40
0
40
0
40
0
40
0.125000000000001
40
0.125000000000001
40
0.250000000000001
40
0.250000000000001
40
0.375000000000002
40
0.375000000000002
40
0.500000000000002
40
0.500000000000002
40
0.625000000000002
40
0.625000000000002
40
0.750000000000003
40
0.750000000000003
40
1
40
1
40
1
40
1
41
1
10
5.99999999999996
20
-31.0675076027925
30
0
41
1
10
5.99999999999997
20
-31.080962010327
30
0
41
1
10
5.99677802951543
20
-31.09414941444
30
0
41
1
10
5.98415574729455
20
-31.1200169935347
30
0
41
1
10
5.97460706229403
20
-31.132827336719
30
0
41
1
10
5.94964138722892
20
-31.1572191139859
30
0
41
1
10
5.93436036703302
20
-31.1687556935702
30
0
41
1
10
5.89825058475371
20
-31.1905426353914
30
0
41
1
10
5.87720587398624
20
-31.2008461165011
30
0
41
1
10
5.83118489707975
20
-31.2192929262407
30
0
41
1
10
5.80606785289073
20
-31.2275533431178
30
0
41
1
10
5.75151945639116
20
-31.242127423306
30
0
41
1
10
5.72235822232541
20
-31.248336483291
30
0
41
1
10
5.63204318454244
20
-31.2632543930297
30
0
41
1
10
5.56624413343683
20
-31.268533014896
30
0
41
1
10
5.49999999999996
20
-31.268533014896
30
0
0
SPLINE
5
325
100
AcDbEntity
8
1
62
256
6
ByLayer
370
13
48
1
60
0
100
AcDbSpline
70
4
71
3
72
34
73
30
40
0
40
0
40
0
40
0
40
0.012011859640624
40
0.012011859640624
40
0.0640112354490126
40
0.0640112354490126
40
0.116010611257401
40
0.116010611257401
40
0.16800998706579
40
0.16800998706579
40
0.272008738682566
40
0.272008738682566
40
0.324008114490955
40
0.324008114490955
40
0.350007802395149
40
0.350007802395149
40
0.376007490299343
40
0.376007490299343
40
0.428006866107731
40
0.428006866107731
40
0.480006241916119
40
0.480006241916119
40
0.584004993532895
40
0.584004993532895
40
0.688003745149671
40
0.688003745149671
40
0.792002496766447
40
0.792002496766447
40
1
40
1
40
1
40
1
41
1
10
144.184481283111
20
-11.8714243799559
30
0
41
1
10
143.803598135054
20
-11.8985078276941
30
0
41
1
10
143.422600218995
20
-11.9250127896816
30
0
41
1
10
141.391654730193
20
-12.0634597007685
30
0
41
1
10
139.739703606778
20
-12.1659038195034
30
0
41
1
10
136.431228498512
20
-12.3483437118471
30
0
41
1
10
134.774699301488
20
-12.4284241468091
30
0
41
1
10
131.456334700822
20
-12.564660056507
30
0
41
1
10
129.794446110745
20
-12.6204334176365
30
0
41
1
10
124.800420464742
20
-12.7549034689517
30
0
41
1
10
121.460136988319
20
-12.8027549973386
30
0
41
1
10
116.435710523552
20
-12.8444622077392
30
0
41
1
10
114.758527682818
20
-12.8531748969608
30
0
41
1
10
112.238996732298
20
-12.860427285556
30
0
41
1
10
111.398480648733
20
-12.8619141715681
30
0
41
1
10
109.716404734284
20
-12.8628433939025
30
0
41
1
10
108.874966554918
20
-12.8623546533251
30
0
41
1
10
106.35077176014
20
-12.8621478954641
30
0
41
1
10
104.667849815781
20
-12.8628398132197
30
0
41
1
10
101.302094206219
20
-12.8628779740813
30
0
41
1
10
99.619216550861
20
-12.8628239705847
30
0
41
1
10
94.5705832481
20
-12.8628531930486
30
0
41
1
10
91.2048274336578
20
-12.8628358096873
30
0
41
1
10
84.4733156203281
20
-12.8627273512322
30
0
41
1
10
81.1075596430375
20
-12.8626498917098
30
0
41
1
10
74.3760477258367
20
-12.862673361362
30
0
41
1
10
71.0102917609468
20
-12.8627700378419
30
0
41
1
10
60.9130238580304
20
-12.8629012685585
30
0
41
1
10
54.1815119121243
20
-12.862813341826
30
0
41
1
10
47.4500000000001
20
-12.8628067164636
30
0
0
SPLINE
5
326
100
AcDbEntity
8
1
62
256
6
ByLayer
370
13
48
1
60
0
100
AcDbSpline
70
4
71
3
72
12
73
8
40
0
40
0
40
0
40
0
40
0.275074570895247
40
0.275074570895247
40
0.637537285447623
40
0.637537285447623
40
1
40
1
40
1
40
1
41
1
10
47.4499768038827
20
-8.02260572608753
30
0
41
1
10
47.4499256799116
20
-8.43596314683074
30
0
41
1
10
47.4498810440563
20
-8.87849226339495
30
0
41
1
10
47.4497967836277
20
-9.93320511254291
30
0
41
1
10
47.4497632846459
20
-10.5542650223581
30
0
41
1
10
47.449729510105
20
-11.7574375239026
30
0
41
1
10
47.4497292446396
20
-12.3391905433154
30
0
41
1
10
47.4497456184578
20
-12.8628067162132
30
0
0
SPLINE
5
327
100
AcDbEntity
8
1
62
256
6
ByLayer
370
13
48
1
60
0
100
AcDbSpline
70
4
71
3
72
10
73
6
40
0
40
0
40
0
40
0
40
0.5
40
0.5
40
1
40
1
40
1
40
1
41
1
10
214.432035423675
20
10.464083502675
30
0
41
1
10
214.68657913583
20
10.4159734597075
30
0
41
1
10
214.93208274346
20
10.3864931033271
30
0
41
1
10
215.413665095502
20
10.3510687246302
30
0
41
1
10
215.649606634661
20
10.3450249109202
30
0
41
1
10
215.882590120905
20
10.3466754317704
30
0
0
SPLINE
5
328
100
AcDbEntity
8
1
62
256
6
ByLayer
370
13
48
1
60
0
100
AcDbSpline
70
4
71
3
72
10
73
6
40
0
40
0
40
0
40
0
40
0.753567204723711
40
0.753567204723711
40
1
40
1
40
1
40
1
41
1
10
0.5
20
-4.071
30
0
41
1
10
0.374398598796674
20
-4.071
30
0
41
1
10
0.248802294970275
20
-4.071
30
0
41
1
10
0.0821402764839974
20
-4.071
30
0
41
1
10
0.0410698531254923
20
-4.071
30
0
41
1
10
0
20
-4.071
30
0
0
SPLINE
5
329
100
AcDbEntity
8
1
62
256
6
ByLayer
370
13
48
1
60
0
100
AcDbSpline
70
4
71
3
72
22
73
18
40
0
40
0
40
0
40
0
40
0.0624999999999976
40
0.0624999999999976
40
0.124999999999995
40
0.124999999999995
40
0.249999999999991
40
0.249999999999991
40
0.374999999999987
40
0.374999999999987
40
0.499999999999983
40
0.499999999999983
40
0.624999999999979
40
0.624999999999979
40
0.749999999999975
40
0.749999999999975
40
1
40
1
40
1
40
1
41
1
10
214.334374563601
20
6.92131929009722
30
0
41
1
10
214.336452658785
20
6.87875240159826
30
0
41
1
10
214.342806335771
20
6.83735294095158
30
0
41
1
10
214.362333678767
20
6.75642641863629
30
0
41
1
10
214.375631497342
20
6.71675738639917
30
0
41
1
10
214.422563300043
20
6.60362726353162
30
0
41
1
10
214.463298260207
20
6.53452850584634
30
0
41
1
10
214.557367327737
20
6.40480827609508
30
0
41
1
10
214.609535815016
20
6.34595048964039
30
0
41
1
10
214.720800854324
20
6.23681830733636
30
0
41
1
10
214.779990181386
20
6.1865580966666
30
0
41
1
10
214.904083675211
20
6.09295689726548
30
0
41
1
10
214.968952281376
20
6.04973166798686
30
0
41
1
10
215.1011333102
20
5.97074181353827
30
0
41
1
10
215.168775467999
20
5.93473565242229
30
0
41
1
10
215.375812688964
20
5.83590059828569
30
0
41
1
10
215.519255349331
20
5.78211862560298
30
0
41
1
10
215.667790329674
20
5.7394972714319
30
0
0
SPLINE
5
32A
100
AcDbEntity
8
1
62
256
6
ByLayer
370
13
48
1
60
0
100
AcDbSpline
70
4
71
3
72
8
73
4
40
0
40
0
40
0
40
0
40
1
40
1
40
1
40
1
41
1
10
212.107106212144
20
-0.237927491448943
30
0
41
1
10
212.454406507731
20
-0.307973969995601
30
0
41
1
10
212.802689210343
20
-0.356312661995077
30
0
41
1
10
213.151928333694
20
-0.382804992683987
30
0
0
SPLINE
5
32B
100
AcDbEntity
8
1
62
256
6
ByLayer
370
13
48
1
60
0
100
AcDbSpline
70
4
71
3
72
18
73
14
40
0
40
0
40
0
40
0
40
0.181467617970673
40
0.181467617970673
40
0.362935235941346
40
0.362935235941346
40
0.544402853912019
40
0.544402853912019
40
0.725870471882691
40
0.725870471882691
40
0.907338089853364
40
0.907338089853364
40
1
40
1
40
1
40
1
41
1
10
47.01
20
-12.8628067164636
30
0
41
1
10
47.01
20
-12.5986629821985
30
0
41
1
10
47.01
20
-12.3240959204346
30
0
41
1
10
47.01
20
-11.7549841791559
30
0
41
1
10
47.01
20
-11.4581285498955
30
0
41
1
10
47.01
20
-10.8539186103716
30
0
41
1
10
47.01
20
-10.5508246327823
30
0
41
1
10
47.01
20
-9.94271042935529
30
0
41
1
10
47.01
20
-9.63453455439117
30
0
41
1
10
47.01
20
-9.03444353077126
30
0
41
1
10
47.01
20
-8.74272544978388
30
0
41
1
10
47.01
20
-8.31449583195121
30
0
41
1
10
47.01
20
-8.17134153813001
30
0
41
1
10
47.01
20
-8.03147171647606
30
0
0
SPLINE
5
32C
100
AcDbEntity
8
1
62
256
6
ByLayer
370
13
48
1
60
0
100
AcDbSpline
70
4
71
3
72
8
73
4
40
0
40
0
40
0
40
0
40
1
40
1
40
1
40
1
41
1
10
-2.84E-14
20
-26.7613352297609
30
0
41
1
10
0.166657416166501
20
-26.9067424437056
30
0
41
1
10
0.333324220354257
20
-27.0521415880536
30
0
41
1
10
0.499999999999972
20
-27.197533014896
30
0
0
SPLINE
5
32D
100
AcDbEntity
8
1
62
256
6
ByLayer
370
13
48
1
60
0
100
AcDbSpline
70
4
71
3
72
18
73
14
40
0
40
0
40
0
40
0
40
0.250000000000001
40
0.250000000000001
40
0.375000000000001
40
0.375000000000001
40
0.500000000000001
40
0.500000000000001
40
0.750000000000001
40
0.750000000000001
40
0.875
40
0.875
40
1
40
1
40
1
40
1
41
1
10
18.9098285720148
20
-21.9328198633763
30
0
41
1
10
18.7815931774868
20
-22.2014748140797
30
0
41
1
10
18.6833902158495
20
-22.4667143928991
30
0
41
1
10
18.5831911225419
20
-22.8587869046171
30
0
41
1
10
18.5576579986465
20
-22.989109319757
30
0
41
1
10
18.5238475200629
20
-23.2431785202288
30
0
41
1
10
18.5154070341914
20
-23.3672622751162
30
0
41
1
10
18.5154097471925
20
-23.7307643759449
30
0
41
1
10
18.5486269279542
20
-23.9615309326571
30
0
41
1
10
18.6475601890842
20
-24.2904983675216
30
0
41
1
10
18.6891711797543
20
-24.3976212085747
30
0
41
1
10
18.7878316165203
20
-24.6029369330775
30
0
41
1
10
18.8449145287382
20
-24.7014194202967
30
0
41
1
10
18.909568615331
20
-24.7958760398217
30
0
0
SPLINE
5
32E
100
AcDbEntity
8
1
62
256
6
ByLayer
370
13
48
1
60
0
100
AcDbSpline
70
4
71
3
72
14
73
10
40
0
40
0
40
0
40
0
40
0.368595618594363
40
0.368595618594363
40
0.552893427891544
40
0.552893427891544
40
0.737191237188725
40
0.737191237188725
40
1
40
1
40
1
40
1
41
1
10
122.6
20
22.1832792677916
30
0
41
1
10
121.137424190227
20
22.1934836689186
30
0
41
1
10
119.672795892484
20
22.2010039734946
30
0
41
1
10
117.472543451064
20
22.2104721801013
30
0
41
1
10
116.738567446947
20
22.2133184942401
30
0
41
1
10
115.269437648732
20
22.218674654089
30
0
41
1
10
114.534124888107
20
22.2211867565443
30
0
41
1
10
112.750033095279
20
22.2271281033603
30
0
41
1
10
111.701228276876
20
22.2305057894524
30
0
41
1
10
110.652348090644
20
22.2338665208404
30
0
0
SPLINE
5
32F
100
AcDbEntity
8
1
62
256
6
ByLayer
370
13
48
1
60
0
100
AcDbSpline
70
4
71
3
72
14
73
10
40
0
40
0
40
0
40
0
40
0.126415039358292
40
0.126415039358292
40
0.417610026238862
40
0.417610026238862
40
0.708805013119431
40
0.708805013119431
40
1
40
1
40
1
40
1
41
1
10
82.3188629615766
20
22.326177574209
30
0
41
1
10
81.0412756427088
20
22.3303410209778
30
0
41
1
10
79.7636873048298
20
22.3345034547273
30
0
41
1
10
75.5431954356233
20
22.3482538453284
30
0
41
1
10
72.6002912485889
20
22.3578409963403
30
0
41
1
10
66.7144883990114
20
22.3770246699827
30
0
41
1
10
63.7715905403211
20
22.3866221404497
30
0
41
1
10
57.8857959478841
20
22.4058128847135
30
0
41
1
10
54.9428985245684
20
22.4154055419945
30
0
41
1
10
52
20
22.4249958463649
30
0
0
SPLINE
5
330
100
AcDbEntity
8
1
62
256
6
ByLayer
370
13
48
1
60
0
100
AcDbSpline
70
4
71
3
72
58
73
54
40
0
40
0
40
0
40
0
40
0.0312499999999982
40
0.0312499999999982
40
0.0624999999999964
40
0.0624999999999964
40
0.0937499999999946
40
0.0937499999999946
40
0.109374999999994
40
0.109374999999994
40
0.124999999999994
40
0.124999999999994
40
0.140624999999993
40
0.140624999999993
40
0.148437499999994
40
0.148437499999994
40
0.156249999999994
40
0.156249999999994
40
0.164062499999994
40
0.164062499999994
40
0.171874999999994
40
0.171874999999994
40
0.187499999999994
40
0.187499999999994
40
0.249999999999992
40
0.249999999999992
40
0.281249999999992
40
0.281249999999992
40
0.312499999999992
40
0.312499999999992
40
0.374999999999992
40
0.374999999999992
40
0.437499999999992
40
0.437499999999992
40
0.499999999999992
40
0.499999999999992
40
0.562499999999992
40
0.562499999999992
40
0.593749999999993
40
0.593749999999993
40
0.624999999999993
40
0.624999999999993
40
0.687499999999995
40
0.687499999999995
40
0.749999999999996
40
0.749999999999996
40
0.812499999999997
40
0.812499999999997
40
0.874999999999998
40
0.874999999999998
40
0.937499999999999
40
0.937499999999999
40
1
40
1
40
1
40
1
41
1
10
203.697818547259
20
-22.0747596307005
30
0
41
1
10
202.819152595174
20
-22.0644572548252
30
0
41
1
10
201.939445748251
20
-22.0544159890052
30
0
41
1
10
200.180368388662
20
-22.0329632642548
30
0
41
1
10
199.300958979294
20
-22.0216122251768
30
0
41
1
10
197.545943047042
20
-21.9934776526999
30
0
41
1
10
196.670338027117
20
-21.9767350924344
30
0
41
1
10
195.362518814464
20
-21.9427710522666
30
0
41
1
10
194.927962241347
20
-21.9299712414019
30
0
41
1
10
194.065177050852
20
-21.9002810976518
30
0
41
1
10
193.636609387298
20
-21.8833830210675
30
0
41
1
10
192.786390994669
20
-21.8439235062248
30
0
41
1
10
192.364665342274
20
-21.8214173774925
30
0
41
1
10
191.738728499675
20
-21.7815639805014
30
0
41
1
10
191.531223445397
20
-21.7672375351367
30
0
41
1
10
191.118630697809
20
-21.7361823815592
30
0
41
1
10
190.913599596927
20
-21.7194109420464
30
0
41
1
10
190.505311200972
20
-21.6836599392085
30
0
41
1
10
190.301877355048
20
-21.6648003873161
30
0
41
1
10
189.895345850422
20
-21.6257869518835
30
0
41
1
10
189.692399595661
20
-21.6055786209085
30
0
41
1
10
189.084146716429
20
-21.54314933386
30
0
41
1
10
188.679134283243
20
-21.4992069791436
30
0
41
1
10
186.653403752471
20
-21.2695431870235
30
0
41
1
10
185.030530356736
20
-21.0545227232658
30
0
41
1
10
182.597590870508
20
-20.6827029679762
30
0
41
1
10
181.786730594886
20
-20.5505694397736
30
0
41
1
10
180.165502096727
20
-20.2694688366967
30
0
41
1
10
179.355046288167
20
-20.1203113351247
30
0
41
1
10
176.92476146906
20
-19.6492704955444
30
0
41
1
10
175.305604404245
20
-19.303786309098
30
0
41
1
10
172.05689225926
20
-18.5667759760809
30
0
41
1
10
170.427067989946
20
-18.1755423667384
30
0
41
1
10
167.147577418305
20
-17.3677886150717
30
0
41
1
10
165.501127201697
20
-16.951620590609
30
0
41
1
10
162.190598765219
20
-16.1104301019703
30
0
41
1
10
160.52666502597
20
-15.6851819833392
30
0
41
1
10
158.015595297632
20
-15.05090647921
30
0
41
1
10
157.176074508301
20
-14.8400959758415
30
0
41
1
10
155.493526460578
20
-14.4219826071672
30
0
41
1
10
154.650249375002
20
-14.2146528445301
30
0
41
1
10
152.114046715856
20
-13.6001864897682
30
0
41
1
10
150.414801325835
20
-13.2004544252321
30
0
41
1
10
146.998098647844
20
-12.4315072887315
30
0
41
1
10
145.280635352971
20
-12.0624367401707
30
0
41
1
10
141.833775151357
20
-11.3666066000728
30
0
41
1
10
140.103546091909
20
-11.0392705766207
30
0
41
1
10
136.629773757917
20
-10.4294410170719
30
0
41
1
10
134.885504124585
20
-10.1465774810227
30
0
41
1
10
131.38936404496
20
-9.62679761862347
30
0
41
1
10
129.637372729849
20
-9.39009625274815
30
0
41
1
10
126.12514343302
20
-8.96836175465009
30
0
41
1
10
124.36487439227
20
-8.78353187334963
30
0
41
1
10
122.6
20
-8.62884597303741
30
0
0
SPLINE
5
331
100
AcDbEntity
8
1
62
256
6
ByLayer
370
13
48
1
60
0
100
AcDbSpline
70
4
71
3
72
8
73
4
40
0
40
0
40
0
40
0
40
1
40
1
40
1
40
1
41
1
10
212.224623463101
20
7.96318794507954
30
0
41
1
10
212.273133299952
20
8.11911511036939
30
0
41
1
10
212.319187153265
20
8.2755056975528
30
0
41
1
10
212.363548281925
20
8.43221568657745
30
0
0
SPLINE
5
332
100
AcDbEntity
8
1
62
256
6
ByLayer
370
13
48
1
60
0
100
AcDbSpline
70
4
71
3
72
10
73
6
40
0
40
0
40
0
40
0
40
0.460787769916696
40
0.460787769916696
40
1
40
1
40
1
40
1
41
1
10
47.45
20
-21.7100244101505
30
0
41
1
10
47.45
20
-20.3511278334261
30
0
41
1
10
47.45
20
-18.9922312596413
30
0
41
1
10
47.45
20
-16.0431586939951
30
0
41
1
10
47.45
20
-14.4529827032188
30
0
41
1
10
47.45
20
-12.8628067164636
30
0
0
SPLINE
5
333
100
AcDbEntity
8
1
62
256
6
ByLayer
370
13
48
1
60
0
100
AcDbSpline
70
4
71
3
72
8
73
4
40
0
40
0
40
0
40
0
40
1
40
1
40
1
40
1
41
1
10
215.667790329674
20
5.7394972714319
30
0
41
1
10
215.68970058339
20
5.73321023600477
30
0
41
1
10
215.711597152424
20
5.72692832248188
30
0
41
1
10
215.733479896119
20
5.7206515741666
30
0
0
SPLINE
5
334
100
AcDbEntity
8
1
62
256
6
ByLayer
370
13
48
1
60
0
100
AcDbSpline
70
4
71
3
72
8
73
4
40
0
40
0
40
0
40
0
40
1
40
1
40
1
40
1
41
1
10
213.033368382052
20
10.5574193460585
30
0
41
1
10
213.16225570246
20
11.8167168229208
30
0
41
1
10
213.287884662911
20
13.0743681614546
30
0
41
1
10
213.40941268147
20
14.3306638014306
30
0
0
SPLINE
5
335
100
AcDbEntity
8
1
62
256
6
ByLayer
370
13
48
1
60
0
100
AcDbSpline
70
4
71
3
72
8
73
4
40
0
40
0
40
0
40
0
40
1
40
1
40
1
40
1
41
1
10
220.538118329176
20
7.57855501314137
30
0
41
1
10
220.565910625824
20
7.57948206498983
30
0
41
1
10
220.594332477491
20
7.57929237226918
30
0
41
1
10
220.622237410308
20
7.57788248964286
30
0
0
SPLINE
5
336
100
AcDbEntity
8
1
62
256
6
ByLayer
370
13
48
1
60
0
100
AcDbSpline
70
4
71
3
72
20
73
16
40
0
40
0
40
0
40
0
40
0.250000000000005
40
0.250000000000005
40
0.500000000000011
40
0.500000000000011
40
0.624999999999999
40
0.624999999999999
40
0.749999999999988
40
0.749999999999988
40
0.812500000000001
40
0.812500000000001
40
0.875000000000014
40
0.875000000000014
40
1
40
1
40
1
40
1
41
1
10
216.029476936527
20
8.36455122262626
30
0
41
1
10
216.008905618087
20
8.20351310378143
30
0
41
1
10
215.969616657107
20
8.0463233466071
30
0
41
1
10
215.846290454568
20
7.7425889491281
30
0
41
1
10
215.765062065864
20
7.60259249372831
30
0
41
1
10
215.608485829155
20
7.41367157656023
30
0
41
1
10
215.551249953493
20
7.35545620192636
30
0
41
1
10
215.428558333245
20
7.25109103122387
30
0
41
1
10
215.362799861008
20
7.20455923125536
30
0
41
1
10
215.256972242155
20
7.14396881708788
30
0
41
1
10
215.220276517175
20
7.1252318610745
30
0
41
1
10
215.145974939654
20
7.09174783535602
30
0
41
1
10
215.108263083009
20
7.07691420304269
30
0
41
1
10
214.993490875804
20
7.03798005982233
30
0
41
1
10
214.914797514826
20
7.01943396648406
30
0
41
1
10
214.833981186987
20
7.00810879734246
30
0
0
SPLINE
5
337
100
AcDbEntity
8
1
62
256
6
ByLayer
370
13
48
1
60
0
100
AcDbSpline
70
4
71
1
72
4
73
2
40
0
40
0
40
1
40
1
41
1
10
47
20
22.4249999999999
30
0
41
1
10
46.9223217556581
20
22.4294992255788
30
0
0
SPLINE
5
338
100
AcDbEntity
8
1
62
256
6
ByLayer
370
13
48
1
60
0
100
AcDbSpline
70
4
71
1
72
4
73
2
40
0
40
0
40
1
40
1
41
1
10
46.9223217556581
20
22.4294992255788
30
0
41
1
10
45.5981273590962
20
22.506198298157
30
0
0
SPLINE
5
339
100
AcDbEntity
8
1
62
256
6
ByLayer
370
13
48
1
60
0
100
AcDbSpline
70
4
71
2
72
6
73
3
40
0
40
0
40
0
40
1
40
1
40
1
41
1
10
192.557934648768
20
9.3959609769494
30
0
41
1
10
192.329001166216
20
9.48215883860513
30
0
41
1
10
192.095774283386
20
9.57747627056949
30
0
0
SPLINE
5
33A
100
AcDbEntity
8
1
62
256
6
ByLayer
370
13
48
1
60
0
100
AcDbSpline
70
4
71
3
72
15
73
11
40
0
40
0
40
0
40
0
40
0.186527410145673
40
0.373389913866865
40
0.560197388080615
40
0.648145138793301
40
0.735909823457684
40
0.823977276238344
40
0.912182884088034
40
1
40
1
40
1
40
1
41
1
10
17.8956999999996
20
-29.499999999997
30
0
41
1
10
19.7497307404918
20
-29.2393058835962
30
0
41
1
10
23.435342332089
20
-28.5990621221778
30
0
41
1
10
28.8990101503521
20
-27.2839300081216
30
0
41
1
10
33.3183100531148
20
-25.9054091970026
30
0
41
1
10
36.7364248825335
20
-24.6734079579944
30
0
41
1
10
39.1828654961234
20
-23.6656946650442
30
0
41
1
10
41.7382789383385
20
-22.9550908564326
30
0
41
1
10
44.3559781989385
20
-22.5209131379389
30
0
41
1
10
46.1159908099747
20
-22.4252857719131
30
0
41
1
10
47
20
-22.425
30
0
0
SPLINE
5
33B
100
AcDbEntity
8
1
62
256
6
ByLayer
370
13
48
1
60
0
100
AcDbSpline
70
4
71
3
72
16
73
12
40
0
40
0
40
0
40
0
40
0.048720176238259
40
0.146853432574524
40
0.244748433073655
40
0.342424399320148
40
0.440303450438011
40
0.538284648415095
40
0.692328655620705
40
0.846299853156589
40
1
40
1
40
1
40
1
41
1
10
45.5981273590961
20
22.506198298157
30
0
41
1
10
45.1313636735205
20
22.5153363729515
30
0
41
1
10
43.7312778153409
20
22.5931574197392
30
0
41
1
10
41.4230813404842
20
23.0252925808924
30
0
41
1
10
38.730236661728
20
23.8289030011713
30
0
41
1
10
36.1396893520114
20
24.9069223148572
30
0
41
1
10
33.4901226638121
20
25.8283514288689
30
0
41
1
10
30.3057641845453
20
26.8470238875918
30
0
41
1
10
26.5616419319346
20
27.8673980019298
30
0
41
1
10
22.2503250946791
20
28.8128531121201
30
0
41
1
10
19.3512605335562
20
29.295385914725
30
0
41
1
10
17.8956999999996
20
29.499999999997
30
0
0
SPLINE
5
33C
100
AcDbEntity
8
1
62
256
6
ByLayer
370
13
48
1
60
0
100
AcDbSpline
70
4
71
2
72
6
73
3
40
0
40
0
40
0
40
1
40
1
40
1
41
1
10
234.821210170497
20
7.33767529016569
30
0
41
1
10
234.889138076597
20
7.40866700776886
30
0
41
1
10
234.958380134286
20
7.46454189804763
30
0
0
SPLINE
5
33D
100
AcDbEntity
8
1
62
256
6
ByLayer
370
13
48
1
60
0
100
AcDbSpline
70
4
71
2
72
6
73
3
40
0
40
0
40
0
40
1
40
1
40
1
41
1
10
217.903732387315
20
6.57074568317441
30
0
41
1
10
217.978435646182
20
6.52241464727459
30
0
41
1
10
218.053412091251
20
6.45891222936598
30
0
0
LINE
5
7F
100
AcDbEntity
8
SK1
62
256
6
ByLayer
370
13
48
1
60
0
100
AcDbLine
10
-8
20
-24.9975
30
0
11
-8
21
24.9975
31
0
39
0
210
0
220
0
230
1
0
LINE
5
81
100
AcDbEntity
8
SK1
62
256
6
ByLayer
370
13
48
1
60
0
100
AcDbLine
10
-1.57646
20
-24.8
30
0
11
-1.57646
21
24.8
31
0
39
0
210
0
220
0
230
1
0
LINE
5
82
100
AcDbEntity
8
SK1
62
256
6
ByLayer
370
13
48
1
60
0
100
AcDbLine
10
-10.07646
20
-24.65
30
0
11
-10.07646
21
24.65
31
0
39
0
210
0
220
0
230
1
0
LINE
5
83
100
AcDbEntity
8
SK1
62
256
6
ByLayer
370
13
48
1
60
0
100
AcDbLine
10
-2
20
-24.9975
30
0
11
-2
21
24.9975
31
0
39
0
210
0
220
0
230
1
0
LINE
5
84
100
AcDbEntity
8
SK1
62
256
6
ByLayer
370
13
48
1
60
0
100
AcDbLine
10
-16.5
20
-24.8475
30
0
11
-16.5
21
24.8475
31
0
39
0
210
0
220
0
230
1
0
LINE
5
85
100
AcDbEntity
8
SK1
62
256
6
ByLayer
370
13
48
1
60
0
100
AcDbLine
10
-18
20
-24.445576
30
0
11
-18
21
24.445576
31
0
39
0
210
0
220
0
230
1
0
LINE
5
86
100
AcDbEntity
8
1
62
256
6
ByLayer
370
18
48
1
60
0
100
AcDbLine
10
234.260181
20
-14.156296
30
0
11
234.228963
21
-14.161211
31
0
39
0
210
0
220
0
230
1
0
LINE
5
87
100
AcDbEntity
8
1
62
256
6
ByLayer
370
18
48
1
60
0
100
AcDbLine
10
235.558963
20
-7.057357
30
0
11
234.661953
21
-13.830325
31
0
39
0
210
0
220
0
230
1
0
LINE
5
88
100
AcDbEntity
8
1
62
256
6
ByLayer
370
18
48
1
60
0
100
AcDbLine
10
234.420025
20
0.217299
30
0
11
234.436048
21
0.161755
31
0
39
0
210
0
220
0
230
1
0
LINE
5
89
100
AcDbEntity
8
1
62
256
6
ByLayer
370
18
48
1
60
0
100
AcDbLine
10
234.062624
20
0.475064
30
0
11
234.129268
21
0.466343
31
0
39
0
210
0
220
0
230
1
0
LINE
5
8A
100
AcDbEntity
8
1
62
256
6
ByLayer
370
18
48
1
60
0
100
AcDbLine
10
234.41142
20
-14.119353
30
0
11
234.355543
21
-14.135281
31
0
39
0
210
0
220
0
230
1
0
LINE
5
8B
100
AcDbEntity
8
1
62
256
6
ByLayer
370
18
48
1
60
0
100
AcDbLine
10
234.457189
20
0.066959
30
0
11
235.555958
21
-6.829153
31
0
39
0
210
0
220
0
230
1
0
LINE
5
8C
100
AcDbEntity
8
1
62
256
6
ByLayer
370
13
48
1
60
0
100
AcDbLine
10
232.887464
20
8.638132
30
0
11
232.875769
21
8.548769
31
0
39
0
210
0
220
0
230
1
0
LINE
5
8D
100
AcDbEntity
8
1
62
256
6
ByLayer
370
13
48
1
60
0
100
AcDbLine
10
235.675855
20
15.293151
30
0
11
234.568072
21
22.307595
31
0
39
0
210
0
220
0
230
1
0
LINE
5
8E
100
AcDbEntity
8
1
62
256
6
ByLayer
370
13
48
1
60
0
100
AcDbLine
10
219.566687
20
20.692573
30
0
11
217.720463
21
20.399315
31
0
39
0
210
0
220
0
230
1
0
LINE
5
8F
100
AcDbEntity
8
1
62
256
6
ByLayer
370
13
48
1
60
0
100
AcDbLine
10
233.014095
20
8.594573
30
0
11
234.860319
21
8.887831
31
0
39
0
210
0
220
0
230
1
0
LINE
5
90
100
AcDbEntity
8
1
62
256
6
ByLayer
370
13
48
1
60
0
100
AcDbLine
10
218.883972
20
13.998589
30
0
11
219.920873
21
7.432968
31
0
39
0
210
0
220
0
230
1
0
LINE
5
91
100
AcDbEntity
8
1
62
256
6
ByLayer
370
13
48
1
60
0
100
AcDbLine
10
216.50719
20
13.601903
30
0
11
217.755267
21
6.940621
31
0
39
0
210
0
220
0
230
1
0
LINE
5
92
100
AcDbEntity
8
1
62
256
6
ByLayer
370
13
48
1
60
0
100
AcDbLine
10
234.902166
20
8.740641
30
0
11
234.897554
21
8.740399
31
0
39
0
210
0
220
0
230
1
0
LINE
5
93
100
AcDbEntity
8
1
62
256
6
ByLayer
370
13
48
1
60
0
100
AcDbLine
10
216.744505
20
11.479199
30
0
11
217.483892
21
8.389
31
0
39
0
210
0
220
0
230
1
0
LINE
5
94
100
AcDbEntity
8
1
62
256
6
ByLayer
370
13
48
1
60
0
100
AcDbLine
10
219.74191
20
20.740311
30
0
11
219.737298
21
20.740069
31
0
39
0
210
0
220
0
230
1
0
LINE
5
95
100
AcDbEntity
8
1
62
256
6
ByLayer
370
13
48
1
60
0
100
AcDbLine
10
233.584568
20
22.921308
30
0
11
233.579956
21
22.921066
31
0
39
0
210
0
220
0
230
1
0
LINE
5
96
100
AcDbEntity
8
1
62
256
6
ByLayer
370
13
48
1
60
0
100
AcDbLine
10
233.861397
20
15.068799
30
0
11
233.014095
21
8.594573
31
0
39
0
210
0
220
0
230
1
0
LINE
5
97
100
AcDbEntity
8
1
62
256
6
ByLayer
370
13
48
1
60
0
100
AcDbLine
10
217.605537
20
21.59032
30
0
11
217.704444
21
20.64793
31
0
39
0
210
0
220
0
230
1
0
LINE
5
98
100
AcDbEntity
8
1
62
256
6
ByLayer
370
13
48
1
60
0
100
AcDbLine
10
219.261534
20
6.377737
30
0
11
219.033111
21
6.367772
31
0
39
0
210
0
220
0
230
1
0
LINE
5
99
100
AcDbEntity
8
1
62
256
6
ByLayer
370
13
48
1
60
0
100
AcDbLine
10
232.692194
20
21.85587
30
0
11
232.740135
21
21.55231
31
0
39
0
210
0
220
0
230
1
0
LINE
5
9A
100
AcDbEntity
8
1
62
256
6
ByLayer
370
13
48
1
60
0
100
AcDbLine
10
232.710781
20
8.682959
30
0
11
233.552758
21
15.116494
31
0
39
0
210
0
220
0
230
1
0
LINE
5
9B
100
AcDbEntity
8
1
62
256
6
ByLayer
370
13
48
1
60
0
100
AcDbLine
10
216.451899
20
14.656914
30
0
11
216.531873
21
15.408021
31
0
39
0
210
0
220
0
230
1
0
LINE
5
9C
100
AcDbEntity
8
1
62
256
6
ByLayer
370
13
48
1
60
0
100
AcDbLine
10
217.490372
20
20.419767
30
0
11
217.467982
21
20.633101
31
0
39
0
210
0
220
0
230
1
0
LINE
5
9D
100
AcDbEntity
8
1
62
256
6
ByLayer
370
13
48
1
60
0
100
AcDbLine
10
234.458678
20
7.669754
30
0
11
234.881235
21
7.736874
31
0
39
0
210
0
220
0
230
1
0
LINE
5
9E
100
AcDbEntity
8
1
62
256
6
ByLayer
370
13
48
1
60
0
100
AcDbLine
10
219.361463
20
6.325584
30
0
11
219.129666
21
6.27189
31
0
39
0
210
0
220
0
230
1
0
LINE
5
9F
100
AcDbEntity
8
1
62
256
6
ByLayer
370
13
48
1
60
0
100
AcDbLine
10
218.40944
20
21.952138
30
0
11
218.086464
21
21.952342
31
0
39
0
210
0
220
0
230
1
0
LINE
5
A0
100
AcDbEntity
8
1
62
256
6
ByLayer
370
13
48
1
60
0
100
AcDbLine
10
235.839871
20
15.116437
30
0
11
235.022243
21
8.868944
31
0
39
0
210
0
220
0
230
1
0
LINE
5
A1
100
AcDbEntity
8
1
62
256
6
ByLayer
370
13
48
1
60
0
100
AcDbLine
10
220.498367
20
20.87398
30
0
11
231.436328
21
21.447215
31
0
39
0
210
0
220
0
230
1
0
LINE
5
A2
100
AcDbEntity
8
1
62
256
6
ByLayer
370
13
48
1
60
0
100
AcDbLine
10
219.008114
20
6.516662
30
0
11
219.236536
21
6.526627
31
0
39
0
210
0
220
0
230
1
0
LINE
5
A3
100
AcDbEntity
8
1
62
256
6
ByLayer
370
13
48
1
60
0
100
AcDbLine
10
218.719385
20
14.218347
30
0
11
219.566687
21
20.692573
31
0
39
0
210
0
220
0
230
1
0
LINE
5
A4
100
AcDbEntity
8
1
62
256
6
ByLayer
370
13
48
1
60
0
100
AcDbLine
10
233.223505
20
22.961782
30
0
11
233.256217
21
22.963496
31
0
39
0
210
0
220
0
230
1
0
LINE
5
A5
100
AcDbEntity
8
1
62
256
6
ByLayer
370
13
48
1
60
0
100
AcDbLine
10
233.619794
20
22.922514
30
0
11
233.615182
21
22.922273
31
0
39
0
210
0
220
0
230
1
0
LINE
5
A6
100
AcDbEntity
8
1
62
256
6
ByLayer
370
13
48
1
60
0
100
AcDbLine
10
232.824666
20
8.309398
30
0
11
234.570629
21
8.58673
31
0
39
0
210
0
220
0
230
1
0
LINE
5
A7
100
AcDbEntity
8
1
62
256
6
ByLayer
370
13
48
1
60
0
100
AcDbLine
10
233.356146
20
22.911343
30
0
11
233.351533
21
22.911101
31
0
39
0
210
0
220
0
230
1
0
LINE
5
A8
100
AcDbEntity
8
1
62
256
6
ByLayer
370
13
48
1
60
0
100
AcDbLine
10
219.943795
20
20.608054
30
0
11
219.101819
21
14.174519
31
0
39
0
210
0
220
0
230
1
0
LINE
5
A9
100
AcDbEntity
8
1
62
256
6
ByLayer
370
13
48
1
60
0
100
AcDbLine
10
233.613456
20
7.300283
30
0
11
233.812751
21
7.299085
31
0
39
0
210
0
220
0
230
1
0
LINE
5
AA
100
AcDbEntity
8
1
62
256
6
ByLayer
370
13
48
1
60
0
100
AcDbLine
10
217.605537
20
21.59032
30
0
11
217.462462
21
21.567593
31
0
39
0
210
0
220
0
230
1
0
LINE
5
AB
100
AcDbEntity
8
1
62
256
6
ByLayer
370
13
48
1
60
0
100
AcDbLine
10
234.062897
20
22.922415
30
0
11
234.058284
21
22.922173
31
0
39
0
210
0
220
0
230
1
0
LINE
5
AC
100
AcDbEntity
8
1
62
256
6
ByLayer
370
13
48
1
60
0
100
AcDbLine
10
234.458678
20
7.669754
30
0
11
234.913235
21
8.64115
31
0
39
0
210
0
220
0
230
1
0
LINE
5
AD
100
AcDbEntity
8
1
62
256
6
ByLayer
370
13
48
1
60
0
100
AcDbLine
10
217.715513
20
20.548439
30
0
11
219.627587
21
20.852156
31
0
39
0
210
0
220
0
230
1
0
LINE
5
AE
100
AcDbEntity
8
1
62
256
6
ByLayer
370
13
48
1
60
0
100
AcDbLine
10
219.925485
20
7.43321
30
0
11
219.874705
21
7.754746
31
0
39
0
210
0
220
0
230
1
0
LINE
5
AF
100
AcDbEntity
8
1
62
256
6
ByLayer
370
13
48
1
60
0
100
AcDbLine
10
216.773196
20
14.172401
30
0
11
217.590825
21
20.419894
31
0
39
0
210
0
220
0
230
1
0
LINE
5
B0
100
AcDbEntity
8
1
62
256
6
ByLayer
370
13
48
1
60
0
100
AcDbLine
10
219.899561
20
7.348926
30
0
11
219.894949
21
7.348684
31
0
39
0
210
0
220
0
230
1
0
LINE
5
B1
100
AcDbEntity
8
1
62
256
6
ByLayer
370
13
48
1
60
0
100
AcDbLine
10
219.737298
20
20.740069
30
0
11
218.881308
21
14.19946
31
0
39
0
210
0
220
0
230
1
0
LINE
5
B2
100
AcDbEntity
8
1
62
256
6
ByLayer
370
13
48
1
60
0
100
AcDbLine
10
219.793014
20
20.979682
30
0
11
217.704444
21
20.64793
31
0
39
0
210
0
220
0
230
1
0
LINE
5
B3
100
AcDbEntity
8
1
62
256
6
ByLayer
370
13
48
1
60
0
100
AcDbLine
10
233.352147
20
22.911128
30
0
11
233.579956
21
22.921066
31
0
39
0
210
0
220
0
230
1
0
LINE
5
B4
100
AcDbEntity
8
1
62
256
6
ByLayer
370
13
48
1
60
0
100
AcDbLine
10
219.755715
20
7.4329
30
0
11
218.722619
21
13.974432
31
0
39
0
210
0
220
0
230
1
0
LINE
5
B5
100
AcDbEntity
8
1
62
256
6
ByLayer
370
13
48
1
60
0
100
AcDbLine
10
235.940165
20
15.333171
30
0
11
234.832381
21
22.347615
31
0
39
0
210
0
220
0
230
1
0
LINE
5
B6
100
AcDbEntity
8
1
62
256
6
ByLayer
370
13
48
1
60
0
100
AcDbLine
10
233.256217
20
22.963496
30
0
11
233.488013
21
23.01719
31
0
39
0
210
0
220
0
230
1
0
LINE
5
B7
100
AcDbEntity
8
1
62
256
6
ByLayer
370
13
48
1
60
0
100
AcDbLine
10
217.883642
20
6.957086
30
0
11
216.775859
21
13.97153
31
0
39
0
210
0
220
0
230
1
0
LINE
5
B8
100
AcDbEntity
8
1
62
256
6
ByLayer
370
13
48
1
60
0
100
AcDbLine
10
235.844484
20
15.116679
30
0
11
235.026855
21
8.869186
31
0
39
0
210
0
220
0
230
1
0
LINE
5
B9
100
AcDbEntity
8
1
62
256
6
ByLayer
370
13
48
1
60
0
100
AcDbLine
10
234.897554
20
8.740399
30
0
11
232.98548
21
8.436682
31
0
39
0
210
0
220
0
230
1
0
LINE
5
BA
100
AcDbEntity
8
1
62
256
6
ByLayer
370
13
48
1
60
0
100
AcDbLine
10
218.885921
20
14.199702
30
0
11
218.881308
21
14.19946
31
0
39
0
210
0
220
0
230
1
0
LINE
5
BB
100
AcDbEntity
8
1
62
256
6
ByLayer
370
13
48
1
60
0
100
AcDbLine
10
232.119312
20
8.415099
30
0
11
221.181351
21
7.841865
31
0
39
0
210
0
220
0
230
1
0
LINE
5
BC
100
AcDbEntity
8
1
62
256
6
ByLayer
370
13
48
1
60
0
100
AcDbLine
10
218.888584
20
13.998831
30
0
11
218.883972
21
13.998589
31
0
39
0
210
0
220
0
230
1
0
LINE
5
BD
100
AcDbEntity
8
1
62
256
6
ByLayer
370
13
48
1
60
0
100
AcDbLine
10
216.451899
20
14.656914
30
0
11
216.457301
21
15.213831
31
0
39
0
210
0
220
0
230
1
0
LINE
5
BE
100
AcDbEntity
8
1
62
256
6
ByLayer
370
13
48
1
60
0
100
AcDbLine
10
235.84182
20
15.31755
30
0
11
235.837208
21
15.317308
31
0
39
0
210
0
220
0
230
1
0
LINE
5
BF
100
AcDbEntity
8
1
62
256
6
ByLayer
370
13
48
1
60
0
100
AcDbLine
10
216.451899
20
14.656914
30
0
11
216.433634
21
14.305396
31
0
39
0
210
0
220
0
230
1
0
LINE
5
C0
100
AcDbEntity
8
1
62
256
6
ByLayer
370
13
48
1
60
0
100
AcDbLine
10
217.720463
20
20.399315
30
0
11
216.902834
21
14.151822
31
0
39
0
210
0
220
0
230
1
0
LINE
5
C1
100
AcDbEntity
8
1
62
256
6
ByLayer
370
13
48
1
60
0
100
AcDbLine
10
235.185862
20
9.316755
30
0
11
235.06737
21
7.84791
31
0
39
0
210
0
220
0
230
1
0
LINE
5
C2
100
AcDbEntity
8
1
62
256
6
ByLayer
370
13
48
1
60
0
100
AcDbLine
10
232.990092
20
8.436923
30
0
11
232.98548
21
8.436682
31
0
39
0
210
0
220
0
230
1
0
LINE
5
C3
100
AcDbEntity
8
1
62
256
6
ByLayer
370
13
48
1
60
0
100
AcDbLine
10
219.925485
20
7.43321
30
0
11
219.920873
21
7.432968
31
0
39
0
210
0
220
0
230
1
0
LINE
5
C4
100
AcDbEntity
8
1
62
256
6
ByLayer
370
13
48
1
60
0
100
AcDbLine
10
234.960626
20
8.48251
30
0
11
234.881235
21
7.736874
31
0
39
0
210
0
220
0
230
1
0
LINE
5
C5
100
AcDbEntity
8
1
62
256
6
ByLayer
370
13
48
1
60
0
100
AcDbLine
10
233.550856
20
15.259973
30
0
11
232.564735
21
21.504058
31
0
39
0
210
0
220
0
230
1
0
LINE
5
C6
100
AcDbEntity
8
1
62
256
6
ByLayer
370
13
48
1
60
0
100
AcDbLine
10
216.50719
20
13.601903
30
0
11
216.452281
21
13.949586
31
0
39
0
210
0
220
0
230
1
0
LINE
5
C7
100
AcDbEntity
8
1
62
256
6
ByLayer
370
13
48
1
60
0
100
AcDbLine
10
234.860319
20
8.887831
30
0
11
235.677948
21
15.135324
31
0
39
0
210
0
220
0
230
1
0
LINE
5
C8
100
AcDbEntity
8
1
62
256
6
ByLayer
370
13
48
1
60
0
100
AcDbLine
10
234.734037
20
22.331994
30
0
11
234.729425
21
22.331752
31
0
39
0
210
0
220
0
230
1
0
LINE
5
C9
100
AcDbEntity
8
1
62
256
6
ByLayer
370
13
48
1
60
0
100
AcDbLine
10
234.570629
20
8.58673
30
0
11
234.257101
21
7.302947
31
0
39
0
210
0
220
0
230
1
0
LINE
5
CA
100
AcDbEntity
8
1
62
256
6
ByLayer
370
13
48
1
60
0
100
AcDbLine
10
234.902166
20
8.740641
30
0
11
232.990092
21
8.436923
31
0
39
0
210
0
220
0
230
1
0
LINE
5
CB
100
AcDbEntity
8
1
62
256
6
ByLayer
370
13
48
1
60
0
100
AcDbLine
10
234.729425
20
22.331752
30
0
11
235.837208
21
15.317308
31
0
39
0
210
0
220
0
230
1
0
LINE
5
CC
100
AcDbEntity
8
1
62
256
6
ByLayer
370
13
48
1
60
0
100
AcDbLine
10
219.103721
20
14.03104
30
0
11
220.089842
21
7.786955
31
0
39
0
210
0
220
0
230
1
0
LINE
5
CD
100
AcDbEntity
8
1
62
256
6
ByLayer
370
13
48
1
60
0
100
AcDbLine
10
218.885921
20
14.199702
30
0
11
219.727897
21
20.633237
31
0
39
0
210
0
220
0
230
1
0
LINE
5
CE
100
AcDbEntity
8
1
62
256
6
ByLayer
370
13
48
1
60
0
100
AcDbLine
10
233.356146
20
22.911343
30
0
11
233.584568
21
22.921308
31
0
39
0
210
0
220
0
230
1
0
LINE
5
CF
100
AcDbEntity
8
1
62
256
6
ByLayer
370
13
48
1
60
0
100
AcDbLine
10
235.844484
20
15.116679
30
0
11
235.839871
21
15.116437
31
0
39
0
210
0
220
0
230
1
0
LINE
5
D0
100
AcDbEntity
8
1
62
256
6
ByLayer
370
13
48
1
60
0
100
AcDbLine
10
219.445446
20
6.526764
30
0
11
219.440833
21
6.526522
31
0
39
0
210
0
220
0
230
1
0
LINE
5
D1
100
AcDbEntity
8
1
62
256
6
ByLayer
370
13
48
1
60
0
100
AcDbLine
10
216.641625
20
15.632637
30
0
11
216.449436
21
14.164126
31
0
39
0
210
0
220
0
230
1
0
LINE
5
D2
100
AcDbEntity
8
1
62
256
6
ByLayer
370
13
48
1
60
0
100
AcDbLine
10
235.943208
20
15.103604
30
0
11
235.127307
21
8.869313
31
0
39
0
210
0
220
0
230
1
0
LINE
5
D3
100
AcDbEntity
8
1
62
256
6
ByLayer
370
13
48
1
60
0
100
AcDbLine
10
233.333819
20
22.98489
30
0
11
233.223505
21
22.961782
31
0
39
0
210
0
220
0
230
1
0
LINE
5
D4
100
AcDbEntity
8
1
62
256
6
ByLayer
370
13
48
1
60
0
100
AcDbLine
10
234.734037
20
22.331994
30
0
11
235.84182
21
15.31755
31
0
39
0
210
0
220
0
230
1
0
LINE
5
D5
100
AcDbEntity
8
1
62
256
6
ByLayer
370
13
48
1
60
0
100
AcDbLine
10
216.674471
20
14.185475
30
0
11
217.490372
21
20.419767
31
0
39
0
210
0
220
0
230
1
0
LINE
5
D6
100
AcDbEntity
8
1
62
256
6
ByLayer
370
13
48
1
60
0
100
AcDbLine
10
219.727897
20
20.633237
30
0
11
219.74191
21
20.740311
31
0
39
0
210
0
220
0
230
1
0
LINE
5
D7
100
AcDbEntity
8
1
62
256
6
ByLayer
370
13
48
1
60
0
100
AcDbLine
10
217.897076
20
22.175884
30
0
11
218.009201
21
22.164434
31
0
39
0
210
0
220
0
230
1
0
LINE
5
D8
100
AcDbEntity
8
1
62
256
6
ByLayer
370
13
48
1
60
0
100
AcDbLine
10
219.874705
20
7.754746
30
0
11
218.888584
21
13.998831
31
0
39
0
210
0
220
0
230
1
0
LINE
5
D9
100
AcDbEntity
8
1
62
256
6
ByLayer
370
13
48
1
60
0
100
AcDbLine
10
216.904926
20
13.993995
30
0
11
218.01271
21
6.979551
31
0
39
0
210
0
220
0
230
1
0
LINE
5
DA
100
AcDbEntity
8
1
62
256
6
ByLayer
370
13
48
1
60
0
100
AcDbLine
10
234.570629
20
8.58673
30
0
11
234.913235
21
8.64115
31
0
39
0
210
0
220
0
230
1
0
LINE
5
DB
100
AcDbEntity
8
1
62
256
6
ByLayer
370
13
48
1
60
0
100
AcDbLine
10
235.026855
20
8.869186
30
0
11
235.022243
21
8.868944
31
0
39
0
210
0
220
0
230
1
0
LINE
5
DC
100
AcDbEntity
8
1
62
256
6
ByLayer
370
13
48
1
60
0
100
AcDbLine
10
233.572668
20
22.770484
30
0
11
233.344245
21
22.760519
31
0
39
0
210
0
220
0
230
1
0
LINE
5
DD
100
AcDbEntity
8
1
62
256
6
ByLayer
370
13
48
1
60
0
100
AcDbLine
10
216.677515
20
13.955909
30
0
11
217.785298
21
6.941464
31
0
39
0
210
0
220
0
230
1
0
LINE
5
DE
100
AcDbEntity
8
1
62
256
6
ByLayer
370
13
48
1
60
0
100
AcDbLine
10
232.917165
20
22.779388
30
0
11
233.075912
21
22.787707
31
0
39
0
210
0
220
0
230
1
0
LINE
5
DF
100
AcDbEntity
8
1
62
256
6
ByLayer
370
13
48
1
60
0
100
AcDbLine
10
232.825066
20
21.854246
30
0
11
233.858163
21
15.312714
31
0
39
0
210
0
220
0
230
1
0
LINE
5
E0
100
AcDbEntity
8
1
62
256
6
ByLayer
370
13
48
1
60
0
100
AcDbLine
10
234.916159
20
7.449488
30
0
11
234.881235
21
7.736874
31
0
39
0
210
0
220
0
230
1
0
LINE
5
E1
100
AcDbEntity
8
SK1
62
256
6
ByLayer
370
13
48
1
60
0
100
AcDbLine
10
-10.5
20
-24.8475
30
0
11
-10.5
21
24.8475
31
0
39
0
210
0
220
0
230
1
0
LINE
5
E2
100
AcDbEntity
8
SK1
62
256
6
ByLayer
370
13
48
1
60
0
100
AcDbLine
10
-0.3
20
-24.8
30
0
11
-0.3
21
24.8
31
0
39
0
210
0
220
0
230
1
0
LINE
5
E3
100
AcDbEntity
8
SK1
62
256
6
ByLayer
370
13
48
1
60
0
100
AcDbLine
10
-9.296888
20
-24.65
30
0
11
-9.296888
21
24.65
31
0
39
0
210
0
220
0
230
1
0
LINE
5
E4
100
AcDbEntity
8
1
62
256
6
ByLayer
370
18
48
1
60
0
100
AcDbLine
10
227.259001
20
15.737072
30
0
11
227.124314
21
15.730014
31
0
39
0
210
0
220
0
230
1
0
LINE
5
E5
100
AcDbEntity
8
1
62
256
6
ByLayer
370
18
48
1
60
0
100
AcDbLine
10
225.826345
20
13.17186
30
0
11
225.835771
21
13.189479
31
0
39
0
210
0
220
0
230
1
0
LINE
5
E6
100
AcDbEntity
8
1
62
256
6
ByLayer
370
18
48
1
60
0
100
AcDbLine
10
227.379503
20
13.64035
30
0
11
227.243793
21
13.633238
31
0
39
0
210
0
220
0
230
1
0
LINE
5
E7
100
AcDbEntity
8
1
62
256
6
ByLayer
370
18
48
1
60
0
100
AcDbLine
10
224.854915
20
14.18125
30
0
11
224.7866
21
14.17767
31
0
39
0
210
0
220
0
230
1
0
LINE
5
E8
100
AcDbEntity
8
1
62
256
6
ByLayer
370
18
48
1
60
0
100
AcDbLine
10
227.367997
20
13.657311
30
0
11
227.233309
21
13.650253
31
0
39
0
210
0
220
0
230
1
0
LINE
5
E9
100
AcDbEntity
8
1
62
256
6
ByLayer
370
18
48
1
60
0
100
AcDbLine
10
225.962055
20
13.178972
30
0
11
225.826345
21
13.17186
31
0
39
0
210
0
220
0
230
1
0
LINE
5
EA
100
AcDbEntity
8
1
62
256
6
ByLayer
370
18
48
1
60
0
100
AcDbLine
10
225.820955
20
16.04924
30
0
11
225.686268
21
16.042181
31
0
39
0
210
0
220
0
230
1
0
LINE
5
EB
100
AcDbEntity
8
1
62
256
6
ByLayer
370
18
48
1
60
0
100
AcDbLine
10
227.124314
20
15.730014
30
0
11
227.132962
21
15.748031
31
0
39
0
210
0
220
0
230
1
0
LINE
5
EC
100
AcDbEntity
8
1
62
256
6
ByLayer
370
18
48
1
60
0
100
AcDbLine
10
225.810761
20
16.06583
30
0
11
225.675051
21
16.058718
31
0
39
0
210
0
220
0
230
1
0
LINE
5
ED
100
AcDbEntity
8
1
62
256
6
ByLayer
370
18
48
1
60
0
100
AcDbLine
10
227.709386
20
14.330407
30
0
11
227.574699
21
14.323349
31
0
39
0
210
0
220
0
230
1
0
LINE
5
EE
100
AcDbEntity
8
1
62
256
6
ByLayer
370
18
48
1
60
0
100
AcDbLine
10
227.243793
20
13.633238
30
0
11
227.233309
21
13.650253
31
0
39
0
210
0
220
0
230
1
0
LINE
5
EF
100
AcDbEntity
8
1
62
256
6
ByLayer
370
18
48
1
60
0
100
AcDbLine
10
225.970459
20
13.196537
30
0
11
225.835771
21
13.189479
31
0
39
0
210
0
220
0
230
1
0
LINE
5
F0
100
AcDbEntity
8
1
62
256
6
ByLayer
370
18
48
1
60
0
100
AcDbLine
10
227.668878
20
15.103349
30
0
11
227.534191
21
15.09629
31
0
39
0
210
0
220
0
230
1
0
LINE
5
F1
100
AcDbEntity
8
1
62
256
6
ByLayer
370
18
48
1
60
0
100
AcDbLine
10
227.574699
20
14.323349
30
0
11
227.594563
21
14.324829
31
0
39
0
210
0
220
0
230
1
0
LINE
5
F2
100
AcDbEntity
8
1
62
256
6
ByLayer
370
18
48
1
60
0
100
AcDbLine
10
225.686268
20
16.042181
30
0
11
225.675051
21
16.058718
31
0
39
0
210
0
220
0
230
1
0
LINE
5
F3
100
AcDbEntity
8
1
62
256
6
ByLayer
370
18
48
1
60
0
100
AcDbLine
10
227.268671
20
15.755143
30
0
11
227.132962
21
15.748031
31
0
39
0
210
0
220
0
230
1
0
LINE
5
F4
100
AcDbEntity
8
1
62
256
6
ByLayer
370
18
48
1
60
0
100
AcDbLine
10
224.814452
20
14.953315
30
0
11
224.746727
21
14.949766
31
0
39
0
210
0
220
0
230
1
0
LINE
5
F5
100
AcDbEntity
8
1
62
256
6
ByLayer
370
18
48
1
60
0
100
AcDbLine
10
227.554101
20
15.096894
30
0
11
227.534191
21
15.09629
31
0
39
0
210
0
220
0
230
1
0
LINE
5
F6
100
AcDbEntity
8
1
62
256
6
ByLayer
370
13
48
1
60
0
100
AcDbLine
10
215.107106
20
-22.303395
30
0
11
215.107106
21
-0.530765
31
0
39
0
210
0
220
0
230
1
0
LINE
5
F7
100
AcDbEntity
8
1
62
256
6
ByLayer
370
13
48
1
60
0
100
AcDbLine
10
0.5
20
4.071
30
0
11
0.5
21
34
31
0
39
0
210
0
220
0
230
1
0
LINE
5
F8
100
AcDbEntity
8
1
62
256
6
ByLayer
370
13
48
1
60
0
100
AcDbLine
10
214.833981
20
7.008109
30
0
11
215.928431
21
6.671851
31
0
39
0
210
0
220
0
230
1
0
LINE
5
F9
100
AcDbEntity
8
1
62
256
6
ByLayer
370
13
48
1
60
0
100
AcDbLine
10
234.496301
20
0.624302
30
0
11
234.485076
21
0.625771
31
0
39
0
210
0
220
0
230
1
0
LINE
5
FA
100
AcDbEntity
8
1
62
256
6
ByLayer
370
13
48
1
60
0
100
AcDbLine
10
232.540324
20
2.2075
30
0
11
234.060771
21
0.645596
31
0
39
0
210
0
220
0
230
1
0
LINE
5
FB
100
AcDbEntity
8
1
62
256
6
ByLayer
370
13
48
1
60
0
100
AcDbLine
10
5.5
20
-4.071
30
0
11
5.5
21
4.071
31
0
39
0
210
0
220
0
230
1
0
LINE
5
FC
100
AcDbEntity
8
1
62
256
6
ByLayer
370
13
48
1
60
0
100
AcDbLine
10
214.432035
20
10.464084
30
0
11
215.605299
21
11.118142
31
0
39
0
210
0
220
0
230
1
0
LINE
5
FD
100
AcDbEntity
8
1
62
256
6
ByLayer
370
13
48
1
60
0
100
AcDbLine
10
212.107106
20
-22.07476
30
0
11
212.107106
21
-0.237927
31
0
39
0
210
0
220
0
230
1
0
LINE
5
FE
100
AcDbEntity
8
1
62
256
6
ByLayer
370
13
48
1
60
0
100
AcDbLine
10
5.5
20
-27.197361
30
0
11
5.5
21
-29.748313
31
0
39
0
210
0
220
0
230
1
0
LINE
5
FF
100
AcDbEntity
8
1
62
256
6
ByLayer
370
13
48
1
60
0
100
AcDbLine
10
122.6
20
-22.155612
30
0
11
122.6
21
-22.195
31
0
39
0
210
0
220
0
230
1
0
LINE
5
100
100
AcDbEntity
8
1
62
256
6
ByLayer
370
13
48
1
60
0
100
AcDbLine
10
234.81518
20
6.590423
30
0
11
234.820173
21
0.865283
31
0
39
0
210
0
220
0
230
1
0
LINE
5
101
100
AcDbEntity
8
1
62
256
6
ByLayer
370
13
48
1
60
0
100
AcDbLine
10
217.474018
20
20.46462
30
0
11
216.90081
21
16.084742
31
0
39
0
210
0
220
0
230
1
0
LINE
5
102
100
AcDbEntity
8
1
62
256
6
ByLayer
370
13
48
1
60
0
100
AcDbLine
10
0
20
-29.748313
30
0
11
5.5
21
-29.748313
31
0
39
0
210
0
220
0
230
1
0
LINE
5
103
100
AcDbEntity
8
1
62
256
6
ByLayer
370
13
48
1
60
0
100
AcDbLine
10
233.232557
20
-4.161643
30
0
11
235.057238
21
-6.036078
31
0
39
0
210
0
220
0
230
1
0
LINE
5
104
100
AcDbEntity
8
1
62
256
6
ByLayer
370
13
48
1
60
0
100
AcDbLine
10
52
20
22.425
30
0
11
52
21
-8.033529
31
0
39
0
210
0
220
0
230
1
0
LINE
5
105
100
AcDbEntity
8
1
62
256
6
ByLayer
370
13
48
1
60
0
100
AcDbLine
10
235.079658
20
-7.738423
30
0
11
233.317856
21
-5.928582
31
0
39
0
210
0
220
0
230
1
0
LINE
5
106
100
AcDbEntity
8
1
62
256
6
ByLayer
370
13
48
1
60
0
100
AcDbLine
10
0.5
20
-34
30
0
11
0.5
21
-31.268533
31
0
39
0
210
0
220
0
230
1
0
LINE
5
107
100
AcDbEntity
8
1
62
256
6
ByLayer
370
13
48
1
60
0
100
AcDbLine
10
234.496301
20
0.624302
30
0
11
234.504087
21
0.615227
31
0
39
0
210
0
220
0
230
1
0
LINE
5
108
100
AcDbEntity
8
1
62
256
6
ByLayer
370
13
48
1
60
0
100
AcDbLine
10
215.605299
20
11.118142
30
0
11
214.12135
21
13.406529
31
0
39
0
210
0
220
0
230
1
0
LINE
5
109
100
AcDbEntity
8
1
62
256
6
ByLayer
370
13
48
1
60
0
100
AcDbLine
10
235.079658
20
-7.738423
30
0
11
234.215161
21
-14.265895
31
0
39
0
210
0
220
0
230
1
0
LINE
5
10A
100
AcDbEntity
8
1
62
256
6
ByLayer
370
13
48
1
60
0
100
AcDbLine
10
234.820173
20
0.865283
30
0
11
234.509725
21
0.7382
31
0
39
0
210
0
220
0
230
1
0
LINE
5
10B
100
AcDbEntity
8
1
62
256
6
ByLayer
370
13
48
1
60
0
100
AcDbLine
10
234.120474
20
0.578858
30
0
11
234.060922
21
0.554481
31
0
39
0
210
0
220
0
230
1
0
LINE
5
10C
100
AcDbEntity
8
1
62
256
6
ByLayer
370
13
48
1
60
0
100
AcDbLine
10
234.585129
20
6.292009
30
0
11
234.535886
21
7.139825
31
0
39
0
210
0
220
0
230
1
0
LINE
5
10D
100
AcDbEntity
8
1
62
256
6
ByLayer
370
13
48
1
60
0
100
AcDbLine
10
233.652153
20
-22.303395
30
0
11
234.597398
21
-15.166224
31
0
39
0
210
0
220
0
230
1
0
LINE
5
10E
100
AcDbEntity
8
1
62
256
6
ByLayer
370
13
48
1
60
0
100
AcDbLine
10
233.652153
20
-22.303395
30
0
11
215.107106
21
-22.303395
31
0
39
0
210
0
220
0
230
1
0
LINE
5
10F
100
AcDbEntity
8
1
62
256
6
ByLayer
370
13
48
1
60
0
100
AcDbLine
10
234.535886
20
7.139825
30
0
11
234.420009
21
7.133752
31
0
39
0
210
0
220
0
230
1
0
LINE
5
110
100
AcDbEntity
8
1
62
256
6
ByLayer
370
13
48
1
60
0
100
AcDbLine
10
7
20
-34
30
0
11
7
21
34
31
0
39
0
210
0
220
0
230
1
0
LINE
5
111
100
AcDbEntity
8
1
62
256
6
ByLayer
370
13
48
1
60
0
100
AcDbLine
10
232.516029
20
1.431449
30
0
11
232.639902
21
-0.846028
31
0
39
0
210
0
220
0
230
1
0
LINE
5
112
100
AcDbEntity
8
1
62
256
6
ByLayer
370
13
48
1
60
0
100
AcDbLine
10
225.12676
20
6.546577
30
0
11
225.807212
21
6.582238
31
0
39
0
210
0
220
0
230
1
0
LINE
5
113
100
AcDbEntity
8
1
62
256
6
ByLayer
370
13
48
1
60
0
100
AcDbLine
10
0
20
-33.5
30
0
11
0
21
-30.832335
31
0
39
0
210
0
220
0
230
1
0
LINE
5
114
100
AcDbEntity
8
1
62
256
6
ByLayer
370
13
48
1
60
0
100
AcDbLine
10
5.5
20
-4.071
30
0
11
0.5
21
-4.071
31
0
39
0
210
0
220
0
230
1
0
LINE
5
115
100
AcDbEntity
8
1
62
256
6
ByLayer
370
13
48
1
60
0
100
AcDbLine
10
17.8957
20
29.5
30
0
11
17.8957
21
-29.5
31
0
39
0
210
0
220
0
230
1
0
LINE
5
116
100
AcDbEntity
8
1
62
256
6
ByLayer
370
13
48
1
60
0
100
AcDbLine
10
0
20
4.071
30
0
11
0
21
33.5
31
0
39
0
210
0
220
0
230
1
0
LINE
5
117
100
AcDbEntity
8
1
62
256
6
ByLayer
370
13
48
1
60
0
100
AcDbLine
10
234.504087
20
0.615227
30
0
11
234.479987
21
0.618381
31
0
39
0
210
0
220
0
230
1
0
LINE
5
118
100
AcDbEntity
8
1
62
256
6
ByLayer
370
13
48
1
60
0
100
AcDbLine
10
0.5
20
-27.197533
30
0
11
0.5
21
-4.071
31
0
39
0
210
0
220
0
230
1
0
LINE
5
119
100
AcDbEntity
8
1
62
256
6
ByLayer
370
13
48
1
60
0
100
AcDbLine
10
234.596044
20
1.126514
30
0
11
234.820173
21
0.865283
31
0
39
0
210
0
220
0
230
1
0
LINE
5
11A
100
AcDbEntity
8
1
62
256
6
ByLayer
370
13
48
1
60
0
100
AcDbLine
10
224.98218
20
7.540372
30
0
11
232.586596
21
7.938902
31
0
39
0
210
0
220
0
230
1
0
LINE
5
11B
100
AcDbEntity
8
1
62
256
6
ByLayer
370
13
48
1
60
0
100
AcDbLine
10
222.144499
20
5.92151
30
0
11
222.562462
21
5.943415
31
0
39
0
210
0
220
0
230
1
0
LINE
5
11C
100
AcDbEntity
8
1
62
256
6
ByLayer
370
13
48
1
60
0
100
AcDbLine
10
221.698223
20
7.668679
30
0
11
221.707447
21
7.669162
31
0
39
0
210
0
220
0
230
1
0
LINE
5
11D
100
AcDbEntity
8
1
62
256
6
ByLayer
370
13
48
1
60
0
100
AcDbLine
10
0.5
20
-27.197533
30
0
11
5.5
21
-27.197533
31
0
39
0
210
0
220
0
230
1
0
LINE
5
11E
100
AcDbEntity
8
1
62
256
6
ByLayer
370
13
48
1
60
0
100
AcDbLine
10
218.550457
20
21.78041
30
0
11
218.590284
21
22.084724
31
0
39
0
210
0
220
0
230
1
0
LINE
5
11F
100
AcDbEntity
8
1
62
256
6
ByLayer
370
13
48
1
60
0
100
AcDbLine
10
216.978929
20
9.994813
30
0
11
216.35128
21
13.969068
31
0
39
0
210
0
220
0
230
1
0
LINE
5
120
100
AcDbEntity
8
1
62
256
6
ByLayer
370
13
48
1
60
0
100
AcDbLine
10
47
20
-22.340087
30
0
11
47
21
-22.425
31
0
39
0
210
0
220
0
230
1
0
LINE
5
121
100
AcDbEntity
8
1
62
256
6
ByLayer
370
13
48
1
60
0
100
AcDbLine
10
0
20
-30.832335
30
0
11
0
21
-29.748313
31
0
39
0
210
0
220
0
230
1
0
LINE
5
122
100
AcDbEntity
8
1
62
256
6
ByLayer
370
13
48
1
60
0
100
AcDbLine
10
0.5
20
4.071
30
0
11
5.5
21
4.071
31
0
39
0
210
0
220
0
230
1
0
LINE
5
123
100
AcDbEntity
8
1
62
256
6
ByLayer
370
13
48
1
60
0
100
AcDbLine
10
216.743922
20
15.802911
30
0
11
217.472728
21
21.371711
31
0
39
0
210
0
220
0
230
1
0
LINE
5
124
100
AcDbEntity
8
1
62
256
6
ByLayer
370
13
48
1
60
0
100
AcDbLine
10
7.5
20
29.5
30
0
11
7.5
21
-29.5
31
0
39
0
210
0
220
0
230
1
0
LINE
5
125
100
AcDbEntity
8
1
62
256
6
ByLayer
370
13
48
1
60
0
100
AcDbLine
10
229.633043
20
8.252497
30
0
11
229.450907
21
8.242952
31
0
39
0
210
0
220
0
230
1
0
LINE
5
126
100
AcDbEntity
8
1
62
256
6
ByLayer
370
13
48
1
60
0
100
AcDbLine
10
233.092054
20
6.96402
30
0
11
232.540324
21
2.2075
31
0
39
0
210
0
220
0
230
1
0
LINE
5
127
100
AcDbEntity
8
1
62
256
6
ByLayer
370
13
48
1
60
0
100
AcDbLine
10
5.5
20
-31.268533
30
0
11
5.5
21
-29.748313
31
0
39
0
210
0
220
0
230
1
0
LINE
5
128
100
AcDbEntity
8
1
62
256
6
ByLayer
370
13
48
1
60
0
100
AcDbLine
10
222.048334
20
7.887302
30
0
11
224.136758
21
7.996751
31
0
39
0
210
0
220
0
230
1
0
LINE
5
129
100
AcDbEntity
8
1
62
256
6
ByLayer
370
13
48
1
60
0
100
AcDbLine
10
233.092054
20
6.96402
30
0
11
234.124032
21
7.018104
31
0
39
0
210
0
220
0
230
1
0
LINE
5
12A
100
AcDbEntity
8
1
62
256
6
ByLayer
370
13
48
1
60
0
100
AcDbLine
10
234.596044
20
1.126514
30
0
11
234.57358
21
1.129454
31
0
39
0
210
0
220
0
230
1
0
LINE
5
12B
100
AcDbEntity
8
1
62
256
6
ByLayer
370
13
48
1
60
0
100
AcDbLine
10
234.597398
20
-15.166224
30
0
11
234.200702
21
-14.825834
31
0
39
0
210
0
220
0
230
1
0
LINE
5
12C
100
AcDbEntity
8
1
62
256
6
ByLayer
370
13
48
1
60
0
100
AcDbLine
10
234.591938
20
7.020588
30
0
11
234.81518
21
6.590423
31
0
39
0
210
0
220
0
230
1
0
LINE
5
12D
100
AcDbEntity
8
1
62
256
6
ByLayer
370
13
48
1
60
0
100
AcDbLine
10
212.788659
20
1.706334
30
0
11
213.151928
21
-0.382805
31
0
39
0
210
0
220
0
230
1
0
LINE
5
12E
100
AcDbEntity
8
1
62
256
6
ByLayer
370
13
48
1
60
0
100
AcDbLine
10
217.472728
20
21.371711
30
0
11
217.425717
21
22.268735
31
0
39
0
210
0
220
0
230
1
0
LINE
5
12F
100
AcDbEntity
8
1
62
256
6
ByLayer
370
13
48
1
60
0
100
AcDbLine
10
229.804343
20
8.293777
30
0
11
231.892767
21
8.403227
31
0
39
0
210
0
220
0
230
1
0
LINE
5
130
100
AcDbEntity
8
1
62
256
6
ByLayer
370
13
48
1
60
0
100
AcDbLine
10
212.107106
20
22.195
30
0
11
212.107106
21
21.972208
31
0
39
0
210
0
220
0
230
1
0
LINE
5
131
100
AcDbEntity
8
1
62
256
6
ByLayer
370
13
48
1
60
0
100
AcDbLine
10
212.107106
20
-22.07476
30
0
11
203.697819
21
-22.07476
31
0
39
0
210
0
220
0
230
1
0
LINE
5
132
100
AcDbEntity
8
1
62
256
6
ByLayer
370
13
48
1
60
0
100
AcDbLine
10
6
20
-31.067508
30
0
11
6
21
-27.496508
31
0
39
0
210
0
220
0
230
1
0
LINE
5
133
100
AcDbEntity
8
1
62
256
6
ByLayer
370
13
48
1
60
0
100
AcDbLine
10
0
20
-4.071
30
0
11
0
21
4.071
31
0
39
0
210
0
220
0
230
1
0
LINE
5
134
100
AcDbEntity
8
1
62
256
6
ByLayer
370
13
48
1
60
0
100
AcDbLine
10
234.591938
20
7.020588
30
0
11
234.542957
21
7.018021
31
0
39
0
210
0
220
0
230
1
0
LINE
5
135
100
AcDbEntity
8
1
62
256
6
ByLayer
370
13
48
1
60
0
100
AcDbLine
10
52
20
-22.34019
30
0
11
52
21
-22.425
31
0
39
0
210
0
220
0
230
1
0
LINE
5
136
100
AcDbEntity
8
1
62
256
6
ByLayer
370
13
48
1
60
0
100
AcDbLine
10
227.880685
20
6.690904
30
0
11
233.092054
21
6.96402
31
0
39
0
210
0
220
0
230
1
0
LINE
5
137
100
AcDbEntity
8
1
62
256
6
ByLayer
370
13
48
1
60
0
100
AcDbLine
10
234.65826
20
5.996595
30
0
11
234.622387
21
5.994715
31
0
39
0
210
0
220
0
230
1
0
LINE
5
138
100
AcDbEntity
8
1
62
256
6
ByLayer
370
13
48
1
60
0
100
AcDbLine
10
234.81518
20
6.590423
30
0
11
234.65826
21
5.996595
31
0
39
0
210
0
220
0
230
1
0
LINE
5
139
100
AcDbEntity
8
1
62
256
6
ByLayer
370
13
48
1
60
0
100
AcDbLine
10
0
20
-26.761335
30
0
11
0
21
-4.071
31
0
39
0
210
0
220
0
230
1
0
LINE
5
13A
100
AcDbEntity
8
1
62
256
6
ByLayer
370
13
48
1
60
0
100
AcDbLine
10
47
20
22.425
30
0
11
47
21
-8.031892
31
0
39
0
210
0
220
0
230
1
0
LINE
5
13B
100
AcDbEntity
8
1
62
256
6
ByLayer
370
13
48
1
60
0
100
AcDbLine
10
221.658567
20
7.576154
30
0
11
221.424077
21
7.563865
31
0
39
0
210
0
220
0
230
1
0
LINE
5
13C
100
AcDbEntity
8
1
62
256
6
ByLayer
370
13
48
1
60
0
100
AcDbLine
10
6
20
-3.571
30
0
11
6
21
3.571
31
0
39
0
210
0
220
0
230
1
0
LINE
5
13D
100
AcDbEntity
8
1
62
256
6
ByLayer
370
13
48
1
60
0
100
AcDbLine
10
234.131906
20
-0.228488
30
0
11
235.057238
21
-6.036078
31
0
39
0
210
0
220
0
230
1
0
LINE
5
13E
100
AcDbEntity
8
1
62
256
6
ByLayer
370
13
48
1
60
0
100
AcDbLine
10
208.510863
20
2.743898
30
0
11
208.822952
21
0.949094
31
0
39
0
210
0
220
0
230
1
0
LINE
5
13F
100
AcDbEntity
8
1
62
256
6
ByLayer
370
13
48
1
60
0
100
AcDbLine
10
0
20
-29.748313
30
0
11
0
21
-26.749378
31
0
39
0
210
0
220
0
230
1
0
LINE
5
140
100
AcDbEntity
8
1
62
256
6
ByLayer
370
13
48
1
60
0
100
AcDbLine
10
5.5
20
-31.268533
30
0
11
0.5
21
-31.268533
31
0
39
0
210
0
220
0
230
1
0
LINE
5
141
100
AcDbEntity
8
1
62
256
6
ByLayer
370
13
48
1
60
0
100
AcDbLine
10
232.3471
20
8.226763
30
0
11
221.707447
21
7.669162
31
0
39
0
210
0
220
0
230
1
0
LINE
5
142
100
AcDbEntity
8
1
62
256
6
ByLayer
370
13
48
1
60
0
100
AcDbLine
10
221.419656
20
7.553535
30
0
11
220.8946
21
7.526018
31
0
39
0
210
0
220
0
230
1
0
LINE
5
143
100
AcDbEntity
8
1
62
256
6
ByLayer
370
13
48
1
60
0
100
AcDbLine
10
122.6
20
-8.628846
30
0
11
122.6
21
22.183279
31
0
39
0
210
0
220
0
230
1
0
LINE
5
144
100
AcDbEntity
8
1
62
256
6
ByLayer
370
13
48
1
60
0
100
AcDbLine
10
234.131906
20
-0.228488
30
0
11
232.516029
21
1.431449
31
0
39
0
210
0
220
0
230
1
0
LINE
5
145
100
AcDbEntity
8
1
62
256
6
ByLayer
370
13
48
1
60
0
100
AcDbLine
10
214.12135
20
10.495014
30
0
11
214.12135
21
13.406529
31
0
39
0
210
0
220
0
230
1
0
LINE
5
146
100
AcDbEntity
8
1
62
256
6
ByLayer
370
13
48
1
60
0
100
AcDbLine
10
215.107106
20
22.425
30
0
11
215.107106
21
22.242176
31
0
39
0
210
0
220
0
230
1
0
LINE
5
147
100
AcDbEntity
8
4
62
256
6
ByLayer
370
18
48
0.05
60
0
100
AcDbLine
10
236
20
0
30
0
11
0
21
0
31
0
39
0
210
0
220
0
230
1
0
LINE
5
149
100
AcDbEntity
8
SK4
62
256
6
ByLayer
370
13
48
0.05
60
0
100
AcDbLine
10
236
20
0
30
0
11
-18
21
0
31
0
39
0
210
0
220
0
230
1
0
LINE
5
14B
100
AcDbEntity
8
SK1
62
256
6
ByLayer
370
13
48
1
60
0
100
AcDbLine
10
-9.296888
20
24.65
30
0
11
-10.07646
21
24.65
31
0
39
0
210
0
220
0
230
1
0
LINE
5
14C
100
AcDbEntity
8
SK1
62
256
6
ByLayer
370
13
48
1
60
0
100
AcDbLine
10
-10.07646
20
-24.65
30
0
11
-9.296888
21
-24.65
31
0
39
0
210
0
220
0
230
1
0
LINE
5
14D
100
AcDbEntity
8
SK1
62
256
6
ByLayer
370
13
48
1
60
0
100
AcDbLine
10
-0.3
20
24.8
30
0
11
-1.57646
21
24.8
31
0
39
0
210
0
220
0
230
1
0
LINE
5
14E
100
AcDbEntity
8
SK1
62
256
6
ByLayer
370
13
48
1
60
0
100
AcDbLine
10
-1.57646
20
-24.8
30
0
11
-0.3
21
-24.8
31
0
39
0
210
0
220
0
230
1
0
LINE
5
14F
100
AcDbEntity
8
SK1
62
256
6
ByLayer
370
13
48
1
60
0
100
AcDbLine
10
-18
20
-24.445576
30
0
11
-16.5
21
-24.8475
31
0
39
0
210
0
220
0
230
1
0
LINE
5
150
100
AcDbEntity
8
SK1
62
256
6
ByLayer
370
13
48
1
60
0
100
AcDbLine
10
-16.5
20
24.8475
30
0
11
-18
21
24.445576
31
0
39
0
210
0
220
0
230
1
0
LINE
5
151
100
AcDbEntity
8
SK1
62
256
6
ByLayer
370
13
48
1
60
0
100
AcDbLine
10
-10.07646
20
24.65
30
0
11
-10.5
21
24.8475
31
0
39
0
210
0
220
0
230
1
0
LINE
5
152
100
AcDbEntity
8
SK1
62
256
6
ByLayer
370
13
48
1
60
0
100
AcDbLine
10
-10.5
20
-24.8475
30
0
11
-10.07646
21
-24.65
31
0
39
0
210
0
220
0
230
1
0
LINE
5
153
100
AcDbEntity
8
SK1
62
256
6
ByLayer
370
13
48
1
60
0
100
AcDbLine
10
-10.5
20
24.8475
30
0
11
-16.5
21
24.8475
31
0
39
0
210
0
220
0
230
1
0
LINE
5
154
100
AcDbEntity
8
SK1
62
256
6
ByLayer
370
13
48
1
60
0
100
AcDbLine
10
-16.5
20
-24.8475
30
0
11
-10.5
21
-24.8475
31
0
39
0
210
0
220
0
230
1
0
LINE
5
155
100
AcDbEntity
8
SK1
62
256
6
ByLayer
370
13
48
1
60
0
100
AcDbLine
10
-9.296888
20
-24.65
30
0
11
-8
21
-24.9975
31
0
39
0
210
0
220
0
230
1
0
LINE
5
156
100
AcDbEntity
8
SK1
62
256
6
ByLayer
370
13
48
1
60
0
100
AcDbLine
10
-8
20
24.9975
30
0
11
-9.296888
21
24.65
31
0
39
0
210
0
220
0
230
1
0
LINE
5
157
100
AcDbEntity
8
SK1
62
256
6
ByLayer
370
13
48
1
60
0
100
AcDbLine
10
-1.57646
20
24.8
30
0
11
-2
21
24.9975
31
0
39
0
210
0
220
0
230
1
0
LINE
5
158
100
AcDbEntity
8
SK1
62
256
6
ByLayer
370
13
48
1
60
0
100
AcDbLine
10
-2
20
-24.9975
30
0
11
-1.57646
21
-24.8
31
0
39
0
210
0
220
0
230
1
0
LINE
5
159
100
AcDbEntity
8
SK1
62
256
6
ByLayer
370
13
48
1
60
0
100
AcDbLine
10
-2
20
24.9975
30
0
11
-8
21
24.9975
31
0
39
0
210
0
220
0
230
1
0
LINE
5
15A
100
AcDbEntity
8
SK1
62
256
6
ByLayer
370
13
48
1
60
0
100
AcDbLine
10
-8
20
-24.9975
30
0
11
-2
21
-24.9975
31
0
39
0
210
0
220
0
230
1
0
LINE
5
15B
100
AcDbEntity
8
1
62
256
6
ByLayer
370
13
48
1
60
0
100
AcDbLine
10
110.651817
20
22.233925
30
0
11
82.318775
21
22.326228
31
0
39
0
210
0
220
0
230
1
0
LINE
5
15C
100
AcDbEntity
8
1
62
256
6
ByLayer
370
13
48
1
60
0
100
AcDbLine
10
47
20
-22.425
30
0
11
52
21
-22.425
31
0
39
0
210
0
220
0
230
1
0
LINE
5
15D
100
AcDbEntity
8
1
62
256
6
ByLayer
370
13
48
1
60
0
100
AcDbLine
10
52
20
-22.425
30
0
11
122.6
21
-22.195
31
0
39
0
210
0
220
0
230
1
0
LINE
5
15E
100
AcDbEntity
8
1
62
256
6
ByLayer
370
13
48
1
60
0
100
AcDbLine
10
217.172032
20
22.425
30
0
11
215.107106
21
22.425
31
0
39
0
210
0
220
0
230
1
0
LINE
5
15F
100
AcDbEntity
8
1
62
256
6
ByLayer
370
13
48
1
60
0
100
AcDbLine
10
215.107106
20
22.425
30
0
11
212.107106
21
22.195
31
0
39
0
210
0
220
0
230
1
0
LINE
5
160
100
AcDbEntity
8
1
62
256
6
ByLayer
370
13
48
1
60
0
100
AcDbLine
10
122.6
20
-22.195
30
0
11
131.654569
21
-22.195
31
0
39
0
210
0
220
0
230
1
0
LINE
5
161
100
AcDbEntity
8
1
62
256
6
ByLayer
370
13
48
1
60
0
100
AcDbLine
10
212.107106
20
22.195
30
0
11
202.311464
21
22.195
31
0
39
0
210
0
220
0
230
1
0
LINE
5
162
100
AcDbEntity
8
1
62
256
6
ByLayer
370
13
48
1
60
0
100
AcDbLine
10
0
20
-33.5
30
0
11
0.5
21
-34
31
0
39
0
210
0
220
0
230
1
0
LINE
5
163
100
AcDbEntity
8
1
62
256
6
ByLayer
370
13
48
1
60
0
100
AcDbLine
10
7.5
20
-29.5
30
0
11
17.8957
21
-29.5
31
0
39
0
210
0
220
0
230
1
0
LINE
5
164
100
AcDbEntity
8
1
62
256
6
ByLayer
370
13
48
1
60
0
100
AcDbLine
10
17.8957
20
29.5
30
0
11
7.5
21
29.5
31
0
39
0
210
0
220
0
230
1
0
LINE
5
165
100
AcDbEntity
8
1
62
256
6
ByLayer
370
13
48
1
60
0
100
AcDbLine
10
0.5
20
34
30
0
11
0
21
33.5
31
0
39
0
210
0
220
0
230
1
0
LINE
5
166
100
AcDbEntity
8
1
62
256
6
ByLayer
370
13
48
1
60
0
100
AcDbLine
10
7
20
34
30
0
11
0.5
21
34
31
0
39
0
210
0
220
0
230
1
0
LINE
5
167
100
AcDbEntity
8
1
62
256
6
ByLayer
370
13
48
1
60
0
100
AcDbLine
10
0.5
20
-34
30
0
11
7
21
-34
31
0
39
0
210
0
220
0
230
1
0
LINE
5
168
100
AcDbEntity
8
1
62
256
6
ByLayer
370
13
48
1
60
0
100
AcDbLine
10
234.649065
20
7.816651
30
0
11
235.103622
21
8.788047
31
0
39
0
210
0
220
0
230
1
0
LINE
5
169
100
AcDbEntity
8
1
62
256
6
ByLayer
370
13
48
1
60
0
100
AcDbLine
10
233.729959
20
15.290205
30
0
11
232.743837
21
21.534291
31
0
39
0
210
0
220
0
230
1
0
LINE
5
16A
100
AcDbEntity
8
1
62
256
6
ByLayer
370
13
48
1
60
0
100
AcDbLine
10
232.890641
20
8.656039
30
0
11
233.732618
21
15.089574
31
0
39
0
210
0
220
0
230
1
0
LINE
5
16B
100
AcDbEntity
8
1
62
256
6
ByLayer
370
18
48
1
60
0
100
AcDbLine
10
226.069124
20
15.924048
30
0
11
226.193846
21
15.930584
31
0
39
0
210
0
220
0
230
1
0
LINE
5
16C
100
AcDbEntity
8
1
62
256
6
ByLayer
370
18
48
1
60
0
100
AcDbLine
10
226.328904
20
13.353521
30
0
11
226.204182
21
13.346984
31
0
39
0
210
0
220
0
230
1
0
LINE
5
16D
100
AcDbEntity
8
1
62
256
6
ByLayer
370
18
48
1
60
0
100
AcDbLine
10
226.3573
20
11.793168
30
0
11
226.423789
21
11.796653
31
0
39
0
210
0
220
0
230
1
0
LINE
5
16E
100
AcDbEntity
8
1
62
256
6
ByLayer
370
18
48
1
60
0
100
AcDbLine
10
226.125474
20
17.488841
30
0
11
226.058985
21
17.485357
31
0
39
0
210
0
220
0
230
1
0
LINE
5
16F
100
AcDbEntity
8
81
62
256
6
ByLayer
370
18
48
1
60
0
100
AcDbLine
10
236
20
0
30
0
11
243
21
0
31
0
39
0
210
0
220
0
230
1
0
LINE
5
170
100
AcDbEntity
8
80
62
256
6
ByLayer
370
18
48
1
60
0
100
AcDbLine
10
0
20
0
30
0
11
-7
21
0
31
0
39
0
210
0
220
0
230
1
0
LINE
5
171
100
AcDbEntity
8
SK2
62
256
6
ByLayer
370
13
48
1
60
0
100
AcDbLine
10
-38.725
20
25
30
0
11
-38.725
21
-25
31
0
39
0
210
0
220
0
230
1
0
LINE
5
173
100
AcDbEntity
8
SK2
62
256
6
ByLayer
370
13
48
1
60
0
100
AcDbLine
10
-19.5875
20
-25
30
0
11
-41.9
21
-25
31
0
39
0
210
0
220
0
230
1
0
LINE
5
174
100
AcDbEntity
8
SK2
62
256
6
ByLayer
370
13
48
1
60
0
100
AcDbLine
10
-19.5875
20
25
30
0
11
-41.9
21
25
31
0
39
0
210
0
220
0
230
1
0
LINE
5
175
100
AcDbEntity
8
1
62
256
6
ByLayer
370
18
48
1
60
1
100
AcDbLine
10
-38.725
20
-25
30
0
11
-39.650575
21
-20.825003
31
0
39
0
210
0
220
0
230
1
0
LINE
5
176
100
AcDbEntity
8
1
62
256
6
ByLayer
370
18
48
1
60
1
100
AcDbLine
10
-39.650575
20
-20.825003
30
0
11
-37.799425
21
-20.824997
31
0
39
0
210
0
220
0
230
1
0
LINE
5
177
100
AcDbEntity
8
1
62
256
6
ByLayer
370
18
48
1
60
1
100
AcDbLine
10
-37.799425
20
-20.824997
30
0
11
-38.725
21
-25
31
0
39
0
210
0
220
0
230
1
0
LINE
5
178
100
AcDbEntity
8
1
62
256
6
ByLayer
370
18
48
1
60
1
100
AcDbLine
10
-38.725
20
25
30
0
11
-37.799425
21
20.825003
31
0
39
0
210
0
220
0
230
1
0
LINE
5
179
100
AcDbEntity
8
1
62
256
6
ByLayer
370
18
48
1
60
1
100
AcDbLine
10
-37.799425
20
20.825003
30
0
11
-39.650575
21
20.824997
31
0
39
0
210
0
220
0
230
1
0
LINE
5
17A
100
AcDbEntity
8
1
62
256
6
ByLayer
370
18
48
1
60
1
100
AcDbLine
10
-39.650575
20
20.824997
30
0
11
-38.725
21
25
31
0
39
0
210
0
220
0
230
1
0
LINE
5
17B
100
AcDbEntity
8
SK2
62
256
6
ByLayer
370
13
48
1
60
0
100
AcDbLine
10
-48.725
20
-34
30
0
11
-48.725
21
34
31
0
39
0
210
0
220
0
230
1
0
LINE
5
17C
100
AcDbEntity
8
SK2
62
256
6
ByLayer
370
13
48
1
60
0
100
AcDbLine
10
-1.5875
20
34
30
0
11
-51.9
21
34
31
0
39
0
210
0
220
0
230
1
0
LINE
5
17D
100
AcDbEntity
8
SK2
62
256
6
ByLayer
370
13
48
1
60
0
100
AcDbLine
10
-1.5875
20
-34
30
0
11
-51.9
21
-34
31
0
39
0
210
0
220
0
230
1
0
LINE
5
17E
100
AcDbEntity
8
1
62
256
6
ByLayer
370
18
48
1
60
1
100
AcDbLine
10
-48.725
20
34
30
0
11
-47.799425
21
29.825003
31
0
39
0
210
0
220
0
230
1
0
LINE
5
17F
100
AcDbEntity
8
1
62
256
6
ByLayer
370
18
48
1
60
1
100
AcDbLine
10
-47.799425
20
29.825003
30
0
11
-49.650575
21
29.824997
31
0
39
0
210
0
220
0
230
1
0
LINE
5
180
100
AcDbEntity
8
1
62
256
6
ByLayer
370
18
48
1
60
1
100
AcDbLine
10
-49.650575
20
29.824997
30
0
11
-48.725
21
34
31
0
39
0
210
0
220
0
230
1
0
LINE
5
181
100
AcDbEntity
8
1
62
256
6
ByLayer
370
18
48
1
60
1
100
AcDbLine
10
-48.725
20
-34
30
0
11
-49.650575
21
-29.825003
31
0
39
0
210
0
220
0
230
1
0
LINE
5
182
100
AcDbEntity
8
1
62
256
6
ByLayer
370
18
48
1
60
1
100
AcDbLine
10
-49.650575
20
-29.825003
30
0
11
-47.799425
21
-29.824997
31
0
39
0
210
0
220
0
230
1
0
LINE
5
183
100
AcDbEntity
8
1
62
256
6
ByLayer
370
18
48
1
60
1
100
AcDbLine
10
-47.799425
20
-29.824997
30
0
11
-48.725
21
-34
31
0
39
0
210
0
220
0
230
1
0
LINE
5
184
100
AcDbEntity
8
2
62
256
6
ByLayer
370
13
48
1
60
0
100
AcDbLine
10
262.975
20
23
30
0
11
262.975
21
-23
31
0
39
0
210
0
220
0
230
1
0
LINE
5
186
100
AcDbEntity
8
2
62
256
6
ByLayer
370
13
48
1
60
0
100
AcDbLine
10
237.5875
20
-23
30
0
11
266.15
21
-23
31
0
39
0
210
0
220
0
230
1
0
LINE
5
187
100
AcDbEntity
8
2
62
256
6
ByLayer
370
13
48
1
60
0
100
AcDbLine
10
237.5875
20
23
30
0
11
266.15
21
23
31
0
39
0
210
0
220
0
230
1
0
LINE
5
188
100
AcDbEntity
8
1
62
256
6
ByLayer
370
18
48
1
60
1
100
AcDbLine
10
262.975
20
-23
30
0
11
262.049425
21
-18.825003
31
0
39
0
210
0
220
0
230
1
0
LINE
5
189
100
AcDbEntity
8
1
62
256
6
ByLayer
370
18
48
1
60
1
100
AcDbLine
10
262.049425
20
-18.825003
30
0
11
263.900575
21
-18.824997
31
0
39
0
210
0
220
0
230
1
0
LINE
5
18A
100
AcDbEntity
8
1
62
256
6
ByLayer
370
18
48
1
60
1
100
AcDbLine
10
263.900575
20
-18.824997
30
0
11
262.975
21
-23
31
0
39
0
210
0
220
0
230
1
0
LINE
5
18B
100
AcDbEntity
8
1
62
256
6
ByLayer
370
18
48
1
60
1
100
AcDbLine
10
262.975
20
23
30
0
11
263.900575
21
18.825003
31
0
39
0
210
0
220
0
230
1
0
LINE
5
18C
100
AcDbEntity
8
1
62
256
6
ByLayer
370
18
48
1
60
1
100
AcDbLine
10
263.900575
20
18.825003
30
0
11
262.049425
21
18.824997
31
0
39
0
210
0
220
0
230
1
0
LINE
5
18D
100
AcDbEntity
8
1
62
256
6
ByLayer
370
18
48
1
60
1
100
AcDbLine
10
262.049425
20
18.824997
30
0
11
262.975
21
23
31
0
39
0
210
0
220
0
230
1
0
LINE
5
342
100
AcDbEntity
8
1
62
256
6
ByLayer
370
18
48
1
60
1
100
AcDbLine
10
-38.725
20
-25
30
0
11
-39.650575
21
-20.825003
31
0
39
0
210
0
220
0
230
1
0
LINE
5
343
100
AcDbEntity
8
1
62
256
6
ByLayer
370
18
48
1
60
1
100
AcDbLine
10
-39.650575
20
-20.825003
30
0
11
-37.799425
21
-20.824997
31
0
39
0
210
0
220
0
230
1
0
LINE
5
344
100
AcDbEntity
8
1
62
256
6
ByLayer
370
18
48
1
60
1
100
AcDbLine
10
-37.799425
20
-20.824997
30
0
11
-38.725
21
-25
31
0
39
0
210
0
220
0
230
1
0
LINE
5
346
100
AcDbEntity
8
1
62
256
6
ByLayer
370
18
48
1
60
1
100
AcDbLine
10
-38.725
20
25
30
0
11
-37.799425
21
20.825003
31
0
39
0
210
0
220
0
230
1
0
LINE
5
347
100
AcDbEntity
8
1
62
256
6
ByLayer
370
18
48
1
60
1
100
AcDbLine
10
-37.799425
20
20.825003
30
0
11
-39.650575
21
20.824997
31
0
39
0
210
0
220
0
230
1
0
LINE
5
348
100
AcDbEntity
8
1
62
256
6
ByLayer
370
18
48
1
60
1
100
AcDbLine
10
-39.650575
20
20.824997
30
0
11
-38.725
21
25
31
0
39
0
210
0
220
0
230
1
0
LINE
5
34C
100
AcDbEntity
8
1
62
256
6
ByLayer
370
18
48
1
60
1
100
AcDbLine
10
-48.725
20
34
30
0
11
-47.799425
21
29.825003
31
0
39
0
210
0
220
0
230
1
0
LINE
5
34D
100
AcDbEntity
8
1
62
256
6
ByLayer
370
18
48
1
60
1
100
AcDbLine
10
-47.799425
20
29.825003
30
0
11
-49.650575
21
29.824997
31
0
39
0
210
0
220
0
230
1
0
LINE
5
34E
100
AcDbEntity
8
1
62
256
6
ByLayer
370
18
48
1
60
1
100
AcDbLine
10
-49.650575
20
29.824997
30
0
11
-48.725
21
34
31
0
39
0
210
0
220
0
230
1
0
LINE
5
350
100
AcDbEntity
8
1
62
256
6
ByLayer
370
18
48
1
60
1
100
AcDbLine
10
-48.725
20
-34
30
0
11
-49.650575
21
-29.825003
31
0
39
0
210
0
220
0
230
1
0
LINE
5
351
100
AcDbEntity
8
1
62
256
6
ByLayer
370
18
48
1
60
1
100
AcDbLine
10
-49.650575
20
-29.825003
30
0
11
-47.799425
21
-29.824997
31
0
39
0
210
0
220
0
230
1
0
LINE
5
352
100
AcDbEntity
8
1
62
256
6
ByLayer
370
18
48
1
60
1
100
AcDbLine
10
-47.799425
20
-29.824997
30
0
11
-48.725
21
-34
31
0
39
0
210
0
220
0
230
1
0
LINE
5
356
100
AcDbEntity
8
1
62
256
6
ByLayer
370
18
48
1
60
1
100
AcDbLine
10
262.975
20
-23
30
0
11
262.049425
21
-18.825003
31
0
39
0
210
0
220
0
230
1
0
LINE
5
357
100
AcDbEntity
8
1
62
256
6
ByLayer
370
18
48
1
60
1
100
AcDbLine
10
262.049425
20
-18.825003
30
0
11
263.900575
21
-18.824997
31
0
39
0
210
0
220
0
230
1
0
LINE
5
358
100
AcDbEntity
8
1
62
256
6
ByLayer
370
18
48
1
60
1
100
AcDbLine
10
263.900575
20
-18.824997
30
0
11
262.975
21
-23
31
0
39
0
210
0
220
0
230
1
0
LINE
5
35A
100
AcDbEntity
8
1
62
256
6
ByLayer
370
18
48
1
60
1
100
AcDbLine
10
262.975
20
23
30
0
11
263.900575
21
18.825003
31
0
39
0
210
0
220
0
230
1
0
LINE
5
35B
100
AcDbEntity
8
1
62
256
6
ByLayer
370
18
48
1
60
1
100
AcDbLine
10
263.900575
20
18.825003
30
0
11
262.049425
21
18.824997
31
0
39
0
210
0
220
0
230
1
0
LINE
5
35C
100
AcDbEntity
8
1
62
256
6
ByLayer
370
18
48
1
60
1
100
AcDbLine
10
262.049425
20
18.824997
30
0
11
262.975
21
23
31
0
39
0
210
0
220
0
230
1
0
MTEXT
5
33E
100
AcDbEntity
8
SK2
62
256
6
ByLayer
370
18
48
1
60
0
100
AcDbMText
10
-40.736672
20
-6.949399
30
0
210
0
220
0
230
1
1
%%c
40
4.5
41
0
44
1.084337
50
90
71
7
72
5
7
iso_b_vert
0
MTEXT
5
341
100
AcDbEntity
8
SK2
62
256
6
ByLayer
370
18
48
1
60
0
100
AcDbMText
10
-40.736672
20
4.265444
30
0
210
0
220
0
230
1
1
\W0.6740;50
40
4.5
41
0
44
1.084337
50
90
71
7
72
5
7
iso_b_vert
0
MTEXT
5
34A
100
AcDbEntity
8
SK2
62
256
6
ByLayer
370
18
48
1
60
0
100
AcDbMText
10
-50.736672
20
-6.949399
30
0
210
0
220
0
230
1
1
%%c
40
4.5
41
0
44
1.084337
50
90
71
7
72
5
7
iso_b_vert
0
MTEXT
5
34B
100
AcDbEntity
8
SK2
62
256
6
ByLayer
370
18
48
1
60
0
100
AcDbMText
10
-50.736672
20
4.265444
30
0
210
0
220
0
230
1
1
\W0.6740;68
40
4.5
41
0
44
1.084337
50
90
71
7
72
5
7
iso_b_vert
0
MTEXT
5
354
100
AcDbEntity
8
2
62
256
6
ByLayer
370
18
48
1
60
0
100
AcDbMText
10
260.963328
20
-7.186314
30
0
210
0
220
0
230
1
1
%%c
40
4.5
41
0
44
1.084337
50
90
71
7
72
5
7
iso_b_vert
0
MTEXT
5
355
100
AcDbEntity
8
2
62
256
6
ByLayer
370
18
48
1
60
0
100
AcDbMText
10
260.963328
20
4.02853
30
0
210
0
220
0
230
1
1
\W0.7361;46
40
4.5
41
0
44
1.084337
50
90
71
7
72
5
7
iso_b_vert
0
MTEXT
5
35E
100
AcDbEntity
8
SK6
62
256
6
ByLayer
370
18
48
1
60
0
100
AcDbMText
10
9.308916
20
-94.592562
30
0
210
0
220
0
230
1
1
\W0.7794;DS20-D4600DM50-04
40
3.5
41
0
44
1.084337
50
0
71
7
72
5
7
iso_b_vert
0
HATCH
5
345
100
AcDbEntity
8
SK2
62
256
6
ByLayer
370
13
48
1
60
0
100
AcDbHatch
10
0
20
0
30
0
210
0
220
0
230
1
2
ANSI31
70
0
71
0
91
1
92
5
93
3
72
1
10
-38.7250000000001
20
-25
11
-39.650575216528
21
-20.8250033998276
72
1
10
-39.650575216528
20
-20.8250033998276
11
-37.7994247834721
21
-20.8249966001723
72
1
10
-37.7994247834721
20
-20.8249966001723
11
-38.7250000000001
21
-25
97
0
75
0
76
1
52
0
41
0.0062
77
0
78
1
53
45
43
0
44
0
45
-0.0139193969876572
46
0.0139193969876572
79
0
47
0
98
1
10
0
20
0
0
HATCH
5
349
100
AcDbEntity
8
SK2
62
256
6
ByLayer
370
13
48
1
60
0
100
AcDbHatch
10
0
20
0
30
0
210
0
220
0
230
1
2
ANSI31
70
0
71
0
91
1
92
5
93
3
72
1
10
-38.7250000000001
20
25
11
-37.7994247834721
21
20.8250033998276
72
1
10
-37.7994247834721
20
20.8250033998276
11
-39.650575216528
21
20.8249966001724
72
1
10
-39.650575216528
20
20.8249966001724
11
-38.7250000000001
21
25
97
0
75
0
76
1
52
0
41
0.0062
77
0
78
1
53
45
43
0
44
0
45
-0.0139193969876572
46
0.0139193969876572
79
0
47
0
98
1
10
0
20
0
0
HATCH
5
34F
100
AcDbEntity
8
SK2
62
256
6
ByLayer
370
13
48
1
60
0
100
AcDbHatch
10
0
20
0
30
0
210
0
220
0
230
1
2
ANSI31
70
0
71
0
91
1
92
5
93
3
72
1
10
-48.7250000000001
20
34
11
-47.7994247834721
21
29.8250033998276
72
1
10
-47.7994247834721
20
29.8250033998276
11
-49.650575216528
21
29.8249966001724
72
1
10
-49.650575216528
20
29.8249966001724
11
-48.7250000000001
21
34
97
0
75
0
76
1
52
0
41
0.0062
77
0
78
1
53
45
43
0
44
0
45
-0.0139193969876572
46
0.0139193969876572
79
0
47
0
98
1
10
0
20
0
0
HATCH
5
353
100
AcDbEntity
8
SK2
62
256
6
ByLayer
370
13
48
1
60
0
100
AcDbHatch
10
0
20
0
30
0
210
0
220
0
230
1
2
ANSI31
70
0
71
0
91
1
92
5
93
3
72
1
10
-48.7250000000001
20
-34
11
-49.650575216528
21
-29.8250033998276
72
1
10
-49.650575216528
20
-29.8250033998276
11
-47.7994247834721
21
-29.8249966001724
72
1
10
-47.7994247834721
20
-29.8249966001724
11
-48.7250000000001
21
-34
97
0
75
0
76
1
52
0
41
0.0062
77
0
78
1
53
45
43
0
44
0
45
-0.0139193969876572
46
0.0139193969876572
79
0
47
0
98
1
10
0
20
0
0
HATCH
5
359
100
AcDbEntity
8
2
62
256
6
ByLayer
370
13
48
1
60
0
100
AcDbHatch
10
0
20
0
30
0
210
0
220
0
230
1
2
ANSI31
70
0
71
0
91
1
92
5
93
3
72
1
10
262.975
20
-23.0000000000003
11
262.049424783472
21
-18.8250033998279
72
1
10
262.049424783472
20
-18.8250033998279
11
263.900575216528
21
-18.8249966001726
72
1
10
263.900575216528
20
-18.8249966001726
11
262.975
21
-23.0000000000003
97
0
75
0
76
1
52
0
41
0.0062
77
0
78
1
53
45
43
0
44
0
45
-0.0139193969876572
46
0.0139193969876572
79
0
47
0
98
1
10
0
20
0
0
HATCH
5
35D
100
AcDbEntity
8
2
62
256
6
ByLayer
370
13
48
1
60
0
100
AcDbHatch
10
0
20
0
30
0
210
0
220
0
230
1
2
ANSI31
70
0
71
0
91
1
92
5
93
3
72
1
10
262.975
20
22.9999999999997
11
263.900575216528
21
18.8250033998273
72
1
10
263.900575216528
20
18.8250033998273
11
262.049424783472
21
18.8249966001721
72
1
10
262.049424783472
20
18.8249966001721
11
262.975
21
22.9999999999997
97
0
75
0
76
1
52
0
41
0.0062
77
0
78
1
53
45
43
0
44
0
45
-0.0139193969876572
46
0.0139193969876572
79
0
47
0
98
1
10
0
20
0
0
DIMENSION
5
361
100
AcDbEntity
8
2
62
256
6
ByLayer
370
18
48
1
60
0
100
AcDbDimension
2
_U0
10
236
20
-82.85
30
0
11
118
21
-82.85
31
0
70
32
71
1
72
1
41
1
210
0
220
0
230
1
3
Standard
100
AcDbAlignedDimension
13
0
23
-34
33
0
14
236
24
-23
34
0
50
0
100
AcDbRotatedDimension
1001
ACAD
1000
DSTYLE
1002
{
1070
   371
1070
    13
1070
   372
1070
    13
1070
   170
1070
     0
1070
   144
1040
1.0
1070
   277
1070
     2
1070
   284
1070
     8
1070
   278
1070
    46
1070
   146
1040
0.777778
1070
   345
1005
16
1070
   347
1005
16
1070
   346
1005
16
1070
   344
1005
0
1070
   343
1005
0
1070
   172
1070
     1
1070
    76
1070
     0
1070
    75
1070
     0
1070
   282
1070
     0
1070
   281
1070
     0
1070
    71
1070
     0
1070
    74
1070
     0
1070
   279
1070
     0
1070
   173
1070
     1
1070
   340
1005
33F
1070
   271
1070
     1
1070
   272
1070
     2
1070
    77
1070
     1
1070
    73
1070
     1
1070
   171
1070
     3
1070
   274
1070
     4
1070
   177
1070
   150
1070
   176
1070
     9
1070
   178
1070
    43
1070
    78
1070
     8
1070
    48
1040
-0.1
1070
    41
1040
4.175
1070
   147
1040
2.25
1070
    42
1040
1.5875
1070
    44
1040
3.175
1070
   140
1040
4.5
1002
}
1001
ACAD_DSTYLE_DIM_LINETYPE
1070
   380
1005
16
1001
ACAD_DSTYLE_DIM_EXT1_LINETYPE
1070
   381
1005
16
1001
ACAD_DSTYLE_DIM_EXT2_LINETYPE
1070
   382
1005
16
0
DIMENSION
5
37A
100
AcDbEntity
8
SK2
62
256
6
ByLayer
370
18
48
1
60
0
100
AcDbDimension
2
_U1
10
0
20
-82.85
30
0
11
-9
21
-82.85
31
0
70
32
71
1
72
1
41
1
210
0
220
0
230
1
3
Standard
100
AcDbAlignedDimension
13
-18
23
-25
33
0
14
0
24
-34
34
0
50
0
100
AcDbRotatedDimension
1001
ACAD
1000
DSTYLE
1002
{
1070
   371
1070
    13
1070
   372
1070
    13
1070
   170
1070
     0
1070
   144
1040
1.0
1070
   277
1070
     2
1070
   284
1070
     8
1070
   278
1070
    46
1070
   146
1040
0.777778
1070
   345
1005
16
1070
   347
1005
16
1070
   346
1005
16
1070
   344
1005
0
1070
   343
1005
0
1070
   172
1070
     1
1070
    76
1070
     0
1070
    75
1070
     0
1070
   282
1070
     0
1070
   281
1070
     0
1070
    71
1070
     0
1070
    74
1070
     0
1070
   279
1070
     0
1070
   173
1070
     1
1070
   340
1005
33F
1070
   271
1070
     1
1070
   272
1070
     2
1070
    77
1070
     1
1070
    73
1070
     1
1070
   171
1070
     3
1070
   274
1070
     4
1070
   177
1070
   150
1070
   176
1070
     9
1070
   178
1070
    43
1070
    78
1070
     8
1070
    48
1040
-0.1
1070
    41
1040
4.175
1070
   147
1040
2.25
1070
    42
1040
1.5875
1070
    44
1040
3.175
1070
   140
1040
4.5
1002
}
1001
ACAD_DSTYLE_DIM_LINETYPE
1070
   380
1005
16
1001
ACAD_DSTYLE_DIM_EXT1_LINETYPE
1070
   381
1005
16
1001
ACAD_DSTYLE_DIM_EXT2_LINETYPE
1070
   382
1005
16
0
DIMENSION
5
393
100
AcDbEntity
8
SK2
62
256
6
ByLayer
370
18
48
1
60
0
100
AcDbDimension
2
_U2
10
18.3957
20
-72.85
30
0
11
127.19785
21
-72.85
31
0
70
32
71
1
72
1
41
1
210
0
220
0
230
1
3
Standard
100
AcDbAlignedDimension
13
236
23
-23
33
0
14
18.3957
24
-34
34
0
50
0
100
AcDbRotatedDimension
1001
ACAD
1000
DSTYLE
1002
{
1070
   371
1070
    13
1070
   372
1070
    13
1070
   170
1070
     0
1070
   144
1040
1.0
1070
   277
1070
     2
1070
   284
1070
     8
1070
   278
1070
    46
1070
   146
1040
0.777778
1070
   345
1005
16
1070
   347
1005
16
1070
   346
1005
16
1070
   344
1005
0
1070
   343
1005
0
1070
   172
1070
     1
1070
    76
1070
     0
1070
    75
1070
     0
1070
   282
1070
     0
1070
   281
1070
     0
1070
    71
1070
     0
1070
    74
1070
     0
1070
   279
1070
     0
1070
   173
1070
     1
1070
   340
1005
33F
1070
   271
1070
     1
1070
   272
1070
     2
1070
    77
1070
     1
1070
    73
1070
     1
1070
   171
1070
     3
1070
   274
1070
     4
1070
   177
1070
   150
1070
   176
1070
     9
1070
   178
1070
    43
1070
    78
1070
     8
1070
    48
1040
-0.1
1070
    41
1040
4.175
1070
   147
1040
2.25
1070
    42
1040
1.5875
1070
    44
1040
3.175
1070
   140
1040
4.5
1002
}
1001
ACAD_DSTYLE_DIM_LINETYPE
1070
   380
1005
16
1001
ACAD_DSTYLE_DIM_EXT1_LINETYPE
1070
   381
1005
16
1001
ACAD_DSTYLE_DIM_EXT2_LINETYPE
1070
   382
1005
16
0
DIMENSION
5
3AB
100
AcDbEntity
8
SK2
62
256
6
ByLayer
370
18
48
1
60
0
100
AcDbDimension
2
_U3
10
236
20
-62.85
30
0
11
141.5
21
-62.85
31
0
70
32
71
1
72
1
41
1
210
0
220
0
230
1
3
Standard
100
AcDbAlignedDimension
13
47
23
-23
33
0
14
236
24
-23
34
0
50
0
100
AcDbRotatedDimension
1001
ACAD
1000
DSTYLE
1002
{
1070
   371
1070
    13
1070
   372
1070
    13
1070
   170
1070
     0
1070
   144
1040
1.0
1070
   277
1070
     2
1070
   284
1070
     8
1070
   278
1070
    46
1070
   146
1040
0.777778
1070
   345
1005
16
1070
   347
1005
16
1070
   346
1005
16
1070
   344
1005
0
1070
   343
1005
0
1070
   172
1070
     1
1070
    76
1070
     0
1070
    75
1070
     0
1070
   282
1070
     0
1070
   281
1070
     0
1070
    71
1070
     0
1070
    74
1070
     0
1070
   279
1070
     0
1070
   173
1070
     1
1070
   340
1005
33F
1070
   271
1070
     1
1070
   272
1070
     2
1070
    77
1070
     1
1070
    73
1070
     1
1070
   171
1070
     3
1070
   274
1070
     4
1070
   177
1070
   150
1070
   176
1070
     9
1070
   178
1070
    43
1070
    78
1070
     8
1070
    48
1040
-0.1
1070
    41
1040
4.175
1070
   147
1040
2.25
1070
    42
1040
1.5875
1070
    44
1040
3.175
1070
   140
1040
4.5
1002
}
1001
ACAD_DSTYLE_DIM_LINETYPE
1070
   380
1005
16
1001
ACAD_DSTYLE_DIM_EXT1_LINETYPE
1070
   381
1005
16
1001
ACAD_DSTYLE_DIM_EXT2_LINETYPE
1070
   382
1005
16
0
DIMENSION
5
3C3
100
AcDbEntity
8
2
62
256
6
ByLayer
370
18
48
1
60
0
100
AcDbDimension
2
_U4
10
236
20
-52.85
30
0
11
258.029464
21
-52.85
31
0
70
32
71
1
72
1
41
1
210
0
220
0
230
1
3
Standard
100
AcDbAlignedDimension
13
234.7234
23
-11.5
33
0
14
236
24
0
34
0
50
0
100
AcDbRotatedDimension
1001
ACAD
1000
DSTYLE
1002
{
1070
   371
1070
    13
1070
   372
1070
    13
1070
   170
1070
     0
1070
   144
1040
1.0
1070
   277
1070
     2
1070
   284
1070
     8
1070
   278
1070
    46
1070
   146
1040
0.777778
1070
   345
1005
16
1070
   347
1005
16
1070
   346
1005
16
1070
   344
1005
0
1070
   343
1005
0
1070
   172
1070
     1
1070
    76
1070
     0
1070
    75
1070
     0
1070
   282
1070
     0
1070
   281
1070
     0
1070
    71
1070
     0
1070
    74
1070
     0
1070
   279
1070
     0
1070
   173
1070
     1
1070
   340
1005
33F
1070
   271
1070
     2
1070
   272
1070
     2
1070
    77
1070
     1
1070
    73
1070
     1
1070
   171
1070
     3
1070
   274
1070
     4
1070
   177
1070
   150
1070
   176
1070
     9
1070
   178
1070
    43
1070
    78
1070
     8
1070
    48
1040
-0.1
1070
    41
1040
4.175
1070
   147
1040
2.25
1070
    42
1040
1.5875
1070
    44
1040
3.175
1070
   140
1040
4.5
1002
}
1001
ACAD_DSTYLE_DIM_LINETYPE
1070
   380
1005
16
1001
ACAD_DSTYLE_DIM_EXT1_LINETYPE
1070
   381
1005
16
1001
ACAD_DSTYLE_DIM_EXT2_LINETYPE
1070
   382
1005
16
0
ENDSEC
0
SECTION
2
OBJECTS
0
DICTIONARY
5
44d
330
0
100
AcDbDictionary
280
0
281
1
3
ACAD_GROUP
350
44e
3
ACAD_MLINESTYLE
350
44f
0
DICTIONARY
5
44e
330
0
100
AcDbDictionary
280
0
281
1
0
DICTIONARY
5
44f
330
0
100
AcDbDictionary
280
0
281
1
3
Standard
350
18
0
MLINESTYLE
5
18
330
44f
100
AcDbMlineStyle
2
Standard
70
0
3

62
256
51
90
52
90
71
2
49
-0.5
62
256
6
ByLayer
49
0.5
62
256
6
ByLayer
0
RASTERVARIABLES
5
43b
330

100
AcDbRasterVariables
90
0
70
1
71
1
72
1
0
ENDSEC
0
EOF
