0
SECTION
2
HEADER
9
$ACADVER
1
AC1015
9
$DWGCODEPAGE
3
ANSI_1252
9
$HANDSEED
5
1f8
9
$ANGBASE
50
0
9
$ANGDIR
70
0
9
$ATTMODE
70
1
9
$AUNITS
70
0
9
$AUPREC
70
0
9
$CECOLOR
62
256
9
$CELTSCALE
40
1
9
$CELTYPE
6
ByLayer
9
$CELWEIGHT
370
18
9
$CLAYER
8
0
9
$CMLJUST
70
0
9
$CMLSCALE
40
1
9
$CMLSTYLE
2
Standard
9
$DIMSTYLE
2
Standard
9
$TEXTSIZE
40
0.2
9
$TEXTSTYLE
7
Standard
9
$LUNITS
70
2
9
$LUPREC
70
4
9
$EXTNAMES
290
1
9
$INSUNITS
70
4
9
$LTSCALE
40
1
9
$LWDISPLAY
290
1
9
$PDMODE
70
0
9
$PDSIZE
40
0
9
$PLINEGEN
70
0
0
ENDSEC
0
SECTION
2
CLASSES
0
CLASS
1
RASTERVARIABLES
2
AcDbRasterVariables
3
ISM
90
0
280
0
281
0
0
ENDSEC
0
SECTION
2
TABLES
0
TABLE
2
VPORT
5
1ee
100
AcDbSymbolTable
0
VPORT
5
1
100
AcDbSymbolTableRecord
100
AcDbViewportTableRecord
2
*Active
70
0
10
0
20
0
11
1
21
1
12
-1
22
1
13
0
23
0
14
0.5
24
0.5
15
10
25
10
16
0
26
0
36
1
17
0
27
0
37
0
0
ENDTAB
0
TABLE
2
LTYPE
5
1ef
100
AcDbSymbolTable
0
LTYPE
5
14
100
AcDbSymbolTableRecord
100
AcDbLinetypeTableRecord
70
0
2
ByBlock
3

72
65
73
0
40
0
0
LTYPE
5
15
100
AcDbSymbolTableRecord
100
AcDbLinetypeTableRecord
70
0
2
ByLayer
3

72
65
73
0
40
0
0
LTYPE
5
16
100
AcDbSymbolTableRecord
100
AcDbLinetypeTableRecord
70
0
2
Continuous
3
Solid line
72
65
73
0
40
0
0
LTYPE
5
6E
100
AcDbSymbolTableRecord
100
AcDbLinetypeTableRecord
70
0
2
CENTER
3
____ _ ____ _ ____ _ ____
72
65
73
4
40
47.5
49
22
74
0
49
-8.5
74
0
49
8.5
74
0
49
-8.5
74
0
0
LTYPE
5
6F
100
AcDbSymbolTableRecord
100
AcDbLinetypeTableRecord
70
0
2
DASHED
3
__ __ __ __ __ __ __ __ __
72
65
73
2
40
25.72
49
12.86
74
0
49
-12.86
74
0
0
ENDTAB
0
TABLE
2
LAYER
5
1f0
100
AcDbSymbolTable
0
LAYER
5
10
100
AcDbSymbolTableRecord
100
AcDbLayerTableRecord
2
0
70
0
62
7
6
Continuous
290
1
370
-3
390
0
0
LAYER
5
71
100
AcDbSymbolTableRecord
100
AcDbLayerTableRecord
2
80
70
0
62
-6
6
Continuous
290
1
370
-3
390
0
0
LAYER
5
73
100
AcDbSymbolTableRecord
100
AcDbLayerTableRecord
2
81
70
0
62
-3
6
Continuous
290
1
370
-3
390
0
0
LAYER
5
B7
100
AcDbSymbolTableRecord
100
AcDbLayerTableRecord
2
1
70
0
62
4
6
Continuous
290
1
370
-3
390
0
0
LAYER
5
D1
100
AcDbSymbolTableRecord
100
AcDbLayerTableRecord
2
4
70
0
62
-2
6
CENTER
290
1
370
-3
390
0
0
LAYER
5
123
100
AcDbSymbolTableRecord
100
AcDbLayerTableRecord
2
Defpoints
70
0
62
7
6
Continuous
290
0
370
-3
390
0
0
LAYER
5
14E
100
AcDbSymbolTableRecord
100
AcDbLayerTableRecord
2
2
70
0
62
7
6
Continuous
290
1
370
-3
390
0
0
LAYER
5
1d9
100
AcDbSymbolTableRecord
100
AcDbLayerTableRecord
2
SK3
70
0
62
1
6
DASHED
290
1
370
-3
390
0
0
LAYER
5
1da
100
AcDbSymbolTableRecord
100
AcDbLayerTableRecord
2
SK1
70
0
62
4
6
Continuous
290
1
370
-3
390
0
0
LAYER
5
1db
100
AcDbSymbolTableRecord
100
AcDbLayerTableRecord
2
SK4
70
0
62
2
6
CENTER
290
1
370
-3
390
0
0
LAYER
5
1dc
100
AcDbSymbolTableRecord
100
AcDbLayerTableRecord
2
SK6
70
0
62
5
6
Continuous
290
1
370
-3
390
0
0
LAYER
5
1dd
100
AcDbSymbolTableRecord
100
AcDbLayerTableRecord
2
SK2
70
0
62
7
6
Continuous
290
1
370
-3
390
0
0
ENDTAB
0
TABLE
2
STYLE
5
1f1
100
AcDbSymbolTable
0
STYLE
5
11
100
AcDbSymbolTableRecord
100
AcDbTextStyleTableRecord
2
Standard
3
txt
70
0
71
0
40
0
41
1
42
0
50
0
0
STYLE
5
115
100
AcDbSymbolTableRecord
100
AcDbTextStyleTableRecord
2
iso_b_vert
3
simplex.shx
70
0
71
0
40
0
41
1
42
0
50
0
0
STYLE
5
116
100
AcDbSymbolTableRecord
100
AcDbTextStyleTableRecord
2
DWGDirectTextStyle
3
simplex
70
0
71
0
40
0
41
1
42
0
50
0
0
ENDTAB
0
TABLE
2
DIMSTYLE
5
1f2
100
AcDbSymbolTable
100
AcDbDimStyleTable
0
DIMSTYLE
105
27
100
AcDbSymbolTableRecord
100
AcDbDimStyleTableRecord
2
Standard
70
0
3
<>
41
0.18
42
0.0625
44
0.18
140
0.18
147
0.09
73
0
74
0
77
1
271
2
275
0
278
52
280
0
340
11
0
ENDTAB
0
TABLE
2
VIEW
5
1f3
100
AcDbSymbolTable
0
ENDTAB
0
TABLE
2
UCS
5
1f4
100
AcDbSymbolTable
0
ENDTAB
0
TABLE
2
APPID
5
1f5
100
AcDbSymbolTable
0
APPID
5
12
100
AcDbSymbolTableRecord
100
AcDbRegAppTableRecord
2
ACAD
70
0
0
APPID
5
118
100
AcDbSymbolTableRecord
100
AcDbRegAppTableRecord
2
ACAD_DSTYLE_DIMBREAK
70
0
0
APPID
5
198
100
AcDbSymbolTableRecord
100
AcDbRegAppTableRecord
2
ACAD_DSTYLE_DIM_LINETYPE
70
0
0
APPID
5
199
100
AcDbSymbolTableRecord
100
AcDbRegAppTableRecord
2
ACAD_DSTYLE_DIM_EXT1_LINETYPE
70
0
0
APPID
5
19A
100
AcDbSymbolTableRecord
100
AcDbRegAppTableRecord
2
ACAD_DSTYLE_DIM_EXT2_LINETYPE
70
0
0
APPID
5
1D5
100
AcDbSymbolTableRecord
100
AcDbRegAppTableRecord
2
ACAD_MLEADERVER
70
0
0
ENDTAB
0
TABLE
2
BLOCK_RECORD
5
1f6
100
AcDbSymbolTable
0
BLOCK_RECORD
5
1F
100
AcDbSymbolTableRecord
100
AcDbBlockTableRecord
2
*Model_Space
340
0
70
0
0
BLOCK_RECORD
5
1B
100
AcDbSymbolTableRecord
100
AcDbBlockTableRecord
2
*Paper_Space
340
0
70
0
0
BLOCK_RECORD
5
23
100
AcDbSymbolTableRecord
100
AcDbBlockTableRecord
2
*Paper_Space0
340
0
70
0
0
BLOCK_RECORD
5
11A
100
AcDbSymbolTableRecord
100
AcDbBlockTableRecord
2
_Closed
340
0
70
0
0
BLOCK_RECORD
5
124
100
AcDbSymbolTableRecord
100
AcDbBlockTableRecord
2
*D2
340
0
70
0
0
BLOCK_RECORD
5
131
100
AcDbSymbolTableRecord
100
AcDbBlockTableRecord
2
_U0
340
0
70
0
0
BLOCK_RECORD
5
142
100
AcDbSymbolTableRecord
100
AcDbBlockTableRecord
2
*D4
340
0
70
0
0
BLOCK_RECORD
5
14F
100
AcDbSymbolTableRecord
100
AcDbBlockTableRecord
2
_U1
340
0
70
0
0
BLOCK_RECORD
5
15F
100
AcDbSymbolTableRecord
100
AcDbBlockTableRecord
2
*D6
340
0
70
0
0
BLOCK_RECORD
5
16D
100
AcDbSymbolTableRecord
100
AcDbBlockTableRecord
2
_U2
340
0
70
0
0
ENDTAB
0
ENDSEC
0
SECTION
2
BLOCKS
0
BLOCK
5
20
100
AcDbEntity
8
0
100
AcDbBlockBegin
2
*Model_Space
70
0
10
0
20
0
30
0
3
*Model_Space
0
ENDBLK
5
21
100
AcDbEntity
8
0
100
AcDbBlockEnd
0
BLOCK
5
1C
100
AcDbEntity
8
0
100
AcDbBlockBegin
2
*Paper_Space
70
0
10
0
20
0
30
0
3
*Paper_Space
0
ENDBLK
5
1D
100
AcDbEntity
8
0
100
AcDbBlockEnd
0
BLOCK
5
24
100
AcDbEntity
8
0
100
AcDbBlockBegin
2
*Paper_Space0
70
0
10
0
20
0
30
0
3
*Paper_Space0
0
ENDBLK
5
25
100
AcDbEntity
8
0
100
AcDbBlockEnd
0
BLOCK
5
11B
100
AcDbEntity
8
0
100
AcDbBlockBegin
2
_Closed
70
0
10
0
20
0
30
0
3
_Closed
0
LINE
5
11D
100
AcDbEntity
8
0
62
256
6
ByLayer
370
-2
48
1
60
0
100
AcDbLine
10
-1
20
0.166667
30
0
11
0
21
0
31
0
39
0
210
0
220
0
230
1
0
LINE
5
11E
100
AcDbEntity
8
0
62
256
6
ByLayer
370
-2
48
1
60
0
100
AcDbLine
10
0
20
0
30
0
11
-1
21
-0.166667
31
0
39
0
210
0
220
0
230
1
0
LINE
5
11F
100
AcDbEntity
8
0
62
256
6
ByLayer
370
-2
48
1
60
0
100
AcDbLine
10
-1
20
0.166667
30
0
11
-1
21
-0.166667
31
0
39
0
210
0
220
0
230
1
0
LINE
5
120
100
AcDbEntity
8
0
62
256
6
ByLayer
370
-2
48
1
60
0
100
AcDbLine
10
0
20
0
30
0
11
-1
21
0
31
0
39
0
210
0
220
0
230
1
0
ENDBLK
5
11C
100
AcDbEntity
8
0
100
AcDbBlockEnd
0
BLOCK
5
125
100
AcDbEntity
8
0
100
AcDbBlockBegin
2
*D2
70
1
10
0
20
0
30
0
3
*D2
0
LINE
5
127
100
AcDbEntity
8
0
62
256
6
ByLayer
370
-2
48
1
60
0
100
AcDbLine
10
20.0875
20
40
30
0
11
41.962624
21
40
31
0
39
0
210
0
220
0
230
1
0
LINE
5
128
100
AcDbEntity
8
0
62
256
6
ByLayer
370
-2
48
1
60
0
100
AcDbLine
10
20.0875
20
-40
30
0
11
41.962624
21
-40
31
0
39
0
210
0
220
0
230
1
0
LINE
5
129
100
AcDbEntity
8
0
62
256
6
ByLayer
370
-2
48
1
60
0
100
AcDbLine
10
39.962624
20
36.825
30
0
11
39.962624
21
-36.825
31
0
39
0
210
0
220
0
230
1
0
SOLID
5
12A
100
AcDbEntity
8
0
62
256
6
ByLayer
370
-1
48
1
60
0
100
AcDbTrace
10
40.491791
20
36.825
30
0
11
39.433457
21
36.825
31
0
12
39.962624
22
40
32
0
13
39.962624
23
40
33
0
39
0
210
0
220
0
230
1
0
SOLID
5
12B
100
AcDbEntity
8
0
62
256
6
ByLayer
370
-1
48
1
60
0
100
AcDbTrace
10
39.433457
20
-36.825
30
0
11
40.491791
21
-36.825
31
0
12
39.962624
22
-40
32
0
13
39.962624
23
-40
33
0
39
0
210
0
220
0
230
1
0
MTEXT
5
12C
100
AcDbEntity
8
0
62
256
6
ByLayer
370
18
48
1
60
0
100
AcDbMText
10
33.962624
20
0
30
0
210
0
220
0
230
1
1
\A1;80
40
3
41
0
44
1
50
90
71
5
72
5
7
iso_b_vert
0
POINT
5
12D
100
AcDbEntity
8
Defpoints
62
0
6
ByLayer
370
-1
48
1
60
0
100
AcDbPoint
10
18.5
20
40
30
0
39
0
210
0
220
0
230
1
50
360
0
POINT
5
12E
100
AcDbEntity
8
Defpoints
62
0
6
ByLayer
370
-1
48
1
60
0
100
AcDbPoint
10
18.5
20
-40
30
0
39
0
210
0
220
0
230
1
50
360
0
POINT
5
12F
100
AcDbEntity
8
Defpoints
62
0
6
ByLayer
370
-1
48
1
60
0
100
AcDbPoint
10
39.962624
20
-40
30
0
39
0
210
0
220
0
230
1
50
360
0
ENDBLK
5
126
100
AcDbEntity
8
0
100
AcDbBlockEnd
0
BLOCK
5
13D
100
AcDbEntity
8
0
100
AcDbBlockBegin
2
_U0
70
0
10
0
20
0
30
0
3
_U0
0
MTEXT
5
132
100
AcDbEntity
8
SK2
62
256
6
ByLayer
370
18
48
1
60
0
100
AcDbMText
10
38.62151
20
2.093172
30
0
210
0
220
0
230
1
1
\W0.6740;80
40
3
41
0
44
1.084337
50
90
71
7
72
5
7
iso_b_vert
0
MTEXT
5
133
100
AcDbEntity
8
SK2
62
256
6
ByLayer
370
18
48
1
60
0
100
AcDbMText
10
38.62151
20
-5.406828
30
0
210
0
220
0
230
1
1
%%c
40
3
41
0
44
1.084337
50
90
71
7
72
5
7
iso_b_vert
0
LINE
5
134
100
AcDbEntity
8
SK2
62
256
6
ByLayer
370
13
48
1
60
0
100
AcDbLine
10
20.0875
20
40
30
0
11
41.962624
21
40
31
0
39
0
210
0
220
0
230
1
0
LINE
5
135
100
AcDbEntity
8
SK2
62
256
6
ByLayer
370
13
48
1
60
0
100
AcDbLine
10
20.0875
20
-40
30
0
11
41.962624
21
-40
31
0
39
0
210
0
220
0
230
1
0
LINE
5
136
100
AcDbEntity
8
SK2
62
256
6
ByLayer
370
13
48
1
60
0
100
AcDbLine
10
39.962624
20
40
30
0
11
39.962624
21
-40
31
0
39
0
210
0
220
0
230
1
0
LINE
5
137
100
AcDbEntity
8
SK2
62
256
6
ByLayer
370
13
48
1
60
0
100
AcDbLine
10
39.962624
20
40
30
0
11
40.380621
21
36.825002
31
0
39
0
210
0
220
0
230
1
0
LINE
5
138
100
AcDbEntity
8
SK2
62
256
6
ByLayer
370
13
48
1
60
0
100
AcDbLine
10
39.962624
20
40
30
0
11
39.544627
21
36.824998
31
0
39
0
210
0
220
0
230
1
0
LINE
5
139
100
AcDbEntity
8
SK2
62
256
6
ByLayer
370
13
48
1
60
0
100
AcDbLine
10
40.380621
20
36.825002
30
0
11
39.544627
21
36.824998
31
0
39
0
210
0
220
0
230
1
0
LINE
5
13A
100
AcDbEntity
8
SK2
62
256
6
ByLayer
370
13
48
1
60
0
100
AcDbLine
10
39.962624
20
-40
30
0
11
39.544627
21
-36.825002
31
0
39
0
210
0
220
0
230
1
0
LINE
5
13B
100
AcDbEntity
8
SK2
62
256
6
ByLayer
370
13
48
1
60
0
100
AcDbLine
10
39.962624
20
-40
30
0
11
40.380621
21
-36.824998
31
0
39
0
210
0
220
0
230
1
0
LINE
5
13C
100
AcDbEntity
8
SK2
62
256
6
ByLayer
370
13
48
1
60
0
100
AcDbLine
10
39.544627
20
-36.825002
30
0
11
40.380621
21
-36.824998
31
0
39
0
210
0
220
0
230
1
0
ENDBLK
5
13E
100
AcDbEntity
8
0
100
AcDbBlockEnd
0
BLOCK
5
143
100
AcDbEntity
8
0
100
AcDbBlockBegin
2
*D4
70
1
10
0
20
0
30
0
3
*D4
0
LINE
5
145
100
AcDbEntity
8
0
62
256
6
ByLayer
370
-2
48
1
60
0
100
AcDbLine
10
0
20
41.2875
30
0
11
0
21
48.761482
31
0
39
0
210
0
220
0
230
1
0
LINE
5
146
100
AcDbEntity
8
0
62
256
6
ByLayer
370
-2
48
1
60
0
100
AcDbLine
10
19
20
41.0875
30
0
11
19
21
48.761482
31
0
39
0
210
0
220
0
230
1
0
LINE
5
147
100
AcDbEntity
8
0
62
256
6
ByLayer
370
-2
48
1
60
0
100
AcDbLine
10
3.175
20
46.761482
30
0
11
15.825
21
46.761482
31
0
39
0
210
0
220
0
230
1
0
SOLID
5
148
100
AcDbEntity
8
0
62
256
6
ByLayer
370
-1
48
1
60
0
100
AcDbTrace
10
3.175
20
47.290649
30
0
11
3.175
21
46.232315
31
0
12
0
22
46.761482
32
0
13
0
23
46.761482
33
0
39
0
210
0
220
0
230
1
0
SOLID
5
149
100
AcDbEntity
8
0
62
256
6
ByLayer
370
-1
48
1
60
0
100
AcDbTrace
10
15.825
20
46.232315
30
0
11
15.825
21
47.290649
31
0
12
19
22
46.761482
32
0
13
19
23
46.761482
33
0
39
0
210
0
220
0
230
1
0
MTEXT
5
14A
100
AcDbEntity
8
0
62
256
6
ByLayer
370
18
48
1
60
0
100
AcDbMText
10
9.5
20
52.761482
30
0
210
0
220
0
230
1
1
\A1;19
40
3
41
0
44
1
50
0
71
5
72
5
7
iso_b_vert
0
POINT
5
14B
100
AcDbEntity
8
Defpoints
62
0
6
ByLayer
370
-1
48
1
60
0
100
AcDbPoint
10
0
20
39.7
30
0
39
0
210
0
220
0
230
1
50
360
0
POINT
5
14C
100
AcDbEntity
8
Defpoints
62
0
6
ByLayer
370
-1
48
1
60
0
100
AcDbPoint
10
19
20
39.5
30
0
39
0
210
0
220
0
230
1
50
360
0
POINT
5
14D
100
AcDbEntity
8
Defpoints
62
0
6
ByLayer
370
-1
48
1
60
0
100
AcDbPoint
10
19
20
46.761482
30
0
39
0
210
0
220
0
230
1
50
360
0
ENDBLK
5
144
100
AcDbEntity
8
0
100
AcDbBlockEnd
0
BLOCK
5
15A
100
AcDbEntity
8
0
100
AcDbBlockBegin
2
_U1
70
0
10
0
20
0
30
0
3
_U1
0
MTEXT
5
150
100
AcDbEntity
8
2
62
256
6
ByLayer
370
18
48
1
60
0
100
AcDbMText
10
8.242115
20
47.646597
30
0
210
0
220
0
230
1
1
\W0.5469;19
40
3
41
0
44
1.084337
50
0
71
7
72
5
7
iso_b_vert
0
LINE
5
151
100
AcDbEntity
8
2
62
256
6
ByLayer
370
13
48
1
60
0
100
AcDbLine
10
0
20
41.2875
30
0
11
0
21
48.761482
31
0
39
0
210
0
220
0
230
1
0
LINE
5
152
100
AcDbEntity
8
2
62
256
6
ByLayer
370
13
48
1
60
0
100
AcDbLine
10
19
20
41.0875
30
0
11
19
21
48.761482
31
0
39
0
210
0
220
0
230
1
0
LINE
5
153
100
AcDbEntity
8
2
62
256
6
ByLayer
370
13
48
1
60
0
100
AcDbLine
10
0
20
46.761482
30
0
11
19
21
46.761482
31
0
39
0
210
0
220
0
230
1
0
LINE
5
154
100
AcDbEntity
8
2
62
256
6
ByLayer
370
13
48
1
60
0
100
AcDbLine
10
0
20
46.761482
30
0
11
3.174998
21
47.179479
31
0
39
0
210
0
220
0
230
1
0
LINE
5
155
100
AcDbEntity
8
2
62
256
6
ByLayer
370
13
48
1
60
0
100
AcDbLine
10
0
20
46.761482
30
0
11
3.175002
21
46.343485
31
0
39
0
210
0
220
0
230
1
0
LINE
5
156
100
AcDbEntity
8
2
62
256
6
ByLayer
370
13
48
1
60
0
100
AcDbLine
10
3.174998
20
47.179479
30
0
11
3.175002
21
46.343485
31
0
39
0
210
0
220
0
230
1
0
LINE
5
157
100
AcDbEntity
8
2
62
256
6
ByLayer
370
13
48
1
60
0
100
AcDbLine
10
19
20
46.761482
30
0
11
15.825002
21
46.343485
31
0
39
0
210
0
220
0
230
1
0
LINE
5
158
100
AcDbEntity
8
2
62
256
6
ByLayer
370
13
48
1
60
0
100
AcDbLine
10
19
20
46.761482
30
0
11
15.824998
21
47.179479
31
0
39
0
210
0
220
0
230
1
0
LINE
5
159
100
AcDbEntity
8
2
62
256
6
ByLayer
370
13
48
1
60
0
100
AcDbLine
10
15.825002
20
46.343485
30
0
11
15.824998
21
47.179479
31
0
39
0
210
0
220
0
230
1
0
ENDBLK
5
15B
100
AcDbEntity
8
0
100
AcDbBlockEnd
0
BLOCK
5
160
100
AcDbEntity
8
0
100
AcDbBlockBegin
2
*D6
70
1
10
0
20
0
30
0
3
*D6
0
LINE
5
162
100
AcDbEntity
8
0
62
256
6
ByLayer
370
-2
48
1
60
0
100
AcDbLine
10
18.5
20
-41.5875
30
0
11
18.5
21
-49.164748
31
0
39
0
210
0
220
0
230
1
0
LINE
5
163
100
AcDbEntity
8
0
62
256
6
ByLayer
370
-2
48
1
60
0
100
AcDbLine
10
19
20
-41.0875
30
0
11
19
21
-49.164748
31
0
39
0
210
0
220
0
230
1
0
LINE
5
164
100
AcDbEntity
8
0
62
256
6
ByLayer
370
-2
48
1
60
0
100
AcDbLine
10
19
20
-47.164748
30
0
11
40.635714
21
-47.164748
31
0
39
0
210
0
220
0
230
1
0
LINE
5
165
100
AcDbEntity
8
0
62
256
6
ByLayer
370
-2
48
1
60
0
100
AcDbLine
10
15.325
20
-47.164748
30
0
11
12.15
21
-47.164748
31
0
39
0
210
0
220
0
230
1
0
LINE
5
166
100
AcDbEntity
8
0
62
256
6
ByLayer
370
-2
48
1
60
0
100
AcDbLine
10
22.175
20
-47.164748
30
0
11
25.35
21
-47.164748
31
0
39
0
210
0
220
0
230
1
0
SOLID
5
167
100
AcDbEntity
8
0
62
256
6
ByLayer
370
-1
48
1
60
0
100
AcDbTrace
10
15.325
20
-47.693915
30
0
11
15.325
21
-46.635581
31
0
12
18.5
22
-47.164748
32
0
13
18.5
23
-47.164748
33
0
39
0
210
0
220
0
230
1
0
SOLID
5
168
100
AcDbEntity
8
0
62
256
6
ByLayer
370
-1
48
1
60
0
100
AcDbTrace
10
22.175
20
-46.635581
30
0
11
22.175
21
-47.693915
31
0
12
19
22
-47.164748
32
0
13
19
23
-47.164748
33
0
39
0
210
0
220
0
230
1
0
MTEXT
5
169
100
AcDbEntity
8
0
62
256
6
ByLayer
370
18
48
1
60
0
100
AcDbMText
10
32.992857
20
-41.164748
30
0
210
0
220
0
230
1
1
\A1;0.5
40
3
41
0
44
1
50
0
71
5
72
5
7
iso_b_vert
0
POINT
5
16A
100
AcDbEntity
8
Defpoints
62
0
6
ByLayer
370
-1
48
1
60
0
100
AcDbPoint
10
18.5
20
-40
30
0
39
0
210
0
220
0
230
1
50
360
0
POINT
5
16B
100
AcDbEntity
8
Defpoints
62
0
6
ByLayer
370
-1
48
1
60
0
100
AcDbPoint
10
19
20
-39.5
30
0
39
0
210
0
220
0
230
1
50
360
0
POINT
5
16C
100
AcDbEntity
8
Defpoints
62
0
6
ByLayer
370
-1
48
1
60
0
100
AcDbPoint
10
19
20
-47.164748
30
0
39
0
210
0
220
0
230
1
50
360
0
ENDBLK
5
161
100
AcDbEntity
8
0
100
AcDbBlockEnd
0
BLOCK
5
178
100
AcDbEntity
8
0
100
AcDbBlockBegin
2
_U2
70
0
10
0
20
0
30
0
3
_U2
0
MTEXT
5
16E
100
AcDbEntity
8
SK2
62
256
6
ByLayer
370
18
48
1
60
0
100
AcDbMText
10
21.396197
20
-46.279634
30
0
210
0
220
0
230
1
1
\W0.7121;0.5
40
3
41
0
44
1.084337
50
0
71
7
72
5
7
iso_b_vert
0
LINE
5
16F
100
AcDbEntity
8
SK2
62
256
6
ByLayer
370
13
48
1
60
0
100
AcDbLine
10
18.5
20
-41.5875
30
0
11
18.5
21
-49.164748
31
0
39
0
210
0
220
0
230
1
0
LINE
5
170
100
AcDbEntity
8
SK2
62
256
6
ByLayer
370
13
48
1
60
0
100
AcDbLine
10
19
20
-41.0875
30
0
11
19
21
-49.164748
31
0
39
0
210
0
220
0
230
1
0
LINE
5
171
100
AcDbEntity
8
SK2
62
256
6
ByLayer
370
13
48
1
60
0
100
AcDbLine
10
26.036281
20
-47.164748
30
0
11
11
21
-47.164748
31
0
39
0
210
0
220
0
230
1
0
LINE
5
172
100
AcDbEntity
8
SK2
62
256
6
ByLayer
370
13
48
1
60
0
100
AcDbLine
10
18.5
20
-47.164748
30
0
11
15.325002
21
-47.582745
31
0
39
0
210
0
220
0
230
1
0
LINE
5
173
100
AcDbEntity
8
SK2
62
256
6
ByLayer
370
13
48
1
60
0
100
AcDbLine
10
18.5
20
-47.164748
30
0
11
15.324998
21
-46.746751
31
0
39
0
210
0
220
0
230
1
0
LINE
5
174
100
AcDbEntity
8
SK2
62
256
6
ByLayer
370
13
48
1
60
0
100
AcDbLine
10
15.325002
20
-47.582745
30
0
11
15.324998
21
-46.746751
31
0
39
0
210
0
220
0
230
1
0
LINE
5
175
100
AcDbEntity
8
SK2
62
256
6
ByLayer
370
13
48
1
60
0
100
AcDbLine
10
19
20
-47.164748
30
0
11
22.174998
21
-46.746751
31
0
39
0
210
0
220
0
230
1
0
LINE
5
176
100
AcDbEntity
8
SK2
62
256
6
ByLayer
370
13
48
1
60
0
100
AcDbLine
10
19
20
-47.164748
30
0
11
22.175002
21
-47.582745
31
0
39
0
210
0
220
0
230
1
0
LINE
5
177
100
AcDbEntity
8
SK2
62
256
6
ByLayer
370
13
48
1
60
0
100
AcDbLine
10
22.174998
20
-46.746751
30
0
11
22.175002
21
-47.582745
31
0
39
0
210
0
220
0
230
1
0
ENDBLK
5
179
100
AcDbEntity
8
0
100
AcDbBlockEnd
0
ENDSEC
0
SECTION
2
ENTITIES
0
ARC
5
D6
100
AcDbEntity
8
SK3
62
256
6
ByLayer
370
18
48
0.05
60
0
100
AcDbCircle
39
0
10
-37.044671
20
-16.05
30
0
40
2.95
210
0
220
0
230
1
100
AcDbArc
50
186.010765
51
270
0
ARC
5
D7
100
AcDbEntity
8
SK3
62
256
6
ByLayer
370
18
48
0.05
60
0
100
AcDbCircle
39
0
10
-37.044671
20
16.05
30
0
40
2.94999999999999
210
0
220
0
230
1
100
AcDbArc
50
90
51
173.989235
0
ARC
5
D8
100
AcDbEntity
8
SK3
62
256
6
ByLayer
370
18
48
0.05
60
0
100
AcDbCircle
39
0
10
-35.687883
20
-16.05
30
0
40
2.94999999999999
210
0
220
0
230
1
100
AcDbArc
50
270
51
315
0
ARC
5
D9
100
AcDbEntity
8
SK3
62
256
6
ByLayer
370
18
48
0.05
60
0
100
AcDbCircle
39
0
10
-35.687883
20
16.05
30
0
40
2.94999999999999
210
0
220
0
230
1
100
AcDbArc
50
45
51
90
0
ARC
5
DA
100
AcDbEntity
8
SK3
62
256
6
ByLayer
370
18
48
0.05
60
0
100
AcDbCircle
39
0
10
-0.6
20
-29.6
30
0
40
1.00000000000001
210
0
220
0
230
1
100
AcDbArc
50
315
51
0
0
ARC
5
DB
100
AcDbEntity
8
SK3
62
256
6
ByLayer
370
18
48
0.05
60
0
100
AcDbCircle
39
0
10
-0.6
20
29.6
30
0
40
1
210
0
220
0
230
1
100
AcDbArc
50
0
51
45
0
ARC
5
DC
100
AcDbEntity
8
SK1
62
256
6
ByLayer
370
18
48
1
60
0
100
AcDbCircle
39
0
10
-0.6
20
-29.6
30
0
40
0.999999999999997
210
0
220
0
230
1
100
AcDbArc
50
53.129143
51
66.421822
0
ARC
5
DD
100
AcDbEntity
8
SK3
62
256
6
ByLayer
370
18
48
0.05
60
0
100
AcDbCircle
39
0
10
-0.6
20
-29.6
30
0
40
1
210
0
220
0
230
1
100
AcDbArc
50
0
51
53.129173
0
ARC
5
DE
100
AcDbEntity
8
SK3
62
256
6
ByLayer
370
18
48
0.05
60
0
100
AcDbCircle
39
0
10
-0.6
20
29.6
30
0
40
1.00000000000001
210
0
220
0
230
1
100
AcDbArc
50
306.869051
51
0
0
ARC
5
DF
100
AcDbEntity
8
SK1
62
256
6
ByLayer
370
18
48
1
60
0
100
AcDbCircle
39
0
10
-0.6
20
29.6
30
0
40
1.00000000000001
210
0
220
0
230
1
100
AcDbArc
50
225
51
306.86908
0
ELLIPSE
5
E0
100
AcDbEntity
8
1
62
256
6
ByLayer
370
18
48
1
60
0
100
AcDbEllipse
10
-6.763881
20
5E-06
30
0
11
18.7350609545821
21
39.4835823247741
31
0
210
0
220
0
230
1
40
0.341998
41
-1.08794470826286
42
-0.161096946322712
0
ELLIPSE
5
E1
100
AcDbEntity
8
1
62
256
6
ByLayer
370
18
48
1
60
0
100
AcDbEllipse
10
30.763889
20
5E-06
30
0
11
18.7350609545707
21
39.483582324759
31
0
210
0
220
0
230
1
40
0.341998
41
2.05364794532667
42
2.98049570726705
0
ELLIPSE
5
E2
100
AcDbEntity
8
1
62
256
6
ByLayer
370
18
48
1
60
0
100
AcDbEllipse
10
-6.763881
20
5E-06
30
0
11
-18.7349506400073
21
39.4835765085826
31
0
210
0
220
0
230
1
40
0.342002
41
-2.9804949201354
42
-2.05364715819493
0
ELLIPSE
5
E3
100
AcDbEntity
8
1
62
256
6
ByLayer
370
18
48
1
60
0
100
AcDbEllipse
10
30.763889
20
5E-06
30
0
11
-18.7349506400205
21
39.4835765085971
31
0
210
0
220
0
230
1
40
0.342002
41
0.161097733454339
42
1.08794549539455
0
POINT
5
70
100
AcDbEntity
8
80
62
256
6
ByLayer
370
18
48
1
60
0
100
AcDbPoint
10
0
20
0
30
0
39
0
210
0
220
0
230
1
50
360
0
POINT
5
72
100
AcDbEntity
8
81
62
256
6
ByLayer
370
18
48
1
60
0
100
AcDbPoint
10
7
20
0
30
0
39
0
210
0
220
0
230
1
50
360
0
SPLINE
5
E4
100
AcDbEntity
8
SK3
62
256
6
ByLayer
370
18
48
0.05
60
0
100
AcDbSpline
70
4
71
3
72
33
73
29
40
0
40
0
40
0
40
0
40
0.0615580927688035
40
0.0615580927688035
40
0.0928394896765105
40
0.0928394896765105
40
0.124120886584217
40
0.124120886584217
40
0.249246474215047
40
0.249246474215047
40
0.374372061845877
40
0.374372061845877
40
0.405653458753584
40
0.405653458753584
40
0.436934855661291
40
0.436934855661291
40
0.499497649476705
40
0.499497649476705
40
0.624623237107529
40
0.624623237107529
40
0.749748824738354
40
0.749748824738354
40
0.781030221646059
40
0.781030221646059
40
0.812311618553765
40
0.874874412369177
40
0.874874412369177
40
1
40
1
40
1
40
1
41
1
10
-32.2724931162589
20
16.8065399501055
30
0
41
1
10
-32.2725081623715
20
16.8065589995407
30
0
41
1
10
-32.2714418068732
20
16.8052082346663
30
0
41
1
10
-32.2681653922381
20
16.8010598219495
30
0
41
1
10
-32.2667722284461
20
16.7992960763447
30
0
41
1
10
-32.2634240713153
20
16.7950584572698
30
0
41
1
10
-32.2614706712441
20
16.7925866004067
30
0
41
1
10
-32.2503259409677
20
16.7784888088024
30
0
41
1
10
-32.2370174284557
20
16.7616646617801
30
0
41
1
10
-32.2018312544627
20
16.7173184237875
30
0
41
1
10
-32.1799529598916
20
16.6897951800723
30
0
41
1
10
-32.147139672525
20
16.648690522073
30
0
41
1
10
-32.1403027966432
20
16.6401335748085
30
0
41
1
10
-32.1260740151752
20
16.622343330847
30
0
41
1
10
-32.1186717753572
20
16.6130971648249
30
0
41
1
10
-32.09577025711
20
16.5845222918617
30
0
41
1
10
-32.0795429235737
20
16.5643154505467
30
0
41
1
10
-32.0280439524037
20
16.500349285229
30
0
41
1
10
-31.9899647297264
20
16.4532542913671
30
0
41
1
10
-31.9063967974703
20
16.3505588865488
30
0
41
1
10
-31.8609076734339
20
16.2949572355321
30
0
41
1
10
-31.7992804474984
20
16.2201929272983
30
0
41
1
10
-31.7867097547007
20
16.204968785608
30
0
41
1
10
-31.7612170798779
20
16.1741518981883
30
0
41
1
10
-31.7224055159786
20
16.1273182532008
30
0
41
1
10
-31.6818883615719
20
16.0786964641693
30
0
41
1
10
-31.5985919916187
20
15.9791450192148
30
0
41
1
10
-31.5400514071787
20
15.9097065032325
30
0
41
1
10
-31.4784527626756
20
15.8373177599344
30
0
0
SPLINE
5
E5
100
AcDbEntity
8
SK1
62
256
6
ByLayer
370
18
48
1
60
0
100
AcDbSpline
70
4
71
3
72
13
73
9
40
0
40
0
40
0
40
0
40
0.239456846152315
40
0.368360661316408
40
0.499999999958025
40
0.631639338604391
40
0.760543153783338
40
1
40
1
40
1
40
1
41
1
10
-0.399999557409103
20
-25.3251238426424
30
0
41
1
10
-0.373927348692376
20
-25.3253771069552
30
0
41
1
10
-0.336363924473488
20
-25.3324950713767
30
0
41
1
10
-0.289521171449195
20
-25.3567231477931
30
0
41
1
10
-0.257576889398479
20
-25.3827011745862
30
0
41
1
10
-0.231598862584804
20
-25.4146454566106
30
0
41
1
10
-0.207370786148402
20
-25.4614882095962
30
0
41
1
10
-0.200252821720994
20
-25.4990516337695
30
0
41
1
10
-0.199999557409086
20
-25.5251238424513
30
0
0
SPLINE
5
E6
100
AcDbEntity
8
SK1
62
256
6
ByLayer
370
18
48
1
60
0
100
AcDbSpline
70
4
71
3
72
14
73
10
40
0
40
0
40
0
40
0
40
0.25
40
0.25
40
0.5
40
0.5
40
0.75
40
0.75
40
1
40
1
40
1
40
1
41
1
10
-47.9999995574091
20
-23.317201027156
30
0
41
1
10
-47.8817287238161
20
-23.3807083730071
30
0
41
1
10
-47.761454494466
20
-23.4454502566418
30
0
41
1
10
-47.5173685162686
20
-23.5771852281324
30
0
41
1
10
-47.3935072334101
20
-23.6442051774065
30
0
41
1
10
-47.1428552727616
20
-23.7801987517999
30
0
41
1
10
-47.0160824496423
20
-23.8491625601344
30
0
41
1
10
-46.7600481803688
20
-23.9888306386848
30
0
41
1
10
-46.6308438890494
20
-24.0595036468931
30
0
41
1
10
-46.500561731534
20
-24.1309674679634
30
0
0
SPLINE
5
E7
100
AcDbEntity
8
SK1
62
256
6
ByLayer
370
18
48
1
60
0
100
AcDbSpline
70
4
71
3
72
132
73
128
40
0
40
0
40
0
40
0
40
0.0626233596984571
40
0.0782791996230714
40
0.0802361796136482
40
0.0812146696089365
40
0.0817039146065808
40
0.0819485371054029
40
0.082070848354814
40
0.0821320039795194
40
0.0821320039795194
40
0.0821625817918722
40
0.0821625817918722
40
0.0821931596042249
40
0.0861071195853731
40
0.0939350395476695
40
0.125246719396855
40
0.187870079095226
40
0.203525919019818
40
0.211353838982115
40
0.213310818972689
40
0.213555441471511
40
0.213555441471511
40
0.213563085924599
40
0.213563085924599
40
0.213570730377687
40
0.213586019283863
40
0.213616597096216
40
0.213677752720921
40
0.213800063970332
40
0.214289308967975
40
0.215267798963262
40
0.219181758944409
40
0.250493438793586
40
0.266149278718175
40
0.27397719868047
40
0.277891158661617
40
0.278869648656904
40
0.279114271155726
40
0.279236582405136
40
0.279236582405136
40
0.279358893654547
40
0.279358893654547
40
0.279848138652191
40
0.281805118642764
40
0.313116798491942
40
0.344428478341119
40
0.344917723338763
40
0.344948301151116
40
0.344948301151116
40
0.344963590057292
40
0.344963590057292
40
0.344978878963468
40
0.345040034588174
40
0.345162345837585
40
0.345406968336408
40
0.346385458331697
40
0.348342438322277
40
0.352256398303435
40
0.360084318265752
40
0.375740158190386
40
0.438363517888923
40
0.469675197738191
40
0.47358915771935
40
0.475546137709929
40
0.476035382707574
40
0.476280005206396
40
0.476341160831102
40
0.476356449737278
40
0.476356449737278
40
0.476371738643455
40
0.476402316455807
40
0.476524627705218
40
0.477503117700506
40
0.485331037662809
40
0.500986877587415
40
0.563610237285839
40
0.594921917135051
40
0.602749837097355
40
0.606663797078506
40
0.607642287073794
40
0.6077034426985
40
0.6077034426985
40
0.607764598323205
40
0.607764598323205
40
0.607886909572616
40
0.608131532071438
40
0.608620777069082
40
0.610577757059657
40
0.62623359698426
40
0.688856956682671
40
0.720168636531877
40
0.73582447645648
40
0.737781456447055
40
0.738759946442343
40
0.739004568941165
40
0.739126880190576
40
0.739157458002929
40
0.739157458002929
40
0.739188035815281
40
0.739188035815281
40
0.739249191439987
40
0.739738436437631
40
0.743652396418784
40
0.75148031638109
40
0.814103676079539
40
0.845415355928764
40
0.861071195853376
40
0.868899115815682
40
0.869877605810971
40
0.870366850808615
40
0.870489162058026
40
0.870550317682731
40
0.870565606588908
40
0.870565606588908
40
0.870580895495084
40
0.870580895495084
40
0.870611473307437
40
0.870856095806259
40
0.872813075796837
40
0.876727035777994
40
0.939350395476505
40
0.970662075325761
40
0.986317915250388
40
0.994145835212702
40
0.998059795193859
40
1
40
1
40
1
40
1
41
1
10
-47.9999995574091
20
-23.3164928881711
30
0
41
1
10
-47.9999995574091
20
-23.1688347932484
30
0
41
1
10
-47.9999995574091
20
-22.8667217888914
30
0
41
1
10
-47.9999995574091
20
-22.4064573402428
30
0
41
1
10
-47.9999995574091
20
-22.291959369251
30
0
41
1
10
-47.9999995574091
20
-22.2706265881334
30
0
41
1
10
-47.9999995574091
20
-22.2598999351698
30
0
41
1
10
-47.9999995574091
20
-22.2545215430868
30
0
41
1
10
-47.9999995574091
20
-22.251828580645
30
0
41
1
10
-47.9999995574091
20
-22.2506736467985
30
0
41
1
10
-47.9999995574091
20
-22.2500960453609
30
0
41
1
10
-47.9999995574091
20
-22.249905401268
30
0
41
1
10
-47.9999995574091
20
-22.2494767478746
30
0
41
1
10
-47.9999995574091
20
-22.2218257800729
30
0
41
1
10
-47.9999995574091
20
-22.1382143627948
30
0
41
1
10
-47.9999995574091
20
-21.8205996740814
30
0
41
1
10
-47.9999995574091
20
-20.9766223576637
30
0
41
1
10
-47.9999995574091
20
-19.8267039603467
30
0
41
1
10
-47.9999995574091
20
-18.7653860983156
30
0
41
1
10
-47.9999995574091
20
-18.4378271585239
30
0
41
1
10
-47.9999995574091
20
-18.3063956779146
30
0
41
1
10
-47.9999995574091
20
-18.2774313827245
30
0
41
1
10
-47.9999995574091
20
-18.2741111124353
30
0
41
1
10
-47.9999995574091
20
-18.2739752993312
30
0
41
1
10
-47.9999995574091
20
-18.2737342065456
30
0
41
1
10
-47.9999995574091
20
-18.2733725642519
30
0
41
1
10
-47.9999995574091
20
-18.2725287104269
30
0
41
1
10
-47.9999995574091
20
-18.2708409155507
30
0
41
1
10
-47.9999995574091
20
-18.2674649768934
30
0
41
1
10
-47.9999995574091
20
-18.2568526908542
30
0
41
1
10
-47.9999995574091
20
-18.2317518265741
30
0
41
1
10
-47.9999995574091
20
-18.1466546957323
30
0
41
1
10
-47.9999995574091
20
-17.5710356343213
30
0
41
1
10
-47.9999995574091
20
-16.7302086628397
30
0
41
1
10
-47.9999995574091
20
-15.7789710386101
30
0
41
1
10
-47.9999995574091
20
-15.2919193127599
30
0
41
1
10
-47.9999995574091
20
-15.0631340850694
30
0
41
1
10
-47.9999995574091
20
-14.970293452617
30
0
41
1
10
-47.9999995574091
20
-14.9459488073311
30
0
41
1
10
-47.9999995574091
20
-14.9393069661264
30
0
41
1
10
-47.9999995574091
20
-14.9348785403255
30
0
41
1
10
-47.9999995574091
20
-14.9324985440754
30
0
41
1
10
-47.9999995574091
20
-14.9208646537371
30
0
41
1
10
-47.9999995574091
20
-14.874257192161
30
0
41
1
10
-47.9999995574091
20
-14.2261131070406
30
0
41
1
10
-47.9999995574091
20
-12.8571100121261
30
0
41
1
10
-47.9999995574091
20
-11.2817773282664
30
0
41
1
10
-47.9999995574091
20
-10.4264276959575
30
0
41
1
10
-47.9999995574091
20
-10.4124432165589
30
0
41
1
10
-47.9999995574091
20
-10.411209207648
30
0
41
1
10
-47.9999995574091
20
-10.4107935652089
30
0
41
1
10
-47.9999995574091
20
-10.4101185613937
30
0
41
1
10
-47.9999995574091
20
-10.4084310232058
30
0
41
1
10
-47.9999995574091
20
-10.4040430514688
30
0
41
1
10
-47.9999995574091
20
-10.394590110148
30
0
41
1
10
-47.9999995574091
20
-10.3648687642876
30
0
41
1
10
-47.9999995574091
20
-10.2945229636349
30
0
41
1
10
-47.9999995574091
20
-10.1425160618442
30
0
41
1
10
-47.9999995574091
20
-9.8365307797994
30
0
41
1
10
-47.9999995574091
20
-9.21667430185622
30
0
41
1
10
-47.9999995574091
20
-7.21898534124111
30
0
41
1
10
-47.9999995574091
20
-4.4661810825458
30
0
41
1
10
-47.9999995574091
20
-1.7830083128953
30
0
41
1
10
-47.9999995574091
20
-0.731295725452895
30
0
41
1
10
-47.9999995574091
20
-0.5504821904197
30
0
41
1
10
-47.9999995574091
20
-0.473822800242914
30
0
41
1
10
-47.9999995574091
20
-0.451159132943303
30
0
41
1
10
-47.9999995574091
20
-0.442004091482403
30
0
41
1
10
-47.9999995574091
20
-0.439824176456597
30
0
41
1
10
-47.9999995574091
20
-0.4389521989863
30
0
41
1
10
-47.9999995574091
20
-0.437838289842517
30
0
41
1
10
-47.9999995574091
20
-0.433753783304013
30
0
41
1
10
-47.9999995574091
20
-0.406276481000418
30
0
41
1
10
-47.9999995574091
20
-0.189444897354605
30
0
41
1
10
-47.9999995574091
20
0.404256633392691
30
0
41
1
10
-47.9999995574091
20
2.49072932588729
30
0
41
1
10
-47.9999995574091
20
5.13199949806099
30
0
41
1
10
-47.9999995574092
20
7.5687394988727
30
0
41
1
10
-47.9999995574091
20
8.5968707143079
30
0
41
1
10
-47.9999995574092
20
8.9003888174787
30
0
41
1
10
-47.9999995574091
20
9.01854554083289
30
0
41
1
10
-47.9999995574091
20
9.04334207126638
30
0
41
1
10
-47.9999995574091
20
9.04625929772419
30
0
41
1
10
-47.9999995574091
20
9.04775747922949
30
0
41
1
10
-47.9999995574091
20
9.05201275923778
30
0
41
1
10
-47.9999995574091
20
9.06052266979231
30
0
41
1
10
-47.9999995574091
20
9.08037458151759
30
0
41
1
10
-47.9999995574091
20
9.14273772774749
30
0
41
1
10
-47.9999995574091
20
9.5616308178999
30
0
41
1
10
-47.9999995574092
20
11.3978958718266
30
0
41
1
10
-47.9999995574092
20
13.781822686205
30
0
41
1
10
-47.9999995574091
20
16.016778467499
30
0
41
1
10
-47.9999995574091
20
16.981274121406
30
0
41
1
10
-47.9999995574092
20
17.34304399395
30
0
41
1
10
-47.9999995574092
20
17.4047905945447
30
0
41
1
10
-47.9999995574092
20
17.4308903427221
30
0
41
1
10
-47.9999995574091
20
17.4385995212043
30
0
41
1
10
-47.9999995574092
20
17.4415642515898
30
0
41
1
10
-47.9999995574091
20
17.4427501166831
30
0
41
1
10
-47.9999995574091
20
17.4433915691639
30
0
41
1
10
-47.9999995574091
20
17.4453076801682
30
0
41
1
10
-47.9999995574091
20
17.4568033621777
30
0
41
1
10
-47.9999995574092
20
17.5499742830299
30
0
41
1
10
-47.9999995574092
20
17.8036626530456
30
0
41
1
10
-47.9999995574092
20
19.3205612355797
30
0
41
1
10
-47.9999995574092
20
21.1867294897254
30
0
41
1
10
-47.9999995574092
20
22.8955027057166
30
0
41
1
10
-47.9999995574092
20
23.6746527031324
30
0
41
1
10
-47.9999995574092
20
24.0056936371171
30
0
41
1
10
-47.9999995574092
20
24.129096063235
30
0
41
1
10
-47.9999995574092
20
24.1501361478026
30
0
41
1
10
-47.9999995574092
20
24.159025695171
30
0
41
1
10
-47.9999995574092
20
24.1616510863299
30
0
41
1
10
-47.9999995574091
20
24.162660681324
30
0
41
1
10
-47.9999995574092
20
24.1630645056548
30
0
41
1
10
-47.9999995574092
20
24.1633401200592
30
0
41
1
10
-47.9999995574092
20
24.1641335752414
30
0
41
1
10
-47.9999995574091
20
24.1688937386392
30
0
41
1
10
-47.9999995574092
20
24.2074625110727
30
0
41
1
10
-47.9999995574092
20
24.3122220674765
30
0
41
1
10
-47.9999995574092
20
25.4584008093334
30
0
41
1
10
-47.9999995574092
20
26.6565790808279
30
0
41
1
10
-47.9999995574092
20
27.3040545243412
30
0
41
1
10
-47.9999995574092
20
27.4541711909577
30
0
41
1
10
-47.9999995574092
20
27.4858242604808
30
0
41
1
10
-47.9999995574092
20
27.4907933868028
30
0
41
1
10
-47.9999995574092
20
27.4906075181452
30
0
41
1
10
-47.9999995574092
20
27.4902919627402
30
0
0
SPLINE
5
E8
100
AcDbEntity
8
SK1
62
256
6
ByLayer
370
18
48
1
60
0
100
AcDbSpline
70
4
71
3
72
14
73
10
40
0
40
0
40
0
40
0
40
0.25
40
0.25
40
0.5
40
0.5
40
0.75
40
0.75
40
1
40
1
40
1
40
1
41
1
10
-46.5005626307186
20
-24.1282759538688
30
0
41
1
10
-46.63082974641
20
-24.0568503983093
30
0
41
1
10
-46.7599931630482
20
-23.9862329752589
30
0
41
1
10
-47.0158933480877
20
-23.8467117866506
30
0
41
1
10
-47.1426737654467
20
-23.7777843991327
30
0
41
1
10
-47.3933155405625
20
-23.6418863364918
30
0
41
1
10
-47.5171700094146
20
-23.5749193578253
30
0
41
1
10
-47.7614160405702
20
-23.4432067872413
30
0
41
1
10
-47.8817298771162
20
-23.3785030628749
30
0
41
1
10
-47.9999995574091
20
-23.3150612237384
30
0
0
SPLINE
5
E9
100
AcDbEntity
8
SK1
62
256
6
ByLayer
370
18
48
1
60
0
100
AcDbSpline
70
4
71
2
72
6
73
3
40
0
40
0
40
0
40
1
40
1
40
1
41
1
10
-46.5004734749283
20
28.4072557795359
30
0
41
1
10
-47.2502164896806
20
27.9487935493824
30
0
41
1
10
-47.9999995574092
20
27.4902195366882
30
0
0
SPLINE
5
EA
100
AcDbEntity
8
SK1
62
256
6
ByLayer
370
18
48
0.05
60
0
100
AcDbSpline
70
4
71
3
72
10
73
6
40
0
40
0
40
0
40
0
40
0.74418522440526
40
0.74418522440526
40
1
40
1
40
1
40
1
41
1
10
-1.3071063385957
20
28.5739427427917
30
0
41
1
10
-1.36889780603929
20
28.687944566481
30
0
41
1
10
-1.4265439165155
20
28.7915014525351
30
0
41
1
10
-1.49643244236668
20
28.9146066198588
30
0
41
1
10
-1.51364744836019
20
28.9446901585513
30
0
41
1
10
-1.5301196839805
20
28.9732807476192
30
0
0
SPLINE
5
EB
100
AcDbEntity
8
SK1
62
256
6
ByLayer
370
18
48
1
60
0
100
AcDbSpline
70
4
71
3
72
20
73
16
40
0
40
0
40
0
40
0
40
0.12473928240345
40
0.12473928240345
40
0.249776527774385
40
0.249776527774385
40
0.374813773145321
40
0.374813773145321
40
0.437332395830789
40
0.437332395830789
40
0.499851018516257
40
0.499851018516257
40
0.749925509258128
40
0.749925509258128
40
1
40
1
40
1
40
1
41
1
10
-1.73936370171859
20
29.3251501611263
30
0
41
1
10
-1.7393462077973
20
29.3251217756784
30
0
41
1
10
-1.73662527776688
20
29.3207051317509
30
0
41
1
10
-1.72590421729808
20
29.303233650672
30
0
41
1
10
-1.7179027840848
20
29.2901694762109
30
0
41
1
10
-1.6969219994815
20
29.255699720287
30
0
41
1
10
-1.6839677062128
20
29.2343191228962
30
0
41
1
10
-1.6611181674669
20
29.1962990996213
30
0
41
1
10
-1.652940814841
20
29.182642953922
30
0
41
1
10
-1.63551436428818
20
29.1534123320462
30
0
41
1
10
-1.62625359501638
20
29.1378196885938
30
0
41
1
10
-1.5775451463964
20
29.0554264703692
30
0
41
1
10
-1.5309742201479
20
28.9754433711102
30
0
41
1
10
-1.42667896300958
20
28.7917463782594
30
0
41
1
10
-1.36893119256658
20
28.6880061602495
30
0
41
1
10
-1.3071063385957
20
28.5739427427917
30
0
0
SPLINE
5
EC
100
AcDbEntity
8
SK1
62
256
6
ByLayer
370
18
48
1
60
0
100
AcDbSpline
70
4
71
3
72
23
73
19
40
0
40
0
40
0
40
0
40
0.0175380841361003
40
0.0931018753786126
40
0.168665666621125
40
0.244229457863637
40
0.319793249106149
40
0.395357040348662
40
0.470920831591174
40
0.546484622833686
40
0.622048414076199
40
0.697612205318711
40
0.773175996561223
40
0.848739787803735
40
0.924303579046248
40
0.99986737028876
40
0.99986737028876
40
1
40
1
40
1
40
1
41
1
10
-0.399999557409103
20
-18.9734784096283
30
0
41
1
10
-0.399999557409103
20
-19.0226442567587
30
0
41
1
10
-0.399999557409103
20
-19.2847943849991
30
0
41
1
10
-0.399999557409103
20
-19.7701750783904
30
0
41
1
10
-0.399999557409103
20
-20.4374364702591
30
0
41
1
10
-0.399999557409103
20
-21.1095445211968
30
0
41
1
10
-0.399999557409103
20
-21.7747524427542
30
0
41
1
10
-0.399999557409103
20
-22.4201074134845
30
0
41
1
10
-0.399999557409103
20
-23.0319791815503
30
0
41
1
10
-0.399999557409103
20
-23.5966238035203
30
0
41
1
10
-0.399999557409103
20
-24.1007363455479
30
0
41
1
10
-0.399999557409103
20
-24.5319977026091
30
0
41
1
10
-0.399999557409103
20
-24.8795737585671
30
0
41
1
10
-0.399999557409103
20
-25.1345275173333
30
0
41
1
10
-0.399999557409103
20
-25.2902479575143
30
0
41
1
10
-0.399999557409103
20
-25.3251551568268
30
0
41
1
10
-0.399999557409103
20
-25.3251356242674
30
0
41
1
10
-0.399999557409103
20
-25.3251256232674
30
0
41
1
10
-0.399999557409103
20
-25.3251156222675
30
0
0
SPLINE
5
ED
100
AcDbEntity
8
SK1
62
256
6
ByLayer
370
18
48
1
60
0
100
AcDbSpline
70
4
71
2
72
6
73
3
40
0
40
0
40
0
40
1
40
1
40
1
41
1
10
-1.9999995574091
20
-25.3251238426424
30
0
41
1
10
-1.19999955740909
20
-25.3251238426424
30
0
41
1
10
-0.399999557409103
20
-25.3251238426424
30
0
0
SPLINE
5
EE
100
AcDbEntity
8
SK1
62
256
6
ByLayer
370
18
48
1
60
0
100
AcDbSpline
70
4
71
1
72
4
73
2
40
0
40
0
40
1
40
1
41
1
10
-1.72551883179139
20
29.3251503267428
30
0
41
1
10
-1.99999955740918
20
29.3251503267428
30
0
0
SPLINE
5
EF
100
AcDbEntity
8
SK1
62
256
6
ByLayer
370
18
48
1
60
0
100
AcDbSpline
70
4
71
3
72
36
73
32
40
0
40
0
40
0
40
0
40
0.125000000000002
40
0.125000000000002
40
0.250000000000003
40
0.250000000000003
40
0.312500000000005
40
0.312500000000005
40
0.343750000000005
40
0.343750000000005
40
0.359375000000005
40
0.359375000000005
40
0.375000000000005
40
0.375000000000005
40
0.437500000000004
40
0.437500000000004
40
0.500000000000002
40
0.500000000000002
40
0.562500000000001
40
0.562500000000001
40
0.625
40
0.625
40
0.687499999999998
40
0.687499999999998
40
0.718749999999998
40
0.718749999999998
40
0.749999999999998
40
0.749999999999998
40
0.874999999999999
40
0.874999999999999
40
1
40
1
40
1
40
1
41
1
10
-1.3071063385957
20
-10.5450414397532
30
0
41
1
10
-1.36997000991059
20
-10.9038391342686
30
0
41
1
10
-1.42864532225119
20
-11.259863842354
30
0
41
1
10
-1.53462005603649
20
-11.9657804523843
30
0
41
1
10
-1.58191524517858
20
-12.3156725979867
30
0
41
1
10
-1.6413086154557
20
-12.835268051463
30
0
41
1
10
-1.6591842233687
20
-13.0075925315205
30
0
41
1
10
-1.68263568395608
20
-13.2646608537627
30
0
41
1
10
-1.68989912749839
20
-13.3501150755881
30
0
41
1
10
-1.6999049309805
20
-13.4779297723379
30
0
41
1
10
-1.70309120321198
20
-13.520473415714
30
0
41
1
10
-1.70915503943988
20
-13.6054356602599
30
0
41
1
10
-1.71203118154989
20
-13.6478377870526
30
0
41
1
10
-1.72558719479738
20
-13.8589756722886
30
0
41
1
10
-1.73384236688349
20
-14.0255250691267
30
0
41
1
10
-1.74483906755438
20
-14.3537431412952
30
0
41
1
10
-1.74761181975828
20
-14.5154290132148
30
0
41
1
10
-1.7475714521685
20
-14.8338975515658
30
0
41
1
10
-1.74478998732198
20
-14.9906976168484
30
0
41
1
10
-1.73379428803838
20
-15.2994874625212
30
0
41
1
10
-1.7256110497467
20
-15.4514942471675
30
0
41
1
10
-1.7041551903493
20
-15.7508864835221
30
0
41
1
10
-1.6909056304406
20
-15.8982845653418
30
0
41
1
10
-1.6675610450848
20
-16.1161003818414
30
0
41
1
10
-1.65919914793648
20
-16.1881576159989
30
0
41
1
10
-1.64139037308988
20
-16.3312159507271
30
0
41
1
10
-1.63194082366638
20
-16.4022366701778
30
0
41
1
10
-1.5822925303238
20
-16.7534410182191
30
0
41
1
10
-1.5348422181211
20
-17.0230923177293
30
0
41
1
10
-1.4286646631339
20
-17.5435722138133
30
0
41
1
10
-1.36993937972559
20
-17.7943994790913
30
0
41
1
10
-1.3071063385957
20
-18.0371406812477
30
0
0
SPLINE
5
F0
100
AcDbEntity
8
SK1
62
256
6
ByLayer
370
18
48
1
60
0
100
AcDbSpline
70
4
71
3
72
34
73
30
40
0
40
0
40
0
40
0
40
0.0355535279331219
40
0.073264548293179
40
0.110975568653236
40
0.148686589013293
40
0.18639760937335
40
0.224108629733407
40
0.261819650093464
40
0.299530670453522
40
0.337241690813579
40
0.374952711173636
40
0.412663731533693
40
0.45037475189375
40
0.488085772253807
40
0.525796792613864
40
0.563507812973922
40
0.601218833333979
40
0.638929853694036
40
0.676640874054093
40
0.71435189441415
40
0.752062914774207
40
0.789773935134264
40
0.827484955494321
40
0.865195975854378
40
0.902906996214435
40
0.940618016574493
40
0.97832903693455
40
1
40
1
40
1
40
1
41
1
10
-0.399999557409188
20
28.0528123392545
30
0
41
1
10
-0.399999557409188
20
27.926150749763
30
0
41
1
10
-0.399999557409188
20
27.6380249432942
30
0
41
1
10
-0.399999557409188
20
27.107064538102
30
0
41
1
10
-0.399999557409188
20
26.4565268889649
30
0
41
1
10
-0.399999557409188
20
25.6881755053583
30
0
41
1
10
-0.399999557409188
20
24.7954159459779
30
0
41
1
10
-0.399999557409188
20
23.7740391447229
30
0
41
1
10
-0.399999557409188
20
22.6225473843747
30
0
41
1
10
-0.399999557409188
20
21.3423944915753
30
0
41
1
10
-0.399999557409188
20
19.9381103161528
30
0
41
1
10
-0.399999557409188
20
18.4173186468644
30
0
41
1
10
-0.399999557409188
20
16.7906367827523
30
0
41
1
10
-0.399999557409188
20
15.0714631358818
30
0
41
1
10
-0.399999557409188
20
13.2756626241092
30
0
41
1
10
-0.399999557409188
20
11.4211509293825
30
0
41
1
10
-0.399999557409188
20
9.5274091093188
30
0
41
1
10
-0.399999557409188
20
7.61492255739398
30
0
41
1
10
-0.399999557409188
20
5.70459444772078
30
0
41
1
10
-0.399999557409188
20
3.81711985090348
30
0
41
1
10
-0.399999557409188
20
1.9723833887831
30
0
41
1
10
-0.399999557409188
20
0.188859275132103
30
0
41
1
10
-0.399999557409188
20
-1.51691852281959
30
0
41
1
10
-0.399999557409188
20
-3.13084311845691
30
0
41
1
10
-0.399999557409188
20
-4.64161372671612
30
0
41
1
10
-0.399999557409188
20
-6.0410387259204
30
0
41
1
10
-0.399999557409188
20
-7.32420949397331
30
0
41
1
10
-0.399999557409188
20
-8.32434794188822
30
0
41
1
10
-0.399999557409188
20
-8.88806958671711
30
0
41
1
10
-0.399999557409188
20
-9.08756195543091
30
0
0
SPLINE
5
F1
100
AcDbEntity
8
SK1
62
256
6
ByLayer
370
18
48
1
60
0
100
AcDbSpline
70
4
71
3
72
72
73
68
40
0
40
0
40
0
40
0
40
5.24502714186E-05
40
0.0156766307359276
40
0.0313008112004367
40
0.0469249916649458
40
0.0625491721294549
40
0.078173352593964
40
0.0937975330584731
40
0.109421713522982
40
0.125045893987491
40
0.140670074452
40
0.156294254916509
40
0.171918435381019
40
0.187542615845528
40
0.203166796310037
40
0.218790976774546
40
0.234415157239055
40
0.250039337703564
40
0.265663518168073
40
0.281287698632582
40
0.296911879097091
40
0.3125360595616
40
0.328160240026109
40
0.343784420490618
40
0.359408600955128
40
0.375032781419637
40
0.390656961884146
40
0.406281142348655
40
0.421905322813164
40
0.437529503277673
40
0.453153683742182
40
0.468777864206691
40
0.4844020446712
40
0.500026225135709
40
0.515650405600218
40
0.531274586064727
40
0.546898766529237
40
0.562522946993746
40
0.578147127458255
40
0.593771307922764
40
0.609395488387273
40
0.625019668851782
40
0.640643849316291
40
0.6562680297808
40
0.671892210245309
40
0.687516390709818
40
0.703140571174327
40
0.718764751638836
40
0.734388932103346
40
0.750013112567855
40
0.765637293032364
40
0.781261473496873
40
0.796885653961382
40
0.812509834425891
40
0.8281340148904
40
0.843758195354909
40
0.859382375819418
40
0.875006556283927
40
0.890630736748436
40
0.906254917212945
40
0.921879097677455
40
0.937503278141964
40
0.953127458606473
40
0.968751639070982
40
0.984375819535491
40
1
40
1
40
1
40
1
41
1
10
-1.99999955740918
20
29.3251475266236
30
0
41
1
10
-1.99999955740918
20
29.3251575276236
30
0
41
1
10
-1.99999955740918
20
29.3251753301171
30
0
41
1
10
-1.99999955740918
20
29.3161532030105
30
0
41
1
10
-1.99999955740918
20
29.2744493997855
30
0
41
1
10
-1.99999955740918
20
29.2009158882322
30
0
41
1
10
-1.99999955740918
20
29.0897077931296
30
0
41
1
10
-1.99999955740918
20
28.9330129032023
30
0
41
1
10
-1.99999955740918
20
28.7214110272463
30
0
41
1
10
-1.99999955740918
20
28.4443064041202
30
0
41
1
10
-1.99999955740918
20
28.0904253985028
30
0
41
1
10
-1.99999955740918
20
27.6483474229814
30
0
41
1
10
-1.99999955740918
20
27.107064538102
30
0
41
1
10
-1.99999955740918
20
26.4565268889649
30
0
41
1
10
-1.99999955740918
20
25.6881755053583
30
0
41
1
10
-1.99999955740918
20
24.7954159459779
30
0
41
1
10
-1.99999955740918
20
23.7740391447229
30
0
41
1
10
-1.99999955740918
20
22.6225473843747
30
0
41
1
10
-1.99999955740918
20
21.3423944915753
30
0
41
1
10
-1.99999955740918
20
19.9381103161528
30
0
41
1
10
-1.99999955740918
20
18.4173186468644
30
0
41
1
10
-1.99999955740918
20
16.7906367827523
30
0
41
1
10
-1.99999955740918
20
15.0714631358818
30
0
41
1
10
-1.99999955740918
20
13.2756626241092
30
0
41
1
10
-1.99999955740918
20
11.4211509293825
30
0
41
1
10
-1.99999955740918
20
9.5274091093188
30
0
41
1
10
-1.99999955740918
20
7.61492255739398
30
0
41
1
10
-1.99999955740918
20
5.70459444772078
30
0
41
1
10
-1.99999955740918
20
3.81711985090348
30
0
41
1
10
-1.99999955740918
20
1.9723833887831
30
0
41
1
10
-1.99999955740918
20
0.188859275132103
30
0
41
1
10
-1.9999995574091
20
-1.51691852281959
30
0
41
1
10
-1.9999995574091
20
-3.13084311845691
30
0
41
1
10
-1.9999995574091
20
-4.64161372671612
30
0
41
1
10
-1.9999995574091
20
-6.0410387259204
30
0
41
1
10
-1.9999995574091
20
-7.32420949397331
30
0
41
1
10
-1.9999995574091
20
-8.4895738323398
30
0
41
1
10
-1.9999995574091
20
-9.53887994759771
30
0
41
1
10
-1.9999995574091
20
-10.4770134091437
30
0
41
1
10
-1.9999995574091
20
-11.3117173735443
30
0
41
1
10
-1.9999995574091
20
-12.0532180881354
30
0
41
1
10
-1.9999995574091
20
-12.713765736173
30
0
41
1
10
-1.9999995574091
20
-13.3071034925215
30
0
41
1
10
-1.9999995574091
20
-13.8478977288044
30
0
41
1
10
-1.9999995574091
20
-14.3511319190876
30
0
41
1
10
-1.9999995574091
20
-14.8315134219337
30
0
41
1
10
-1.9999995574091
20
-15.3028852617529
30
0
41
1
10
-1.9999995574091
20
-15.7776977442842
30
0
41
1
10
-1.9999995574091
20
-16.2665259393844
30
0
41
1
10
-1.9999995574091
20
-16.7776701199741
30
0
41
1
10
-1.9999995574091
20
-17.3168557961074
30
0
41
1
10
-1.9999995574091
20
-17.8870324205284
30
0
41
1
10
-1.9999995574091
20
-18.4882717151866
30
0
41
1
10
-1.9999995574091
20
-19.11780984977
30
0
41
1
10
-1.9999995574091
20
-19.7701750783904
30
0
41
1
10
-1.9999995574091
20
-20.4374364702591
30
0
41
1
10
-1.9999995574091
20
-21.1095445211968
30
0
41
1
10
-1.9999995574091
20
-21.7747524427542
30
0
41
1
10
-1.9999995574091
20
-22.4201074134845
30
0
41
1
10
-1.9999995574091
20
-23.0319791815503
30
0
41
1
10
-1.9999995574091
20
-23.5966238035202
30
0
41
1
10
-1.9999995574091
20
-24.1007363455478
30
0
41
1
10
-1.9999995574091
20
-24.5319977026091
30
0
41
1
10
-1.9999995574091
20
-24.8795737585671
30
0
41
1
10
-1.9999995574091
20
-25.1345275173332
30
0
41
1
10
-1.9999995574091
20
-25.2902479575143
30
0
41
1
10
-1.9999995574091
20
-25.3251419999826
30
0
41
1
10
-1.9999995574091
20
-25.3251237599676
30
0
0
SPLINE
5
F2
100
AcDbEntity
8
SK1
62
256
6
ByLayer
370
18
48
1
60
0
100
AcDbSpline
70
4
71
3
72
8
73
4
40
0
40
0
40
0
40
0
40
1
40
1
40
1
40
1
41
1
10
-46.5004727253049
20
-24.1266870601416
30
0
41
1
10
-44.2503476909092
20
-24.1775592547406
30
0
41
1
10
-42.0001889543651
20
-24.2285468230935
30
0
41
1
10
-39.7499995574091
20
-24.2796491082653
30
0
0
SPLINE
5
F3
100
AcDbEntity
8
SK1
62
256
6
ByLayer
370
18
48
1
60
0
100
AcDbSpline
70
4
71
3
72
70
73
66
40
0
40
0
40
0
40
0
40
0.00144291368485
40
0.0176468282137266
40
0.0338507427426033
40
0.0500546572714799
40
0.0662585718003566
40
0.0824624863292331
40
0.0986664008581099
40
0.114870315386987
40
0.131074229915863
40
0.14727814444474
40
0.163482058973617
40
0.179685973502493
40
0.19588988803137
40
0.212093802560247
40
0.228297717089123
40
0.244501631618
40
0.260705546146876
40
0.276909460675753
40
0.29311337520463
40
0.309317289733506
40
0.325521204262383
40
0.34172511879126
40
0.357929033320136
40
0.374132947849013
40
0.39033686237789
40
0.406540776906766
40
0.422744691435643
40
0.43894860596452
40
0.455152520493396
40
0.471356435022273
40
0.487560349551149
40
0.503764264080026
40
0.519968178608903
40
0.536172093137779
40
0.552376007666656
40
0.568579922195533
40
0.584783836724409
40
0.600987751253286
40
0.617191665782162
40
0.633395580311039
40
0.649599494839916
40
0.665803409368793
40
0.682007323897669
40
0.698211238426546
40
0.714415152955423
40
0.730619067484299
40
0.746822982013176
40
0.763026896542052
40
0.779230811070929
40
0.795434725599806
40
0.811638640128682
40
0.827842554657559
40
0.844046469186436
40
0.860250383715312
40
0.876454298244189
40
0.892658212773066
40
0.908862127301942
40
0.925066041830819
40
0.941269956359696
40
0.957473870888572
40
0.973677785417449
40
0.989881699946325
40
1
40
1
40
1
40
1
41
1
10
-46.500472725305
20
28.4070114962023
30
0
41
1
10
-46.500472725305
20
28.4070814461593
30
0
41
1
10
-46.500472725305
20
28.4075082975841
30
0
41
1
10
-46.500472725305
20
28.3983107234781
30
0
41
1
10
-46.500472725305
20
28.3575202031223
30
0
41
1
10
-46.500472725305
20
28.2856789890413
30
0
41
1
10
-46.500472725305
20
28.1771905556832
30
0
41
1
10
-46.500472725305
20
28.0245758706523
30
0
41
1
10
-46.500472725305
20
27.8188181678179
30
0
41
1
10
-46.500472725305
20
27.5497770717706
30
0
41
1
10
-46.500472725305
20
27.2066649682833
30
0
41
1
10
-46.500472725305
20
26.7785552491137
30
0
41
1
10
-46.500472725305
20
26.2549179718636
30
0
41
1
10
-46.500472725305
20
25.6261420521732
30
0
41
1
10
-46.500472725305
20
24.8840453932208
30
0
41
1
10
-46.500472725305
20
24.0223283722968
30
0
41
1
10
-46.500472725305
20
23.0369768354779
30
0
41
1
10
-46.500472725305
20
21.9265741733253
30
0
41
1
10
-46.500472725305
20
20.6925313493965
30
0
41
1
10
-46.500472725305
20
19.3392060051377
30
0
41
1
10
-46.500472725305
20
17.873919638994
30
0
41
1
10
-46.500472725305
20
16.3068613162204
30
0
41
1
10
-46.500472725305
20
14.650884298728
30
0
41
1
10
-46.500472725305
20
12.9212046357896
30
0
41
1
10
-46.500472725305
20
11.1350030697022
30
0
41
1
10
-46.500472725305
20
9.3109600674577
30
0
41
1
10
-46.500472725305
20
7.46871859155058
30
0
41
1
10
-46.500472725305
20
5.62832223831518
30
0
41
1
10
-46.500472725305
20
3.8096159240522
30
0
41
1
10
-46.500472725305
20
2.03166889010808
30
0
41
1
10
-46.500472725305
20
0.31220023617189
30
0
41
1
10
-46.500472725305
20
-1.33292867819341
30
0
41
1
10
-46.500472725305
20
-2.89018014291492
30
0
41
1
10
-46.500472725305
20
-4.3487037639708
30
0
41
1
10
-46.500472725305
20
-5.70062596282122
30
0
41
1
10
-46.500472725305
20
-6.94121643544861
30
0
41
1
10
-46.500472725305
20
-8.06895949473062
30
0
41
1
10
-46.500472725305
20
-9.0854993607073
30
0
41
1
10
-46.5004727253049
20
-9.99548400822661
30
0
41
1
10
-46.5004727253049
20
-10.8062982597291
30
0
41
1
10
-46.5004727253049
20
-11.527704610216
30
0
41
1
10
-46.5004727253049
20
-12.1714046620441
30
0
41
1
10
-46.5004727253049
20
-12.75053149267
30
0
41
1
10
-46.5004727253049
20
-13.2791053940149
30
0
41
1
10
-46.5004727253049
20
-13.7714541778666
30
0
41
1
10
-46.5004727253049
20
-14.2416446177608
30
0
41
1
10
-46.5004727253049
20
-14.7029173552915
30
0
41
1
10
-46.5004727253049
20
-15.1671785654237
30
0
41
1
10
-46.5004727253049
20
-15.6445332976738
30
0
41
1
10
-46.5004727253049
20
-16.1429122418438
30
0
41
1
10
-46.5004727253049
20
-16.6677718637657
30
0
41
1
10
-46.5004727253049
20
-17.2219102223069
30
0
41
1
10
-46.5004727253049
20
-17.8053765132163
30
0
41
1
10
-46.5004727253049
20
-18.4155008791881
30
0
41
1
10
-46.5004727253049
20
-19.0470238872449
30
0
41
1
10
-46.5004727253049
20
-19.69233260517
30
0
41
1
10
-46.5004727253049
20
-20.3417869996076
30
0
41
1
10
-46.5004727253049
20
-20.9841231986838
30
0
41
1
10
-46.5004727253049
20
-21.6069239149936
30
0
41
1
10
-46.5004727253049
20
-22.1971245460467
30
0
41
1
10
-46.5004727253049
20
-22.7415530405651
30
0
41
1
10
-46.5004727253049
20
-23.227459143555
30
0
41
1
10
-46.5004727253049
20
-23.6430379404617
30
0
41
1
10
-46.5004727253049
20
-23.9359865131817
30
0
41
1
10
-46.5004727253049
20
-24.0780499388085
30
0
41
1
10
-46.5004727253049
20
-24.1266008171678
30
0
0
SPLINE
5
F4
100
AcDbEntity
8
SK1
62
256
6
ByLayer
370
18
48
1
60
0
100
AcDbSpline
70
4
71
3
72
8
73
4
40
0
40
0
40
0
40
0
40
1
40
1
40
1
40
1
41
1
10
-39.7499995574091
20
-24.279648637589
30
0
41
1
10
-42.0001889542976
20
-24.2285463598413
30
0
41
1
10
-44.2503476908347
20
-24.1775588002501
30
0
41
1
10
-46.5004727253049
20
-24.1266866160622
30
0
0
SPLINE
5
F5
100
AcDbEntity
8
SK1
62
256
6
ByLayer
370
18
48
1
60
0
100
AcDbSpline
70
4
71
3
72
31
73
27
40
0
40
0
40
0
40
0
40
0.0282976081593798
40
0.0282976081593798
40
0.0439702273826153
40
0.0439702273826153
40
0.0596428466058508
40
0.122333323498793
40
0.122333323498793
40
0.247714277284677
40
0.247714277284677
40
0.310404754177619
40
0.310404754177619
40
0.341749992624091
40
0.341749992624091
40
0.373095231070563
40
0.373095231070563
40
0.49847618485645
40
0.49847618485645
40
0.623857138642338
40
0.623857138642338
40
0.749238092428225
40
0.749238092428225
40
0.874619046214113
40
0.874619046214113
40
1
40
1
40
1
40
1
41
1
10
-37.3120401690066
20
-24.6379600666286
30
0
41
1
10
-37.3120178879958
20
-24.6379627793657
30
0
41
1
10
-37.3130758585362
20
-24.6378353145723
30
0
41
1
10
-37.3164267532025
20
-24.6374313640037
30
0
41
1
10
-37.3179612143064
20
-24.6372463510501
30
0
41
1
10
-37.3216885473649
20
-24.6367967127528
30
0
41
1
10
-37.3326491686944
20
-24.6354738749526
30
0
41
1
10
-37.3516578987163
20
-24.6331756112007
30
0
41
1
10
-37.4113562333612
20
-24.6259116392674
30
0
41
1
10
-37.469908840587
20
-24.6187432754167
30
0
41
1
10
-37.5802451119348
20
-24.6049125114308
30
0
41
1
10
-37.6207770804117
20
-24.5997879448497
30
0
41
1
10
-37.6865511502342
20
-24.5913698094259
30
0
41
1
10
-37.7093074224807
20
-24.5884415849649
30
0
41
1
10
-37.7563704631071
20
-24.582347958179
30
0
41
1
10
-37.7805731760895
20
-24.5791960188752
30
0
41
1
10
-37.9046518069254
20
-24.562932900819
30
0
41
1
10
-38.0136242873204
20
-24.5483205717976
30
0
41
1
10
-38.2452799121136
20
-24.516316324841
30
0
41
1
10
-38.3679942066713
20
-24.4989209976189
30
0
41
1
10
-38.6234347935845
20
-24.4615907055443
30
0
41
1
10
-38.7561796071588
20
-24.4416539670447
30
0
41
1
10
-39.0291726828388
20
-24.3993823666802
30
0
41
1
10
-39.1694326783869
20
-24.3770453096811
30
0
41
1
10
-39.4557066694399
20
-24.3300627244049
30
0
41
1
10
-39.6017271220754
20
-24.3054175851847
30
0
41
1
10
-39.7499995574091
20
-24.2796488729271
30
0
0
SPLINE
5
F6
100
AcDbEntity
8
SK1
62
256
6
ByLayer
370
18
48
1
60
0
100
AcDbSpline
70
4
71
3
72
95
73
91
40
0
40
0
40
0
40
0
40
0.0312430628521962
40
0.0312430628521962
40
0.0624861257043924
40
0.0937291885565886
40
0.0937291885565886
40
0.101539954269638
40
0.101539954269638
40
0.109350719982687
40
0.124972251408785
40
0.124972251408785
40
0.156215314260981
40
0.187458377113177
40
0.187458377113177
40
0.195269142826226
40
0.195269142826226
40
0.203079908539274
40
0.218701439965372
40
0.218701439965372
40
0.249944502817567
40
0.281187565669761
40
0.281187565669761
40
0.28899833138281
40
0.28899833138281
40
0.296809097095859
40
0.296809097095859
40
0.312430628521956
40
0.312430628521956
40
0.34367369137415
40
0.34367369137415
40
0.374916754226344
40
0.374916754226344
40
0.390538285652441
40
0.39834905136549
40
0.39834905136549
40
0.406159817078538
40
0.406159817078538
40
0.437402879930733
40
0.437402879930733
40
0.468645942782927
40
0.499889005635122
40
0.499889005635122
40
0.515510537061219
40
0.515510537061219
40
0.531132068487317
40
0.531132068487317
40
0.562375131339511
40
0.593618194191706
40
0.593618194191706
40
0.6248612570439
40
0.6248612570439
40
0.632672022756949
40
0.632672022756949
40
0.640482788469997
40
0.656104319896093
40
0.656104319896093
40
0.687347382748285
40
0.687347382748285
40
0.718590445600477
40
0.718590445600477
40
0.734211977026572
40
0.734211977026572
40
0.74202274273962
40
0.74202274273962
40
0.749833508452668
40
0.749833508452668
40
0.78107657130486
40
0.812319634157052
40
0.812319634157052
40
0.843562697009243
40
0.843562697009243
40
0.851373462722291
40
0.851373462722291
40
0.859184228435339
40
0.859184228435339
40
0.874805759861435
40
0.874805759861435
40
0.906048822713627
40
0.937291885565819
40
0.937291885565819
40
0.952913416991915
40
0.952913416991915
40
0.960724182704963
40
0.960724182704963
40
0.968534948418011
40
0.968534948418011
40
0.999778011270203
40
0.999778011270203
40
1
40
1
40
1
40
1
41
1
10
-29.9499959375476
20
-24.8229194359514
30
0
41
1
10
-29.9500133503666
20
-24.8229261105733
30
0
41
1
10
-29.9412009174764
20
-24.8221954139861
30
0
41
1
10
-29.9066622594867
20
-24.8193800301671
30
0
41
1
10
-29.8551706943862
20
-24.8151995495034
30
0
41
1
10
-29.7699970009103
20
-24.8084685251986
30
0
41
1
10
-29.7059788738073
20
-24.8035284776389
30
0
41
1
10
-29.6926607707557
20
-24.8025058758685
30
0
41
1
10
-29.6650926136194
20
-24.8004013229851
30
0
41
1
10
-29.6223033968848
20
-24.7971525525779
30
0
41
1
10
-29.5752645227237
20
-24.7936435000796
30
0
41
1
10
-29.4756334921272
20
-24.7863192204306
30
0
41
1
10
-29.3280097269432
20
-24.7757356552172
30
0
41
1
10
-29.1513337276367
20
-24.7639616415905
30
0
41
1
10
-29.0317175966125
20
-24.7563772681739
30
0
41
1
10
-29.0073038381238
20
-24.7548473163942
30
0
41
1
10
-28.9576941328272
20
-24.7517778081832
30
0
41
1
10
-28.8821974793213
20
-24.7471646769074
30
0
41
1
10
-28.8035063845337
20
-24.7425434578934
30
0
41
1
10
-28.6419640416728
20
-24.7333378609348
30
0
41
1
10
-28.4155041547765
20
-24.7211644983396
30
0
41
1
10
-28.1674352339724
20
-24.7096910834424
30
0
41
1
10
-28.0056074270543
20
-24.7028988820329
30
0
41
1
10
-27.9729018602383
20
-24.7015594042027
30
0
41
1
10
-27.9068068070747
20
-24.6989225121314
30
0
41
1
10
-27.8733879001874
20
-24.6976239916903
30
0
41
1
10
-27.7722977891749
20
-24.6938053861367
30
0
41
1
10
-27.704055854303
20
-24.6913719340445
30
0
41
1
10
-27.4968498580556
20
-24.6844441339827
30
0
41
1
10
-27.3554114482565
20
-24.6803223823567
30
0
41
1
10
-27.066127174495
20
-24.6732579833897
30
0
41
1
10
-26.9182808262353
20
-24.6703151365594
30
0
41
1
10
-26.691713540107
20
-24.6669237486999
30
0
41
1
10
-26.5772285663703
20
-24.6654837932211
30
0
41
1
10
-26.4609236252752
20
-24.6644541574517
30
0
41
1
10
-26.382979474909
20
-24.6638619488756
30
0
41
1
10
-26.3437552232107
20
-24.6636127650721
30
0
41
1
10
-26.1474441711436
20
-24.6626137651393
30
0
41
1
10
-25.9895217978759
20
-24.6626006375469
30
0
41
1
10
-25.6719951876561
20
-24.6641991644102
30
0
41
1
10
-25.3527862179239
20
-24.6674226204788
30
0
41
1
10
-25.030246424504
20
-24.6739957101323
30
0
41
1
10
-24.7870705590401
20
-24.6802191725668
30
0
41
1
10
-24.7057826687814
20
-24.6825097988575
30
0
41
1
10
-24.5428432489674
20
-24.6875265734348
30
0
41
1
10
-24.4617844882821
20
-24.6902343683372
30
0
41
1
10
-24.219816562694
20
-24.6989370906696
30
0
41
1
10
-23.9004092552451
20
-24.712084841231
30
0
41
1
10
-23.587309760956
20
-24.7281216302617
30
0
41
1
10
-23.2773861468449
20
-24.7455006977725
30
0
41
1
10
-23.1240119395386
20
-24.7548615258922
30
0
41
1
10
-22.9343480903579
20
-24.7673339042108
30
0
41
1
10
-22.8964691535036
20
-24.7698702990138
30
0
41
1
10
-22.8211878133158
20
-24.775000004339
30
0
41
1
10
-22.7090309114166
20
-24.782776115182
30
0
41
1
10
-22.5991464918151
20
-24.790781562257
30
0
41
1
10
-22.3823703745287
20
-24.8070578409779
30
0
41
1
10
-22.2418363602709
20
-24.8182625918993
30
0
41
1
10
-21.9687068622527
20
-24.8411649786301
30
0
41
1
10
-21.8361108832265
20
-24.8528630102516
30
0
41
1
10
-21.6433202838208
20
-24.8706134397823
30
0
41
1
10
-21.5800757956771
20
-24.8765640535811
30
0
41
1
10
-21.486774153485
20
-24.8855185794528
30
0
41
1
10
-21.4559345853928
20
-24.8885081781254
30
0
41
1
10
-21.3947851596466
20
-24.8944930551009
30
0
41
1
10
-21.3644431808475
20
-24.8974915971036
30
0
41
1
10
-21.2148881875619
20
-24.9124078678724
30
0
41
1
10
-20.9882778823949
20
-24.9358842535306
30
0
41
1
10
-20.7865757206803
20
-24.9580999462663
30
0
41
1
10
-20.597475538014
20
-24.9794343401517
30
0
41
1
10
-20.5092247078423
20
-24.9896614181626
30
0
41
1
10
-20.4071247765578
20
-25.0017244436316
30
0
41
1
10
-20.3871165240976
20
-25.0041009303676
30
0
41
1
10
-20.347936402183
20
-25.0087770499704
30
0
41
1
10
-20.3287456564856
20
-25.0110789592904
30
0
41
1
10
-20.2725778058911
20
-25.0178468434572
30
0
41
1
10
-20.2371845979115
20
-25.0221530994253
30
0
41
1
10
-20.1370654476563
20
-25.0344281227108
30
0
41
1
10
-20.0197075725053
20
-25.0490770794756
30
0
41
1
10
-19.9343495254247
20
-25.0599912142783
30
0
41
1
10
-19.8825987683749
20
-25.0666500451933
30
0
41
1
10
-19.8673969819493
20
-25.0686150335719
30
0
41
1
10
-19.8477375681165
20
-25.0711629765912
30
0
41
1
10
-19.8417085796322
20
-25.0719456861852
30
0
41
1
10
-19.8307141058117
20
-25.0733747633459
30
0
41
1
10
-19.825747682751
20
-25.0740212550727
30
0
41
1
10
-19.803741005964
20
-25.0768886691743
30
0
41
1
10
-19.7950051968141
20
-25.0780346842888
30
0
41
1
10
-19.7948799846923
20
-25.0780510209219
30
0
41
1
10
-19.7948700677231
20
-25.0780523146468
30
0
41
1
10
-19.7948601434071
20
-25.0780535507529
30
0
0
SPLINE
5
F7
100
AcDbEntity
8
SK1
62
256
6
ByLayer
370
18
48
1
60
0
100
AcDbSpline
70
4
71
1
72
4
73
2
40
0
40
0
40
1
40
1
41
1
10
-37.3296985338168
20
-24.6375164610162
30
0
41
1
10
-29.9499957376509
20
-24.8229202653435
30
0
0
SPLINE
5
F8
100
AcDbEntity
8
SK1
62
256
6
ByLayer
370
18
48
1
60
0
100
AcDbSpline
70
4
71
1
72
4
73
2
40
0
40
0
40
1
40
1
41
1
10
-19.8073278792284
20
-25.0777393629304
30
0
41
1
10
-2.9999995574091
20
-25.499997914191
30
0
0
SPLINE
5
F9
100
AcDbEntity
8
SK1
62
256
6
ByLayer
370
18
48
1
60
0
100
AcDbSpline
70
4
71
2
72
6
73
3
40
0
40
0
40
0
40
1
40
1
40
1
41
1
10
-2.99999955740918
20
29.4999996380713
30
0
41
1
10
-24.7502361413571
20
28.9535579888613
30
0
41
1
10
-46.500472725305
20
28.4071163396513
30
0
0
SPLINE
5
FA
100
AcDbEntity
8
SK1
62
256
6
ByLayer
370
18
48
1
60
0
100
AcDbSpline
70
4
71
3
72
71
73
67
40
0
40
0
40
0
40
0
40
0.0156254938809898
40
0.0312509877619796
40
0.0468764816429695
40
0.0625019755239593
40
0.0781274694049491
40
0.0937529632859389
40
0.109378457166929
40
0.125003951047919
40
0.140629444928908
40
0.156254938809898
40
0.171880432690888
40
0.187505926571878
40
0.203131420452868
40
0.218756914333857
40
0.234382408214847
40
0.250007902095837
40
0.265633395976827
40
0.281258889857817
40
0.296884383738807
40
0.312509877619796
40
0.328135371500786
40
0.343760865381776
40
0.359386359262766
40
0.375011853143756
40
0.390637347024746
40
0.406262840905735
40
0.421888334786725
40
0.437513828667715
40
0.453139322548705
40
0.468764816429695
40
0.484390310310685
40
0.500015804191674
40
0.515641298072664
40
0.531266791953654
40
0.546892285834644
40
0.562517779715634
40
0.578143273596623
40
0.593768767477613
40
0.609394261358603
40
0.625019755239593
40
0.640645249120583
40
0.656270743001573
40
0.671896236882562
40
0.687521730763552
40
0.703147224644542
40
0.718772718525532
40
0.734398212406522
40
0.750023706287511
40
0.765649200168501
40
0.781274694049491
40
0.796900187930481
40
0.812525681811471
40
0.828151175692461
40
0.84377666957345
40
0.85940216345444
40
0.87502765733543
40
0.89065315121642
40
0.90627864509741
40
0.9219041389784
40
0.937529632859389
40
0.953155126740379
40
0.968780620621369
40
0.984406114502359
40
1
40
1
40
1
40
1
41
1
10
-2.9999995574091
20
-25.4999933973978
30
0
41
1
10
-2.9999995574091
20
-25.5000092268681
30
0
41
1
10
-2.9999995574091
20
-25.4649909790725
30
0
41
1
10
-2.9999995574091
20
-25.3087911082455
30
0
41
1
10
-2.9999995574091
20
-25.0530284095901
30
0
41
1
10
-2.9999995574091
20
-24.7042991075565
30
0
41
1
10
-2.9999995574091
20
-24.2715211922664
30
0
41
1
10
-2.9999995574091
20
-23.7655054093535
30
0
41
1
10
-2.9999995574091
20
-23.1985452308361
30
0
41
1
10
-2.9999995574091
20
-22.5839185929726
30
0
41
1
10
-2.9999995574091
20
-21.9353426847406
30
0
41
1
10
-2.9999995574091
20
-21.2664227994606
30
0
41
1
10
-2.9999995574091
20
-20.5900901256263
30
0
41
1
10
-2.9999995574091
20
-19.9180747010162
30
0
41
1
10
-2.9999995574091
20
-19.2604155208103
30
0
41
1
10
-2.9999995574091
20
-18.6250405855672
30
0
41
1
10
-2.9999995574091
20
-18.017426994832
30
0
41
1
10
-2.9999995574091
20
-17.44035510046
30
0
41
1
10
-2.9999995574091
20
-16.8937736706901
30
0
41
1
10
-2.9999995574091
20
-16.3747688463635
30
0
41
1
10
-2.9999995574091
20
-15.8776583406909
30
0
41
1
10
-2.9999995574091
20
-15.3941832448327
30
0
41
1
10
-2.9999995574091
20
-14.9138203023183
30
0
41
1
10
-2.9999995574091
20
-14.4241705899618
30
0
41
1
10
-2.9999995574091
20
-13.9114454897955
30
0
41
1
10
-2.9999995574091
20
-13.360996061664
30
0
41
1
10
-2.9999995574091
20
-12.7579015238473
30
0
41
1
10
-2.9999995574091
20
-12.0875613414899
30
0
41
1
10
-2.9999995574091
20
-11.3362989124037
30
0
41
1
10
-2.9999995574091
20
-10.4919283524408
30
0
41
1
10
-2.9999995574091
20
-9.54428313658562
30
0
41
1
10
-2.9999995574091
20
-8.4856728145929
30
0
41
1
10
-2.9999995574091
20
-7.31125705081521
30
0
41
1
10
-2.9999995574091
20
-6.01932357762331
30
0
41
1
10
-2.9999995574091
20
-4.61145081027351
30
0
41
1
10
-2.9999995574091
20
-3.0925648208524
30
0
41
1
10
-2.9999995574091
20
-1.4708650433345
30
0
41
1
10
-2.9999995574091
20
0.24234907452248
30
0
41
1
10
-2.9999995574091
20
2.03297955181409
30
0
41
1
10
-2.9999995574091
20
3.8845085917315
30
0
41
1
10
-2.9999995574091
20
5.778483773022
30
0
41
1
10
-2.9999995574091
20
7.69504665589599
30
0
41
1
10
-2.9999995574091
20
9.61353102357458
30
0
41
1
10
-2.9999995574091
20
11.5130637566853
30
0
41
1
10
-2.9999995574091
20
13.3731889503026
30
0
41
1
10
-2.9999995574091
20
15.1744530287834
30
0
41
1
10
-2.9999995574091
20
16.8989642086926
30
0
41
1
10
-2.9999995574091
20
18.5308767102833
30
0
41
1
10
-2.9999995574091
20
20.056805327342
30
0
41
1
10
-2.9999995574091
20
21.4661393105894
30
0
41
1
10
-2.9999995574091
20
22.7512541544986
30
0
41
1
10
-2.9999995574091
20
23.907611872544
30
0
41
1
10
-2.9999995574091
20
24.9337431071175
30
0
41
1
10
-2.9999995574091
20
25.8311230953687
30
0
41
1
10
-2.99999955740918
20
26.6039321207466
30
0
41
1
10
-2.99999955740918
20
27.2587305217569
30
0
41
1
10
-2.99999955740918
20
27.804039018974
30
0
41
1
10
-2.99999955740918
20
28.2498664605009
30
0
41
1
10
-2.99999955740918
20
28.6071785802801
30
0
41
1
10
-2.99999955740918
20
28.8873541944871
30
0
41
1
10
-2.99999955740918
20
29.101627372884
30
0
41
1
10
-2.99999955740918
20
29.2605581598298
30
0
41
1
10
-2.99999955740918
20
29.3735364887803
30
0
41
1
10
-2.99999955740918
20
29.4483509189036
30
0
41
1
10
-2.99999955740918
20
29.4908009502298
30
0
41
1
10
-2.99999955740918
20
29.4999809692245
30
0
41
1
10
-2.99999955740918
20
29.4999995811793
30
0
0
SPLINE
5
FB
100
AcDbEntity
8
SK1
62
256
6
ByLayer
370
18
48
0.05
60
0
100
AcDbSpline
70
4
71
3
72
23
73
19
40
0
40
0
40
0
40
0
40
0.0131476713240274
40
0.0131476713240274
40
0.122714900631929
40
0.122714900631929
40
0.341849359247734
40
0.341849359247734
40
0.451416588555636
40
0.451416588555636
40
0.560983817863538
40
0.560983817863538
40
0.67055104717144
40
0.67055104717144
40
0.780118276479342
40
0.780118276479342
40
0.999252735095146
40
1
40
1
40
1
40
1
41
1
10
-2.1999244360845
20
-24.9114113960466
30
0
41
1
10
-2.1999245449864
20
-24.9167793121823
30
0
41
1
10
-2.19992465303108
20
-24.9221109386688
30
0
41
1
10
-2.19992565355119
20
-24.9715353031944
30
0
41
1
10
-2.19992648807258
20
-25.0131514371205
30
0
41
1
10
-2.19992882892188
20
-25.1305225292753
30
0
41
1
10
-2.19993015940989
20
-25.1988118775348
30
0
41
1
10
-2.19993185372658
20
-25.286571043442
30
0
41
1
10
-2.19993236938109
20
-25.3133751732564
30
0
41
1
10
-2.1999332982156
20
-25.3620637625961
30
0
41
1
10
-2.1999337104412
20
-25.3839562702171
30
0
41
1
10
-2.19993443381048
20
-25.4228705008163
30
0
41
1
10
-2.1999347449943
20
-25.4398933454179
30
0
41
1
10
-2.1999352790294
20
-25.469057674423
30
0
41
1
10
-2.19993550090928
20
-25.4811983663636
30
0
41
1
10
-2.19993608282579
20
-25.5103363133805
30
0
41
1
10
-2.19993640576638
20
-25.5200701860204
30
0
41
1
10
-2.19993640700082
20
-25.5201093196134
30
0
41
1
10
-2.19993640681659
20
-25.5200932812588
30
0
0
SPLINE
5
FC
100
AcDbEntity
8
SK1
62
256
6
ByLayer
370
18
48
1
60
0
100
AcDbSpline
70
4
71
3
72
138
73
134
40
0
40
0
40
0
40
0
40
0.0624001435187488
40
0.0624001435187488
40
0.0780268077934361
40
0.0780268077934361
40
0.0936534720681235
40
0.0936534720681235
40
0.109280136342811
40
0.109280136342811
40
0.124906800617498
40
0.124906800617498
40
0.140533464892185
40
0.140533464892185
40
0.156160129166873
40
0.156160129166873
40
0.17178679344156
40
0.17178679344156
40
0.187413457716247
40
0.187413457716247
40
0.218666786265622
40
0.218666786265622
40
0.23429345054031
40
0.23429345054031
40
0.249920114814997
40
0.249920114814997
40
0.265546779089685
40
0.265546779089685
40
0.281173443364373
40
0.281173443364373
40
0.29680010763906
40
0.29680010763906
40
0.312426771913748
40
0.312426771913748
40
0.328053436188435
40
0.328053436188435
40
0.343680100463122
40
0.343680100463122
40
0.359306764737809
40
0.359306764737809
40
0.374933429012497
40
0.374933429012497
40
0.390560093287184
40
0.390560093287184
40
0.406186757561871
40
0.406186757561871
40
0.421813421836559
40
0.421813421836559
40
0.437440086111246
40
0.437440086111246
40
0.445253418248589
40
0.445253418248589
40
0.453066750385933
40
0.453066750385933
40
0.46869341466062
40
0.46869341466062
40
0.476506746797963
40
0.476506746797963
40
0.484320078935307
40
0.484320078935307
40
0.499946743209994
40
0.499946743209994
40
0.507760075347338
40
0.507760075347338
40
0.515573407484681
40
0.515573407484681
40
0.531200071759369
40
0.531200071759369
40
0.539013403896712
40
0.539013403896712
40
0.546826736034056
40
0.546826736034056
40
0.562453400308743
40
0.562453400308743
40
0.570266732446087
40
0.570266732446087
40
0.578080064583431
40
0.578080064583431
40
0.593706728858119
40
0.593706728858119
40
0.601520060995463
40
0.601520060995463
40
0.609333393132807
40
0.609333393132807
40
0.624960057407494
40
0.624960057407494
40
0.632773389544838
40
0.632773389544838
40
0.640586721682182
40
0.640586721682182
40
0.65621338595687
40
0.65621338595687
40
0.664026718094214
40
0.664026718094214
40
0.671840050231558
40
0.671840050231558
40
0.687466714506245
40
0.687466714506245
40
0.695280046643589
40
0.695280046643589
40
0.703093378780933
40
0.703093378780933
40
0.718720043055621
40
0.718720043055621
40
0.726533375192965
40
0.726533375192965
40
0.734346707330308
40
0.734346707330308
40
0.749973371604996
40
0.749973371604996
40
0.781226700154372
40
0.781226700154372
40
0.796853364429059
40
0.796853364429059
40
0.812480028703747
40
0.812480028703747
40
0.828106692978435
40
0.828106692978435
40
0.843733357253123
40
0.843733357253123
40
0.85936002152781
40
0.85936002152781
40
0.874986685802498
40
0.874986685802498
40
0.906240014351873
40
0.906240014351873
40
0.937493342901249
40
0.937493342901249
40
0.968746671450624
40
0.968746671450624
40
0.984373335725312
40
0.984373335725312
40
1
40
1
40
1
40
1
41
1
10
-2.19993640682898
20
-25.5200981717241
30
0
41
1
10
-2.19993640592079
20
-25.5200222037757
30
0
41
1
10
-2.1999355195812
20
-25.4812962235146
30
0
41
1
10
-2.19993371586068
20
-25.3842502045099
30
0
41
1
10
-2.1999333039895
20
-25.3623729271151
30
0
41
1
10
-2.1999323760549
20
-25.3137250407849
30
0
41
1
10
-2.19993186099299
20
-25.2869499627837
30
0
41
1
10
-2.19993073213519
20
-25.2284745728189
30
0
41
1
10
-2.1999301171204
20
-25.1967723211366
30
0
41
1
10
-2.19992877957529
20
-25.1284378713363
30
0
41
1
10
-2.1999280567596
20
-25.0918040488975
30
0
41
1
10
-2.19992649602528
20
-25.0135444093237
30
0
41
1
10
-2.19992566125998
20
-24.971914311505
30
0
41
1
10
-2.19992387482179
20
-24.883662996609
30
0
41
1
10
-2.19992292311559
20
-24.8370395968126
30
0
41
1
10
-2.19992089181858
20
-24.7387367684322
30
0
41
1
10
-2.1999198105554
20
-24.6870445802767
30
0
41
1
10
-2.1999175215592
20
-24.5786039835225
30
0
41
1
10
-2.1999163127324
20
-24.5218542934564
30
0
41
1
10
-2.19991247361398
20
-24.3439266233769
30
0
41
1
10
-2.19990962430248
20
-24.215065019344
30
0
41
1
10
-2.19990487857808
20
-24.0058706352316
30
0
41
1
10
-2.19990321608628
20
-23.9334746788157
30
0
41
1
10
-2.19989971421168
20
-23.7833784288465
30
0
41
1
10
-2.19989787378168
20
-23.7056692888834
30
0
41
1
10
-2.19989401658688
20
-23.5448213774855
30
0
41
1
10
-2.1998919971611
20
-23.461671374074
30
0
41
1
10
-2.19988775797739
20
-23.2899080621775
30
0
41
1
10
-2.19988553497399
20
-23.2012890331989
30
0
41
1
10
-2.19988088252208
20
-23.0184290258992
30
0
41
1
10
-2.19987845265038
20
-22.9241743124619
30
0
41
1
10
-2.1998733654319
20
-22.7300054180921
30
0
41
1
10
-2.1998707051161
20
-22.6300863979231
30
0
41
1
10
-2.19986514236189
20
-22.4243940894161
30
0
41
1
10
-2.19986224236908
20
-22.3186016473154
30
0
41
1
10
-2.19985618484219
20
-22.1011123032173
30
0
41
1
10
-2.19985302454268
20
-21.9894106621899
30
0
41
1
10
-2.19984642896679
20
-21.7598649972896
30
0
41
1
10
-2.1998429960027
20
-21.6419947235207
30
0
41
1
10
-2.19983584250588
20
-21.4000427593159
30
0
41
1
10
-2.19983211925339
20
-21.2759562210402
30
0
41
1
10
-2.1998243724417
20
-21.0212764434266
30
0
41
1
10
-2.1998203484886
20
-20.8906470458163
30
0
41
1
10
-2.1998119935144
20
-20.6227888615509
30
0
41
1
10
-2.1998076609035
20
-20.4855562574345
30
0
41
1
10
-2.19979868517288
20
-20.2041158421558
30
0
41
1
10
-2.19979404159039
20
-20.0598562917965
30
0
41
1
10
-2.199784463653
20
-19.7642449077297
30
0
41
1
10
-2.19977952148508
20
-19.6128898135024
30
0
41
1
10
-2.19977191958119
20
-19.3801657088502
30
0
41
1
10
-2.19976935623248
20
-19.301642064941
30
0
41
1
10
-2.19976416764638
20
-19.142626482935
30
0
41
1
10
-2.1997615411274
20
-19.0621355149607
30
0
41
1
10
-2.19975359714988
20
-18.8178124151746
30
0
41
1
10
-2.19974822503249
20
-18.6510660655445
30
0
41
1
10
-2.19974010866568
20
-18.3946622390961
30
0
41
1
10
-2.19973739447829
20
-18.3081437115723
30
0
41
1
10
-2.1997319877209
20
-18.1329058420455
30
0
41
1
10
-2.1997293011604
20
-18.044185729401
30
0
41
1
10
-2.19972130399208
20
-17.7749229937505
30
0
41
1
10
-2.1997160613129
20
-17.5911568928834
30
0
41
1
10
-2.19970868044709
20
-17.3084857015937
30
0
41
1
10
-2.1997062857013
20
-17.213088406257
30
0
41
1
10
-2.1997017339416
20
-17.0198059124639
30
0
41
1
10
-2.1996995861505
20
-16.92191246461
30
0
41
1
10
-2.19969360391929
20
-16.6248931143576
30
0
41
1
10
-2.19969026429078
20
-16.4222258576203
30
0
41
1
10
-2.19968688357059
20
-16.1105407541857
30
0
41
1
10
-2.19968603371799
20
-16.0053555186087
30
0
41
1
10
-2.1996850163828
20
-15.7922980889307
30
0
41
1
10
-2.1996848386799
20
-15.6843989810323
30
0
41
1
10
-2.1996854941911
20
-15.3573949946169
30
0
41
1
10
-2.19968753600739
20
-15.134715639667
30
0
41
1
10
-2.1996931183123
20
-14.7934130638375
30
0
41
1
10
-2.19969542934069
20
-14.6784363940817
30
0
41
1
10
-2.19970080838169
20
-14.4460412933498
30
0
41
1
10
-2.19970385920118
20
-14.3285883866944
30
0
41
1
10
-2.19971408448629
20
-13.9737006291606
30
0
41
1
10
-2.19972215256149
20
-13.7334053714475
30
0
41
1
10
-2.1997352456782
20
-13.3677797409282
30
0
41
1
10
-2.1997397382585
20
-13.2450466811129
30
0
41
1
10
-2.19974899123889
20
-12.9979276571381
30
0
41
1
10
-2.1997537129385
20
-12.873495081277
30
0
41
1
10
-2.1997678330637
20
-12.498681332997
30
0
41
1
10
-2.1997774211664
20
-12.2465231996714
30
0
41
1
10
-2.19979138109079
20
-11.8652171087411
30
0
41
1
10
-2.19979600394018
20
-11.7376025872316
30
0
41
1
10
-2.19980508865709
20
-11.4813957919573
30
0
41
1
10
-2.19980953816758
20
-11.3527690273646
30
0
41
1
10
-2.1998226371899
20
-10.9660597261202
30
0
41
1
10
-2.19983103853218
20
-10.7069847637089
30
0
41
1
10
-2.1998429562797
20
-10.3166486788092
30
0
41
1
10
-2.19984683670978
20
-10.1862491049718
30
0
41
1
10
-2.19985439320678
20
-9.92489756786421
30
0
41
1
10
-2.1998580700421
20
-9.7939183372215
30
0
41
1
10
-2.1998687668592
20
-9.40057149889131
30
0
41
1
10
-2.1998754785831
20
-9.13769536747182
30
0
41
1
10
-2.19988496788108
20
-8.7424853620162
30
0
41
1
10
-2.19988803185259
20
-8.6105992482232
30
0
41
1
10
-2.1998939648042
20
-8.34653883218141
30
0
41
1
10
-2.1998968397117
20
-8.2143426898453
30
0
41
1
10
-2.1999051913252
20
-7.81761581167032
30
0
41
1
10
-2.19991039608058
20
-7.55288066101681
30
0
41
1
10
-2.19991770157489
20
-7.15542546185432
30
0
41
1
10
-2.199920054567
20
-7.022881610333
30
0
41
1
10
-2.19992460506359
20
-6.75767959624881
30
0
41
1
10
-2.19992680296559
20
-6.62499509077441
30
0
41
1
10
-2.19993317082839
20
-6.2270867370012
30
0
41
1
10
-2.19993711660209
20
-5.9619429443118
30
0
41
1
10
-2.1999481475456
20
-5.16687646390321
30
0
41
1
10
-2.1999544430943
20
-4.63731772053441
30
0
41
1
10
-2.1999626224582
20
-3.84364744150102
30
0
41
1
10
-2.1999651390131
20
-3.57913182820582
30
0
41
1
10
-2.19996980112469
20
-3.05065298071921
30
0
41
1
10
-2.19997194457898
20
-2.78678055123902
30
0
41
1
10
-2.19997589330549
20
-2.25974325561481
30
0
41
1
10
-2.1999777011701
20
-1.9965402179804
30
0
41
1
10
-2.1999810263672
20
-1.47100104463669
30
0
41
1
10
-2.19998254284309
20
-1.2087208603366
30
0
41
1
10
-2.19998531069928
20
-0.685109664093119
30
0
41
1
10
-2.19998656435499
20
-0.42374597715272
30
0
41
1
10
-2.19998884607708
20
0.0979044242110945
30
0
41
1
10
-2.1999898746744
20
0.358137281985194
30
0
41
1
10
-2.19999265397709
20
1.1371018538666
30
0
41
1
10
-2.19999410746738
20
1.65417345286218
30
0
41
1
10
-2.1999964172434
20
2.6826712190892
30
0
41
1
10
-2.1999972677194
20
3.1943146090976
30
0
41
1
10
-2.19999853310779
20
4.2113311716929
30
0
41
1
10
-2.19999894389468
20
4.71689740500568
30
0
41
1
10
-2.19999932806488
20
5.4701042734676
30
0
41
1
10
-2.1999994174453
20
5.72037383117768
30
0
41
1
10
-2.19999953208648
20
6.21914603642378
30
0
41
1
10
-2.1999995574092
20
6.46757447187929
30
0
41
1
10
-2.1999995574092
20
6.71505982150299
30
0
0
SPLINE
5
FD
100
AcDbEntity
8
SK1
62
256
6
ByLayer
370
18
48
1
60
0
100
AcDbSpline
70
4
71
3
72
18
73
14
40
0
40
0
40
0
40
0
40
0.0491776309456501
40
0.144964345526009
40
0.240751060106369
40
0.336537774686728
40
0.432324489267087
40
0.528111203847446
40
0.623897918427806
40
0.719684633008165
40
0.815471347588524
40
0.911258062168883
40
1
40
1
40
1
40
1
41
1
10
-2.1999995574092
20
6.7150585396148
30
0
41
1
10
-2.1999995574092
20
7.04282006092439
30
0
41
1
10
-2.1999995574092
20
8.0106096710208
30
0
41
1
10
-2.1999995574092
20
9.61909548637848
30
0
41
1
10
-2.1999995574092
20
11.5200165212775
30
0
41
1
10
-2.1999995574092
20
13.3815012150961
30
0
41
1
10
-2.1999995574092
20
15.1840817742554
30
0
41
1
10
-2.1999995574092
20
16.9098533388441
30
0
41
1
10
-2.1999995574092
20
18.5429585479913
30
0
41
1
10
-2.1999995574092
20
20.0700024127058
30
0
41
1
10
-2.1999995574092
20
21.4803664286846
30
0
41
1
10
-2.1999995574092
20
22.7348922627174
30
0
41
1
10
-2.1999995574092
20
23.481034123038
30
0
41
1
10
-2.1999995574092
20
23.821234877939
30
0
0
SPLINE
5
FE
100
AcDbEntity
8
SK1
62
256
6
ByLayer
370
18
48
1
60
0
100
AcDbSpline
70
4
71
3
72
23
73
19
40
0
40
0
40
0
40
0
40
0.0052250958219484
40
0.0762698968095472
40
0.147314697797146
40
0.218359498784745
40
0.289404299772344
40
0.360449100759943
40
0.431493901747541
40
0.50253870273514
40
0.573583503722739
40
0.644628304710338
40
0.715673105697937
40
0.786717906685535
40
0.857762707673134
40
0.928807508660733
40
0.999852309648332
40
1
40
1
40
1
40
1
41
1
10
-2.1999995574092
20
23.8212344815219
30
0
41
1
10
-2.1999995574092
20
23.8482417072553
30
0
41
1
10
-2.1999995574092
20
24.2407426068933
30
0
41
1
10
-2.1999995574092
20
24.9505045750915
30
0
41
1
10
-2.1999995574092
20
25.848540426872
30
0
41
1
10
-2.1999995574092
20
26.6219142712358
30
0
41
1
10
-2.1999995574092
20
27.2771912414096
30
0
41
1
10
-2.1999995574092
20
27.8228982854634
30
0
41
1
10
-2.1999995574092
20
28.2690515666157
30
0
41
1
10
-2.1999995574092
20
28.6266248332793
30
0
41
1
10
-2.1999995574092
20
28.9070052180067
30
0
41
1
10
-2.1999995574092
20
29.1214350011473
30
0
41
1
10
-2.1999995574092
20
29.2804819450257
30
0
41
1
10
-2.1999995574092
20
29.3935428458705
30
0
41
1
10
-2.1999995574092
20
29.4684119552343
30
0
41
1
10
-2.1999995574092
20
29.5109216757143
30
0
41
1
10
-2.1999995574092
20
29.520117862302
30
0
41
1
10
-2.1999995574092
20
29.5201028723744
30
0
41
1
10
-2.1999995574092
20
29.5200928713744
30
0
0
SPLINE
5
FF
100
AcDbEntity
8
SK1
62
256
6
ByLayer
370
18
48
1
60
0
100
AcDbSpline
70
4
71
2
72
6
73
3
40
0
40
0
40
0
40
1
40
1
40
1
41
1
10
-2.9999995574091
20
-25.499997914191
30
0
41
1
10
-2.59744022926378
20
-25.5101116048052
30
0
41
1
10
-2.19488090111849
20
-25.5202252954195
30
0
0
SPLINE
5
100
100
AcDbEntity
8
SK1
62
256
6
ByLayer
370
18
48
1
60
0
100
AcDbSpline
70
4
71
2
72
6
73
3
40
0
40
0
40
0
40
1
40
1
40
1
41
1
10
-2.19488090111849
20
29.5202270211002
30
0
41
1
10
-2.59744022926378
20
29.5101133295858
30
0
41
1
10
-2.99999955740918
20
29.4999996380713
30
0
0
SPLINE
5
101
100
AcDbEntity
8
SK1
62
256
6
ByLayer
370
18
48
1
60
0
100
AcDbSpline
70
4
71
3
72
36
73
32
40
0
40
0
40
0
40
0
40
0.0312499999999971
40
0.0312499999999971
40
0.0468749999999972
40
0.0468749999999972
40
0.0624999999999973
40
0.0624999999999973
40
0.0781249999999974
40
0.0781249999999974
40
0.0937499999999974
40
0.0937499999999974
40
0.124999999999998
40
0.124999999999998
40
0.156249999999998
40
0.156249999999998
40
0.187499999999998
40
0.187499999999998
40
0.249999999999999
40
0.249999999999999
40
0.3125
40
0.3125
40
0.375
40
0.375
40
0.500000000000001
40
0.500000000000001
40
0.625000000000001
40
0.625000000000001
40
0.750000000000001
40
0.750000000000001
40
1
40
1
40
1
40
1
41
1
10
-0.399999557409188
20
-9.08756195543091
30
0
41
1
10
-0.393927216822277
20
-9.09385234899
30
0
41
1
10
-0.387403152733782
20
-9.09963306384861
30
0
41
1
10
-0.376374768618092
20
-9.10689761433642
30
0
41
1
10
-0.372568164504997
20
-9.1090214830497
30
0
41
1
10
-0.364614889186981
20
-9.1124935280728
30
0
41
1
10
-0.360409878689495
20
-9.11384591144551
30
0
41
1
10
-0.351996712437483
20
-9.11542436391122
30
0
41
1
10
-0.347703574280303
20
-9.1156672043231
30
0
41
1
10
-0.339340328969996
20
-9.1149885651308
30
0
41
1
10
-0.335324988083386
20
-9.1140910839832
30
0
41
1
10
-0.323704794378187
20
-9.10996294035959
30
0
41
1
10
-0.317000123022297
20
-9.1055142673645
30
0
41
1
10
-0.305052944808295
20
-9.09501749713311
30
0
41
1
10
-0.299921261671585
20
-9.08907102162661
30
0
41
1
10
-0.290593911173602
20
-9.0763937580715
30
0
41
1
10
-0.28640707924518
20
-9.06962686172182
30
0
41
1
10
-0.275030986061779
20
-9.048946702264
30
0
41
1
10
-0.268871602391101
20
-9.0345116209534
30
0
41
1
10
-0.257991867194391
20
-9.00496474751461
30
0
41
1
10
-0.253309785995697
20
-8.98983618964851
30
0
41
1
10
-0.244918455474391
20
-8.9591083538543
30
0
41
1
10
-0.241226475070903
20
-8.94353123556712
30
0
41
1
10
-0.231294170630179
20
-8.8966966959259
30
0
41
1
10
-0.22612908521188
20
-8.8651726960685
30
0
41
1
10
-0.217528242315183
20
-8.80172854322632
30
0
41
1
10
-0.214116732257594
20
-8.76980433774571
30
0
41
1
10
-0.208543873978499
20
-8.70564673981042
30
0
41
1
10
-0.206389220967679
20
-8.67341221968439
30
0
41
1
10
-0.201394214952387
20
-8.57632170191411
30
0
41
1
10
-0.1999995574092
20
-8.51108285429299
30
0
41
1
10
-0.1999995574092
20
-8.44544267260142
30
0
0
SPLINE
5
102
100
AcDbEntity
8
SK1
62
256
6
ByLayer
370
18
48
1
60
0
100
AcDbSpline
70
4
71
3
72
52
73
48
40
0
40
0
40
0
40
0
40
0.125
40
0.125
40
0.25
40
0.25
40
0.3125
40
0.3125
40
0.375
40
0.375
40
0.5
40
0.5
40
0.562499999999999
40
0.562499999999999
40
0.624999999999999
40
0.624999999999999
40
0.687499999999999
40
0.687499999999999
40
0.718749999999999
40
0.718749999999999
40
0.749999999999998
40
0.749999999999998
40
0.781249999999998
40
0.781249999999998
40
0.812499999999998
40
0.812499999999998
40
0.828124999999998
40
0.828124999999998
40
0.843749999999998
40
0.843749999999998
40
0.859374999999999
40
0.859374999999999
40
0.874999999999999
40
0.890624999999999
40
0.890624999999999
40
0.898437499999999
40
0.898437499999999
40
0.906249999999999
40
0.921874999999999
40
0.921874999999999
40
0.9375
40
0.9375
40
0.96875
40
0.96875
40
0.984375
40
0.984375
40
1
40
1
40
1
40
1
41
1
10
-1.3071063385957
20
-10.5450414397532
30
0
41
1
10
-1.29278030447739
20
-10.4632748501526
30
0
41
1
10
-1.27741738586459
20
-10.3816173412966
30
0
41
1
10
-1.24414473068498
20
-10.218627897999
30
0
41
1
10
-1.2262397054559
20
-10.1372949040101
30
0
41
1
10
-1.19693810803
20
-10.0156575010135
30
0
41
1
10
-1.1867612856183
20
-9.97517252892609
30
0
41
1
10
-1.16545799492579
20
-9.89435263923062
30
0
41
1
10
-1.15432401635428
20
-9.85399222835662
30
0
41
1
10
-1.11935378636249
20
-9.73357511826239
30
0
41
1
10
-1.09397235234718
20
-9.6540695544592
30
0
41
1
10
-1.05131268734098
20
-9.53658976499261
30
0
41
1
10
-1.03631993211698
20
-9.49772968712182
30
0
41
1
10
-1.0043419058226
20
-9.42079472140171
30
0
41
1
10
-0.987363606697102
20
-9.38271695373382
30
0
41
1
10
-0.950685966441284
20
-9.30764831585722
30
0
41
1
10
-0.931006738147488
20
-9.27064915466042
30
0
41
1
10
-0.898417552342579
20
-9.21639116136882
30
0
41
1
10
-0.887036711211778
20
-9.19851445259562
30
0
41
1
10
-0.862915972122494
20
-9.16331316860382
30
0
41
1
10
-0.850141386563195
20
-9.145954417589
30
0
41
1
10
-0.823322890077776
20
-9.11271199024551
30
0
41
1
10
-0.809233041673991
20
-9.09674575759732
30
0
41
1
10
-0.779210731079189
20
-9.066589747569
30
0
41
1
10
-0.763289092243099
20
-9.05238950135211
30
0
41
1
10
-0.7373865326621
20
-9.0330394474737
30
0
41
1
10
-0.728363331807088
20
-9.0268935482575
30
0
41
1
10
-0.709854725272095
20
-9.01566756151212
30
0
41
1
10
-0.700344033266703
20
-9.01056248729532
30
0
41
1
10
-0.680718325016784
20
-9.0015499344583
30
0
41
1
10
-0.670556337327383
20
-8.9976275419445
30
0
41
1
10
-0.649712290567891
20
-8.99128808966842
30
0
41
1
10
-0.628662176046589
20
-8.98654052880141
30
0
41
1
10
-0.60717674250489
20
-8.98515626899029
30
0
41
1
10
-0.590889138521192
20
-8.98545881559022
30
0
41
1
10
-0.585405747334477
20
-8.9857870379667
30
0
41
1
10
-0.574569363243285
20
-8.98688156320262
30
0
41
1
10
-0.558470402422387
20
-8.9891749098478
30
0
41
1
10
-0.542812663839982
20
-8.99331558188231
30
0
41
1
10
-0.522290184033977
20
-9.00032051090261
30
0
41
1
10
-0.512185095851578
20
-9.00458675178101
30
0
41
1
10
-0.483138408549593
20
-9.01896398785422
30
0
41
1
10
-0.465139761947484
20
-9.0307144172601
30
0
41
1
10
-0.439572399930881
20
-9.05060646601299
30
0
41
1
10
-0.431282195910001
20
-9.05763322383009
30
0
41
1
10
-0.41526790351449
20
-9.07220663336511
30
0
41
1
10
-0.407523031430003
20
-9.07976831937802
30
0
41
1
10
-0.399999557409188
20
-9.08756195543091
30
0
0
SPLINE
5
103
100
AcDbEntity
8
SK1
62
256
6
ByLayer
370
18
48
1
60
0
100
AcDbSpline
70
4
71
3
72
46
73
42
40
0
40
0
40
0
40
0
40
0.0312500000000017
40
0.0312500000000017
40
0.0625000000000033
40
0.0625000000000033
40
0.0781250000000034
40
0.0781250000000034
40
0.085937500000003
40
0.085937500000003
40
0.0937500000000026
40
0.0937500000000026
40
0.109375000000002
40
0.109375000000002
40
0.125000000000001
40
0.125000000000001
40
0.156249999999999
40
0.156249999999999
40
0.187499999999997
40
0.187499999999997
40
0.218749999999995
40
0.218749999999995
40
0.249999999999993
40
0.249999999999993
40
0.281249999999991
40
0.281249999999991
40
0.312499999999989
40
0.312499999999989
40
0.374999999999991
40
0.374999999999991
40
0.437499999999993
40
0.437499999999993
40
0.499999999999995
40
0.499999999999995
40
0.624999999999996
40
0.624999999999996
40
0.749999999999998
40
0.749999999999998
40
0.874999999999999
40
0.874999999999999
40
1
40
1
40
1
40
1
41
1
10
-0.399999557409103
20
-18.9734780210852
30
0
41
1
10
-0.414906826511299
20
-18.9829018462394
30
0
41
1
10
-0.430629261993602
20
-18.9917359224816
30
0
41
1
10
-0.464363534394778
20
-19.0077706750177
30
0
41
1
10
-0.482504892454301
20
-19.0149958783712
30
0
41
1
10
-0.511068985359998
20
-19.023663666659
30
0
41
1
10
-0.520847613401401
20
-19.0262069579002
30
0
41
1
10
-0.535969312220999
20
-19.0294133552603
30
0
41
1
10
-0.541085697962188
20
-19.0303804712154
30
0
41
1
10
-0.551484283110284
20
-19.0320925507274
30
0
41
1
10
-0.556788173710203
20
-19.0328392342236
30
0
41
1
10
-0.572692243190602
20
-19.0346851440353
30
0
41
1
10
-0.583345508644783
20
-19.0354044122468
30
0
41
1
10
-0.604755818543396
20
-19.0357939188877
30
0
41
1
10
-0.615574734411894
20
-19.0354586936347
30
0
41
1
10
-0.647774574493582
20
-19.0328666912416
30
0
41
1
10
-0.668333568678776
20
-19.0291065270033
30
0
41
1
10
-0.707847394556296
20
-19.0183948145259
30
0
41
1
10
-0.726080413557497
20
-19.0116637069128
30
0
41
1
10
-0.760491065515879
20
-18.9963306441108
30
0
41
1
10
-0.776745017289585
20
-18.9876552021156
30
0
41
1
10
-0.807034484933695
20
-18.9693329347111
30
0
41
1
10
-0.821151222439397
20
-18.9596585147267
30
0
41
1
10
-0.847916119862902
20
-18.939561762867
30
0
41
1
10
-0.860558482433902
20
-18.9291366423909
30
0
41
1
10
-0.884711883238793
20
-18.9076972580173
30
0
41
1
10
-0.896249940011188
20
-18.8966505434296
30
0
41
1
10
-0.92923423247899
20
-18.8630612753214
30
0
41
1
10
-0.949109209874678
20
-18.8400737011604
30
0
41
1
10
-0.986115374724079
20
-18.7932557006643
30
0
41
1
10
-1.00322476405069
20
-18.7694200641924
30
0
41
1
10
-1.035427494891
20
-18.7210722862662
30
0
41
1
10
-1.05051335855359
20
-18.6965583638338
30
0
41
1
10
-1.09341619799818
20
-18.6221514729939
30
0
41
1
10
-1.11891281651629
20
-18.5714014338517
30
0
41
1
10
-1.16572959313279
20
-18.4680469642801
30
0
41
1
10
-1.18693989594658
20
-18.4156194604176
30
0
41
1
10
-1.22608988133078
20
-18.3095734744609
30
0
41
1
10
-1.24403115919259
20
-18.2559228855181
30
0
41
1
10
-1.27736734078778
20
-18.1474241583409
30
0
41
1
10
-1.2927571856132
20
-18.0925753790153
30
0
41
1
10
-1.30710633859238
20
-18.0371406812602
30
0
0
SPLINE
5
104
100
AcDbEntity
8
SK1
62
256
6
ByLayer
370
18
48
1
60
0
100
AcDbSpline
70
4
71
3
72
38
73
34
40
0
40
0
40
0
40
0
40
0.249999999999995
40
0.249999999999995
40
0.374999999999992
40
0.374999999999992
40
0.49999999999999
40
0.49999999999999
40
0.624999999999987
40
0.624999999999987
40
0.687499999999986
40
0.687499999999986
40
0.749999999999984
40
0.749999999999984
40
0.812499999999983
40
0.812499999999983
40
0.843749999999983
40
0.843749999999983
40
0.874999999999982
40
0.874999999999982
40
0.906249999999981
40
0.906249999999981
40
0.921874999999984
40
0.921874999999984
40
0.937499999999988
40
0.937499999999988
40
0.953124999999991
40
0.953124999999991
40
0.968749999999994
40
0.968749999999994
40
0.984374999999997
40
0.984374999999997
40
1
40
1
40
1
40
1
41
1
10
-0.1999995574092
20
-19.5310956351234
30
0
41
1
10
-0.1999995574092
20
-19.4806924420233
30
0
41
1
10
-0.20139564944509
20
-19.4297722925271
30
0
41
1
10
-0.20641613161979
20
-19.3524428720782
30
0
41
1
10
-0.208583284374384
20
-19.3265072825492
30
0
41
1
10
-0.214198413716503
20
-19.2742660333755
30
0
41
1
10
-0.217642341400278
20
-19.2479427849101
30
0
41
1
10
-0.226332902214892
20
-19.1949215409056
30
0
41
1
10
-0.231547437115978
20
-19.168282754402
30
0
41
1
10
-0.241527744160578
20
-19.1280968726475
30
0
41
1
10
-0.245225913767683
20
-19.1146428646196
30
0
41
1
10
-0.253629947688182
20
-19.087750816787
30
0
41
1
10
-0.258320402094
20
-19.0743304794096
30
0
41
1
10
-0.269232522124298
20
-19.0476011396766
30
0
41
1
10
-0.275425475412902
20
-19.0342672804668
30
0
41
1
10
-0.286861800694084
20
-19.014526565792
30
0
41
1
10
-0.290996023875579
20
-19.0080689314266
30
0
41
1
10
-0.300240647014789
20
-18.9955335377629
30
0
41
1
10
-0.3053328838308
20
-18.9894484099376
30
0
41
1
10
-0.317243940930183
20
-18.9779625077159
30
0
41
1
10
-0.32406781556719
20
-18.9726077272579
30
0
41
1
10
-0.335596297724976
20
-18.9664991262957
30
0
41
1
10
-0.339579361556389
20
-18.9648219990002
30
0
41
1
10
-0.34787404499528
20
-18.9623088856746
30
0
41
1
10
-0.352183967766791
20
-18.9614967036143
30
0
41
1
10
-0.36054948110359
20
-18.9608399423975
30
0
41
1
10
-0.364731173335286
20
-18.9609783158274
30
0
41
1
10
-0.372671311120399
20
-18.9620085401749
30
0
41
1
10
-0.376451243298987
20
-18.9628856444759
30
0
41
1
10
-0.383726961903193
20
-18.9651811369685
30
0
41
1
10
-0.387214326721676
20
-18.966601829423
30
0
41
1
10
-0.393825506613979
20
-18.9697895280547
30
0
41
1
10
-0.396972910859404
20
-18.9715646868699
30
0
41
1
10
-0.399999557416294
20
-18.9734780210801
30
0
0
SPLINE
5
105
100
AcDbEntity
8
SK1
62
256
6
ByLayer
370
18
48
1
60
0
100
AcDbSpline
70
4
71
3
72
49
73
45
40
0
40
0
40
0
40
0
40
0.0312499999999989
40
0.0312499999999989
40
0.0624999999999978
40
0.0624999999999978
40
0.0781249999999975
40
0.0781249999999975
40
0.0859374999999973
40
0.0859374999999973
40
0.0937499999999971
40
0.0937499999999971
40
0.109374999999997
40
0.117187499999997
40
0.117187499999997
40
0.124999999999997
40
0.124999999999997
40
0.140624999999997
40
0.140624999999997
40
0.156249999999998
40
0.156249999999998
40
0.187499999999997
40
0.187499999999997
40
0.218749999999997
40
0.218749999999997
40
0.249999999999997
40
0.249999999999997
40
0.281249999999997
40
0.281249999999997
40
0.312499999999997
40
0.312499999999997
40
0.374999999999996
40
0.374999999999996
40
0.437499999999996
40
0.437499999999996
40
0.499999999999996
40
0.499999999999996
40
0.624999999999997
40
0.624999999999997
40
0.749999999999998
40
0.749999999999998
40
0.874999999999999
40
0.874999999999999
40
1
40
1
40
1
40
1
41
1
10
-0.399999557409188
20
28.0528123392546
30
0
41
1
10
-0.414928164101383
20
28.0467856515913
30
0
41
1
10
-0.430676566679097
20
28.0411109435073
30
0
41
1
10
-0.464479672397999
20
28.0307786111606
30
0
41
1
10
-0.4826610694127
20
28.0261057672088
30
0
41
1
10
-0.511299620340083
20
28.020492606151
30
0
41
1
10
-0.521106006852193
20
28.0188441134437
30
0
41
1
10
-0.536275250264595
20
28.0167665069458
30
0
41
1
10
-0.541408474576002
20
28.0161399974296
30
0
41
1
10
-0.551843061115079
20
28.015031772292
30
0
41
1
10
-0.557163381331776
20
28.014549265264
30
0
41
1
10
-0.573107952904678
20
28.0133594477653
30
0
41
1
10
-0.589131494569585
20
28.012669728687
30
0
41
1
10
-0.605276770351679
20
28.012751812332
30
0
41
1
10
-0.616067772072284
20
28.012980748837
30
0
41
1
10
-0.621501427786086
20
28.0131838706264
30
0
41
1
10
-0.637626834572501
20
28.0140455965581
30
0
41
1
10
-0.648142029892995
20
28.014951620054
30
0
41
1
10
-0.668755919206887
20
28.0173496667325
30
0
41
1
10
-0.678882507255196
20
28.0188468696414
30
0
41
1
10
-0.708522275984791
20
28.0240919890328
30
0
41
1
10
-0.726761001354788
20
28.0284706416997
30
0
41
1
10
-0.761184752273977
20
28.0383999160097
30
0
41
1
10
-0.777438730936979
20
28.0439955240921
30
0
41
1
10
-0.807703336317388
20
28.0557461100829
30
0
41
1
10
-0.821810784238579
20
28.0619253397988
30
0
41
1
10
-0.848560167973488
20
28.0747012504294
30
0
41
1
10
-0.861196368172102
20
28.0812997588686
30
0
41
1
10
-0.885339117328897
20
28.0948033190737
30
0
41
1
10
-0.896871428452499
20
28.1017280846675
30
0
41
1
10
-0.929811304830793
20
28.1226576196559
30
0
41
1
10
-0.949663454343892
20
28.1368426506492
30
0
41
1
10
-0.986628990381689
20
28.1654288447701
30
0
41
1
10
-1.00372078449919
20
28.1798334821986
30
0
41
1
10
-1.0358904336492
20
28.2087329579256
30
0
41
1
10
-1.0509608653168
20
28.2232289981764
30
0
41
1
10
-1.09381836092879
20
28.2667323598654
30
0
41
1
10
-1.1192859075108
20
28.2957492077578
30
0
41
1
10
-1.1660415838968
20
28.3534243102072
30
0
41
1
10
-1.18720304281408
20
28.3819620404926
30
0
41
1
10
-1.22627460247659
20
28.4382508676615
30
0
41
1
10
-1.244178671382
20
28.4660105283422
30
0
41
1
10
-1.2774413471908
20
28.5206542819121
30
0
41
1
10
-1.2927947138366
20
28.5475386573806
30
0
41
1
10
-1.3071063385957
20
28.5739427967029
30
0
0
SPLINE
5
106
100
AcDbEntity
8
SK3
62
256
6
ByLayer
370
18
48
0.05
60
0
100
AcDbSpline
70
4
71
3
72
30
73
26
40
0
40
0
40
0
40
0
40
0.0625000000000008
40
0.0625000000000008
40
0.125000000000002
40
0.125000000000002
40
0.187500000000002
40
0.187500000000002
40
0.250000000000003
40
0.250000000000003
40
0.375000000000005
40
0.375000000000005
40
0.500000000000007
40
0.500000000000007
40
0.531250000000007
40
0.531250000000007
40
0.562500000000007
40
0.562500000000007
40
0.625000000000006
40
0.625000000000006
40
0.750000000000004
40
0.750000000000004
40
0.875000000000002
40
0.875000000000002
40
1
40
1
40
1
40
1
41
1
10
-31.4784527626756
20
15.8373177599344
30
0
41
1
10
-31.2537649533199
20
15.8291708744874
30
0
41
1
10
-31.0285182906407
20
15.821516011117
30
0
41
1
10
-30.5771063269245
20
15.8071728333683
30
0
41
1
10
-30.3509399507931
20
15.8004844322937
30
0
41
1
10
-29.8978231999745
20
15.7880525358267
30
0
41
1
10
-29.6708722588188
20
15.7823089935897
30
0
41
1
10
-29.216283617357
20
15.7717432220956
30
0
41
1
10
-28.9886455936696
20
15.7669209656178
30
0
41
1
10
-28.3048098908066
20
15.7537994213544
30
0
41
1
10
-27.8476964318555
20
15.7468452492648
30
0
41
1
10
-26.9314118654727
20
15.7363263497889
30
0
41
1
10
-26.4722381143384
20
15.7327613937788
30
0
41
1
10
-25.8971222112448
20
15.7303033065713
30
0
41
1
10
-25.7820412897261
20
15.729911616314
30
0
41
1
10
-25.5517663426165
20
15.7293251847125
30
0
41
1
10
-25.4365451228021
20
15.7291304427752
30
0
41
1
10
-25.0909984109992
20
15.7288374529121
30
0
41
1
10
-24.8607495680765
20
15.7290300801376
30
0
41
1
10
-24.1703380667027
20
15.7307286698861
30
0
41
1
10
-23.7105090467456
20
15.7333547167101
30
0
41
1
10
-22.791713715805
20
15.7413803144486
30
0
41
1
10
-22.3327473000678
20
15.7467799847224
30
0
41
1
10
-21.4156952057873
20
15.7601578407628
30
0
41
1
10
-20.9576089557047
20
15.7681361442807
30
0
41
1
10
-20.4999995574091
20
15.777313740815
30
0
0
SPLINE
5
107
100
AcDbEntity
8
SK3
62
256
6
ByLayer
370
18
48
0.05
60
0
100
AcDbSpline
70
4
71
3
72
90
73
86
40
0
40
0
40
0
40
0
40
0.0075053669393064
40
0.0075053669393064
40
0.015320285309863
40
0.0309501220509766
40
0.0309501220509766
40
0.062209795533204
40
0.0934694690154313
40
0.0934694690154313
40
0.109099305756545
40
0.109099305756545
40
0.116914224127102
40
0.116914224127102
40
0.124729142497659
40
0.155988815979885
40
0.187248489462112
40
0.218508162944339
40
0.218508162944339
40
0.226323081314895
40
0.226323081314895
40
0.234137999685451
40
0.249767836426564
40
0.249767836426564
40
0.281027509908789
40
0.312287183391013
40
0.312287183391013
40
0.327917020132126
40
0.327917020132126
40
0.335731938502683
40
0.335731938502683
40
0.343546856873239
40
0.343546856873239
40
0.374806530355467
40
0.406066203837694
40
0.406066203837694
40
0.437325877319922
40
0.437325877319922
40
0.445140795690479
40
0.445140795690479
40
0.452955714061036
40
0.452955714061036
40
0.46858555080215
40
0.46858555080215
40
0.499845224284377
40
0.531104897766604
40
0.531104897766604
40
0.546734734507717
40
0.554549652878274
40
0.554549652878274
40
0.562364571248831
40
0.562364571248831
40
0.593624244731058
40
0.593624244731058
40
0.624883918213285
40
0.656143591695513
40
0.656143591695513
40
0.663958510066069
40
0.663958510066069
40
0.671773428436625
40
0.671773428436625
40
0.687403265177739
40
0.687403265177739
40
0.718662938659966
40
0.749922612142193
40
0.749922612142193
40
0.765552448883306
40
0.773367367253862
40
0.773367367253862
40
0.781182285624418
40
0.781182285624418
40
0.812441959106644
40
0.812441959106644
40
0.84370163258887
40
0.84370163258887
40
0.874961306071096
40
0.874961306071096
40
0.890591142812209
40
0.890591142812209
40
0.906220979553321
40
0.906220979553321
40
0.937480653035548
40
0.968740326517774
40
0.968740326517774
40
1
40
1
40
1
40
1
41
1
10
-29.5499991794508
20
-16.0125002544644
30
0
41
1
10
-29.54998513653
20
-16.0124962630747
30
0
41
1
10
-29.5495771962904
20
-16.0123803334759
30
0
41
1
10
-29.5479432235872
20
-16.0119161499328
30
0
41
1
10
-29.5441694874551
20
-16.0108443169543
30
0
41
1
10
-29.5366207396523
20
-16.0087025869342
30
0
41
1
10
-29.5165749519977
20
-16.0030296144086
30
0
41
1
10
-29.4766734178383
20
-15.9917609649027
30
0
41
1
10
-29.4107838883423
20
-15.9734542622793
30
0
41
1
10
-29.3514946798051
20
-15.9572183137187
30
0
41
1
10
-29.3300835524574
20
-15.9513886883301
30
0
41
1
10
-29.2954532624972
20
-15.9420345876467
30
0
41
1
10
-29.2834779397232
20
-15.9388115500674
30
0
41
1
10
-29.2588089164141
20
-15.932199588518
30
0
41
1
10
-29.1952801181298
20
-15.9152392090263
30
0
41
1
10
-29.0644739509301
20
-15.8810027323724
30
0
41
1
10
-28.8559010572793
20
-15.8287631757502
30
0
41
1
10
-28.6940544798686
20
-15.7903949048554
30
0
41
1
10
-28.5855685664627
20
-15.7655804410538
30
0
41
1
10
-28.5634951637648
20
-15.760574075906
30
0
41
1
10
-28.5188374049619
20
-15.7505369449967
30
0
41
1
10
-28.4510031673328
20
-15.7354259762184
30
0
41
1
10
-28.3806508494254
20
-15.7201866994712
30
0
41
1
10
-28.2366310761783
20
-15.6896350343333
30
0
41
1
10
-28.0357795870183
20
-15.6487043680696
30
0
41
1
10
-27.8173476559596
20
-15.608413601824
30
0
41
1
10
-27.646771380218
20
-15.5788296394863
30
0
41
1
10
-27.5887852540357
20
-15.5690742785235
30
0
41
1
10
-27.50007629333
20
-15.5546520353788
30
0
41
1
10
-27.4701800477783
20
-15.5498738301915
30
0
41
1
10
-27.4100025594841
20
-15.5404278880295
30
0
41
1
10
-27.3797428732318
20
-15.5357632895355
30
0
41
1
10
-27.2275963222444
20
-15.512748909286
30
0
41
1
10
-26.9787453426432
20
-15.4779017193008
30
0
41
1
10
-26.7192098048243
20
-15.4478473495816
30
0
41
1
10
-26.4542641532468
20
-15.4206092407579
30
0
41
1
10
-26.3190868143514
20
-15.4083980292166
30
0
41
1
10
-26.1466013097612
20
-15.3951674211241
30
0
41
1
10
-26.1119281374573
20
-15.3926230340209
30
0
41
1
10
-26.042224739978
20
-15.3877448649239
30
0
41
1
10
-26.0071793818413
20
-15.385410514333
30
0
41
1
10
-25.9021026723469
20
-15.3787701019201
30
0
41
1
10
-25.8319361545754
20
-15.37481247728
30
0
41
1
10
-25.6210957661532
20
-15.3643652389084
30
0
41
1
10
-25.3390677142373
20
-15.3542378819072
30
0
41
1
10
-25.0552466298942
20
-15.3518875936605
30
0
41
1
10
-24.8417003277547
20
-15.353099337961
30
0
41
1
10
-24.7347568029603
20
-15.3544487492005
30
0
41
1
10
-24.6275538071415
20
-15.3569236854635
30
0
41
1
10
-24.5560268715347
20
-15.3588248571118
30
0
41
1
10
-24.5201839158282
20
-15.3599028806867
30
0
41
1
10
-24.3416236562334
20
-15.3658954692753
30
0
41
1
10
-24.2007316463976
20
-15.3726134485548
30
0
41
1
10
-23.9227083159649
20
-15.3895734663532
30
0
41
1
10
-23.6484463830471
20
-15.4100582997641
30
0
41
1
10
-23.3816009729035
20
-15.4369620872832
30
0
41
1
10
-23.2171660078715
20
-15.455584596535
30
0
41
1
10
-23.1843964250816
20
-15.459399448033
30
0
41
1
10
-23.1190936996
20
-15.4672047704593
30
0
41
1
10
-23.0865398916598
20
-15.4711980959133
30
0
41
1
10
-22.9897333059669
20
-15.483369742588
30
0
41
1
10
-22.9261759156975
20
-15.4917580529853
30
0
41
1
10
-22.738374105895
20
-15.5176428497145
30
0
41
1
10
-22.4956129689655
20
-15.5540740678616
30
0
41
1
10
-22.2677158450854
20
-15.5933092417893
30
0
41
1
10
-22.1023653044914
20
-15.6234123879795
30
0
41
1
10
-22.0210854245297
20
-15.6386330847881
30
0
41
1
10
-21.9419203220896
20
-15.6540365026577
30
0
41
1
10
-21.8896175596654
20
-15.6643380452668
30
0
41
1
10
-21.8636904758098
20
-15.6695078273348
30
0
41
1
10
-21.7358938511071
20
-15.6952867613769
30
0
41
1
10
-21.6390114254614
20
-15.7157851830856
30
0
41
1
10
-21.4556014955231
20
-15.7560280638247
30
0
41
1
10
-21.3690748551471
20
-15.7757733747491
30
0
41
1
10
-21.206322341254
20
-15.8140253644038
30
0
41
1
10
-21.1300960044713
20
-15.8325328819784
30
0
41
1
10
-21.0236592486633
20
-15.8589964701584
30
0
41
1
10
-20.9894800591595
20
-15.8676062775547
30
0
41
1
10
-20.9239014496868
20
-15.8843079210119
30
0
41
1
10
-20.8927237753492
20
-15.8923429843679
30
0
41
1
10
-20.8039389235278
20
-15.91544301394
30
0
41
1
10
-20.6981996945063
20
-15.9435625061411
30
0
41
1
10
-20.6173561246936
20
-15.9657181427134
30
0
41
1
10
-20.5491076370258
20
-15.9845873032379
30
0
41
1
10
-20.5212794568422
20
-15.9923789524438
30
0
41
1
10
-20.4999995574091
20
-15.9983645361201
30
0
0
SPLINE
5
108
100
AcDbEntity
8
SK3
62
256
6
ByLayer
370
18
48
0.05
60
0
100
AcDbSpline
70
4
71
3
72
10
73
6
40
0
40
0
40
0
40
0
40
0.5
40
0.5
40
1
40
1
40
1
40
1
41
1
10
-20.4999995574093
20
15.7773137408153
30
0
41
1
10
-20.4138967282736
20
15.6977662179384
30
0
41
1
10
-20.3291104088565
20
15.6204190647844
30
0
41
1
10
-20.1623546524797
20
15.4700935531966
30
0
41
1
10
-20.0803836669302
20
15.3971143676477
30
0
41
1
10
-19.9999995574091
20
15.3263752135579
30
0
0
SPLINE
5
109
100
AcDbEntity
8
SK3
62
256
6
ByLayer
370
18
48
0.05
60
0
100
AcDbSpline
70
4
71
3
72
9
73
5
40
0
40
0
40
0
40
0
40
0.501211523950345
40
1
40
1
40
1
40
1
41
1
10
-20.4999995574091
20
-15.9983645361201
30
0
41
1
10
-20.4832402981499
20
-15.9863044923481
30
0
41
1
10
-20.4583360326559
20
-15.9684558511207
30
0
41
1
10
-20.4500396648945
20
-15.9625290139562
30
0
41
1
10
-20.449999911089
20
-15.9625006360636
30
0
0
SPLINE
5
10A
100
AcDbEntity
8
1
62
256
6
ByLayer
370
18
48
1
60
0
100
AcDbSpline
70
4
71
3
72
30
73
26
40
0
40
0
40
0
40
0
40
0.0625000000000046
40
0.0625000000000046
40
0.0937500000000063
40
0.0937500000000063
40
0.125000000000008
40
0.125000000000008
40
0.187500000000015
40
0.187500000000015
40
0.250000000000022
40
0.250000000000022
40
0.375000000000036
40
0.375000000000036
40
0.437500000000034
40
0.437500000000034
40
0.500000000000033
40
0.500000000000033
40
0.625000000000025
40
0.625000000000025
40
0.750000000000016
40
0.750000000000016
40
0.875000000000008
40
0.875000000000008
40
1
40
1
40
1
40
1
41
1
10
10.5386755771857
20
38.1154574975952
30
0
41
1
10
10.522842277947
20
38.1154574975952
30
0
41
1
10
10.5072895047416
20
38.1149625893882
30
0
41
1
10
10.4843450170692
20
38.113540809367
30
0
41
1
10
10.476761142587
20
38.1129533201514
30
0
41
1
10
10.4617177807791
20
38.1115583079112
30
0
41
1
10
10.4542454139563
20
38.1107479881833
30
0
41
1
10
10.4324369211135
20
38.1080547287563
30
0
41
1
10
10.4185532051937
20
38.1058993087406
30
0
41
1
10
10.3918638884198
20
38.1009927380916
30
0
41
1
10
10.3790081943119
20
38.098227963588
30
0
41
1
10
10.3421810948561
20
38.0892458226518
30
0
41
1
10
10.3203476554422
20
38.0824809687122
30
0
41
1
10
10.2903035917762
20
38.0715396120005
30
0
41
1
10
10.2807522130848
20
38.0677567440311
30
0
41
1
10
10.2624476468538
20
38.0599536940639
30
0
41
1
10
10.2537128991242
20
38.0559393000373
30
0
41
1
10
10.2288510839121
20
38.0437332864815
30
0
41
1
10
10.2139293221511
20
38.0353293676621
30
0
41
1
10
10.1865740807539
20
38.0181002717967
30
0
41
1
10
10.1741491647824
20
38.0092738803821
30
0
41
1
10
10.1513337820894
20
37.9912604005959
30
0
41
1
10
10.1409329873603
20
37.9820590632852
30
0
41
1
10
10.1219376138495
20
37.9633924470586
30
0
41
1
10
10.1133957203441
20
37.9539820112237
30
0
41
1
10
10.1056628752935
20
37.9445006497888
30
0
0
SPLINE
5
10B
100
AcDbEntity
8
1
62
256
6
ByLayer
370
18
48
1
60
0
100
AcDbSpline
70
4
71
3
72
28
73
24
40
0
40
0
40
0
40
0
40
0.250000000000017
40
0.250000000000017
40
0.375000000000026
40
0.375000000000026
40
0.500000000000035
40
0.500000000000035
40
0.562500000000033
40
0.562500000000033
40
0.625000000000032
40
0.625000000000032
40
0.750000000000027
40
0.750000000000027
40
0.812500000000022
40
0.812500000000022
40
0.875000000000017
40
0.875000000000017
40
0.906250000000013
40
0.906250000000013
40
0.937500000000009
40
0.937500000000009
40
1
40
1
40
1
40
1
41
1
10
13.8943380098882
20
37.9445006497888
30
0
41
1
10
13.8790097656437
20
37.9632948481586
30
0
41
1
10
13.8605875781463
20
37.9818029377279
30
0
41
1
10
13.826179268091
20
38.0090376243367
30
0
41
1
10
13.8136676859068
20
38.0179386154128
30
0
41
1
10
13.7862306042421
20
38.0352389977184
30
0
41
1
10
13.7712960380046
20
38.0436525581747
30
0
41
1
10
13.7465188549573
20
38.0558303386744
30
0
41
1
10
13.7378610830832
20
38.0598153737441
30
0
41
1
10
13.7196012102994
20
38.0676132980605
30
0
41
1
10
13.7099643996489
20
38.0714381657679
30
0
41
1
10
13.6797238412319
20
38.0824634742864
30
0
41
1
10
13.6577855370048
20
38.0892561111027
30
0
41
1
10
13.6209374430272
20
38.0982404686741
30
0
41
1
10
13.6080973000339
20
38.1010007282883
30
0
41
1
10
13.5814179523361
20
38.1059040797354
30
0
41
1
10
13.5675382611144
20
38.1080583763321
30
0
41
1
10
13.5457334040281
20
38.1107504761395
30
0
41
1
10
13.5382625889381
20
38.1115603857947
30
0
41
1
10
13.5232260396715
20
38.1129544150333
30
0
41
1
10
13.5156451130582
20
38.1135415609247
30
0
41
1
10
13.4927079679701
20
38.1149626304886
30
0
41
1
10
13.4771533487217
20
38.1154574975952
30
0
41
1
10
13.461325307996
20
38.1154574975952
30
0
0
SPLINE
5
10C
100
AcDbEntity
8
SK1
62
256
6
ByLayer
370
18
48
1
60
0
100
AcDbSpline
70
4
71
3
72
40
73
36
40
0
40
0
40
0
40
0
40
0.249999999999993
40
0.249999999999993
40
0.374999999999991
40
0.374999999999991
40
0.499999999999988
40
0.499999999999988
40
0.624999999999986
40
0.624999999999986
40
0.687499999999986
40
0.687499999999986
40
0.749999999999986
40
0.749999999999986
40
0.812499999999987
40
0.812499999999987
40
0.843749999999988
40
0.843749999999988
40
0.87499999999999
40
0.87499999999999
40
0.890624999999991
40
0.890624999999991
40
0.906249999999993
40
0.906249999999993
40
0.921874999999994
40
0.921874999999994
40
0.937499999999995
40
0.937499999999995
40
0.953124999999996
40
0.953124999999996
40
0.968749999999998
40
0.968749999999998
40
0.984374999999999
40
0.984374999999999
40
1
40
1
40
1
40
1
41
1
10
-0.1999995574092
20
27.9683009917
30
0
41
1
10
-0.1999995574092
20
27.983600761302
30
0
41
1
10
-0.201396252888401
20
27.9980365471529
30
0
41
1
10
-0.206417267455976
20
28.0180803485518
30
0
41
1
10
-0.208584529232098
20
28.0244915430585
30
0
41
1
10
-0.214199320810479
20
28.0366770960224
30
0
41
1
10
-0.217642949395895
20
28.0424572781202
30
0
41
1
10
-0.226330884671199
20
28.0531992169225
30
0
41
1
10
-0.231543456440477
20
28.0581562229333
30
0
41
1
10
-0.24151886365479
20
28.0647093224873
30
0
41
1
10
-0.245215024931895
20
28.0667478657929
30
0
41
1
10
-0.253614206030676
20
28.0704221703367
30
0
41
1
10
-0.258301914967802
20
28.0720584880138
30
0
41
1
10
-0.269207930766299
20
28.0747550355123
30
0
41
1
10
-0.27540125990879
20
28.0758288458815
30
0
41
1
10
-0.286826191497283
20
28.0766823873422
30
0
41
1
10
-0.290957178743696
20
28.0768347280553
30
0
41
1
10
-0.300199305704382
20
28.0767549573639
30
0
41
1
10
-0.305291860315577
20
28.0765295116609
30
0
41
1
10
-0.314236086697179
20
28.0756985149177
30
0
41
1
10
-0.317435396253302
20
28.0753363445489
30
0
41
1
10
-0.324226147118083
20
28.074407390994
30
0
41
1
10
-0.32788396996699
20
28.0738306215288
30
0
41
1
10
-0.335557048348193
20
28.0724369954164
30
0
41
1
10
-0.339541806719495
20
28.0716273906468
30
0
41
1
10
-0.347863672391895
20
28.0697447089617
30
0
41
1
10
-0.352164711394977
20
28.0686758154486
30
0
41
1
10
-0.360537020516176
20
28.0664200962627
30
0
41
1
10
-0.364728149218678
20
28.0652016637827
30
0
41
1
10
-0.372666238823086
20
28.0627493280473
30
0
41
1
10
-0.376450073846797
20
28.0615074934266
30
0
41
1
10
-0.383739194119187
20
28.059000533481
30
0
41
1
10
-0.387221442324801
20
28.0577425696488
30
0
41
1
10
-0.393827993500281
20
28.0552630381191
30
0
41
1
10
-0.396973906718188
20
28.0540337962913
30
0
41
1
10
-0.399999557409188
20
28.0528123392546
30
0
0
SPLINE
5
10D
100
AcDbEntity
8
1
62
256
6
ByLayer
370
18
48
1
60
0
100
AcDbSpline
70
4
71
3
72
74
73
70
40
0
40
0
40
0
40
0
40
0.0625034614349072
40
0.0625034614349072
40
0.0937551921523608
40
0.0937551921523608
40
0.109381057511088
40
0.109381057511088
40
0.125006922869814
40
0.125006922869814
40
0.187510384304722
40
0.187510384304722
40
0.20313624966345
40
0.210949182342813
40
0.210949182342813
40
0.218762115022177
40
0.218762115022177
40
0.250013845739631
40
0.250013845739631
40
0.31251730717454
40
0.31251730717454
40
0.328143172533268
40
0.328143172533268
40
0.343769037891996
40
0.343769037891996
40
0.375020768609452
40
0.406272499326908
40
0.406272499326908
40
0.421898364685637
40
0.421898364685637
40
0.437524230044365
40
0.437524230044365
40
0.500027691479278
40
0.500027691479278
40
0.531279422196735
40
0.531279422196735
40
0.546905287555462
40
0.546905287555462
40
0.56253115291419
40
0.56253115291419
40
0.625034614349104
40
0.625034614349104
40
0.640660479707832
40
0.640660479707832
40
0.648473412387197
40
0.648473412387197
40
0.656286345066561
40
0.68753807578402
40
0.68753807578402
40
0.750041537218938
40
0.750041537218938
40
0.765667402577667
40
0.765667402577667
40
0.781293267936397
40
0.781293267936397
40
0.812544998653856
40
0.843796729371315
40
0.843796729371315
40
0.859422594730044
40
0.859422594730044
40
0.875048460088774
40
0.875048460088774
40
0.937551921523692
40
0.937551921523692
40
0.953177786882421
40
0.953177786882421
40
0.968803652241151
40
0.968803652241151
40
1
40
1
40
1
40
1
41
1
10
14.0000037824231
20
-40.0000005305161
30
0
41
1
10
13.9999937941365
20
-40.0000000264014
30
0
41
1
10
13.9870311872161
20
-39.9993459473148
30
0
41
1
10
13.9489219293434
20
-39.9974769571014
30
0
41
1
10
13.9330864767375
20
-39.9967059757367
30
0
41
1
10
13.9045277964745
20
-39.9953392656977
30
0
41
1
10
13.8941857992152
20
-39.994847715566
30
0
41
1
10
13.8719508152469
20
-39.9938008174141
30
0
41
1
10
13.860110097357
20
-39.9932479267436
30
0
41
1
10
13.7973638989887
20
-39.9903492105884
30
0
41
1
10
13.7359316356639
20
-39.9876009421433
30
0
41
1
10
13.6452221257263
20
-39.9838274152231
30
0
41
1
10
13.6169560838018
20
-39.9826699878729
30
0
41
1
10
13.5870842476453
20
-39.9814802293863
30
0
41
1
10
13.5668089067936
20
-39.9806805231159
30
0
41
1
10
13.5564807410983
20
-39.9802770218161
30
0
41
1
10
13.50421171339
20
-39.9782557722041
30
0
41
1
10
13.4602077944437
20
-39.9766195368242
30
0
41
1
10
13.3218327124661
20
-39.9717246320444
30
0
41
1
10
13.2211586492106
20
-39.968479050013
30
0
41
1
10
13.0845251678904
20
-39.9646778623108
30
0
41
1
10
13.0565755259028
20
-39.9639285204739
30
0
41
1
10
13.0000928366627
20
-39.9624751070113
30
0
41
1
10
12.971538287148
20
-39.9617702580232
30
0
41
1
10
12.8849520917928
20
-39.9597276508285
30
0
41
1
10
12.7670480972765
20
-39.9571963694258
30
0
41
1
10
12.6443041595471
20
-39.9551152968414
30
0
41
1
10
12.5504054968806
20
-39.9537481995157
30
0
41
1
10
12.5187986143966
20
-39.9533247895809
30
0
41
1
10
12.4549590255868
20
-39.9525468213273
30
0
41
1
10
12.4226606725615
20
-39.9521917951407
30
0
41
1
10
12.26130287509
20
-39.9506150918119
30
0
41
1
10
12.1315238500621
20
-39.9499725802327
30
0
41
1
10
11.9358433244965
20
-39.9499673405763
30
0
41
1
10
11.8704466074192
20
-39.95012532593
30
0
41
1
10
11.7720889230505
20
-39.9506057236953
30
0
41
1
10
11.7392465001241
20
-39.950806800501
30
0
41
1
10
11.6742054864662
20
-39.951284256532
30
0
41
1
10
11.6419145420587
20
-39.9515610001987
30
0
41
1
10
11.481588547809
20
-39.9531266680138
30
0
41
1
10
11.3569075308814
20
-39.954961418177
30
0
41
1
10
11.2055550386255
20
-39.9578560042437
30
0
41
1
10
11.1755114959634
20
-39.9584649679165
30
0
41
1
10
11.130793341214
20
-39.9594210145908
30
0
41
1
10
11.115933733026
20
-39.9597470747503
30
0
41
1
10
11.0864917280932
20
-39.960409277364
30
0
41
1
10
11.0134888306175
20
-39.9620919706336
30
0
41
1
10
10.9434473295415
20
-39.9639012088871
30
0
41
1
10
10.7808970694911
20
-39.9684188787181
30
0
41
1
10
10.6798750533064
20
-39.9716655798579
30
0
41
1
10
10.5631378062677
20
-39.9757934098966
30
0
41
1
10
10.5404032734557
20
-39.9766177635091
30
0
41
1
10
10.4963264736653
20
-39.978251328936
30
0
41
1
10
10.4749531540597
20
-39.9790616395604
30
0
41
1
10
10.4127993073263
20
-39.9814647307695
30
0
41
1
10
10.3351613799118
20
-39.9845945186524
30
0
41
1
10
10.2679109519292
20
-39.9874881120846
30
0
41
1
10
10.2214521081507
20
-39.9895364284967
30
0
41
1
10
10.2066226923334
20
-39.9901992156897
30
0
41
1
10
10.178352562036
20
-39.9914769739389
30
0
41
1
10
10.165014987792
20
-39.9920872577487
30
0
41
1
10
10.1022310060969
20
-39.9949876909438
30
0
41
1
10
10.0643849785579
20
-39.9968246502999
30
0
41
1
10
10.0323779917941
20
-39.9983940450461
30
0
41
1
10
10.0267485258306
20
-39.9986715861583
30
0
41
1
10
10.0170571816581
20
-39.9991508598217
30
0
41
1
10
10.0129889948321
20
-39.9993529060096
30
0
41
1
10
10.003245141267
20
-39.9998377327355
30
0
41
1
10
10.0000352554849
20
-39.9999986198846
30
0
41
1
10
10.0000007239219
20
-40.0000003478601
30
0
0
SPLINE
5
10E
100
AcDbEntity
8
1
62
256
6
ByLayer
370
18
48
1
60
0
100
AcDbSpline
70
4
71
3
72
30
73
26
40
0
40
0
40
0
40
0
40
0.0624999999999899
40
0.0624999999999899
40
0.0937499999999889
40
0.0937499999999889
40
0.124999999999988
40
0.124999999999988
40
0.187499999999985
40
0.187499999999985
40
0.249999999999982
40
0.249999999999982
40
0.374999999999982
40
0.374999999999982
40
0.437499999999986
40
0.437499999999986
40
0.499999999999989
40
0.499999999999989
40
0.624999999999991
40
0.624999999999991
40
0.749999999999994
40
0.749999999999994
40
0.874999999999997
40
0.874999999999997
40
1
40
1
40
1
40
1
41
1
10
13.461325307996
20
-38.1154582214558
30
0
41
1
10
13.4771586072347
20
-38.1154582214558
30
0
41
1
10
13.4927113804402
20
-38.1149633132489
30
0
41
1
10
13.5156558681125
20
-38.1135415332276
30
0
41
1
10
13.5232397425947
20
-38.1129540440121
30
0
41
1
10
13.5382831044026
20
-38.1115590317718
30
0
41
1
10
13.5457554712254
20
-38.110748712044
30
0
41
1
10
13.5675639640682
20
-38.1080554526169
30
0
41
1
10
13.581447679988
20
-38.1059000326012
30
0
41
1
10
13.6081369967619
20
-38.1009934619523
30
0
41
1
10
13.6209926908698
20
-38.0982286874486
30
0
41
1
10
13.6578197903256
20
-38.0892465465124
30
0
41
1
10
13.6796532297395
20
-38.0824816925728
30
0
41
1
10
13.7096972934055
20
-38.0715403358612
30
0
41
1
10
13.7192486720969
20
-38.0677574678918
30
0
41
1
10
13.7375532383279
20
-38.0599544179245
30
0
41
1
10
13.7462879860575
20
-38.055940023898
30
0
41
1
10
13.7711498012696
20
-38.0437340103422
30
0
41
1
10
13.7860715630306
20
-38.0353300915227
30
0
41
1
10
13.8134268044277
20
-38.0181009956573
30
0
41
1
10
13.8258517203993
20
-38.0092746042428
30
0
41
1
10
13.8486671030923
20
-37.9912611244565
30
0
41
1
10
13.8590678978214
20
-37.9820597871458
30
0
41
1
10
13.8780632713322
20
-37.9633931709193
30
0
41
1
10
13.8866051648376
20
-37.9539827350843
30
0
41
1
10
13.8943380098882
20
-37.9445013736494
30
0
0
SPLINE
5
10F
100
AcDbEntity
8
1
62
256
6
ByLayer
370
18
48
1
60
0
100
AcDbSpline
70
4
71
3
72
28
73
24
40
0
40
0
40
0
40
0
40
0.249999999999991
40
0.249999999999991
40
0.374999999999987
40
0.374999999999987
40
0.499999999999983
40
0.499999999999983
40
0.562499999999987
40
0.562499999999987
40
0.624999999999991
40
0.624999999999991
40
0.749999999999994
40
0.749999999999994
40
0.812499999999995
40
0.812499999999995
40
0.874999999999997
40
0.874999999999997
40
0.906249999999996
40
0.906249999999996
40
0.937499999999995
40
0.937499999999995
40
1
40
1
40
1
40
1
41
1
10
10.1056628752935
20
-37.9445013736494
30
0
41
1
10
10.120991119538
20
-37.9632955720192
30
0
41
1
10
10.1394133070354
20
-37.9818036615885
30
0
41
1
10
10.1738216170907
20
-38.0090383481973
30
0
41
1
10
10.1863331992749
20
-38.0179393392734
30
0
41
1
10
10.2137702809396
20
-38.035239721579
30
0
41
1
10
10.2287048471771
20
-38.0436532820353
30
0
41
1
10
10.2534820302243
20
-38.055831062535
30
0
41
1
10
10.2621398020985
20
-38.0598160976047
30
0
41
1
10
10.2803996748823
20
-38.0676140219211
30
0
41
1
10
10.2900364855328
20
-38.0714388896285
30
0
41
1
10
10.3202770439497
20
-38.082464198147
30
0
41
1
10
10.3422153481769
20
-38.0892568349633
30
0
41
1
10
10.3790634421545
20
-38.0982411925348
30
0
41
1
10
10.3919035851478
20
-38.1010014521489
30
0
41
1
10
10.4185829328456
20
-38.1059048035961
30
0
41
1
10
10.4324626240673
20
-38.1080591001928
30
0
41
1
10
10.4542674811536
20
-38.1107512000001
30
0
41
1
10
10.4617382962435
20
-38.1115611096553
30
0
41
1
10
10.4767748455102
20
-38.1129551388939
30
0
41
1
10
10.4843557721235
20
-38.1135422847853
30
0
41
1
10
10.5072929172116
20
-38.1149633543492
30
0
41
1
10
10.52284753646
20
-38.1154582214558
30
0
41
1
10
10.5386755771857
20
-38.1154582214558
30
0
0
SPLINE
5
110
100
AcDbEntity
8
1
62
256
6
ByLayer
370
18
48
1
60
0
100
AcDbSpline
70
4
71
3
72
30
73
26
40
0
40
0
40
0
40
0
40
0.0625000000000001
40
0.0625000000000001
40
0.0937499999999995
40
0.0937499999999995
40
0.124999999999999
40
0.124999999999999
40
0.187499999999997
40
0.187499999999997
40
0.249999999999995
40
0.249999999999995
40
0.375000000000001
40
0.375000000000001
40
0.437500000000003
40
0.437500000000003
40
0.500000000000005
40
0.500000000000005
40
0.625000000000004
40
0.625000000000004
40
0.750000000000002
40
0.750000000000002
40
0.875000000000001
40
0.875000000000001
40
1
40
1
40
1
40
1
41
1
10
10.5386755771857
20
-12.133090329401
30
0
41
1
10
10.522842277947
20
-12.133090329401
30
0
41
1
10
10.5072895047416
20
-12.1346453496106
30
0
41
1
10
10.4843450170692
20
-12.1391099595567
30
0
41
1
10
10.476761142587
20
-12.1409544803889
30
0
41
1
10
10.4617177807791
20
-12.1453328412927
30
0
41
1
10
10.4542454139563
20
-12.147875440671
30
0
41
1
10
10.4324369211135
20
-12.1563226734973
30
0
41
1
10
10.4185532051937
20
-12.1630787263441
30
0
41
1
10
10.3918638884198
20
-12.1784399090227
30
0
41
1
10
10.3790081943119
20
-12.187087580686
30
0
41
1
10
10.3421810948561
20
-12.2151430452488
30
0
41
1
10
10.3203476554422
20
-12.2362245415139
30
0
41
1
10
10.2903035917762
20
-12.2702075986206
30
0
41
1
10
10.2807522130848
20
-12.2819395435358
30
0
41
1
10
10.2624476468538
20
-12.3060987848564
30
0
41
1
10
10.2537128991242
20
-12.3185080083559
30
0
41
1
10
10.2288510839121
20
-12.3561739949839
30
0
41
1
10
10.2139293221511
20
-12.3820221489519
30
0
41
1
10
10.1865740807539
20
-12.434822249553
30
0
41
1
10
10.1741491647824
20
-12.4617780719969
30
0
41
1
10
10.1513337820893
20
-12.5165868692878
30
0
41
1
10
10.1409329873603
20
-12.5444829558944
30
0
41
1
10
10.1219376138495
20
-12.6008609738598
30
0
41
1
10
10.1133957203441
20
-12.6291776817317
30
0
41
1
10
10.1056628752935
20
-12.6576005678007
30
0
0
SPLINE
5
111
100
AcDbEntity
8
1
62
256
6
ByLayer
370
18
48
1
60
0
100
AcDbSpline
70
4
71
3
72
28
73
24
40
0
40
0
40
0
40
0
40
0.249999999999995
40
0.249999999999995
40
0.374999999999991
40
0.374999999999991
40
0.499999999999987
40
0.499999999999987
40
0.562499999999981
40
0.562499999999981
40
0.624999999999975
40
0.624999999999975
40
0.74999999999998
40
0.74999999999998
40
0.812499999999985
40
0.812499999999985
40
0.87499999999999
40
0.87499999999999
40
0.906249999999992
40
0.906249999999992
40
0.937499999999994
40
0.937499999999994
40
1
40
1
40
1
40
1
41
1
10
13.8943380098882
20
-12.6576005678006
30
0
41
1
10
13.8790097656437
20
-12.6012599923789
30
0
41
1
10
13.8605875781463
20
-12.545358034663
30
0
41
1
10
13.826179268091
20
-12.462499173011
30
0
41
1
10
13.8136676859068
20
-12.4353167404735
30
0
41
1
10
13.7862306042421
20
-12.3823000018874
30
0
41
1
10
13.7712960380046
20
-12.3564224169572
30
0
41
1
10
13.7465188549573
20
-12.3188445879019
30
0
41
1
10
13.7378610830832
20
-12.3065265607648
30
0
41
1
10
13.7196012102994
20
-12.2823841350326
30
0
41
1
10
13.7099643996489
20
-12.2705224464163
30
0
41
1
10
13.6797238412319
20
-12.2362793445251
30
0
41
1
10
13.6577855370048
20
-12.2151109716529
30
0
41
1
10
13.6209374430272
20
-12.1870484902641
30
0
41
1
10
13.6080973000339
20
-12.178414907683
30
0
41
1
10
13.5814179523361
20
-12.1630637757121
30
0
41
1
10
13.5675382611144
20
-12.1563112377109
30
0
41
1
10
13.5457334040281
20
-12.1478676350542
30
0
41
1
10
13.5382625889381
20
-12.1453263206711
30
0
41
1
10
13.5232260396715
20
-12.1409510430227
30
0
41
1
10
13.5156451130582
20
-12.1391075997668
30
0
41
1
10
13.4927079679701
20
-12.1346452201128
30
0
41
1
10
13.4771533487217
20
-12.133090329401
30
0
41
1
10
13.461325307996
20
-12.133090329401
30
0
0
SPLINE
5
112
100
AcDbEntity
8
1
62
256
6
ByLayer
370
18
48
1
60
0
100
AcDbSpline
70
4
71
3
72
30
73
26
40
0
40
0
40
0
40
0
40
0.0624999999999863
40
0.0624999999999863
40
0.0937499999999836
40
0.0937499999999836
40
0.124999999999981
40
0.124999999999981
40
0.187499999999981
40
0.187499999999981
40
0.249999999999981
40
0.249999999999981
40
0.374999999999992
40
0.374999999999992
40
0.437499999999994
40
0.437499999999994
40
0.499999999999997
40
0.499999999999997
40
0.624999999999997
40
0.624999999999997
40
0.749999999999998
40
0.749999999999998
40
0.874999999999999
40
0.874999999999999
40
1
40
1
40
1
40
1
41
1
10
13.461325307996
20
12.1330896055404
30
0
41
1
10
13.4771586072347
20
12.1330896055404
30
0
41
1
10
13.4927113804402
20
12.13464462575
30
0
41
1
10
13.5156558681125
20
12.1391092356961
30
0
41
1
10
13.5232397425947
20
12.1409537565283
30
0
41
1
10
13.5382831044026
20
12.1453321174321
30
0
41
1
10
13.5457554712254
20
12.1478747168103
30
0
41
1
10
13.5675639640682
20
12.1563219496367
30
0
41
1
10
13.581447679988
20
12.1630780024834
30
0
41
1
10
13.6081369967619
20
12.1784391851621
30
0
41
1
10
13.6209926908698
20
12.1870868568254
30
0
41
1
10
13.6578197903256
20
12.2151423213882
30
0
41
1
10
13.6796532297395
20
12.2362238176532
30
0
41
1
10
13.7096972934055
20
12.27020687476
30
0
41
1
10
13.7192486720969
20
12.2819388196752
30
0
41
1
10
13.7375532383279
20
12.3060980609957
30
0
41
1
10
13.7462879860575
20
12.3185072844953
30
0
41
1
10
13.7711498012696
20
12.3561732711232
30
0
41
1
10
13.7860715630306
20
12.3820214250912
30
0
41
1
10
13.8134268044277
20
12.4348215256923
30
0
41
1
10
13.8258517203993
20
12.4617773481362
30
0
41
1
10
13.8486671030923
20
12.5165861454272
30
0
41
1
10
13.8590678978214
20
12.5444822320338
30
0
41
1
10
13.8780632713322
20
12.6008602499992
30
0
41
1
10
13.8866051648376
20
12.629176957871
30
0
41
1
10
13.8943380098882
20
12.65759984394
30
0
0
SPLINE
5
113
100
AcDbEntity
8
1
62
256
6
ByLayer
370
18
48
1
60
0
100
AcDbSpline
70
4
71
3
72
28
73
24
40
0
40
0
40
0
40
0
40
0.249999999999982
40
0.249999999999982
40
0.374999999999977
40
0.374999999999977
40
0.499999999999971
40
0.499999999999971
40
0.562499999999974
40
0.562499999999974
40
0.624999999999978
40
0.624999999999978
40
0.749999999999988
40
0.749999999999988
40
0.812499999999996
40
0.812499999999996
40
0.875000000000004
40
0.875000000000004
40
0.906250000000003
40
0.906250000000003
40
0.937500000000002
40
0.937500000000002
40
1
40
1
40
1
40
1
41
1
10
10.1056628752935
20
12.65759984394
30
0
41
1
10
10.120991119538
20
12.6012592685183
30
0
41
1
10
10.1394133070354
20
12.5453573108024
30
0
41
1
10
10.1738216170907
20
12.4624984491505
30
0
41
1
10
10.1863331992749
20
12.4353160166129
30
0
41
1
10
10.2137702809396
20
12.3822992780268
30
0
41
1
10
10.2287048471771
20
12.3564216930967
30
0
41
1
10
10.2534820302243
20
12.3188438640413
30
0
41
1
10
10.2621398020985
20
12.3065258369042
30
0
41
1
10
10.2803996748823
20
12.2823834111721
30
0
41
1
10
10.2900364855328
20
12.2705217225557
30
0
41
1
10
10.3202770439497
20
12.2362786206645
30
0
41
1
10
10.3422153481769
20
12.2151102477923
30
0
41
1
10
10.3790634421545
20
12.1870477664035
30
0
41
1
10
10.3919035851478
20
12.1784141838224
30
0
41
1
10
10.4185829328456
20
12.1630630518515
30
0
41
1
10
10.4324626240673
20
12.1563105138503
30
0
41
1
10
10.4542674811536
20
12.1478669111936
30
0
41
1
10
10.4617382962435
20
12.1453255968105
30
0
41
1
10
10.4767748455102
20
12.1409503191621
30
0
41
1
10
10.4843557721235
20
12.1391068759062
30
0
41
1
10
10.5072929172116
20
12.1346444962522
30
0
41
1
10
10.52284753646
20
12.1330896055404
30
0
41
1
10
10.5386755771857
20
12.1330896055404
30
0
0
LINE
5
74
100
AcDbEntity
8
SK3
62
256
6
ByLayer
370
18
48
0.05
60
0
100
AcDbLine
10
-41.578453
20
16.0125
30
0
11
-46.478453
21
17.325451
31
0
39
0
210
0
220
0
230
1
0
LINE
5
76
100
AcDbEntity
8
SK3
62
256
6
ByLayer
370
18
48
0.05
60
0
100
AcDbLine
10
-46.478453
20
-17.325451
30
0
11
-41.578453
21
-16.0125
31
0
39
0
210
0
220
0
230
1
0
LINE
5
77
100
AcDbEntity
8
SK3
62
256
6
ByLayer
370
18
48
0.05
60
0
100
AcDbLine
10
-31.478453
20
-16.0125
30
0
11
-31.478453
21
15.837318
31
0
39
0
210
0
220
0
230
1
0
LINE
5
78
100
AcDbEntity
8
SK3
62
256
6
ByLayer
370
18
48
0.05
60
0
100
AcDbLine
10
-32.264853
20
16.7989
30
0
11
-33.601918
21
18.135965
31
0
39
0
210
0
220
0
230
1
0
LINE
5
79
100
AcDbEntity
8
SK3
62
256
6
ByLayer
370
18
48
0.05
60
0
100
AcDbLine
10
-33.601918
20
-18.135965
30
0
11
-31.478453
21
-16.0125
31
0
39
0
210
0
220
0
230
1
0
LINE
5
7A
100
AcDbEntity
8
SK3
62
256
6
ByLayer
370
18
48
0.05
60
0
100
AcDbLine
10
-46.478453
20
17.325451
30
0
11
-48
21
18.203916
31
0
39
0
210
0
220
0
230
1
0
LINE
5
7B
100
AcDbEntity
8
SK3
62
256
6
ByLayer
370
18
48
0.05
60
0
100
AcDbLine
10
-48
20
-18.203917
30
0
11
-46.478453
21
-17.325451
31
0
39
0
210
0
220
0
230
1
0
LINE
5
7C
100
AcDbEntity
8
SK3
62
256
6
ByLayer
370
18
48
0.05
60
0
100
AcDbLine
10
-39.978453
20
-16.358911
30
0
11
-39.978453
21
16.35891
31
0
39
0
210
0
220
0
230
1
0
LINE
5
7D
100
AcDbEntity
8
SK3
62
256
6
ByLayer
370
18
48
0.05
60
0
100
AcDbLine
10
-37.044671
20
-19
30
0
11
-37.044671
21
19
31
0
39
0
210
0
220
0
230
1
0
LINE
5
7E
100
AcDbEntity
8
SK3
62
256
6
ByLayer
370
18
48
0.05
60
0
100
AcDbLine
10
-37.044671
20
-19
30
0
11
-35.687883
21
-19
31
0
39
0
210
0
220
0
230
1
0
LINE
5
7F
100
AcDbEntity
8
SK3
62
256
6
ByLayer
370
18
48
0.05
60
0
100
AcDbLine
10
-35.687883
20
19
30
0
11
-37.044671
21
19
31
0
39
0
210
0
220
0
230
1
0
LINE
5
80
100
AcDbEntity
8
SK3
62
256
6
ByLayer
370
18
48
0.05
60
0
100
AcDbLine
10
-33.601918
20
-18.135965
30
0
11
-33.601918
21
18.135965
31
0
39
0
210
0
220
0
230
1
0
LINE
5
81
100
AcDbEntity
8
SK3
62
256
6
ByLayer
370
18
48
0.05
60
0
100
AcDbLine
10
-35.687883
20
-19
30
0
11
-35.687883
21
19
31
0
39
0
210
0
220
0
230
1
0
LINE
5
82
100
AcDbEntity
8
SK3
62
256
6
ByLayer
370
18
48
0.05
60
0
100
AcDbLine
10
0.4
20
-29.6
30
0
11
0.4
21
29.6
31
0
39
0
210
0
220
0
230
1
0
LINE
5
83
100
AcDbEntity
8
SK3
62
256
6
ByLayer
370
18
48
0.05
60
0
100
AcDbLine
10
0.107107
20
-30.307107
30
0
11
0.107107
21
30.307106
31
0
39
0
210
0
220
0
230
1
0
LINE
5
84
100
AcDbEntity
8
SK3
62
256
6
ByLayer
370
18
48
0.05
60
0
100
AcDbLine
10
0.107107
20
30.307106
30
0
11
0
21
30.414213
31
0
39
0
210
0
220
0
230
1
0
LINE
5
85
100
AcDbEntity
8
SK3
62
256
6
ByLayer
370
18
48
0.05
60
0
100
AcDbLine
10
0
20
-30.414214
30
0
11
0.107107
21
-30.307107
31
0
39
0
210
0
220
0
230
1
0
LINE
5
86
100
AcDbEntity
8
SK1
62
256
6
ByLayer
370
18
48
1
60
0
100
AcDbLine
10
-1.307106
20
28.892893
30
0
11
-1.743862
21
29.329649
31
0
39
0
210
0
220
0
230
1
0
LINE
5
88
100
AcDbEntity
8
SK1
62
256
6
ByLayer
370
18
48
1
60
0
100
AcDbLine
10
-0.2
20
27.968301
30
0
11
-0.2
21
-8.445443
31
0
39
0
210
0
220
0
230
1
0
LINE
5
89
100
AcDbEntity
8
SK1
62
256
6
ByLayer
370
18
48
1
60
0
100
AcDbLine
10
-1.307106
20
-10.545041
30
0
11
-1.307106
21
-18.037141
31
0
39
0
210
0
220
0
230
1
0
LINE
5
8A
100
AcDbEntity
8
SK1
62
256
6
ByLayer
370
18
48
1
60
0
100
AcDbLine
10
-0.2
20
-19.531096
30
0
11
-0.2
21
-28.683485
31
0
39
0
210
0
220
0
230
1
0
LINE
5
8B
100
AcDbEntity
8
SK1
62
256
6
ByLayer
370
18
48
1
60
0
100
AcDbLine
10
-1.307106
20
28.573943
30
0
11
-1.307106
21
28.892893
31
0
39
0
210
0
220
0
230
1
0
LINE
5
8C
100
AcDbEntity
8
SK3
62
256
6
ByLayer
370
18
48
0.05
60
0
100
AcDbLine
10
14
20
-40
30
0
11
14
21
-39.5
31
0
39
0
210
0
220
0
230
1
0
LINE
5
8D
100
AcDbEntity
8
SK3
62
256
6
ByLayer
370
18
48
0.05
60
0
100
AcDbLine
10
10
20
-39.5
30
0
11
10
21
-40
31
0
39
0
210
0
220
0
230
1
0
LINE
5
8E
100
AcDbEntity
8
SK3
62
256
6
ByLayer
370
18
48
0.05
60
0
100
AcDbLine
10
14
20
-39.5
30
0
11
10
21
-39.5
31
0
39
0
210
0
220
0
230
1
0
LINE
5
8F
100
AcDbEntity
8
SK3
62
256
6
ByLayer
370
18
48
0.05
60
0
100
AcDbLine
10
12
20
-38.567385
30
0
11
10
21
-39.5
31
0
39
0
210
0
220
0
230
1
0
LINE
5
90
100
AcDbEntity
8
SK3
62
256
6
ByLayer
370
18
48
0.05
60
0
100
AcDbLine
10
14
20
-39.5
30
0
11
12
21
-38.567385
31
0
39
0
210
0
220
0
230
1
0
LINE
5
91
100
AcDbEntity
8
SK3
62
256
6
ByLayer
370
18
48
0.05
60
0
100
AcDbLine
10
12.091353
20
26.40677
30
0
11
9.531688
21
28.793696
31
0
39
0
210
0
220
0
230
1
0
LINE
5
92
100
AcDbEntity
8
SK3
62
256
6
ByLayer
370
18
48
0.05
60
0
100
AcDbLine
10
11.185512
20
23.026126
30
0
11
12.091353
21
26.40677
31
0
39
0
210
0
220
0
230
1
0
LINE
5
93
100
AcDbEntity
8
SK3
62
256
6
ByLayer
370
18
48
0.05
60
0
100
AcDbLine
10
11.185512
20
23.026126
30
0
11
9.531688
21
28.793696
31
0
39
0
210
0
220
0
230
1
0
LINE
5
94
100
AcDbEntity
8
SK3
62
256
6
ByLayer
370
18
48
0.05
60
0
100
AcDbLine
10
-20
20
14.083824
30
0
11
11.185512
21
23.026126
31
0
39
0
210
0
220
0
230
1
0
LINE
5
95
100
AcDbEntity
8
SK3
62
256
6
ByLayer
370
18
48
0.05
60
0
100
AcDbLine
10
9.531688
20
28.793696
30
0
11
-32.268525
21
16.807678
31
0
39
0
210
0
220
0
230
1
0
LINE
5
96
100
AcDbEntity
8
SK3
62
256
6
ByLayer
370
18
48
0.05
60
0
100
AcDbLine
10
-20.45
20
-24.422923
30
0
11
-20.45
21
-15.963101
31
0
39
0
210
0
220
0
230
1
0
LINE
5
97
100
AcDbEntity
8
SK3
62
256
6
ByLayer
370
18
48
0.05
60
0
100
AcDbLine
10
-29.55
20
-16.011134
30
0
11
-29.55
21
-24.422923
31
0
39
0
210
0
220
0
230
1
0
LINE
5
98
100
AcDbEntity
8
SK3
62
256
6
ByLayer
370
18
48
0.05
60
0
100
AcDbLine
10
-37.321902
20
-24.628098
30
0
11
-39.75
21
-22.2
31
0
39
0
210
0
220
0
230
1
0
LINE
5
99
100
AcDbEntity
8
SK3
62
256
6
ByLayer
370
18
48
0.05
60
0
100
AcDbLine
10
-39.75
20
-22.2
30
0
11
-39.75
21
-24.279649
31
0
39
0
210
0
220
0
230
1
0
LINE
5
9A
100
AcDbEntity
8
SK3
62
256
6
ByLayer
370
18
48
0.05
60
0
100
AcDbLine
10
-39.75
20
-22.2
30
0
11
-48
21
-22.2
31
0
39
0
210
0
220
0
230
1
0
LINE
5
9B
100
AcDbEntity
8
SK3
62
256
6
ByLayer
370
18
48
0.05
60
0
100
AcDbLine
10
-20.45
20
-24.422923
30
0
11
-25
21
-24.422923
31
0
39
0
210
0
220
0
230
1
0
LINE
5
9C
100
AcDbEntity
8
SK3
62
256
6
ByLayer
370
18
48
0.05
60
0
100
AcDbLine
10
-25
20
-24.422923
30
0
11
-29.55
21
-24.422923
31
0
39
0
210
0
220
0
230
1
0
LINE
5
9D
100
AcDbEntity
8
SK3
62
256
6
ByLayer
370
18
48
0.05
60
0
100
AcDbLine
10
-29.55
20
-24.422923
30
0
11
-29.949997
21
-24.82292
31
0
39
0
210
0
220
0
230
1
0
LINE
5
9E
100
AcDbEntity
8
SK3
62
256
6
ByLayer
370
18
48
0.05
60
0
100
AcDbLine
10
-19.801889
20
-25.071033
30
0
11
-20.45
21
-24.422923
31
0
39
0
210
0
220
0
230
1
0
LINE
5
9F
100
AcDbEntity
8
SK3
62
256
6
ByLayer
370
18
48
0.05
60
0
100
AcDbLine
10
12.407746
20
0
30
0
11
7
21
9
31
0
39
0
210
0
220
0
230
1
0
LINE
5
A0
100
AcDbEntity
8
SK3
62
256
6
ByLayer
370
18
48
0.05
60
0
100
AcDbLine
10
7
20
-9
30
0
11
12.407746
21
0
31
0
39
0
210
0
220
0
230
1
0
LINE
5
A1
100
AcDbEntity
8
SK3
62
256
6
ByLayer
370
18
48
0.05
60
0
100
AcDbLine
10
7
20
-9
30
0
11
7
21
9
31
0
39
0
210
0
220
0
230
1
0
LINE
5
A2
100
AcDbEntity
8
SK3
62
256
6
ByLayer
370
18
48
0.05
60
0
100
AcDbLine
10
3.732051
20
-9
30
0
11
7
21
-9
31
0
39
0
210
0
220
0
230
1
0
LINE
5
A3
100
AcDbEntity
8
SK3
62
256
6
ByLayer
370
18
48
0.05
60
0
100
AcDbLine
10
7
20
9
30
0
11
3.732051
21
9
31
0
39
0
210
0
220
0
230
1
0
LINE
5
A4
100
AcDbEntity
8
SK3
62
256
6
ByLayer
370
18
48
0.05
60
0
100
AcDbLine
10
3.732051
20
-9
30
0
11
3.732051
21
9
31
0
39
0
210
0
220
0
230
1
0
LINE
5
A5
100
AcDbEntity
8
SK3
62
256
6
ByLayer
370
18
48
0.05
60
0
100
AcDbLine
10
3.732051
20
9
30
0
11
0
21
10
31
0
39
0
210
0
220
0
230
1
0
LINE
5
A6
100
AcDbEntity
8
SK3
62
256
6
ByLayer
370
18
48
0.05
60
0
100
AcDbLine
10
0
20
-10
30
0
11
3.732051
21
-9
31
0
39
0
210
0
220
0
230
1
0
LINE
5
A7
100
AcDbEntity
8
SK3
62
256
6
ByLayer
370
18
48
0.05
60
0
100
AcDbLine
10
-19.879827
20
-10
30
0
11
0
21
-10
31
0
39
0
210
0
220
0
230
1
0
LINE
5
A8
100
AcDbEntity
8
SK3
62
256
6
ByLayer
370
18
48
0.05
60
0
100
AcDbLine
10
0
20
10
30
0
11
-19.879827
21
10
31
0
39
0
210
0
220
0
230
1
0
LINE
5
A9
100
AcDbEntity
8
SK3
62
256
6
ByLayer
370
18
48
0.05
60
0
100
AcDbLine
10
-19.879827
20
-10
30
0
11
-19.879827
21
10
31
0
39
0
210
0
220
0
230
1
0
LINE
5
AA
100
AcDbEntity
8
SK3
62
256
6
ByLayer
370
18
48
0.05
60
0
100
AcDbLine
10
-19.879827
20
10
30
0
11
-20
21
10.2
31
0
39
0
210
0
220
0
230
1
0
LINE
5
AB
100
AcDbEntity
8
SK3
62
256
6
ByLayer
370
18
48
0.05
60
0
100
AcDbLine
10
-20
20
-10.2
30
0
11
-19.879827
21
-10
31
0
39
0
210
0
220
0
230
1
0
LINE
5
AC
100
AcDbEntity
8
SK3
62
256
6
ByLayer
370
18
48
0.05
60
0
100
AcDbLine
10
-31.478453
20
-16.0125
30
0
11
-29.545143
21
-16.0125
31
0
39
0
210
0
220
0
230
1
0
LINE
5
AD
100
AcDbEntity
8
SK3
62
256
6
ByLayer
370
18
48
0.05
60
0
100
AcDbLine
10
-41.578453
20
-16.0125
30
0
11
-40.578453
21
-16.0125
31
0
39
0
210
0
220
0
230
1
0
LINE
5
AE
100
AcDbEntity
8
SK3
62
256
6
ByLayer
370
18
48
0.05
60
0
100
AcDbLine
10
-40.578453
20
16.0125
30
0
11
-41.578453
21
16.0125
31
0
39
0
210
0
220
0
230
1
0
LINE
5
AF
100
AcDbEntity
8
SK3
62
256
6
ByLayer
370
18
48
0.05
60
0
100
AcDbLine
10
-20.5
20
15.777314
30
0
11
-20.5
21
-15.998365
31
0
39
0
210
0
220
0
230
1
0
LINE
5
B0
100
AcDbEntity
8
SK3
62
256
6
ByLayer
370
18
48
0.05
60
0
100
AcDbLine
10
-20
20
-15.5125
30
0
11
-20
21
15.326375
31
0
39
0
210
0
220
0
230
1
0
LINE
5
B1
100
AcDbEntity
8
SK3
62
256
6
ByLayer
370
18
48
0.05
60
0
100
AcDbLine
10
-20.450722
20
-15.963223
30
0
11
-20
21
-15.5125
31
0
39
0
210
0
220
0
230
1
0
LINE
5
B2
100
AcDbEntity
8
SK3
62
256
6
ByLayer
370
18
48
0.05
60
0
100
AcDbLine
10
-40.578453
20
-16.0125
30
0
11
-40.578453
21
16.0125
31
0
39
0
210
0
220
0
230
1
0
LINE
5
B3
100
AcDbEntity
8
SK3
62
256
6
ByLayer
370
18
48
0.05
60
0
100
AcDbLine
10
-40.578453
20
-16.0125
30
0
11
-39.978453
21
-16.358911
31
0
39
0
210
0
220
0
230
1
0
LINE
5
B4
100
AcDbEntity
8
SK3
62
256
6
ByLayer
370
18
48
0.05
60
0
100
AcDbLine
10
-39.978453
20
16.35891
30
0
11
-40.578453
21
16.0125
31
0
39
0
210
0
220
0
230
1
0
LINE
5
B5
100
AcDbEntity
8
SK3
62
256
6
ByLayer
370
18
48
0.05
60
0
100
AcDbLine
10
-41.578453
20
-16.0125
30
0
11
-41.578453
21
16.0125
31
0
39
0
210
0
220
0
230
1
0
LINE
5
B6
100
AcDbEntity
8
1
62
256
6
ByLayer
370
18
48
1
60
0
100
AcDbLine
10
10.538676
20
38.115457
30
0
11
13.461325
21
38.115457
31
0
39
0
210
0
220
0
230
1
0
LINE
5
B8
100
AcDbEntity
8
1
62
256
6
ByLayer
370
18
48
1
60
0
100
AcDbLine
10
0.3
20
-40
30
0
11
0.3
21
0
31
0
39
0
210
0
220
0
230
1
0
LINE
5
B9
100
AcDbEntity
8
1
62
256
6
ByLayer
370
18
48
1
60
0
100
AcDbLine
10
0.3
20
0
30
0
11
0.3
21
40
31
0
39
0
210
0
220
0
230
1
0
LINE
5
BA
100
AcDbEntity
8
1
62
256
6
ByLayer
370
18
48
1
60
0
100
AcDbLine
10
0.3
20
-40
30
0
11
10.024543
21
-40
31
0
39
0
210
0
220
0
230
1
0
LINE
5
BB
100
AcDbEntity
8
1
62
256
6
ByLayer
370
18
48
1
60
0
100
AcDbLine
10
14
20
-40
30
0
11
18.5
21
-40
31
0
39
0
210
0
220
0
230
1
0
LINE
5
BC
100
AcDbEntity
8
1
62
256
6
ByLayer
370
18
48
1
60
0
100
AcDbLine
10
18.5
20
40
30
0
11
0.3
21
40
31
0
39
0
210
0
220
0
230
1
0
LINE
5
BD
100
AcDbEntity
8
1
62
256
6
ByLayer
370
18
48
1
60
0
100
AcDbLine
10
10.538676
20
12.13309
30
0
11
10.538676
21
38.115457
31
0
39
0
210
0
220
0
230
1
0
LINE
5
BE
100
AcDbEntity
8
1
62
256
6
ByLayer
370
18
48
1
60
0
100
AcDbLine
10
10.105663
20
12.6576
30
0
11
10.105663
21
37.944501
31
0
39
0
210
0
220
0
230
1
0
LINE
5
BF
100
AcDbEntity
8
1
62
256
6
ByLayer
370
18
48
1
60
0
100
AcDbLine
10
13.894338
20
-37.944501
30
0
11
13.894338
21
-12.657601
31
0
39
0
210
0
220
0
230
1
0
LINE
5
C0
100
AcDbEntity
8
1
62
256
6
ByLayer
370
18
48
1
60
0
100
AcDbLine
10
13.461325
20
-38.115458
30
0
11
13.461325
21
-12.13309
31
0
39
0
210
0
220
0
230
1
0
LINE
5
C1
100
AcDbEntity
8
1
62
256
6
ByLayer
370
18
48
1
60
0
100
AcDbLine
10
13.894338
20
12.6576
30
0
11
13.894338
21
37.944501
31
0
39
0
210
0
220
0
230
1
0
LINE
5
C2
100
AcDbEntity
8
1
62
256
6
ByLayer
370
18
48
1
60
0
100
AcDbLine
10
13.461325
20
12.13309
30
0
11
13.461325
21
38.115457
31
0
39
0
210
0
220
0
230
1
0
LINE
5
C3
100
AcDbEntity
8
1
62
256
6
ByLayer
370
18
48
1
60
0
100
AcDbLine
10
10.538676
20
-38.115458
30
0
11
10.538676
21
-12.13309
31
0
39
0
210
0
220
0
230
1
0
LINE
5
C4
100
AcDbEntity
8
1
62
256
6
ByLayer
370
18
48
1
60
0
100
AcDbLine
10
10.105663
20
-37.944501
30
0
11
10.105663
21
-12.657601
31
0
39
0
210
0
220
0
230
1
0
LINE
5
C5
100
AcDbEntity
8
1
62
256
6
ByLayer
370
18
48
1
60
0
100
AcDbLine
10
19
20
39.5
30
0
11
19
21
-39.5
31
0
39
0
210
0
220
0
230
1
0
LINE
5
C6
100
AcDbEntity
8
1
62
256
6
ByLayer
370
18
48
1
60
0
100
AcDbLine
10
19
20
39.5
30
0
11
18.5
21
40
31
0
39
0
210
0
220
0
230
1
0
LINE
5
C7
100
AcDbEntity
8
1
62
256
6
ByLayer
370
18
48
1
60
0
100
AcDbLine
10
18.5
20
-40
30
0
11
19
21
-39.5
31
0
39
0
210
0
220
0
230
1
0
LINE
5
C8
100
AcDbEntity
8
1
62
256
6
ByLayer
370
18
48
1
60
0
100
AcDbLine
10
0
20
39.7
30
0
11
0
21
0
31
0
39
0
210
0
220
0
230
1
0
LINE
5
C9
100
AcDbEntity
8
1
62
256
6
ByLayer
370
18
48
1
60
0
100
AcDbLine
10
0
20
0
30
0
11
0
21
-39.7
31
0
39
0
210
0
220
0
230
1
0
LINE
5
CA
100
AcDbEntity
8
1
62
256
6
ByLayer
370
18
48
1
60
0
100
AcDbLine
10
0
20
-39.7
30
0
11
0.3
21
-40
31
0
39
0
210
0
220
0
230
1
0
LINE
5
CB
100
AcDbEntity
8
1
62
256
6
ByLayer
370
18
48
1
60
0
100
AcDbLine
10
0.3
20
40
30
0
11
0
21
39.7
31
0
39
0
210
0
220
0
230
1
0
LINE
5
CC
100
AcDbEntity
8
1
62
256
6
ByLayer
370
18
48
1
60
0
100
AcDbLine
10
18.5
20
40
30
0
11
18.5
21
-40
31
0
39
0
210
0
220
0
230
1
0
LINE
5
CD
100
AcDbEntity
8
1
62
256
6
ByLayer
370
18
48
1
60
0
100
AcDbLine
10
13.461325
20
-38.115458
30
0
11
10.538676
21
-38.115458
31
0
39
0
210
0
220
0
230
1
0
LINE
5
CE
100
AcDbEntity
8
1
62
256
6
ByLayer
370
18
48
1
60
0
100
AcDbLine
10
10.538676
20
-12.13309
30
0
11
13.461325
21
-12.13309
31
0
39
0
210
0
220
0
230
1
0
LINE
5
CF
100
AcDbEntity
8
1
62
256
6
ByLayer
370
18
48
1
60
0
100
AcDbLine
10
13.461325
20
12.13309
30
0
11
10.538676
21
12.13309
31
0
39
0
210
0
220
0
230
1
0
LINE
5
D0
100
AcDbEntity
8
4
62
256
6
ByLayer
370
18
48
0.05
60
0
100
AcDbLine
10
0
20
0
30
0
11
19
21
0
31
0
39
0
210
0
220
0
230
1
0
LINE
5
D2
100
AcDbEntity
8
SK4
62
256
6
ByLayer
370
18
48
0.05
60
0
100
AcDbLine
10
24
20
0
30
0
11
-53
21
0
31
0
39
0
210
0
220
0
230
1
0
LINE
5
D4
100
AcDbEntity
8
80
62
256
6
ByLayer
370
18
48
1
60
0
100
AcDbLine
10
0
20
0
30
0
11
-2
21
0
31
0
39
0
210
0
220
0
230
1
0
LINE
5
D5
100
AcDbEntity
8
81
62
256
6
ByLayer
370
18
48
1
60
0
100
AcDbLine
10
7
20
0
30
0
11
9
21
0
31
0
39
0
210
0
220
0
230
1
0
MTEXT
5
114
100
AcDbEntity
8
SK6
62
256
6
ByLayer
370
18
48
1
60
0
100
AcDbMText
10
-17.159584
20
-57.761933
30
0
210
0
220
0
230
1
1
\W0.8323;C8_CPA_01
40
3.5
41
0
44
1.084337
50
0
71
7
72
5
7
iso_b_vert
0
DIMENSION
5
119
100
AcDbEntity
8
SK2
62
256
6
ByLayer
370
18
48
1
60
0
100
AcDbDimension
2
_U0
10
39.962624
20
-40
30
0
11
39.962624
21
0
31
0
70
32
71
1
72
1
41
1
210
0
220
0
230
1
3
Standard
100
AcDbAlignedDimension
13
18.5
23
40
33
0
14
18.5
24
-40
34
0
50
-90
100
AcDbRotatedDimension
1001
ACAD
1000
DSTYLE
1002
{
1070
   371
1070
    13
1070
   372
1070
    13
1070
     3
1000
%%c<>
1070
   170
1070
     0
1070
   144
1040
1.0
1070
   277
1070
     2
1070
   284
1070
     8
1070
   278
1070
    46
1070
   146
1040
1.166667
1070
   345
1005
16
1070
   347
1005
16
1070
   346
1005
16
1070
   344
1005
11A
1070
   343
1005
11A
1070
   172
1070
     1
1070
    76
1070
     0
1070
    75
1070
     0
1070
   282
1070
     0
1070
   281
1070
     0
1070
    71
1070
     0
1070
    74
1070
     0
1070
   279
1070
     0
1070
   173
1070
     1
1070
   340
1005
115
1070
   271
1070
     2
1070
   272
1070
     2
1070
    77
1070
     1
1070
    73
1070
     0
1070
   171
1070
     3
1070
   274
1070
     4
1070
   177
1070
     7
1070
   176
1070
     7
1070
   178
1070
     7
1070
    78
1070
     8
1070
    48
1040
-0.1
1070
    41
1040
3.175
1070
   147
1040
1.5
1070
    42
1040
1.5875
1070
    44
1040
2.0
1070
   140
1040
3.0
1002
}
1001
ACAD_DSTYLE_DIM_LINETYPE
1070
   380
1005
16
1001
ACAD_DSTYLE_DIM_EXT1_LINETYPE
1070
   381
1005
16
1001
ACAD_DSTYLE_DIM_EXT2_LINETYPE
1070
   382
1005
16
0
DIMENSION
5
13F
100
AcDbEntity
8
2
62
256
6
ByLayer
370
18
48
1
60
0
100
AcDbDimension
2
_U1
10
19
20
46.761482
30
0
11
9.5
21
46.761482
31
0
70
32
71
1
72
1
41
1
210
0
220
0
230
1
3
Standard
100
AcDbAlignedDimension
13
0
23
39.7
33
0
14
19
24
39.5
34
0
50
0
100
AcDbRotatedDimension
1001
ACAD
1000
DSTYLE
1002
{
1070
   371
1070
    13
1070
   372
1070
    13
1070
   170
1070
     0
1070
   144
1040
1.0
1070
   277
1070
     2
1070
   284
1070
     8
1070
   278
1070
    46
1070
   146
1040
1.166667
1070
   345
1005
16
1070
   347
1005
16
1070
   346
1005
16
1070
   344
1005
11A
1070
   343
1005
11A
1070
   172
1070
     1
1070
    76
1070
     0
1070
    75
1070
     0
1070
   282
1070
     0
1070
   281
1070
     0
1070
    71
1070
     0
1070
    74
1070
     0
1070
   279
1070
     0
1070
   173
1070
     1
1070
   340
1005
115
1070
   271
1070
     2
1070
   272
1070
     2
1070
    77
1070
     1
1070
    73
1070
     1
1070
   171
1070
     3
1070
   274
1070
     4
1070
   177
1070
     7
1070
   176
1070
     7
1070
   178
1070
     7
1070
    78
1070
     8
1070
    48
1040
-0.1
1070
    41
1040
3.175
1070
   147
1040
1.5
1070
    42
1040
1.5875
1070
    44
1040
2.0
1070
   140
1040
3.0
1002
}
1001
ACAD_DSTYLE_DIM_LINETYPE
1070
   380
1005
16
1001
ACAD_DSTYLE_DIM_EXT1_LINETYPE
1070
   381
1005
16
1001
ACAD_DSTYLE_DIM_EXT2_LINETYPE
1070
   382
1005
16
0
DIMENSION
5
15C
100
AcDbEntity
8
SK2
62
256
6
ByLayer
370
18
48
1
60
0
100
AcDbDimension
2
_U2
10
19
20
-47.164748
30
0
11
32.992857
21
-47.164748
31
0
70
32
71
1
72
1
41
1
210
0
220
0
230
1
3
Standard
100
AcDbAlignedDimension
13
18.5
23
-40
33
0
14
19
24
-39.5
34
0
50
0
100
AcDbRotatedDimension
1001
ACAD
1000
DSTYLE
1002
{
1070
   371
1070
    13
1070
   372
1070
    13
1070
   170
1070
     0
1070
   144
1040
1.0
1070
   277
1070
     2
1070
   284
1070
     8
1070
   278
1070
    46
1070
   146
1040
1.166667
1070
   345
1005
16
1070
   347
1005
16
1070
   346
1005
16
1070
   344
1005
11A
1070
   343
1005
11A
1070
   172
1070
     1
1070
    76
1070
     0
1070
    75
1070
     0
1070
   282
1070
     0
1070
   281
1070
     0
1070
    71
1070
     0
1070
    74
1070
     0
1070
   279
1070
     0
1070
   173
1070
     1
1070
   340
1005
115
1070
   271
1070
     2
1070
   272
1070
     2
1070
    77
1070
     1
1070
    73
1070
     1
1070
   171
1070
     3
1070
   274
1070
     4
1070
   177
1070
     7
1070
   176
1070
     7
1070
   178
1070
     7
1070
    78
1070
     8
1070
    48
1040
-0.1
1070
    41
1040
3.175
1070
   147
1040
1.5
1070
    42
1040
1.5875
1070
    44
1040
2.0
1070
   140
1040
3.0
1002
}
1001
ACAD_DSTYLE_DIM_LINETYPE
1070
   380
1005
16
1001
ACAD_DSTYLE_DIM_EXT1_LINETYPE
1070
   381
1005
16
1001
ACAD_DSTYLE_DIM_EXT2_LINETYPE
1070
   382
1005
16
0
ENDSEC
0
SECTION
2
OBJECTS
0
DICTIONARY
5
1eb
330
0
100
AcDbDictionary
280
0
281
1
3
ACAD_GROUP
350
1ec
3
ACAD_MLINESTYLE
350
1ed
0
DICTIONARY
5
1ec
330
0
100
AcDbDictionary
280
0
281
1
0
DICTIONARY
5
1ed
330
0
100
AcDbDictionary
280
0
281
1
3
Standard
350
18
0
MLINESTYLE
5
18
330
1ed
100
AcDbMlineStyle
2
Standard
70
0
3

62
256
51
90
52
90
71
2
49
-0.5
62
256
6
ByLayer
49
0.5
62
256
6
ByLayer
0
RASTERVARIABLES
5
1d8
330

100
AcDbRasterVariables
90
0
70
1
71
1
72
1
0
ENDSEC
0
EOF
