0
SECTION
2
HEADER
9
$ACADVER
1
AC1015
9
$DWGCODEPAGE
3
ANSI_1252
9
$HANDSEED
5
1ce
9
$ANGBASE
50
0
9
$ANGDIR
70
0
9
$ATTMODE
70
1
9
$AUNITS
70
0
9
$AUPREC
70
0
9
$CECOLOR
62
256
9
$CELTSCALE
40
1
9
$CELTYPE
6
ByLayer
9
$CELWEIGHT
370
18
9
$CLAYER
8
0
9
$CMLJUST
70
0
9
$CMLSCALE
40
1
9
$CMLSTYLE
2
Standard
9
$DIMSTYLE
2
Standard
9
$TEXTSIZE
40
0.2
9
$TEXTSTYLE
7
Standard
9
$LUNITS
70
2
9
$LUPREC
70
4
9
$EXTNAMES
290
1
9
$INSUNITS
70
4
9
$LTSCALE
40
1
9
$LWDISPLAY
290
1
9
$PDMODE
70
0
9
$PDSIZE
40
0
9
$PLINEGEN
70
0
0
ENDSEC
0
SECTION
2
CLASSES
0
CLASS
1
RASTERVARIABLES
2
AcDbRasterVariables
3
ISM
90
0
280
0
281
0
0
ENDSEC
0
SECTION
2
TABLES
0
TABLE
2
VPORT
5
1c4
100
AcDbSymbolTable
0
VPORT
5
1
100
AcDbSymbolTableRecord
100
AcDbViewportTableRecord
2
*Active
70
0
10
0
20
0
11
1
21
1
12
-1
22
1
13
0
23
0
14
0.5
24
0.5
15
10
25
10
16
0
26
0
36
1
17
0
27
0
37
0
0
ENDTAB
0
TABLE
2
LTYPE
5
1c5
100
AcDbSymbolTable
0
LTYPE
5
14
100
AcDbSymbolTableRecord
100
AcDbLinetypeTableRecord
70
0
2
ByBlock
3

72
65
73
0
40
0
0
LTYPE
5
15
100
AcDbSymbolTableRecord
100
AcDbLinetypeTableRecord
70
0
2
ByLayer
3

72
65
73
0
40
0
0
LTYPE
5
16
100
AcDbSymbolTableRecord
100
AcDbLinetypeTableRecord
70
0
2
Continuous
3
Solid line
72
65
73
0
40
0
0
LTYPE
5
6E
100
AcDbSymbolTableRecord
100
AcDbLinetypeTableRecord
70
0
2
CENTER
3
____ _ ____ _ ____ _ ____
72
65
73
4
40
47.5
49
22
74
0
49
-8.5
74
0
49
8.5
74
0
49
-8.5
74
0
0
LTYPE
5
6F
100
AcDbSymbolTableRecord
100
AcDbLinetypeTableRecord
70
0
2
DASHED
3
__ __ __ __ __ __ __ __ __
72
65
73
2
40
25.72
49
12.86
74
0
49
-12.86
74
0
0
ENDTAB
0
TABLE
2
LAYER
5
1c6
100
AcDbSymbolTable
0
LAYER
5
10
100
AcDbSymbolTableRecord
100
AcDbLayerTableRecord
2
0
70
0
62
7
6
Continuous
290
1
370
-3
390
0
0
LAYER
5
71
100
AcDbSymbolTableRecord
100
AcDbLayerTableRecord
2
80
70
0
62
-6
6
Continuous
290
1
370
-3
390
0
0
LAYER
5
73
100
AcDbSymbolTableRecord
100
AcDbLayerTableRecord
2
81
70
0
62
-3
6
Continuous
290
1
370
-3
390
0
0
LAYER
5
96
100
AcDbSymbolTableRecord
100
AcDbLayerTableRecord
2
1
70
0
62
4
6
Continuous
290
1
370
-3
390
0
0
LAYER
5
C7
100
AcDbSymbolTableRecord
100
AcDbLayerTableRecord
2
4
70
0
62
-2
6
CENTER
290
1
370
-3
390
0
0
LAYER
5
F9
100
AcDbSymbolTableRecord
100
AcDbLayerTableRecord
2
Defpoints
70
0
62
7
6
Continuous
290
0
370
-3
390
0
0
LAYER
5
106
100
AcDbSymbolTableRecord
100
AcDbLayerTableRecord
2
2
70
0
62
7
6
Continuous
290
1
370
-3
390
0
0
LAYER
5
1af
100
AcDbSymbolTableRecord
100
AcDbLayerTableRecord
2
SK3
70
0
62
1
6
DASHED
290
1
370
-3
390
0
0
LAYER
5
1b0
100
AcDbSymbolTableRecord
100
AcDbLayerTableRecord
2
SK1
70
0
62
4
6
Continuous
290
1
370
-3
390
0
0
LAYER
5
1b1
100
AcDbSymbolTableRecord
100
AcDbLayerTableRecord
2
SK4
70
0
62
2
6
CENTER
290
1
370
-3
390
0
0
LAYER
5
1b2
100
AcDbSymbolTableRecord
100
AcDbLayerTableRecord
2
SK6
70
0
62
5
6
Continuous
290
1
370
-3
390
0
0
LAYER
5
1b3
100
AcDbSymbolTableRecord
100
AcDbLayerTableRecord
2
SK2
70
0
62
7
6
Continuous
290
1
370
-3
390
0
0
ENDTAB
0
TABLE
2
STYLE
5
1c7
100
AcDbSymbolTable
0
STYLE
5
11
100
AcDbSymbolTableRecord
100
AcDbTextStyleTableRecord
2
Standard
3
txt
70
0
71
0
40
0
41
1
42
0
50
0
0
STYLE
5
EB
100
AcDbSymbolTableRecord
100
AcDbTextStyleTableRecord
2
iso_b_vert
3
simplex.shx
70
0
71
0
40
0
41
1
42
0
50
0
0
STYLE
5
EC
100
AcDbSymbolTableRecord
100
AcDbTextStyleTableRecord
2
DWGDirectTextStyle
3
simplex
70
0
71
0
40
0
41
1
42
0
50
0
0
ENDTAB
0
TABLE
2
DIMSTYLE
5
1c8
100
AcDbSymbolTable
100
AcDbDimStyleTable
0
DIMSTYLE
105
27
100
AcDbSymbolTableRecord
100
AcDbDimStyleTableRecord
2
Standard
70
0
3
<>
41
0.18
42
0.0625
44
0.18
140
0.18
147
0.09
73
0
74
0
77
1
271
2
275
0
278
52
280
0
340
11
0
ENDTAB
0
TABLE
2
VIEW
5
1c9
100
AcDbSymbolTable
0
ENDTAB
0
TABLE
2
UCS
5
1ca
100
AcDbSymbolTable
0
ENDTAB
0
TABLE
2
APPID
5
1cb
100
AcDbSymbolTable
0
APPID
5
12
100
AcDbSymbolTableRecord
100
AcDbRegAppTableRecord
2
ACAD
70
0
0
APPID
5
EE
100
AcDbSymbolTableRecord
100
AcDbRegAppTableRecord
2
ACAD_DSTYLE_DIMBREAK
70
0
0
APPID
5
16E
100
AcDbSymbolTableRecord
100
AcDbRegAppTableRecord
2
ACAD_DSTYLE_DIM_LINETYPE
70
0
0
APPID
5
16F
100
AcDbSymbolTableRecord
100
AcDbRegAppTableRecord
2
ACAD_DSTYLE_DIM_EXT1_LINETYPE
70
0
0
APPID
5
170
100
AcDbSymbolTableRecord
100
AcDbRegAppTableRecord
2
ACAD_DSTYLE_DIM_EXT2_LINETYPE
70
0
0
APPID
5
1AB
100
AcDbSymbolTableRecord
100
AcDbRegAppTableRecord
2
ACAD_MLEADERVER
70
0
0
ENDTAB
0
TABLE
2
BLOCK_RECORD
5
1cc
100
AcDbSymbolTable
0
BLOCK_RECORD
5
1F
100
AcDbSymbolTableRecord
100
AcDbBlockTableRecord
2
*Model_Space
340
0
70
0
0
BLOCK_RECORD
5
1B
100
AcDbSymbolTableRecord
100
AcDbBlockTableRecord
2
*Paper_Space
340
0
70
0
0
BLOCK_RECORD
5
23
100
AcDbSymbolTableRecord
100
AcDbBlockTableRecord
2
*Paper_Space0
340
0
70
0
0
BLOCK_RECORD
5
F0
100
AcDbSymbolTableRecord
100
AcDbBlockTableRecord
2
_Closed
340
0
70
0
0
BLOCK_RECORD
5
FA
100
AcDbSymbolTableRecord
100
AcDbBlockTableRecord
2
*D2
340
0
70
0
0
BLOCK_RECORD
5
107
100
AcDbSymbolTableRecord
100
AcDbBlockTableRecord
2
_U0
340
0
70
0
0
BLOCK_RECORD
5
117
100
AcDbSymbolTableRecord
100
AcDbBlockTableRecord
2
*D4
340
0
70
0
0
BLOCK_RECORD
5
124
100
AcDbSymbolTableRecord
100
AcDbBlockTableRecord
2
_U1
340
0
70
0
0
BLOCK_RECORD
5
135
100
AcDbSymbolTableRecord
100
AcDbBlockTableRecord
2
*D6
340
0
70
0
0
BLOCK_RECORD
5
143
100
AcDbSymbolTableRecord
100
AcDbBlockTableRecord
2
_U2
340
0
70
0
0
ENDTAB
0
ENDSEC
0
SECTION
2
BLOCKS
0
BLOCK
5
20
100
AcDbEntity
8
0
100
AcDbBlockBegin
2
*Model_Space
70
0
10
0
20
0
30
0
3
*Model_Space
0
ENDBLK
5
21
100
AcDbEntity
8
0
100
AcDbBlockEnd
0
BLOCK
5
1C
100
AcDbEntity
8
0
100
AcDbBlockBegin
2
*Paper_Space
70
0
10
0
20
0
30
0
3
*Paper_Space
0
ENDBLK
5
1D
100
AcDbEntity
8
0
100
AcDbBlockEnd
0
BLOCK
5
24
100
AcDbEntity
8
0
100
AcDbBlockBegin
2
*Paper_Space0
70
0
10
0
20
0
30
0
3
*Paper_Space0
0
ENDBLK
5
25
100
AcDbEntity
8
0
100
AcDbBlockEnd
0
BLOCK
5
F1
100
AcDbEntity
8
0
100
AcDbBlockBegin
2
_Closed
70
0
10
0
20
0
30
0
3
_Closed
0
LINE
5
F3
100
AcDbEntity
8
0
62
256
6
ByLayer
370
-2
48
1
60
0
100
AcDbLine
10
-1
20
0.166667
30
0
11
0
21
0
31
0
39
0
210
0
220
0
230
1
0
LINE
5
F4
100
AcDbEntity
8
0
62
256
6
ByLayer
370
-2
48
1
60
0
100
AcDbLine
10
0
20
0
30
0
11
-1
21
-0.166667
31
0
39
0
210
0
220
0
230
1
0
LINE
5
F5
100
AcDbEntity
8
0
62
256
6
ByLayer
370
-2
48
1
60
0
100
AcDbLine
10
-1
20
0.166667
30
0
11
-1
21
-0.166667
31
0
39
0
210
0
220
0
230
1
0
LINE
5
F6
100
AcDbEntity
8
0
62
256
6
ByLayer
370
-2
48
1
60
0
100
AcDbLine
10
0
20
0
30
0
11
-1
21
0
31
0
39
0
210
0
220
0
230
1
0
ENDBLK
5
F2
100
AcDbEntity
8
0
100
AcDbBlockEnd
0
BLOCK
5
FB
100
AcDbEntity
8
0
100
AcDbBlockBegin
2
*D2
70
1
10
0
20
0
30
0
3
*D2
0
LINE
5
FD
100
AcDbEntity
8
0
62
256
6
ByLayer
370
-2
48
1
60
0
100
AcDbLine
10
0
20
26.1875
30
0
11
0
21
35.957446
31
0
39
0
210
0
220
0
230
1
0
LINE
5
FE
100
AcDbEntity
8
0
62
256
6
ByLayer
370
-2
48
1
60
0
100
AcDbLine
10
19
20
26.0875
30
0
11
19
21
35.957446
31
0
39
0
210
0
220
0
230
1
0
LINE
5
FF
100
AcDbEntity
8
0
62
256
6
ByLayer
370
-2
48
1
60
0
100
AcDbLine
10
3.175
20
33.957446
30
0
11
15.825
21
33.957446
31
0
39
0
210
0
220
0
230
1
0
SOLID
5
100
100
AcDbEntity
8
0
62
256
6
ByLayer
370
-1
48
1
60
0
100
AcDbTrace
10
3.175
20
34.486613
30
0
11
3.175
21
33.42828
31
0
12
0
22
33.957446
32
0
13
0
23
33.957446
33
0
39
0
210
0
220
0
230
1
0
SOLID
5
101
100
AcDbEntity
8
0
62
256
6
ByLayer
370
-1
48
1
60
0
100
AcDbTrace
10
15.825
20
33.42828
30
0
11
15.825
21
34.486613
31
0
12
19
22
33.957446
32
0
13
19
23
33.957446
33
0
39
0
210
0
220
0
230
1
0
MTEXT
5
102
100
AcDbEntity
8
0
62
256
6
ByLayer
370
18
48
1
60
0
100
AcDbMText
10
9.5
20
39.957446
30
0
210
0
220
0
230
1
1
\A1;19
40
3
41
0
44
1
50
0
71
5
72
5
7
iso_b_vert
0
POINT
5
103
100
AcDbEntity
8
Defpoints
62
0
6
ByLayer
370
-1
48
1
60
0
100
AcDbPoint
10
0
20
24.6
30
0
39
0
210
0
220
0
230
1
50
360
0
POINT
5
104
100
AcDbEntity
8
Defpoints
62
0
6
ByLayer
370
-1
48
1
60
0
100
AcDbPoint
10
19
20
24.5
30
0
39
0
210
0
220
0
230
1
50
360
0
POINT
5
105
100
AcDbEntity
8
Defpoints
62
0
6
ByLayer
370
-1
48
1
60
0
100
AcDbPoint
10
19
20
33.957446
30
0
39
0
210
0
220
0
230
1
50
360
0
ENDBLK
5
FC
100
AcDbEntity
8
0
100
AcDbBlockEnd
0
BLOCK
5
112
100
AcDbEntity
8
0
100
AcDbBlockBegin
2
_U0
70
0
10
0
20
0
30
0
3
_U0
0
MTEXT
5
108
100
AcDbEntity
8
2
62
256
6
ByLayer
370
18
48
1
60
0
100
AcDbMText
10
8.242115
20
34.842561
30
0
210
0
220
0
230
1
1
\W0.5469;19
40
3
41
0
44
1.084337
50
0
71
7
72
5
7
iso_b_vert
0
LINE
5
109
100
AcDbEntity
8
2
62
256
6
ByLayer
370
13
48
1
60
0
100
AcDbLine
10
0
20
26.1875
30
0
11
0
21
35.957446
31
0
39
0
210
0
220
0
230
1
0
LINE
5
10A
100
AcDbEntity
8
2
62
256
6
ByLayer
370
13
48
1
60
0
100
AcDbLine
10
19
20
26.0875
30
0
11
19
21
35.957446
31
0
39
0
210
0
220
0
230
1
0
LINE
5
10B
100
AcDbEntity
8
2
62
256
6
ByLayer
370
13
48
1
60
0
100
AcDbLine
10
0
20
33.957446
30
0
11
19
21
33.957446
31
0
39
0
210
0
220
0
230
1
0
LINE
5
10C
100
AcDbEntity
8
2
62
256
6
ByLayer
370
13
48
1
60
0
100
AcDbLine
10
0
20
33.957446
30
0
11
3.174998
21
34.375443
31
0
39
0
210
0
220
0
230
1
0
LINE
5
10D
100
AcDbEntity
8
2
62
256
6
ByLayer
370
13
48
1
60
0
100
AcDbLine
10
0
20
33.957446
30
0
11
3.175002
21
33.53945
31
0
39
0
210
0
220
0
230
1
0
LINE
5
10E
100
AcDbEntity
8
2
62
256
6
ByLayer
370
13
48
1
60
0
100
AcDbLine
10
3.174998
20
34.375443
30
0
11
3.175002
21
33.53945
31
0
39
0
210
0
220
0
230
1
0
LINE
5
10F
100
AcDbEntity
8
2
62
256
6
ByLayer
370
13
48
1
60
0
100
AcDbLine
10
19
20
33.957446
30
0
11
15.825002
21
33.53945
31
0
39
0
210
0
220
0
230
1
0
LINE
5
110
100
AcDbEntity
8
2
62
256
6
ByLayer
370
13
48
1
60
0
100
AcDbLine
10
19
20
33.957446
30
0
11
15.824998
21
34.375443
31
0
39
0
210
0
220
0
230
1
0
LINE
5
111
100
AcDbEntity
8
2
62
256
6
ByLayer
370
13
48
1
60
0
100
AcDbLine
10
15.825002
20
33.53945
30
0
11
15.824998
21
34.375443
31
0
39
0
210
0
220
0
230
1
0
ENDBLK
5
113
100
AcDbEntity
8
0
100
AcDbBlockEnd
0
BLOCK
5
118
100
AcDbEntity
8
0
100
AcDbBlockBegin
2
*D4
70
1
10
0
20
0
30
0
3
*D4
0
LINE
5
11A
100
AcDbEntity
8
0
62
256
6
ByLayer
370
-2
48
1
60
0
100
AcDbLine
10
20.0875
20
25
30
0
11
38.310575
21
25
31
0
39
0
210
0
220
0
230
1
0
LINE
5
11B
100
AcDbEntity
8
0
62
256
6
ByLayer
370
-2
48
1
60
0
100
AcDbLine
10
20.0875
20
-25
30
0
11
38.310575
21
-25
31
0
39
0
210
0
220
0
230
1
0
LINE
5
11C
100
AcDbEntity
8
0
62
256
6
ByLayer
370
-2
48
1
60
0
100
AcDbLine
10
36.310575
20
21.825
30
0
11
36.310575
21
-21.825
31
0
39
0
210
0
220
0
230
1
0
SOLID
5
11D
100
AcDbEntity
8
0
62
256
6
ByLayer
370
-1
48
1
60
0
100
AcDbTrace
10
36.839742
20
21.825
30
0
11
35.781408
21
21.825
31
0
12
36.310575
22
25
32
0
13
36.310575
23
25
33
0
39
0
210
0
220
0
230
1
0
SOLID
5
11E
100
AcDbEntity
8
0
62
256
6
ByLayer
370
-1
48
1
60
0
100
AcDbTrace
10
35.781408
20
-21.825
30
0
11
36.839742
21
-21.825
31
0
12
36.310575
22
-25
32
0
13
36.310575
23
-25
33
0
39
0
210
0
220
0
230
1
0
MTEXT
5
11F
100
AcDbEntity
8
0
62
256
6
ByLayer
370
18
48
1
60
0
100
AcDbMText
10
30.310575
20
0
30
0
210
0
220
0
230
1
1
\A1;50
40
3
41
0
44
1
50
90
71
5
72
5
7
iso_b_vert
0
POINT
5
120
100
AcDbEntity
8
Defpoints
62
0
6
ByLayer
370
-1
48
1
60
0
100
AcDbPoint
10
18.5
20
25
30
0
39
0
210
0
220
0
230
1
50
360
0
POINT
5
121
100
AcDbEntity
8
Defpoints
62
0
6
ByLayer
370
-1
48
1
60
0
100
AcDbPoint
10
18.5
20
-25
30
0
39
0
210
0
220
0
230
1
50
360
0
POINT
5
122
100
AcDbEntity
8
Defpoints
62
0
6
ByLayer
370
-1
48
1
60
0
100
AcDbPoint
10
36.310575
20
-25
30
0
39
0
210
0
220
0
230
1
50
360
0
ENDBLK
5
119
100
AcDbEntity
8
0
100
AcDbBlockEnd
0
BLOCK
5
130
100
AcDbEntity
8
0
100
AcDbBlockBegin
2
_U1
70
0
10
0
20
0
30
0
3
_U1
0
MTEXT
5
125
100
AcDbEntity
8
SK2
62
256
6
ByLayer
370
18
48
1
60
0
100
AcDbMText
10
34.969461
20
2.093172
30
0
210
0
220
0
230
1
1
\W0.6740;50
40
3
41
0
44
1.084337
50
90
71
7
72
5
7
iso_b_vert
0
MTEXT
5
126
100
AcDbEntity
8
SK2
62
256
6
ByLayer
370
18
48
1
60
0
100
AcDbMText
10
34.969461
20
-5.406828
30
0
210
0
220
0
230
1
1
%%c
40
3
41
0
44
1.084337
50
90
71
7
72
5
7
iso_b_vert
0
LINE
5
127
100
AcDbEntity
8
SK2
62
256
6
ByLayer
370
13
48
1
60
0
100
AcDbLine
10
20.0875
20
25
30
0
11
38.310575
21
25
31
0
39
0
210
0
220
0
230
1
0
LINE
5
128
100
AcDbEntity
8
SK2
62
256
6
ByLayer
370
13
48
1
60
0
100
AcDbLine
10
20.0875
20
-25
30
0
11
38.310575
21
-25
31
0
39
0
210
0
220
0
230
1
0
LINE
5
129
100
AcDbEntity
8
SK2
62
256
6
ByLayer
370
13
48
1
60
0
100
AcDbLine
10
36.310575
20
25
30
0
11
36.310575
21
-25
31
0
39
0
210
0
220
0
230
1
0
LINE
5
12A
100
AcDbEntity
8
SK2
62
256
6
ByLayer
370
13
48
1
60
0
100
AcDbLine
10
36.310575
20
25
30
0
11
36.728572
21
21.825002
31
0
39
0
210
0
220
0
230
1
0
LINE
5
12B
100
AcDbEntity
8
SK2
62
256
6
ByLayer
370
13
48
1
60
0
100
AcDbLine
10
36.310575
20
25
30
0
11
35.892578
21
21.824998
31
0
39
0
210
0
220
0
230
1
0
LINE
5
12C
100
AcDbEntity
8
SK2
62
256
6
ByLayer
370
13
48
1
60
0
100
AcDbLine
10
36.728572
20
21.825002
30
0
11
35.892578
21
21.824998
31
0
39
0
210
0
220
0
230
1
0
LINE
5
12D
100
AcDbEntity
8
SK2
62
256
6
ByLayer
370
13
48
1
60
0
100
AcDbLine
10
36.310575
20
-25
30
0
11
35.892578
21
-21.825002
31
0
39
0
210
0
220
0
230
1
0
LINE
5
12E
100
AcDbEntity
8
SK2
62
256
6
ByLayer
370
13
48
1
60
0
100
AcDbLine
10
36.310575
20
-25
30
0
11
36.728572
21
-21.824998
31
0
39
0
210
0
220
0
230
1
0
LINE
5
12F
100
AcDbEntity
8
SK2
62
256
6
ByLayer
370
13
48
1
60
0
100
AcDbLine
10
35.892578
20
-21.825002
30
0
11
36.728572
21
-21.824998
31
0
39
0
210
0
220
0
230
1
0
ENDBLK
5
131
100
AcDbEntity
8
0
100
AcDbBlockEnd
0
BLOCK
5
136
100
AcDbEntity
8
0
100
AcDbBlockBegin
2
*D6
70
1
10
0
20
0
30
0
3
*D6
0
LINE
5
138
100
AcDbEntity
8
0
62
256
6
ByLayer
370
-2
48
1
60
0
100
AcDbLine
10
18.5
20
-26.5875
30
0
11
18.5
21
-34.174797
31
0
39
0
210
0
220
0
230
1
0
LINE
5
139
100
AcDbEntity
8
0
62
256
6
ByLayer
370
-2
48
1
60
0
100
AcDbLine
10
19
20
-26.0875
30
0
11
19
21
-34.174797
31
0
39
0
210
0
220
0
230
1
0
LINE
5
13A
100
AcDbEntity
8
0
62
256
6
ByLayer
370
-2
48
1
60
0
100
AcDbLine
10
19
20
-32.174797
30
0
11
40.635714
21
-32.174797
31
0
39
0
210
0
220
0
230
1
0
LINE
5
13B
100
AcDbEntity
8
0
62
256
6
ByLayer
370
-2
48
1
60
0
100
AcDbLine
10
15.325
20
-32.174797
30
0
11
12.15
21
-32.174797
31
0
39
0
210
0
220
0
230
1
0
LINE
5
13C
100
AcDbEntity
8
0
62
256
6
ByLayer
370
-2
48
1
60
0
100
AcDbLine
10
22.175
20
-32.174797
30
0
11
25.35
21
-32.174797
31
0
39
0
210
0
220
0
230
1
0
SOLID
5
13D
100
AcDbEntity
8
0
62
256
6
ByLayer
370
-1
48
1
60
0
100
AcDbTrace
10
15.325
20
-32.703964
30
0
11
15.325
21
-31.645631
31
0
12
18.5
22
-32.174797
32
0
13
18.5
23
-32.174797
33
0
39
0
210
0
220
0
230
1
0
SOLID
5
13E
100
AcDbEntity
8
0
62
256
6
ByLayer
370
-1
48
1
60
0
100
AcDbTrace
10
22.175
20
-31.645631
30
0
11
22.175
21
-32.703964
31
0
12
19
22
-32.174797
32
0
13
19
23
-32.174797
33
0
39
0
210
0
220
0
230
1
0
MTEXT
5
13F
100
AcDbEntity
8
0
62
256
6
ByLayer
370
18
48
1
60
0
100
AcDbMText
10
32.992857
20
-26.174797
30
0
210
0
220
0
230
1
1
\A1;0.5
40
3
41
0
44
1
50
0
71
5
72
5
7
iso_b_vert
0
POINT
5
140
100
AcDbEntity
8
Defpoints
62
0
6
ByLayer
370
-1
48
1
60
0
100
AcDbPoint
10
18.5
20
-25
30
0
39
0
210
0
220
0
230
1
50
360
0
POINT
5
141
100
AcDbEntity
8
Defpoints
62
0
6
ByLayer
370
-1
48
1
60
0
100
AcDbPoint
10
19
20
-24.5
30
0
39
0
210
0
220
0
230
1
50
360
0
POINT
5
142
100
AcDbEntity
8
Defpoints
62
0
6
ByLayer
370
-1
48
1
60
0
100
AcDbPoint
10
19
20
-32.174797
30
0
39
0
210
0
220
0
230
1
50
360
0
ENDBLK
5
137
100
AcDbEntity
8
0
100
AcDbBlockEnd
0
BLOCK
5
14E
100
AcDbEntity
8
0
100
AcDbBlockBegin
2
_U2
70
0
10
0
20
0
30
0
3
_U2
0
MTEXT
5
144
100
AcDbEntity
8
SK2
62
256
6
ByLayer
370
18
48
1
60
0
100
AcDbMText
10
22.806843
20
-31.289683
30
0
210
0
220
0
230
1
1
\W0.7121;0.5
40
3
41
0
44
1.084337
50
0
71
7
72
5
7
iso_b_vert
0
LINE
5
145
100
AcDbEntity
8
SK2
62
256
6
ByLayer
370
13
48
1
60
0
100
AcDbLine
10
18.5
20
-26.5875
30
0
11
18.5
21
-34.174797
31
0
39
0
210
0
220
0
230
1
0
LINE
5
146
100
AcDbEntity
8
SK2
62
256
6
ByLayer
370
13
48
1
60
0
100
AcDbLine
10
19
20
-26.0875
30
0
11
19
21
-34.174797
31
0
39
0
210
0
220
0
230
1
0
LINE
5
147
100
AcDbEntity
8
SK2
62
256
6
ByLayer
370
13
48
1
60
0
100
AcDbLine
10
27.446927
20
-32.174797
30
0
11
11
21
-32.174797
31
0
39
0
210
0
220
0
230
1
0
LINE
5
148
100
AcDbEntity
8
SK2
62
256
6
ByLayer
370
13
48
1
60
0
100
AcDbLine
10
18.5
20
-32.174797
30
0
11
15.325002
21
-32.592794
31
0
39
0
210
0
220
0
230
1
0
LINE
5
149
100
AcDbEntity
8
SK2
62
256
6
ByLayer
370
13
48
1
60
0
100
AcDbLine
10
18.5
20
-32.174797
30
0
11
15.324998
21
-31.756801
31
0
39
0
210
0
220
0
230
1
0
LINE
5
14A
100
AcDbEntity
8
SK2
62
256
6
ByLayer
370
13
48
1
60
0
100
AcDbLine
10
15.325002
20
-32.592794
30
0
11
15.324998
21
-31.756801
31
0
39
0
210
0
220
0
230
1
0
LINE
5
14B
100
AcDbEntity
8
SK2
62
256
6
ByLayer
370
13
48
1
60
0
100
AcDbLine
10
19
20
-32.174797
30
0
11
22.174998
21
-31.756801
31
0
39
0
210
0
220
0
230
1
0
LINE
5
14C
100
AcDbEntity
8
SK2
62
256
6
ByLayer
370
13
48
1
60
0
100
AcDbLine
10
19
20
-32.174797
30
0
11
22.175002
21
-32.592794
31
0
39
0
210
0
220
0
230
1
0
LINE
5
14D
100
AcDbEntity
8
SK2
62
256
6
ByLayer
370
13
48
1
60
0
100
AcDbLine
10
22.174998
20
-31.756801
30
0
11
22.175002
21
-32.592794
31
0
39
0
210
0
220
0
230
1
0
ENDBLK
5
14F
100
AcDbEntity
8
0
100
AcDbBlockEnd
0
ENDSEC
0
SECTION
2
ENTITIES
0
ARC
5
CC
100
AcDbEntity
8
SK3
62
256
6
ByLayer
370
18
48
0.05
60
0
100
AcDbCircle
39
0
10
-1.1
20
19.25
30
0
40
1.5
210
0
220
0
230
1
100
AcDbArc
50
0
51
42.833428
0
ARC
5
CD
100
AcDbEntity
8
SK3
62
256
6
ByLayer
370
18
48
0.05
60
0
100
AcDbCircle
39
0
10
-1.1
20
-19.25
30
0
40
1.5
210
0
220
0
230
1
100
AcDbArc
50
0
51
42.833428
0
ARC
5
CE
100
AcDbEntity
8
SK3
62
256
6
ByLayer
370
18
48
0.05
60
0
100
AcDbCircle
39
0
10
-1.1
20
-19.25
30
0
40
1.49999999999999
210
0
220
0
230
1
100
AcDbArc
50
317.166572
51
0
0
ARC
5
CF
100
AcDbEntity
8
SK3
62
256
6
ByLayer
370
18
48
0.05
60
0
100
AcDbCircle
39
0
10
-1.1
20
19.25
30
0
40
1.5
210
0
220
0
230
1
100
AcDbArc
50
317.164911
51
0
0
ARC
5
D0
100
AcDbEntity
8
SK1
62
256
6
ByLayer
370
18
48
1
60
0
100
AcDbCircle
39
0
10
-1.1
20
19.25
30
0
40
1.50000000000001
210
0
220
0
230
1
100
AcDbArc
50
225
51
317.164921
0
ARC
5
D1
100
AcDbEntity
8
SK3
62
256
6
ByLayer
370
18
48
0.05
60
0
100
AcDbCircle
39
0
10
-23
20
10.5
30
0
40
1.5
210
0
220
0
230
1
100
AcDbArc
50
90
51
160.528779
0
ARC
5
D2
100
AcDbEntity
8
SK3
62
256
6
ByLayer
370
18
48
0.05
60
0
100
AcDbCircle
39
0
10
-23
20
-10.5
30
0
40
1.5
210
0
220
0
230
1
100
AcDbArc
50
199.471221
51
270
0
ARC
5
D3
100
AcDbEntity
8
SK3
62
256
6
ByLayer
370
18
48
0.05
60
0
100
AcDbCircle
39
0
10
-21.914214
20
10.5
30
0
40
1.5
210
0
220
0
230
1
100
AcDbArc
50
0
51
90
0
ARC
5
D4
100
AcDbEntity
8
SK3
62
256
6
ByLayer
370
18
48
0.05
60
0
100
AcDbCircle
39
0
10
-21.914214
20
-10.5
30
0
40
1.5
210
0
220
0
230
1
100
AcDbArc
50
270
51
0
0
ELLIPSE
5
D5
100
AcDbEntity
8
1
62
256
6
ByLayer
370
18
48
1
60
0
100
AcDbEllipse
10
21.067176
20
0
30
0
11
11.7093854195054
21
24.6772452031899
31
0
210
0
220
0
230
1
40
0.341998
41
2.03925021493456
42
2.994888009439
0
ELLIPSE
5
D6
100
AcDbEntity
8
1
62
256
6
ByLayer
370
18
48
1
60
0
100
AcDbEllipse
10
-1.067174
20
0
30
0
11
-11.7093393351255
21
24.6772427734629
31
0
210
0
220
0
230
1
40
0.342001
41
-2.99489186068102
42
-2.03925406617624
0
ELLIPSE
5
D7
100
AcDbEntity
8
1
62
256
6
ByLayer
370
18
48
1
60
0
100
AcDbEllipse
10
21.067176
20
0
30
0
11
-11.7093393351407
21
24.6772427734814
31
0
210
0
220
0
230
1
40
0.342001
41
0.146700792908679
42
1.10233858741297
0
ELLIPSE
5
D8
100
AcDbEntity
8
1
62
256
6
ByLayer
370
18
48
1
60
0
100
AcDbEllipse
10
-1.067174
20
0
30
0
11
11.7093854195094
21
24.6772452031955
31
0
210
0
220
0
230
1
40
0.341998
41
-1.10234243865513
42
-0.146704644150836
0
POINT
5
70
100
AcDbEntity
8
80
62
256
6
ByLayer
370
18
48
1
60
0
100
AcDbPoint
10
0
20
0
30
0
39
0
210
0
220
0
230
1
50
360
0
POINT
5
72
100
AcDbEntity
8
81
62
256
6
ByLayer
370
18
48
1
60
0
100
AcDbPoint
10
12
20
0
30
0
39
0
210
0
220
0
230
1
50
360
0
SPLINE
5
D9
100
AcDbEntity
8
SK1
62
256
6
ByLayer
370
18
48
1
60
0
100
AcDbSpline
70
4
71
3
72
20
73
16
40
0
40
0
40
0
40
0
40
0.249279234786453
40
0.249279234786453
40
0.374399362322044
40
0.374399362322044
40
0.405679394205942
40
0.405679394205942
40
0.43695942608984
40
0.43695942608984
40
0.499519489857636
40
0.499519489857636
40
0.749759744928818
40
0.749759744928818
40
1
40
1
40
1
40
1
41
1
10
-2.58178466262419
20
18.6104642118669
30
0
41
1
10
-2.58176048054611
20
18.6104166717997
30
0
41
1
10
-2.57298629618029
20
18.5931890463641
30
0
41
1
10
-2.5465387004636
20
18.5413695841041
30
0
41
1
10
-2.53546860120861
20
18.5196910060693
30
0
41
1
10
-2.5187825358563
20
18.4870553338087
30
0
41
1
10
-2.51530277594441
20
18.4802511326588
30
0
41
1
10
-2.50805618011648
20
18.4660856536831
30
0
41
1
10
-2.50428651533781
20
18.4587188514766
30
0
41
1
10
-2.49257674463109
20
18.4358426309626
30
0
41
1
10
-2.48423051708301
20
18.4195469078099
30
0
41
1
10
-2.4398288204149
20
18.3329194158816
30
0
41
1
10
-2.39578985998901
20
18.2471860014993
30
0
41
1
10
-2.2909263555681
20
18.0440387037539
30
0
41
1
10
-2.2301008850875
20
17.9266209616138
30
0
41
1
10
-2.16066012352221
20
17.7934172350447
30
0
0
SPLINE
5
DA
100
AcDbEntity
8
SK1
62
256
6
ByLayer
370
18
48
1
60
0
100
AcDbSpline
70
4
71
3
72
12
73
8
40
0
40
0
40
0
40
0
40
0.25
40
0.25
40
0.499999999999999
40
0.499999999999999
40
1
40
1
40
1
40
1
41
1
10
-29.9999999517426
20
-14.766137446933
30
0
41
1
10
-29.8922037833363
20
-14.820836074507
30
0
41
1
10
-29.7827607228261
20
-14.8765969185898
30
0
41
1
10
-29.5611253407334
20
-14.9900041667535
30
0
41
1
10
-29.448930586071
20
-15.0476517170486
30
0
41
1
10
-29.1087911049085
20
-15.2231805063552
30
0
41
1
10
-28.877322560678
20
-15.3436332122715
30
0
41
1
10
-28.6421127918723
20
-15.4671297801811
30
0
0
SPLINE
5
DB
100
AcDbEntity
8
SK1
62
256
6
ByLayer
370
18
48
1
60
0
100
AcDbSpline
70
4
71
3
72
27
73
23
40
0
40
0
40
0
40
0
40
0.121443995482684
40
0.242887990965367
40
0.36433198644805
40
0.36433198644805
40
0.394692985318721
40
0.394692985318721
40
0.425053984189392
40
0.425053984189392
40
0.485775981930734
40
0.485775981930734
40
0.607219977413418
40
0.728663972896102
40
0.728663972896102
40
0.789385970637443
40
0.819746969508114
40
0.819746969508114
40
0.850107968378785
40
0.850107968378785
40
0.971551963861467
40
1
40
1
40
1
40
1
41
1
10
-11.8917048895638
20
-15.9899572212124
30
0
41
1
10
-11.8190677643226
20
-15.9982511717159
30
0
41
1
10
-11.6818458093905
20
-16.0145764526635
30
0
41
1
10
-11.4993362770432
20
-16.037761294483
30
0
41
1
10
-11.3931145345762
20
-16.0520083974979
30
0
41
1
10
-11.3316679017647
20
-16.0604224941039
30
0
41
1
10
-11.3196262546632
20
-16.0620807632852
30
0
41
1
10
-11.2960435563095
20
-16.0653452381814
30
0
41
1
10
-11.2844877032013
20
-16.0669535183678
30
0
41
1
10
-11.2506962597456
20
-16.0716794753077
30
0
41
1
10
-11.2293682181658
20
-16.0746936729123
30
0
41
1
10
-11.16891180604
20
-16.0833086352767
30
0
41
1
10
-11.0976934906747
20
-16.0936550333329
30
0
41
1
10
-11.0449289994704
20
-16.1015225131809
30
0
41
1
10
-11.0123553504641
20
-16.1064137442669
30
0
41
1
10
-10.997821291179
20
-16.1086069261143
30
0
41
1
10
-10.9859618254666
20
-16.1104052181046
30
0
41
1
10
-10.9786566862985
20
-16.1115144316964
30
0
41
1
10
-10.9753020062483
20
-16.1120246262316
30
0
41
1
10
-10.9601262814539
20
-16.1143351710765
30
0
41
1
10
-10.9513472549697
20
-16.1156810184903
30
0
41
1
10
-10.9499797993873
20
-16.1158901644875
30
0
41
1
10
-10.9499993697725
20
-16.1158870790195
30
0
0
SPLINE
5
DC
100
AcDbEntity
8
SK1
62
256
6
ByLayer
370
18
48
0.05
60
0
100
AcDbSpline
70
4
71
3
72
9
73
5
40
0
40
0
40
0
40
0
40
0.198554887695516
40
1
40
1
40
1
40
1
41
1
10
-11.7600622682245
20
-16.0053492280546
30
0
41
1
10
-11.7711744859595
20
-16.0040195091768
30
0
41
1
10
-11.8276456055405
20
-15.9973007969388
30
0
41
1
10
-11.8866646755035
20
-15.9904826950996
30
0
41
1
10
-11.9356383650986
20
-15.9849807489496
30
0
0
SPLINE
5
DD
100
AcDbEntity
8
SK1
62
256
6
ByLayer
370
18
48
1
60
0
100
AcDbSpline
70
4
71
3
72
65
73
61
40
0
40
0
40
0
40
0
40
0.0318064755413331
40
0.0318064755413331
40
0.0423303181984921
40
0.0423303181984921
40
0.0528541608556512
40
0.0739018461699688
40
0.0739018461699688
40
0.115997216798605
40
0.15809258742724
40
0.15809258742724
40
0.179140272741558
40
0.179140272741558
40
0.200187958055876
40
0.200187958055876
40
0.242283328684512
40
0.284378699313149
40
0.284378699313149
40
0.305426384627467
40
0.305426384627467
40
0.326474069941785
40
0.326474069941785
40
0.368569440570422
40
0.41066481119906
40
0.452760181827697
40
0.452760181827697
40
0.463284024484856
40
0.463284024484856
40
0.473807867142015
40
0.473807867142015
40
0.494855552456334
40
0.494855552456334
40
0.536950923084971
40
0.579046293713609
40
0.579046293713609
40
0.600093979027927
40
0.610617821685087
40
0.610617821685087
40
0.621141664342246
40
0.621141664342246
40
0.663237034970886
40
0.705332405599525
40
0.747427776228165
40
0.747427776228165
40
0.768475461542484
40
0.768475461542484
40
0.789523146856804
40
0.789523146856804
40
0.831618517485443
40
0.873713888114082
40
0.873713888114082
40
0.894761573428402
40
0.894761573428402
40
0.905285416085561
40
0.905285416085561
40
0.915809258742721
40
0.957904629371361
40
0.957904629371361
40
1
40
1
40
1
40
1
41
1
10
-17.0500008760476
20
-15.9632552638577
30
0
41
1
10
-17.0499727277886
20
-15.963252109445
30
0
41
1
10
-17.0471489890501
20
-15.9629584501427
30
0
41
1
10
-17.039579680407
20
-15.9621743187902
30
0
41
1
10
-17.0373803384445
20
-15.9619466987046
30
0
41
1
10
-17.0323748231006
20
-15.9614295235348
30
0
41
1
10
-17.0239511365712
20
-15.9605604172008
30
0
41
1
10
-17.0128140082798
20
-15.9594171947499
30
0
41
1
10
-16.9869793756955
20
-15.9567811975913
30
0
41
1
10
-16.9430555025791
20
-15.952334211928
30
0
41
1
10
-16.8803683988506
20
-15.9461972209452
30
0
41
1
10
-16.8261832416952
20
-15.9410318826746
30
0
41
1
10
-16.8069244081609
20
-15.939216407633
30
0
41
1
10
-16.7659627805924
20
-15.935411027642
30
0
41
1
10
-16.7443791038896
20
-15.9334323174027
30
0
41
1
10
-16.6766105641583
20
-15.9273203620584
30
0
41
1
10
-16.5780333327869
20
-15.9186862352424
30
0
41
1
10
-16.4633685027524
20
-15.9094145420598
30
0
41
1
10
-16.3712920040194
20
-15.9023502786265
30
0
41
1
10
-16.339585045703
20
-15.8999771640845
30
0
41
1
10
-16.2741114346158
20
-15.8952166988959
30
0
41
1
10
-16.2403039483798
20
-15.8928265475161
30
0
41
1
10
-16.135984139364
20
-15.8856879474185
30
0
41
1
10
-15.9908368804031
20
-15.876368180225
30
0
41
1
10
-15.7555391317536
20
-15.863516279206
30
0
41
1
10
-15.5869984936588
20
-15.8560534385801
30
0
41
1
10
-15.4779178562566
20
-15.8518499742302
30
0
41
1
10
-15.4559141537698
20
-15.8510323532823
30
0
41
1
10
-15.4115274312259
20
-15.849446291431
30
0
41
1
10
-15.3891137472088
20
-15.8486768869868
30
0
41
1
10
-15.3216219093694
20
-15.8464575511014
30
0
41
1
10
-15.2762463371624
20
-15.8450944539269
30
0
41
1
10
-15.1389986087411
20
-15.8413748832955
30
0
41
1
10
-14.9530178296701
20
-15.8374024109209
30
0
41
1
10
-14.7611689445085
20
-15.8356164011642
30
0
41
1
10
-14.6150554464897
20
-15.83517817023
30
0
41
1
10
-14.5414410942259
20
-15.8351844043097
30
0
41
1
10
-14.4669757567437
20
-15.8355445467975
30
0
41
1
10
-14.4171409114134
20
-15.8358651059269
30
0
41
1
10
-14.3921272501597
20
-15.8360657743202
30
0
41
1
10
-14.2672904413849
20
-15.8372665364771
30
0
41
1
10
-14.067894579088
20
-15.8404572138438
30
0
41
1
10
-13.7698009916607
20
-15.8490111119842
30
0
41
1
10
-13.5717364546335
20
-15.8571978011627
30
0
41
1
10
-13.4234429451692
20
-15.8642581198933
30
0
41
1
10
-13.3739543956681
20
-15.8667709846173
30
0
41
1
10
-13.2761042587809
20
-15.8720427475469
30
0
41
1
10
-13.2276337756885
20
-15.8748061928483
30
0
41
1
10
-13.083560121025
20
-15.8834552785997
30
0
41
1
10
-12.8950230956304
20
-15.8959438441124
30
0
41
1
10
-12.713490504073
20
-15.9100954080937
30
0
41
1
10
-12.5799991551959
20
-15.9212372406188
30
0
41
1
10
-12.5359458368803
20
-15.9250391786211
30
0
41
1
10
-12.470542916822
20
-15.9308616329003
30
0
41
1
10
-12.4488303203941
20
-15.9328246507496
30
0
41
1
10
-12.4057972683561
20
-15.9367731995055
30
0
41
1
10
-12.2991628747506
20
-15.9467037005899
30
0
41
1
10
-12.1972065607947
20
-15.9568946997561
30
0
41
1
10
-12.0399925133206
20
-15.9733551560035
30
0
41
1
10
-11.964342014805
20
-15.9816632707088
30
0
41
1
10
-11.8917048895638
20
-15.9899572212124
30
0
0
SPLINE
5
DE
100
AcDbEntity
8
SK1
62
256
6
ByLayer
370
18
48
1
60
0
100
AcDbSpline
70
4
71
3
72
8
73
4
40
0
40
0
40
0
40
0
40
1
40
1
40
1
40
1
41
1
10
-24.6999999517426
20
-15.5570216459739
30
0
41
1
10
-26.0140477996162
20
-15.5269943241348
30
0
41
1
10
-27.3280856489143
20
-15.4970303644856
30
0
41
1
10
-28.6421127918724
20
-15.4671297801811
30
0
0
SPLINE
5
DF
100
AcDbEntity
8
SK1
62
256
6
ByLayer
370
18
48
1
60
0
100
AcDbSpline
70
4
71
3
72
33
73
29
40
0
40
0
40
0
40
0
40
0.000831751014578
40
0.0632797665761669
40
0.0632797665761669
40
0.125727782137756
40
0.125727782137756
40
0.15695178991855
40
0.15695178991855
40
0.188175797699344
40
0.188175797699344
40
0.250623813260933
40
0.250623813260933
40
0.313071828822521
40
0.313071828822521
40
0.375519844384111
40
0.375519844384111
40
0.437967859945699
40
0.437967859945699
40
0.500415875507288
40
0.500415875507288
40
0.625311906630466
40
0.625311906630466
40
0.750207937753644
40
0.750207937753644
40
0.875103968876822
40
0.875103968876822
40
1
40
1
40
1
40
1
41
1
10
-22.8826833347721
20
-15.8173125495973
30
0
41
1
10
-22.8826932783687
20
-15.8173114796031
30
0
41
1
10
-22.8828063422226
20
-15.8172993110737
30
0
41
1
10
-22.8877596414756
20
-15.8167661748247
30
0
41
1
10
-22.9063423344666
20
-15.8147512048561
30
0
41
1
10
-22.9200329279925
20
-15.8132624978987
30
0
41
1
10
-22.9465397844911
20
-15.8103463627704
30
0
41
1
10
-22.9563691915384
20
-15.8092604636959
30
0
41
1
10
-22.9778993541951
20
-15.8068671825791
30
0
41
1
10
-22.9896167042692
20
-15.8055578753322
30
0
41
1
10
-23.0269969062623
20
-15.8013518917836
30
0
41
1
10
-23.0549784491616
20
-15.7981670048538
30
0
41
1
10
-23.1158365648626
20
-15.7911219905472
30
0
41
1
10
-23.148715032797
20
-15.7872615902731
30
0
41
1
10
-23.2184088454695
20
-15.7789275802202
30
0
41
1
10
-23.2552259098263
20
-15.7744537753823
30
0
41
1
10
-23.3320495895831
20
-15.7649381458689
30
0
41
1
10
-23.3720576219034
20
-15.7598961844498
30
0
41
1
10
-23.4546793528643
20
-15.7492774919986
30
0
41
1
10
-23.497338058877
20
-15.7436946445448
30
0
41
1
10
-23.6279855586531
20
-15.7262553776446
30
0
41
1
10
-23.7187363731992
20
-15.7136953012355
30
0
41
1
10
-23.9051405619052
20
-15.6868475857009
30
0
41
1
10
-24.0008125775477
20
-15.6725585714407
30
0
41
1
10
-24.1956273916552
20
-15.6423294733185
30
0
41
1
10
-24.2947796513801
20
-15.6263887496095
30
0
41
1
10
-24.4956302750311
20
-15.5929022037138
30
0
41
1
10
-24.5973337543789
20
-15.5753560598447
30
0
41
1
10
-24.6999999517424
20
-15.5570216459739
30
0
0
SPLINE
5
E0
100
AcDbEntity
8
SK1
62
256
6
ByLayer
370
18
48
1
60
0
100
AcDbSpline
70
4
71
3
72
33
73
29
40
0
40
0
40
0
40
0
40
0.125000000000001
40
0.125000000000001
40
0.250000000000003
40
0.250000000000003
40
0.312500000000004
40
0.312500000000004
40
0.343750000000004
40
0.343750000000004
40
0.359375000000004
40
0.359375000000004
40
0.375000000000005
40
0.500000000000006
40
0.500000000000006
40
0.625000000000008
40
0.625000000000008
40
0.687500000000008
40
0.687500000000008
40
0.703125000000008
40
0.703125000000008
40
0.718750000000008
40
0.718750000000008
40
0.750000000000008
40
0.750000000000008
40
0.875000000000004
40
0.875000000000004
40
1
40
1
40
1
40
1
41
1
10
-2.16066012352579
20
-5.62794953330862
30
0
41
1
10
-2.23009051152309
20
-5.9485145352576
30
0
41
1
10
-2.29078084184749
20
-6.26609117006453
30
0
41
1
10
-2.39531183665011
20
-6.89524878507871
30
0
41
1
10
-2.43915221710029
20
-7.20683026923422
30
0
41
1
10
-2.49222985799901
20
-7.66955702595033
30
0
41
1
10
-2.50780325986469
20
-7.82302359024482
30
0
41
1
10
-2.52792806412199
20
-8.05202689293571
30
0
41
1
10
-2.53409674517579
20
-8.12816179631272
30
0
41
1
10
-2.542529796498
20
-8.24205969992602
30
0
41
1
10
-2.54520611395859
20
-8.28000519646542
30
0
41
1
10
-2.55027302387938
20
-8.3556379805305
30
0
41
1
10
-2.5717743827756
20
-8.69463917993531
30
0
41
1
10
-2.5817411026986
20
-9.02166346062771
30
0
41
1
10
-2.58182800163598
20
-9.58465479337102
30
0
41
1
10
-2.57305418271659
20
-9.85695661096813
30
0
41
1
10
-2.54653870046329
20
-10.2515419011717
30
0
41
1
10
-2.53546860120829
20
-10.3807542244383
30
0
41
1
10
-2.51878253585599
20
-10.5393285857589
30
0
41
1
10
-2.51530277594401
20
-10.570896302422
30
0
41
1
10
-2.5080561801162
20
-10.6337358554164
30
0
41
1
10
-2.5042865153375
20
-10.6650290109659
30
0
41
1
10
-2.4925767446307
20
-10.7582055674722
30
0
41
1
10
-2.48423051708261
20
-10.8194414381059
30
0
41
1
10
-2.43982882041459
20
-11.1212739310933
30
0
41
1
10
-2.39578985998881
20
-11.3488686297201
30
0
41
1
10
-2.2909263555681
20
-11.7772626439594
30
0
41
1
10
-2.23010088508761
20
-11.9780588525938
30
0
41
1
10
-2.16066012352241
20
-12.1654680234682
30
0
0
SPLINE
5
E1
100
AcDbEntity
8
SK1
62
256
6
ByLayer
370
18
48
1
60
0
100
AcDbSpline
70
4
71
3
72
8
73
4
40
0
40
0
40
0
40
0
40
1
40
1
40
1
40
1
41
1
10
-2.10131447539209
20
17.6857091044254
30
0
41
1
10
-2.1226887955302
20
17.7224083000061
30
0
41
1
10
-2.14240555472759
20
17.7584006750935
30
0
41
1
10
-2.16066012352241
20
17.7934172350444
30
0
0
SPLINE
5
E2
100
AcDbEntity
8
SK1
62
256
6
ByLayer
370
18
48
1
60
0
100
AcDbSpline
70
4
71
3
72
73
73
69
40
0
40
0
40
0
40
0
40
0.124999999999994
40
0.124999999999994
40
0.187499999999992
40
0.187499999999992
40
0.24999999999999
40
0.24999999999999
40
0.312499999999988
40
0.312499999999988
40
0.343749999999988
40
0.343749999999988
40
0.359374999999987
40
0.359374999999987
40
0.374999999999987
40
0.374999999999987
40
0.406249999999987
40
0.406249999999987
40
0.421874999999987
40
0.421874999999987
40
0.437499999999987
40
0.437499999999987
40
0.445312499999987
40
0.445312499999987
40
0.453124999999987
40
0.453124999999987
40
0.468749999999986
40
0.468749999999986
40
0.476562499999986
40
0.476562499999986
40
0.484374999999986
40
0.492187499999986
40
0.492187499999986
40
0.499999999999986
40
0.499999999999986
40
0.515624999999986
40
0.515624999999986
40
0.523437499999986
40
0.523437499999986
40
0.531249999999986
40
0.531249999999986
40
0.546874999999985
40
0.546874999999985
40
0.554687499999985
40
0.554687499999985
40
0.562499999999985
40
0.562499999999985
40
0.593749999999985
40
0.593749999999985
40
0.609374999999985
40
0.609374999999985
40
0.624999999999986
40
0.624999999999986
40
0.656249999999987
40
0.656249999999987
40
0.687499999999988
40
0.687499999999988
40
0.749999999999991
40
0.749999999999991
40
0.781249999999992
40
0.781249999999992
40
0.812499999999994
40
0.812499999999994
40
0.874999999999996
40
0.874999999999996
40
0.937499999999998
40
0.937499999999998
40
1
40
1
40
1
40
1
41
1
10
-0.0455701245346063
20
17.7318064755668
30
0
41
1
10
-0.088452689117787
20
17.6525436585778
30
0
41
1
10
-0.135571275362196
20
17.5721603355052
30
0
41
1
10
-0.215353636924505
20
17.4504613570298
30
0
41
1
10
-0.243481962982003
20
17.40971063647
30
0
41
1
10
-0.303679067454084
20
17.3280051435944
30
0
41
1
10
-0.335732059052589
20
17.2870476768658
30
0
41
1
10
-0.405253294133701
20
17.2051975321546
30
0
41
1
10
-0.442673617095608
20
17.1642967593148
30
0
41
1
10
-0.505054339451902
20
17.1033809302296
30
0
41
1
10
-0.526902956719283
20
17.0831504914131
30
0
41
1
10
-0.561803509061804
20
17.0530113637
30
0
41
1
10
-0.573788764329692
20
17.0430066898549
30
0
41
1
10
-0.598389431252201
20
17.0232577441657
30
0
41
1
10
-0.611026104030287
20
17.013494428575
30
0
41
1
10
-0.650112975270901
20
16.9846090136244
30
0
41
1
10
-0.677710898988408
20
16.9658795234771
30
0
41
1
10
-0.722470080309705
20
16.939017016631
30
0
41
1
10
-0.737955854627302
20
16.9302704609682
30
0
41
1
10
-0.770354930659209
20
16.9133150035784
30
0
41
1
10
-0.787265046749411
20
16.9051048156863
30
0
41
1
10
-0.814036960884806
20
16.8933311337149
30
0
41
1
10
-0.823230409093384
20
16.8894847919657
30
0
41
1
10
-0.841959059567898
20
16.8820891420044
30
0
41
1
10
-0.851496551958803
20
16.8785371657613
30
0
41
1
10
-0.88068823122839
20
16.8683719232104
30
0
41
1
10
-0.900915719069189
20
16.8622442570785
30
0
41
1
10
-0.932729953052586
20
16.8543121629397
30
0
41
1
10
-0.943632644322008
20
16.851870686565
30
0
41
1
10
-0.965622920995287
20
16.8475448938979
30
0
41
1
10
-0.987841822151893
20
16.8437602538513
30
0
41
1
10
-1.0105460767542
20
16.8411267806788
30
0
41
1
10
-1.03350876313328
20
16.8391070536037
30
0
41
1
10
-1.04517432184909
20
16.8384026159645
30
0
41
1
10
-1.08020383936071
20
16.8372840687562
30
0
41
1
10
-1.10319841904518
20
16.8378631057127
30
0
41
1
10
-1.13719966002799
20
16.8405423954359
30
0
41
1
10
-1.14845153810529
20
16.8417375753647
30
0
41
1
10
-1.17079834465551
20
16.8447058844511
30
0
41
1
10
-1.18179025334041
20
16.8464668328259
30
0
41
1
10
-1.21395812245919
20
16.8524303245768
30
0
41
1
10
-1.23448094818079
20
16.8573283548569
30
0
41
1
10
-1.26417325046481
20
16.86575807032
30
0
41
1
10
-1.27388742002771
20
16.8687497003721
30
0
41
1
10
-1.29298555449338
20
16.8750586267821
30
0
41
1
10
-1.3023639958557
20
16.8783755981479
30
0
41
1
10
-1.34798559839041
20
16.8954828161866
30
0
41
1
10
-1.38100176462149
20
16.910947002444
30
0
41
1
10
-1.42732754744318
20
16.9357110653164
30
0
41
1
10
-1.4422184711635
20
16.9442366304742
30
0
41
1
10
-1.4710896238947
20
16.9617243622826
30
0
41
1
10
-1.48506876731329
20
16.9706894354471
30
0
41
1
10
-1.52546693412469
20
16.9978507969699
30
0
41
1
10
-1.5505288731355
20
17.0164039532776
30
0
41
1
10
-1.5980198038302
20
17.0540723917448
30
0
41
1
10
-1.6204372197765
20
17.0731910320603
30
0
41
1
10
-1.6846727120313
20
17.1311094299377
30
0
41
1
10
-1.7235223580056
20
17.1704573056671
30
0
41
1
10
-1.7779056142802
20
17.2299491078907
30
0
41
1
10
-1.7953679175742
20
17.249863039427
30
0
41
1
10
-1.82916534647859
20
17.2897938767864
30
0
41
1
10
-1.84550940211321
20
17.3098238021932
30
0
41
1
10
-1.89294827443919
20
17.3698299507414
30
0
41
1
10
-1.92250318336201
20
17.4097633162723
30
0
41
1
10
-1.97842734322668
20
17.4892998360591
30
0
41
1
10
-2.00478900549021
20
17.5289043930841
30
0
41
1
10
-2.05490941799309
20
17.6076640725465
30
0
41
1
10
-2.0786646259125
20
17.6468198555256
30
0
41
1
10
-2.1013144753918
20
17.6857091044254
30
0
0
SPLINE
5
E3
100
AcDbEntity
8
SK1
62
256
6
ByLayer
370
18
48
1
60
0
100
AcDbSpline
70
4
71
3
72
69
73
65
40
0
40
0
40
0
40
0
40
0.125
40
0.125
40
0.1875
40
0.1875
40
0.25
40
0.25
40
0.3125
40
0.3125
40
0.343750000000001
40
0.343750000000001
40
0.359375000000001
40
0.359375000000001
40
0.375000000000001
40
0.375000000000001
40
0.406250000000001
40
0.406250000000001
40
0.437500000000001
40
0.437500000000001
40
0.453125000000002
40
0.453125000000002
40
0.468750000000002
40
0.468750000000002
40
0.476562500000002
40
0.476562500000002
40
0.484375000000002
40
0.484375000000002
40
0.500000000000002
40
0.500000000000002
40
0.507812500000002
40
0.507812500000002
40
0.515625000000002
40
0.523437500000002
40
0.523437500000002
40
0.531250000000002
40
0.531250000000002
40
0.546875000000002
40
0.546875000000002
40
0.554687500000002
40
0.554687500000002
40
0.562500000000002
40
0.562500000000002
40
0.578125000000002
40
0.578125000000002
40
0.593750000000002
40
0.593750000000002
40
0.609375000000002
40
0.609375000000002
40
0.625000000000002
40
0.625000000000002
40
0.656250000000002
40
0.656250000000002
40
0.687500000000002
40
0.687500000000002
40
0.750000000000002
40
0.750000000000002
40
0.812500000000001
40
0.812500000000001
40
0.875000000000001
40
0.875000000000001
40
0.9375
40
0.9375
40
1
40
1
40
1
40
1
41
1
10
-2.1013144753918
20
-5.37587798718153
30
0
41
1
10
-2.0564370558638
20
-5.20038108332972
30
0
41
1
10
-2.0073808486228
20
-5.02636271578743
30
0
41
1
10
-1.92482593980361
20
-4.76857295078051
30
0
41
1
10
-1.89579606049298
20
-4.6831888565425
30
0
41
1
10
-1.83385941224731
20
-4.51383397566391
30
0
41
1
10
-1.80096782998439
20
-4.42985748149181
30
0
41
1
10
-1.72986942597089
20
-4.26385923085391
30
0
41
1
10
-1.69170823725469
20
-4.1818203285369
30
0
41
1
10
-1.62835928784278
20
-4.06102571974651
30
0
41
1
10
-1.6062122286711
20
-4.02114298250422
30
0
41
1
10
-1.57092202841909
20
-3.96208888230621
30
0
41
1
10
-1.55882043215979
20
-3.94255283890681
30
0
41
1
10
-1.53400489562981
20
-3.90409719973673
30
0
41
1
10
-1.5212708738629
20
-3.88514279466281
30
0
41
1
10
-1.48192970848189
20
-3.82923454061142
30
0
41
1
10
-1.45421063456649
20
-3.79321283354872
30
0
41
1
10
-1.3944582792754
20
-3.7247884643765
30
0
41
1
10
-1.3624735619166
20
-3.69234501980571
30
0
41
1
10
-1.30925749067859
20
-3.64807687436971
30
0
41
1
10
-1.29051963778119
20
-3.63401318096842
30
0
41
1
10
-1.2517835861444
20
-3.6086614174454
30
0
41
1
10
-1.23169702619799
20
-3.5972810326582
30
0
41
1
10
-1.20019945154101
20
-3.58267692827502
30
0
41
1
10
-1.18947118715161
20
-3.57822198711642
30
0
41
1
10
-1.1674898415944
20
-3.57025859038021
30
0
41
1
10
-1.15637713171779
20
-3.5668033474287
30
0
41
1
10
-1.1227598073975
20
-3.55814401574071
30
0
41
1
10
-1.09993166939628
20
-3.55462584603993
30
0
41
1
10
-1.06498678546319
20
-3.55315233845383
30
0
41
1
10
-1.05324853335981
20
-3.55330732469213
30
0
41
1
10
-1.03012248640681
20
-3.55487715533442
30
0
41
1
10
-1.0072010077823
20
-3.55769689840301
30
0
41
1
10
-0.984668924283596
20
-3.56289605714832
30
0
41
1
10
-0.9623225758383
20
-3.56923034573762
30
0
41
1
10
-0.951197254432799
20
-3.57298666042823
30
0
41
1
10
-0.918709217664684
20
-3.5856177437181
30
0
41
1
10
-0.898051205125199
20
-3.595873544645
30
0
41
1
10
-0.868235492872088
20
-3.6134058045331
30
0
41
1
10
-0.85849364525609
20
-3.61961074455863
30
0
41
1
10
-0.839362836890501
20
-3.6326680436004
30
0
41
1
10
-0.829949372179499
20
-3.63953991270481
30
0
41
1
10
-0.802374191799288
20
-3.6608872957197
30
0
41
1
10
-0.784939655005786
20
-3.67602263965563
30
0
41
1
10
-0.751515058672311
20
-3.7076694715561
30
0
41
1
10
-0.735528099212303
20
-3.72418391023942
30
0
41
1
10
-0.70470843151989
20
-3.75831281942311
30
0
41
1
10
-0.689877245735886
20
-3.77592873895063
30
0
41
1
10
-0.661165954857609
20
-3.81206734346992
30
0
41
1
10
-0.647254228366904
20
-3.83063797908102
30
0
41
1
10
-0.607023362265409
20
-3.88706659239762
30
0
41
1
10
-0.582154747955286
20
-3.92564624290551
30
0
41
1
10
-0.535141211241609
20
-4.0041457027402
30
0
41
1
10
-0.513009103549507
20
-4.04407182009763
30
0
41
1
10
-0.449717940881783
20
-4.16537779206053
30
0
41
1
10
-0.411613458333988
20
-4.2482603637182
30
0
41
1
10
-0.340707756984187
20
-4.41663352894921
30
0
41
1
10
-0.307931623277909
20
-4.50219862988411
30
0
41
1
10
-0.246389067219099
20
-4.6750345572417
30
0
41
1
10
-0.217724277574206
20
-4.76205172805012
30
0
41
1
10
-0.163629556413809
20
-4.936996333275
30
0
41
1
10
-0.138207479585105
20
-5.0249260773966
30
0
41
1
10
-0.0900042223759954
20
-5.20152065936313
30
0
41
1
10
-0.0672266903918057
20
-5.29018657028641
30
0
41
1
10
-0.0455701245344073
20
-5.37916111988832
30
0
0
SPLINE
5
E4
100
AcDbEntity
8
SK1
62
256
6
ByLayer
370
18
48
1
60
0
100
AcDbSpline
70
4
71
3
72
8
73
4
40
0
40
0
40
0
40
0
40
1
40
1
40
1
40
1
41
1
10
-2.1606601235259
20
-5.62794953330842
30
0
41
1
10
-2.1424381674922
20
-5.54381747615022
30
0
41
1
10
-2.12270389944391
20
-5.45952311953801
30
0
41
1
10
-2.10131447539229
20
-5.37587798718141
30
0
0
SPLINE
5
E5
100
AcDbEntity
8
SK1
62
256
6
ByLayer
370
18
48
1
60
0
100
AcDbSpline
70
4
71
3
72
8
73
4
40
0
40
0
40
0
40
0
40
1
40
1
40
1
40
1
41
1
10
-2.1013144753918
20
-12.3098314389597
30
0
41
1
10
-2.12267935998449
20
-12.2629652651858
30
0
41
1
10
-2.14236574921989
20
-12.2148415245994
30
0
41
1
10
-2.16066012352241
20
-12.1654680234682
30
0
0
SPLINE
5
E6
100
AcDbEntity
8
SK1
62
256
6
ByLayer
370
18
48
1
60
0
100
AcDbSpline
70
4
71
3
72
73
73
69
40
0
40
0
40
0
40
0
40
0.125000000000003
40
0.125000000000003
40
0.187500000000004
40
0.187500000000004
40
0.250000000000005
40
0.250000000000005
40
0.312500000000006
40
0.312500000000006
40
0.343750000000007
40
0.343750000000007
40
0.359375000000008
40
0.359375000000008
40
0.375000000000008
40
0.375000000000008
40
0.40625000000001
40
0.40625000000001
40
0.42187500000001
40
0.42187500000001
40
0.43750000000001
40
0.43750000000001
40
0.44531250000001
40
0.44531250000001
40
0.45312500000001
40
0.45312500000001
40
0.46875000000001
40
0.46875000000001
40
0.47656250000001
40
0.47656250000001
40
0.484375000000011
40
0.492187500000011
40
0.492187500000011
40
0.500000000000011
40
0.500000000000011
40
0.515625000000012
40
0.515625000000012
40
0.523437500000012
40
0.523437500000012
40
0.531250000000012
40
0.531250000000012
40
0.546875000000013
40
0.546875000000013
40
0.554687500000013
40
0.554687500000013
40
0.562500000000013
40
0.562500000000013
40
0.593750000000013
40
0.593750000000013
40
0.609375000000014
40
0.609375000000014
40
0.625000000000014
40
0.625000000000014
40
0.656250000000013
40
0.656250000000013
40
0.687500000000012
40
0.687500000000012
40
0.75000000000001
40
0.75000000000001
40
0.781250000000009
40
0.781250000000009
40
0.812500000000008
40
0.812500000000008
40
0.875000000000005
40
0.875000000000005
40
0.937500000000003
40
0.937500000000003
40
1
40
1
40
1
40
1
41
1
10
-0.0455701245346063
20
-12.3526456773949
30
0
41
1
10
-0.0884486973205867
20
-12.4495539816865
30
0
41
1
10
-0.135562140622284
20
-12.5438588057236
30
0
41
1
10
-0.215333246150408
20
-12.6809677547842
30
0
41
1
10
-0.243457218116703
20
-12.7259428701207
30
0
41
1
10
-0.303643695759405
20
-12.8142854573938
30
0
41
1
10
-0.335690440195293
20
-12.8576559567285
30
0
41
1
10
-0.405195798157507
20
-12.9425229633082
30
0
41
1
10
-0.442606591267293
20
-12.9840287373031
30
0
41
1
10
-0.504967648426685
20
-13.0444748225378
30
0
41
1
10
-0.526808796494805
20
-13.0643188696625
30
0
41
1
10
-0.561695846900989
20
-13.0935246634926
30
0
41
1
10
-0.573680977495798
20
-13.1031629696255
30
0
41
1
10
-0.598279603798204
20
-13.1220657872859
30
0
41
1
10
-0.610914892996504
20
-13.1313493452597
30
0
41
1
10
-0.649996120615896
20
-13.158628815813
30
0
41
1
10
-0.677588416873704
20
-13.1760656639299
30
0
41
1
10
-0.722333237951403
20
-13.2006677126781
30
0
41
1
10
-0.737813217843808
20
-13.2086071696988
30
0
41
1
10
-0.770197587003793
20
-13.223841982285
30
0
41
1
10
-0.787098815413003
20
-13.2311386790094
30
0
41
1
10
-0.813853557567086
20
-13.2414614164426
30
0
41
1
10
-0.823040815986388
20
-13.244808999126
30
0
41
1
10
-0.841767954003302
20
-13.2511949734761
30
0
41
1
10
-0.851304157425091
20
-13.254233784967
30
0
41
1
10
-0.8804899775065
20
-13.2628377660226
30
0
41
1
10
-0.900710968771108
20
-13.267895571359
30
0
41
1
10
-0.932509108104085
20
-13.2741924058477
30
0
41
1
10
-0.943407390275695
20
-13.2760817175112
30
0
41
1
10
-0.965399631520285
20
-13.2793152451737
30
0
41
1
10
-0.987618489477086
20
-13.2820152648868
30
0
41
1
10
-1.01031815899179
20
-13.2835860662924
30
0
41
1
10
-1.03327368084788
20
-13.284556907199
30
0
41
1
10
-1.04492809313209
20
-13.2847415844928
30
0
41
1
10
-1.07997204834439
20
-13.2843400942202
30
0
41
1
10
-1.1029714674109
20
-13.2828164828384
30
0
41
1
10
-1.1369739836878
20
-13.2788117403293
30
0
41
1
10
-1.14822528638439
20
-13.2771898693277
30
0
41
1
10
-1.17056910711929
20
-13.2733953327924
30
0
41
1
10
-1.18157087151221
20
-13.2712363101684
30
0
41
1
10
-1.2137516628502
20
-13.2641341411714
30
0
41
1
10
-1.2342796115949
20
-13.258542183522
30
0
41
1
10
-1.263976318826
20
-13.2491315317545
30
0
41
1
10
-1.2736913975618
20
-13.2458230078536
30
0
41
1
10
-1.29279044470459
20
-13.2388951086887
30
0
41
1
10
-1.30217385341899
20
-13.2352743558972
30
0
41
1
10
-1.34781688659851
20
-13.2166891565256
30
0
41
1
10
-1.3808414276823
20
-13.20015120527
30
0
41
1
10
-1.42717484376308
20
-13.173746842623
30
0
41
1
10
-1.4420673850754
20
-13.1646709353484
30
0
41
1
10
-1.470940512754
20
-13.1460547945526
30
0
41
1
10
-1.484925091782
20
-13.1365080797292
30
0
41
1
10
-1.52533867528479
20
-13.1075525548114
30
0
41
1
10
-1.5504078438664
20
-13.087732184828
30
0
41
1
10
-1.59791011084329
20
-13.0473011025237
30
0
41
1
10
-1.6203315809328
20
-13.0266877662349
30
0
41
1
10
-1.68457643796398
20
-12.9638633150694
30
0
41
1
10
-1.72342868513741
20
-12.9206783537988
30
0
41
1
10
-1.77781371010369
20
-12.8543838425898
30
0
41
1
10
-1.79527620826781
20
-12.832029091736
30
0
41
1
10
-1.82907349487971
20
-12.7868480209394
30
0
41
1
10
-1.8454179784728
20
-12.7640056862335
30
0
41
1
10
-1.89286643959781
20
-12.6949947922046
30
0
41
1
10
-1.92242978113148
20
-12.6483087174389
30
0
41
1
10
-1.97837272876649
20
-12.5536841236511
30
0
41
1
10
-2.00474477583668
20
-12.5057446809177
30
0
41
1
10
-2.05488681291601
20
-12.4086734459338
30
0
41
1
10
-2.0786532719473
20
-12.3595412276527
30
0
41
1
10
-2.1013144753918
20
-12.3098314389597
30
0
0
SPLINE
5
E7
100
AcDbEntity
8
SK3
62
256
6
ByLayer
370
18
48
0.05
60
0
100
AcDbSpline
70
4
71
3
72
83
73
79
40
0
40
0
40
0
40
0
40
2.09505864191E-05
40
0.0312702958805939
40
0.0312702958805939
40
0.0468949685276815
40
0.0547073048512253
40
0.0547073048512253
40
0.0625196411747691
40
0.0625196411747691
40
0.0937689864689436
40
0.0937689864689436
40
0.125018331763118
40
0.156267677057293
40
0.156267677057293
40
0.164080013380836
40
0.164080013380836
40
0.17189234970438
40
0.187517022351467
40
0.187517022351467
40
0.218766367645641
40
0.250015712939814
40
0.250015712939814
40
0.265640385586902
40
0.265640385586902
40
0.281265058233989
40
0.281265058233989
40
0.312514403528164
40
0.34376374882234
40
0.34376374882234
40
0.375013094116515
40
0.375013094116515
40
0.40626243941069
40
0.40626243941069
40
0.437511784704866
40
0.468761129999041
40
0.468761129999041
40
0.476573466322585
40
0.476573466322585
40
0.484385802646129
40
0.484385802646129
40
0.500010475293216
40
0.500010475293216
40
0.531259820587391
40
0.562509165881566
40
0.562509165881566
40
0.578133838528653
40
0.578133838528653
40
0.59375851117574
40
0.59375851117574
40
0.625007856469915
40
0.65625720176409
40
0.687506547058265
40
0.687506547058265
40
0.695318883381808
40
0.695318883381808
40
0.703131219705352
40
0.718755892352439
40
0.718755892352439
40
0.750005237646613
40
0.781254582940786
40
0.781254582940786
40
0.796879255587873
40
0.796879255587873
40
0.81250392823496
40
0.81250392823496
40
0.843753273529133
40
0.875002618823307
40
0.875002618823307
40
0.890627291470394
40
0.898439627793937
40
0.898439627793937
40
0.90625196411748
40
0.90625196411748
40
0.937501309411654
40
0.968750654705827
40
0.968750654705827
40
1
40
1
40
1
40
1
41
1
10
-17.0499947978558
20
10.4999983953478
30
0
41
1
10
-17.0500044017353
20
10.5000011855988
30
0
41
1
10
-17.0500454349902
20
10.5000131066854
30
0
41
1
10
-17.045192042595
20
10.4986001407258
30
0
41
1
10
-17.0305174313218
20
10.4943561983252
30
0
41
1
10
-17.0213272679292
20
10.4917026752425
30
0
41
1
10
-17.009314318436
20
10.4882531227895
30
0
41
1
10
-17.0006717172053
20
10.485776635743
30
0
41
1
10
-16.9960269389015
20
10.484448152486
30
0
41
1
10
-16.9713379213431
20
10.4774037209291
30
0
41
1
10
-16.9468529383495
20
10.4704661781143
30
0
41
1
10
-16.8887519752589
20
10.4542626578448
30
0
41
1
10
-16.8215177425927
20
10.4357301521045
30
0
41
1
10
-16.7361260852474
20
10.4130587282004
30
0
41
1
10
-16.6769425275463
20
10.3977588248531
30
0
41
1
10
-16.6647972320423
20
10.3946379853248
30
0
41
1
10
-16.6400208754828
20
10.3883138359354
30
0
41
1
10
-16.6021288349309
20
10.3787041215006
30
0
41
1
10
-16.5620813570044
20
10.3687530878999
30
0
41
1
10
-16.4791592344444
20
10.3484703818609
30
0
41
1
10
-16.3610706064666
20
10.3204163233074
30
0
41
1
10
-16.2280676436732
20
10.2911154628863
30
0
41
1
10
-16.1225979813774
20
10.2689697001408
30
0
41
1
10
-16.0864866914087
20
10.2615595368506
30
0
41
1
10
-16.0123104133945
20
10.2467346316171
30
0
41
1
10
-15.9744886189722
20
10.2393689826323
30
0
41
1
10
-15.8591117033127
20
10.2175377212422
30
0
41
1
10
-15.6999672322299
20
10.1890974112486
30
0
41
1
10
-15.5303120214374
20
10.1627678245936
30
0
41
1
10
-15.355295257676
20
10.1378903228217
30
0
41
1
10
-15.2651068709428
20
10.1261769316857
30
0
41
1
10
-15.0790935819618
20
10.1046230410738
30
0
41
1
10
-14.9848920382024
20
10.0949733434812
30
0
41
1
10
-14.7941653529552
20
10.0781529872425
30
0
41
1
10
-14.601110660119
20
10.0638117724986
30
0
41
1
10
-14.4033813188148
20
10.0548599853559
30
0
41
1
10
-14.2782928274536
20
10.0510854863338
30
0
41
1
10
-14.2531995798456
20
10.0504216183724
30
0
41
1
10
-14.2028601245216
20
10.0492794221934
30
0
41
1
10
-14.1775853713538
20
10.0488006843513
30
0
41
1
10
-14.1017275325145
20
10.0476509402395
30
0
41
1
10
-14.0513080286954
20
10.0472684475627
30
0
41
1
10
-13.9004970581063
20
10.0472529931541
30
0
41
1
10
-13.7006070460265
20
10.0502506484049
30
0
41
1
10
-13.5030476171388
20
10.0590680993908
30
0
41
1
10
-13.3557559356223
20
10.0677776139368
30
0
41
1
10
-13.3068052641286
20
10.0710301345499
30
0
41
1
10
-13.2092006975159
20
10.0782187193481
30
0
41
1
10
-13.1604240070256
20
10.0821667497316
30
0
41
1
10
-13.0160125990717
20
10.0948765224971
30
0
41
1
10
-12.827941976548
20
10.1141615346088
30
0
41
1
10
-12.5587330063738
20
10.1489994329284
30
0
41
1
10
-12.3877537279208
20
10.1754648185194
30
0
41
1
10
-12.2835925622324
20
10.1927979562145
30
0
41
1
10
-12.2629127676565
20
10.1963015085357
30
0
41
1
10
-12.2220399125025
20
10.2033442455675
30
0
41
1
10
-12.1613825787819
20
10.2139749096416
30
0
41
1
10
-12.1026543329352
20
10.2247739827504
30
0
41
1
10
-11.9877213350328
20
10.2465165890674
30
0
41
1
10
-11.8411940562089
20
10.2758905490038
30
0
41
1
10
-11.7079012881448
20
10.3052131403535
30
0
41
1
10
-11.6129756345146
20
10.326879190967
30
0
41
1
10
-11.5821402449511
20
10.3340553250476
30
0
41
1
10
-11.5223415455156
20
10.3482097521422
30
0
41
1
10
-11.4935470997368
20
10.3551475923107
30
0
41
1
10
-11.4104113473296
20
10.3754803448599
30
0
41
1
10
-11.3082068703866
20
10.4013044927451
30
0
41
1
10
-11.2229888184293
20
10.4239113571559
30
0
41
1
10
-11.1655279016351
20
10.4394151852281
30
0
41
1
10
-11.1384133433235
20
10.4468041993934
30
0
41
1
10
-11.1137677964085
20
10.4536010846075
30
0
41
1
10
-11.0978928406992
20
10.4579952794333
30
0
41
1
10
-11.0902243838462
20
10.4601262696592
30
0
41
1
10
-11.0533961639743
20
10.4703949819852
30
0
41
1
10
-11.0044238284535
20
10.4842717984033
30
0
41
1
10
-10.9748591927849
20
10.4928015497292
30
0
41
1
10
-10.9550388476831
20
10.4985330344052
30
0
41
1
10
-10.9499826674125
20
10.5000049243353
30
0
41
1
10
-10.9500001617959
20
10.499999831616
30
0
0
SPLINE
5
E8
100
AcDbEntity
8
SK3
62
256
6
ByLayer
370
18
48
0.05
60
0
100
AcDbSpline
70
4
71
3
72
8
73
4
40
0
40
0
40
0
40
0
40
1
40
1
40
1
40
1
41
1
10
-13.9999999517426
20
-10.0472634162198
30
0
41
1
10
-13.922880690766
20
-10.0472634162198
30
0
41
1
10
-13.8462889435631
20
-10.0481512392559
30
0
41
1
10
-13.7702089779265
20
-10.0498908722981
30
0
0
SPLINE
5
E9
100
AcDbEntity
8
SK3
62
256
6
ByLayer
370
18
48
0.05
60
0
100
AcDbSpline
70
4
71
3
72
87
73
83
40
0
40
0
40
0
40
0
40
0.0155104258657447
40
0.0155104258657447
40
0.0311366842443432
40
0.0311366842443432
40
0.0623892010015402
40
0.0623892010015402
40
0.0936417177587372
40
0.124894234515934
40
0.124894234515934
40
0.140520492894533
40
0.140520492894533
40
0.156146751273131
40
0.156146751273131
40
0.187399268030328
40
0.218651784787524
40
0.218651784787524
40
0.234278043166123
40
0.234278043166123
40
0.242091172355422
40
0.242091172355422
40
0.249904301544721
40
0.281156818301916
40
0.312409335059111
40
0.312409335059111
40
0.343661851816306
40
0.343661851816306
40
0.351474981005605
40
0.351474981005605
40
0.359288110194904
40
0.374914368573502
40
0.374914368573502
40
0.406166885330698
40
0.437419402087894
40
0.437419402087894
40
0.453045660466492
40
0.453045660466492
40
0.46867191884509
40
0.46867191884509
40
0.499924435602285
40
0.531176952359481
40
0.531176952359481
40
0.546803210738079
40
0.554616339927377
40
0.554616339927377
40
0.562429469116676
40
0.562429469116676
40
0.593681985873872
40
0.593681985873872
40
0.624934502631068
40
0.656187019388264
40
0.656187019388264
40
0.664000148577562
40
0.664000148577562
40
0.671813277766861
40
0.687439536145458
40
0.687439536145458
40
0.718692052902653
40
0.749944569659848
40
0.749944569659848
40
0.765570828038445
40
0.765570828038445
40
0.781197086417043
40
0.781197086417043
40
0.812449603174237
40
0.843702119931433
40
0.843702119931433
40
0.874954636688628
40
0.874954636688628
40
0.906207153445823
40
0.906207153445823
40
0.937459670203019
40
0.968712186960214
40
0.968712186960214
40
0.976525316149513
40
0.976525316149513
40
0.984338445338811
40
0.984338445338811
40
0.999964703717409
40
0.999964703717409
40
1
40
1
40
1
40
1
41
1
10
-10.9500000727498
20
-10.5000000720561
30
0
41
1
10
-10.9499860630606
20
-10.5000041386289
30
0
41
1
10
-10.9511845211349
20
-10.4996558218748
30
0
41
1
10
-10.9560609871298
20
-10.4982408615389
30
0
41
1
10
-10.9597612007104
20
-10.4971677742019
30
0
41
1
10
-10.9746711374617
20
-10.492855957519
30
0
41
1
10
-10.9895262625607
20
-10.4885700529046
30
0
41
1
10
-11.0286947461991
20
-10.4773944393452
30
0
41
1
10
-11.0773249856273
20
-10.4636157519419
30
0
41
1
10
-11.1447150780417
20
-10.4450361764903
30
0
41
1
10
-11.2024437562466
20
-10.429452507123
30
0
41
1
10
-11.2229412836402
20
-10.4239688799142
30
0
41
1
10
-11.2659392686046
20
-10.4125962266852
30
0
41
1
10
-11.2884682864953
20
-10.4066992415901
30
0
41
1
10
-11.3590868961499
20
-10.3884474765346
30
0
41
1
10
-11.4613139081373
20
-10.3626209960847
30
0
41
1
10
-11.5794443120271
20
-10.3345448479962
30
0
41
1
10
-11.6741038623169
20
-10.312921563705
30
0
41
1
10
-11.7066692597878
20
-10.3056195058702
30
0
41
1
10
-11.7570662471686
20
-10.2945609519183
30
0
41
1
10
-11.7741306249343
20
-10.2908558055025
30
0
41
1
10
-11.8085943708026
20
-10.2834564118274
30
0
41
1
10
-11.8957055030321
20
-10.2649598374513
30
0
41
1
10
-12.06094392526
20
-10.2318419233002
30
0
41
1
10
-12.2196491813071
20
-10.2034580784012
30
0
41
1
10
-12.3843627223855
20
-10.1760105907423
30
0
41
1
10
-12.4697228512305
20
-10.1627542879024
30
0
41
1
10
-12.5803568211564
20
-10.1470394242752
30
0
41
1
10
-12.602647219266
20
-10.1439442897527
30
0
41
1
10
-12.6473809712474
20
-10.1378789274247
30
0
41
1
10
-12.7147876285908
20
-10.1289573174952
30
0
41
1
10
-12.7831051181578
20
-10.1205855765174
30
0
41
1
10
-12.9209445533074
20
-10.1046288221956
30
0
41
1
10
-13.107937902455
20
-10.0854532091476
30
0
41
1
10
-13.3013769540132
20
-10.0710441885663
30
0
41
1
10
-13.4489546125266
20
-10.0622433792254
30
0
41
1
10
-13.4985642899395
20
-10.0596441830773
30
0
41
1
10
-13.5986409426934
20
-10.0551525309353
30
0
41
1
10
-13.6487520743421
20
-10.0532768725063
30
0
41
1
10
-13.7988600426932
20
-10.0487787546814
30
0
41
1
10
-13.998787179592
20
-10.0457744707915
30
0
41
1
10
-14.1982891180585
20
-10.048726314968
30
0
41
1
10
-14.3477550560543
20
-10.05315650529
30
0
41
1
10
-14.4224478367137
20
-10.0559255918653
30
0
41
1
10
-14.4970795001334
20
-10.0595215276201
30
0
41
1
10
-14.5468202315779
20
-10.0621020520673
30
0
41
1
10
-14.5717151232316
20
-10.0634859580082
30
0
41
1
10
-14.6955013568096
20
-10.0708218167963
30
0
41
1
10
-14.7926859515549
20
-10.0780364822964
30
0
41
1
10
-14.9835211023698
20
-10.0948397758221
30
0
41
1
10
-15.1708209616475
20
-10.1140162518668
30
0
41
1
10
-15.3511525429495
20
-10.1373299420568
30
0
41
1
10
-15.461650952714
20
-10.1530018839098
30
0
41
1
10
-15.4836693110418
20
-10.1561957226045
30
0
41
1
10
-15.5272968846071
20
-10.1626606792458
30
0
41
1
10
-15.5921385314528
20
-10.1724754848731
30
0
41
1
10
-15.6552080167228
20
-10.1826106411193
30
0
41
1
10
-15.7790349956114
20
-10.2032277423839
30
0
41
1
10
-15.9379838744916
20
-10.2316368446992
30
0
41
1
10
-16.0848739802717
20
-10.2610654372157
30
0
41
1
10
-16.1904726282235
20
-10.2832139066408
30
0
41
1
10
-16.2249092391304
20
-10.2906095549441
30
0
41
1
10
-16.2922303472665
20
-10.3053745135503
30
0
41
1
10
-16.3248800958666
20
-10.3126923400918
30
0
41
1
10
-16.4196848949194
20
-10.3343411218251
30
0
41
1
10
-16.5378822206821
20
-10.3624236355845
30
0
41
1
10
-16.6400103299192
20
-10.3882190303444
30
0
41
1
10
-16.7340297300947
20
-10.4125097195467
30
0
41
1
10
-16.7769877211667
20
-10.4239038878855
30
0
41
1
10
-16.8544549814683
20
-10.4448085053558
30
0
41
1
10
-16.8882886040608
20
-10.4541347449449
30
0
41
1
10
-16.9464649273806
20
-10.4703572989679
30
0
41
1
10
-16.9951464942011
20
-10.4841492362546
30
0
41
1
10
-17.0248841816587
20
-10.4927277289335
30
0
41
1
10
-17.0373857170804
20
-10.4963426396946
30
0
41
1
10
-17.0395810733012
20
-10.4969782501709
30
0
41
1
10
-17.0433547699839
20
-10.4980716105375
30
0
41
1
10
-17.0449345756213
20
-10.4985297853215
30
0
41
1
10
-17.0487251650558
20
-10.4996296044095
30
0
41
1
10
-17.0499776561214
20
-10.4999936299552
30
0
41
1
10
-17.0499872639411
20
-10.4999964065545
30
0
41
1
10
-17.0499968718986
20
-10.4999991827352
30
0
41
1
10
-17.0500064833639
20
-10.5000019467109
30
0
0
LINE
5
74
100
AcDbEntity
8
SK3
62
256
6
ByLayer
370
18
48
0.05
60
0
100
AcDbLine
10
-21.914214
20
12
30
0
11
-21.914214
21
-12
31
0
39
0
210
0
220
0
230
1
0
LINE
5
76
100
AcDbEntity
8
SK3
62
256
6
ByLayer
370
18
48
0.05
60
0
100
AcDbLine
10
-23
20
12
30
0
11
-23
21
-12
31
0
39
0
210
0
220
0
230
1
0
LINE
5
77
100
AcDbEntity
8
SK3
62
256
6
ByLayer
370
18
48
0.05
60
0
100
AcDbLine
10
-21.914214
20
12
30
0
11
-23
21
12
31
0
39
0
210
0
220
0
230
1
0
LINE
5
78
100
AcDbEntity
8
SK3
62
256
6
ByLayer
370
18
48
0.05
60
0
100
AcDbLine
10
-23
20
-12
30
0
11
-21.914214
21
-12
31
0
39
0
210
0
220
0
230
1
0
LINE
5
79
100
AcDbEntity
8
SK3
62
256
6
ByLayer
370
18
48
0.05
60
0
100
AcDbLine
10
-28.414214
20
11.169873
30
0
11
-28.414214
21
-11.169873
31
0
39
0
210
0
220
0
230
1
0
LINE
5
7A
100
AcDbEntity
8
SK3
62
256
6
ByLayer
370
18
48
0.05
60
0
100
AcDbLine
10
-28.414214
20
11.169873
30
0
11
-30
21
12.085427
31
0
39
0
210
0
220
0
230
1
0
LINE
5
7B
100
AcDbEntity
8
SK3
62
256
6
ByLayer
370
18
48
0.05
60
0
100
AcDbLine
10
-30
20
-12.085427
30
0
11
-28.414214
21
-11.169873
31
0
39
0
210
0
220
0
230
1
0
LINE
5
7C
100
AcDbEntity
8
SK1
62
256
6
ByLayer
370
18
48
1
60
0
100
AcDbLine
10
-30
20
17.174417
30
0
11
-30
21
16.387988
31
0
39
0
210
0
220
0
230
1
0
LINE
5
7E
100
AcDbEntity
8
SK1
62
256
6
ByLayer
370
18
48
1
60
0
100
AcDbLine
10
-28.642113
20
17.958393
30
0
11
-30
21
17.174417
31
0
39
0
210
0
220
0
230
1
0
LINE
5
7F
100
AcDbEntity
8
SK1
62
256
6
ByLayer
370
18
48
1
60
0
100
AcDbLine
10
-2.16066
20
18.18934
30
0
11
-2.570533
21
18.599213
31
0
39
0
210
0
220
0
230
1
0
LINE
5
80
100
AcDbEntity
8
SK1
62
256
6
ByLayer
370
18
48
1
60
0
100
AcDbLine
10
-28.642113
20
17.958393
30
0
11
-28.642113
21
17.090567
31
0
39
0
210
0
220
0
230
1
0
LINE
5
81
100
AcDbEntity
8
SK1
62
256
6
ByLayer
370
18
48
1
60
0
100
AcDbLine
10
-2.574577
20
18.610645
30
0
11
-28.642113
21
17.958393
31
0
39
0
210
0
220
0
230
1
0
LINE
5
82
100
AcDbEntity
8
SK1
62
256
6
ByLayer
370
18
48
1
60
0
100
AcDbLine
10
-30
20
-14.766137
30
0
11
-30
21
-11.104536
31
0
39
0
210
0
220
0
230
1
0
LINE
5
83
100
AcDbEntity
8
SK1
62
256
6
ByLayer
370
18
48
1
60
0
100
AcDbLine
10
-0.04557
20
-12.352646
30
0
11
0
21
-12.353595
31
0
39
0
210
0
220
0
230
1
0
LINE
5
84
100
AcDbEntity
8
SK1
62
256
6
ByLayer
370
18
48
1
60
0
100
AcDbLine
10
-28.642113
20
-11.757076
30
0
11
-28.642113
21
-15.46713
31
0
39
0
210
0
220
0
230
1
0
LINE
5
85
100
AcDbEntity
8
SK1
62
256
6
ByLayer
370
18
48
1
60
0
100
AcDbLine
10
-22.889197
20
-15.817149
30
0
11
-17.038892
21
-15.963533
31
0
39
0
210
0
220
0
230
1
0
LINE
5
86
100
AcDbEntity
8
SK1
62
256
6
ByLayer
370
18
48
1
60
0
100
AcDbLine
10
-10.956543
20
-16.115723
30
0
11
0
21
-16.389874
31
0
39
0
210
0
220
0
230
1
0
LINE
5
87
100
AcDbEntity
8
SK1
62
256
6
ByLayer
370
18
48
1
60
0
100
AcDbLine
10
-28.642113
20
-11.757076
30
0
11
-30
21
-11.104536
31
0
39
0
210
0
220
0
230
1
0
LINE
5
88
100
AcDbEntity
8
SK1
62
256
6
ByLayer
370
18
48
1
60
0
100
AcDbLine
10
-30
20
-11.104536
30
0
11
-30
21
-5.283452
31
0
39
0
210
0
220
0
230
1
0
LINE
5
89
100
AcDbEntity
8
SK1
62
256
6
ByLayer
370
18
48
1
60
0
100
AcDbLine
10
-30
20
-5.283452
30
0
11
-28.642113
21
-5.333491
31
0
39
0
210
0
220
0
230
1
0
LINE
5
8A
100
AcDbEntity
8
SK1
62
256
6
ByLayer
370
18
48
1
60
0
100
AcDbLine
10
-30
20
16.387988
30
0
11
-28.642113
21
17.090567
31
0
39
0
210
0
220
0
230
1
0
LINE
5
8B
100
AcDbEntity
8
SK1
62
256
6
ByLayer
370
18
48
1
60
0
100
AcDbLine
10
-30
20
-5.283452
30
0
11
-30
21
16.387988
31
0
39
0
210
0
220
0
230
1
0
LINE
5
8C
100
AcDbEntity
8
SK1
62
256
6
ByLayer
370
18
48
1
60
0
100
AcDbLine
10
-0.04557
20
17.731806
30
0
11
0
21
17.732828
31
0
39
0
210
0
220
0
230
1
0
LINE
5
8D
100
AcDbEntity
8
SK1
62
256
6
ByLayer
370
18
48
1
60
0
100
AcDbLine
10
-28.642113
20
17.090567
30
0
11
-2.101314
21
17.685709
31
0
39
0
210
0
220
0
230
1
0
LINE
5
8E
100
AcDbEntity
8
SK1
62
256
6
ByLayer
370
18
48
1
60
0
100
AcDbLine
10
-28.642113
20
17.090567
30
0
11
-28.642113
21
-5.333491
31
0
39
0
210
0
220
0
230
1
0
LINE
5
8F
100
AcDbEntity
8
SK1
62
256
6
ByLayer
370
18
48
1
60
0
100
AcDbLine
10
-0.04557
20
-5.379161
30
0
11
0
21
-5.379234
31
0
39
0
210
0
220
0
230
1
0
LINE
5
90
100
AcDbEntity
8
SK1
62
256
6
ByLayer
370
18
48
1
60
0
100
AcDbLine
10
-28.642113
20
-11.757076
30
0
11
-2.101314
21
-12.309831
31
0
39
0
210
0
220
0
230
1
0
LINE
5
91
100
AcDbEntity
8
SK1
62
256
6
ByLayer
370
18
48
1
60
0
100
AcDbLine
10
-28.642113
20
-5.333491
30
0
11
-2.101314
21
-5.375878
31
0
39
0
210
0
220
0
230
1
0
LINE
5
92
100
AcDbEntity
8
SK1
62
256
6
ByLayer
370
18
48
1
60
0
100
AcDbLine
10
-28.642113
20
-5.333491
30
0
11
-28.642113
21
-11.757076
31
0
39
0
210
0
220
0
230
1
0
LINE
5
93
100
AcDbEntity
8
SK1
62
256
6
ByLayer
370
18
48
1
60
0
100
AcDbLine
10
-2.16066
20
18.18934
30
0
11
-2.16066
21
17.793417
31
0
39
0
210
0
220
0
230
1
0
LINE
5
94
100
AcDbEntity
8
SK1
62
256
6
ByLayer
370
18
48
1
60
0
100
AcDbLine
10
-2.16066
20
-12.165468
30
0
11
-2.16066
21
-5.62795
31
0
39
0
210
0
220
0
230
1
0
LINE
5
95
100
AcDbEntity
8
1
62
256
6
ByLayer
370
18
48
1
60
0
100
AcDbLine
10
11.75
20
23.826731
30
0
11
11.75
21
7.56881
31
0
39
0
210
0
220
0
230
1
0
LINE
5
97
100
AcDbEntity
8
1
62
256
6
ByLayer
370
18
48
1
60
0
100
AcDbLine
10
8.25
20
23.826731
30
0
11
8.25
21
7.56881
31
0
39
0
210
0
220
0
230
1
0
LINE
5
98
100
AcDbEntity
8
1
62
256
6
ByLayer
370
18
48
1
60
0
100
AcDbLine
10
11.75
20
-7.56881
30
0
11
11.75
21
-23.826731
31
0
39
0
210
0
220
0
230
1
0
LINE
5
99
100
AcDbEntity
8
1
62
256
6
ByLayer
370
18
48
1
60
0
100
AcDbLine
10
8.25
20
-7.56881
30
0
11
8.25
21
-23.826731
31
0
39
0
210
0
220
0
230
1
0
LINE
5
9A
100
AcDbEntity
8
1
62
256
6
ByLayer
370
18
48
1
60
0
100
AcDbLine
10
19
20
-24.5
30
0
11
19
21
24.5
31
0
39
0
210
0
220
0
230
1
0
LINE
5
9B
100
AcDbEntity
8
1
62
256
6
ByLayer
370
18
48
1
60
0
100
AcDbLine
10
19
20
24.5
30
0
11
18.5
21
25
31
0
39
0
210
0
220
0
230
1
0
LINE
5
9C
100
AcDbEntity
8
1
62
256
6
ByLayer
370
18
48
1
60
0
100
AcDbLine
10
18.5
20
-25
30
0
11
19
21
-24.5
31
0
39
0
210
0
220
0
230
1
0
LINE
5
9D
100
AcDbEntity
8
1
62
256
6
ByLayer
370
18
48
1
60
0
100
AcDbLine
10
0
20
24.6
30
0
11
0
21
-24.6
31
0
39
0
210
0
220
0
230
1
0
LINE
5
9E
100
AcDbEntity
8
1
62
256
6
ByLayer
370
18
48
1
60
0
100
AcDbLine
10
0
20
-24.6
30
0
11
0.4
21
-25
31
0
39
0
210
0
220
0
230
1
0
LINE
5
9F
100
AcDbEntity
8
1
62
256
6
ByLayer
370
18
48
1
60
0
100
AcDbLine
10
0.4
20
25
30
0
11
0
21
24.6
31
0
39
0
210
0
220
0
230
1
0
LINE
5
A0
100
AcDbEntity
8
1
62
256
6
ByLayer
370
18
48
1
60
0
100
AcDbLine
10
18.5
20
-25
30
0
11
18.5
21
25
31
0
39
0
210
0
220
0
230
1
0
LINE
5
A1
100
AcDbEntity
8
1
62
256
6
ByLayer
370
18
48
1
60
0
100
AcDbLine
10
8.25
20
-23.826731
30
0
11
11.75
21
-23.826731
31
0
39
0
210
0
220
0
230
1
0
LINE
5
A2
100
AcDbEntity
8
1
62
256
6
ByLayer
370
18
48
1
60
0
100
AcDbLine
10
11.75
20
-7.56881
30
0
11
8.25
21
-7.56881
31
0
39
0
210
0
220
0
230
1
0
LINE
5
A3
100
AcDbEntity
8
1
62
256
6
ByLayer
370
18
48
1
60
0
100
AcDbLine
10
8.25
20
7.56881
30
0
11
11.75
21
7.56881
31
0
39
0
210
0
220
0
230
1
0
LINE
5
A4
100
AcDbEntity
8
1
62
256
6
ByLayer
370
18
48
1
60
0
100
AcDbLine
10
11.75
20
23.826731
30
0
11
8.25
21
23.826731
31
0
39
0
210
0
220
0
230
1
0
LINE
5
A5
100
AcDbEntity
8
SK3
62
256
6
ByLayer
370
18
48
0.05
60
0
100
AcDbLine
10
-10.95
20
-16.114894
30
0
11
-10.95
21
-10.49686
31
0
39
0
210
0
220
0
230
1
0
LINE
5
A6
100
AcDbEntity
8
SK3
62
256
6
ByLayer
370
18
48
0.05
60
0
100
AcDbLine
10
-17.05
20
-10.497414
30
0
11
-17.05
21
-15.962099
31
0
39
0
210
0
220
0
230
1
0
LINE
5
A7
100
AcDbEntity
8
SK3
62
256
6
ByLayer
370
18
48
0.05
60
0
100
AcDbLine
10
-14
20
15.760918
30
0
11
-17.05
21
14
31
0
39
0
210
0
220
0
230
1
0
LINE
5
A8
100
AcDbEntity
8
SK3
62
256
6
ByLayer
370
18
48
0.05
60
0
100
AcDbLine
10
-10.95
20
14
30
0
11
-14
21
15.760918
31
0
39
0
210
0
220
0
230
1
0
LINE
5
A9
100
AcDbEntity
8
SK3
62
256
6
ByLayer
370
18
48
0.05
60
0
100
AcDbLine
10
-17.05
20
14
30
0
11
-10.95
21
14
31
0
39
0
210
0
220
0
230
1
0
LINE
5
AA
100
AcDbEntity
8
SK3
62
256
6
ByLayer
370
18
48
0.05
60
0
100
AcDbLine
10
-10.95
20
10.5
30
0
11
-10.95
21
14
31
0
39
0
210
0
220
0
230
1
0
LINE
5
AB
100
AcDbEntity
8
SK3
62
256
6
ByLayer
370
18
48
0.05
60
0
100
AcDbLine
10
-17.05
20
14
30
0
11
-17.05
21
10.498914
31
0
39
0
210
0
220
0
230
1
0
LINE
5
AC
100
AcDbEntity
8
SK3
62
256
6
ByLayer
370
18
48
0.05
60
0
100
AcDbLine
10
-24.7
20
-14
30
0
11
-30
21
-14
31
0
39
0
210
0
220
0
230
1
0
LINE
5
AD
100
AcDbEntity
8
SK3
62
256
6
ByLayer
370
18
48
0.05
60
0
100
AcDbLine
10
-24.7
20
-14
30
0
11
-24.7
21
-15.557022
31
0
39
0
210
0
220
0
230
1
0
LINE
5
AE
100
AcDbEntity
8
SK3
62
256
6
ByLayer
370
18
48
0.05
60
0
100
AcDbLine
10
-22.886284
20
-15.813716
30
0
11
-24.7
21
-14
31
0
39
0
210
0
220
0
230
1
0
LINE
5
AF
100
AcDbEntity
8
SK3
62
256
6
ByLayer
370
18
48
0.05
60
0
100
AcDbLine
10
12
20
6.9175
30
0
11
-10
21
6.9175
31
0
39
0
210
0
220
0
230
1
0
LINE
5
B0
100
AcDbEntity
8
SK3
62
256
6
ByLayer
370
18
48
0.05
60
0
100
AcDbLine
10
-10
20
-6.9175
30
0
11
12
21
-6.9175
31
0
39
0
210
0
220
0
230
1
0
LINE
5
B1
100
AcDbEntity
8
SK3
62
256
6
ByLayer
370
18
48
0.05
60
0
100
AcDbLine
10
12
20
6.9175
30
0
11
12
21
-6.9175
31
0
39
0
210
0
220
0
230
1
0
LINE
5
B2
100
AcDbEntity
8
SK3
62
256
6
ByLayer
370
18
48
0.05
60
0
100
AcDbLine
10
15.993821
20
0
30
0
11
12
21
6.9175
31
0
39
0
210
0
220
0
230
1
0
LINE
5
B3
100
AcDbEntity
8
SK3
62
256
6
ByLayer
370
18
48
0.05
60
0
100
AcDbLine
10
12
20
-6.9175
30
0
11
15.993821
21
0
31
0
39
0
210
0
220
0
230
1
0
LINE
5
B4
100
AcDbEntity
8
SK3
62
256
6
ByLayer
370
18
48
0.05
60
0
100
AcDbLine
10
-10
20
10.5
30
0
11
-10
21
-10.5
31
0
39
0
210
0
220
0
230
1
0
LINE
5
B5
100
AcDbEntity
8
SK3
62
256
6
ByLayer
370
18
48
0.05
60
0
100
AcDbLine
10
-10
20
10.5
30
0
11
-10.95
21
10.5
31
0
39
0
210
0
220
0
230
1
0
LINE
5
B6
100
AcDbEntity
8
SK3
62
256
6
ByLayer
370
18
48
0.05
60
0
100
AcDbLine
10
-17.046231
20
10.5
30
0
11
-20.414214
21
10.5
31
0
39
0
210
0
220
0
230
1
0
LINE
5
B7
100
AcDbEntity
8
SK3
62
256
6
ByLayer
370
18
48
0.05
60
0
100
AcDbLine
10
-20.414214
20
-10.5
30
0
11
-17.041075
21
-10.5
31
0
39
0
210
0
220
0
230
1
0
LINE
5
B8
100
AcDbEntity
8
SK3
62
256
6
ByLayer
370
18
48
0.05
60
0
100
AcDbLine
10
-10.960831
20
-10.5
30
0
11
-10
21
-10.5
31
0
39
0
210
0
220
0
230
1
0
LINE
5
B9
100
AcDbEntity
8
SK3
62
256
6
ByLayer
370
18
48
0.05
60
0
100
AcDbLine
10
-24.914214
20
10.5
30
0
11
-25.914214
21
10.5
31
0
39
0
210
0
220
0
230
1
0
LINE
5
BA
100
AcDbEntity
8
SK3
62
256
6
ByLayer
370
18
48
0.05
60
0
100
AcDbLine
10
-25.914214
20
-10.5
30
0
11
-24.914214
21
-10.5
31
0
39
0
210
0
220
0
230
1
0
LINE
5
BB
100
AcDbEntity
8
SK3
62
256
6
ByLayer
370
18
48
0.05
60
0
100
AcDbLine
10
-24.914214
20
10.5
30
0
11
-24.914214
21
-10.5
31
0
39
0
210
0
220
0
230
1
0
LINE
5
BC
100
AcDbEntity
8
SK3
62
256
6
ByLayer
370
18
48
0.05
60
0
100
AcDbLine
10
-24.914214
20
-10.5
30
0
11
-24.414214
21
-11
31
0
39
0
210
0
220
0
230
1
0
LINE
5
BD
100
AcDbEntity
8
SK3
62
256
6
ByLayer
370
18
48
0.05
60
0
100
AcDbLine
10
-24.414214
20
11
30
0
11
-24.914214
21
10.5
31
0
39
0
210
0
220
0
230
1
0
LINE
5
BE
100
AcDbEntity
8
SK3
62
256
6
ByLayer
370
18
48
0.05
60
0
100
AcDbLine
10
-25.914214
20
10.5
30
0
11
-25.914214
21
-10.5
31
0
39
0
210
0
220
0
230
1
0
LINE
5
BF
100
AcDbEntity
8
SK3
62
256
6
ByLayer
370
18
48
0.05
60
0
100
AcDbLine
10
-25.914214
20
10.5
30
0
11
-28.414214
21
11.169873
31
0
39
0
210
0
220
0
230
1
0
LINE
5
C0
100
AcDbEntity
8
SK3
62
256
6
ByLayer
370
18
48
0.05
60
0
100
AcDbLine
10
-28.414214
20
-11.169873
30
0
11
-25.914214
21
-10.5
31
0
39
0
210
0
220
0
230
1
0
LINE
5
C1
100
AcDbEntity
8
SK3
62
256
6
ByLayer
370
18
48
0.05
60
0
100
AcDbLine
10
-24.414214
20
11
30
0
11
-24.414214
21
-11
31
0
39
0
210
0
220
0
230
1
0
LINE
5
C2
100
AcDbEntity
8
SK3
62
256
6
ByLayer
370
18
48
0.05
60
0
100
AcDbLine
10
-20.414214
20
10.5
30
0
11
-20.414214
21
-10.5
31
0
39
0
210
0
220
0
230
1
0
LINE
5
C3
100
AcDbEntity
8
1
62
256
6
ByLayer
370
18
48
1
60
0
100
AcDbLine
10
0.4
20
25
30
0
11
0.4
21
-25
31
0
39
0
210
0
220
0
230
1
0
LINE
5
C4
100
AcDbEntity
8
1
62
256
6
ByLayer
370
18
48
1
60
0
100
AcDbLine
10
18.5
20
25
30
0
11
0.4
21
25
31
0
39
0
210
0
220
0
230
1
0
LINE
5
C5
100
AcDbEntity
8
1
62
256
6
ByLayer
370
18
48
1
60
0
100
AcDbLine
10
0.4
20
-25
30
0
11
18.5
21
-25
31
0
39
0
210
0
220
0
230
1
0
LINE
5
C6
100
AcDbEntity
8
4
62
256
6
ByLayer
370
18
48
0.05
60
0
100
AcDbLine
10
0
20
0
30
0
11
19
21
0
31
0
39
0
210
0
220
0
230
1
0
LINE
5
C8
100
AcDbEntity
8
SK4
62
256
6
ByLayer
370
18
48
0.05
60
0
100
AcDbLine
10
24
20
0
30
0
11
-35
21
0
31
0
39
0
210
0
220
0
230
1
0
LINE
5
CA
100
AcDbEntity
8
80
62
256
6
ByLayer
370
18
48
1
60
0
100
AcDbLine
10
0
20
0
30
0
11
-2
21
0
31
0
39
0
210
0
220
0
230
1
0
LINE
5
CB
100
AcDbEntity
8
81
62
256
6
ByLayer
370
18
48
1
60
0
100
AcDbLine
10
12
20
0
30
0
11
14
21
0
31
0
39
0
210
0
220
0
230
1
0
MTEXT
5
EA
100
AcDbEntity
8
SK6
62
256
6
ByLayer
370
18
48
1
60
0
100
AcDbMText
10
-14.927797
20
-41.815162
30
0
210
0
220
0
230
1
1
\W0.8323;C5_CPA_01
40
3.5
41
0
44
1.084337
50
0
71
7
72
5
7
iso_b_vert
0
DIMENSION
5
EF
100
AcDbEntity
8
2
62
256
6
ByLayer
370
18
48
1
60
0
100
AcDbDimension
2
_U0
10
19
20
33.957446
30
0
11
9.5
21
33.957446
31
0
70
32
71
1
72
1
41
1
210
0
220
0
230
1
3
Standard
100
AcDbAlignedDimension
13
0
23
24.6
33
0
14
19
24
24.5
34
0
50
0
100
AcDbRotatedDimension
1001
ACAD
1000
DSTYLE
1002
{
1070
   371
1070
    13
1070
   372
1070
    13
1070
   170
1070
     0
1070
   144
1040
1.0
1070
   277
1070
     2
1070
   284
1070
     8
1070
   278
1070
    46
1070
   146
1040
1.166667
1070
   345
1005
16
1070
   347
1005
16
1070
   346
1005
16
1070
   344
1005
F0
1070
   343
1005
F0
1070
   172
1070
     1
1070
    76
1070
     0
1070
    75
1070
     0
1070
   282
1070
     0
1070
   281
1070
     0
1070
    71
1070
     0
1070
    74
1070
     0
1070
   279
1070
     0
1070
   173
1070
     1
1070
   340
1005
EB
1070
   271
1070
     2
1070
   272
1070
     2
1070
    77
1070
     1
1070
    73
1070
     1
1070
   171
1070
     3
1070
   274
1070
     4
1070
   177
1070
     7
1070
   176
1070
     7
1070
   178
1070
     7
1070
    78
1070
     8
1070
    48
1040
-0.1
1070
    41
1040
3.175
1070
   147
1040
1.5
1070
    42
1040
1.5875
1070
    44
1040
2.0
1070
   140
1040
3.0
1002
}
1001
ACAD_DSTYLE_DIM_LINETYPE
1070
   380
1005
16
1001
ACAD_DSTYLE_DIM_EXT1_LINETYPE
1070
   381
1005
16
1001
ACAD_DSTYLE_DIM_EXT2_LINETYPE
1070
   382
1005
16
0
DIMENSION
5
114
100
AcDbEntity
8
SK2
62
256
6
ByLayer
370
18
48
1
60
0
100
AcDbDimension
2
_U1
10
36.310575
20
-25
30
0
11
36.310575
21
0
31
0
70
32
71
1
72
1
41
1
210
0
220
0
230
1
3
Standard
100
AcDbAlignedDimension
13
18.5
23
25
33
0
14
18.5
24
-25
34
0
50
-90
100
AcDbRotatedDimension
1001
ACAD
1000
DSTYLE
1002
{
1070
   371
1070
    13
1070
   372
1070
    13
1070
     3
1000
%%c<>
1070
   170
1070
     0
1070
   144
1040
1.0
1070
   277
1070
     2
1070
   284
1070
     8
1070
   278
1070
    46
1070
   146
1040
1.166667
1070
   345
1005
16
1070
   347
1005
16
1070
   346
1005
16
1070
   344
1005
F0
1070
   343
1005
F0
1070
   172
1070
     1
1070
    76
1070
     0
1070
    75
1070
     0
1070
   282
1070
     0
1070
   281
1070
     0
1070
    71
1070
     0
1070
    74
1070
     0
1070
   279
1070
     0
1070
   173
1070
     1
1070
   340
1005
EB
1070
   271
1070
     2
1070
   272
1070
     2
1070
    77
1070
     1
1070
    73
1070
     0
1070
   171
1070
     3
1070
   274
1070
     4
1070
   177
1070
     7
1070
   176
1070
     7
1070
   178
1070
     7
1070
    78
1070
     8
1070
    48
1040
-0.1
1070
    41
1040
3.175
1070
   147
1040
1.5
1070
    42
1040
1.5875
1070
    44
1040
2.0
1070
   140
1040
3.0
1002
}
1001
ACAD_DSTYLE_DIM_LINETYPE
1070
   380
1005
16
1001
ACAD_DSTYLE_DIM_EXT1_LINETYPE
1070
   381
1005
16
1001
ACAD_DSTYLE_DIM_EXT2_LINETYPE
1070
   382
1005
16
0
DIMENSION
5
132
100
AcDbEntity
8
SK2
62
256
6
ByLayer
370
18
48
1
60
0
100
AcDbDimension
2
_U2
10
19
20
-32.174797
30
0
11
32.992857
21
-32.174797
31
0
70
32
71
1
72
1
41
1
210
0
220
0
230
1
3
Standard
100
AcDbAlignedDimension
13
18.5
23
-25
33
0
14
19
24
-24.5
34
0
50
0
100
AcDbRotatedDimension
1001
ACAD
1000
DSTYLE
1002
{
1070
   371
1070
    13
1070
   372
1070
    13
1070
   170
1070
     0
1070
   144
1040
1.0
1070
   277
1070
     2
1070
   284
1070
     8
1070
   278
1070
    46
1070
   146
1040
1.166667
1070
   345
1005
16
1070
   347
1005
16
1070
   346
1005
16
1070
   344
1005
F0
1070
   343
1005
F0
1070
   172
1070
     1
1070
    76
1070
     0
1070
    75
1070
     0
1070
   282
1070
     0
1070
   281
1070
     0
1070
    71
1070
     0
1070
    74
1070
     0
1070
   279
1070
     0
1070
   173
1070
     1
1070
   340
1005
EB
1070
   271
1070
     2
1070
   272
1070
     2
1070
    77
1070
     1
1070
    73
1070
     1
1070
   171
1070
     3
1070
   274
1070
     4
1070
   177
1070
     7
1070
   176
1070
     7
1070
   178
1070
     7
1070
    78
1070
     8
1070
    48
1040
-0.1
1070
    41
1040
3.175
1070
   147
1040
1.5
1070
    42
1040
1.5875
1070
    44
1040
2.0
1070
   140
1040
3.0
1002
}
1001
ACAD_DSTYLE_DIM_LINETYPE
1070
   380
1005
16
1001
ACAD_DSTYLE_DIM_EXT1_LINETYPE
1070
   381
1005
16
1001
ACAD_DSTYLE_DIM_EXT2_LINETYPE
1070
   382
1005
16
0
ENDSEC
0
SECTION
2
OBJECTS
0
DICTIONARY
5
1c1
330
0
100
AcDbDictionary
280
0
281
1
3
ACAD_GROUP
350
1c2
3
ACAD_MLINESTYLE
350
1c3
0
DICTIONARY
5
1c2
330
0
100
AcDbDictionary
280
0
281
1
0
DICTIONARY
5
1c3
330
0
100
AcDbDictionary
280
0
281
1
3
Standard
350
18
0
MLINESTYLE
5
18
330
1c3
100
AcDbMlineStyle
2
Standard
70
0
3

62
256
51
90
52
90
71
2
49
-0.5
62
256
6
ByLayer
49
0.5
62
256
6
ByLayer
0
RASTERVARIABLES
5
1ae
330

100
AcDbRasterVariables
90
0
70
1
71
1
72
1
0
ENDSEC
0
EOF
