0
SECTION
2
HEADER
9
$ACADVER
1
AC1015
9
$DWGCODEPAGE
3
ANSI_1252
9
$HANDSEED
5
2b1
9
$ANGBASE
50
0
9
$ANGDIR
70
0
9
$ATTMODE
70
1
9
$AUNITS
70
0
9
$AUPREC
70
0
9
$CECOLOR
62
256
9
$CELTSCALE
40
1
9
$CELTYPE
6
ByLayer
9
$CELWEIGHT
370
18
9
$CLAYER
8
0
9
$CMLJUST
70
0
9
$CMLSCALE
40
1
9
$CMLSTYLE
2
Standard
9
$DIMSTYLE
2
Standard
9
$TEXTSIZE
40
0.2
9
$TEXTSTYLE
7
Standard
9
$LUNITS
70
2
9
$LUPREC
70
4
9
$EXTNAMES
290
1
9
$INSUNITS
70
4
9
$LTSCALE
40
1
9
$LWDISPLAY
290
1
9
$PDMODE
70
0
9
$PDSIZE
40
0
9
$PLINEGEN
70
0
0
ENDSEC
0
SECTION
2
CLASSES
0
CLASS
1
RASTERVARIABLES
2
AcDbRasterVariables
3
ISM
90
0
280
0
281
0
0
ENDSEC
0
SECTION
2
TABLES
0
TABLE
2
VPORT
5
2a7
100
AcDbSymbolTable
0
VPORT
5
1
100
AcDbSymbolTableRecord
100
AcDbViewportTableRecord
2
*Active
70
0
10
0
20
0
11
1
21
1
12
-1
22
1
13
0
23
0
14
0.5
24
0.5
15
10
25
10
16
0
26
0
36
1
17
0
27
0
37
0
0
ENDTAB
0
TABLE
2
LTYPE
5
2a8
100
AcDbSymbolTable
0
LTYPE
5
14
100
AcDbSymbolTableRecord
100
AcDbLinetypeTableRecord
70
0
2
ByBlock
3

72
65
73
0
40
0
0
LTYPE
5
15
100
AcDbSymbolTableRecord
100
AcDbLinetypeTableRecord
70
0
2
ByLayer
3

72
65
73
0
40
0
0
LTYPE
5
16
100
AcDbSymbolTableRecord
100
AcDbLinetypeTableRecord
70
0
2
Continuous
3
Solid line
72
65
73
0
40
0
0
LTYPE
5
6E
100
AcDbSymbolTableRecord
100
AcDbLinetypeTableRecord
70
0
2
CENTER
3
____ _ ____ _ ____ _ ____
72
65
73
4
40
47.5
49
22
74
0
49
-8.5
74
0
49
8.5
74
0
49
-8.5
74
0
0
LTYPE
5
6F
100
AcDbSymbolTableRecord
100
AcDbLinetypeTableRecord
70
0
2
DASHED
3
__ __ __ __ __ __ __ __ __
72
65
73
2
40
25.72
49
12.86
74
0
49
-12.86
74
0
0
ENDTAB
0
TABLE
2
LAYER
5
2a9
100
AcDbSymbolTable
0
LAYER
5
10
100
AcDbSymbolTableRecord
100
AcDbLayerTableRecord
2
0
70
0
62
7
6
Continuous
290
1
370
-3
390
0
0
LAYER
5
71
100
AcDbSymbolTableRecord
100
AcDbLayerTableRecord
2
80
70
0
62
-6
6
Continuous
290
1
370
-3
390
0
0
LAYER
5
73
100
AcDbSymbolTableRecord
100
AcDbLayerTableRecord
2
81
70
0
62
-3
6
Continuous
290
1
370
-3
390
0
0
LAYER
5
75
100
AcDbSymbolTableRecord
100
AcDbLayerTableRecord
2
1
70
0
62
4
6
Continuous
290
1
370
-3
390
0
0
LAYER
5
AB
100
AcDbSymbolTableRecord
100
AcDbLayerTableRecord
2
4
70
0
62
-2
6
CENTER
290
1
370
-3
390
0
0
LAYER
5
131
100
AcDbSymbolTableRecord
100
AcDbLayerTableRecord
2
Defpoints
70
0
62
7
6
Continuous
290
0
370
-3
390
0
0
LAYER
5
15E
100
AcDbSymbolTableRecord
100
AcDbLayerTableRecord
2
2
70
0
62
7
6
Continuous
290
1
370
-3
390
0
0
LAYER
5
293
100
AcDbSymbolTableRecord
100
AcDbLayerTableRecord
2
SK1
70
0
62
4
6
Continuous
290
1
370
-3
390
0
0
LAYER
5
294
100
AcDbSymbolTableRecord
100
AcDbLayerTableRecord
2
SK4
70
0
62
2
6
CENTER
290
1
370
-3
390
0
0
LAYER
5
295
100
AcDbSymbolTableRecord
100
AcDbLayerTableRecord
2
SK2
70
0
62
7
6
Continuous
290
1
370
-3
390
0
0
LAYER
5
296
100
AcDbSymbolTableRecord
100
AcDbLayerTableRecord
2
SK6
70
0
62
5
6
Continuous
290
1
370
-3
390
0
0
ENDTAB
0
TABLE
2
STYLE
5
2aa
100
AcDbSymbolTable
0
STYLE
5
11
100
AcDbSymbolTableRecord
100
AcDbTextStyleTableRecord
2
Standard
3
txt
70
0
71
0
40
0
41
1
42
0
50
0
0
STYLE
5
121
100
AcDbSymbolTableRecord
100
AcDbTextStyleTableRecord
2
iso_b_vert
3
simplex.shx
70
0
71
0
40
0
41
1
42
0
50
0
0
STYLE
5
122
100
AcDbSymbolTableRecord
100
AcDbTextStyleTableRecord
2
DWGDirectTextStyle
3
simplex
70
0
71
0
40
0
41
1
42
0
50
0
0
ENDTAB
0
TABLE
2
DIMSTYLE
5
2ab
100
AcDbSymbolTable
100
AcDbDimStyleTable
0
DIMSTYLE
105
27
100
AcDbSymbolTableRecord
100
AcDbDimStyleTableRecord
2
Standard
70
0
3
<>
41
0.18
42
0.0625
44
0.18
140
0.18
147
0.09
73
0
74
0
77
1
271
2
275
0
278
52
280
0
340
11
0
ENDTAB
0
TABLE
2
VIEW
5
2ac
100
AcDbSymbolTable
0
ENDTAB
0
TABLE
2
UCS
5
2ad
100
AcDbSymbolTable
0
ENDTAB
0
TABLE
2
APPID
5
2ae
100
AcDbSymbolTable
0
APPID
5
12
100
AcDbSymbolTableRecord
100
AcDbRegAppTableRecord
2
ACAD
70
0
0
APPID
5
126
100
AcDbSymbolTableRecord
100
AcDbRegAppTableRecord
2
ACAD_DSTYLE_DIMBREAK
70
0
0
APPID
5
252
100
AcDbSymbolTableRecord
100
AcDbRegAppTableRecord
2
ACAD_DSTYLE_DIM_LINETYPE
70
0
0
APPID
5
253
100
AcDbSymbolTableRecord
100
AcDbRegAppTableRecord
2
ACAD_DSTYLE_DIM_EXT1_LINETYPE
70
0
0
APPID
5
254
100
AcDbSymbolTableRecord
100
AcDbRegAppTableRecord
2
ACAD_DSTYLE_DIM_EXT2_LINETYPE
70
0
0
APPID
5
28F
100
AcDbSymbolTableRecord
100
AcDbRegAppTableRecord
2
ACAD_MLEADERVER
70
0
0
ENDTAB
0
TABLE
2
BLOCK_RECORD
5
2af
100
AcDbSymbolTable
0
BLOCK_RECORD
5
1F
100
AcDbSymbolTableRecord
100
AcDbBlockTableRecord
2
*Model_Space
340
0
70
0
0
BLOCK_RECORD
5
1B
100
AcDbSymbolTableRecord
100
AcDbBlockTableRecord
2
*Paper_Space
340
0
70
0
0
BLOCK_RECORD
5
23
100
AcDbSymbolTableRecord
100
AcDbBlockTableRecord
2
*Paper_Space0
340
0
70
0
0
BLOCK_RECORD
5
128
100
AcDbSymbolTableRecord
100
AcDbBlockTableRecord
2
_Closed
340
0
70
0
0
BLOCK_RECORD
5
132
100
AcDbSymbolTableRecord
100
AcDbBlockTableRecord
2
*D2
340
0
70
0
0
BLOCK_RECORD
5
13E
100
AcDbSymbolTableRecord
100
AcDbBlockTableRecord
2
_U0
340
0
70
0
0
BLOCK_RECORD
5
150
100
AcDbSymbolTableRecord
100
AcDbBlockTableRecord
2
*D4
340
0
70
0
0
BLOCK_RECORD
5
15F
100
AcDbSymbolTableRecord
100
AcDbBlockTableRecord
2
_U1
340
0
70
0
0
BLOCK_RECORD
5
16F
100
AcDbSymbolTableRecord
100
AcDbBlockTableRecord
2
*D6
340
0
70
0
0
BLOCK_RECORD
5
17D
100
AcDbSymbolTableRecord
100
AcDbBlockTableRecord
2
_U2
340
0
70
0
0
BLOCK_RECORD
5
18D
100
AcDbSymbolTableRecord
100
AcDbBlockTableRecord
2
*D8
340
0
70
0
0
BLOCK_RECORD
5
19B
100
AcDbSymbolTableRecord
100
AcDbBlockTableRecord
2
_U3
340
0
70
0
0
BLOCK_RECORD
5
1AB
100
AcDbSymbolTableRecord
100
AcDbBlockTableRecord
2
*D10
340
0
70
0
0
BLOCK_RECORD
5
1B7
100
AcDbSymbolTableRecord
100
AcDbBlockTableRecord
2
_U4
340
0
70
0
0
BLOCK_RECORD
5
1C7
100
AcDbSymbolTableRecord
100
AcDbBlockTableRecord
2
*D12
340
0
70
0
0
BLOCK_RECORD
5
1D3
100
AcDbSymbolTableRecord
100
AcDbBlockTableRecord
2
_U5
340
0
70
0
0
BLOCK_RECORD
5
1E3
100
AcDbSymbolTableRecord
100
AcDbBlockTableRecord
2
*D14
340
0
70
0
0
BLOCK_RECORD
5
1EF
100
AcDbSymbolTableRecord
100
AcDbBlockTableRecord
2
_U6
340
0
70
0
0
BLOCK_RECORD
5
1FF
100
AcDbSymbolTableRecord
100
AcDbBlockTableRecord
2
*D16
340
0
70
0
0
BLOCK_RECORD
5
20B
100
AcDbSymbolTableRecord
100
AcDbBlockTableRecord
2
_U7
340
0
70
0
0
BLOCK_RECORD
5
21B
100
AcDbSymbolTableRecord
100
AcDbBlockTableRecord
2
*D18
340
0
70
0
0
BLOCK_RECORD
5
227
100
AcDbSymbolTableRecord
100
AcDbBlockTableRecord
2
_U8
340
0
70
0
0
ENDTAB
0
ENDSEC
0
SECTION
2
BLOCKS
0
BLOCK
5
20
100
AcDbEntity
8
0
100
AcDbBlockBegin
2
*Model_Space
70
0
10
0
20
0
30
0
3
*Model_Space
0
ENDBLK
5
21
100
AcDbEntity
8
0
100
AcDbBlockEnd
0
BLOCK
5
1C
100
AcDbEntity
8
0
100
AcDbBlockBegin
2
*Paper_Space
70
0
10
0
20
0
30
0
3
*Paper_Space
0
ENDBLK
5
1D
100
AcDbEntity
8
0
100
AcDbBlockEnd
0
BLOCK
5
24
100
AcDbEntity
8
0
100
AcDbBlockBegin
2
*Paper_Space0
70
0
10
0
20
0
30
0
3
*Paper_Space0
0
ENDBLK
5
25
100
AcDbEntity
8
0
100
AcDbBlockEnd
0
BLOCK
5
129
100
AcDbEntity
8
0
100
AcDbBlockBegin
2
_Closed
70
0
10
0
20
0
30
0
3
_Closed
0
LINE
5
12B
100
AcDbEntity
8
0
62
256
6
ByLayer
370
-2
48
1
60
0
100
AcDbLine
10
-1
20
0.166667
30
0
11
0
21
0
31
0
39
0
210
0
220
0
230
1
0
LINE
5
12C
100
AcDbEntity
8
0
62
256
6
ByLayer
370
-2
48
1
60
0
100
AcDbLine
10
0
20
0
30
0
11
-1
21
-0.166667
31
0
39
0
210
0
220
0
230
1
0
LINE
5
12D
100
AcDbEntity
8
0
62
256
6
ByLayer
370
-2
48
1
60
0
100
AcDbLine
10
-1
20
0.166667
30
0
11
-1
21
-0.166667
31
0
39
0
210
0
220
0
230
1
0
LINE
5
12E
100
AcDbEntity
8
0
62
256
6
ByLayer
370
-2
48
1
60
0
100
AcDbLine
10
0
20
0
30
0
11
-1
21
0
31
0
39
0
210
0
220
0
230
1
0
ENDBLK
5
12A
100
AcDbEntity
8
0
100
AcDbBlockEnd
0
BLOCK
5
133
100
AcDbEntity
8
0
100
AcDbBlockBegin
2
*D2
70
1
10
0
20
0
30
0
3
*D2
0
LINE
5
135
100
AcDbEntity
8
0
62
256
6
ByLayer
370
-2
48
1
60
0
100
AcDbLine
10
0
20
-7.5875
30
0
11
0
21
-32.67512
31
0
39
0
210
0
220
0
230
1
0
LINE
5
136
100
AcDbEntity
8
0
62
256
6
ByLayer
370
-2
48
1
60
0
100
AcDbLine
10
57
20
-1.5875
30
0
11
57
21
-32.67512
31
0
39
0
210
0
220
0
230
1
0
LINE
5
137
100
AcDbEntity
8
0
62
256
6
ByLayer
370
-2
48
1
60
0
100
AcDbLine
10
3.175
20
-29.50012
30
0
11
53.825
21
-29.50012
31
0
39
0
210
0
220
0
230
1
0
SOLID
5
138
100
AcDbEntity
8
0
62
256
6
ByLayer
370
-1
48
1
60
0
100
AcDbTrace
10
3.175
20
-28.970953
30
0
11
3.175
21
-30.029287
31
0
12
0
22
-29.50012
32
0
13
0
23
-29.50012
33
0
39
0
210
0
220
0
230
1
0
SOLID
5
139
100
AcDbEntity
8
0
62
256
6
ByLayer
370
-1
48
1
60
0
100
AcDbTrace
10
53.825
20
-30.029287
30
0
11
53.825
21
-28.970953
31
0
12
57
22
-29.50012
32
0
13
57
23
-29.50012
33
0
39
0
210
0
220
0
230
1
0
MTEXT
5
13A
100
AcDbEntity
8
0
62
256
6
ByLayer
370
18
48
1
60
0
100
AcDbMText
10
28.5
20
-22.193619
30
0
210
0
220
0
230
1
1
\A1;57
40
3.50012
41
0
44
1
50
0
71
5
72
5
7
iso_b_vert
0
POINT
5
13B
100
AcDbEntity
8
Defpoints
62
0
6
ByLayer
370
-1
48
1
60
0
100
AcDbPoint
10
0
20
-6
30
0
39
0
210
0
220
0
230
1
50
360
0
POINT
5
13C
100
AcDbEntity
8
Defpoints
62
0
6
ByLayer
370
-1
48
1
60
0
100
AcDbPoint
10
57
20
0
30
0
39
0
210
0
220
0
230
1
50
360
0
POINT
5
13D
100
AcDbEntity
8
Defpoints
62
0
6
ByLayer
370
-1
48
1
60
0
100
AcDbPoint
10
57
20
-29.50012
30
0
39
0
210
0
220
0
230
1
50
360
0
ENDBLK
5
134
100
AcDbEntity
8
0
100
AcDbBlockEnd
0
BLOCK
5
14B
100
AcDbEntity
8
0
100
AcDbBlockBegin
2
_U0
70
0
10
0
20
0
30
0
3
_U0
0
MTEXT
5
13F
100
AcDbEntity
8
SK2
62
256
6
ByLayer
370
18
48
1
60
0
100
AcDbMText
10
23.270389
20
-28.467451
30
0
210
0
220
0
230
1
1
\W0.7468;57.00
40
3.50012
41
0
44
1.084337
50
0
71
7
72
5
7
iso_b_vert
0
MTEXT
5
140
100
AcDbEntity
8
SK2
62
256
6
ByLayer
370
18
48
1
60
0
100
AcDbMText
10
19.744329
20
-28.400814
30
0
210
0
220
0
230
1
1
\W0.1790;(
40
3.175
41
0
44
1.084337
50
0
71
7
72
5
7
iso_b_vert
0
MTEXT
5
141
100
AcDbEntity
8
SK2
62
256
6
ByLayer
370
18
48
1
60
0
100
AcDbMText
10
37.258393
20
-28.400814
30
0
210
0
220
0
230
1
1
\W0.1969;)
40
3.175
41
0
44
1.084337
50
0
71
7
72
5
7
iso_b_vert
0
LINE
5
142
100
AcDbEntity
8
SK2
62
256
6
ByLayer
370
13
48
1
60
0
100
AcDbLine
10
0
20
-7.5875
30
0
11
0
21
-32.67512
31
0
39
0
210
0
220
0
230
1
0
LINE
5
143
100
AcDbEntity
8
SK2
62
256
6
ByLayer
370
13
48
1
60
0
100
AcDbLine
10
57
20
-1.5875
30
0
11
57
21
-32.67512
31
0
39
0
210
0
220
0
230
1
0
LINE
5
144
100
AcDbEntity
8
SK2
62
256
6
ByLayer
370
13
48
1
60
0
100
AcDbLine
10
0
20
-29.50012
30
0
11
57
21
-29.50012
31
0
39
0
210
0
220
0
230
1
0
LINE
5
145
100
AcDbEntity
8
SK2
62
256
6
ByLayer
370
13
48
1
60
0
100
AcDbLine
10
0
20
-29.50012
30
0
11
3.174998
21
-29.082123
31
0
39
0
210
0
220
0
230
1
0
LINE
5
146
100
AcDbEntity
8
SK2
62
256
6
ByLayer
370
13
48
1
60
0
100
AcDbLine
10
0
20
-29.50012
30
0
11
3.175002
21
-29.918117
31
0
39
0
210
0
220
0
230
1
0
LINE
5
147
100
AcDbEntity
8
SK2
62
256
6
ByLayer
370
13
48
1
60
0
100
AcDbLine
10
3.174998
20
-29.082123
30
0
11
3.175002
21
-29.918117
31
0
39
0
210
0
220
0
230
1
0
LINE
5
148
100
AcDbEntity
8
SK2
62
256
6
ByLayer
370
13
48
1
60
0
100
AcDbLine
10
57
20
-29.50012
30
0
11
53.825002
21
-29.918117
31
0
39
0
210
0
220
0
230
1
0
LINE
5
149
100
AcDbEntity
8
SK2
62
256
6
ByLayer
370
13
48
1
60
0
100
AcDbLine
10
57
20
-29.50012
30
0
11
53.824998
21
-29.082123
31
0
39
0
210
0
220
0
230
1
0
LINE
5
14A
100
AcDbEntity
8
SK2
62
256
6
ByLayer
370
13
48
1
60
0
100
AcDbLine
10
53.825002
20
-29.918117
30
0
11
53.824998
21
-29.082123
31
0
39
0
210
0
220
0
230
1
0
ENDBLK
5
14C
100
AcDbEntity
8
0
100
AcDbBlockEnd
0
BLOCK
5
151
100
AcDbEntity
8
0
100
AcDbBlockBegin
2
*D4
70
1
10
0
20
0
30
0
3
*D4
0
LINE
5
153
100
AcDbEntity
8
0
62
256
6
ByLayer
370
-2
48
1
60
0
100
AcDbLine
10
57.0224
20
-4.3
30
0
11
66.92506
21
-4.3
31
0
39
0
210
0
220
0
230
1
0
LINE
5
154
100
AcDbEntity
8
0
62
256
6
ByLayer
370
-2
48
1
60
0
100
AcDbLine
10
57.0224
20
4.3
30
0
11
66.92506
21
4.3
31
0
39
0
210
0
220
0
230
1
0
LINE
5
155
100
AcDbEntity
8
0
62
256
6
ByLayer
370
-2
48
1
60
0
100
AcDbLine
10
63.75006
20
4.3
30
0
11
63.75006
21
29.096466
31
0
39
0
210
0
220
0
230
1
0
LINE
5
156
100
AcDbEntity
8
0
62
256
6
ByLayer
370
-2
48
1
60
0
100
AcDbLine
10
63.75006
20
-7.475
30
0
11
63.75006
21
-10.65
31
0
39
0
210
0
220
0
230
1
0
LINE
5
157
100
AcDbEntity
8
0
62
256
6
ByLayer
370
-2
48
1
60
0
100
AcDbLine
10
63.75006
20
7.475
30
0
11
63.75006
21
10.65
31
0
39
0
210
0
220
0
230
1
0
SOLID
5
158
100
AcDbEntity
8
0
62
256
6
ByLayer
370
-1
48
1
60
0
100
AcDbTrace
10
64.279227
20
-7.475
30
0
11
63.220893
21
-7.475
31
0
12
63.75006
22
-4.3
32
0
13
63.75006
23
-4.3
33
0
39
0
210
0
220
0
230
1
0
SOLID
5
159
100
AcDbEntity
8
0
62
256
6
ByLayer
370
-1
48
1
60
0
100
AcDbTrace
10
63.220893
20
7.475
30
0
11
64.279227
21
7.475
31
0
12
63.75006
22
4.3
32
0
13
63.75006
23
4.3
33
0
39
0
210
0
220
0
230
1
0
MTEXT
5
15A
100
AcDbEntity
8
0
62
256
6
ByLayer
370
18
48
1
60
0
100
AcDbMText
10
56.443559
20
19.873233
30
0
210
0
220
0
230
1
1
\A1;8.6
40
3.50012
41
0
44
1
50
90
71
5
72
5
7
iso_b_vert
0
POINT
5
15B
100
AcDbEntity
8
Defpoints
62
0
6
ByLayer
370
-1
48
1
60
0
100
AcDbPoint
10
55.4349
20
-4.3
30
0
39
0
210
0
220
0
230
1
50
360
0
POINT
5
15C
100
AcDbEntity
8
Defpoints
62
0
6
ByLayer
370
-1
48
1
60
0
100
AcDbPoint
10
55.4349
20
4.3
30
0
39
0
210
0
220
0
230
1
50
360
0
POINT
5
15D
100
AcDbEntity
8
Defpoints
62
0
6
ByLayer
370
-1
48
1
60
0
100
AcDbPoint
10
63.75006
20
4.3
30
0
39
0
210
0
220
0
230
1
50
360
0
ENDBLK
5
152
100
AcDbEntity
8
0
100
AcDbBlockEnd
0
BLOCK
5
16A
100
AcDbEntity
8
0
100
AcDbBlockBegin
2
_U1
70
0
10
0
20
0
30
0
3
_U1
0
MTEXT
5
160
100
AcDbEntity
8
2
62
256
6
ByLayer
370
18
48
1
60
0
100
AcDbMText
10
63.060403
20
8.457505
30
0
210
0
220
0
230
1
1
\W0.7346;8.60
40
3.50012
41
0
44
1.084337
50
90
71
7
72
5
7
iso_b_vert
0
LINE
5
161
100
AcDbEntity
8
2
62
256
6
ByLayer
370
13
48
1
60
0
100
AcDbLine
10
57.0224
20
-4.3
30
0
11
66.92506
21
-4.3
31
0
39
0
210
0
220
0
230
1
0
LINE
5
162
100
AcDbEntity
8
2
62
256
6
ByLayer
370
13
48
1
60
0
100
AcDbLine
10
57.0224
20
4.3
30
0
11
66.92506
21
4.3
31
0
39
0
210
0
220
0
230
1
0
LINE
5
163
100
AcDbEntity
8
2
62
256
6
ByLayer
370
13
48
1
60
0
100
AcDbLine
10
63.75006
20
-4.3
30
0
11
63.75006
21
16.51468
31
0
39
0
210
0
220
0
230
1
0
LINE
5
164
100
AcDbEntity
8
2
62
256
6
ByLayer
370
13
48
1
60
0
100
AcDbLine
10
63.75006
20
-4.3
30
0
11
63.332063
21
-1.125002
31
0
39
0
210
0
220
0
230
1
0
LINE
5
165
100
AcDbEntity
8
2
62
256
6
ByLayer
370
13
48
1
60
0
100
AcDbLine
10
63.75006
20
-4.3
30
0
11
64.168057
21
-1.124998
31
0
39
0
210
0
220
0
230
1
0
LINE
5
166
100
AcDbEntity
8
2
62
256
6
ByLayer
370
13
48
1
60
0
100
AcDbLine
10
63.332063
20
-1.125002
30
0
11
64.168057
21
-1.124998
31
0
39
0
210
0
220
0
230
1
0
LINE
5
167
100
AcDbEntity
8
2
62
256
6
ByLayer
370
13
48
1
60
0
100
AcDbLine
10
63.75006
20
4.3
30
0
11
64.168057
21
1.125002
31
0
39
0
210
0
220
0
230
1
0
LINE
5
168
100
AcDbEntity
8
2
62
256
6
ByLayer
370
13
48
1
60
0
100
AcDbLine
10
63.75006
20
4.3
30
0
11
63.332063
21
1.124998
31
0
39
0
210
0
220
0
230
1
0
LINE
5
169
100
AcDbEntity
8
2
62
256
6
ByLayer
370
13
48
1
60
0
100
AcDbLine
10
64.168057
20
1.125002
30
0
11
63.332063
21
1.124998
31
0
39
0
210
0
220
0
230
1
0
ENDBLK
5
16B
100
AcDbEntity
8
0
100
AcDbBlockEnd
0
BLOCK
5
170
100
AcDbEntity
8
0
100
AcDbBlockBegin
2
*D6
70
1
10
0
20
0
30
0
3
*D6
0
LINE
5
172
100
AcDbEntity
8
0
62
256
6
ByLayer
370
-2
48
1
60
0
100
AcDbLine
10
-46.5875
20
6
30
0
11
-51.42494
21
6
31
0
39
0
210
0
220
0
230
1
0
LINE
5
173
100
AcDbEntity
8
0
62
256
6
ByLayer
370
-2
48
1
60
0
100
AcDbLine
10
-46.5875
20
-6
30
0
11
-51.42494
21
-6
31
0
39
0
210
0
220
0
230
1
0
LINE
5
174
100
AcDbEntity
8
0
62
256
6
ByLayer
370
-2
48
1
60
0
100
AcDbLine
10
-48.24994
20
6
30
0
11
-48.24994
21
29.117532
31
0
39
0
210
0
220
0
230
1
0
LINE
5
175
100
AcDbEntity
8
0
62
256
6
ByLayer
370
-2
48
1
60
0
100
AcDbLine
10
-48.24994
20
9.175
30
0
11
-48.24994
21
12.35
31
0
39
0
210
0
220
0
230
1
0
LINE
5
176
100
AcDbEntity
8
0
62
256
6
ByLayer
370
-2
48
1
60
0
100
AcDbLine
10
-48.24994
20
-9.175
30
0
11
-48.24994
21
-12.35
31
0
39
0
210
0
220
0
230
1
0
SOLID
5
177
100
AcDbEntity
8
0
62
256
6
ByLayer
370
-1
48
1
60
0
100
AcDbTrace
10
-48.779107
20
9.175
30
0
11
-47.720773
21
9.175
31
0
12
-48.24994
22
6
32
0
13
-48.24994
23
6
33
0
39
0
210
0
220
0
230
1
0
SOLID
5
178
100
AcDbEntity
8
0
62
256
6
ByLayer
370
-1
48
1
60
0
100
AcDbTrace
10
-47.720773
20
-9.175
30
0
11
-48.779107
21
-9.175
31
0
12
-48.24994
22
-6
32
0
13
-48.24994
23
-6
33
0
39
0
210
0
220
0
230
1
0
MTEXT
5
179
100
AcDbEntity
8
0
62
256
6
ByLayer
370
18
48
1
60
0
100
AcDbMText
10
-55.556441
20
20.97767
30
0
210
0
220
0
230
1
1
\A1;12
40
3.50012
41
0
44
1
50
90
71
5
72
5
7
iso_b_vert
0
POINT
5
17A
100
AcDbEntity
8
Defpoints
62
0
6
ByLayer
370
-1
48
1
60
0
100
AcDbPoint
10
-45
20
6
30
0
39
0
210
0
220
0
230
1
50
360
0
POINT
5
17B
100
AcDbEntity
8
Defpoints
62
0
6
ByLayer
370
-1
48
1
60
0
100
AcDbPoint
10
-45
20
-6
30
0
39
0
210
0
220
0
230
1
50
360
0
POINT
5
17C
100
AcDbEntity
8
Defpoints
62
0
6
ByLayer
370
-1
48
1
60
0
100
AcDbPoint
10
-48.24994
20
-6
30
0
39
0
210
0
220
0
230
1
50
360
0
ENDBLK
5
171
100
AcDbEntity
8
0
100
AcDbBlockEnd
0
BLOCK
5
188
100
AcDbEntity
8
0
100
AcDbBlockBegin
2
_U2
70
0
10
0
20
0
30
0
3
_U2
0
MTEXT
5
17E
100
AcDbEntity
8
SK2
62
256
6
ByLayer
370
18
48
1
60
0
100
AcDbMText
10
-48.939597
20
16.157505
30
0
210
0
220
0
230
1
1
\W0.6864;12.00
40
3.50012
41
0
44
1.084337
50
90
71
7
72
5
7
iso_b_vert
0
LINE
5
17F
100
AcDbEntity
8
SK2
62
256
6
ByLayer
370
13
48
1
60
0
100
AcDbLine
10
-46.5875
20
6
30
0
11
-51.42494
21
6
31
0
39
0
210
0
220
0
230
1
0
LINE
5
180
100
AcDbEntity
8
SK2
62
256
6
ByLayer
370
13
48
1
60
0
100
AcDbLine
10
-46.5875
20
-6
30
0
11
-51.42494
21
-6
31
0
39
0
210
0
220
0
230
1
0
LINE
5
181
100
AcDbEntity
8
SK2
62
256
6
ByLayer
370
13
48
1
60
0
100
AcDbLine
10
-48.24994
20
-6
30
0
11
-48.24994
21
25.955339
31
0
39
0
210
0
220
0
230
1
0
LINE
5
182
100
AcDbEntity
8
SK2
62
256
6
ByLayer
370
13
48
1
60
0
100
AcDbLine
10
-48.24994
20
6
30
0
11
-47.831943
21
2.825002
31
0
39
0
210
0
220
0
230
1
0
LINE
5
183
100
AcDbEntity
8
SK2
62
256
6
ByLayer
370
13
48
1
60
0
100
AcDbLine
10
-48.24994
20
6
30
0
11
-48.667937
21
2.824998
31
0
39
0
210
0
220
0
230
1
0
LINE
5
184
100
AcDbEntity
8
SK2
62
256
6
ByLayer
370
13
48
1
60
0
100
AcDbLine
10
-47.831943
20
2.825002
30
0
11
-48.667937
21
2.824998
31
0
39
0
210
0
220
0
230
1
0
LINE
5
185
100
AcDbEntity
8
SK2
62
256
6
ByLayer
370
13
48
1
60
0
100
AcDbLine
10
-48.24994
20
-6
30
0
11
-48.667937
21
-2.825002
31
0
39
0
210
0
220
0
230
1
0
LINE
5
186
100
AcDbEntity
8
SK2
62
256
6
ByLayer
370
13
48
1
60
0
100
AcDbLine
10
-48.24994
20
-6
30
0
11
-47.831943
21
-2.824998
31
0
39
0
210
0
220
0
230
1
0
LINE
5
187
100
AcDbEntity
8
SK2
62
256
6
ByLayer
370
13
48
1
60
0
100
AcDbLine
10
-48.667937
20
-2.825002
30
0
11
-47.831943
21
-2.824998
31
0
39
0
210
0
220
0
230
1
0
ENDBLK
5
189
100
AcDbEntity
8
0
100
AcDbBlockEnd
0
BLOCK
5
18E
100
AcDbEntity
8
0
100
AcDbBlockBegin
2
*D8
70
1
10
0
20
0
30
0
3
*D8
0
LINE
5
190
100
AcDbEntity
8
0
62
256
6
ByLayer
370
-2
48
1
60
0
100
AcDbLine
10
28.6349
20
5.8
30
0
11
73.35012
21
5.8
31
0
39
0
210
0
220
0
230
1
0
LINE
5
191
100
AcDbEntity
8
0
62
256
6
ByLayer
370
-2
48
1
60
0
100
AcDbLine
10
28.6349
20
-5.8
30
0
11
73.35012
21
-5.8
31
0
39
0
210
0
220
0
230
1
0
LINE
5
192
100
AcDbEntity
8
0
62
256
6
ByLayer
370
-2
48
1
60
0
100
AcDbLine
10
72.35012
20
5.8
30
0
11
72.35012
21
44.119842
31
0
39
0
210
0
220
0
230
1
0
LINE
5
193
100
AcDbEntity
8
0
62
256
6
ByLayer
370
-2
48
1
60
0
100
AcDbLine
10
72.35012
20
8.8
30
0
11
72.35012
21
11.8
31
0
39
0
210
0
220
0
230
1
0
LINE
5
194
100
AcDbEntity
8
0
62
256
6
ByLayer
370
-2
48
1
60
0
100
AcDbLine
10
72.35012
20
-8.8
30
0
11
72.35012
21
-11.8
31
0
39
0
210
0
220
0
230
1
0
SOLID
5
195
100
AcDbEntity
8
0
62
256
6
ByLayer
370
-1
48
1
60
0
100
AcDbTrace
10
71.85012
20
8.8
30
0
11
72.85012
21
8.8
31
0
12
72.35012
22
5.8
32
0
13
72.35012
23
5.8
33
0
39
0
210
0
220
0
230
1
0
SOLID
5
196
100
AcDbEntity
8
0
62
256
6
ByLayer
370
-1
48
1
60
0
100
AcDbTrace
10
72.85012
20
-8.8
30
0
11
71.85012
21
-8.8
31
0
12
72.35012
22
-5.8
32
0
13
72.35012
23
-5.8
33
0
39
0
210
0
220
0
230
1
0
MTEXT
5
197
100
AcDbEntity
8
0
62
256
6
ByLayer
370
18
48
1
60
0
100
AcDbMText
10
59.523647
20
27.959921
30
0
210
0
220
0
230
1
1
\A1;11.6
40
3.50012
41
0
44
1
50
90
71
5
72
5
7
iso_b_vert
0
POINT
5
198
100
AcDbEntity
8
Defpoints
62
0
6
ByLayer
370
-1
48
1
60
0
100
AcDbPoint
10
28.1349
20
5.8
30
0
39
0
210
0
220
0
230
1
50
360
0
POINT
5
199
100
AcDbEntity
8
Defpoints
62
0
6
ByLayer
370
-1
48
1
60
0
100
AcDbPoint
10
28.1349
20
-5.8
30
0
39
0
210
0
220
0
230
1
50
360
0
POINT
5
19A
100
AcDbEntity
8
Defpoints
62
0
6
ByLayer
370
-1
48
1
60
0
100
AcDbPoint
10
72.35012
20
-5.8
30
0
39
0
210
0
220
0
230
1
50
360
0
ENDBLK
5
18F
100
AcDbEntity
8
0
100
AcDbBlockEnd
0
BLOCK
5
1A6
100
AcDbEntity
8
0
100
AcDbBlockBegin
2
_U3
70
0
10
0
20
0
30
0
3
_U3
0
MTEXT
5
19C
100
AcDbEntity
8
2
62
256
6
ByLayer
370
18
48
1
60
0
100
AcDbMText
10
71.660463
20
22.39583
30
0
210
0
220
0
230
1
1
\W0.6261;11.60
40
3.50012
41
0
44
1.084337
50
90
71
7
72
5
7
iso_b_vert
0
LINE
5
19D
100
AcDbEntity
8
2
62
256
6
ByLayer
370
13
48
1
60
0
100
AcDbLine
10
28.6349
20
5.8
30
0
11
73.35012
21
5.8
31
0
39
0
210
0
220
0
230
1
0
LINE
5
19E
100
AcDbEntity
8
2
62
256
6
ByLayer
370
13
48
1
60
0
100
AcDbLine
10
28.6349
20
-5.8
30
0
11
73.35012
21
-5.8
31
0
39
0
210
0
220
0
230
1
0
LINE
5
19F
100
AcDbEntity
8
2
62
256
6
ByLayer
370
13
48
1
60
0
100
AcDbLine
10
72.35012
20
-5.8
30
0
11
72.35012
21
31.318767
31
0
39
0
210
0
220
0
230
1
0
LINE
5
1A0
100
AcDbEntity
8
2
62
256
6
ByLayer
370
13
48
1
60
0
100
AcDbLine
10
72.35012
20
5.8
30
0
11
72.665433
21
2.800001
31
0
39
0
210
0
220
0
230
1
0
LINE
5
1A1
100
AcDbEntity
8
2
62
256
6
ByLayer
370
13
48
1
60
0
100
AcDbLine
10
72.35012
20
5.8
30
0
11
72.034807
21
2.799999
31
0
39
0
210
0
220
0
230
1
0
LINE
5
1A2
100
AcDbEntity
8
2
62
256
6
ByLayer
370
13
48
1
60
0
100
AcDbLine
10
72.665433
20
2.800001
30
0
11
72.034807
21
2.799999
31
0
39
0
210
0
220
0
230
1
0
LINE
5
1A3
100
AcDbEntity
8
2
62
256
6
ByLayer
370
13
48
1
60
0
100
AcDbLine
10
72.35012
20
-5.8
30
0
11
72.034807
21
-2.800001
31
0
39
0
210
0
220
0
230
1
0
LINE
5
1A4
100
AcDbEntity
8
2
62
256
6
ByLayer
370
13
48
1
60
0
100
AcDbLine
10
72.35012
20
-5.8
30
0
11
72.665433
21
-2.799999
31
0
39
0
210
0
220
0
230
1
0
LINE
5
1A5
100
AcDbEntity
8
2
62
256
6
ByLayer
370
13
48
1
60
0
100
AcDbLine
10
72.034807
20
-2.800001
30
0
11
72.665433
21
-2.799999
31
0
39
0
210
0
220
0
230
1
0
ENDBLK
5
1A7
100
AcDbEntity
8
0
100
AcDbBlockEnd
0
BLOCK
5
1AC
100
AcDbEntity
8
0
100
AcDbBlockBegin
2
*D10
70
1
10
0
20
0
30
0
3
*D10
0
LINE
5
1AE
100
AcDbEntity
8
0
62
256
6
ByLayer
370
-2
48
1
60
0
100
AcDbLine
10
-45
20
-7.5875
30
0
11
-45
21
-32.67512
31
0
39
0
210
0
220
0
230
1
0
LINE
5
1AF
100
AcDbEntity
8
0
62
256
6
ByLayer
370
-2
48
1
60
0
100
AcDbLine
10
0
20
-7.5875
30
0
11
0
21
-32.67512
31
0
39
0
210
0
220
0
230
1
0
LINE
5
1B0
100
AcDbEntity
8
0
62
256
6
ByLayer
370
-2
48
1
60
0
100
AcDbLine
10
-41.825
20
-29.50012
30
0
11
-3.175
21
-29.50012
31
0
39
0
210
0
220
0
230
1
0
SOLID
5
1B1
100
AcDbEntity
8
0
62
256
6
ByLayer
370
-1
48
1
60
0
100
AcDbTrace
10
-41.825
20
-28.970953
30
0
11
-41.825
21
-30.029287
31
0
12
-45
22
-29.50012
32
0
13
-45
23
-29.50012
33
0
39
0
210
0
220
0
230
1
0
SOLID
5
1B2
100
AcDbEntity
8
0
62
256
6
ByLayer
370
-1
48
1
60
0
100
AcDbTrace
10
-3.175
20
-30.029287
30
0
11
-3.175
21
-28.970953
31
0
12
0
22
-29.50012
32
0
13
0
23
-29.50012
33
0
39
0
210
0
220
0
230
1
0
MTEXT
5
1B3
100
AcDbEntity
8
0
62
256
6
ByLayer
370
18
48
1
60
0
100
AcDbMText
10
-22.5
20
-22.193619
30
0
210
0
220
0
230
1
1
\A1;45
40
3.50012
41
0
44
1
50
0
71
5
72
5
7
iso_b_vert
0
POINT
5
1B4
100
AcDbEntity
8
Defpoints
62
0
6
ByLayer
370
-1
48
1
60
0
100
AcDbPoint
10
-45
20
-6
30
0
39
0
210
0
220
0
230
1
50
360
0
POINT
5
1B5
100
AcDbEntity
8
Defpoints
62
0
6
ByLayer
370
-1
48
1
60
0
100
AcDbPoint
10
0
20
-6
30
0
39
0
210
0
220
0
230
1
50
360
0
POINT
5
1B6
100
AcDbEntity
8
Defpoints
62
0
6
ByLayer
370
-1
48
1
60
0
100
AcDbPoint
10
0
20
-29.50012
30
0
39
0
210
0
220
0
230
1
50
360
0
ENDBLK
5
1AD
100
AcDbEntity
8
0
100
AcDbBlockEnd
0
BLOCK
5
1C2
100
AcDbEntity
8
0
100
AcDbBlockBegin
2
_U4
70
0
10
0
20
0
30
0
3
_U4
0
MTEXT
5
1B8
100
AcDbEntity
8
SK2
62
256
6
ByLayer
370
18
48
1
60
0
100
AcDbMText
10
-27.913884
20
-28.467451
30
0
210
0
220
0
230
1
1
\W0.7694;45.00
40
3.50012
41
0
44
1.084337
50
0
71
7
72
5
7
iso_b_vert
0
LINE
5
1B9
100
AcDbEntity
8
SK2
62
256
6
ByLayer
370
13
48
1
60
0
100
AcDbLine
10
-45
20
-7.5875
30
0
11
-45
21
-32.67512
31
0
39
0
210
0
220
0
230
1
0
LINE
5
1BA
100
AcDbEntity
8
SK2
62
256
6
ByLayer
370
13
48
1
60
0
100
AcDbLine
10
0
20
-7.5875
30
0
11
0
21
-32.67512
31
0
39
0
210
0
220
0
230
1
0
LINE
5
1BB
100
AcDbEntity
8
SK2
62
256
6
ByLayer
370
13
48
1
60
0
100
AcDbLine
10
-45
20
-29.50012
30
0
11
0
21
-29.50012
31
0
39
0
210
0
220
0
230
1
0
LINE
5
1BC
100
AcDbEntity
8
SK2
62
256
6
ByLayer
370
13
48
1
60
0
100
AcDbLine
10
-45
20
-29.50012
30
0
11
-41.825002
21
-29.082123
31
0
39
0
210
0
220
0
230
1
0
LINE
5
1BD
100
AcDbEntity
8
SK2
62
256
6
ByLayer
370
13
48
1
60
0
100
AcDbLine
10
-45
20
-29.50012
30
0
11
-41.824998
21
-29.918117
31
0
39
0
210
0
220
0
230
1
0
LINE
5
1BE
100
AcDbEntity
8
SK2
62
256
6
ByLayer
370
13
48
1
60
0
100
AcDbLine
10
-41.825002
20
-29.082123
30
0
11
-41.824998
21
-29.918117
31
0
39
0
210
0
220
0
230
1
0
LINE
5
1BF
100
AcDbEntity
8
SK2
62
256
6
ByLayer
370
13
48
1
60
0
100
AcDbLine
10
0
20
-29.50012
30
0
11
-3.174998
21
-29.918117
31
0
39
0
210
0
220
0
230
1
0
LINE
5
1C0
100
AcDbEntity
8
SK2
62
256
6
ByLayer
370
13
48
1
60
0
100
AcDbLine
10
0
20
-29.50012
30
0
11
-3.175002
21
-29.082123
31
0
39
0
210
0
220
0
230
1
0
LINE
5
1C1
100
AcDbEntity
8
SK2
62
256
6
ByLayer
370
13
48
1
60
0
100
AcDbLine
10
-3.174998
20
-29.918117
30
0
11
-3.175002
21
-29.082123
31
0
39
0
210
0
220
0
230
1
0
ENDBLK
5
1C3
100
AcDbEntity
8
0
100
AcDbBlockEnd
0
BLOCK
5
1C8
100
AcDbEntity
8
0
100
AcDbBlockBegin
2
*D12
70
1
10
0
20
0
30
0
3
*D12
0
LINE
5
1CA
100
AcDbEntity
8
0
62
256
6
ByLayer
370
-2
48
1
60
0
100
AcDbLine
10
15
20
3.2125
30
0
11
15
21
-23.92482
31
0
39
0
210
0
220
0
230
1
0
LINE
5
1CB
100
AcDbEntity
8
0
62
256
6
ByLayer
370
-2
48
1
60
0
100
AcDbLine
10
57
20
-1.5875
30
0
11
57
21
-23.92482
31
0
39
0
210
0
220
0
230
1
0
LINE
5
1CC
100
AcDbEntity
8
0
62
256
6
ByLayer
370
-2
48
1
60
0
100
AcDbLine
10
18.175
20
-20.74982
30
0
11
53.825
21
-20.74982
31
0
39
0
210
0
220
0
230
1
0
SOLID
5
1CD
100
AcDbEntity
8
0
62
256
6
ByLayer
370
-1
48
1
60
0
100
AcDbTrace
10
18.175
20
-20.220653
30
0
11
18.175
21
-21.278987
31
0
12
15
22
-20.74982
32
0
13
15
23
-20.74982
33
0
39
0
210
0
220
0
230
1
0
SOLID
5
1CE
100
AcDbEntity
8
0
62
256
6
ByLayer
370
-1
48
1
60
0
100
AcDbTrace
10
53.825
20
-21.278987
30
0
11
53.825
21
-20.220653
31
0
12
57
22
-20.74982
32
0
13
57
23
-20.74982
33
0
39
0
210
0
220
0
230
1
0
MTEXT
5
1CF
100
AcDbEntity
8
0
62
256
6
ByLayer
370
18
48
1
60
0
100
AcDbMText
10
36
20
-13.443319
30
0
210
0
220
0
230
1
1
\A1;42
40
3.50012
41
0
44
1
50
0
71
5
72
5
7
iso_b_vert
0
POINT
5
1D0
100
AcDbEntity
8
Defpoints
62
0
6
ByLayer
370
-1
48
1
60
0
100
AcDbPoint
10
15
20
4.8
30
0
39
0
210
0
220
0
230
1
50
360
0
POINT
5
1D1
100
AcDbEntity
8
Defpoints
62
0
6
ByLayer
370
-1
48
1
60
0
100
AcDbPoint
10
57
20
0
30
0
39
0
210
0
220
0
230
1
50
360
0
POINT
5
1D2
100
AcDbEntity
8
Defpoints
62
0
6
ByLayer
370
-1
48
1
60
0
100
AcDbPoint
10
57
20
-20.74982
30
0
39
0
210
0
220
0
230
1
50
360
0
ENDBLK
5
1C9
100
AcDbEntity
8
0
100
AcDbBlockEnd
0
BLOCK
5
1DE
100
AcDbEntity
8
0
100
AcDbBlockBegin
2
_U5
70
0
10
0
20
0
30
0
3
_U5
0
MTEXT
5
1D4
100
AcDbEntity
8
SK2
62
256
6
ByLayer
370
18
48
1
60
0
100
AcDbMText
10
30.586116
20
-19.717151
30
0
210
0
220
0
230
1
1
\W0.7694;42.00
40
3.50012
41
0
44
1.084337
50
0
71
7
72
5
7
iso_b_vert
0
LINE
5
1D5
100
AcDbEntity
8
SK2
62
256
6
ByLayer
370
13
48
1
60
0
100
AcDbLine
10
15
20
3.2125
30
0
11
15
21
-23.92482
31
0
39
0
210
0
220
0
230
1
0
LINE
5
1D6
100
AcDbEntity
8
SK2
62
256
6
ByLayer
370
13
48
1
60
0
100
AcDbLine
10
57
20
-1.5875
30
0
11
57
21
-23.92482
31
0
39
0
210
0
220
0
230
1
0
LINE
5
1D7
100
AcDbEntity
8
SK2
62
256
6
ByLayer
370
13
48
1
60
0
100
AcDbLine
10
15
20
-20.74982
30
0
11
57
21
-20.74982
31
0
39
0
210
0
220
0
230
1
0
LINE
5
1D8
100
AcDbEntity
8
SK2
62
256
6
ByLayer
370
13
48
1
60
0
100
AcDbLine
10
15
20
-20.74982
30
0
11
18.174998
21
-20.331823
31
0
39
0
210
0
220
0
230
1
0
LINE
5
1D9
100
AcDbEntity
8
SK2
62
256
6
ByLayer
370
13
48
1
60
0
100
AcDbLine
10
15
20
-20.74982
30
0
11
18.175002
21
-21.167817
31
0
39
0
210
0
220
0
230
1
0
LINE
5
1DA
100
AcDbEntity
8
SK2
62
256
6
ByLayer
370
13
48
1
60
0
100
AcDbLine
10
18.174998
20
-20.331823
30
0
11
18.175002
21
-21.167817
31
0
39
0
210
0
220
0
230
1
0
LINE
5
1DB
100
AcDbEntity
8
SK2
62
256
6
ByLayer
370
13
48
1
60
0
100
AcDbLine
10
57
20
-20.74982
30
0
11
53.825002
21
-21.167817
31
0
39
0
210
0
220
0
230
1
0
LINE
5
1DC
100
AcDbEntity
8
SK2
62
256
6
ByLayer
370
13
48
1
60
0
100
AcDbLine
10
57
20
-20.74982
30
0
11
53.824998
21
-20.331823
31
0
39
0
210
0
220
0
230
1
0
LINE
5
1DD
100
AcDbEntity
8
SK2
62
256
6
ByLayer
370
13
48
1
60
0
100
AcDbLine
10
53.825002
20
-21.167817
30
0
11
53.824998
21
-20.331823
31
0
39
0
210
0
220
0
230
1
0
ENDBLK
5
1DF
100
AcDbEntity
8
0
100
AcDbBlockEnd
0
BLOCK
5
1E4
100
AcDbEntity
8
0
100
AcDbBlockBegin
2
*D14
70
1
10
0
20
0
30
0
3
*D14
0
LINE
5
1E6
100
AcDbEntity
8
0
62
256
6
ByLayer
370
-2
48
1
60
0
100
AcDbLine
10
28.1
20
-5.8875
30
0
11
28.1
21
-13.32
31
0
39
0
210
0
220
0
230
1
0
LINE
5
1E7
100
AcDbEntity
8
0
62
256
6
ByLayer
370
-2
48
1
60
0
100
AcDbLine
10
57
20
-1.5875
30
0
11
57
21
-13.32
31
0
39
0
210
0
220
0
230
1
0
LINE
5
1E8
100
AcDbEntity
8
0
62
256
6
ByLayer
370
-2
48
1
60
0
100
AcDbLine
10
31.275
20
-12.82
30
0
11
53.825
21
-12.82
31
0
39
0
210
0
220
0
230
1
0
SOLID
5
1E9
100
AcDbEntity
8
0
62
256
6
ByLayer
370
-1
48
1
60
0
100
AcDbTrace
10
31.275
20
-12.290833
30
0
11
31.275
21
-13.349167
31
0
12
28.1
22
-12.82
32
0
13
28.1
23
-12.82
33
0
39
0
210
0
220
0
230
1
0
SOLID
5
1EA
100
AcDbEntity
8
0
62
256
6
ByLayer
370
-1
48
1
60
0
100
AcDbTrace
10
53.825
20
-13.349167
30
0
11
53.825
21
-12.290833
31
0
12
57
22
-12.82
32
0
13
57
23
-12.82
33
0
39
0
210
0
220
0
230
1
0
MTEXT
5
1EB
100
AcDbEntity
8
0
62
256
6
ByLayer
370
18
48
1
60
0
100
AcDbMText
10
42.55
20
-6.975
30
0
210
0
220
0
230
1
1
\A1;28.9
40
2.8
41
0
44
1
50
0
71
5
72
5
7
iso_b_vert
0
POINT
5
1EC
100
AcDbEntity
8
Defpoints
62
0
6
ByLayer
370
-1
48
1
60
0
100
AcDbPoint
10
28.1
20
-4.3
30
0
39
0
210
0
220
0
230
1
50
360
0
POINT
5
1ED
100
AcDbEntity
8
Defpoints
62
0
6
ByLayer
370
-1
48
1
60
0
100
AcDbPoint
10
57
20
0
30
0
39
0
210
0
220
0
230
1
50
360
0
POINT
5
1EE
100
AcDbEntity
8
Defpoints
62
0
6
ByLayer
370
-1
48
1
60
0
100
AcDbPoint
10
57
20
-12.82
30
0
39
0
210
0
220
0
230
1
50
360
0
ENDBLK
5
1E5
100
AcDbEntity
8
0
100
AcDbBlockEnd
0
BLOCK
5
1FA
100
AcDbEntity
8
0
100
AcDbBlockBegin
2
_U6
70
0
10
0
20
0
30
0
3
_U6
0
MTEXT
5
1F0
100
AcDbEntity
8
SK2
62
256
6
ByLayer
370
18
48
1
60
0
100
AcDbMText
10
38.366454
20
-12.973893
30
0
210
0
220
0
230
1
1
\W0.7468;28.90
40
2.8
41
0
44
1.084337
50
0
71
7
72
5
7
iso_b_vert
0
LINE
5
1F1
100
AcDbEntity
8
SK2
62
256
6
ByLayer
370
13
48
1
60
0
100
AcDbLine
10
28.1
20
-5.8875
30
0
11
28.1
21
-13.32
31
0
39
0
210
0
220
0
230
1
0
LINE
5
1F2
100
AcDbEntity
8
SK2
62
256
6
ByLayer
370
13
48
1
60
0
100
AcDbLine
10
57
20
-1.5875
30
0
11
57
21
-13.32
31
0
39
0
210
0
220
0
230
1
0
LINE
5
1F3
100
AcDbEntity
8
SK2
62
256
6
ByLayer
370
13
48
1
60
0
100
AcDbLine
10
28.1
20
-12.82
30
0
11
57
21
-12.82
31
0
39
0
210
0
220
0
230
1
0
LINE
5
1F4
100
AcDbEntity
8
SK2
62
256
6
ByLayer
370
13
48
1
60
0
100
AcDbLine
10
28.1
20
-12.82
30
0
11
31.274998
21
-12.402003
31
0
39
0
210
0
220
0
230
1
0
LINE
5
1F5
100
AcDbEntity
8
SK2
62
256
6
ByLayer
370
13
48
1
60
0
100
AcDbLine
10
28.1
20
-12.82
30
0
11
31.275002
21
-13.237997
31
0
39
0
210
0
220
0
230
1
0
LINE
5
1F6
100
AcDbEntity
8
SK2
62
256
6
ByLayer
370
13
48
1
60
0
100
AcDbLine
10
31.274998
20
-12.402003
30
0
11
31.275002
21
-13.237997
31
0
39
0
210
0
220
0
230
1
0
LINE
5
1F7
100
AcDbEntity
8
SK2
62
256
6
ByLayer
370
13
48
1
60
0
100
AcDbLine
10
57
20
-12.82
30
0
11
53.825002
21
-13.237997
31
0
39
0
210
0
220
0
230
1
0
LINE
5
1F8
100
AcDbEntity
8
SK2
62
256
6
ByLayer
370
13
48
1
60
0
100
AcDbLine
10
57
20
-12.82
30
0
11
53.824998
21
-12.402003
31
0
39
0
210
0
220
0
230
1
0
LINE
5
1F9
100
AcDbEntity
8
SK2
62
256
6
ByLayer
370
13
48
1
60
0
100
AcDbLine
10
53.825002
20
-13.237997
30
0
11
53.824998
21
-12.402003
31
0
39
0
210
0
220
0
230
1
0
ENDBLK
5
1FB
100
AcDbEntity
8
0
100
AcDbBlockEnd
0
BLOCK
5
200
100
AcDbEntity
8
0
100
AcDbBlockBegin
2
*D16
70
1
10
0
20
0
30
0
3
*D16
0
LINE
5
202
100
AcDbEntity
8
0
62
256
6
ByLayer
370
-2
48
1
60
0
100
AcDbLine
10
-45
20
-1.5875
30
0
11
-45
21
-42.67512
31
0
39
0
210
0
220
0
230
1
0
LINE
5
203
100
AcDbEntity
8
0
62
256
6
ByLayer
370
-2
48
1
60
0
100
AcDbLine
10
57
20
-1.5875
30
0
11
57
21
-42.67512
31
0
39
0
210
0
220
0
230
1
0
LINE
5
204
100
AcDbEntity
8
0
62
256
6
ByLayer
370
-2
48
1
60
0
100
AcDbLine
10
-41.825
20
-39.50012
30
0
11
53.825
21
-39.50012
31
0
39
0
210
0
220
0
230
1
0
SOLID
5
205
100
AcDbEntity
8
0
62
256
6
ByLayer
370
-1
48
1
60
0
100
AcDbTrace
10
-41.825
20
-38.970953
30
0
11
-41.825
21
-40.029287
31
0
12
-45
22
-39.50012
32
0
13
-45
23
-39.50012
33
0
39
0
210
0
220
0
230
1
0
SOLID
5
206
100
AcDbEntity
8
0
62
256
6
ByLayer
370
-1
48
1
60
0
100
AcDbTrace
10
53.825
20
-40.029287
30
0
11
53.825
21
-38.970953
31
0
12
57
22
-39.50012
32
0
13
57
23
-39.50012
33
0
39
0
210
0
220
0
230
1
0
MTEXT
5
207
100
AcDbEntity
8
0
62
256
6
ByLayer
370
18
48
1
60
0
100
AcDbMText
10
6
20
-32.19362
30
0
210
0
220
0
230
1
1
\A1;102
40
3.50012
41
0
44
1
50
0
71
5
72
5
7
iso_b_vert
0
POINT
5
208
100
AcDbEntity
8
Defpoints
62
0
6
ByLayer
370
-1
48
1
60
0
100
AcDbPoint
10
-45
20
0
30
0
39
0
210
0
220
0
230
1
50
360
0
POINT
5
209
100
AcDbEntity
8
Defpoints
62
0
6
ByLayer
370
-1
48
1
60
0
100
AcDbPoint
10
57
20
0
30
0
39
0
210
0
220
0
230
1
50
360
0
POINT
5
20A
100
AcDbEntity
8
Defpoints
62
0
6
ByLayer
370
-1
48
1
60
0
100
AcDbPoint
10
57
20
-39.50012
30
0
39
0
210
0
220
0
230
1
50
360
0
ENDBLK
5
201
100
AcDbEntity
8
0
100
AcDbBlockEnd
0
BLOCK
5
216
100
AcDbEntity
8
0
100
AcDbBlockBegin
2
_U7
70
0
10
0
20
0
30
0
3
_U7
0
MTEXT
5
20C
100
AcDbEntity
8
SK2
62
256
6
ByLayer
370
18
48
1
60
0
100
AcDbMText
10
-0.099941
20
-38.467451
30
0
210
0
220
0
230
1
1
\W0.7022;102.00
40
3.50012
41
0
44
1.084337
50
0
71
7
72
5
7
iso_b_vert
0
LINE
5
20D
100
AcDbEntity
8
SK2
62
256
6
ByLayer
370
13
48
1
60
0
100
AcDbLine
10
-45
20
-1.5875
30
0
11
-45
21
-42.67512
31
0
39
0
210
0
220
0
230
1
0
LINE
5
20E
100
AcDbEntity
8
SK2
62
256
6
ByLayer
370
13
48
1
60
0
100
AcDbLine
10
57
20
-1.5875
30
0
11
57
21
-42.67512
31
0
39
0
210
0
220
0
230
1
0
LINE
5
20F
100
AcDbEntity
8
SK2
62
256
6
ByLayer
370
13
48
1
60
0
100
AcDbLine
10
-45
20
-39.50012
30
0
11
57
21
-39.50012
31
0
39
0
210
0
220
0
230
1
0
LINE
5
210
100
AcDbEntity
8
SK2
62
256
6
ByLayer
370
13
48
1
60
0
100
AcDbLine
10
-45
20
-39.50012
30
0
11
-41.825002
21
-39.082123
31
0
39
0
210
0
220
0
230
1
0
LINE
5
211
100
AcDbEntity
8
SK2
62
256
6
ByLayer
370
13
48
1
60
0
100
AcDbLine
10
-45
20
-39.50012
30
0
11
-41.824998
21
-39.918117
31
0
39
0
210
0
220
0
230
1
0
LINE
5
212
100
AcDbEntity
8
SK2
62
256
6
ByLayer
370
13
48
1
60
0
100
AcDbLine
10
-41.825002
20
-39.082123
30
0
11
-41.824998
21
-39.918117
31
0
39
0
210
0
220
0
230
1
0
LINE
5
213
100
AcDbEntity
8
SK2
62
256
6
ByLayer
370
13
48
1
60
0
100
AcDbLine
10
57
20
-39.50012
30
0
11
53.825002
21
-39.918117
31
0
39
0
210
0
220
0
230
1
0
LINE
5
214
100
AcDbEntity
8
SK2
62
256
6
ByLayer
370
13
48
1
60
0
100
AcDbLine
10
57
20
-39.50012
30
0
11
53.824998
21
-39.082123
31
0
39
0
210
0
220
0
230
1
0
LINE
5
215
100
AcDbEntity
8
SK2
62
256
6
ByLayer
370
13
48
1
60
0
100
AcDbLine
10
53.825002
20
-39.918117
30
0
11
53.824998
21
-39.082123
31
0
39
0
210
0
220
0
230
1
0
ENDBLK
5
217
100
AcDbEntity
8
0
100
AcDbBlockEnd
0
BLOCK
5
21C
100
AcDbEntity
8
0
100
AcDbBlockBegin
2
*D18
70
1
10
0
20
0
30
0
3
*D18
0
LINE
5
21E
100
AcDbEntity
8
0
62
256
6
ByLayer
370
-2
48
1
60
0
100
AcDbLine
10
55.4349
20
4.8
30
0
11
55.4349
21
21.058546
31
0
39
0
210
0
220
0
230
1
0
LINE
5
21F
100
AcDbEntity
8
0
62
256
6
ByLayer
370
-2
48
1
60
0
100
AcDbLine
10
29.6349
20
4.8
30
0
11
29.6349
21
21.058546
31
0
39
0
210
0
220
0
230
1
0
LINE
5
220
100
AcDbEntity
8
0
62
256
6
ByLayer
370
-2
48
1
60
0
100
AcDbLine
10
52.4349
20
20.958546
30
0
11
32.6349
21
20.958546
31
0
39
0
210
0
220
0
230
1
0
SOLID
5
221
100
AcDbEntity
8
0
62
256
6
ByLayer
370
-1
48
1
60
0
100
AcDbTrace
10
52.4349
20
20.458546
30
0
11
52.4349
21
21.458546
31
0
12
55.4349
22
20.958546
32
0
13
55.4349
23
20.958546
33
0
39
0
210
0
220
0
230
1
0
SOLID
5
222
100
AcDbEntity
8
0
62
256
6
ByLayer
370
-1
48
1
60
0
100
AcDbTrace
10
32.6349
20
21.458546
30
0
11
32.6349
21
20.458546
31
0
12
29.6349
22
20.958546
32
0
13
29.6349
23
20.958546
33
0
39
0
210
0
220
0
230
1
0
MTEXT
5
223
100
AcDbEntity
8
0
62
256
6
ByLayer
370
18
48
1
60
0
100
AcDbMText
10
42.5349
20
31.219373
30
0
210
0
220
0
230
1
1
\A1;25.8
40
2.8
41
0
44
1
50
0
71
5
72
5
7
iso_b_vert
0
POINT
5
224
100
AcDbEntity
8
Defpoints
62
0
6
ByLayer
370
-1
48
1
60
0
100
AcDbPoint
10
55.4349
20
4.3
30
0
39
0
210
0
220
0
230
1
50
360
0
POINT
5
225
100
AcDbEntity
8
Defpoints
62
0
6
ByLayer
370
-1
48
1
60
0
100
AcDbPoint
10
29.6349
20
4.3
30
0
39
0
210
0
220
0
230
1
50
360
0
POINT
5
226
100
AcDbEntity
8
Defpoints
62
0
6
ByLayer
370
-1
48
1
60
0
100
AcDbPoint
10
29.6349
20
20.958546
30
0
39
0
210
0
220
0
230
1
50
360
0
ENDBLK
5
21D
100
AcDbEntity
8
0
100
AcDbBlockEnd
0
BLOCK
5
232
100
AcDbEntity
8
0
100
AcDbBlockBegin
2
_U8
70
0
10
0
20
0
30
0
3
_U8
0
MTEXT
5
228
100
AcDbEntity
8
SK2
62
256
6
ByLayer
370
18
48
1
60
0
100
AcDbMText
10
38.351354
20
20.804653
30
0
210
0
220
0
230
1
1
\W0.7468;25.80
40
2.8
41
0
44
1.084337
50
0
71
7
72
5
7
iso_b_vert
0
LINE
5
229
100
AcDbEntity
8
SK2
62
256
6
ByLayer
370
13
48
1
60
0
100
AcDbLine
10
55.4349
20
4.8
30
0
11
55.4349
21
21.058546
31
0
39
0
210
0
220
0
230
1
0
LINE
5
22A
100
AcDbEntity
8
SK2
62
256
6
ByLayer
370
13
48
1
60
0
100
AcDbLine
10
29.6349
20
4.8
30
0
11
29.6349
21
21.058546
31
0
39
0
210
0
220
0
230
1
0
LINE
5
22B
100
AcDbEntity
8
SK2
62
256
6
ByLayer
370
13
48
1
60
0
100
AcDbLine
10
55.4349
20
20.958546
30
0
11
29.6349
21
20.958546
31
0
39
0
210
0
220
0
230
1
0
LINE
5
22C
100
AcDbEntity
8
SK2
62
256
6
ByLayer
370
13
48
1
60
0
100
AcDbLine
10
55.4349
20
20.958546
30
0
11
52.434901
21
20.563588
31
0
39
0
210
0
220
0
230
1
0
LINE
5
22D
100
AcDbEntity
8
SK2
62
256
6
ByLayer
370
13
48
1
60
0
100
AcDbLine
10
55.4349
20
20.958546
30
0
11
52.434899
21
21.353503
31
0
39
0
210
0
220
0
230
1
0
LINE
5
22E
100
AcDbEntity
8
SK2
62
256
6
ByLayer
370
13
48
1
60
0
100
AcDbLine
10
52.434901
20
20.563588
30
0
11
52.434899
21
21.353503
31
0
39
0
210
0
220
0
230
1
0
LINE
5
22F
100
AcDbEntity
8
SK2
62
256
6
ByLayer
370
13
48
1
60
0
100
AcDbLine
10
29.6349
20
20.958546
30
0
11
32.634899
21
21.353503
31
0
39
0
210
0
220
0
230
1
0
LINE
5
230
100
AcDbEntity
8
SK2
62
256
6
ByLayer
370
13
48
1
60
0
100
AcDbLine
10
29.6349
20
20.958546
30
0
11
32.634901
21
20.563588
31
0
39
0
210
0
220
0
230
1
0
LINE
5
231
100
AcDbEntity
8
SK2
62
256
6
ByLayer
370
13
48
1
60
0
100
AcDbLine
10
32.634899
20
21.353503
30
0
11
32.634901
21
20.563588
31
0
39
0
210
0
220
0
230
1
0
ENDBLK
5
233
100
AcDbEntity
8
0
100
AcDbBlockEnd
0
ENDSEC
0
SECTION
2
ENTITIES
0
ARC
5
BF
100
AcDbEntity
8
1
62
256
6
ByLayer
370
18
48
1
60
0
100
AcDbCircle
39
0
10
0.774597
20
6.6
30
0
40
0.800000000000002
210
0
220
0
230
1
100
AcDbArc
50
241.044976
51
270
0
ARC
5
C0
100
AcDbEntity
8
1
62
256
6
ByLayer
370
18
48
1
60
0
100
AcDbCircle
39
0
10
0.774597
20
-6.6
30
0
40
0.800000000000002
210
0
220
0
230
1
100
AcDbArc
50
90
51
118.955024
0
ARC
5
C1
100
AcDbEntity
8
1
62
256
6
ByLayer
370
18
48
1
60
0
100
AcDbCircle
39
0
10
0
20
5.2
30
0
40
0.799999999999998
210
0
220
0
230
1
100
AcDbArc
50
61.044976
51
90
0
ARC
5
C2
100
AcDbEntity
8
1
62
256
6
ByLayer
370
18
48
1
60
0
100
AcDbCircle
39
0
10
0
20
-5.2
30
0
40
0.799999999999998
210
0
220
0
230
1
100
AcDbArc
50
270
51
298.955024
0
ARC
5
C3
100
AcDbEntity
8
SK2
62
256
6
ByLayer
370
13
48
1
60
0
100
AcDbCircle
39
0
10
57
20
0
30
0
40
20
210
0
220
0
230
1
100
AcDbArc
50
9.606349
51
69.999671
0
ARC
5
C4
100
AcDbEntity
8
SK2
62
256
6
ByLayer
370
13
48
1
60
0
100
AcDbCircle
39
0
10
57
20
0
30
0
40
20
210
0
220
0
230
1
100
AcDbArc
50
290.000329
51
350.393651
0
ARC
5
C5
100
AcDbEntity
8
SK2
62
256
6
ByLayer
370
13
48
1
60
0
100
AcDbCircle
39
0
10
33.9349
20
0
30
0
40
19.2999999999996
210
0
220
0
230
1
100
AcDbArc
50
188.191967
51
225
0
ARC
5
C6
100
AcDbEntity
8
SK2
62
256
6
ByLayer
370
13
48
1
60
0
100
AcDbCircle
39
0
10
33.9349
20
0
30
0
40
19.2999999999996
210
0
220
0
230
1
100
AcDbArc
50
135
51
171.808033
0
ELLIPSE
5
C7
100
AcDbEntity
8
1
62
256
6
ByLayer
370
18
48
1
60
0
100
AcDbEllipse
10
23.337203
20
62.520888
30
0
11
41.3506216553063
21
-62.5709684176274
31
0
210
0
220
0
230
1
40
0.605925
41
-0.909486957458262
42
-0.864743863139449
0
ELLIPSE
5
C8
100
AcDbEntity
8
1
62
256
6
ByLayer
370
18
48
1
60
0
100
AcDbEllipse
10
29.73662
20
-4.169085
30
0
11
0.1
21
0
31
0
210
0
220
0
230
1
40
1
41
1.59350595800493
42
3.13960456533816
0
POINT
5
70
100
AcDbEntity
8
80
62
256
6
ByLayer
370
18
48
1
60
0
100
AcDbPoint
10
0
20
0
30
0
39
0
210
0
220
0
230
1
50
360
0
POINT
5
72
100
AcDbEntity
8
81
62
256
6
ByLayer
370
18
48
1
60
0
100
AcDbPoint
10
57
20
0
30
0
39
0
210
0
220
0
230
1
50
360
0
POINT
5
74
100
AcDbEntity
8
1
62
256
6
ByLayer
370
18
48
1
60
0
100
AcDbPoint
10
-45
20
0
30
0
39
0
210
0
220
0
230
1
50
360
0
POINT
5
76
100
AcDbEntity
8
1
62
256
6
ByLayer
370
18
48
1
60
1
100
AcDbPoint
10
0
20
-6
30
0
39
0
210
0
220
0
230
1
50
360
0
POINT
5
77
100
AcDbEntity
8
1
62
256
6
ByLayer
370
18
48
1
60
1
100
AcDbPoint
10
57
20
0
30
0
39
0
210
0
220
0
230
1
50
360
0
POINT
5
78
100
AcDbEntity
8
1
62
256
6
ByLayer
370
18
48
1
60
1
100
AcDbPoint
10
55.4349
20
-4.3
30
0
39
0
210
0
220
0
230
1
50
360
0
POINT
5
79
100
AcDbEntity
8
1
62
256
6
ByLayer
370
18
48
1
60
1
100
AcDbPoint
10
55.4349
20
4.3
30
0
39
0
210
0
220
0
230
1
50
360
0
POINT
5
7A
100
AcDbEntity
8
1
62
256
6
ByLayer
370
18
48
1
60
1
100
AcDbPoint
10
-45
20
6
30
0
39
0
210
0
220
0
230
1
50
360
0
POINT
5
7B
100
AcDbEntity
8
1
62
256
6
ByLayer
370
18
48
1
60
1
100
AcDbPoint
10
-45
20
-6
30
0
39
0
210
0
220
0
230
1
50
360
0
POINT
5
7C
100
AcDbEntity
8
1
62
256
6
ByLayer
370
18
48
1
60
1
100
AcDbPoint
10
28.1349
20
5.8
30
0
39
0
210
0
220
0
230
1
50
360
0
POINT
5
7D
100
AcDbEntity
8
1
62
256
6
ByLayer
370
18
48
1
60
1
100
AcDbPoint
10
28.1349
20
-5.8
30
0
39
0
210
0
220
0
230
1
50
360
0
POINT
5
7E
100
AcDbEntity
8
1
62
256
6
ByLayer
370
18
48
1
60
1
100
AcDbPoint
10
-45
20
-6
30
0
39
0
210
0
220
0
230
1
50
360
0
POINT
5
7F
100
AcDbEntity
8
1
62
256
6
ByLayer
370
18
48
1
60
1
100
AcDbPoint
10
0
20
-6
30
0
39
0
210
0
220
0
230
1
50
360
0
POINT
5
80
100
AcDbEntity
8
1
62
256
6
ByLayer
370
18
48
1
60
1
100
AcDbPoint
10
15
20
4.8
30
0
39
0
210
0
220
0
230
1
50
360
0
POINT
5
81
100
AcDbEntity
8
1
62
256
6
ByLayer
370
18
48
1
60
1
100
AcDbPoint
10
57
20
0
30
0
39
0
210
0
220
0
230
1
50
360
0
POINT
5
82
100
AcDbEntity
8
1
62
256
6
ByLayer
370
18
48
1
60
1
100
AcDbPoint
10
28.1
20
-4.3
30
0
39
0
210
0
220
0
230
1
50
360
0
POINT
5
83
100
AcDbEntity
8
1
62
256
6
ByLayer
370
18
48
1
60
1
100
AcDbPoint
10
57
20
0
30
0
39
0
210
0
220
0
230
1
50
360
0
POINT
5
84
100
AcDbEntity
8
1
62
256
6
ByLayer
370
18
48
1
60
1
100
AcDbPoint
10
-45
20
0
30
0
39
0
210
0
220
0
230
1
50
360
0
POINT
5
85
100
AcDbEntity
8
1
62
256
6
ByLayer
370
18
48
1
60
1
100
AcDbPoint
10
57
20
0
30
0
39
0
210
0
220
0
230
1
50
360
0
POINT
5
86
100
AcDbEntity
8
1
62
256
6
ByLayer
370
18
48
1
60
1
100
AcDbPoint
10
55.4349
20
4.3
30
0
39
0
210
0
220
0
230
1
50
360
0
POINT
5
87
100
AcDbEntity
8
1
62
256
6
ByLayer
370
18
48
1
60
1
100
AcDbPoint
10
29.6349
20
4.3
30
0
39
0
210
0
220
0
230
1
50
360
0
SPLINE
5
C9
100
AcDbEntity
8
1
62
256
6
ByLayer
370
18
48
1
60
0
100
AcDbSpline
70
4
71
3
72
20
73
16
40
0
40
0
40
0
40
0
40
0.124999999999998
40
0.124999999999998
40
0.249999999999995
40
0.249999999999995
40
0.499999999999997
40
0.499999999999997
40
0.749999999999998
40
0.749999999999998
40
0.8125
40
0.8125
40
0.875000000000001
40
0.875000000000001
40
1
40
1
40
1
40
1
41
1
10
56.5087486544751
20
1.64558771935998
30
0
41
1
10
56.4585407416177
20
1.74001227151126
30
0
41
1
10
56.4094914032211
20
1.83639793383014
30
0
41
1
10
56.313500093957
20
2.03325549350839
30
0
41
1
10
56.2664720098073
20
2.13395128649518
30
0
41
1
10
56.1301807069572
20
2.43757010083527
30
0
41
1
10
56.0450299064292
20
2.64339637331017
30
0
41
1
10
55.8821054061349
20
3.06036114534032
30
0
41
1
10
55.8043191525629
20
3.27149494452829
30
0
41
1
10
55.7088520418725
20
3.53760425473055
30
0
41
1
10
55.6898598133678
20
3.59094975264273
30
0
41
1
10
55.6520410323963
20
3.69791565490948
30
0
41
1
10
55.6331168079692
20
3.75141646638312
30
0
41
1
10
55.576267727996
20
3.91196209255554
30
0
41
1
10
55.538243097029
20
4.01911568905413
30
0
41
1
10
55.5001195471059
20
4.12603542820153
30
0
0
SPLINE
5
CA
100
AcDbEntity
8
1
62
256
6
ByLayer
370
18
48
1
60
0
100
AcDbSpline
70
4
71
3
72
10
73
6
40
0
40
0
40
0
40
0
40
0.5
40
0.5
40
1
40
1
40
1
40
1
41
1
10
55.5001195471061
20
-4.12603542820131
30
0
41
1
10
55.487965694888
20
-4.13299582516552
30
0
41
1
10
55.4775084287786
20
-4.13542036500414
30
0
41
1
10
55.4596338623155
20
-4.13142491889769
30
0
41
1
10
55.4521693158014
20
-4.12506207057535
30
0
41
1
10
55.4457242936812
20
-4.11466278180856
30
0
0
SPLINE
5
CB
100
AcDbEntity
8
1
62
256
6
ByLayer
370
18
48
1
60
0
100
AcDbSpline
70
4
71
3
72
28
73
24
40
0
40
0
40
0
40
0
40
0.125
40
0.125
40
0.25
40
0.25
40
0.3125
40
0.3125
40
0.375
40
0.375
40
0.5
40
0.5
40
0.5625
40
0.5625
40
0.625
40
0.625
40
0.75
40
0.75
40
0.8125
40
0.8125
40
0.875
40
0.875
40
1
40
1
40
1
40
1
41
1
10
55.0356202364969
20
-0.862785235309531
30
1E-16
41
1
10
55.0577785364596
20
-1.06764421630163
30
1E-16
41
1
10
55.0833677355863
20
-1.26607211935291
30
1E-16
41
1
10
55.1365263985049
20
-1.65123347654938
30
1E-16
41
1
10
55.1641172475754
20
-1.83796145236818
30
1E-16
41
1
10
55.2044039105885
20
-2.10932618575009
30
1E-16
41
1
10
55.2176783504264
20
-2.19846156759183
30
1E-16
41
1
10
55.2431128101447
20
-2.37080460610301
30
1E-16
41
1
10
55.2553296922741
20
-2.45439274520805
30
2E-16
41
1
10
55.2901900913772
20
-2.69755915599507
30
2E-16
41
1
10
55.3110035106847
20
-2.84958743745963
30
2E-16
41
1
10
55.3381724878567
20
-3.06221944522702
30
2E-16
41
1
10
55.3465854549646
20
-3.130703484853
30
2E-16
41
1
10
55.3620407384575
20
-3.26146707555455
30
2E-16
41
1
10
55.3690342698726
20
-3.32331003430463
30
2E-16
41
1
10
55.3881860736914
20
-3.4984818308543
30
2E-16
41
1
10
55.398476058076
20
-3.60151099263283
30
0
41
1
10
55.4123498899015
20
-3.73536554492827
30
0
41
1
10
55.4167236410799
20
-3.77652111418251
30
0
41
1
10
55.4254606094077
20
-3.85171610425556
30
0
41
1
10
55.429818331436
20
-3.88566079543881
30
0
41
1
10
55.4435650986286
20
-3.9753191849947
30
0
41
1
10
55.4536502024757
20
-4.01945880993168
30
0
41
1
10
55.467325957779
20
-4.04780385576925
30
0
0
SPLINE
5
CC
100
AcDbEntity
8
1
62
256
6
ByLayer
370
18
48
1
60
0
100
AcDbSpline
70
4
71
3
72
8
73
4
40
0
40
0
40
0
40
0
40
1
40
1
40
1
40
1
41
1
10
31.3618725667925
20
4.02225087248681
30
0
41
1
10
31.3661903640134
20
3.9526405239537
30
0
41
1
10
31.3712618807028
20
3.86969360457732
30
0
41
1
10
31.376058847573
20
3.77297209211341
30
2E-16
0
SPLINE
5
CD
100
AcDbEntity
8
1
62
256
6
ByLayer
370
18
48
1
60
0
100
AcDbSpline
70
4
71
3
72
66
73
62
40
0
40
0
40
0
40
0
40
1.04130551732E-05
40
0.0001060758277343
40
0.0001539072140149
40
0.0002017386002955
40
0.0002256542934357
40
0.000249569986576
40
0.0002734856797163
40
0.0002974013728566
40
0.0003213170659968
40
0.0003452327591371
40
0.0003930641454177
40
0.0004887269179788
40
0.000680052463101
40
0.0014453546435899
40
0.0029759590045677
40
0.0060371677265232
40
0.0121595851704344
40
0.0244044200582566
40
0.0733837596095455
40
0.269301117814701
40
0.465218476019857
40
0.661135834225013
40
0.857053192430168
40
0.955011871532746
40
0.979501541308391
40
0.991746376196213
40
0.997868793640124
40
0.998634095820613
40
0.999399398001102
40
0.999447229387382
40
0.999495060773663
40
0.999542892159944
40
0.999554850006514
40
0.999566807853084
40
0.999578765699654
40
0.999590723546224
40
0.999602681392794
40
0.999614639239364
40
0.999626597085934
40
0.999638554932505
40
0.999650512779075
40
0.999662470625645
40
0.999674428472215
40
0.999686386318785
40
0.999710302011925
40
0.999722259858496
40
0.999734217705066
40
0.999758133398206
40
0.999770091244776
40
0.999782049091346
40
0.999805964784487
40
0.999829880477627
40
0.999877711863907
40
0.999925543250188
40
0.999949458943328
40
0.999973374636469
40
0.999985332483039
40
0.999997290329609
40
1
40
1
40
1
40
1
41
1
10
21.318612347654
20
2.85797257533079
30
-2E-16
41
1
10
21.318623668116
20
2.85795312358258
30
-2E-16
41
1
10
21.3187372221001
20
2.85775380562853
30
-2E-16
41
1
10
21.3188685662773
20
2.85744239627621
30
-2E-16
41
1
10
21.3190910512252
20
2.85709297718051
30
-2E-16
41
1
10
21.3192059297776
20
2.85685784904871
30
-2E-16
41
1
10
21.3193078550496
20
2.85667386418521
30
-2E-16
41
1
10
21.3193879241133
20
2.85654288696432
30
-2E-16
41
1
10
21.3194594610077
20
2.85640142264077
30
-2E-16
41
1
10
21.3195417354096
20
2.85627159479859
30
-2E-16
41
1
10
21.3196001500665
20
2.85612417825243
30
-2E-16
41
1
10
21.3198477874288
20
2.85603746596203
30
-2E-16
41
1
10
21.3201785503976
20
2.8558202399434
30
-2E-16
41
1
10
21.3209060058191
20
2.85542787050983
30
-2E-16
41
1
10
21.3231251103944
20
2.85415187193195
30
-2E-16
41
1
10
21.3284224601235
20
2.85116949570639
30
-2E-16
41
1
10
21.3397863839169
20
2.84471832165164
30
-2E-16
41
1
10
21.3625456801646
20
2.83184246494167
30
-2E-16
41
1
10
21.408044200369
20
2.80610363477587
30
-2E-16
41
1
10
21.5510654821268
20
2.72538834891989
30
-2E-16
41
1
10
22.0971780188787
20
2.4192830385293
30
1E-16
41
1
10
23.0337058422582
20
1.90896275625045
30
0
41
1
10
24.2824336595171
20
1.25964008896989
30
0
41
1
10
25.5305565653571
20
0.641752329750062
30
0
41
1
10
26.5696194232947
20
0.153307445466567
30
0
41
1
10
27.2442433901185
20
-0.151162305518682
30
0
41
1
10
27.5295031289028
20
-0.277671140764483
30
0
41
1
10
27.6202519541947
20
-0.317703662794344
30
0
41
1
10
27.660761271239
20
-0.335526126053139
30
0
41
1
10
27.6769644607758
20
-0.342647729615209
30
0
41
1
10
27.6803778181178
20
-0.344139935248904
30
0
41
1
10
27.6821113136539
20
-0.344911191504309
30
0
41
1
10
27.6824164943875
20
-0.345045128573304
30
0
41
1
10
27.6827278500075
20
-0.345172941364183
30
0
41
1
10
27.6827444608473
20
-0.345194656449991
30
0
41
1
10
27.6827542978058
20
-0.345206264175147
30
0
41
1
10
27.6827414909822
20
-0.345209726312163
30
0
41
1
10
27.6827312697795
20
-0.345214345931481
30
0
41
1
10
27.6827230860565
20
-0.345220122309115
30
0
41
1
10
27.6827128982046
20
-0.345224290146717
30
0
41
1
10
27.6827049014139
20
-0.345230352981105
30
0
41
1
10
27.6826945030992
20
-0.345234192688594
30
0
41
1
10
27.6826868054128
20
-0.345240714709149
30
0
41
1
10
27.6826756672197
20
-0.345243378085655
30
0
41
1
10
27.6826692348595
20
-0.34525130027609
30
0
41
1
10
27.6826598473095
20
-0.345258538225579
30
0
41
1
10
27.6826487755139
20
-0.345265855171249
30
0
41
1
10
27.6826069270165
20
-0.345260553428346
30
0
41
1
10
27.6826324984597
20
-0.345282543880302
30
0
41
1
10
27.6826187304554
20
-0.345287882854933
30
0
41
1
10
27.6825839020813
20
-0.345285241291407
30
0
41
1
10
27.6825864926636
20
-0.34529917758627
30
0
41
1
10
27.6825867009368
20
-0.345315286262831
30
0
41
1
10
27.6825238788711
20
-0.345312709326379
30
0
41
1
10
27.6825236324801
20
-0.345339587805484
30
0
41
1
10
27.6824627749667
20
-0.345346289427425
30
0
41
1
10
27.6824969307503
20
-0.345375995379641
30
0
41
1
10
27.6824524383695
20
-0.345377223632994
30
0
41
1
10
27.6823905465981
20
-0.345366632957763
30
0
41
1
10
27.682405468658
20
-0.34537612988629
30
0
41
1
10
27.6824107328437
20
-0.34538470691615
30
0
41
1
10
27.6824127985215
20
-0.345394592340853
30
0
0
SPLINE
5
CE
100
AcDbEntity
8
1
62
256
6
ByLayer
370
18
48
1
60
0
100
AcDbSpline
70
4
71
3
72
10
73
6
40
0
40
0
40
0
40
0
40
0.5
40
0.5
40
1
40
1
40
1
40
1
41
1
10
29.7310245173652
20
4.005284354407
30
0
41
1
10
29.7275242349922
20
4.03512661339985
30
0
41
1
10
29.7240191682436
20
4.06177776693798
30
0
41
1
10
29.7169792554261
20
4.1085801871948
30
0
41
1
10
29.7134302724971
20
4.12878760920432
30
0
41
1
10
29.7099007421505
20
4.1454261544919
30
0
0
SPLINE
5
CF
100
AcDbEntity
8
1
62
256
6
ByLayer
370
18
48
1
60
0
100
AcDbSpline
70
4
71
3
72
8
73
4
40
0
40
0
40
0
40
0
40
1
40
1
40
1
40
1
41
1
10
55.5001195471059
20
4.12603542820153
30
0
41
1
10
55.4428977335847
20
4.16438818764837
30
0
41
1
10
55.385709394268
20
4.20262541136327
30
0
41
1
10
55.3285529414151
20
4.24074260122967
30
0
0
SPLINE
5
D0
100
AcDbEntity
8
1
62
256
6
ByLayer
370
18
48
1
60
0
100
AcDbSpline
70
4
71
3
72
16
73
12
40
0
40
0
40
0
40
0
40
0.224182226058429
40
0.224182226058429
40
0.450478250341767
40
0.450478250341767
40
0.647739993549341
40
0.647739993549341
40
0.823571723002169
40
0.823571723002169
40
1
40
1
40
1
40
1
41
1
10
55.467325957779
20
-4.04780385576925
30
0
41
1
10
55.467404755635
20
-4.04796717609727
30
0
41
1
10
55.4674279977341
20
-4.0483081105169
30
0
41
1
10
55.4673392169756
20
-4.04935392383024
30
0
41
1
10
55.467223387282
20
-4.05008190779549
30
0
41
1
10
55.466876053443
20
-4.05173031020774
30
0
41
1
10
55.4666555017919
20
-4.05263980519399
30
0
41
1
10
55.4661655461687
20
-4.05446098000832
30
0
41
1
10
55.4658977512511
20
-4.05538529766375
30
0
41
1
10
55.4653346480895
20
-4.05721350121132
30
0
41
1
10
55.4650325509048
20
-4.05813955999321
30
0
41
1
10
55.4647323568711
20
-4.05901484823218
30
0
0
SPLINE
5
D1
100
AcDbEntity
8
1
62
256
6
ByLayer
370
18
48
1
60
0
100
AcDbSpline
70
4
71
3
72
10
73
6
40
0
40
0
40
0
40
0
40
0.5
40
0.5
40
1
40
1
40
1
40
1
41
1
10
29.6917880336771
20
-4.48091963922258
30
1E-16
41
1
10
29.6777120409178
20
-4.49597725048753
30
1E-16
41
1
10
29.6645855176188
20
-4.51067942113082
30
1E-16
41
1
10
29.6438394687295
20
-4.53596493715963
30
-1E-16
41
1
10
29.6366197754816
20
-4.54624284348495
30
-1E-16
41
1
10
29.6366197754822
20
-4.54939314438857
30
-1E-16
0
SPLINE
5
D2
100
AcDbEntity
8
1
62
256
6
ByLayer
370
18
48
1
60
0
100
AcDbSpline
70
4
71
3
72
8
73
4
40
0
40
0
40
0
40
0
40
1
40
1
40
1
40
1
41
1
10
55.5001195471058
20
-4.12603542820165
30
0
41
1
10
55.4428977335846
20
-4.16438818764846
30
0
41
1
10
55.385709394268
20
-4.2026254113633
30
0
41
1
10
55.3285529414151
20
-4.24074260122967
30
0
0
SPLINE
5
D3
100
AcDbEntity
8
1
62
256
6
ByLayer
370
18
48
1
60
0
100
AcDbSpline
70
4
71
3
72
14
73
10
40
0
40
0
40
0
40
0
40
0.250688447177809
40
0.250688447177809
40
0.438016335383357
40
0.438016335383357
40
0.625344223588905
40
0.625344223588905
40
1
40
1
40
1
40
1
41
1
10
25.9635684870869
20
-5.80004928485218
30
0
41
1
10
25.5492365485376
20
-5.80046829011718
30
0
41
1
10
25.1342267449578
20
-5.7827171262555
30
0
41
1
10
24.4059699755147
20
-5.71966049242729
30
0
41
1
10
24.0931403922681
20
-5.68237341330817
30
-1E-16
41
1
10
23.4660322336741
20
-5.58730497146044
30
-1E-16
41
1
10
23.1531855211977
20
-5.52976547351523
30
-1E-16
41
1
10
22.215217800491
20
-5.3281062849552
30
-1E-16
41
1
10
21.5907087589143
20
-5.15488984305543
30
-1E-16
41
1
10
20.9625737478478
20
-4.94583237194394
30
-1E-16
0
SPLINE
5
D4
100
AcDbEntity
8
1
62
256
6
ByLayer
370
18
48
1
60
0
100
AcDbSpline
70
4
71
3
72
26
73
22
40
0
40
0
40
0
40
0
40
0.0625000000000001
40
0.0625000000000001
40
0.125
40
0.125
40
0.1875
40
0.1875
40
0.25
40
0.25
40
0.375
40
0.375
40
0.5
40
0.5
40
0.625
40
0.625
40
0.750000000000001
40
0.750000000000001
40
0.875
40
0.875
40
1
40
1
40
1
40
1
41
1
10
55.7290444791997
20
1.38848957464279
30
0
41
1
10
55.6917251221042
20
1.3794722523169
30
0
41
1
10
55.6556058085845
20
1.36777809532745
30
0
41
1
10
55.5859192299974
20
1.33880617068391
30
0
41
1
10
55.5519739272424
20
1.32127038028051
30
0
41
1
10
55.4890763620017
20
1.28164637890242
30
0
41
1
10
55.460121515908
20
1.25967751934465
30
0
41
1
10
55.4069596635019
20
1.21186722713648
30
0
41
1
10
55.3827503776852
20
1.18590928728224
30
0
41
1
10
55.3197570397315
20
1.10618482521062
30
0
41
1
10
55.2891050785193
20
1.04892236245414
30
0
41
1
10
55.2498926169041
20
0.936366993308951
30
1E-16
41
1
10
55.2408934230187
20
0.880076258188666
30
-1E-16
41
1
10
55.2413983922959
20
0.77310317043839
30
0
41
1
10
55.2509346968397
20
0.721291713614391
30
0
41
1
10
55.285029134334
20
0.624667338571982
30
0
41
1
10
55.3095327538354
20
0.579268311945413
30
0
41
1
10
55.3720189002273
20
0.492501300771948
30
0
41
1
10
55.4094433686659
20
0.452004887681824
30
0
41
1
10
55.4938441828906
20
0.375796221259492
30
0
41
1
10
55.5409815276086
20
0.339903923172301
30
0
41
1
10
55.592529653331
20
0.305510930988731
30
0
0
SPLINE
5
D5
100
AcDbEntity
8
1
62
256
6
ByLayer
370
18
48
1
60
0
100
AcDbSpline
70
4
71
3
72
19
73
15
40
0
40
0
40
0
40
0
40
0.500000000000033
40
0.500000000000033
40
0.562500000000032
40
0.593750000000031
40
0.593750000000031
40
0.62500000000003
40
0.62500000000003
40
0.75000000000002
40
0.75000000000002
40
0.87500000000001
40
0.87500000000001
40
1
40
1
40
1
40
1
41
1
10
54.8801934297854
20
-0.226705947572526
30
0
41
1
10
55.0782683387878
20
-0.180459329023762
30
0
41
1
10
55.2828510655675
20
-0.161062044314718
30
0
41
1
10
55.5111684049434
20
-0.170753517281042
30
0
41
1
10
55.5491811040435
20
-0.173049809083011
30
0
41
1
10
55.5870940011712
20
-0.176395923856063
30
0
41
1
10
55.6123423978433
20
-0.178865692848518
30
0
41
1
10
55.6249327930245
20
-0.180585725238757
30
0
41
1
10
55.6880585417837
20
-0.185241661118937
30
0
41
1
10
55.7388210624698
20
-0.182496075915424
30
0
41
1
10
55.8418466238503
20
-0.16381384564869
30
0
41
1
10
55.8941079680339
20
-0.147882006673996
30
0
41
1
10
56.0011521609505
20
-0.102106279269606
30
0
41
1
10
56.0563891196159
20
-0.0719373535685577
30
0
41
1
10
56.1121114050142
20
-0.0350645571320456
30
0
0
SPLINE
5
D6
100
AcDbEntity
8
1
62
256
6
ByLayer
370
18
48
1
60
0
100
AcDbSpline
70
4
71
3
72
12
73
8
40
0
40
0
40
0
40
0
40
0.44757210915698
40
0.44757210915698
40
0.893433795391937
40
0.893433795391937
40
1
40
1
40
1
40
1
41
1
10
29.9466842780508
20
-2.3748433949894
30
1E-16
41
1
10
29.9483846666265
20
-2.37457579992593
30
1E-16
41
1
10
29.9503890010891
20
-2.37460713491035
30
1E-16
41
1
10
29.9546195872861
20
-2.37520876955105
30
1E-16
41
1
10
29.956901663375
20
-2.37578393789261
30
1E-16
41
1
10
29.959732800896
20
-2.37677356029377
30
1E-16
41
1
10
29.96028605696
20
-2.37697971983181
30
1E-16
41
1
10
29.9608389136718
20
-2.37719844191682
30
1E-16
0
SPLINE
5
D7
100
AcDbEntity
8
1
62
256
6
ByLayer
370
18
48
1
60
0
100
AcDbSpline
70
4
71
3
72
32
73
28
40
0
40
0
40
0
40
0
40
0.147911767192177
40
0.147911767192177
40
0.295823534384353
40
0.295823534384353
40
0.443735301576536
40
0.443735301576536
40
0.517691185172627
40
0.517691185172627
40
0.591647068768719
40
0.591647068768719
40
0.66560295236481
40
0.66560295236481
40
0.739558835960901
40
0.739558835960901
40
0.813514719556992
40
0.813514719556992
40
0.850492661355038
40
0.850492661355038
40
0.887470603153083
40
0.887470603153083
40
0.961426486749173
40
0.961426486749173
40
0.998404428547218
40
0.998404428547218
40
1
40
1
40
1
40
1
41
1
10
18.8119650164213
20
-4.31946865948106
30
-2E-16
41
1
10
18.5495060809053
20
-4.40812706106743
30
-2E-16
41
1
10
18.2915807943163
20
-4.49774286944586
30
-2E-16
41
1
10
17.7864633385275
20
-4.67795180008156
30
-2E-16
41
1
10
17.5392520817735
20
-4.76855410772549
30
-2E-16
41
1
10
17.0581143026945
20
-4.94941320739792
30
-1E-16
41
1
10
16.8241404661637
20
-5.03969321531878
30
-1E-16
41
1
10
16.4864098923663
20
-5.17323831830518
30
-1E-16
41
1
10
16.3756415888397
20
-5.21760166556618
30
-1E-16
41
1
10
16.161769021736
20
-5.30430219360309
30
-1E-16
41
1
10
16.0587662050543
20
-5.34659367971327
30
-1E-16
41
1
10
15.8618811839576
20
-5.42836264308704
30
-1E-16
41
1
10
15.7679906380584
20
-5.46784462685727
30
-1E-16
41
1
10
15.5910812011276
20
-5.54303605176059
30
-1E-16
41
1
10
15.5085463535421
20
-5.57854427333942
30
-1E-16
41
1
10
15.359998955541
20
-5.64302345254754
30
-1E-16
41
1
10
15.2935351907186
20
-5.67218698802915
30
-1E-16
41
1
10
15.2072393668901
20
-5.71025512788947
30
-1E-16
41
1
10
15.1807130080693
20
-5.72199513381972
30
0
41
1
10
15.1325053721921
20
-5.74334995302928
30
0
41
1
10
15.1107674119316
20
-5.75298972152998
30
0
41
1
10
15.0544456390354
20
-5.77789264178827
30
0
41
1
10
15.0283153706176
20
-5.78933345982588
30
0
41
1
10
15.0064360233851
20
-5.79823746020156
30
0
41
1
10
15.0020323838697
20
-5.79982774177321
30
0
41
1
10
15.0004930676523
20
-5.79999362645381
30
0
41
1
10
15.0004349168613
20
-5.79999778612455
30
0
41
1
10
15.0003822782116
20
-5.79999924690654
30
0
0
SPLINE
5
D8
100
AcDbEntity
8
1
62
256
6
ByLayer
370
18
48
1
60
0
100
AcDbSpline
70
4
71
3
72
8
73
4
40
0
40
0
40
0
40
0
40
1
40
1
40
1
40
1
41
1
10
28.1265963963822
20
5.6336255485117
30
1E-16
41
1
10
28.6610420774387
20
5.08951937537407
30
-1E-16
41
1
10
29.1954409938275
20
4.5456072072069
30
-1E-16
41
1
10
29.7310245173651
20
4.00528435440697
30
0
0
SPLINE
5
D9
100
AcDbEntity
8
1
62
256
6
ByLayer
370
18
48
1
60
0
100
AcDbSpline
70
4
71
3
72
10
73
6
40
0
40
0
40
0
40
0
40
0.580305422426519
40
0.580305422426519
40
1
40
1
40
1
40
1
41
1
10
29.6951433738139
20
-4.07822962116495
30
0
41
1
10
29.6944770924135
20
-4.15612031348692
30
0
41
1
10
29.6938207808202
20
-4.23401323961792
30
0
41
1
10
29.6927070983551
20
-4.36824430632058
30
0
41
1
10
29.6922449389661
20
-4.42458145204387
30
0
41
1
10
29.6917880336771
20
-4.48091963922261
30
1E-16
0
SPLINE
5
DA
100
AcDbEntity
8
1
62
256
6
ByLayer
370
18
48
1
60
0
100
AcDbSpline
70
4
71
3
72
40
73
36
40
0
40
0
40
0
40
0
40
0.0625000000000005
40
0.0625000000000005
40
0.125000000000001
40
0.125000000000001
40
0.187500000000002
40
0.187500000000002
40
0.218750000000002
40
0.218750000000002
40
0.250000000000002
40
0.250000000000002
40
0.375000000000003
40
0.375000000000003
40
0.437500000000004
40
0.437500000000004
40
0.500000000000004
40
0.500000000000004
40
0.562500000000005
40
0.562500000000005
40
0.625000000000005
40
0.625000000000005
40
0.656250000000005
40
0.656250000000005
40
0.687500000000004
40
0.687500000000004
40
0.750000000000003
40
0.750000000000003
40
0.812500000000003
40
0.812500000000003
40
0.843750000000002
40
0.843750000000002
40
0.875000000000002
40
0.875000000000002
40
1
40
1
40
1
40
1
41
1
10
55.2240739563372
20
-4.24544811917971
30
0
41
1
10
54.7259456051131
20
-4.2076613948376
30
0
41
1
10
54.2284736598911
20
-4.1507387754211
30
0
41
1
10
53.2325245611874
20
-4.0000236919318
30
0
41
1
10
52.7340132367462
20
-3.90604085532618
30
0
41
1
10
51.7398685054863
20
-3.68439878523313
30
-2E-16
41
1
10
51.2434863253381
20
-3.55661140825765
30
2E-16
41
1
10
50.4980048803114
20
-3.34175626813132
30
2E-16
41
1
10
50.2493664561826
20
-3.26627080337747
30
2E-16
41
1
10
49.7515089557997
20
-3.10792541327299
30
2E-16
41
1
10
49.502125418733
20
-3.02500104896998
30
2E-16
41
1
10
48.2575865688755
20
-2.59462111138163
30
2E-16
41
1
10
47.2664459829362
20
-2.19882667494707
30
1E-16
41
1
10
45.7718136966654
20
-1.55370009033177
30
1E-16
41
1
10
45.2740003856392
20
-1.33088005181836
30
1E-16
41
1
10
44.2802113273429
20
-0.876034836842649
30
1E-16
41
1
10
43.783653785953
20
-0.643877393373202
30
0
41
1
10
42.7887082284886
20
-0.175329648665496
30
0
41
1
10
42.289681900969
20
0.0614347678232434
30
0
41
1
10
41.2948869098137
20
0.530889592274576
30
0
41
1
10
40.7983229305163
20
0.763911149316272
30
0
41
1
10
40.052774324738
20
1.10679290320917
30
-1E-16
41
1
10
39.8041443930372
20
1.21998631907886
30
-1E-16
41
1
10
39.3063719075817
20
1.44357920248712
30
-1E-16
41
1
10
39.0569923594643
20
1.55408691216866
30
-1E-16
41
1
10
38.3096660982119
20
1.87964238807695
30
-1E-16
41
1
10
37.8127535882768
20
2.08864186807639
30
-1E-16
41
1
10
36.8188923231507
20
2.48572766858334
30
-2E-16
41
1
10
36.3219989699113
20
2.67391958091579
30
-2E-16
41
1
10
35.5748706611599
20
2.93743621628883
30
-2E-16
41
1
10
35.325368182053
20
3.02220849413126
30
-2E-16
41
1
10
34.8278650407168
20
3.18423255228615
30
-2E-16
41
1
10
34.5795677309304
20
3.26155342225581
30
-2E-16
41
1
10
33.3397323737921
20
3.62902560663656
30
2E-16
41
1
10
32.3529964747054
20
3.86139977317217
30
0
41
1
10
31.3618725667924
20
4.02225087248681
30
0
0
SPLINE
5
DB
100
AcDbEntity
8
1
62
256
6
ByLayer
370
18
48
1
60
0
100
AcDbSpline
70
4
71
3
72
8
73
4
40
0
40
0
40
0
40
0
40
1
40
1
40
1
40
1
41
1
10
29.6944338370329
20
4.16162335049131
30
0
41
1
10
29.6995885249429
20
4.1562258269108
30
0
41
1
10
29.7047441633933
20
4.15082675083625
30
0
41
1
10
29.7099007421503
20
4.14542615449201
30
0
0
SPLINE
5
DC
100
AcDbEntity
8
1
62
256
6
ByLayer
370
18
48
1
60
0
100
AcDbSpline
70
4
71
3
72
12
73
8
40
0
40
0
40
0
40
0
40
0.5
40
0.5
40
0.75
40
0.75
40
1
40
1
40
1
40
1
41
1
10
20.962565577392
20
4.94582982346424
30
1E-16
41
1
10
20.6257107774484
20
4.83618570874032
30
1E-16
41
1
10
20.2787244435573
20
4.72506454783706
30
2E-16
41
1
10
19.7403601574113
20
4.56522008828907
30
2E-16
41
1
10
19.5576766884564
20
4.51300302892264
30
2E-16
41
1
10
19.1871250293987
20
4.41255366933743
30
2E-16
41
1
10
19.0003234473874
20
4.36460802949904
30
2E-16
41
1
10
18.8119650164214
20
4.319468659481
30
2E-16
0
SPLINE
5
DD
100
AcDbEntity
8
1
62
256
6
ByLayer
370
18
48
1
60
0
100
AcDbSpline
70
4
71
3
72
12
73
8
40
0
40
0
40
0
40
0
40
0.250000000000028
40
0.250000000000028
40
0.500000000000056
40
0.500000000000056
40
1
40
1
40
1
40
1
41
1
10
29.6366197754822
20
-2.55066400295306
30
2E-16
41
1
10
29.6366197754822
20
-2.53273381145709
30
2E-16
41
1
10
29.643991245922
20
-2.51168020703125
30
2E-16
41
1
10
29.6650759124384
20
-2.47490400986621
30
2E-16
41
1
10
29.6785450334942
20
-2.458678763731
30
2E-16
41
1
10
29.7210014392513
20
-2.41832955161522
30
1E-16
41
1
10
29.7524962315604
20
-2.40133032678847
30
1E-16
41
1
10
29.7810085796108
20
-2.39788869885879
30
1E-16
0
SPLINE
5
DE
100
AcDbEntity
8
1
62
256
6
ByLayer
370
18
48
1
60
0
100
AcDbSpline
70
4
71
3
72
8
73
4
40
0
40
0
40
0
40
0
40
1
40
1
40
1
40
1
41
1
10
56.508748654475
20
-1.64558771935998
30
0
41
1
10
56.6768940590068
20
-1.17823513650148
30
0
41
1
10
56.8393593350161
20
-0.708852386425264
30
0
41
1
10
56.9960346862353
20
-0.237400226219393
30
0
0
SPLINE
5
DF
100
AcDbEntity
8
1
62
256
6
ByLayer
370
18
48
1
60
0
100
AcDbSpline
70
4
71
3
72
12
73
8
40
0
40
0
40
0
40
0
40
0.474488878053229
40
0.474488878053229
40
0.918227675553127
40
0.918227675553127
40
1
40
1
40
1
40
1
41
1
10
29.9608389136718
20
-4.20074819090217
30
0
41
1
10
29.9584083432298
20
-4.20097197668372
30
0
41
1
10
29.9559431966666
20
-4.20164263114035
30
0
41
1
10
29.9514991138913
20
-4.20372897887972
30
0
41
1
10
29.9494415053704
20
-4.20512261662867
30
0
41
1
10
29.9473244093635
20
-4.20713407871017
30
0
41
1
10
29.9469995136241
20
-4.2074619490165
30
0
41
1
10
29.9466842780508
20
-4.20780014952456
30
0
0
SPLINE
5
E0
100
AcDbEntity
8
1
62
256
6
ByLayer
370
18
48
1
60
0
100
AcDbSpline
70
4
71
3
72
33
73
29
40
0
40
0
40
0
40
0
40
3.60335979245E-05
40
5.63525535555E-05
40
7.66715091865E-05
40
9.69904648175E-05
40
0.0001173094204485
40
0.0001376283760795
40
0.0001579473317105
40
0.0001782662873415
40
0.0001985852429725
40
0.0002189041986035
40
0.0002392231542345
40
0.0002595421098655
40
0.0002798610654965
40
0.0003001800211275
40
0.0003204989767585
40
0.0003611368880205
40
0.0004424127105445
40
0.0006049643555924
40
0.0009300676456884
40
0.0015802742258803
40
0.0067819268674154
40
0.0900083691319771
40
0.256461253661101
40
0.422914138190224
40
0.755819907248471
40
1
40
1
40
1
40
1
41
1
10
27.682410448971
20
-0.345386639240758
30
0
41
1
10
27.6824119697162
20
-0.345397971491963
30
0
41
1
10
27.6823993952646
20
-0.345401052045929
30
0
41
1
10
27.6823896804133
20
-0.345403770817171
30
0
41
1
10
27.6823799231314
20
-0.345406231458043
30
0
41
1
10
27.6823728077884
20
-0.345413530692582
30
0
41
1
10
27.6823630445758
20
-0.345416246117196
30
0
41
1
10
27.6823552100344
20
-0.345422564782155
30
0
41
1
10
27.6823457480323
20
-0.345425941176245
30
0
41
1
10
27.6823377901399
20
-0.345432066021488
30
0
41
1
10
27.6823283303458
20
-0.345435449924821
30
0
41
1
10
27.6823204372706
20
-0.345441683971274
30
0
41
1
10
27.6823108351142
20
-0.345444779307598
30
0
41
1
10
27.6823032775935
20
-0.345451527602563
30
0
41
1
10
27.6822893184558
20
-0.345455488927172
30
0
41
1
10
27.6822964805435
20
-0.345466358838166
30
0
41
1
10
27.6821237157366
20
-0.345419351232664
30
0
41
1
10
27.6819298684503
20
-0.345373840071602
30
0
41
1
10
27.681472461852
20
-0.345259194993162
30
0
41
1
10
27.6806041279519
20
-0.345045625525159
30
0
41
1
10
27.6788364924059
20
-0.344607894869824
30
0
41
1
10
27.669294338082
20
-0.342248701081644
30
0
41
1
10
27.5314704407154
20
-0.308058863264961
30
0
41
1
10
27.138062598719
20
-0.206463373924237
30
0
41
1
10
26.4985885953471
20
-0.0227787644296882
30
0
41
1
10
25.4823472815039
20
0.308061504184394
30
0
41
1
10
24.3593793524113
20
0.73800003855402
30
0
41
1
10
23.4990460810567
20
1.12228597691299
30
-1E-16
41
1
10
23.137061071344
20
1.29329146708849
30
-1E-16
0
SPLINE
5
E1
100
AcDbEntity
8
1
62
256
6
ByLayer
370
18
48
1
60
0
100
AcDbSpline
70
4
71
3
72
8
73
4
40
0
40
0
40
0
40
0
40
1
40
1
40
1
40
1
41
1
10
29.7810085796108
20
-2.39788869885882
30
1E-16
41
1
10
29.8361109303216
20
-2.39123748273099
30
1E-16
41
1
10
29.8913314773347
20
-2.38355442518054
30
1E-16
41
1
10
29.9466842780509
20
-2.3748433949894
30
1E-16
0
SPLINE
5
E2
100
AcDbEntity
8
1
62
256
6
ByLayer
370
18
48
1
60
0
100
AcDbSpline
70
4
71
3
72
32
73
28
40
0
40
0
40
0
40
0
40
0.0261814447844493
40
0.0261814447844493
40
0.0848840986956643
40
0.0848840986956643
40
0.202289406518096
40
0.202289406518096
40
0.319694714340528
40
0.319694714340528
40
0.378397368251746
40
0.378397368251746
40
0.437100022162963
40
0.437100022162963
40
0.495802676074181
40
0.495802676074181
40
0.554505329985398
40
0.554505329985398
40
0.613207983896615
40
0.613207983896615
40
0.671910637807833
40
0.671910637807833
40
0.789315945630268
40
0.789315945630268
40
0.906721253452702
40
0.906721253452702
40
1
40
1
40
1
40
1
41
1
10
39.6804562909206
20
4.07050585281306
30
0
41
1
10
39.7981222608391
20
4.06576175208525
30
0
41
1
10
39.9159339642809
20
4.05994034659921
30
0
41
1
10
40.2983803967186
20
4.0376705832735
30
0
41
1
10
40.5636344598963
20
4.01700162350858
30
0
41
1
10
41.3577273227114
20
3.94067330746265
30
0
41
1
10
41.8861133469577
20
3.87093740780503
30
0
41
1
10
42.9453887360737
20
3.69050134898399
30
0
41
1
10
43.4737742143475
20
3.57982412849003
30
0
41
1
10
44.263394516528
20
3.38946933154944
30
-2E-16
41
1
10
44.5262079616818
20
3.32202538352451
30
-2E-16
41
1
10
45.0516047376433
20
3.17892901371349
30
-2E-16
41
1
10
45.3142278905366
20
3.10316155684416
30
-2E-16
41
1
10
45.8394399657047
20
2.94399243866772
30
-2E-16
41
1
10
46.101970135689
20
2.86067558028273
30
-2E-16
41
1
10
46.6275575789766
20
2.68683617841595
30
-2E-16
41
1
10
46.8906888864256
20
2.59623303097416
30
-2E-16
41
1
10
47.4177180479726
20
2.40842469674772
30
-1E-16
41
1
10
47.6815838947745
20
2.31127564459308
30
-1E-16
41
1
10
48.2101048163418
20
2.11102879347021
30
-1E-16
41
1
10
48.4751105355801
20
2.00775218293174
30
-1E-16
41
1
10
49.2672932912106
20
1.69165690447761
30
-1E-16
41
1
10
49.7927498662139
20
1.47229150276692
30
-1E-16
41
1
10
50.8411107483052
20
1.02271534788517
30
-1E-16
41
1
10
51.363720941371
20
0.792035553384864
30
0
41
1
10
52.3011869090468
20
0.372829072506107
30
0
41
1
10
52.7162711711717
20
0.185647560594617
30
0
41
1
10
53.1319500229768
20
-0.0017684774689712
30
0
0
SPLINE
5
E3
100
AcDbEntity
8
1
62
256
6
ByLayer
370
18
48
1
60
0
100
AcDbSpline
70
4
71
3
72
8
73
4
40
0
40
0
40
0
40
0
40
1
40
1
40
1
40
1
41
1
10
56.5087486544751
20
1.64558771935998
30
0
41
1
10
56.6768940590047
20
1.1782351365074
30
0
41
1
10
56.839359335012
20
0.708852386437144
30
0
41
1
10
56.9960346862294
20
0.23740022623727
30
0
0
SPLINE
5
E4
100
AcDbEntity
8
1
62
256
6
ByLayer
370
18
48
1
60
0
100
AcDbSpline
70
4
71
3
72
8
73
4
40
0
40
0
40
0
40
0
40
1
40
1
40
1
40
1
41
1
10
55.224073956336
20
-4.24544811917772
30
0
41
1
10
55.2977956732637
20
-4.20255034484671
30
0
41
1
10
55.3716710901995
20
-4.15894916491095
30
0
41
1
10
55.4457242936811
20
-4.11466278180865
30
0
0
SPLINE
5
E5
100
AcDbEntity
8
1
62
256
6
ByLayer
370
18
48
1
60
0
100
AcDbSpline
70
4
71
3
72
8
73
4
40
0
40
0
40
0
40
0
40
1
40
1
40
1
40
1
41
1
10
55.5925296533308
20
0.305510930988674
30
0
41
1
10
55.7669729750002
20
0.189122066901859
30
0
41
1
10
55.9402318045317
20
0.0754481217450973
30
0
41
1
10
56.1121114050141
20
-0.0350645571319887
30
0
0
SPLINE
5
E6
100
AcDbEntity
8
1
62
256
6
ByLayer
370
18
48
1
60
0
100
AcDbSpline
70
4
71
3
72
24
73
20
40
0
40
0
40
0
40
0
40
0.0616101829603512
40
0.0616101829603512
40
0.123220365920702
40
0.123220365920702
40
0.246440731841405
40
0.246440731841405
40
0.49288146368281
40
0.49288146368281
40
0.55449164664316
40
0.55449164664316
40
0.616101829603511
40
0.616101829603511
40
0.739322195524212
40
0.739322195524212
40
0.985762927365612
40
0.985762927365612
40
1
40
1
40
1
40
1
41
1
10
55.4647323568711
20
-4.05901484823221
30
0
41
1
10
55.195447243999
20
-4.04243754767131
30
0
41
1
10
54.926778819299
20
-4.02129786267332
30
0
41
1
10
54.3906476493624
20
-3.96780296673521
30
0
41
1
10
54.1231303068162
20
-3.93585158739526
30
0
41
1
10
53.3216931723995
20
-3.82488968362779
30
0
41
1
10
52.788990410676
20
-3.73096678260822
30
0
41
1
10
51.1914020433952
20
-3.39312725948258
30
2E-16
41
1
10
50.1270283371159
20
-3.09293339509677
30
2E-16
41
1
10
48.7836697617959
20
-2.64164514240534
30
2E-16
41
1
10
48.513934189999
20
-2.54738924097219
30
2E-16
41
1
10
47.9747722787897
20
-2.35246307119957
30
1E-16
41
1
10
47.705805381488
20
-2.2519706879568
30
1E-16
41
1
10
46.9001560600826
20
-1.94261030731488
30
1E-16
41
1
10
46.3647275931307
20
-1.72584991160767
30
1E-16
41
1
10
44.7593993397708
20
-1.05244127507763
30
1E-16
41
1
10
43.6905078031872
20
-0.572507964938694
30
0
41
1
10
42.5490956881299
20
-0.0585100786225894
30
0
41
1
10
42.4867624231585
20
-0.030434901334786
30
0
41
1
10
42.424434055695
20
-0.0023623283273935
30
0
0
SPLINE
5
E7
100
AcDbEntity
8
1
62
256
6
ByLayer
370
18
48
1
60
0
100
AcDbSpline
70
4
71
3
72
8
73
4
40
0
40
0
40
0
40
0
40
1
40
1
40
1
40
1
41
1
10
30.6366197754822
20
3.89008109861641
30
0
41
1
10
30.6366197754822
20
3.88854508668999
30
0
41
1
10
30.6366197754822
20
3.88700856201103
30
0
41
1
10
30.6366197754822
20
3.88547152476025
30
0
0
SPLINE
5
E8
100
AcDbEntity
8
1
62
256
6
ByLayer
370
18
48
1
60
0
100
AcDbSpline
70
4
71
3
72
16
73
12
40
0
40
0
40
0
40
0
40
0.220584343149863
40
0.220584343149863
40
0.439284238822702
40
0.439284238822702
40
0.696597607990191
40
0.696597607990191
40
0.947757873263221
40
0.947757873263221
40
1
40
1
40
1
40
1
41
1
10
55.0302080987105
20
-0.851775473761364
30
1E-16
41
1
10
55.030735347219
20
-0.851748645483752
30
1E-16
41
1
10
55.0312750622229
20
-0.851992062596935
30
1E-16
41
1
10
55.0322870580787
20
-0.852872629710703
30
1E-16
41
1
10
55.0327733063387
20
-0.853516419313621
30
1E-16
41
1
10
55.0337348571867
20
-0.855229253447249
30
1E-16
41
1
10
55.0342067128227
20
-0.856376048456212
30
1E-16
41
1
10
55.0349785109727
20
-0.858916329059042
30
1E-16
41
1
10
55.0352923856601
20
-0.860337559853804
30
1E-16
41
1
10
55.0355457793807
20
-0.862144722987182
30
1E-16
41
1
10
55.0355854422688
20
-0.862463554037475
30
1E-16
41
1
10
55.0356202364969
20
-0.862785235309531
30
1E-16
0
SPLINE
5
E9
100
AcDbEntity
8
1
62
256
6
ByLayer
370
18
48
1
60
0
100
AcDbSpline
70
4
71
3
72
12
73
8
40
0
40
0
40
0
40
0
40
0.385826950733779
40
0.385826950733779
40
0.771653901467558
40
0.771653901467558
40
1
40
1
40
1
40
1
41
1
10
28.1265963963822
20
5.6336255485117
30
1E-16
41
1
10
28.1218656438536
20
5.67614904059579
30
1E-16
41
1
10
28.1171086673321
20
5.71087716338903
30
1E-16
41
1
10
28.107541543934
20
5.76381306132794
30
0
41
1
10
28.1028067574923
20
5.78175902789886
30
0
41
1
10
28.095338065445
20
5.7971903003201
30
0
41
1
10
28.0925680633808
20
5.80005515886961
30
0
41
1
10
28.0897999763369
20
5.8000364189252
30
0
0
SPLINE
5
EA
100
AcDbEntity
8
1
62
256
6
ByLayer
370
18
48
1
60
0
100
AcDbSpline
70
4
71
3
72
8
73
4
40
0
40
0
40
0
40
0
40
1
40
1
40
1
40
1
41
1
10
29.9466842780508
20
-4.2078001495245
30
0
41
1
10
29.8614347615234
20
-4.29926009960928
30
0
41
1
10
29.7764862979177
20
-4.39031476611984
30
0
41
1
10
29.6917880336771
20
-4.48091963922258
30
1E-16
0
SPLINE
5
EB
100
AcDbEntity
8
1
62
256
6
ByLayer
370
18
48
1
60
0
100
AcDbSpline
70
4
71
3
72
14
73
10
40
0
40
0
40
0
40
0
40
0.5
40
0.5
40
0.625
40
0.625
40
0.75
40
0.75
40
1
40
1
40
1
40
1
41
1
10
28.1265963963822
20
5.6336255485117
30
1E-16
41
1
10
26.936756293168
20
5.81450944017757
30
0
41
1
10
25.7572658714524
20
5.8488033382215
30
0
41
1
10
24.2630710437574
20
5.70319624351219
30
1E-16
41
1
10
23.9626137521317
20
5.66452666888233
30
1E-16
41
1
10
23.361907700701
20
5.568636205025
30
1E-16
41
1
10
23.06214573132
20
5.51153759707447
30
1E-16
41
1
10
22.1632654576297
20
5.31364170489667
30
1E-16
41
1
10
21.5645865921371
20
5.14619579793748
30
1E-16
41
1
10
20.9625737478478
20
4.94583237194396
30
1E-16
0
SPLINE
5
EC
100
AcDbEntity
8
1
62
256
6
ByLayer
370
18
48
1
60
0
100
AcDbSpline
70
4
71
3
72
26
73
22
40
0
40
0
40
0
40
0
40
0.100401604984403
40
0.100401604984403
40
0.200803209968806
40
0.200803209968806
40
0.401606419937611
40
0.401606419937611
40
0.451807222429813
40
0.451807222429813
40
0.502008024922015
40
0.502008024922015
40
0.602409629906417
40
0.602409629906417
40
0.80321283987522
40
0.80321283987522
40
0.903614444859621
40
0.903614444859621
40
0.953815247351821
40
0.953815247351821
40
1
40
1
40
1
40
1
41
1
10
54.8801934297776
20
-0.226705947567666
30
0
41
1
10
54.3840822298889
20
0.008216328040703
30
0
41
1
10
53.8872535177921
20
0.244444693950669
30
0
41
1
10
52.8975415649011
20
0.710649843725122
30
0
41
1
10
52.4044407805051
20
0.940729602653079
30
-1E-16
41
1
10
50.926809783375
20
1.61453900792918
30
-1E-16
41
1
10
49.9439635586444
20
2.04181752239265
30
-1E-16
41
1
10
48.7063575666359
20
2.52497233861581
30
-2E-16
41
1
10
48.4579597685943
20
2.61921004552806
30
-2E-16
41
1
10
47.9624058441485
20
2.80111730844851
30
-2E-16
41
1
10
47.7152959638141
20
2.88878211980537
30
-2E-16
41
1
10
46.9755177585908
20
3.14132922605097
30
-2E-16
41
1
10
46.484399262217
20
3.2957540936757
30
-2E-16
41
1
10
45.0137254012084
20
3.71296843141289
30
2E-16
41
1
10
44.0368568217634
20
3.92958197428311
30
0
41
1
10
42.5630734893388
20
4.1477969856993
30
0
41
1
10
42.0704001595735
20
4.20278201593479
30
0
41
1
10
41.3274963802277
20
4.257072735105
30
0
41
1
10
41.0789265673637
20
4.27046664299033
30
0
41
1
10
40.6036899993741
20
4.28687646434671
30
0
41
1
10
40.3765100989629
20
4.29067231249834
30
0
41
1
10
40.1497516039232
20
4.29044430516436
30
0
0
SPLINE
5
ED
100
AcDbEntity
8
1
62
256
6
ByLayer
370
18
48
1
60
0
100
AcDbSpline
70
4
71
3
72
34
73
30
40
0
40
0
40
0
40
0
40
0.062499999999999
40
0.062499999999999
40
0.124999999999998
40
0.124999999999998
40
0.187499999999997
40
0.187499999999997
40
0.249999999999996
40
0.249999999999996
40
0.374999999999996
40
0.374999999999996
40
0.437499999999996
40
0.437499999999996
40
0.499999999999996
40
0.499999999999996
40
0.562499999999997
40
0.562499999999997
40
0.624999999999997
40
0.624999999999997
40
0.687499999999998
40
0.687499999999998
40
0.749999999999998
40
0.749999999999998
40
0.874999999999999
40
0.874999999999999
40
0.9375
40
0.9375
40
1
40
1
40
1
40
1
41
1
10
55.2399802208039
20
-4.29925385230069
30
0
41
1
10
54.742729430671
20
-4.29493008432308
30
0
41
1
10
54.2452284332884
20
-4.27115781382298
30
0
41
1
10
53.2517064593383
20
-4.18557999936962
30
0
41
1
10
52.7552758926776
20
-4.12379613856825
30
0
41
1
10
51.7606213659845
20
-3.96348722118577
30
0
41
1
10
51.2631398814952
20
-3.86504574324115
30
0
41
1
10
50.2685456214549
20
-3.63439577498241
30
-2E-16
41
1
10
49.7720893560214
20
-3.50237811397483
30
2E-16
41
1
10
48.2815640392558
20
-3.06075771026337
30
2E-16
41
1
10
47.2854803076119
20
-2.70470724956434
30
2E-16
41
1
10
45.7951343979455
20
-2.10921488878438
30
1E-16
41
1
10
45.2981881261076
20
-1.90029477900964
30
1E-16
41
1
10
44.303335084352
20
-1.46690762223838
30
1E-16
41
1
10
43.8067837037887
20
-1.24304739742936
30
1E-16
41
1
10
42.8129805247958
20
-0.785967064869652
30
0
41
1
10
42.3151837333319
20
-0.552482701458104
30
0
41
1
10
41.3212551207565
20
-0.0835164488437385
30
0
41
1
10
40.824690429409
20
0.152159137049097
30
0
41
1
10
39.8299113862752
20
0.62070301511767
30
0
41
1
10
39.3322831079072
20
0.853286012859854
30
-1E-16
41
1
10
38.3371675348605
20
1.30851319872977
30
-1E-16
41
1
10
37.8405190989524
20
1.53077685728459
30
-1E-16
41
1
10
36.3496288038479
20
2.17424820237739
30
-1E-16
41
1
10
35.3532219241547
20
2.57219595591556
30
-2E-16
41
1
10
33.8622092473721
20
3.08802650027542
30
-2E-16
41
1
10
33.3650934018355
20
3.24681728225511
30
-2E-16
41
1
10
32.3699049686301
20
3.53395983425111
30
-2E-16
41
1
10
31.8731659454132
20
3.66193985662042
30
2E-16
41
1
10
31.3760588475729
20
3.77297209211332
30
2E-16
0
SPLINE
5
EE
100
AcDbEntity
8
1
62
256
6
ByLayer
370
18
48
1
60
0
100
AcDbSpline
70
4
71
3
72
20
73
16
40
0
40
0
40
0
40
0
40
0.175178463138376
40
0.175178463138376
40
0.350356926276753
40
0.350356926276753
40
0.525535389415129
40
0.525535389415129
40
0.613124620984317
40
0.613124620984317
40
0.700713852553505
40
0.700713852553505
40
0.875892315691882
40
0.875892315691882
40
1
40
1
40
1
40
1
41
1
10
29.9608389136718
20
-2.37719844191682
30
1E-16
41
1
10
30.4819331205174
20
-2.58335459229582
30
2E-16
41
1
10
31.0028552159172
20
-2.77580961807354
30
2E-16
41
1
10
32.045454720606
20
-3.13214894185165
30
2E-16
41
1
10
32.5671196533755
20
-3.29654378690563
30
2E-16
41
1
10
33.6074527706882
20
-3.58997625345026
30
2E-16
41
1
10
34.1272574466669
20
-3.71903973348051
30
-2E-16
41
1
10
34.9073330030273
20
-3.88517585272882
30
0
41
1
10
35.1672983783743
20
-3.93605464675139
30
0
41
1
10
35.6882720224909
20
-4.02772394017194
30
0
41
1
10
35.9492893530163
20
-4.06857968476561
30
0
41
1
10
36.7307636811181
20
-4.17571492440953
30
0
41
1
10
37.2502273397535
20
-4.2269571863844
30
0
41
1
10
38.1382705612849
20
-4.27855082826215
30
0
41
1
10
38.5066797666222
20
-4.28941847430332
30
0
41
1
10
38.8756059538889
20
-4.28963844209468
30
0
0
SPLINE
5
EF
100
AcDbEntity
8
1
62
256
6
ByLayer
370
18
48
1
60
0
100
AcDbSpline
70
4
71
3
72
8
73
4
40
0
40
0
40
0
40
0
40
1
40
1
40
1
40
1
41
1
10
30.7689330013523
20
-4.10975705669554
30
0
41
1
10
30.5000994985787
20
-4.14550238746031
30
0
41
1
10
30.23079851235
20
-4.17589265957665
30
0
41
1
10
29.9608389136718
20
-4.20074819090217
30
0
0
SPLINE
5
F0
100
AcDbEntity
8
1
62
256
6
ByLayer
370
18
48
1
60
0
100
AcDbSpline
70
4
71
3
72
10
73
6
40
0
40
0
40
0
40
0
40
0.5
40
0.5
40
1
40
1
40
1
40
1
41
1
10
29.6366197754822
20
4.22964889772729
30
0
41
1
10
29.6366197754822
20
4.22723561867863
30
0
41
1
10
29.6442118210546
20
4.21724234830239
30
0
41
1
10
29.6659802849959
20
4.19196387243267
30
0
41
1
10
29.6798215281723
20
4.17692404046872
30
0
41
1
10
29.6944338370329
20
4.16162335049137
30
0
0
SPLINE
5
F1
100
AcDbEntity
8
1
62
256
6
ByLayer
370
18
48
1
60
0
100
AcDbSpline
70
4
71
3
72
16
73
12
40
0
40
0
40
0
40
0
40
0.249999999999999
40
0.249999999999999
40
0.499999999999998
40
0.499999999999998
40
0.749999999999997
40
0.749999999999997
40
0.874999999999999
40
0.874999999999999
40
1
40
1
40
1
40
1
41
1
10
20.0813274367322
20
2.94894276938277
30
-2E-16
41
1
10
20.7829999512661
20
2.5639434738483
30
-2E-16
41
1
10
21.4831084291554
20
2.15192546970405
30
-1E-16
41
1
10
22.8842051319521
20
1.29613577980567
30
-1E-16
41
1
10
23.5775647960853
20
0.85715282401722
30
-1E-16
41
1
10
24.9609578274582
20
-0.0254267941599835
30
0
41
1
10
25.650938386755
20
-0.469107579938168
30
0
41
1
10
26.6910724253268
20
-1.12591646521105
30
1E-16
41
1
10
27.0386435664623
20
-1.34340183643854
30
1E-16
41
1
10
27.7368421246974
20
-1.77334541773132
30
1E-16
41
1
10
28.0880087839278
20
-1.98609094132522
30
1E-16
41
1
10
28.4366197754648
20
-2.19242872427702
30
1E-16
0
SPLINE
5
F2
100
AcDbEntity
8
1
62
256
6
ByLayer
370
18
48
1
60
0
100
AcDbSpline
70
4
71
3
72
30
73
26
40
0
40
0
40
0
40
0
40
0.168274180891366
40
0.353030679999037
40
0.537787179106709
40
0.72254367821438
40
0.907300177322051
40
0.953489302098969
40
0.976583864487428
40
0.988131145681657
40
0.993904786278772
40
0.996791606577329
40
0.998235016726608
40
0.998595869263928
40
0.998776295532588
40
0.998866508666918
40
0.998956721801247
40
0.999001828368412
40
0.999046934935577
40
0.999137148069907
40
0.999227361204237
40
0.999317574338567
40
0.999498000607227
40
0.999678426875887
40
1
40
1
40
1
40
1
41
1
10
20.9625737482955
20
4.94583237069591
30
1E-16
41
1
10
21.0036272534547
20
4.83138942235649
30
1E-16
41
1
10
21.0826233198375
20
4.58905170422358
30
2E-16
41
1
10
21.1790122701327
20
4.21449545880986
30
2E-16
41
1
10
21.2519059812603
20
3.82521168945465
30
2E-16
41
1
10
21.2985303196796
20
3.43554304394255
30
-2E-16
41
1
10
21.314483858802
20
3.14523007529249
30
-2E-16
41
1
10
21.3174355320811
20
2.9694103282192
30
-2E-16
41
1
10
21.3177190987795
20
2.91362622911603
30
-2E-16
41
1
10
21.317730429499
20
2.8857977229714
30
-2E-16
41
1
10
21.317655829663
20
2.87186729099631
30
-2E-16
41
1
10
21.3176703091959
20
2.86494660811712
30
-2E-16
41
1
10
21.317591003972
20
2.86167750263988
30
-2E-16
41
1
10
21.3176440166528
20
2.86035331991937
30
-2E-16
41
1
10
21.3175733963366
20
2.85987289275991
30
-2E-16
41
1
10
21.3176791086964
20
2.85969710094935
30
-2E-16
41
1
10
21.3177179488889
20
2.85956643951306
30
-2E-16
41
1
10
21.3177424108525
20
2.85945792854042
30
-2E-16
41
1
10
21.3178078022251
20
2.85937867716655
30
-2E-16
41
1
10
21.3178760583081
20
2.85926648661007
30
-2E-16
41
1
10
21.317945229806
20
2.8591283125138
30
-2E-16
41
1
10
21.3180478882663
20
2.85894477943108
30
-2E-16
41
1
10
21.3181854250702
20
2.85872469390082
30
-2E-16
41
1
10
21.3183568584419
20
2.85836843779862
30
-2E-16
41
1
10
21.3185196691672
20
2.85813182312396
30
-2E-16
41
1
10
21.3186123476523
20
2.85797257533375
30
-2E-16
0
SPLINE
5
F3
100
AcDbEntity
8
1
62
256
6
ByLayer
370
18
48
1
60
0
100
AcDbSpline
70
4
71
3
72
10
73
6
40
0
40
0
40
0
40
0
40
0.5
40
0.5
40
1
40
1
40
1
40
1
41
1
10
29.7253600350573
20
4.13846411540982
30
0
41
1
10
29.7288817308093
20
4.12171953868773
30
0
41
1
10
29.7324210365721
20
4.10143699376354
30
0
41
1
10
29.7394422420372
20
4.05453405445991
30
0
41
1
10
29.7429383135425
20
4.02785510492927
30
0
41
1
10
29.7464298514463
20
3.99800559747308
30
0
0
SPLINE
5
F4
100
AcDbEntity
8
1
62
256
6
ByLayer
370
18
48
1
60
0
100
AcDbSpline
70
4
71
3
72
30
73
26
40
0
40
0
40
0
40
0
40
0.125000000000004
40
0.125000000000004
40
0.187500000000006
40
0.187500000000006
40
0.250000000000007
40
0.250000000000007
40
0.312500000000009
40
0.312500000000009
40
0.375000000000011
40
0.375000000000011
40
0.437500000000013
40
0.437500000000013
40
0.500000000000015
40
0.500000000000015
40
0.562500000000017
40
0.562500000000017
40
0.625000000000018
40
0.625000000000018
40
0.750000000000012
40
0.750000000000012
40
0.875000000000006
40
0.875000000000006
40
1
40
1
40
1
40
1
41
1
10
56.9400362159695
20
0.0517648269768927
30
0
41
1
10
56.9192214736336
20
-0.0168642883918153
30
0
41
1
10
56.8952906684398
20
-0.0839243902395594
30
0
41
1
10
56.8545443941264
20
-0.181991852849365
30
0
41
1
10
56.8400178278166
20
-0.21451029972414
30
0
41
1
10
56.809997909054
20
-0.276949833964153
30
0
41
1
10
56.7944971995538
20
-0.306936749930486
30
0
41
1
10
56.7625369723705
20
-0.364368288189468
30
0
41
1
10
56.746078112939
20
-0.391814579588328
30
0
41
1
10
56.7121523904048
20
-0.44393975969308
30
0
41
1
10
56.6947254581553
20
-0.468500456631801
30
0
41
1
10
56.6602678018531
20
-0.512697017416912
30
0
41
1
10
56.643062746857
20
-0.532612072465184
30
0
41
1
10
56.6086772853422
20
-0.567985146822025
30
0
41
1
10
56.5913401752626
20
-0.583540068816461
30
0
41
1
10
56.5577806676768
20
-0.609046232239876
30
0
41
1
10
56.5414775971761
20
-0.619124634933172
30
0
41
1
10
56.5096997769791
20
-0.634141548343479
30
0
41
1
10
56.4941093471188
20
-0.639081468719922
30
0
41
1
10
56.4495369938215
20
-0.646013572461953
30
0
41
1
10
56.4223890721498
20
-0.640343558573761
30
0
41
1
10
56.373036118913
20
-0.6115443616726
30
0
41
1
10
56.3513059825943
20
-0.588878840487467
30
0
41
1
10
56.3119673814934
20
-0.529951384801421
30
0
41
1
10
56.2944183325122
20
-0.493546082433909
30
0
41
1
10
56.2789007465448
20
-0.452123657690578
30
0
0
SPLINE
5
F5
100
AcDbEntity
8
1
62
256
6
ByLayer
370
18
48
1
60
0
100
AcDbSpline
70
4
71
3
72
8
73
4
40
0
40
0
40
0
40
0
40
1
40
1
40
1
40
1
41
1
10
30.6366197754822
20
3.89008109861641
30
0
41
1
10
30.6366197754822
20
3.89030475573767
30
0
41
1
10
30.6366197754822
20
3.89052831271806
30
0
41
1
10
30.6366197754822
20
3.89075176953071
30
0
0
SPLINE
5
F6
100
AcDbEntity
8
1
62
256
6
ByLayer
370
18
48
1
60
0
100
AcDbSpline
70
4
71
3
72
20
73
16
40
0
40
0
40
0
40
0
40
0.124999999999997
40
0.124999999999997
40
0.249999999999993
40
0.249999999999993
40
0.499999999999992
40
0.499999999999992
40
0.749999999999991
40
0.749999999999991
40
0.812499999999992
40
0.812499999999992
40
0.874999999999993
40
0.874999999999993
40
1
40
1
40
1
40
1
41
1
10
56.508748654475
20
-1.64558771936001
30
0
41
1
10
56.4585407416176
20
-1.74001227151129
30
0
41
1
10
56.4094914032211
20
-1.83639793383017
30
0
41
1
10
56.3135000939569
20
-2.03325549350839
30
0
41
1
10
56.2664720098072
20
-2.13395128649518
30
0
41
1
10
56.1301807069572
20
-2.43757010083527
30
0
41
1
10
56.0450299064292
20
-2.6433963733102
30
0
41
1
10
55.8821054061348
20
-3.06036114534032
30
0
41
1
10
55.8043191525629
20
-3.27149494452829
30
0
41
1
10
55.7088520418725
20
-3.53760425473055
30
0
41
1
10
55.6898598133678
20
-3.59094975264276
30
0
41
1
10
55.6520410323963
20
-3.69791565490948
30
0
41
1
10
55.6331168079692
20
-3.75141646638315
30
0
41
1
10
55.576267727996
20
-3.91196209255557
30
0
41
1
10
55.5382430970289
20
-4.01911568905416
30
0
41
1
10
55.5001195471058
20
-4.12603542820156
30
0
0
SPLINE
5
F7
100
AcDbEntity
8
1
62
256
6
ByLayer
370
18
48
1
60
0
100
AcDbSpline
70
4
71
3
72
8
73
4
40
0
40
0
40
0
40
0
40
1
40
1
40
1
40
1
41
1
10
55.4647323568711
20
-4.05901484823218
30
0
41
1
10
55.4583706925604
20
-4.07756381765176
30
0
41
1
10
55.4520345059921
20
-4.09611308710572
30
0
41
1
10
55.4457242936812
20
-4.11466278180868
30
0
0
SPLINE
5
F8
100
AcDbEntity
8
1
62
256
6
ByLayer
370
18
48
1
60
0
100
AcDbSpline
70
4
71
3
72
8
73
4
40
0
40
0
40
0
40
0
40
1
40
1
40
1
40
1
41
1
10
29.9466842780508
20
-1.84771927618004
30
1E-16
41
1
10
29.4435693825459
20
-1.97526523506465
30
1E-16
41
1
10
28.9399381671177
20
-2.09136640441093
30
1E-16
41
1
10
28.4366197754633
20
-2.19242872427731
30
1E-16
0
SPLINE
5
F9
100
AcDbEntity
8
1
62
256
6
ByLayer
370
18
48
1
60
0
100
AcDbSpline
70
4
71
3
72
36
73
32
40
0
40
0
40
0
40
0
40
0.0573235412212133
40
0.0573235412212133
40
0.13587991278611
40
0.13587991278611
40
0.214436284351007
40
0.214436284351007
40
0.292992655915905
40
0.292992655915905
40
0.332270841698354
40
0.332270841698354
40
0.371549027480803
40
0.371549027480803
40
0.450105399045704
40
0.450105399045704
40
0.528661770610605
40
0.528661770610605
40
0.567939956393055
40
0.567939956393055
40
0.607218142175506
40
0.607218142175506
40
0.685774513740404
40
0.685774513740404
40
0.764330885305303
40
0.764330885305303
40
0.842887256870202
40
0.842887256870202
40
0.921443628435101
40
0.921443628435101
40
1
40
1
40
1
40
1
41
1
10
36.0880042258558
20
4.08724190031245
30
0
41
1
10
36.4487932928982
20
4.13890850423135
30
0
41
1
10
36.8091143429737
20
4.1808092702577
30
0
41
1
10
37.6620855199874
20
4.25683342748468
30
0
41
1
10
38.1551024588464
20
4.2820305120226
30
0
41
1
10
39.142553748321
20
4.2943143454242
30
0
41
1
10
39.6377705373143
20
4.28122784340758
30
0
41
1
10
40.6253897185268
20
4.21757107695939
30
0
41
1
10
41.1182514092246
20
4.16693195456034
30
0
41
1
10
41.8578413898956
20
4.06323308114463
30
0
41
1
10
42.1044741417701
20
4.0240717516595
30
0
41
1
10
42.5984593902205
20
3.9369264780052
30
0
41
1
10
42.8460694689878
20
3.88892262655614
30
0
41
1
10
43.5878508976382
20
3.7324173207777
30
2E-16
41
1
10
44.081061883661
20
3.6112081483206
30
-2E-16
41
1
10
45.0668984676166
20
3.33718504265994
30
-2E-16
41
1
10
45.5600322491746
20
3.18503216652348
30
-2E-16
41
1
10
46.3011853367622
20
2.93548888704703
30
-2E-16
41
1
10
46.5486502841281
20
2.84885021638394
30
-2E-16
41
1
10
47.042821676806
20
2.67017386362761
30
-2E-16
41
1
10
47.2897017281827
20
2.57797272231989
30
-2E-16
41
1
10
48.0297859148875
20
2.29291531824438
30
-1E-16
41
1
10
48.522241237404
20
2.09121433954877
30
-1E-16
41
1
10
49.5088320040844
20
1.67075687622091
30
-1E-16
41
1
10
50.0040169237112
20
1.45217179193204
30
-1E-16
41
1
10
50.9923330763836
20
1.004652232632
30
-1E-16
41
1
10
51.4855349044472
20
0.774981950087152
30
0
41
1
10
52.4732297040966
20
0.310403926246892
30
0
41
1
10
52.9682014140684
20
0.0755685772804497
30
0
41
1
10
53.9558484766601
20
-0.391786629950701
30
0
41
1
10
54.4493890824329
20
-0.624251274270023
30
0
41
1
10
54.9432641099309
20
-0.854187408842705
30
1E-16
0
SPLINE
5
FA
100
AcDbEntity
8
1
62
256
6
ByLayer
370
18
48
1
60
0
100
AcDbSpline
70
4
71
3
72
26
73
22
40
0
40
0
40
0
40
0
40
0.168136875298398
40
0.168136875298398
40
0.336273750596796
40
0.336273750596796
40
0.504410625895194
40
0.504410625895194
40
0.588479063544393
40
0.588479063544393
40
0.672547501193592
40
0.672547501193592
40
0.756615938842791
40
0.756615938842791
40
0.84068437649199
40
0.84068437649199
40
0.924752814141189
40
0.924752814141189
40
0.966787032965788
40
0.966787032965788
40
1
40
1
40
1
40
1
41
1
10
18.8119650164213
20
4.31946865948106
30
2E-16
41
1
10
18.5495060809053
20
4.40812706106746
30
2E-16
41
1
10
18.2915807943163
20
4.49774286944589
30
2E-16
41
1
10
17.7864633385275
20
4.67795180008159
30
2E-16
41
1
10
17.5392520817735
20
4.76855410772552
30
2E-16
41
1
10
17.0581143026945
20
4.94941320739792
30
1E-16
41
1
10
16.8241404661637
20
5.03969321531878
30
1E-16
41
1
10
16.4864098923663
20
5.17323831830518
30
1E-16
41
1
10
16.3756415888396
20
5.21760166556618
30
1E-16
41
1
10
16.161769021736
20
5.30430219360309
30
1E-16
41
1
10
16.0587662050544
20
5.34659367971327
30
1E-16
41
1
10
15.8618811839576
20
5.42836264308704
30
1E-16
41
1
10
15.7679906380584
20
5.46784462685727
30
1E-16
41
1
10
15.5910812011276
20
5.54303605176059
30
1E-16
41
1
10
15.5085463535422
20
5.57854427333942
30
1E-16
41
1
10
15.359998955541
20
5.64302345254754
30
1E-16
41
1
10
15.2935351907186
20
5.67218698802915
30
1E-16
41
1
10
15.2072393668901
20
5.71025512788947
30
1E-16
41
1
10
15.1807130080694
20
5.72199513381972
30
0
41
1
10
15.1375637711131
20
5.74110920439099
30
0
41
1
10
15.1199954116379
20
5.74889804207183
30
0
41
1
10
15.1041991950672
20
5.75589049619572
30
0
0
SPLINE
5
FB
100
AcDbEntity
8
1
62
256
6
ByLayer
370
18
48
1
60
0
100
AcDbSpline
70
4
71
3
72
30
73
26
40
0
40
0
40
0
40
0
40
0.0550831354376587
40
0.0550831354376587
40
0.0828748079247859
40
0.0828748079247859
40
0.110666480411913
40
0.110666480411913
40
0.221833170360424
40
0.221833170360424
40
0.277416515334679
40
0.277416515334679
40
0.332999860308935
40
0.332999860308935
40
0.444166550257446
40
0.444166550257446
40
0.499749895231703
40
0.499749895231703
40
0.55533324020596
40
0.55533324020596
40
0.777666620102982
40
0.777666620102982
40
0.888833310051491
40
0.888833310051491
40
1
40
1
40
1
40
1
41
1
10
15.0051396515851
20
5.79600207259602
30
0
41
1
10
15.0139255591332
20
5.79054258387291
30
0
41
1
10
15.0337502225194
20
5.77958111165569
30
0
41
1
10
15.0783990788084
20
5.75537135161238
30
0
41
1
10
15.0958869177325
20
5.74594436601282
30
0
41
1
10
15.1356633074265
20
5.72454245175191
30
0
41
1
10
15.1579560105849
20
5.71256525819561
30
1E-16
41
1
10
15.2788619606156
20
5.64756759183868
30
1E-16
41
1
10
15.4064147335713
20
5.57881270812541
30
1E-16
41
1
10
15.6307852175012
20
5.45642956298371
30
1E-16
41
1
10
15.7113680269484
20
5.41228214710858
30
1E-16
41
1
10
15.8791661930911
20
5.31991799504039
30
1E-16
41
1
10
15.9667468802856
20
5.27150380653345
30
1E-16
41
1
10
16.2388281116674
20
5.12047932494701
30
1E-16
41
1
10
16.4325738182286
20
5.01212959693396
30
1E-16
41
1
10
16.7376749508432
20
4.84049490914501
30
1E-16
41
1
10
16.8420365828939
20
4.78162823353068
30
2E-16
41
1
10
17.0542026406378
20
4.66169479967903
30
2E-16
41
1
10
17.161673908372
20
4.60081733766947
30
2E-16
41
1
10
17.7052357206305
20
4.29246794024453
30
2E-16
41
1
10
18.1594944082721
20
4.03331651053952
30
-2E-16
41
1
10
18.8632152455507
20
3.63372449914039
30
-2E-16
41
1
10
19.101598073957
20
3.49867632859897
30
-2E-16
41
1
10
19.5855505762254
20
3.22589337387356
30
-2E-16
41
1
10
19.8314678811423
20
3.08797097085844
30
-2E-16
41
1
10
20.0781726266932
20
2.9506737307764
30
-2E-16
0
SPLINE
5
FC
100
AcDbEntity
8
1
62
256
6
ByLayer
370
18
48
1
60
0
100
AcDbSpline
70
4
71
3
72
8
73
4
40
0
40
0
40
0
40
0
40
1
40
1
40
1
40
1
41
1
10
29.7253600350575
20
4.13846411540894
30
0
41
1
10
30.272403822619
20
4.12315600704605
30
0
41
1
10
30.8173880666914
20
4.08442391113022
30
0
41
1
10
31.3618725667924
20
4.02225087248678
30
0
0
SPLINE
5
FD
100
AcDbEntity
8
1
62
256
6
ByLayer
370
18
48
1
60
0
100
AcDbSpline
70
4
71
3
72
10
73
6
40
0
40
0
40
0
40
0
40
0.5
40
0.5
40
1
40
1
40
1
40
1
41
1
10
56.508748654475
20
1.64558771935998
30
0
41
1
10
56.3838509288763
20
1.58852678344243
30
0
41
1
10
56.2538363055235
20
1.54028431226197
30
0
41
1
10
55.9930215082288
20
1.45639404375618
30
0
41
1
10
55.8614219783113
20
1.42047540374301
30
0
41
1
10
55.7290444791997
20
1.38848957464282
30
0
0
SPLINE
5
FE
100
AcDbEntity
8
1
62
256
6
ByLayer
370
18
48
1
60
0
100
AcDbSpline
70
4
71
3
72
22
73
18
40
0
40
0
40
0
40
0
40
0.084898116935269
40
0.084898116935269
40
0.241285822745129
40
0.241285822745129
40
0.31947967565006
40
0.31947967565006
40
0.39767352855499
40
0.39767352855499
40
0.554061234364851
40
0.554061234364851
40
0.710448940174711
40
0.710448940174711
40
0.866836645984572
40
0.866836645984572
40
1
40
1
40
1
40
1
41
1
10
29.7372033842563
20
-2.41579054165896
30
1E-16
41
1
10
29.7371953327005
20
-2.50302757878899
30
2E-16
41
1
10
29.7371868941178
20
-2.5874851265026
30
2E-16
41
1
10
29.7371620850532
20
-2.81813562756429
30
2E-16
41
1
10
29.7371449644544
20
-2.95723541195622
30
2E-16
41
1
10
29.7371179454072
20
-3.15040040355484
30
2E-16
41
1
10
29.7371087136649
20
-3.21219782628347
30
2E-16
41
1
10
29.7370898084167
20
-3.33050318154892
30
2E-16
41
1
10
29.7370801086989
20
-3.38713746823518
30
2E-16
41
1
10
29.7370506774253
20
-3.54702499727014
30
2E-16
41
1
10
29.7370305092193
20
-3.64101646850682
30
0
41
1
10
29.7369891939973
20
-3.80263283063815
30
0
41
1
10
29.7369682244076
20
-3.86961840992851
30
0
41
1
10
29.7369253579429
20
-3.9759123431466
30
0
41
1
10
29.7369037840215
20
-4.01436630215591
30
0
41
1
10
29.7368633655612
20
-4.05907295607884
30
0
41
1
10
29.7368445671267
20
-4.06932097813967
30
0
41
1
10
29.7368253733984
20
-4.06908737602322
30
0
0
SPLINE
5
FF
100
AcDbEntity
8
1
62
256
6
ByLayer
370
18
48
1
60
0
100
AcDbSpline
70
4
71
3
72
8
73
4
40
0
40
0
40
0
40
0
40
1
40
1
40
1
40
1
41
1
10
56.2789007465448
20
-0.452123657690521
30
0
41
1
10
56.2279667665848
20
-0.316161211199102
30
0
41
1
10
56.1723669187007
20
-0.177139281115217
30
0
41
1
10
56.1121114050142
20
-0.0350645571319887
30
0
0
SPLINE
5
100
100
AcDbEntity
8
1
62
256
6
ByLayer
370
18
48
1
60
0
100
AcDbSpline
70
4
71
3
72
8
73
4
40
0
40
0
40
0
40
0
40
1
40
1
40
1
40
1
41
1
10
29.7464298514463
20
3.99800559747308
30
0
41
1
10
30.0434975885174
20
3.96926067840354
30
0
41
1
10
30.3403225774966
20
3.93324893005737
30
0
41
1
10
30.6366197754822
20
3.89008109861641
30
0
0
SPLINE
5
101
100
AcDbEntity
8
1
62
256
6
ByLayer
370
18
48
1
60
0
100
AcDbSpline
70
4
71
3
72
8
73
4
40
0
40
0
40
0
40
0
40
1
40
1
40
1
40
1
41
1
10
31.3760588475729
20
3.77297209211332
30
2E-16
41
1
10
31.1299458649248
20
3.81705042238897
30
0
41
1
10
30.8835192717754
20
3.85631035172381
30
0
41
1
10
30.6366197754822
20
3.89075176953071
30
0
0
SPLINE
5
102
100
AcDbEntity
8
1
62
256
6
ByLayer
370
18
48
1
60
0
100
AcDbSpline
70
4
71
3
72
12
73
8
40
0
40
0
40
0
40
0
40
0.5
40
0.5
40
0.75
40
0.75
40
1
40
1
40
1
40
1
41
1
10
20.962565577392
20
-4.94582982346424
30
-1E-16
41
1
10
20.6257107774484
20
-4.83618570874032
30
-1E-16
41
1
10
20.2787244435573
20
-4.72506454783704
30
-2E-16
41
1
10
19.7403601574113
20
-4.56522008828904
30
-2E-16
41
1
10
19.5576766884564
20
-4.51300302892264
30
-2E-16
41
1
10
19.1871250293987
20
-4.41255366933743
30
-2E-16
41
1
10
19.0003234473874
20
-4.36460802949904
30
-2E-16
41
1
10
18.8119650164214
20
-4.319468659481
30
-2E-16
0
SPLINE
5
103
100
AcDbEntity
8
1
62
256
6
ByLayer
370
18
48
1
60
0
100
AcDbSpline
70
4
71
3
72
28
73
24
40
0
40
0
40
0
40
0
40
0.0401395977011007
40
0.0401395977011007
40
0.127399634273727
40
0.127399634273727
40
0.301919707418982
40
0.301919707418982
40
0.345549725705295
40
0.345549725705295
40
0.389179743991609
40
0.389179743991609
40
0.476439780564236
40
0.476439780564236
40
0.650959853709493
40
0.650959853709493
40
0.73821989028212
40
0.73821989028212
40
0.781849908568434
40
0.781849908568434
40
0.825479926854747
40
0.825479926854747
40
1
40
1
40
1
40
1
41
1
10
47.7924334608679
20
-2.86057379843152
30
2E-16
41
1
10
47.5530391635289
20
-2.94505394360269
30
2E-16
41
1
10
47.3141916848203
20
-3.02634320000419
30
2E-16
41
1
10
46.5574167205725
20
-3.27367922830035
30
2E-16
41
1
10
46.0410212984
20
-3.42718972530164
30
2E-16
41
1
10
44.4935806153437
20
-3.83523932767034
30
0
41
1
10
43.4642982508838
20
-4.03716472616179
30
0
41
1
10
42.1671125463903
20
-4.18841915159572
30
0
41
1
10
41.9071449260085
20
-4.21362302175743
30
0
41
1
10
41.385800730286
20
-4.25363909919511
30
0
41
1
10
41.1239914082595
20
-4.26845210379403
30
0
41
1
10
40.34177715675
20
-4.29675801871139
30
0
41
1
10
39.8231447716077
20
-4.29428838187536
30
0
41
1
10
38.2716297329671
20
-4.22454258592393
30
0
41
1
10
37.2431287939959
20
-4.09477250508863
30
0
41
1
10
35.6930308662609
20
-3.7848383986094
30
-2E-16
41
1
10
35.1751097550844
20
-3.6623513631744
30
-2E-16
41
1
10
34.3943347736202
20
-3.4514802873847
30
2E-16
41
1
10
34.1331494243976
20
-3.37658520217556
30
2E-16
41
1
10
33.6103836288427
20
-3.21845480703109
30
2E-16
41
1
10
33.3494253246522
20
-3.13541844422352
30
2E-16
41
1
10
32.0458693182479
20
-2.70180632327694
30
2E-16
41
1
10
31.0069724165488
20
-2.29582157409681
30
1E-16
41
1
10
29.9608389136718
20
-1.8497685806033
30
1E-16
0
SPLINE
5
104
100
AcDbEntity
8
1
62
256
6
ByLayer
370
18
48
1
60
0
100
AcDbSpline
70
4
71
3
72
8
73
4
40
0
40
0
40
0
40
0
40
1
40
1
40
1
40
1
41
1
10
56.9960346862294
20
0.23740022623727
30
0
41
1
10
57.0013293228835
20
0.0789073537947047
30
0
41
1
10
57.001314241143
20
-0.0793588197764166
30
0
41
1
10
56.9960346862298
20
-0.237400226224594
30
0
0
SPLINE
5
105
100
AcDbEntity
8
1
62
256
6
ByLayer
370
18
48
1
60
0
100
AcDbSpline
70
4
71
3
72
12
73
8
40
0
40
0
40
0
40
0
40
0.442694310630772
40
0.442694310630772
40
0.888514517088949
40
0.888514517088949
40
1
40
1
40
1
40
1
41
1
10
29.9608389136718
20
-1.8497685806033
30
1E-16
41
1
10
29.9586373449723
20
-1.84882987028948
30
1E-16
41
1
10
29.9563634799986
20
-1.84811360008049
30
1E-16
41
1
10
29.9520237441658
20
-1.84730083354444
30
1E-16
41
1
10
29.9498936199001
20
-1.84719978520349
30
1E-16
41
1
10
29.9475748951804
20
-1.84752095814687
30
1E-16
41
1
10
29.9471199421176
20
-1.84760882985526
30
1E-16
41
1
10
29.9466842780508
20
-1.84771927618004
30
1E-16
0
SPLINE
5
106
100
AcDbEntity
8
1
62
256
6
ByLayer
370
18
48
1
60
0
100
AcDbSpline
70
4
71
3
72
10
73
6
40
0
40
0
40
0
40
0
40
0.5
40
0.5
40
1
40
1
40
1
40
1
41
1
10
54.8801934297868
20
-0.226705947567638
30
0
41
1
10
54.8879053690953
20
-0.33244222935835
30
0
41
1
10
54.8973543066484
20
-0.438624424996164
30
0
41
1
10
54.9186478677334
20
-0.64796676238538
30
0
41
1
10
54.9305190595218
20
-0.751575907817397
30
0
41
1
10
54.9432641099309
20
-0.854187408842733
30
1E-16
0
SPLINE
5
107
100
AcDbEntity
8
1
62
256
6
ByLayer
370
18
48
1
60
0
100
AcDbSpline
70
2053
71
3
72
56
73
52
40
0
40
0
40
0
40
0
40
0.062499999999999
40
0.062499999999999
40
0.124999999999998
40
0.124999999999998
40
0.187499999999997
40
0.187499999999997
40
0.218749999999997
40
0.218749999999997
40
0.249999999999998
40
0.249999999999998
40
0.281249999999998
40
0.281249999999998
40
0.312499999999999
40
0.312499999999999
40
0.343749999999999
40
0.343749999999999
40
0.375
40
0.375
40
0.40625
40
0.40625
40
0.437500000000001
40
0.437500000000001
40
0.468750000000001
40
0.468750000000001
40
0.500000000000002
40
0.500000000000002
40
0.625000000000004
40
0.625000000000004
40
0.656250000000003
40
0.656250000000003
40
0.687500000000003
40
0.687500000000003
40
0.718750000000003
40
0.718750000000003
40
0.750000000000003
40
0.750000000000003
40
0.781250000000002
40
0.781250000000002
40
0.812500000000002
40
0.812500000000002
40
0.843750000000002
40
0.843750000000002
40
0.875000000000001
40
0.875000000000001
40
0.906250000000001
40
0.906250000000001
40
0.937500000000001
40
0.937500000000001
40
1
40
1
40
1
40
1
41
1
10
55.8329979289798
20
-2.29331908205965
30
-1E-16
41
1
10
55.8003428184336
20
-2.35135280413067
30
-1E-16
41
1
10
55.7696673708294
20
-2.39584611258988
30
-1E-16
41
1
10
55.7115629061612
20
-2.45842889037448
30
-1E-16
41
1
10
55.6855527147163
20
-2.4748921284575
30
-1E-16
41
1
10
55.6382895386179
20
-2.47703456829456
30
-1E-16
41
1
10
55.6181093786038
20
-2.46265584617328
30
-1E-16
41
1
10
55.5920394432594
20
-2.4166503652668
30
-1E-16
41
1
10
55.5843064940722
20
-2.39760373075984
30
1E-16
41
1
10
55.5705595527124
20
-2.35209053128961
30
1E-16
41
1
10
55.5645061602179
20
-2.32539696041834
30
1E-16
41
1
10
55.5543881204905
20
-2.26478638086903
30
1E-16
41
1
10
55.5504042585173
20
-2.23150759282953
30
1E-16
41
1
10
55.5446653008337
20
-2.15889677112847
30
1E-16
41
1
10
55.5429094041944
20
-2.11897286331279
30
1E-16
41
1
10
55.5421672425871
20
-2.03556258937488
30
1E-16
41
1
10
55.5431375198739
20
-1.99222547842828
30
1E-16
41
1
10
55.5482066243336
20
-1.90215377497029
30
1E-16
41
1
10
55.5523730729704
20
-1.85532915022179
30
1E-16
41
1
10
55.5639311359049
20
-1.76348919499688
30
1E-16
41
1
10
55.5714397141832
20
-1.71735918122997
30
1E-16
41
1
10
55.5898903465071
20
-1.62777247131322
30
1E-16
41
1
10
55.6006262739056
20
-1.58513309629385
30
1E-16
41
1
10
55.6252389725609
20
-1.5039785426124
30
1E-16
41
1
10
55.6390715310414
20
-1.46580499284676
30
1E-16
41
1
10
55.6686063615267
20
-1.39678659070344
30
1E-16
41
1
10
55.6846157727569
20
-1.36520959952489
30
1E-16
41
1
10
55.7675433924045
20
-1.22644041481089
30
1E-16
41
1
10
55.8443336055285
20
-1.17357303622782
30
1E-16
41
1
10
55.9267644685505
20
-1.17603501776065
30
1E-16
41
1
10
55.9426147544845
20
-1.17990951223155
30
1E-16
41
1
10
55.9727508072591
20
-1.19476070448982
30
1E-16
41
1
10
55.9869262678746
20
-1.20576469843437
30
1E-16
41
1
10
56.0123529648364
20
-1.23450705836726
30
1E-16
41
1
10
56.0237401740087
20
-1.25229220296373
30
1E-16
41
1
10
56.0433883484084
20
-1.29547817890204
30
1E-16
41
1
10
56.0516696348577
20
-1.32118899741766
30
1E-16
41
1
10
56.0637488990687
20
-1.37904481565951
30
1E-16
41
1
10
56.0676773036994
20
-1.41133523737213
30
1E-16
41
1
10
56.0706899602091
20
-1.48370606947768
30
1E-16
41
1
10
56.0697047820451
20
-1.52231061579411
30
1E-16
41
1
10
56.0628234423019
20
-1.60440178730698
30
1E-16
41
1
10
56.0567720282342
20
-1.64856232880754
30
1E-16
41
1
10
56.0404301227039
20
-1.73741310786394
30
0
41
1
10
56.0301141723659
20
-1.78265282689489
30
0
41
1
10
56.0059118112636
20
-1.87348424084971
30
0
41
1
10
55.9924027925641
20
-1.91774940818573
30
0
41
1
10
55.9631548686909
20
-2.00428081101873
30
-1E-16
41
1
10
55.9474441712086
20
-2.04635308212042
30
-1E-16
41
1
10
55.8995079236723
20
-2.16466365998787
30
-1E-16
41
1
10
55.865653039526
20
-2.23528535998864
30
-1E-16
41
1
10
55.8329979289798
20
-2.29331908205965
30
-1E-16
0
SPLINE
5
108
100
AcDbEntity
8
1
62
256
6
ByLayer
370
18
48
1
60
0
100
AcDbSpline
70
4
71
3
72
10
73
6
40
0
40
0
40
0
40
0
40
0.251019879944717
40
0.251019879944717
40
1
40
1
40
1
40
1
41
1
10
29.6366197754822
20
4.25190137930971
30
0
41
1
10
29.6366197754822
20
4.25434086849086
30
0
41
1
10
29.6366197754822
20
4.25570067950287
30
0
41
1
10
29.6366197754822
20
4.25675899236558
30
0
41
1
10
29.6366197754822
20
4.2479938807148
30
0
41
1
10
29.6366197754822
20
4.22964889772729
30
0
0
SPLINE
5
109
100
AcDbEntity
8
1
62
256
6
ByLayer
370
18
48
1
60
0
100
AcDbSpline
70
4
71
3
72
44
73
40
40
0
40
0
40
0
40
0
40
0.0312500000000016
40
0.0312500000000016
40
0.062500000000003
40
0.062500000000003
40
0.125000000000005
40
0.125000000000005
40
0.187500000000006
40
0.187500000000006
40
0.250000000000008
40
0.250000000000008
40
0.281250000000008
40
0.281250000000008
40
0.312500000000008
40
0.312500000000008
40
0.375000000000007
40
0.375000000000007
40
0.437500000000005
40
0.437500000000005
40
0.468750000000005
40
0.468750000000005
40
0.500000000000005
40
0.500000000000005
40
0.562500000000006
40
0.562500000000006
40
0.625000000000006
40
0.625000000000006
40
0.687500000000006
40
0.687500000000006
40
0.718750000000006
40
0.718750000000006
40
0.750000000000006
40
0.750000000000006
40
0.875000000000004
40
0.875000000000004
40
0.937500000000002
40
0.937500000000002
40
1
40
1
40
1
40
1
41
1
10
55.3285529414155
20
-4.24074260122944
30
0
41
1
10
55.0710787746381
20
-4.23984443574454
30
0
41
1
10
54.813202349931
20
-4.23380976099457
30
0
41
1
10
54.2984775366782
20
-4.21156749419359
30
0
41
1
10
54.0414036096071
20
-4.19536449441321
30
0
41
1
10
53.2705503374675
20
-4.13172510225533
30
0
41
1
10
52.7571400778535
20
-4.06924834289367
30
0
41
1
10
51.7286607914323
20
-3.90557483008792
30
0
41
1
10
51.2127431394535
20
-3.80413168138045
30
0
41
1
10
50.1840778332322
20
-3.56616547147459
30
2E-16
41
1
10
49.6706557634814
20
-3.42959518361244
30
2E-16
41
1
10
48.8998950596244
20
-3.20084218990814
30
2E-16
41
1
10
48.6428702590094
20
-3.12061069940344
30
2E-16
41
1
10
48.1282783089612
20
-2.95263397453402
30
2E-16
41
1
10
47.8704552520736
20
-2.86479617370745
30
2E-16
41
1
10
47.0978955931971
20
-2.59151981148398
30
2E-16
41
1
10
46.5841784496264
20
-2.39639456720761
30
1E-16
41
1
10
45.5567387032404
20
-1.98510154885653
30
1E-16
41
1
10
45.0430190315965
20
-1.76892894900044
30
1E-16
41
1
10
44.2704575878888
20
-1.43259705808123
30
1E-16
41
1
10
44.012633216488
20
-1.31848352751069
30
1E-16
41
1
10
43.4980366332433
20
-1.08781444696169
30
1E-16
41
1
10
43.241009044698
20
-0.971148651131301
30
1E-16
41
1
10
42.4702409462343
20
-0.618209550934779
30
0
41
1
10
41.9568157019716
20
-0.378991292831699
30
0
41
1
10
40.9281522223349
20
0.101640751010336
30
0
41
1
10
40.4122299291814
20
0.34336563884159
30
0
41
1
10
39.3837451899464
20
0.81962612784983
30
-1E-16
41
1
10
38.8703392058346
20
1.05456084740314
30
-1E-16
41
1
10
38.0995012359958
20
1.39801895742519
30
-1E-16
41
1
10
37.8424338621845
20
1.51101507869589
30
-1E-16
41
1
10
37.3277240971606
20
1.73333904743671
30
-1E-16
41
1
10
37.0698414549571
20
1.84276425586529
30
-1E-16
41
1
10
35.7825790227533
20
2.37718041324763
30
-1E-16
41
1
10
34.7578103998561
20
2.76474682137982
30
-2E-16
41
1
10
33.2123230582152
20
3.25885298216662
30
-2E-16
41
1
10
32.6972440070342
20
3.40853303621722
30
-2E-16
41
1
10
31.6675716667538
20
3.67346176346001
30
2E-16
41
1
10
31.1521117609892
20
3.78891768051048
30
0
41
1
10
30.6366197754822
20
3.8854715247603
30
0
0
SPLINE
5
10A
100
AcDbEntity
8
1
62
256
6
ByLayer
370
18
48
1
60
0
100
AcDbSpline
70
4
71
3
72
8
73
4
40
0
40
0
40
0
40
0
40
1
40
1
40
1
40
1
41
1
10
54.9432641099309
20
-0.854187408842705
30
1E-16
41
1
10
54.9722564974947
20
-0.85405967782674
30
1E-16
41
1
10
55.0012260937895
20
-0.853250181155346
30
1E-16
41
1
10
55.0302080987106
20
-0.851775473761563
30
1E-16
0
SPLINE
5
10B
100
AcDbEntity
8
1
62
256
6
ByLayer
370
18
48
1
60
0
100
AcDbSpline
70
4
71
3
72
8
73
4
40
0
40
0
40
0
40
0
40
1
40
1
40
1
40
1
41
1
10
55.2240739563334
20
-4.24544811918102
30
0
41
1
10
55.2297524469828
20
-4.27758688562236
30
0
41
1
10
55.2349886685804
20
-4.29577518912504
30
0
41
1
10
55.239980220804
20
-4.29925385230069
30
0
0
SPLINE
5
10C
100
AcDbEntity
8
1
62
256
6
ByLayer
370
18
48
1
60
0
100
AcDbSpline
70
4
71
3
72
8
73
4
40
0
40
0
40
0
40
0
40
1
40
1
40
1
40
1
41
1
10
56.9960346862293
20
0.237400226237298
30
0
41
1
10
56.9774610369566
20
0.175492814625073
30
0
41
1
10
56.9587947646368
20
0.113614384365235
30
0
41
1
10
56.9400362159695
20
0.0517648269768927
30
0
0
SPLINE
5
10D
100
AcDbEntity
8
1
62
256
6
ByLayer
370
18
48
1
60
0
100
AcDbSpline
70
4
71
3
72
38
73
34
40
0
40
0
40
0
40
0
40
0.0123113586142109
40
0.0123113586142109
40
0.114268940969772
40
0.114268940969772
40
0.216226523325334
40
0.216226523325334
40
0.318184105680896
40
0.318184105680896
40
0.369162896858677
40
0.369162896858677
40
0.420141688036459
40
0.420141688036459
40
0.471120479214241
40
0.471120479214241
40
0.522099270392023
40
0.522099270392023
40
0.573078061569805
40
0.573078061569805
40
0.624056852747586
40
0.624056852747586
40
0.726014435103152
40
0.726014435103152
40
0.827972017458718
40
0.827972017458718
40
0.878950808636501
40
0.878950808636501
40
0.929929599814284
40
0.929929599814284
40
0.980908390992067
40
0.980908390992067
40
1
40
1
40
1
40
1
41
1
10
53.6492295467172
20
-0.245187843253831
30
0
41
1
10
53.5859334940363
20
-0.216784687310025
30
0
41
1
10
53.5226589761879
20
-0.188368595587178
30
0
41
1
10
52.935564249475
20
0.0754785296307432
30
0
41
1
10
52.4129009808099
20
0.311147070468593
30
0
41
1
10
51.3676714145814
20
0.777602537807525
30
0
41
1
10
50.8448625422052
20
1.00796548812451
30
-1E-16
41
1
10
49.7961260496047
20
1.45704164491369
30
-1E-16
41
1
10
49.2704935006803
20
1.67623287425513
30
-1E-16
41
1
10
48.4780621659815
20
1.9921561165504
30
-1E-16
41
1
10
48.2129627296135
20
2.09539299314596
30
-1E-16
41
1
10
47.6842357344172
20
2.29560480586946
30
-1E-16
41
1
10
47.4202666861315
20
2.39275359332856
30
-1E-16
41
1
10
46.8930317011773
20
2.58060389963364
30
-2E-16
41
1
10
46.6297973511782
20
2.67125209068863
30
-2E-16
41
1
10
46.1040028299166
20
2.84520749422643
30
-2E-16
41
1
10
45.8413693388628
20
2.92859219172487
30
-2E-16
41
1
10
45.3159551321638
20
3.08793393470981
30
-2E-16
41
1
10
45.0532328920864
20
3.16381004132202
30
-2E-16
41
1
10
44.5276387900481
20
3.30714837611293
30
-2E-16
41
1
10
44.2647269870154
20
3.37472134278809
30
-2E-16
41
1
10
43.474821819546
20
3.56550972597913
30
0
41
1
10
42.9462797531709
20
3.67654737090862
30
0
41
1
10
41.8866225390832
20
3.85783762056437
30
0
41
1
10
41.3580426876862
20
3.92804096735966
30
0
41
1
10
40.5636732755901
20
4.00513636470606
30
0
41
1
10
40.298330348053
20
4.02607532473036
30
0
41
1
10
39.7691579014027
20
4.0574431741106
30
0
41
1
10
39.5053198904777
20
4.067874660662
30
0
41
1
10
38.9790624917581
20
4.07754961657076
30
0
41
1
10
38.7166088427341
20
4.07689500959248
30
0
41
1
10
38.3562250834934
20
4.06947835385921
30
0
41
1
10
38.2580744123128
20
4.06678048681474
30
0
41
1
10
38.1599653380654
20
4.06337770102309
30
0
0
SPLINE
5
10E
100
AcDbEntity
8
1
62
256
6
ByLayer
370
18
48
1
60
0
100
AcDbSpline
70
4
71
3
72
24
73
20
40
0
40
0
40
0
40
0
40
0.0456111965861057
40
0.0456111965861057
40
0.284208397439576
40
0.284208397439576
40
0.403506997866312
40
0.403506997866312
40
0.463156298079681
40
0.463156298079681
40
0.522805598293049
40
0.522805598293049
40
0.761402799146525
40
0.761402799146525
40
0.880701399573262
40
0.880701399573262
40
0.940350699786631
40
0.940350699786631
40
1
40
1
40
1
40
1
41
1
10
41.9960480071781
20
0.200972109492881
30
0
41
1
10
42.2022136820432
20
0.108462013950089
30
0
41
1
10
42.4084144716347
20
0.0157775500640014
30
0
41
1
10
43.6936605222868
20
-0.561607104552223
30
0
41
1
10
44.7625019548009
20
-1.04057066915368
30
1E-16
41
1
10
46.3677427959602
20
-1.71291759903062
30
1E-16
41
1
10
46.9031393673077
20
-1.92938980971047
30
1E-16
41
1
10
47.7087278415855
20
-2.23842193280618
30
1E-16
41
1
10
47.9776726299641
20
-2.33882180535974
30
1E-16
41
1
10
48.5167852596618
20
-2.53359705395351
30
2E-16
41
1
10
48.7865018054329
20
-2.62779826602611
30
2E-16
41
1
10
50.1297789789497
20
-3.07891189207032
30
2E-16
41
1
10
51.1941293588573
20
-3.37928341979529
30
2E-16
41
1
10
52.7916855896778
20
-3.71780464689968
30
0
41
1
10
53.3243771775641
20
-3.81202453551813
30
0
41
1
10
54.1257864414913
20
-3.9235342705442
30
0
41
1
10
54.3932933110544
20
-3.95568419504681
30
0
41
1
10
54.9294000543523
20
-4.00960924752548
30
0
41
1
10
55.1980337447602
20
-4.03100482550158
30
0
41
1
10
55.4673259577791
20
-4.04780385576925
30
0
0
SPLINE
5
10F
100
AcDbEntity
8
1
62
256
6
ByLayer
370
18
48
1
60
0
100
AcDbSpline
70
4
71
3
72
20
73
16
40
0
40
0
40
0
40
0
40
0.102622300310189
40
0.102622300310189
40
0.205244600620378
40
0.205244600620378
40
0.410489201240756
40
0.410489201240756
40
0.615733801861135
40
0.615733801861135
40
0.820978402481513
40
0.820978402481513
40
0.923600702791702
40
0.923600702791702
40
1
40
1
40
1
40
1
41
1
10
55.3285529414155
20
4.24074260122944
30
0
41
1
10
55.0710787746382
20
4.23984443574457
30
0
41
1
10
54.8132023499311
20
4.23380976099455
30
0
41
1
10
54.2984775366783
20
4.21156749419345
30
0
41
1
10
54.0414036096072
20
4.19536449441324
30
0
41
1
10
53.2705503374676
20
4.13172510225524
30
0
41
1
10
52.7571400778535
20
4.06924834289364
30
0
41
1
10
51.7286607914324
20
3.90557483008792
30
0
41
1
10
51.2127431394536
20
3.8041316813804
30
0
41
1
10
50.1840778332322
20
3.56616547147456
30
-2E-16
41
1
10
49.6706557634815
20
3.42959518361224
30
-2E-16
41
1
10
48.8998950596244
20
3.20084218990814
30
-2E-16
41
1
10
48.6428702590094
20
3.12061069940353
30
-2E-16
41
1
10
48.1940249656895
20
2.97409546079959
30
-2E-16
41
1
10
48.0021835193104
20
2.90943508481348
30
-2E-16
41
1
10
47.8103925177646
20
2.84288676260124
30
-2E-16
0
SPLINE
5
110
100
AcDbEntity
8
1
62
256
6
ByLayer
370
18
48
1
60
0
100
AcDbSpline
70
4
71
3
72
8
73
4
40
0
40
0
40
0
40
0
40
1
40
1
40
1
40
1
41
1
10
55.2399802208048
20
-4.29925385230126
30
0
41
1
10
55.2697366973846
20
-4.27963217750306
30
0
41
1
10
55.299270263351
20
-4.26012978505108
30
0
41
1
10
55.328552941416
20
-4.24074260122958
30
0
0
SPLINE
5
111
100
AcDbEntity
8
1
62
256
6
ByLayer
370
18
48
1
60
0
100
AcDbSpline
70
4
71
3
72
12
73
8
40
0
40
0
40
0
40
0
40
0.367329010431227
40
0.367329010431227
40
0.732520809653062
40
0.732520809653062
40
1
40
1
40
1
40
1
41
1
10
29.7310245173687
20
4.00528435440549
30
0
41
1
10
29.732556427945
20
4.00373888809372
30
0
41
1
10
29.7343434768271
20
4.0023816211033
30
0
41
1
10
29.7380777140871
20
4.00022716660047
30
0
41
1
10
29.7400702478172
20
3.99939692002533
30
0
41
1
10
29.7435115447405
20
3.99842124063309
30
0
41
1
10
29.7449853389264
20
3.9981453716394
30
0
41
1
10
29.7464298514568
20
3.99800559747209
30
0
0
SPLINE
5
112
100
AcDbEntity
8
SK1
62
256
6
ByLayer
370
18
48
1
60
0
100
AcDbSpline
70
4
71
3
72
12
73
8
40
0
40
0
40
0
40
0
40
0.500000000000004
40
0.500000000000004
40
0.750000000000002
40
0.750000000000002
40
1
40
1
40
1
40
1
41
1
10
-44.25
20
2.7064546268287
30
-2E-16
41
1
10
-44.2265754814923
20
2.723139379982
30
-2E-16
41
1
10
-44.2038494963526
20
2.74612738513582
30
-2E-16
41
1
10
-44.1756806214309
20
2.78667779574076
30
-2E-16
41
1
10
-44.1670810890644
20
2.80159924790254
30
-2E-16
41
1
10
-44.1542487488419
20
2.83234491176481
30
-2E-16
41
1
10
-44.15
20
2.84855843545122
30
-2E-16
41
1
10
-44.15
20
2.86249062338163
30
-2E-16
0
SPLINE
5
113
100
AcDbEntity
8
SK1
62
256
6
ByLayer
370
18
48
1
60
0
100
AcDbSpline
70
4
71
3
72
8
73
4
40
0
40
0
40
0
40
0
40
1
40
1
40
1
40
1
41
1
10
-44.25
20
4.13881499885605
30
2E-16
41
1
10
-44.3060037934542
20
4.09892476721166
30
2E-16
41
1
10
-44.3619875927385
20
4.05902097283931
30
2E-16
41
1
10
-44.4179491924311
20
4.0191021197262
30
2E-16
0
SPLINE
5
114
100
AcDbEntity
8
SK1
62
256
6
ByLayer
370
18
48
1
60
0
100
AcDbSpline
70
4
71
3
72
12
73
8
40
0
40
0
40
0
40
0
40
0.25
40
0.25
40
0.5
40
0.5
40
1
40
1
40
1
40
1
41
1
10
-44.4179491924311
20
2.58674174769885
30
-2E-16
41
1
10
-44.4585118025587
20
2.49713026449174
30
-2E-16
41
1
10
-44.5017617157541
20
2.40861793781389
30
-1E-16
41
1
10
-44.5926945369118
20
2.23340889617648
30
-1E-16
41
1
10
-44.6405857309337
20
2.1463739730394
30
-1E-16
41
1
10
-44.7885787506849
20
1.89027527861387
30
-1E-16
41
1
10
-44.8923167485562
20
1.72699298683577
30
-1E-16
41
1
10
-45.0000000000001
20
1.56937388360993
30
-1E-16
0
SPLINE
5
115
100
AcDbEntity
8
SK1
62
256
6
ByLayer
370
18
48
1
60
0
100
AcDbSpline
70
4
71
3
72
10
73
6
40
0
40
0
40
0
40
0
40
0.5
40
0.5
40
1
40
1
40
1
40
1
41
1
10
-45.0000000000001
20
3.91315492503884
30
0
41
1
10
-44.892418923189
20
3.96232626071483
30
0
41
1
10
-44.7890116623726
20
3.99880328631605
30
0
41
1
10
-44.5927829535177
20
4.03833382722331
30
2E-16
41
1
10
-44.4993017440334
20
4.04120617845311
30
2E-16
41
1
10
-44.4179491924311
20
4.0191021197262
30
2E-16
0
SPLINE
5
116
100
AcDbEntity
8
SK1
62
256
6
ByLayer
370
18
48
1
60
0
100
AcDbSpline
70
4
71
3
72
8
73
4
40
0
40
0
40
0
40
0
40
1
40
1
40
1
40
1
41
1
10
-44.4179491924311
20
2.58674174769885
30
-2E-16
41
1
10
-44.3619874615587
20
2.62666069438586
30
-2E-16
41
1
10
-44.3060036666724
20
2.66656448548815
30
-2E-16
41
1
10
-44.25
20
2.7064546268287
30
-2E-16
0
SPLINE
5
117
100
AcDbEntity
8
SK1
62
256
6
ByLayer
370
18
48
1
60
0
100
AcDbSpline
70
4
71
3
72
12
73
8
40
0
40
0
40
0
40
0
40
0.250000000000001
40
0.250000000000001
40
0.500000000000002
40
0.500000000000002
40
1
40
1
40
1
40
1
41
1
10
-44.15
20
4.15161495820624
30
2E-16
41
1
10
-44.15
20
4.16142382160839
30
2E-16
41
1
10
-44.1541964903379
20
4.16752211961474
30
2E-16
41
1
10
-44.1670510016405
20
4.17336247298488
30
2E-16
41
1
10
-44.1755314964661
20
4.17327815039431
30
2E-16
41
1
10
-44.2039103264456
20
4.16715883979793
30
2E-16
41
1
10
-44.2265803533262
20
4.15549628191263
30
2E-16
41
1
10
-44.25
20
4.13881499885611
30
2E-16
0
SPLINE
5
118
100
AcDbEntity
8
1
62
256
6
ByLayer
370
18
48
1
60
0
100
AcDbSpline
70
4
71
1
72
4
73
2
40
0
40
0
40
1
40
1
41
1
10
53.1288842682337
20
0.0003479746732182
30
0
41
1
10
53.1289018470654
20
0.0003522117379475
30
0
0
SPLINE
5
119
100
AcDbEntity
8
1
62
256
6
ByLayer
370
18
48
1
60
0
100
AcDbSpline
70
4
71
1
72
4
73
2
40
0
40
0
40
1
40
1
41
1
10
29.6389948401759
20
4.24970710212648
30
0
41
1
10
28.0751268665932
20
5.81236768011846
30
0
0
SPLINE
5
11A
100
AcDbEntity
8
1
62
256
6
ByLayer
370
18
48
1
60
0
100
AcDbSpline
70
4
71
2
72
6
73
3
40
0
40
0
40
0
40
1
40
1
40
1
41
1
10
53.128901751229
20
-0.0003521899371037
30
0
41
1
10
53.1288917537006
20
-0.0003499040016379
30
0
41
1
10
53.1288817562988
20
-0.0003473614129632
30
0
0
SPLINE
5
11B
100
AcDbEntity
8
1
62
256
6
ByLayer
370
18
48
1
60
0
100
AcDbSpline
70
4
71
2
72
6
73
3
40
0
40
0
40
0
40
1
40
1
40
1
41
1
10
42.4137071601209
20
0.0024661717685319
30
0
41
1
10
42.4136890010312
20
0.0024727531690019
30
0
41
1
10
42.4136708420459
20
0.0024799041480605
30
0
0
SPLINE
5
11C
100
AcDbEntity
8
1
62
256
6
ByLayer
370
18
48
1
60
0
100
AcDbSpline
70
4
71
3
72
19
73
15
40
0
40
0
40
0
40
0
40
0.12217746611652
40
0.215488705301927
40
0.273331906009623
40
0.333495806156207
40
0.40007017728166
40
0.540782473007517
40
0.68381193913003
40
0.754031215579709
40
0.818997732218186
40
0.884039844859858
40
0.951350190278861
40
1
40
1
40
1
40
1
41
1
10
29.7367962366664
20
-4.06898022661355
30
0
41
1
10
29.9953392159121
20
-4.06955964477268
30
0
41
1
10
30.4513535069881
20
-4.07033741871768
30
0
41
1
10
31.0297514233766
20
-4.07070775603663
30
0
41
1
10
31.4770035270533
20
-4.07078547175195
30
0
41
1
10
31.8676529196364
20
-4.07082978393296
30
0
41
1
10
32.4336937614993
20
-4.0710398466409
30
0
41
1
10
33.1751036515769
20
-4.07260036052486
30
0
41
1
10
33.9242546434871
20
-4.07258158641616
30
0
41
1
10
34.5130389449188
20
-4.07263496604375
30
0
41
1
10
34.9369102432537
20
-4.07298033026666
30
0
41
1
10
35.3539169737277
20
-4.07413714207777
30
0
41
1
10
35.7369544170515
20
-4.07425069968414
30
0
41
1
10
35.9823513166897
20
-4.07418185774742
30
0
41
1
10
36.085301657455
20
-4.07413345636854
30
0
0
SPLINE
5
11D
100
AcDbEntity
8
1
62
256
6
ByLayer
370
18
48
1
60
0
100
AcDbSpline
70
4
71
3
72
23
73
19
40
0
40
0
40
0
40
0
40
0.0790624491884649
40
0.143313481509232
40
0.220119192569247
40
0.26322287521513
40
0.307075450100635
40
0.354068142150185
40
0.407433477007898
40
0.468647310834182
40
0.533156343899192
40
0.589213576194463
40
0.691747210472704
40
0.784674244037453
40
0.832350822485856
40
0.897251928440058
40
0.995727743070676
40
1
40
1
40
1
40
1
41
1
10
38.8729108128729
20
4.07598396486901
30
0
41
1
10
38.6571615572984
20
4.07564000175117
30
0
41
1
10
38.2660387678992
20
4.07506982183648
30
0
41
1
10
37.6652065241124
20
4.07488394309922
30
0
41
1
10
37.1623887402336
20
4.07385611845478
30
0
41
1
10
36.7155817180582
20
4.07375197900254
30
0
41
1
10
36.3499474766571
20
4.07405000875798
30
0
41
1
10
35.9562789235459
20
4.07436739484109
30
0
41
1
10
35.5152215968061
20
4.07444848942268
30
0
41
1
10
35.0263481992429
20
4.07320133795557
30
0
41
1
10
34.5301263215706
20
4.07259971894814
30
0
41
1
10
33.9211104627291
20
4.07259513807349
30
0
41
1
10
33.234516810557
20
4.07261647486888
30
0
41
1
10
32.5708045358429
20
4.07127116725303
30
0
41
1
10
32.009815321218
20
4.070844822049
30
0
41
1
10
31.4337032528102
20
4.07078325126136
30
0
41
1
10
30.9761024195827
20
4.07067703240415
30
0
41
1
10
30.6956394490708
20
4.07043352035527
30
0
41
1
10
30.6839778023233
20
4.07042308967806
30
0
0
SPLINE
5
11E
100
AcDbEntity
8
1
62
256
6
ByLayer
370
18
48
1
60
0
100
AcDbSpline
70
4
71
3
72
24
73
20
40
0
40
0
40
0
40
0
40
1.45856347307E-05
40
1.45856347307E-05
40
2.58255992681E-05
40
2.58255992681E-05
40
0.0012949296600722
40
0.0022870486382226
40
0.0040648935022342
40
0.0072563632436371
40
0.01300543582028
40
0.0234324645285523
40
0.0425730624260986
40
0.0784578563099611
40
0.148175329549587
40
0.291142423661412
40
0.607790440078844
40
0.980235516495482
40
1
40
1
40
1
40
1
41
1
10
54.2901315627366
20
0.221591624718741
30
0
41
1
10
54.2901433640053
20
0.221588537118521
30
0
41
1
10
54.2901560411886
20
0.221585193860761
30
0
41
1
10
54.2901727378845
20
0.221580983513519
30
0
41
1
10
54.2901856345516
20
0.221577805517285
30
0
41
1
10
54.2894862330754
20
0.221856472328227
30
0
41
1
10
54.2879728330473
20
0.222384232150091
30
0
41
1
10
54.2855363510493
20
0.223291682263607
30
0
41
1
10
54.2818250677701
20
0.224648938773498
30
0
41
1
10
54.2751781379345
20
0.227088161830892
30
0
41
1
10
54.263042597961
20
0.231518358535425
30
0
41
1
10
54.2406459885775
20
0.239654358667423
30
0
41
1
10
54.1982131879097
20
0.25493615447823
30
0
41
1
10
54.1145065235381
20
0.284752021367638
30
0
41
1
10
53.9389447216587
20
0.346782968920053
30
0
41
1
10
53.5425223380225
20
0.487901445012994
30
0
41
1
10
52.8817211055394
20
0.74341676485713
30
0
41
1
10
52.3063199776577
20
0.977881467657227
30
-1E-16
41
1
10
51.9989585447057
20
1.12654806547087
30
-1E-16
41
1
10
51.9834792736465
20
1.13407097538649
30
-1E-16
0
SPLINE
5
11F
100
AcDbEntity
8
1
62
256
6
ByLayer
370
18
48
1
60
0
100
AcDbSpline
70
4
71
2
72
6
73
3
40
0
40
0
40
0
40
1
40
1
40
1
41
1
10
23.3995594511823
20
1.17093145191936
30
-1E-16
41
1
10
22.2465556759375
20
1.70154664533868
30
-1E-16
41
1
10
21.1377525428469
20
2.35239257482979
30
-1E-16
0
LINE
5
88
100
AcDbEntity
8
1
62
256
6
ByLayer
370
18
48
1
60
0
100
AcDbLine
10
0.387298
20
5.9
30
0
11
0.387298
21
0
31
0
39
0
210
0
220
0
230
1
0
LINE
5
89
100
AcDbEntity
8
1
62
256
6
ByLayer
370
18
48
1
60
0
100
AcDbLine
10
0.387298
20
0
30
0
11
0.387298
21
-5.9
31
0
39
0
210
0
220
0
230
1
0
LINE
5
8A
100
AcDbEntity
8
1
62
256
6
ByLayer
370
18
48
1
60
0
100
AcDbLine
10
29.960839
20
-1.849769
30
0
11
29.960839
21
-2.377198
31
0
39
0
210
0
220
0
230
1
0
LINE
5
8B
100
AcDbEntity
8
1
62
256
6
ByLayer
370
18
48
1
60
0
100
AcDbLine
10
29.946684
20
-2.374843
30
0
11
29.946684
21
-1.847719
31
0
39
0
210
0
220
0
230
1
0
LINE
5
8C
100
AcDbEntity
8
1
62
256
6
ByLayer
370
18
48
1
60
0
100
AcDbLine
10
29.63662
20
-4.6
30
0
11
29.63662
21
-2.550664
31
0
39
0
210
0
220
0
230
1
0
LINE
5
8D
100
AcDbEntity
8
1
62
256
6
ByLayer
370
18
48
1
60
0
100
AcDbLine
10
15.000383
20
5.799999
30
0
11
15.000219
21
5.799464
31
0
39
0
210
0
220
0
230
1
0
LINE
5
8E
100
AcDbEntity
8
1
62
256
6
ByLayer
370
18
48
1
60
0
100
AcDbLine
10
0.774597
20
5.8
30
0
11
0.774597
21
0
31
0
39
0
210
0
220
0
230
1
0
LINE
5
8F
100
AcDbEntity
8
1
62
256
6
ByLayer
370
18
48
1
60
0
100
AcDbLine
10
0.774597
20
0
30
0
11
0.774597
21
-5.8
31
0
39
0
210
0
220
0
230
1
0
LINE
5
90
100
AcDbEntity
8
1
62
256
6
ByLayer
370
18
48
1
60
0
100
AcDbLine
10
56.940036
20
0.051765
30
0
11
55.729044
21
1.38849
31
0
39
0
210
0
220
0
230
1
0
LINE
5
91
100
AcDbEntity
8
1
62
256
6
ByLayer
370
18
48
1
60
0
100
AcDbLine
10
28.43662
20
-5.8
30
0
11
28.43662
21
-2.192429
31
0
39
0
210
0
220
0
230
1
0
LINE
5
92
100
AcDbEntity
8
1
62
256
6
ByLayer
370
18
48
1
60
0
100
AcDbLine
10
0
20
6
30
0
11
0
21
0
31
0
39
0
210
0
220
0
230
1
0
LINE
5
93
100
AcDbEntity
8
1
62
256
6
ByLayer
370
18
48
1
60
0
100
AcDbLine
10
0
20
0
30
0
11
0
21
-6
31
0
39
0
210
0
220
0
230
1
0
LINE
5
94
100
AcDbEntity
8
SK1
62
256
6
ByLayer
370
18
48
1
60
0
100
AcDbLine
10
-45
20
-4.255
30
0
11
-45
21
1.569374
31
0
39
0
210
0
220
0
230
1
0
LINE
5
96
100
AcDbEntity
8
SK1
62
256
6
ByLayer
370
18
48
1
60
0
100
AcDbLine
10
0
20
6
30
0
11
0
21
-6
31
0
39
0
210
0
220
0
230
1
0
LINE
5
97
100
AcDbEntity
8
SK1
62
256
6
ByLayer
370
18
48
1
60
0
100
AcDbLine
10
-43.255
20
-6
30
0
11
-43.255
21
6
31
0
39
0
210
0
220
0
230
1
0
LINE
5
98
100
AcDbEntity
8
SK1
62
256
6
ByLayer
370
18
48
1
60
0
100
AcDbLine
10
-44.417949
20
2.586666
30
0
11
-44.417949
21
4.019102
31
0
39
0
210
0
220
0
230
1
0
LINE
5
99
100
AcDbEntity
8
SK1
62
256
6
ByLayer
370
18
48
1
60
0
100
AcDbLine
10
-45
20
1.569374
30
0
11
-45
21
3.913155
31
0
39
0
210
0
220
0
230
1
0
LINE
5
9A
100
AcDbEntity
8
SK1
62
256
6
ByLayer
370
18
48
1
60
0
100
AcDbLine
10
-44.25
20
2.706442
30
0
11
-44.25
21
4.138815
31
0
39
0
210
0
220
0
230
1
0
LINE
5
9B
100
AcDbEntity
8
SK1
62
256
6
ByLayer
370
18
48
1
60
0
100
AcDbLine
10
-45
20
3.913155
30
0
11
-45
21
4.255
31
0
39
0
210
0
220
0
230
1
0
LINE
5
9C
100
AcDbEntity
8
SK1
62
256
6
ByLayer
370
18
48
1
60
0
100
AcDbLine
10
-44.15
20
2.862491
30
0
11
-44.15
21
4.151615
31
0
39
0
210
0
220
0
230
1
0
LINE
5
9D
100
AcDbEntity
8
1
62
256
6
ByLayer
370
18
48
1
60
0
100
AcDbLine
10
38.8751
20
-4.289649
30
0
11
40.156639
21
-4.29045
31
0
39
0
210
0
220
0
230
1
0
LINE
5
9E
100
AcDbEntity
8
1
62
256
6
ByLayer
370
18
48
1
60
0
100
AcDbLine
10
28.43662
20
-5.8
30
0
11
29.63662
21
-4.6
31
0
39
0
210
0
220
0
230
1
0
LINE
5
9F
100
AcDbEntity
8
1
62
256
6
ByLayer
370
18
48
1
60
0
100
AcDbLine
10
40.156639
20
4.29045
30
0
11
38.8751
21
4.289649
31
0
39
0
210
0
220
0
230
1
0
LINE
5
A0
100
AcDbEntity
8
1
62
256
6
ByLayer
370
18
48
1
60
0
100
AcDbLine
10
28.089862
20
5.8
30
0
11
25.948859
21
5.8
31
0
39
0
210
0
220
0
230
1
0
LINE
5
A1
100
AcDbEntity
8
1
62
256
6
ByLayer
370
18
48
1
60
0
100
AcDbLine
10
15.011566
20
5.8
30
0
11
0.774597
21
5.8
31
0
39
0
210
0
220
0
230
1
0
LINE
5
A2
100
AcDbEntity
8
1
62
256
6
ByLayer
370
18
48
1
60
0
100
AcDbLine
10
0.774597
20
-5.8
30
0
11
15.011566
21
-5.8
31
0
39
0
210
0
220
0
230
1
0
LINE
5
A3
100
AcDbEntity
8
1
62
256
6
ByLayer
370
18
48
1
60
0
100
AcDbLine
10
25.949503
20
-5.8
30
0
11
28.43662
21
-5.8
31
0
39
0
210
0
220
0
230
1
0
LINE
5
A4
100
AcDbEntity
8
SK1
62
256
6
ByLayer
370
18
48
1
60
0
100
AcDbLine
10
-45
20
-4.255
30
0
11
-43.255
21
-6
31
0
39
0
210
0
220
0
230
1
0
LINE
5
A5
100
AcDbEntity
8
SK1
62
256
6
ByLayer
370
18
48
1
60
0
100
AcDbLine
10
-43.255
20
6
30
0
11
-45
21
4.255
31
0
39
0
210
0
220
0
230
1
0
LINE
5
A6
100
AcDbEntity
8
SK1
62
256
6
ByLayer
370
18
48
1
60
0
100
AcDbLine
10
-43.255
20
-6
30
0
11
0
21
-6
31
0
39
0
210
0
220
0
230
1
0
LINE
5
A7
100
AcDbEntity
8
SK1
62
256
6
ByLayer
370
18
48
1
60
0
100
AcDbLine
10
0
20
6
30
0
11
-43.255
21
6
31
0
39
0
210
0
220
0
230
1
0
LINE
5
A8
100
AcDbEntity
8
SK4
62
256
6
ByLayer
370
18
48
0.05
60
0
100
AcDbLine
10
62
20
0
30
0
11
-50
21
0
31
0
39
0
210
0
220
0
230
1
0
LINE
5
AA
100
AcDbEntity
8
4
62
256
6
ByLayer
370
18
48
0.05
60
0
100
AcDbLine
10
-45
20
0
30
0
11
62
21
0
31
0
39
0
210
0
220
0
230
1
0
LINE
5
AC
100
AcDbEntity
8
80
62
256
6
ByLayer
370
18
48
1
60
0
100
AcDbLine
10
0
20
0
30
0
11
-6
21
0
31
0
39
0
210
0
220
0
230
1
0
LINE
5
AD
100
AcDbEntity
8
81
62
256
6
ByLayer
370
18
48
1
60
0
100
AcDbLine
10
57
20
0
30
0
11
63
21
0
31
0
39
0
210
0
220
0
230
1
0
LINE
5
AE
100
AcDbEntity
8
SK2
62
256
6
ByLayer
370
13
48
1
60
0
100
AcDbLine
10
57.542966
20
1.491759
30
0
11
64.926442
21
21.777331
31
0
39
0
210
0
220
0
230
1
0
LINE
5
B0
100
AcDbEntity
8
SK2
62
256
6
ByLayer
370
13
48
1
60
0
100
AcDbLine
10
57.542966
20
-1.491759
30
0
11
64.926442
21
-21.777331
31
0
39
0
210
0
220
0
230
1
0
LINE
5
B1
100
AcDbEntity
8
1
62
256
6
ByLayer
370
13
48
1
60
0
100
AcDbLine
10
63.840511
20
18.793813
30
0
11
66.937097
21
17.977423
31
0
39
0
210
0
220
0
230
1
0
LINE
5
B2
100
AcDbEntity
8
1
62
256
6
ByLayer
370
13
48
1
60
0
100
AcDbLine
10
63.840511
20
18.793813
30
0
11
66.620289
21
17.203784
31
0
39
0
210
0
220
0
230
1
0
LINE
5
B3
100
AcDbEntity
8
1
62
256
6
ByLayer
370
13
48
1
60
0
100
AcDbLine
10
66.937097
20
17.977423
30
0
11
66.620289
21
17.203784
31
0
39
0
210
0
220
0
230
1
0
LINE
5
B4
100
AcDbEntity
8
1
62
256
6
ByLayer
370
13
48
1
60
0
100
AcDbLine
10
63.840511
20
-18.793813
30
0
11
66.620286
21
-17.203785
31
0
39
0
210
0
220
0
230
1
0
LINE
5
B5
100
AcDbEntity
8
1
62
256
6
ByLayer
370
13
48
1
60
0
100
AcDbLine
10
63.840511
20
-18.793813
30
0
11
66.9371
21
-17.977422
31
0
39
0
210
0
220
0
230
1
0
LINE
5
B6
100
AcDbEntity
8
1
62
256
6
ByLayer
370
13
48
1
60
0
100
AcDbLine
10
66.620286
20
-17.203785
30
0
11
66.9371
21
-17.977422
31
0
39
0
210
0
220
0
230
1
0
LINE
5
B7
100
AcDbEntity
8
SK2
62
256
6
ByLayer
370
13
48
1
60
0
100
AcDbLine
10
28.786372
20
-5.148528
30
0
11
19.580632
21
-14.354268
31
0
39
0
210
0
220
0
230
1
0
LINE
5
B8
100
AcDbEntity
8
SK2
62
256
6
ByLayer
370
13
48
1
60
0
100
AcDbLine
10
28.786372
20
5.148528
30
0
11
19.580632
21
14.354268
31
0
39
0
210
0
220
0
230
1
0
LINE
5
B9
100
AcDbEntity
8
1
62
256
6
ByLayer
370
13
48
1
60
0
100
AcDbLine
10
20.287739
20
-13.647161
30
0
11
18.758164
21
-12.341564
31
0
39
0
210
0
220
0
230
1
0
LINE
5
BA
100
AcDbEntity
8
1
62
256
6
ByLayer
370
13
48
1
60
0
100
AcDbLine
10
20.287739
20
-13.647161
30
0
11
19.063037
21
-12.052076
31
0
39
0
210
0
220
0
230
1
0
LINE
5
BB
100
AcDbEntity
8
1
62
256
6
ByLayer
370
13
48
1
60
0
100
AcDbLine
10
18.758164
20
-12.341564
30
0
11
19.063037
21
-12.052076
31
0
39
0
210
0
220
0
230
1
0
LINE
5
BC
100
AcDbEntity
8
1
62
256
6
ByLayer
370
13
48
1
60
0
100
AcDbLine
10
20.287739
20
13.647161
30
0
11
19.063038
21
12.052078
31
0
39
0
210
0
220
0
230
1
0
LINE
5
BD
100
AcDbEntity
8
1
62
256
6
ByLayer
370
13
48
1
60
0
100
AcDbLine
10
20.287739
20
13.647161
30
0
11
18.758163
21
12.341563
31
0
39
0
210
0
220
0
230
1
0
LINE
5
BE
100
AcDbEntity
8
1
62
256
6
ByLayer
370
13
48
1
60
0
100
AcDbLine
10
19.063038
20
12.052078
30
0
11
18.758163
21
12.341563
31
0
39
0
210
0
220
0
230
1
0
MTEXT
5
120
100
AcDbEntity
8
SK2
62
256
6
ByLayer
370
18
48
1
60
0
100
AcDbMText
10
70.717388
20
-2.467451
30
0
210
0
220
0
230
1
1
\W0.7237;140.00
40
3.50012
41
0
44
1.084337
50
0
71
7
72
5
7
iso_b_vert
0
MTEXT
5
123
100
AcDbEntity
8
SK2
62
256
6
ByLayer
370
18
48
1
60
0
100
AcDbMText
10
10.713067
20
-2.467451
30
0
210
0
220
0
230
1
1
\W0.7346;90.0
40
3.50012
41
0
44
1.084337
50
0
71
7
72
5
7
iso_b_vert
0
MTEXT
5
124
100
AcDbEntity
8
SK6
62
256
6
ByLayer
370
18
48
1
60
0
100
AcDbMText
10
-33.331725
20
-88.825754
30
0
210
0
220
0
230
1
1
\W0.7561;860.2-0860-028A1-GM X1BM
40
3.175
41
0
44
1.084337
50
0
71
7
72
5
7
iso_b_vert
0
DIMENSION
5
127
100
AcDbEntity
8
SK2
62
256
6
ByLayer
370
18
48
1
60
0
100
AcDbDimension
2
_U0
10
57
20
-29.50012
30
0
11
28.5
21
-29.50012
31
0
70
32
71
2
72
1
41
1
210
0
220
0
230
1
3
Standard
100
AcDbAlignedDimension
13
0
23
-6
33
0
14
57
24
0
34
0
50
0
100
AcDbRotatedDimension
1001
ACAD
1000
DSTYLE
1002
{
1070
   371
1070
    13
1070
   372
1070
    13
1070
     3
1000

1070
   170
1070
     0
1070
   144
1040
1.0
1070
   277
1070
     2
1070
   284
1070
     8
1070
   278
1070
    46
1070
   146
1040
0.999966
1070
   345
1005
16
1070
   347
1005
16
1070
   346
1005
16
1070
   344
1005
128
1070
   343
1005
128
1070
   172
1070
     1
1070
    76
1070
     0
1070
    75
1070
     0
1070
   282
1070
     0
1070
   281
1070
     0
1070
    71
1070
     0
1070
    74
1070
     0
1070
   279
1070
     0
1070
   173
1070
     1
1070
   340
1005
121
1070
   271
1070
     1
1070
   272
1070
     2
1070
    77
1070
     1
1070
    73
1070
     1
1070
   171
1070
     3
1070
   274
1070
     4
1070
   177
1070
   150
1070
   176
1070
     9
1070
   178
1070
    43
1070
    78
1070
     8
1070
    48
1040
-0.1
1070
    41
1040
3.175
1070
   147
1040
1.75006
1070
    42
1040
1.5875
1070
    44
1040
3.175
1070
   140
1040
3.50012
1002
}
1001
ACAD_DSTYLE_DIM_LINETYPE
1070
   380
1005
16
1001
ACAD_DSTYLE_DIM_EXT1_LINETYPE
1070
   381
1005
16
1001
ACAD_DSTYLE_DIM_EXT2_LINETYPE
1070
   382
1005
16
0
DIMENSION
5
14D
100
AcDbEntity
8
2
62
256
6
ByLayer
370
18
48
1
60
0
100
AcDbDimension
2
_U1
10
63.75006
20
4.3
30
0
11
63.75006
21
19.873233
31
0
70
32
71
1
72
1
41
1
210
0
220
0
230
1
3
Standard
100
AcDbAlignedDimension
13
55.4349
23
-4.3
33
0
14
55.4349
24
4.3
34
0
50
90
100
AcDbRotatedDimension
1001
ACAD
1000
DSTYLE
1002
{
1070
   371
1070
    13
1070
   372
1070
    13
1070
     3
1000

1070
   170
1070
     0
1070
   144
1040
1.0
1070
   277
1070
     2
1070
   284
1070
     8
1070
   278
1070
    46
1070
   146
1040
0.999966
1070
   345
1005
16
1070
   347
1005
16
1070
   346
1005
16
1070
   344
1005
128
1070
   343
1005
128
1070
   172
1070
     1
1070
    76
1070
     0
1070
    75
1070
     0
1070
   282
1070
     0
1070
   281
1070
     0
1070
    71
1070
     0
1070
    74
1070
     0
1070
   279
1070
     0
1070
   173
1070
     1
1070
   340
1005
121
1070
   271
1070
     1
1070
   272
1070
     2
1070
    77
1070
     1
1070
    73
1070
     0
1070
   171
1070
     3
1070
   274
1070
     4
1070
   177
1070
   150
1070
   176
1070
     9
1070
   178
1070
    43
1070
    78
1070
     8
1070
    48
1040
-0.1
1070
    41
1040
3.175
1070
   147
1040
1.75006
1070
    42
1040
1.5875
1070
    44
1040
3.175
1070
   140
1040
3.50012
1002
}
1001
ACAD_DSTYLE_DIM_LINETYPE
1070
   380
1005
16
1001
ACAD_DSTYLE_DIM_EXT1_LINETYPE
1070
   381
1005
16
1001
ACAD_DSTYLE_DIM_EXT2_LINETYPE
1070
   382
1005
16
0
DIMENSION
5
16C
100
AcDbEntity
8
SK2
62
256
6
ByLayer
370
18
48
1
60
0
100
AcDbDimension
2
_U2
10
-48.24994
20
-6
30
0
11
-48.24994
21
20.97767
31
0
70
32
71
1
72
1
41
1
210
0
220
0
230
1
3
Standard
100
AcDbAlignedDimension
13
-45
23
6
33
0
14
-45
24
-6
34
0
50
90
100
AcDbRotatedDimension
1001
ACAD
1000
DSTYLE
1002
{
1070
   371
1070
    13
1070
   372
1070
    13
1070
     3
1000

1070
   170
1070
     0
1070
   144
1040
1.0
1070
   277
1070
     2
1070
   284
1070
     8
1070
   278
1070
    46
1070
   146
1040
0.999966
1070
   345
1005
16
1070
   347
1005
16
1070
   346
1005
16
1070
   344
1005
128
1070
   343
1005
128
1070
   172
1070
     1
1070
    76
1070
     0
1070
    75
1070
     0
1070
   282
1070
     0
1070
   281
1070
     0
1070
    71
1070
     0
1070
    74
1070
     0
1070
   279
1070
     0
1070
   173
1070
     1
1070
   340
1005
121
1070
   271
1070
     1
1070
   272
1070
     2
1070
    77
1070
     1
1070
    73
1070
     0
1070
   171
1070
     3
1070
   274
1070
     4
1070
   177
1070
   150
1070
   176
1070
     9
1070
   178
1070
    43
1070
    78
1070
     8
1070
    48
1040
-0.1
1070
    41
1040
3.175
1070
   147
1040
1.75006
1070
    42
1040
1.5875
1070
    44
1040
3.175
1070
   140
1040
3.50012
1002
}
1001
ACAD_DSTYLE_DIM_LINETYPE
1070
   380
1005
16
1001
ACAD_DSTYLE_DIM_EXT1_LINETYPE
1070
   381
1005
16
1001
ACAD_DSTYLE_DIM_EXT2_LINETYPE
1070
   382
1005
16
0
DIMENSION
5
18A
100
AcDbEntity
8
2
62
256
6
ByLayer
370
18
48
1
60
0
100
AcDbDimension
2
_U3
10
72.35012
20
-5.8
30
0
11
72.35012
21
27.959921
31
0
70
32
71
1
72
1
41
1
210
0
220
0
230
1
3
Standard
100
AcDbAlignedDimension
13
28.1349
23
5.8
33
0
14
28.1349
24
-5.8
34
0
50
90
100
AcDbRotatedDimension
1001
ACAD
1000
DSTYLE
1002
{
1070
   371
1070
    13
1070
   372
1070
    13
1070
     3
1000

1070
   170
1070
     0
1070
   144
1040
1.0
1070
   277
1070
     2
1070
   284
1070
     8
1070
   278
1070
    46
1070
   146
1040
0.999966
1070
   345
1005
16
1070
   347
1005
16
1070
   346
1005
16
1070
   344
1005
128
1070
   343
1005
128
1070
   172
1070
     1
1070
    76
1070
     0
1070
    75
1070
     0
1070
   282
1070
     0
1070
   281
1070
     0
1070
    71
1070
     0
1070
    74
1070
     0
1070
   279
1070
     0
1070
   173
1070
     1
1070
   340
1005
121
1070
   271
1070
     1
1070
   272
1070
     2
1070
    77
1070
     1
1070
    73
1070
     0
1070
   171
1070
     3
1070
   274
1070
     4
1070
   177
1070
   150
1070
   176
1070
     9
1070
   178
1070
    43
1070
    78
1070
     8
1070
    48
1040
-0.1
1070
    41
1040
3.0
1070
   147
1040
1.75006
1070
    42
1040
0.5
1070
    44
1040
1.0
1070
   140
1040
3.50012
1002
}
1001
ACAD_DSTYLE_DIM_LINETYPE
1070
   380
1005
16
1001
ACAD_DSTYLE_DIM_EXT1_LINETYPE
1070
   381
1005
16
1001
ACAD_DSTYLE_DIM_EXT2_LINETYPE
1070
   382
1005
16
0
DIMENSION
5
1A8
100
AcDbEntity
8
SK2
62
256
6
ByLayer
370
18
48
1
60
0
100
AcDbDimension
2
_U4
10
0
20
-29.50012
30
0
11
-22.5
21
-29.50012
31
0
70
32
71
1
72
1
41
1
210
0
220
0
230
1
3
Standard
100
AcDbAlignedDimension
13
-45
23
-6
33
0
14
0
24
-6
34
0
50
0
100
AcDbRotatedDimension
1001
ACAD
1000
DSTYLE
1002
{
1070
   371
1070
    13
1070
   372
1070
    13
1070
     3
1000

1070
   170
1070
     0
1070
   144
1040
1.0
1070
   277
1070
     2
1070
   284
1070
     8
1070
   278
1070
    46
1070
   146
1040
0.999966
1070
   345
1005
16
1070
   347
1005
16
1070
   346
1005
16
1070
   344
1005
128
1070
   343
1005
128
1070
   172
1070
     1
1070
    76
1070
     0
1070
    75
1070
     0
1070
   282
1070
     0
1070
   281
1070
     0
1070
    71
1070
     0
1070
    74
1070
     0
1070
   279
1070
     0
1070
   173
1070
     1
1070
   340
1005
121
1070
   271
1070
     1
1070
   272
1070
     2
1070
    77
1070
     1
1070
    73
1070
     1
1070
   171
1070
     3
1070
   274
1070
     4
1070
   177
1070
   150
1070
   176
1070
     9
1070
   178
1070
    43
1070
    78
1070
     8
1070
    48
1040
-0.1
1070
    41
1040
3.175
1070
   147
1040
1.75006
1070
    42
1040
1.5875
1070
    44
1040
3.175
1070
   140
1040
3.50012
1002
}
1001
ACAD_DSTYLE_DIM_LINETYPE
1070
   380
1005
16
1001
ACAD_DSTYLE_DIM_EXT1_LINETYPE
1070
   381
1005
16
1001
ACAD_DSTYLE_DIM_EXT2_LINETYPE
1070
   382
1005
16
0
DIMENSION
5
1C4
100
AcDbEntity
8
SK2
62
256
6
ByLayer
370
18
48
1
60
0
100
AcDbDimension
2
_U5
10
57
20
-20.74982
30
0
11
36
21
-20.74982
31
0
70
32
71
1
72
1
41
1
210
0
220
0
230
1
3
Standard
100
AcDbAlignedDimension
13
15
23
4.8
33
0
14
57
24
0
34
0
50
0
100
AcDbRotatedDimension
1001
ACAD
1000
DSTYLE
1002
{
1070
   371
1070
    13
1070
   372
1070
    13
1070
     3
1000

1070
   170
1070
     0
1070
   144
1040
1.0
1070
   277
1070
     2
1070
   284
1070
     8
1070
   278
1070
    46
1070
   146
1040
0.999966
1070
   345
1005
16
1070
   347
1005
16
1070
   346
1005
16
1070
   344
1005
128
1070
   343
1005
128
1070
   172
1070
     1
1070
    76
1070
     0
1070
    75
1070
     0
1070
   282
1070
     0
1070
   281
1070
     0
1070
    71
1070
     0
1070
    74
1070
     0
1070
   279
1070
     0
1070
   173
1070
     1
1070
   340
1005
121
1070
   271
1070
     1
1070
   272
1070
     2
1070
    77
1070
     1
1070
    73
1070
     1
1070
   171
1070
     3
1070
   274
1070
     4
1070
   177
1070
   150
1070
   176
1070
     9
1070
   178
1070
    43
1070
    78
1070
     8
1070
    48
1040
-0.1
1070
    41
1040
3.175
1070
   147
1040
1.75006
1070
    42
1040
1.5875
1070
    44
1040
3.175
1070
   140
1040
3.50012
1002
}
1001
ACAD_DSTYLE_DIM_LINETYPE
1070
   380
1005
16
1001
ACAD_DSTYLE_DIM_EXT1_LINETYPE
1070
   381
1005
16
1001
ACAD_DSTYLE_DIM_EXT2_LINETYPE
1070
   382
1005
16
0
DIMENSION
5
1E0
100
AcDbEntity
8
SK2
62
256
6
ByLayer
370
18
48
1
60
0
100
AcDbDimension
2
_U6
10
57
20
-12.82
30
0
11
42.55
21
-12.82
31
0
70
32
71
1
72
1
41
1
210
0
220
0
230
1
3
Standard
100
AcDbAlignedDimension
13
28.1
23
-4.3
33
0
14
57
24
0
34
0
50
0
100
AcDbRotatedDimension
1001
ACAD
1000
DSTYLE
1002
{
1070
   371
1070
    13
1070
   372
1070
    13
1070
     3
1000

1070
   170
1070
     0
1070
   144
1040
1.0
1070
   277
1070
     2
1070
   284
1070
     8
1070
   278
1070
    46
1070
   146
1040
1.25
1070
   345
1005
16
1070
   347
1005
16
1070
   346
1005
16
1070
   344
1005
128
1070
   343
1005
128
1070
   172
1070
     1
1070
    76
1070
     0
1070
    75
1070
     0
1070
   282
1070
     0
1070
   281
1070
     0
1070
    71
1070
     0
1070
    74
1070
     0
1070
   279
1070
     0
1070
   173
1070
     1
1070
   340
1005
121
1070
   271
1070
     1
1070
   272
1070
     2
1070
    77
1070
     1
1070
    73
1070
     1
1070
   171
1070
     3
1070
   274
1070
     4
1070
   177
1070
   150
1070
   176
1070
     9
1070
   178
1070
    43
1070
    78
1070
     8
1070
    48
1040
-0.1
1070
    41
1040
3.175
1070
   147
1040
0.42
1070
    42
1040
1.5875
1070
    44
1040
0.5
1070
   140
1040
2.8
1002
}
1001
ACAD_DSTYLE_DIM_LINETYPE
1070
   380
1005
16
1001
ACAD_DSTYLE_DIM_EXT1_LINETYPE
1070
   381
1005
16
1001
ACAD_DSTYLE_DIM_EXT2_LINETYPE
1070
   382
1005
16
0
DIMENSION
5
1FC
100
AcDbEntity
8
SK2
62
256
6
ByLayer
370
18
48
1
60
0
100
AcDbDimension
2
_U7
10
57
20
-39.50012
30
0
11
6
21
-39.50012
31
0
70
32
71
1
72
1
41
1
210
0
220
0
230
1
3
Standard
100
AcDbAlignedDimension
13
-45
23
0
33
0
14
57
24
0
34
0
50
0
100
AcDbRotatedDimension
1001
ACAD
1000
DSTYLE
1002
{
1070
   371
1070
    13
1070
   372
1070
    13
1070
     3
1000

1070
   170
1070
     0
1070
   144
1040
1.0
1070
   277
1070
     2
1070
   284
1070
     8
1070
   278
1070
    46
1070
   146
1040
0.999966
1070
   345
1005
16
1070
   347
1005
16
1070
   346
1005
16
1070
   344
1005
128
1070
   343
1005
128
1070
   172
1070
     1
1070
    76
1070
     0
1070
    75
1070
     0
1070
   282
1070
     0
1070
   281
1070
     0
1070
    71
1070
     0
1070
    74
1070
     0
1070
   279
1070
     0
1070
   173
1070
     1
1070
   340
1005
121
1070
   271
1070
     1
1070
   272
1070
     2
1070
    77
1070
     1
1070
    73
1070
     1
1070
   171
1070
     3
1070
   274
1070
     4
1070
   177
1070
   150
1070
   176
1070
     9
1070
   178
1070
    43
1070
    78
1070
     8
1070
    48
1040
-0.1
1070
    41
1040
3.175
1070
   147
1040
1.75006
1070
    42
1040
1.5875
1070
    44
1040
3.175
1070
   140
1040
3.50012
1002
}
1001
ACAD_DSTYLE_DIM_LINETYPE
1070
   380
1005
16
1001
ACAD_DSTYLE_DIM_EXT1_LINETYPE
1070
   381
1005
16
1001
ACAD_DSTYLE_DIM_EXT2_LINETYPE
1070
   382
1005
16
0
DIMENSION
5
218
100
AcDbEntity
8
SK2
62
256
6
ByLayer
370
18
48
1
60
0
100
AcDbDimension
2
_U8
10
29.6349
20
20.958546
30
0
11
42.5349
21
20.958546
31
0
70
32
71
1
72
1
41
1
210
0
220
0
230
1
3
Standard
100
AcDbAlignedDimension
13
55.4349
23
4.3
33
0
14
29.6349
24
4.3
34
0
50
0
100
AcDbRotatedDimension
1001
ACAD
1000
DSTYLE
1002
{
1070
   371
1070
    13
1070
   372
1070
    13
1070
     3
1000

1070
   170
1070
     0
1070
   144
1040
1.0
1070
   277
1070
     2
1070
   284
1070
     8
1070
   278
1070
    46
1070
   146
1040
1.25
1070
   345
1005
16
1070
   347
1005
16
1070
   346
1005
16
1070
   344
1005
128
1070
   343
1005
128
1070
   172
1070
     1
1070
    76
1070
     0
1070
    75
1070
     0
1070
   282
1070
     0
1070
   281
1070
     0
1070
    71
1070
     0
1070
    74
1070
     0
1070
   279
1070
     0
1070
   173
1070
     1
1070
   340
1005
121
1070
   271
1070
     1
1070
   272
1070
     2
1070
    77
1070
     1
1070
    73
1070
     1
1070
   171
1070
     3
1070
   274
1070
     4
1070
   177
1070
   150
1070
   176
1070
     9
1070
   178
1070
    43
1070
    78
1070
     8
1070
    48
1040
-0.1
1070
    41
1040
3.0
1070
   147
1040
0.42
1070
    42
1040
0.5
1070
    44
1040
0.1
1070
   140
1040
2.8
1002
}
1001
ACAD_DSTYLE_DIM_LINETYPE
1070
   380
1005
16
1001
ACAD_DSTYLE_DIM_EXT1_LINETYPE
1070
   381
1005
16
1001
ACAD_DSTYLE_DIM_EXT2_LINETYPE
1070
   382
1005
16
0
ENDSEC
0
SECTION
2
OBJECTS
0
DICTIONARY
5
2a4
330
0
100
AcDbDictionary
280
0
281
1
3
ACAD_GROUP
350
2a5
3
ACAD_MLINESTYLE
350
2a6
0
DICTIONARY
5
2a5
330
0
100
AcDbDictionary
280
0
281
1
0
DICTIONARY
5
2a6
330
0
100
AcDbDictionary
280
0
281
1
3
Standard
350
18
0
MLINESTYLE
5
18
330
2a6
100
AcDbMlineStyle
2
Standard
70
0
3

62
256
51
90
52
90
71
2
49
-0.5
62
256
6
ByLayer
49
0.5
62
256
6
ByLayer
0
RASTERVARIABLES
5
292
330

100
AcDbRasterVariables
90
0
70
1
71
1
72
1
0
ENDSEC
0
EOF
