0
SECTION
2
HEADER
9
$ACADVER
1
AC1015
9
$DWGCODEPAGE
3
ANSI_1252
9
$HANDSEED
5
2c3
9
$ANGBASE
50
0
9
$ANGDIR
70
0
9
$ATTMODE
70
1
9
$AUNITS
70
0
9
$AUPREC
70
0
9
$CECOLOR
62
256
9
$CELTSCALE
40
1
9
$CELTYPE
6
ByLayer
9
$CELWEIGHT
370
18
9
$CLAYER
8
0
9
$CMLJUST
70
0
9
$CMLSCALE
40
1
9
$CMLSTYLE
2
Standard
9
$DIMSTYLE
2
Standard
9
$TEXTSIZE
40
0.2
9
$TEXTSTYLE
7
Standard
9
$LUNITS
70
2
9
$LUPREC
70
4
9
$EXTNAMES
290
1
9
$INSUNITS
70
4
9
$LTSCALE
40
1
9
$LWDISPLAY
290
1
9
$PDMODE
70
0
9
$PDSIZE
40
0
9
$PLINEGEN
70
0
0
ENDSEC
0
SECTION
2
CLASSES
0
CLASS
1
RASTERVARIABLES
2
AcDbRasterVariables
3
ISM
90
0
280
0
281
0
0
ENDSEC
0
SECTION
2
TABLES
0
TABLE
2
VPORT
5
2b9
100
AcDbSymbolTable
0
VPORT
5
1
100
AcDbSymbolTableRecord
100
AcDbViewportTableRecord
2
*Active
70
0
10
0
20
0
11
1
21
1
12
-1
22
1
13
0
23
0
14
0.5
24
0.5
15
10
25
10
16
0
26
0
36
1
17
0
27
0
37
0
0
ENDTAB
0
TABLE
2
LTYPE
5
2ba
100
AcDbSymbolTable
0
LTYPE
5
14
100
AcDbSymbolTableRecord
100
AcDbLinetypeTableRecord
70
0
2
ByBlock
3

72
65
73
0
40
0
0
LTYPE
5
15
100
AcDbSymbolTableRecord
100
AcDbLinetypeTableRecord
70
0
2
ByLayer
3

72
65
73
0
40
0
0
LTYPE
5
16
100
AcDbSymbolTableRecord
100
AcDbLinetypeTableRecord
70
0
2
Continuous
3
Solid line
72
65
73
0
40
0
0
LTYPE
5
6E
100
AcDbSymbolTableRecord
100
AcDbLinetypeTableRecord
70
0
2
CENTER
3
____ _ ____ _ ____ _ ____
72
65
73
4
40
47.5
49
22
74
0
49
-8.5
74
0
49
8.5
74
0
49
-8.5
74
0
0
LTYPE
5
6F
100
AcDbSymbolTableRecord
100
AcDbLinetypeTableRecord
70
0
2
DASHED
3
__ __ __ __ __ __ __ __ __
72
65
73
2
40
25.72
49
12.86
74
0
49
-12.86
74
0
0
ENDTAB
0
TABLE
2
LAYER
5
2bb
100
AcDbSymbolTable
0
LAYER
5
10
100
AcDbSymbolTableRecord
100
AcDbLayerTableRecord
2
0
70
0
62
7
6
Continuous
290
1
370
-3
390
0
0
LAYER
5
71
100
AcDbSymbolTableRecord
100
AcDbLayerTableRecord
2
80
70
0
62
-6
6
Continuous
290
1
370
-3
390
0
0
LAYER
5
73
100
AcDbSymbolTableRecord
100
AcDbLayerTableRecord
2
81
70
0
62
-3
6
Continuous
290
1
370
-3
390
0
0
LAYER
5
75
100
AcDbSymbolTableRecord
100
AcDbLayerTableRecord
2
1
70
0
62
4
6
Continuous
290
1
370
-3
390
0
0
LAYER
5
AB
100
AcDbSymbolTableRecord
100
AcDbLayerTableRecord
2
4
70
0
62
-2
6
CENTER
290
1
370
-3
390
0
0
LAYER
5
141
100
AcDbSymbolTableRecord
100
AcDbLayerTableRecord
2
Defpoints
70
0
62
7
6
Continuous
290
0
370
-3
390
0
0
LAYER
5
16E
100
AcDbSymbolTableRecord
100
AcDbLayerTableRecord
2
2
70
0
62
7
6
Continuous
290
1
370
-3
390
0
0
LAYER
5
2a5
100
AcDbSymbolTableRecord
100
AcDbLayerTableRecord
2
SK1
70
0
62
4
6
Continuous
290
1
370
-3
390
0
0
LAYER
5
2a6
100
AcDbSymbolTableRecord
100
AcDbLayerTableRecord
2
SK4
70
0
62
2
6
CENTER
290
1
370
-3
390
0
0
LAYER
5
2a7
100
AcDbSymbolTableRecord
100
AcDbLayerTableRecord
2
SK2
70
0
62
7
6
Continuous
290
1
370
-3
390
0
0
LAYER
5
2a8
100
AcDbSymbolTableRecord
100
AcDbLayerTableRecord
2
SK6
70
0
62
5
6
Continuous
290
1
370
-3
390
0
0
ENDTAB
0
TABLE
2
STYLE
5
2bc
100
AcDbSymbolTable
0
STYLE
5
11
100
AcDbSymbolTableRecord
100
AcDbTextStyleTableRecord
2
Standard
3
txt
70
0
71
0
40
0
41
1
42
0
50
0
0
STYLE
5
131
100
AcDbSymbolTableRecord
100
AcDbTextStyleTableRecord
2
iso_b_vert
3
simplex.shx
70
0
71
0
40
0
41
1
42
0
50
0
0
STYLE
5
132
100
AcDbSymbolTableRecord
100
AcDbTextStyleTableRecord
2
DWGDirectTextStyle
3
simplex
70
0
71
0
40
0
41
1
42
0
50
0
0
ENDTAB
0
TABLE
2
DIMSTYLE
5
2bd
100
AcDbSymbolTable
100
AcDbDimStyleTable
0
DIMSTYLE
105
27
100
AcDbSymbolTableRecord
100
AcDbDimStyleTableRecord
2
Standard
70
0
3
<>
41
0.18
42
0.0625
44
0.18
140
0.18
147
0.09
73
0
74
0
77
1
271
2
275
0
278
52
280
0
340
11
0
ENDTAB
0
TABLE
2
VIEW
5
2be
100
AcDbSymbolTable
0
ENDTAB
0
TABLE
2
UCS
5
2bf
100
AcDbSymbolTable
0
ENDTAB
0
TABLE
2
APPID
5
2c0
100
AcDbSymbolTable
0
APPID
5
12
100
AcDbSymbolTableRecord
100
AcDbRegAppTableRecord
2
ACAD
70
0
0
APPID
5
136
100
AcDbSymbolTableRecord
100
AcDbRegAppTableRecord
2
ACAD_DSTYLE_DIMBREAK
70
0
0
APPID
5
264
100
AcDbSymbolTableRecord
100
AcDbRegAppTableRecord
2
ACAD_DSTYLE_DIM_LINETYPE
70
0
0
APPID
5
265
100
AcDbSymbolTableRecord
100
AcDbRegAppTableRecord
2
ACAD_DSTYLE_DIM_EXT1_LINETYPE
70
0
0
APPID
5
266
100
AcDbSymbolTableRecord
100
AcDbRegAppTableRecord
2
ACAD_DSTYLE_DIM_EXT2_LINETYPE
70
0
0
APPID
5
2A1
100
AcDbSymbolTableRecord
100
AcDbRegAppTableRecord
2
ACAD_MLEADERVER
70
0
0
ENDTAB
0
TABLE
2
BLOCK_RECORD
5
2c1
100
AcDbSymbolTable
0
BLOCK_RECORD
5
1F
100
AcDbSymbolTableRecord
100
AcDbBlockTableRecord
2
*Model_Space
340
0
70
0
0
BLOCK_RECORD
5
1B
100
AcDbSymbolTableRecord
100
AcDbBlockTableRecord
2
*Paper_Space
340
0
70
0
0
BLOCK_RECORD
5
23
100
AcDbSymbolTableRecord
100
AcDbBlockTableRecord
2
*Paper_Space0
340
0
70
0
0
BLOCK_RECORD
5
138
100
AcDbSymbolTableRecord
100
AcDbBlockTableRecord
2
_Closed
340
0
70
0
0
BLOCK_RECORD
5
142
100
AcDbSymbolTableRecord
100
AcDbBlockTableRecord
2
*D2
340
0
70
0
0
BLOCK_RECORD
5
14E
100
AcDbSymbolTableRecord
100
AcDbBlockTableRecord
2
_U0
340
0
70
0
0
BLOCK_RECORD
5
160
100
AcDbSymbolTableRecord
100
AcDbBlockTableRecord
2
*D4
340
0
70
0
0
BLOCK_RECORD
5
16F
100
AcDbSymbolTableRecord
100
AcDbBlockTableRecord
2
_U1
340
0
70
0
0
BLOCK_RECORD
5
17F
100
AcDbSymbolTableRecord
100
AcDbBlockTableRecord
2
*D6
340
0
70
0
0
BLOCK_RECORD
5
18D
100
AcDbSymbolTableRecord
100
AcDbBlockTableRecord
2
_U2
340
0
70
0
0
BLOCK_RECORD
5
19D
100
AcDbSymbolTableRecord
100
AcDbBlockTableRecord
2
*D8
340
0
70
0
0
BLOCK_RECORD
5
1AB
100
AcDbSymbolTableRecord
100
AcDbBlockTableRecord
2
_U3
340
0
70
0
0
BLOCK_RECORD
5
1BB
100
AcDbSymbolTableRecord
100
AcDbBlockTableRecord
2
*D10
340
0
70
0
0
BLOCK_RECORD
5
1C7
100
AcDbSymbolTableRecord
100
AcDbBlockTableRecord
2
_U4
340
0
70
0
0
BLOCK_RECORD
5
1D7
100
AcDbSymbolTableRecord
100
AcDbBlockTableRecord
2
*D12
340
0
70
0
0
BLOCK_RECORD
5
1E3
100
AcDbSymbolTableRecord
100
AcDbBlockTableRecord
2
_U5
340
0
70
0
0
BLOCK_RECORD
5
1F3
100
AcDbSymbolTableRecord
100
AcDbBlockTableRecord
2
*D14
340
0
70
0
0
BLOCK_RECORD
5
200
100
AcDbSymbolTableRecord
100
AcDbBlockTableRecord
2
_U6
340
0
70
0
0
BLOCK_RECORD
5
210
100
AcDbSymbolTableRecord
100
AcDbBlockTableRecord
2
*D16
340
0
70
0
0
BLOCK_RECORD
5
21C
100
AcDbSymbolTableRecord
100
AcDbBlockTableRecord
2
_U7
340
0
70
0
0
BLOCK_RECORD
5
22C
100
AcDbSymbolTableRecord
100
AcDbBlockTableRecord
2
*D18
340
0
70
0
0
BLOCK_RECORD
5
239
100
AcDbSymbolTableRecord
100
AcDbBlockTableRecord
2
_U8
340
0
70
0
0
ENDTAB
0
ENDSEC
0
SECTION
2
BLOCKS
0
BLOCK
5
20
100
AcDbEntity
8
0
100
AcDbBlockBegin
2
*Model_Space
70
0
10
0
20
0
30
0
3
*Model_Space
0
ENDBLK
5
21
100
AcDbEntity
8
0
100
AcDbBlockEnd
0
BLOCK
5
1C
100
AcDbEntity
8
0
100
AcDbBlockBegin
2
*Paper_Space
70
0
10
0
20
0
30
0
3
*Paper_Space
0
ENDBLK
5
1D
100
AcDbEntity
8
0
100
AcDbBlockEnd
0
BLOCK
5
24
100
AcDbEntity
8
0
100
AcDbBlockBegin
2
*Paper_Space0
70
0
10
0
20
0
30
0
3
*Paper_Space0
0
ENDBLK
5
25
100
AcDbEntity
8
0
100
AcDbBlockEnd
0
BLOCK
5
139
100
AcDbEntity
8
0
100
AcDbBlockBegin
2
_Closed
70
0
10
0
20
0
30
0
3
_Closed
0
LINE
5
13B
100
AcDbEntity
8
0
62
256
6
ByLayer
370
-2
48
1
60
0
100
AcDbLine
10
-1
20
0.166667
30
0
11
0
21
0
31
0
39
0
210
0
220
0
230
1
0
LINE
5
13C
100
AcDbEntity
8
0
62
256
6
ByLayer
370
-2
48
1
60
0
100
AcDbLine
10
0
20
0
30
0
11
-1
21
-0.166667
31
0
39
0
210
0
220
0
230
1
0
LINE
5
13D
100
AcDbEntity
8
0
62
256
6
ByLayer
370
-2
48
1
60
0
100
AcDbLine
10
-1
20
0.166667
30
0
11
-1
21
-0.166667
31
0
39
0
210
0
220
0
230
1
0
LINE
5
13E
100
AcDbEntity
8
0
62
256
6
ByLayer
370
-2
48
1
60
0
100
AcDbLine
10
0
20
0
30
0
11
-1
21
0
31
0
39
0
210
0
220
0
230
1
0
ENDBLK
5
13A
100
AcDbEntity
8
0
100
AcDbBlockEnd
0
BLOCK
5
143
100
AcDbEntity
8
0
100
AcDbBlockBegin
2
*D2
70
1
10
0
20
0
30
0
3
*D2
0
LINE
5
145
100
AcDbEntity
8
0
62
256
6
ByLayer
370
-2
48
1
60
0
100
AcDbLine
10
0
20
-4.5875
30
0
11
0
21
-29.67512
31
0
39
0
210
0
220
0
230
1
0
LINE
5
146
100
AcDbEntity
8
0
62
256
6
ByLayer
370
-2
48
1
60
0
100
AcDbLine
10
30
20
-1.5875
30
0
11
30
21
-29.67512
31
0
39
0
210
0
220
0
230
1
0
LINE
5
147
100
AcDbEntity
8
0
62
256
6
ByLayer
370
-2
48
1
60
0
100
AcDbLine
10
3.175
20
-26.50012
30
0
11
26.825
21
-26.50012
31
0
39
0
210
0
220
0
230
1
0
SOLID
5
148
100
AcDbEntity
8
0
62
256
6
ByLayer
370
-1
48
1
60
0
100
AcDbTrace
10
3.175
20
-25.970953
30
0
11
3.175
21
-27.029287
31
0
12
0
22
-26.50012
32
0
13
0
23
-26.50012
33
0
39
0
210
0
220
0
230
1
0
SOLID
5
149
100
AcDbEntity
8
0
62
256
6
ByLayer
370
-1
48
1
60
0
100
AcDbTrace
10
26.825
20
-27.029287
30
0
11
26.825
21
-25.970953
31
0
12
30
22
-26.50012
32
0
13
30
23
-26.50012
33
0
39
0
210
0
220
0
230
1
0
MTEXT
5
14A
100
AcDbEntity
8
0
62
256
6
ByLayer
370
18
48
1
60
0
100
AcDbMText
10
15
20
-19.193619
30
0
210
0
220
0
230
1
1
\A1;30
40
3.50012
41
0
44
1
50
0
71
5
72
5
7
iso_b_vert
0
POINT
5
14B
100
AcDbEntity
8
Defpoints
62
0
6
ByLayer
370
-1
48
1
60
0
100
AcDbPoint
10
0
20
-3
30
0
39
0
210
0
220
0
230
1
50
360
0
POINT
5
14C
100
AcDbEntity
8
Defpoints
62
0
6
ByLayer
370
-1
48
1
60
0
100
AcDbPoint
10
30
20
0
30
0
39
0
210
0
220
0
230
1
50
360
0
POINT
5
14D
100
AcDbEntity
8
Defpoints
62
0
6
ByLayer
370
-1
48
1
60
0
100
AcDbPoint
10
30
20
-26.50012
30
0
39
0
210
0
220
0
230
1
50
360
0
ENDBLK
5
144
100
AcDbEntity
8
0
100
AcDbBlockEnd
0
BLOCK
5
15B
100
AcDbEntity
8
0
100
AcDbBlockBegin
2
_U0
70
0
10
0
20
0
30
0
3
_U0
0
MTEXT
5
14F
100
AcDbEntity
8
SK2
62
256
6
ByLayer
370
18
48
1
60
0
100
AcDbMText
10
9.770389
20
-25.467451
30
0
210
0
220
0
230
1
1
\W0.7468;30.00
40
3.50012
41
0
44
1.084337
50
0
71
7
72
5
7
iso_b_vert
0
MTEXT
5
150
100
AcDbEntity
8
SK2
62
256
6
ByLayer
370
18
48
1
60
0
100
AcDbMText
10
6.244329
20
-25.400814
30
0
210
0
220
0
230
1
1
\W0.1790;(
40
3.175
41
0
44
1.084337
50
0
71
7
72
5
7
iso_b_vert
0
MTEXT
5
151
100
AcDbEntity
8
SK2
62
256
6
ByLayer
370
18
48
1
60
0
100
AcDbMText
10
23.758393
20
-25.400814
30
0
210
0
220
0
230
1
1
\W0.1969;)
40
3.175
41
0
44
1.084337
50
0
71
7
72
5
7
iso_b_vert
0
LINE
5
152
100
AcDbEntity
8
SK2
62
256
6
ByLayer
370
13
48
1
60
0
100
AcDbLine
10
0
20
-4.5875
30
0
11
0
21
-29.67512
31
0
39
0
210
0
220
0
230
1
0
LINE
5
153
100
AcDbEntity
8
SK2
62
256
6
ByLayer
370
13
48
1
60
0
100
AcDbLine
10
30
20
-1.5875
30
0
11
30
21
-29.67512
31
0
39
0
210
0
220
0
230
1
0
LINE
5
154
100
AcDbEntity
8
SK2
62
256
6
ByLayer
370
13
48
1
60
0
100
AcDbLine
10
0
20
-26.50012
30
0
11
30
21
-26.50012
31
0
39
0
210
0
220
0
230
1
0
LINE
5
155
100
AcDbEntity
8
SK2
62
256
6
ByLayer
370
13
48
1
60
0
100
AcDbLine
10
0
20
-26.50012
30
0
11
3.174998
21
-26.082123
31
0
39
0
210
0
220
0
230
1
0
LINE
5
156
100
AcDbEntity
8
SK2
62
256
6
ByLayer
370
13
48
1
60
0
100
AcDbLine
10
0
20
-26.50012
30
0
11
3.175002
21
-26.918117
31
0
39
0
210
0
220
0
230
1
0
LINE
5
157
100
AcDbEntity
8
SK2
62
256
6
ByLayer
370
13
48
1
60
0
100
AcDbLine
10
3.174998
20
-26.082123
30
0
11
3.175002
21
-26.918117
31
0
39
0
210
0
220
0
230
1
0
LINE
5
158
100
AcDbEntity
8
SK2
62
256
6
ByLayer
370
13
48
1
60
0
100
AcDbLine
10
30
20
-26.50012
30
0
11
26.825002
21
-26.918117
31
0
39
0
210
0
220
0
230
1
0
LINE
5
159
100
AcDbEntity
8
SK2
62
256
6
ByLayer
370
13
48
1
60
0
100
AcDbLine
10
30
20
-26.50012
30
0
11
26.824998
21
-26.082123
31
0
39
0
210
0
220
0
230
1
0
LINE
5
15A
100
AcDbEntity
8
SK2
62
256
6
ByLayer
370
13
48
1
60
0
100
AcDbLine
10
26.825002
20
-26.918117
30
0
11
26.824998
21
-26.082123
31
0
39
0
210
0
220
0
230
1
0
ENDBLK
5
15C
100
AcDbEntity
8
0
100
AcDbBlockEnd
0
BLOCK
5
161
100
AcDbEntity
8
0
100
AcDbBlockBegin
2
*D4
70
1
10
0
20
0
30
0
3
*D4
0
LINE
5
163
100
AcDbEntity
8
0
62
256
6
ByLayer
370
-2
48
1
60
0
100
AcDbLine
10
30.9778
20
-1.675
30
0
11
39.92506
21
-1.675
31
0
39
0
210
0
220
0
230
1
0
LINE
5
164
100
AcDbEntity
8
0
62
256
6
ByLayer
370
-2
48
1
60
0
100
AcDbLine
10
30.9778
20
1.675
30
0
11
39.92506
21
1.675
31
0
39
0
210
0
220
0
230
1
0
LINE
5
165
100
AcDbEntity
8
0
62
256
6
ByLayer
370
-2
48
1
60
0
100
AcDbLine
10
36.75006
20
1.675
30
0
11
36.75006
21
26.638138
31
0
39
0
210
0
220
0
230
1
0
LINE
5
166
100
AcDbEntity
8
0
62
256
6
ByLayer
370
-2
48
1
60
0
100
AcDbLine
10
36.75006
20
-4.85
30
0
11
36.75006
21
-8.025
31
0
39
0
210
0
220
0
230
1
0
LINE
5
167
100
AcDbEntity
8
0
62
256
6
ByLayer
370
-2
48
1
60
0
100
AcDbLine
10
36.75006
20
4.85
30
0
11
36.75006
21
8.025
31
0
39
0
210
0
220
0
230
1
0
SOLID
5
168
100
AcDbEntity
8
0
62
256
6
ByLayer
370
-1
48
1
60
0
100
AcDbTrace
10
37.279227
20
-4.85
30
0
11
36.220893
21
-4.85
31
0
12
36.75006
22
-1.675
32
0
13
36.75006
23
-1.675
33
0
39
0
210
0
220
0
230
1
0
SOLID
5
169
100
AcDbEntity
8
0
62
256
6
ByLayer
370
-1
48
1
60
0
100
AcDbTrace
10
36.220893
20
4.85
30
0
11
37.279227
21
4.85
31
0
12
36.75006
22
1.675
32
0
13
36.75006
23
1.675
33
0
39
0
210
0
220
0
230
1
0
MTEXT
5
16A
100
AcDbEntity
8
0
62
256
6
ByLayer
370
18
48
1
60
0
100
AcDbMText
10
29.443559
20
17.331569
30
0
210
0
220
0
230
1
1
\A1;3.4
40
3.50012
41
0
44
1
50
90
71
5
72
5
7
iso_b_vert
0
POINT
5
16B
100
AcDbEntity
8
Defpoints
62
0
6
ByLayer
370
-1
48
1
60
0
100
AcDbPoint
10
29.3903
20
-1.675
30
0
39
0
210
0
220
0
230
1
50
360
0
POINT
5
16C
100
AcDbEntity
8
Defpoints
62
0
6
ByLayer
370
-1
48
1
60
0
100
AcDbPoint
10
29.3903
20
1.675
30
0
39
0
210
0
220
0
230
1
50
360
0
POINT
5
16D
100
AcDbEntity
8
Defpoints
62
0
6
ByLayer
370
-1
48
1
60
0
100
AcDbPoint
10
36.75006
20
1.675
30
0
39
0
210
0
220
0
230
1
50
360
0
ENDBLK
5
162
100
AcDbEntity
8
0
100
AcDbBlockEnd
0
BLOCK
5
17A
100
AcDbEntity
8
0
100
AcDbBlockBegin
2
_U1
70
0
10
0
20
0
30
0
3
_U1
0
MTEXT
5
170
100
AcDbEntity
8
2
62
256
6
ByLayer
370
18
48
1
60
0
100
AcDbMText
10
36.060403
20
5.832505
30
0
210
0
220
0
230
1
1
\W0.7346;3.35
40
3.50012
41
0
44
1.084337
50
90
71
7
72
5
7
iso_b_vert
0
LINE
5
171
100
AcDbEntity
8
2
62
256
6
ByLayer
370
13
48
1
60
0
100
AcDbLine
10
30.9778
20
-1.675
30
0
11
39.92506
21
-1.675
31
0
39
0
210
0
220
0
230
1
0
LINE
5
172
100
AcDbEntity
8
2
62
256
6
ByLayer
370
13
48
1
60
0
100
AcDbLine
10
30.9778
20
1.675
30
0
11
39.92506
21
1.675
31
0
39
0
210
0
220
0
230
1
0
LINE
5
173
100
AcDbEntity
8
2
62
256
6
ByLayer
370
13
48
1
60
0
100
AcDbLine
10
36.75006
20
13.88968
30
0
11
36.75006
21
-10.4253
31
0
39
0
210
0
220
0
230
1
0
LINE
5
174
100
AcDbEntity
8
2
62
256
6
ByLayer
370
13
48
1
60
0
100
AcDbLine
10
36.75006
20
-1.675
30
0
11
37.168057
21
-4.849998
31
0
39
0
210
0
220
0
230
1
0
LINE
5
175
100
AcDbEntity
8
2
62
256
6
ByLayer
370
13
48
1
60
0
100
AcDbLine
10
36.75006
20
-1.675
30
0
11
36.332063
21
-4.850002
31
0
39
0
210
0
220
0
230
1
0
LINE
5
176
100
AcDbEntity
8
2
62
256
6
ByLayer
370
13
48
1
60
0
100
AcDbLine
10
37.168057
20
-4.849998
30
0
11
36.332063
21
-4.850002
31
0
39
0
210
0
220
0
230
1
0
LINE
5
177
100
AcDbEntity
8
2
62
256
6
ByLayer
370
13
48
1
60
0
100
AcDbLine
10
36.75006
20
1.675
30
0
11
36.332063
21
4.849998
31
0
39
0
210
0
220
0
230
1
0
LINE
5
178
100
AcDbEntity
8
2
62
256
6
ByLayer
370
13
48
1
60
0
100
AcDbLine
10
36.75006
20
1.675
30
0
11
37.168057
21
4.850002
31
0
39
0
210
0
220
0
230
1
0
LINE
5
179
100
AcDbEntity
8
2
62
256
6
ByLayer
370
13
48
1
60
0
100
AcDbLine
10
36.332063
20
4.849998
30
0
11
37.168057
21
4.850002
31
0
39
0
210
0
220
0
230
1
0
ENDBLK
5
17B
100
AcDbEntity
8
0
100
AcDbBlockEnd
0
BLOCK
5
180
100
AcDbEntity
8
0
100
AcDbBlockBegin
2
*D6
70
1
10
0
20
0
30
0
3
*D6
0
LINE
5
182
100
AcDbEntity
8
0
62
256
6
ByLayer
370
-2
48
1
60
0
100
AcDbLine
10
-37.5875
20
3
30
0
11
-42.42494
21
3
31
0
39
0
210
0
220
0
230
1
0
LINE
5
183
100
AcDbEntity
8
0
62
256
6
ByLayer
370
-2
48
1
60
0
100
AcDbLine
10
-37.5875
20
-3
30
0
11
-42.42494
21
-3
31
0
39
0
210
0
220
0
230
1
0
LINE
5
184
100
AcDbEntity
8
0
62
256
6
ByLayer
370
-2
48
1
60
0
100
AcDbLine
10
-39.24994
20
3
30
0
11
-39.24994
21
23.747151
31
0
39
0
210
0
220
0
230
1
0
LINE
5
185
100
AcDbEntity
8
0
62
256
6
ByLayer
370
-2
48
1
60
0
100
AcDbLine
10
-39.24994
20
6.175
30
0
11
-39.24994
21
9.35
31
0
39
0
210
0
220
0
230
1
0
LINE
5
186
100
AcDbEntity
8
0
62
256
6
ByLayer
370
-2
48
1
60
0
100
AcDbLine
10
-39.24994
20
-6.175
30
0
11
-39.24994
21
-9.35
31
0
39
0
210
0
220
0
230
1
0
SOLID
5
187
100
AcDbEntity
8
0
62
256
6
ByLayer
370
-1
48
1
60
0
100
AcDbTrace
10
-39.779107
20
6.175
30
0
11
-38.720773
21
6.175
31
0
12
-39.24994
22
3
32
0
13
-39.24994
23
3
33
0
39
0
210
0
220
0
230
1
0
SOLID
5
188
100
AcDbEntity
8
0
62
256
6
ByLayer
370
-1
48
1
60
0
100
AcDbTrace
10
-38.720773
20
-6.175
30
0
11
-39.779107
21
-6.175
31
0
12
-39.24994
22
-3
32
0
13
-39.24994
23
-3
33
0
39
0
210
0
220
0
230
1
0
MTEXT
5
189
100
AcDbEntity
8
0
62
256
6
ByLayer
370
18
48
1
60
0
100
AcDbMText
10
-46.556441
20
17.10734
30
0
210
0
220
0
230
1
1
\A1;6
40
3.50012
41
0
44
1
50
90
71
5
72
5
7
iso_b_vert
0
POINT
5
18A
100
AcDbEntity
8
Defpoints
62
0
6
ByLayer
370
-1
48
1
60
0
100
AcDbPoint
10
-36
20
3
30
0
39
0
210
0
220
0
230
1
50
360
0
POINT
5
18B
100
AcDbEntity
8
Defpoints
62
0
6
ByLayer
370
-1
48
1
60
0
100
AcDbPoint
10
-36
20
-3
30
0
39
0
210
0
220
0
230
1
50
360
0
POINT
5
18C
100
AcDbEntity
8
Defpoints
62
0
6
ByLayer
370
-1
48
1
60
0
100
AcDbPoint
10
-39.24994
20
-3
30
0
39
0
210
0
220
0
230
1
50
360
0
ENDBLK
5
181
100
AcDbEntity
8
0
100
AcDbBlockEnd
0
BLOCK
5
198
100
AcDbEntity
8
0
100
AcDbBlockBegin
2
_U2
70
0
10
0
20
0
30
0
3
_U2
0
MTEXT
5
18E
100
AcDbEntity
8
SK2
62
256
6
ByLayer
370
18
48
1
60
0
100
AcDbMText
10
-39.939597
20
13.157505
30
0
210
0
220
0
230
1
1
\W0.7346;6.00
40
3.50012
41
0
44
1.084337
50
90
71
7
72
5
7
iso_b_vert
0
LINE
5
18F
100
AcDbEntity
8
SK2
62
256
6
ByLayer
370
13
48
1
60
0
100
AcDbLine
10
-37.5875
20
3
30
0
11
-42.42494
21
3
31
0
39
0
210
0
220
0
230
1
0
LINE
5
190
100
AcDbEntity
8
SK2
62
256
6
ByLayer
370
13
48
1
60
0
100
AcDbLine
10
-37.5875
20
-3
30
0
11
-42.42494
21
-3
31
0
39
0
210
0
220
0
230
1
0
LINE
5
191
100
AcDbEntity
8
SK2
62
256
6
ByLayer
370
13
48
1
60
0
100
AcDbLine
10
-39.24994
20
-11.7503
30
0
11
-39.24994
21
21.21468
31
0
39
0
210
0
220
0
230
1
0
LINE
5
192
100
AcDbEntity
8
SK2
62
256
6
ByLayer
370
13
48
1
60
0
100
AcDbLine
10
-39.24994
20
3
30
0
11
-39.667937
21
6.174998
31
0
39
0
210
0
220
0
230
1
0
LINE
5
193
100
AcDbEntity
8
SK2
62
256
6
ByLayer
370
13
48
1
60
0
100
AcDbLine
10
-39.24994
20
3
30
0
11
-38.831943
21
6.175002
31
0
39
0
210
0
220
0
230
1
0
LINE
5
194
100
AcDbEntity
8
SK2
62
256
6
ByLayer
370
13
48
1
60
0
100
AcDbLine
10
-39.667937
20
6.174998
30
0
11
-38.831943
21
6.175002
31
0
39
0
210
0
220
0
230
1
0
LINE
5
195
100
AcDbEntity
8
SK2
62
256
6
ByLayer
370
13
48
1
60
0
100
AcDbLine
10
-39.24994
20
-3
30
0
11
-38.831943
21
-6.174998
31
0
39
0
210
0
220
0
230
1
0
LINE
5
196
100
AcDbEntity
8
SK2
62
256
6
ByLayer
370
13
48
1
60
0
100
AcDbLine
10
-39.24994
20
-3
30
0
11
-39.667937
21
-6.175002
31
0
39
0
210
0
220
0
230
1
0
LINE
5
197
100
AcDbEntity
8
SK2
62
256
6
ByLayer
370
13
48
1
60
0
100
AcDbLine
10
-38.831943
20
-6.174998
30
0
11
-39.667937
21
-6.175002
31
0
39
0
210
0
220
0
230
1
0
ENDBLK
5
199
100
AcDbEntity
8
0
100
AcDbBlockEnd
0
BLOCK
5
19E
100
AcDbEntity
8
0
100
AcDbBlockBegin
2
*D8
70
1
10
0
20
0
30
0
3
*D8
0
LINE
5
1A0
100
AcDbEntity
8
0
62
256
6
ByLayer
370
-2
48
1
60
0
100
AcDbLine
10
19.2153
20
2.25
30
0
11
46.35012
21
2.25
31
0
39
0
210
0
220
0
230
1
0
LINE
5
1A1
100
AcDbEntity
8
0
62
256
6
ByLayer
370
-2
48
1
60
0
100
AcDbLine
10
19.2153
20
-2.25
30
0
11
46.35012
21
-2.25
31
0
39
0
210
0
220
0
230
1
0
LINE
5
1A2
100
AcDbEntity
8
0
62
256
6
ByLayer
370
-2
48
1
60
0
100
AcDbLine
10
45.35012
20
2.25
30
0
11
45.35012
21
39.679998
31
0
39
0
210
0
220
0
230
1
0
LINE
5
1A3
100
AcDbEntity
8
0
62
256
6
ByLayer
370
-2
48
1
60
0
100
AcDbLine
10
45.35012
20
5.25
30
0
11
45.35012
21
8.25
31
0
39
0
210
0
220
0
230
1
0
LINE
5
1A4
100
AcDbEntity
8
0
62
256
6
ByLayer
370
-2
48
1
60
0
100
AcDbLine
10
45.35012
20
-5.25
30
0
11
45.35012
21
-8.25
31
0
39
0
210
0
220
0
230
1
0
SOLID
5
1A5
100
AcDbEntity
8
0
62
256
6
ByLayer
370
-1
48
1
60
0
100
AcDbTrace
10
44.85012
20
5.25
30
0
11
45.85012
21
5.25
31
0
12
45.35012
22
2.25
32
0
13
45.35012
23
2.25
33
0
39
0
210
0
220
0
230
1
0
SOLID
5
1A6
100
AcDbEntity
8
0
62
256
6
ByLayer
370
-1
48
1
60
0
100
AcDbTrace
10
45.85012
20
-5.25
30
0
11
44.85012
21
-5.25
31
0
12
45.35012
22
-2.25
32
0
13
45.35012
23
-2.25
33
0
39
0
210
0
220
0
230
1
0
MTEXT
5
1A7
100
AcDbEntity
8
0
62
256
6
ByLayer
370
18
48
1
60
0
100
AcDbMText
10
32.523647
20
24.936792
30
0
210
0
220
0
230
1
1
\A1;4.5
40
3.50012
41
0
44
1
50
90
71
5
72
5
7
iso_b_vert
0
POINT
5
1A8
100
AcDbEntity
8
Defpoints
62
0
6
ByLayer
370
-1
48
1
60
0
100
AcDbPoint
10
18.7153
20
2.25
30
0
39
0
210
0
220
0
230
1
50
360
0
POINT
5
1A9
100
AcDbEntity
8
Defpoints
62
0
6
ByLayer
370
-1
48
1
60
0
100
AcDbPoint
10
18.7153
20
-2.25
30
0
39
0
210
0
220
0
230
1
50
360
0
POINT
5
1AA
100
AcDbEntity
8
Defpoints
62
0
6
ByLayer
370
-1
48
1
60
0
100
AcDbPoint
10
45.35012
20
-2.25
30
0
39
0
210
0
220
0
230
1
50
360
0
ENDBLK
5
19F
100
AcDbEntity
8
0
100
AcDbBlockEnd
0
BLOCK
5
1B6
100
AcDbEntity
8
0
100
AcDbBlockBegin
2
_U3
70
0
10
0
20
0
30
0
3
_U3
0
MTEXT
5
1AC
100
AcDbEntity
8
2
62
256
6
ByLayer
370
18
48
1
60
0
100
AcDbMText
10
44.660463
20
20.802684
30
0
210
0
220
0
230
1
1
\W0.7640;4.50
40
3.50012
41
0
44
1.084337
50
90
71
7
72
5
7
iso_b_vert
0
LINE
5
1AD
100
AcDbEntity
8
2
62
256
6
ByLayer
370
13
48
1
60
0
100
AcDbLine
10
19.2153
20
2.25
30
0
11
46.35012
21
2.25
31
0
39
0
210
0
220
0
230
1
0
LINE
5
1AE
100
AcDbEntity
8
2
62
256
6
ByLayer
370
13
48
1
60
0
100
AcDbLine
10
19.2153
20
-2.25
30
0
11
46.35012
21
-2.25
31
0
39
0
210
0
220
0
230
1
0
LINE
5
1AF
100
AcDbEntity
8
2
62
256
6
ByLayer
370
13
48
1
60
0
100
AcDbLine
10
45.35012
20
-11.0003
30
0
11
45.35012
21
29.228405
31
0
39
0
210
0
220
0
230
1
0
LINE
5
1B0
100
AcDbEntity
8
2
62
256
6
ByLayer
370
13
48
1
60
0
100
AcDbLine
10
45.35012
20
2.25
30
0
11
45.034807
21
5.249999
31
0
39
0
210
0
220
0
230
1
0
LINE
5
1B1
100
AcDbEntity
8
2
62
256
6
ByLayer
370
13
48
1
60
0
100
AcDbLine
10
45.35012
20
2.25
30
0
11
45.665433
21
5.250001
31
0
39
0
210
0
220
0
230
1
0
LINE
5
1B2
100
AcDbEntity
8
2
62
256
6
ByLayer
370
13
48
1
60
0
100
AcDbLine
10
45.034807
20
5.249999
30
0
11
45.665433
21
5.250001
31
0
39
0
210
0
220
0
230
1
0
LINE
5
1B3
100
AcDbEntity
8
2
62
256
6
ByLayer
370
13
48
1
60
0
100
AcDbLine
10
45.35012
20
-2.25
30
0
11
45.665433
21
-5.249999
31
0
39
0
210
0
220
0
230
1
0
LINE
5
1B4
100
AcDbEntity
8
2
62
256
6
ByLayer
370
13
48
1
60
0
100
AcDbLine
10
45.35012
20
-2.25
30
0
11
45.034807
21
-5.250001
31
0
39
0
210
0
220
0
230
1
0
LINE
5
1B5
100
AcDbEntity
8
2
62
256
6
ByLayer
370
13
48
1
60
0
100
AcDbLine
10
45.665433
20
-5.249999
30
0
11
45.034807
21
-5.250001
31
0
39
0
210
0
220
0
230
1
0
ENDBLK
5
1B7
100
AcDbEntity
8
0
100
AcDbBlockEnd
0
BLOCK
5
1BC
100
AcDbEntity
8
0
100
AcDbBlockBegin
2
*D10
70
1
10
0
20
0
30
0
3
*D10
0
LINE
5
1BE
100
AcDbEntity
8
0
62
256
6
ByLayer
370
-2
48
1
60
0
100
AcDbLine
10
-36
20
-4.5875
30
0
11
-36
21
-29.67512
31
0
39
0
210
0
220
0
230
1
0
LINE
5
1BF
100
AcDbEntity
8
0
62
256
6
ByLayer
370
-2
48
1
60
0
100
AcDbLine
10
0
20
-4.5875
30
0
11
0
21
-29.67512
31
0
39
0
210
0
220
0
230
1
0
LINE
5
1C0
100
AcDbEntity
8
0
62
256
6
ByLayer
370
-2
48
1
60
0
100
AcDbLine
10
-32.825
20
-26.50012
30
0
11
-3.175
21
-26.50012
31
0
39
0
210
0
220
0
230
1
0
SOLID
5
1C1
100
AcDbEntity
8
0
62
256
6
ByLayer
370
-1
48
1
60
0
100
AcDbTrace
10
-32.825
20
-25.970953
30
0
11
-32.825
21
-27.029287
31
0
12
-36
22
-26.50012
32
0
13
-36
23
-26.50012
33
0
39
0
210
0
220
0
230
1
0
SOLID
5
1C2
100
AcDbEntity
8
0
62
256
6
ByLayer
370
-1
48
1
60
0
100
AcDbTrace
10
-3.175
20
-27.029287
30
0
11
-3.175
21
-25.970953
31
0
12
0
22
-26.50012
32
0
13
0
23
-26.50012
33
0
39
0
210
0
220
0
230
1
0
MTEXT
5
1C3
100
AcDbEntity
8
0
62
256
6
ByLayer
370
18
48
1
60
0
100
AcDbMText
10
-18
20
-19.193619
30
0
210
0
220
0
230
1
1
\A1;36
40
3.50012
41
0
44
1
50
0
71
5
72
5
7
iso_b_vert
0
POINT
5
1C4
100
AcDbEntity
8
Defpoints
62
0
6
ByLayer
370
-1
48
1
60
0
100
AcDbPoint
10
-36
20
-3
30
0
39
0
210
0
220
0
230
1
50
360
0
POINT
5
1C5
100
AcDbEntity
8
Defpoints
62
0
6
ByLayer
370
-1
48
1
60
0
100
AcDbPoint
10
0
20
-3
30
0
39
0
210
0
220
0
230
1
50
360
0
POINT
5
1C6
100
AcDbEntity
8
Defpoints
62
0
6
ByLayer
370
-1
48
1
60
0
100
AcDbPoint
10
0
20
-26.50012
30
0
39
0
210
0
220
0
230
1
50
360
0
ENDBLK
5
1BD
100
AcDbEntity
8
0
100
AcDbBlockEnd
0
BLOCK
5
1D2
100
AcDbEntity
8
0
100
AcDbBlockBegin
2
_U4
70
0
10
0
20
0
30
0
3
_U4
0
MTEXT
5
1C8
100
AcDbEntity
8
SK2
62
256
6
ByLayer
370
18
48
1
60
0
100
AcDbMText
10
-23.229611
20
-25.467451
30
0
210
0
220
0
230
1
1
\W0.7468;36.00
40
3.50012
41
0
44
1.084337
50
0
71
7
72
5
7
iso_b_vert
0
LINE
5
1C9
100
AcDbEntity
8
SK2
62
256
6
ByLayer
370
13
48
1
60
0
100
AcDbLine
10
-36
20
-4.5875
30
0
11
-36
21
-29.67512
31
0
39
0
210
0
220
0
230
1
0
LINE
5
1CA
100
AcDbEntity
8
SK2
62
256
6
ByLayer
370
13
48
1
60
0
100
AcDbLine
10
0
20
-4.5875
30
0
11
0
21
-29.67512
31
0
39
0
210
0
220
0
230
1
0
LINE
5
1CB
100
AcDbEntity
8
SK2
62
256
6
ByLayer
370
13
48
1
60
0
100
AcDbLine
10
-36
20
-26.50012
30
0
11
0
21
-26.50012
31
0
39
0
210
0
220
0
230
1
0
LINE
5
1CC
100
AcDbEntity
8
SK2
62
256
6
ByLayer
370
13
48
1
60
0
100
AcDbLine
10
-36
20
-26.50012
30
0
11
-32.825002
21
-26.082123
31
0
39
0
210
0
220
0
230
1
0
LINE
5
1CD
100
AcDbEntity
8
SK2
62
256
6
ByLayer
370
13
48
1
60
0
100
AcDbLine
10
-36
20
-26.50012
30
0
11
-32.824998
21
-26.918117
31
0
39
0
210
0
220
0
230
1
0
LINE
5
1CE
100
AcDbEntity
8
SK2
62
256
6
ByLayer
370
13
48
1
60
0
100
AcDbLine
10
-32.825002
20
-26.082123
30
0
11
-32.824998
21
-26.918117
31
0
39
0
210
0
220
0
230
1
0
LINE
5
1CF
100
AcDbEntity
8
SK2
62
256
6
ByLayer
370
13
48
1
60
0
100
AcDbLine
10
0
20
-26.50012
30
0
11
-3.174998
21
-26.918117
31
0
39
0
210
0
220
0
230
1
0
LINE
5
1D0
100
AcDbEntity
8
SK2
62
256
6
ByLayer
370
13
48
1
60
0
100
AcDbLine
10
0
20
-26.50012
30
0
11
-3.175002
21
-26.082123
31
0
39
0
210
0
220
0
230
1
0
LINE
5
1D1
100
AcDbEntity
8
SK2
62
256
6
ByLayer
370
13
48
1
60
0
100
AcDbLine
10
-3.174998
20
-26.918117
30
0
11
-3.175002
21
-26.082123
31
0
39
0
210
0
220
0
230
1
0
ENDBLK
5
1D3
100
AcDbEntity
8
0
100
AcDbBlockEnd
0
BLOCK
5
1D8
100
AcDbEntity
8
0
100
AcDbBlockBegin
2
*D12
70
1
10
0
20
0
30
0
3
*D12
0
LINE
5
1DA
100
AcDbEntity
8
0
62
256
6
ByLayer
370
-2
48
1
60
0
100
AcDbLine
10
11
20
0.5875
30
0
11
11
21
-20.92482
31
0
39
0
210
0
220
0
230
1
0
LINE
5
1DB
100
AcDbEntity
8
0
62
256
6
ByLayer
370
-2
48
1
60
0
100
AcDbLine
10
30
20
-1.5875
30
0
11
30
21
-20.92482
31
0
39
0
210
0
220
0
230
1
0
LINE
5
1DC
100
AcDbEntity
8
0
62
256
6
ByLayer
370
-2
48
1
60
0
100
AcDbLine
10
14.175
20
-17.74982
30
0
11
26.825
21
-17.74982
31
0
39
0
210
0
220
0
230
1
0
SOLID
5
1DD
100
AcDbEntity
8
0
62
256
6
ByLayer
370
-1
48
1
60
0
100
AcDbTrace
10
14.175
20
-17.220653
30
0
11
14.175
21
-18.278987
31
0
12
11
22
-17.74982
32
0
13
11
23
-17.74982
33
0
39
0
210
0
220
0
230
1
0
SOLID
5
1DE
100
AcDbEntity
8
0
62
256
6
ByLayer
370
-1
48
1
60
0
100
AcDbTrace
10
26.825
20
-18.278987
30
0
11
26.825
21
-17.220653
31
0
12
30
22
-17.74982
32
0
13
30
23
-17.74982
33
0
39
0
210
0
220
0
230
1
0
MTEXT
5
1DF
100
AcDbEntity
8
0
62
256
6
ByLayer
370
18
48
1
60
0
100
AcDbMText
10
20.5
20
-10.443319
30
0
210
0
220
0
230
1
1
\A1;19
40
3.50012
41
0
44
1
50
0
71
5
72
5
7
iso_b_vert
0
POINT
5
1E0
100
AcDbEntity
8
Defpoints
62
0
6
ByLayer
370
-1
48
1
60
0
100
AcDbPoint
10
11
20
2.175
30
0
39
0
210
0
220
0
230
1
50
360
0
POINT
5
1E1
100
AcDbEntity
8
Defpoints
62
0
6
ByLayer
370
-1
48
1
60
0
100
AcDbPoint
10
30
20
0
30
0
39
0
210
0
220
0
230
1
50
360
0
POINT
5
1E2
100
AcDbEntity
8
Defpoints
62
0
6
ByLayer
370
-1
48
1
60
0
100
AcDbPoint
10
30
20
-17.74982
30
0
39
0
210
0
220
0
230
1
50
360
0
ENDBLK
5
1D9
100
AcDbEntity
8
0
100
AcDbBlockEnd
0
BLOCK
5
1EE
100
AcDbEntity
8
0
100
AcDbBlockBegin
2
_U5
70
0
10
0
20
0
30
0
3
_U5
0
MTEXT
5
1E4
100
AcDbEntity
8
SK2
62
256
6
ByLayer
370
18
48
1
60
0
100
AcDbMText
10
15.707837
20
-16.717151
30
0
210
0
220
0
230
1
1
\W0.6864;19.00
40
3.50012
41
0
44
1.084337
50
0
71
7
72
5
7
iso_b_vert
0
LINE
5
1E5
100
AcDbEntity
8
SK2
62
256
6
ByLayer
370
13
48
1
60
0
100
AcDbLine
10
11
20
0.5875
30
0
11
11
21
-20.92482
31
0
39
0
210
0
220
0
230
1
0
LINE
5
1E6
100
AcDbEntity
8
SK2
62
256
6
ByLayer
370
13
48
1
60
0
100
AcDbLine
10
30
20
-1.5875
30
0
11
30
21
-20.92482
31
0
39
0
210
0
220
0
230
1
0
LINE
5
1E7
100
AcDbEntity
8
SK2
62
256
6
ByLayer
370
13
48
1
60
0
100
AcDbLine
10
2.2497
20
-17.74982
30
0
11
38.7503
21
-17.74982
31
0
39
0
210
0
220
0
230
1
0
LINE
5
1E8
100
AcDbEntity
8
SK2
62
256
6
ByLayer
370
13
48
1
60
0
100
AcDbLine
10
11
20
-17.74982
30
0
11
7.825002
21
-18.167817
31
0
39
0
210
0
220
0
230
1
0
LINE
5
1E9
100
AcDbEntity
8
SK2
62
256
6
ByLayer
370
13
48
1
60
0
100
AcDbLine
10
11
20
-17.74982
30
0
11
7.824998
21
-17.331823
31
0
39
0
210
0
220
0
230
1
0
LINE
5
1EA
100
AcDbEntity
8
SK2
62
256
6
ByLayer
370
13
48
1
60
0
100
AcDbLine
10
7.825002
20
-18.167817
30
0
11
7.824998
21
-17.331823
31
0
39
0
210
0
220
0
230
1
0
LINE
5
1EB
100
AcDbEntity
8
SK2
62
256
6
ByLayer
370
13
48
1
60
0
100
AcDbLine
10
30
20
-17.74982
30
0
11
33.174998
21
-17.331823
31
0
39
0
210
0
220
0
230
1
0
LINE
5
1EC
100
AcDbEntity
8
SK2
62
256
6
ByLayer
370
13
48
1
60
0
100
AcDbLine
10
30
20
-17.74982
30
0
11
33.175002
21
-18.167817
31
0
39
0
210
0
220
0
230
1
0
LINE
5
1ED
100
AcDbEntity
8
SK2
62
256
6
ByLayer
370
13
48
1
60
0
100
AcDbLine
10
33.174998
20
-17.331823
30
0
11
33.175002
21
-18.167817
31
0
39
0
210
0
220
0
230
1
0
ENDBLK
5
1EF
100
AcDbEntity
8
0
100
AcDbBlockEnd
0
BLOCK
5
1F4
100
AcDbEntity
8
0
100
AcDbBlockBegin
2
*D14
70
1
10
0
20
0
30
0
3
*D14
0
LINE
5
1F6
100
AcDbEntity
8
0
62
256
6
ByLayer
370
-2
48
1
60
0
100
AcDbLine
10
18.7
20
-3.2625
30
0
11
18.7
21
-10.32
31
0
39
0
210
0
220
0
230
1
0
LINE
5
1F7
100
AcDbEntity
8
0
62
256
6
ByLayer
370
-2
48
1
60
0
100
AcDbLine
10
30
20
-1.5875
30
0
11
30
21
-10.32
31
0
39
0
210
0
220
0
230
1
0
LINE
5
1F8
100
AcDbEntity
8
0
62
256
6
ByLayer
370
-2
48
1
60
0
100
AcDbLine
10
15.525
20
-9.82
30
0
11
12.35
21
-9.82
31
0
39
0
210
0
220
0
230
1
0
LINE
5
1F9
100
AcDbEntity
8
0
62
256
6
ByLayer
370
-2
48
1
60
0
100
AcDbLine
10
33.175
20
-9.82
30
0
11
36.35
21
-9.82
31
0
39
0
210
0
220
0
230
1
0
SOLID
5
1FA
100
AcDbEntity
8
0
62
256
6
ByLayer
370
-1
48
1
60
0
100
AcDbTrace
10
15.525
20
-10.349167
30
0
11
15.525
21
-9.290833
31
0
12
18.7
22
-9.82
32
0
13
18.7
23
-9.82
33
0
39
0
210
0
220
0
230
1
0
SOLID
5
1FB
100
AcDbEntity
8
0
62
256
6
ByLayer
370
-1
48
1
60
0
100
AcDbTrace
10
33.175
20
-9.290833
30
0
11
33.175
21
-10.349167
31
0
12
30
22
-9.82
32
0
13
30
23
-9.82
33
0
39
0
210
0
220
0
230
1
0
MTEXT
5
1FC
100
AcDbEntity
8
0
62
256
6
ByLayer
370
18
48
1
60
0
100
AcDbMText
10
24.35
20
-3.975
30
0
210
0
220
0
230
1
1
\A1;11.3
40
2.8
41
0
44
1
50
0
71
5
72
5
7
iso_b_vert
0
POINT
5
1FD
100
AcDbEntity
8
Defpoints
62
0
6
ByLayer
370
-1
48
1
60
0
100
AcDbPoint
10
18.7
20
-1.675
30
0
39
0
210
0
220
0
230
1
50
360
0
POINT
5
1FE
100
AcDbEntity
8
Defpoints
62
0
6
ByLayer
370
-1
48
1
60
0
100
AcDbPoint
10
30
20
0
30
0
39
0
210
0
220
0
230
1
50
360
0
POINT
5
1FF
100
AcDbEntity
8
Defpoints
62
0
6
ByLayer
370
-1
48
1
60
0
100
AcDbPoint
10
30
20
-9.82
30
0
39
0
210
0
220
0
230
1
50
360
0
ENDBLK
5
1F5
100
AcDbEntity
8
0
100
AcDbBlockEnd
0
BLOCK
5
20B
100
AcDbEntity
8
0
100
AcDbBlockBegin
2
_U6
70
0
10
0
20
0
30
0
3
_U6
0
MTEXT
5
201
100
AcDbEntity
8
SK2
62
256
6
ByLayer
370
18
48
1
60
0
100
AcDbMText
10
20.866348
20
-9.973893
30
0
210
0
220
0
230
1
1
\W0.6261;11.30
40
2.8
41
0
44
1.084337
50
0
71
7
72
5
7
iso_b_vert
0
LINE
5
202
100
AcDbEntity
8
SK2
62
256
6
ByLayer
370
13
48
1
60
0
100
AcDbLine
10
18.7
20
-3.2625
30
0
11
18.7
21
-10.32
31
0
39
0
210
0
220
0
230
1
0
LINE
5
203
100
AcDbEntity
8
SK2
62
256
6
ByLayer
370
13
48
1
60
0
100
AcDbLine
10
30
20
-1.5875
30
0
11
30
21
-10.32
31
0
39
0
210
0
220
0
230
1
0
LINE
5
204
100
AcDbEntity
8
SK2
62
256
6
ByLayer
370
13
48
1
60
0
100
AcDbLine
10
11.7
20
-9.82
30
0
11
37
21
-9.82
31
0
39
0
210
0
220
0
230
1
0
LINE
5
205
100
AcDbEntity
8
SK2
62
256
6
ByLayer
370
13
48
1
60
0
100
AcDbLine
10
18.7
20
-9.82
30
0
11
15.525002
21
-10.237997
31
0
39
0
210
0
220
0
230
1
0
LINE
5
206
100
AcDbEntity
8
SK2
62
256
6
ByLayer
370
13
48
1
60
0
100
AcDbLine
10
18.7
20
-9.82
30
0
11
15.524998
21
-9.402003
31
0
39
0
210
0
220
0
230
1
0
LINE
5
207
100
AcDbEntity
8
SK2
62
256
6
ByLayer
370
13
48
1
60
0
100
AcDbLine
10
15.525002
20
-10.237997
30
0
11
15.524998
21
-9.402003
31
0
39
0
210
0
220
0
230
1
0
LINE
5
208
100
AcDbEntity
8
SK2
62
256
6
ByLayer
370
13
48
1
60
0
100
AcDbLine
10
30
20
-9.82
30
0
11
33.174998
21
-9.402003
31
0
39
0
210
0
220
0
230
1
0
LINE
5
209
100
AcDbEntity
8
SK2
62
256
6
ByLayer
370
13
48
1
60
0
100
AcDbLine
10
30
20
-9.82
30
0
11
33.175002
21
-10.237997
31
0
39
0
210
0
220
0
230
1
0
LINE
5
20A
100
AcDbEntity
8
SK2
62
256
6
ByLayer
370
13
48
1
60
0
100
AcDbLine
10
33.174998
20
-9.402003
30
0
11
33.175002
21
-10.237997
31
0
39
0
210
0
220
0
230
1
0
ENDBLK
5
20C
100
AcDbEntity
8
0
100
AcDbBlockEnd
0
BLOCK
5
211
100
AcDbEntity
8
0
100
AcDbBlockBegin
2
*D16
70
1
10
0
20
0
30
0
3
*D16
0
LINE
5
213
100
AcDbEntity
8
0
62
256
6
ByLayer
370
-2
48
1
60
0
100
AcDbLine
10
-36
20
-1.5875
30
0
11
-36
21
-39.67512
31
0
39
0
210
0
220
0
230
1
0
LINE
5
214
100
AcDbEntity
8
0
62
256
6
ByLayer
370
-2
48
1
60
0
100
AcDbLine
10
30
20
-1.5875
30
0
11
30
21
-39.67512
31
0
39
0
210
0
220
0
230
1
0
LINE
5
215
100
AcDbEntity
8
0
62
256
6
ByLayer
370
-2
48
1
60
0
100
AcDbLine
10
-32.825
20
-36.50012
30
0
11
26.825
21
-36.50012
31
0
39
0
210
0
220
0
230
1
0
SOLID
5
216
100
AcDbEntity
8
0
62
256
6
ByLayer
370
-1
48
1
60
0
100
AcDbTrace
10
-32.825
20
-35.970953
30
0
11
-32.825
21
-37.029287
31
0
12
-36
22
-36.50012
32
0
13
-36
23
-36.50012
33
0
39
0
210
0
220
0
230
1
0
SOLID
5
217
100
AcDbEntity
8
0
62
256
6
ByLayer
370
-1
48
1
60
0
100
AcDbTrace
10
26.825
20
-37.029287
30
0
11
26.825
21
-35.970953
31
0
12
30
22
-36.50012
32
0
13
30
23
-36.50012
33
0
39
0
210
0
220
0
230
1
0
MTEXT
5
218
100
AcDbEntity
8
0
62
256
6
ByLayer
370
18
48
1
60
0
100
AcDbMText
10
-3
20
-29.19362
30
0
210
0
220
0
230
1
1
\A1;66
40
3.50012
41
0
44
1
50
0
71
5
72
5
7
iso_b_vert
0
POINT
5
219
100
AcDbEntity
8
Defpoints
62
0
6
ByLayer
370
-1
48
1
60
0
100
AcDbPoint
10
-36
20
0
30
0
39
0
210
0
220
0
230
1
50
360
0
POINT
5
21A
100
AcDbEntity
8
Defpoints
62
0
6
ByLayer
370
-1
48
1
60
0
100
AcDbPoint
10
30
20
0
30
0
39
0
210
0
220
0
230
1
50
360
0
POINT
5
21B
100
AcDbEntity
8
Defpoints
62
0
6
ByLayer
370
-1
48
1
60
0
100
AcDbPoint
10
30
20
-36.50012
30
0
39
0
210
0
220
0
230
1
50
360
0
ENDBLK
5
212
100
AcDbEntity
8
0
100
AcDbBlockEnd
0
BLOCK
5
227
100
AcDbEntity
8
0
100
AcDbBlockBegin
2
_U7
70
0
10
0
20
0
30
0
3
_U7
0
MTEXT
5
21D
100
AcDbEntity
8
SK2
62
256
6
ByLayer
370
18
48
1
60
0
100
AcDbMText
10
-8.229611
20
-35.467451
30
0
210
0
220
0
230
1
1
\W0.7468;66.00
40
3.50012
41
0
44
1.084337
50
0
71
7
72
5
7
iso_b_vert
0
LINE
5
21E
100
AcDbEntity
8
SK2
62
256
6
ByLayer
370
13
48
1
60
0
100
AcDbLine
10
-36
20
-1.5875
30
0
11
-36
21
-39.67512
31
0
39
0
210
0
220
0
230
1
0
LINE
5
21F
100
AcDbEntity
8
SK2
62
256
6
ByLayer
370
13
48
1
60
0
100
AcDbLine
10
30
20
-1.5875
30
0
11
30
21
-39.67512
31
0
39
0
210
0
220
0
230
1
0
LINE
5
220
100
AcDbEntity
8
SK2
62
256
6
ByLayer
370
13
48
1
60
0
100
AcDbLine
10
-36
20
-36.50012
30
0
11
30
21
-36.50012
31
0
39
0
210
0
220
0
230
1
0
LINE
5
221
100
AcDbEntity
8
SK2
62
256
6
ByLayer
370
13
48
1
60
0
100
AcDbLine
10
-36
20
-36.50012
30
0
11
-32.825002
21
-36.082123
31
0
39
0
210
0
220
0
230
1
0
LINE
5
222
100
AcDbEntity
8
SK2
62
256
6
ByLayer
370
13
48
1
60
0
100
AcDbLine
10
-36
20
-36.50012
30
0
11
-32.824998
21
-36.918117
31
0
39
0
210
0
220
0
230
1
0
LINE
5
223
100
AcDbEntity
8
SK2
62
256
6
ByLayer
370
13
48
1
60
0
100
AcDbLine
10
-32.825002
20
-36.082123
30
0
11
-32.824998
21
-36.918117
31
0
39
0
210
0
220
0
230
1
0
LINE
5
224
100
AcDbEntity
8
SK2
62
256
6
ByLayer
370
13
48
1
60
0
100
AcDbLine
10
30
20
-36.50012
30
0
11
26.825002
21
-36.918117
31
0
39
0
210
0
220
0
230
1
0
LINE
5
225
100
AcDbEntity
8
SK2
62
256
6
ByLayer
370
13
48
1
60
0
100
AcDbLine
10
30
20
-36.50012
30
0
11
26.824998
21
-36.082123
31
0
39
0
210
0
220
0
230
1
0
LINE
5
226
100
AcDbEntity
8
SK2
62
256
6
ByLayer
370
13
48
1
60
0
100
AcDbLine
10
26.825002
20
-36.918117
30
0
11
26.824998
21
-36.082123
31
0
39
0
210
0
220
0
230
1
0
ENDBLK
5
228
100
AcDbEntity
8
0
100
AcDbBlockEnd
0
BLOCK
5
22D
100
AcDbEntity
8
0
100
AcDbBlockBegin
2
*D18
70
1
10
0
20
0
30
0
3
*D18
0
LINE
5
22F
100
AcDbEntity
8
0
62
256
6
ByLayer
370
-2
48
1
60
0
100
AcDbLine
10
29.3903
20
2.175
30
0
11
29.3903
21
19.216792
31
0
39
0
210
0
220
0
230
1
0
LINE
5
230
100
AcDbEntity
8
0
62
256
6
ByLayer
370
-2
48
1
60
0
100
AcDbLine
10
19.2903
20
2.175
30
0
11
19.2903
21
19.216792
31
0
39
0
210
0
220
0
230
1
0
LINE
5
231
100
AcDbEntity
8
0
62
256
6
ByLayer
370
-2
48
1
60
0
100
AcDbLine
10
32.3903
20
19.116792
30
0
11
35.3903
21
19.116792
31
0
39
0
210
0
220
0
230
1
0
LINE
5
232
100
AcDbEntity
8
0
62
256
6
ByLayer
370
-2
48
1
60
0
100
AcDbLine
10
16.2903
20
19.116792
30
0
11
13.2903
21
19.116792
31
0
39
0
210
0
220
0
230
1
0
SOLID
5
233
100
AcDbEntity
8
0
62
256
6
ByLayer
370
-1
48
1
60
0
100
AcDbTrace
10
32.3903
20
19.616792
30
0
11
32.3903
21
18.616792
31
0
12
29.3903
22
19.116792
32
0
13
29.3903
23
19.116792
33
0
39
0
210
0
220
0
230
1
0
SOLID
5
234
100
AcDbEntity
8
0
62
256
6
ByLayer
370
-1
48
1
60
0
100
AcDbTrace
10
16.2903
20
18.616792
30
0
11
16.2903
21
19.616792
31
0
12
19.2903
22
19.116792
32
0
13
19.2903
23
19.116792
33
0
39
0
210
0
220
0
230
1
0
MTEXT
5
235
100
AcDbEntity
8
0
62
256
6
ByLayer
370
18
48
1
60
0
100
AcDbMText
10
24.3403
20
29.377619
30
0
210
0
220
0
230
1
1
\A1;10.1
40
2.8
41
0
44
1
50
0
71
5
72
5
7
iso_b_vert
0
POINT
5
236
100
AcDbEntity
8
Defpoints
62
0
6
ByLayer
370
-1
48
1
60
0
100
AcDbPoint
10
29.3903
20
1.675
30
0
39
0
210
0
220
0
230
1
50
360
0
POINT
5
237
100
AcDbEntity
8
Defpoints
62
0
6
ByLayer
370
-1
48
1
60
0
100
AcDbPoint
10
19.2903
20
1.675
30
0
39
0
210
0
220
0
230
1
50
360
0
POINT
5
238
100
AcDbEntity
8
Defpoints
62
0
6
ByLayer
370
-1
48
1
60
0
100
AcDbPoint
10
19.2903
20
19.116792
30
0
39
0
210
0
220
0
230
1
50
360
0
ENDBLK
5
22E
100
AcDbEntity
8
0
100
AcDbBlockEnd
0
BLOCK
5
244
100
AcDbEntity
8
0
100
AcDbBlockBegin
2
_U8
70
0
10
0
20
0
30
0
3
_U8
0
MTEXT
5
23A
100
AcDbEntity
8
SK2
62
256
6
ByLayer
370
18
48
1
60
0
100
AcDbMText
10
20.856648
20
18.962899
30
0
210
0
220
0
230
1
1
\W0.6261;10.10
40
2.8
41
0
44
1.084337
50
0
71
7
72
5
7
iso_b_vert
0
LINE
5
23B
100
AcDbEntity
8
SK2
62
256
6
ByLayer
370
13
48
1
60
0
100
AcDbLine
10
29.3903
20
2.175
30
0
11
29.3903
21
19.216792
31
0
39
0
210
0
220
0
230
1
0
LINE
5
23C
100
AcDbEntity
8
SK2
62
256
6
ByLayer
370
13
48
1
60
0
100
AcDbLine
10
19.2903
20
2.175
30
0
11
19.2903
21
19.216792
31
0
39
0
210
0
220
0
230
1
0
LINE
5
23D
100
AcDbEntity
8
SK2
62
256
6
ByLayer
370
13
48
1
60
0
100
AcDbLine
10
29.3903
20
19.116792
30
0
11
19.2903
21
19.116792
31
0
39
0
210
0
220
0
230
1
0
LINE
5
23E
100
AcDbEntity
8
SK2
62
256
6
ByLayer
370
13
48
1
60
0
100
AcDbLine
10
29.3903
20
19.116792
30
0
11
26.390301
21
18.721834
31
0
39
0
210
0
220
0
230
1
0
LINE
5
23F
100
AcDbEntity
8
SK2
62
256
6
ByLayer
370
13
48
1
60
0
100
AcDbLine
10
29.3903
20
19.116792
30
0
11
26.390299
21
19.511749
31
0
39
0
210
0
220
0
230
1
0
LINE
5
240
100
AcDbEntity
8
SK2
62
256
6
ByLayer
370
13
48
1
60
0
100
AcDbLine
10
26.390301
20
18.721834
30
0
11
26.390299
21
19.511749
31
0
39
0
210
0
220
0
230
1
0
LINE
5
241
100
AcDbEntity
8
SK2
62
256
6
ByLayer
370
13
48
1
60
0
100
AcDbLine
10
19.2903
20
19.116792
30
0
11
22.290299
21
19.511749
31
0
39
0
210
0
220
0
230
1
0
LINE
5
242
100
AcDbEntity
8
SK2
62
256
6
ByLayer
370
13
48
1
60
0
100
AcDbLine
10
19.2903
20
19.116792
30
0
11
22.290301
21
18.721834
31
0
39
0
210
0
220
0
230
1
0
LINE
5
243
100
AcDbEntity
8
SK2
62
256
6
ByLayer
370
13
48
1
60
0
100
AcDbLine
10
22.290299
20
19.511749
30
0
11
22.290301
21
18.721834
31
0
39
0
210
0
220
0
230
1
0
ENDBLK
5
245
100
AcDbEntity
8
0
100
AcDbBlockEnd
0
ENDSEC
0
SECTION
2
ENTITIES
0
ARC
5
BF
100
AcDbEntity
8
1
62
256
6
ByLayer
370
18
48
1
60
0
100
AcDbCircle
39
0
10
1.355544
20
3.05
30
0
40
0.799999999999997
210
0
220
0
230
1
100
AcDbArc
50
212.089951
51
270
0
ARC
5
C0
100
AcDbEntity
8
1
62
256
6
ByLayer
370
18
48
1
60
0
100
AcDbCircle
39
0
10
1.355544
20
-3.05
30
0
40
0.799999999999997
210
0
220
0
230
1
100
AcDbArc
50
90
51
147.910049
0
ARC
5
C1
100
AcDbEntity
8
1
62
256
6
ByLayer
370
18
48
1
60
0
100
AcDbCircle
39
0
10
0
20
2.2
30
0
40
0.800000000000003
210
0
220
0
230
1
100
AcDbArc
50
32.089951
51
90
0
ARC
5
C2
100
AcDbEntity
8
1
62
256
6
ByLayer
370
18
48
1
60
0
100
AcDbCircle
39
0
10
0
20
-2.2
30
0
40
0.800000000000003
210
0
220
0
230
1
100
AcDbArc
50
270
51
327.910049
0
ARC
5
C3
100
AcDbEntity
8
SK2
62
256
6
ByLayer
370
13
48
1
60
0
100
AcDbCircle
39
0
10
20.9653
20
0
30
0
40
16.675
210
0
220
0
230
1
100
AcDbArc
50
189.492653
51
225
0
ARC
5
C4
100
AcDbEntity
8
SK2
62
256
6
ByLayer
370
13
48
1
60
0
100
AcDbCircle
39
0
10
20.9653
20
0
30
0
40
16.675
210
0
220
0
230
1
100
AcDbArc
50
135
51
170.507347
0
ARC
5
C5
100
AcDbEntity
8
SK2
62
256
6
ByLayer
370
13
48
1
60
0
100
AcDbCircle
39
0
10
30
20
0
30
0
40
20
210
0
220
0
230
1
100
AcDbArc
50
9.606349
51
69.998494
0
ARC
5
C6
100
AcDbEntity
8
SK2
62
256
6
ByLayer
370
13
48
1
60
0
100
AcDbCircle
39
0
10
30
20
0
30
0
40
20
210
0
220
0
230
1
100
AcDbArc
50
290.001506
51
350.393651
0
ELLIPSE
5
C7
100
AcDbEntity
8
1
62
256
6
ByLayer
370
18
48
1
60
0
100
AcDbEllipse
10
14.026431
20
-32.890638
30
0
11
54.5602568719885
21
-51.4604544292279
31
0
210
0
220
0
230
1
40
0.342109
41
1.88780405712999
42
1.90950021499276
0
ELLIPSE
5
C8
100
AcDbEntity
8
1
62
256
6
ByLayer
370
18
48
1
60
0
100
AcDbEllipse
10
19.393138
20
0.2302
30
0
11
6.53798749568672E-05
21
0.00999978627131354
31
0
210
0
220
0
230
1
40
0.008749
41
-1.71523784315266
42
-0.142807145694321
0
ELLIPSE
5
C9
100
AcDbEntity
8
1
62
256
6
ByLayer
370
18
48
1
60
0
100
AcDbEllipse
10
19.348525
20
-1.40988
30
0
11
-0.00218867087233692
21
0.00975754681324071
31
0
210
0
220
0
230
1
40
0.593582
41
0.546450859262483
42
1.87254737726247
0
ELLIPSE
5
CA
100
AcDbEntity
8
1
62
256
6
ByLayer
370
18
48
1
60
0
100
AcDbEllipse
10
19.392664
20
-1.411379
30
0
11
-0.00252205231273622
21
-0.00967673768022167
31
0
210
0
220
0
230
1
40
0.428505
41
-2.60020705295759
42
-1.03331486102574
0
ELLIPSE
5
CB
100
AcDbEntity
8
1
62
256
6
ByLayer
370
18
48
1
60
0
100
AcDbEllipse
10
19.436535
20
0.218821
30
0
11
-0.00485779463229471
21
-0.00874081411027879
31
0
210
0
220
0
230
1
40
0.072733
41
1.45422878740458
42
3.01687091826821
0
POINT
5
70
100
AcDbEntity
8
80
62
256
6
ByLayer
370
18
48
1
60
0
100
AcDbPoint
10
0
20
0
30
0
39
0
210
0
220
0
230
1
50
360
0
POINT
5
72
100
AcDbEntity
8
81
62
256
6
ByLayer
370
18
48
1
60
0
100
AcDbPoint
10
30
20
0
30
0
39
0
210
0
220
0
230
1
50
360
0
POINT
5
74
100
AcDbEntity
8
1
62
256
6
ByLayer
370
18
48
1
60
0
100
AcDbPoint
10
-36
20
0
30
0
39
0
210
0
220
0
230
1
50
360
0
POINT
5
76
100
AcDbEntity
8
1
62
256
6
ByLayer
370
18
48
1
60
1
100
AcDbPoint
10
0
20
-3
30
0
39
0
210
0
220
0
230
1
50
360
0
POINT
5
77
100
AcDbEntity
8
1
62
256
6
ByLayer
370
18
48
1
60
1
100
AcDbPoint
10
30
20
0
30
0
39
0
210
0
220
0
230
1
50
360
0
POINT
5
78
100
AcDbEntity
8
1
62
256
6
ByLayer
370
18
48
1
60
1
100
AcDbPoint
10
29.3903
20
-1.675
30
0
39
0
210
0
220
0
230
1
50
360
0
POINT
5
79
100
AcDbEntity
8
1
62
256
6
ByLayer
370
18
48
1
60
1
100
AcDbPoint
10
29.3903
20
1.675
30
0
39
0
210
0
220
0
230
1
50
360
0
POINT
5
7A
100
AcDbEntity
8
1
62
256
6
ByLayer
370
18
48
1
60
1
100
AcDbPoint
10
-36
20
3
30
0
39
0
210
0
220
0
230
1
50
360
0
POINT
5
7B
100
AcDbEntity
8
1
62
256
6
ByLayer
370
18
48
1
60
1
100
AcDbPoint
10
-36
20
-3
30
0
39
0
210
0
220
0
230
1
50
360
0
POINT
5
7C
100
AcDbEntity
8
1
62
256
6
ByLayer
370
18
48
1
60
1
100
AcDbPoint
10
18.7153
20
2.25
30
0
39
0
210
0
220
0
230
1
50
360
0
POINT
5
7D
100
AcDbEntity
8
1
62
256
6
ByLayer
370
18
48
1
60
1
100
AcDbPoint
10
18.7153
20
-2.25
30
0
39
0
210
0
220
0
230
1
50
360
0
POINT
5
7E
100
AcDbEntity
8
1
62
256
6
ByLayer
370
18
48
1
60
1
100
AcDbPoint
10
-36
20
-3
30
0
39
0
210
0
220
0
230
1
50
360
0
POINT
5
7F
100
AcDbEntity
8
1
62
256
6
ByLayer
370
18
48
1
60
1
100
AcDbPoint
10
0
20
-3
30
0
39
0
210
0
220
0
230
1
50
360
0
POINT
5
80
100
AcDbEntity
8
1
62
256
6
ByLayer
370
18
48
1
60
1
100
AcDbPoint
10
11
20
2.175
30
0
39
0
210
0
220
0
230
1
50
360
0
POINT
5
81
100
AcDbEntity
8
1
62
256
6
ByLayer
370
18
48
1
60
1
100
AcDbPoint
10
30
20
0
30
0
39
0
210
0
220
0
230
1
50
360
0
POINT
5
82
100
AcDbEntity
8
1
62
256
6
ByLayer
370
18
48
1
60
1
100
AcDbPoint
10
18.7
20
-1.675
30
0
39
0
210
0
220
0
230
1
50
360
0
POINT
5
83
100
AcDbEntity
8
1
62
256
6
ByLayer
370
18
48
1
60
1
100
AcDbPoint
10
30
20
0
30
0
39
0
210
0
220
0
230
1
50
360
0
POINT
5
84
100
AcDbEntity
8
1
62
256
6
ByLayer
370
18
48
1
60
1
100
AcDbPoint
10
-36
20
0
30
0
39
0
210
0
220
0
230
1
50
360
0
POINT
5
85
100
AcDbEntity
8
1
62
256
6
ByLayer
370
18
48
1
60
1
100
AcDbPoint
10
30
20
0
30
0
39
0
210
0
220
0
230
1
50
360
0
POINT
5
86
100
AcDbEntity
8
1
62
256
6
ByLayer
370
18
48
1
60
1
100
AcDbPoint
10
29.3903
20
1.675
30
0
39
0
210
0
220
0
230
1
50
360
0
POINT
5
87
100
AcDbEntity
8
1
62
256
6
ByLayer
370
18
48
1
60
1
100
AcDbPoint
10
19.2903
20
1.675
30
0
39
0
210
0
220
0
230
1
50
360
0
SPLINE
5
CC
100
AcDbEntity
8
1
62
256
6
ByLayer
370
18
48
1
60
0
100
AcDbSpline
70
4
71
3
72
24
73
20
40
0
40
0
40
0
40
0
40
0.249999999999997
40
0.249999999999997
40
0.374999999999997
40
0.374999999999997
40
0.499999999999996
40
0.499999999999996
40
0.562499999999996
40
0.562499999999996
40
0.624999999999996
40
0.624999999999996
40
0.749999999999998
40
0.749999999999998
40
0.812499999999999
40
0.812499999999999
40
0.875
40
0.875
40
1
40
1
40
1
40
1
41
1
10
19.0174431721147
20
-2.12506480148755
30
0
41
1
10
18.5572596973597
20
-2.00631442205739
30
-1E-16
41
1
10
18.1058996131917
20
-1.80838278084983
30
1E-16
41
1
10
17.4120874567758
20
-1.41198245155979
30
1E-16
41
1
10
17.1832061638264
20
-1.26613765513804
30
1E-16
41
1
10
16.7267843400528
20
-0.954316816907948
30
1E-16
41
1
10
16.4989840625011
20
-0.788151796968322
30
0
41
1
10
16.1541625871077
20
-0.527668648051502
30
0
41
1
10
16.0382213998172
20
-0.438589261119006
30
0
41
1
10
15.8077819476791
20
-0.259818689576065
30
0
41
1
10
15.693168067812
20
-0.170052735628531
30
0
41
1
10
15.3501993860581
20
0.0991854121655251
30
0
41
1
10
15.1227277914859
20
0.278614059915469
30
0
41
1
10
14.7795924624085
20
0.542912892167834
30
0
41
1
10
14.6648919919129
20
0.630203449241179
30
0
41
1
10
14.4341715118154
20
0.80228898457662
30
0
41
1
10
14.3185284226921
20
0.886787338525863
30
-1E-16
41
1
10
13.9730686162625
20
1.13196870510174
30
-1E-16
41
1
10
13.7434461666729
20
1.28537322572277
30
-1E-16
41
1
10
13.5112990289447
20
1.42529913637051
30
-1E-16
0
SPLINE
5
CD
100
AcDbEntity
8
1
62
256
6
ByLayer
370
18
48
1
60
0
100
AcDbSpline
70
4
71
3
72
41
73
37
40
0
40
0
40
0
40
0
40
8.14882498195E-05
40
0.0001363654881099
40
0.0001912427264003
40
0.000300997202981
40
0.0004107516795618
40
0.0006302606327234
40
0.0010692785390465
40
0.0019473143516927
40
0.0028253501643389
40
0.0033521716519267
40
0.030922496169018
40
0.0590196421736971
40
0.28379681021113
40
0.508573978248562
40
0.733351146285995
40
0.958128314323427
40
0.986225460328106
40
0.993249746829276
40
0.996761890079861
40
0.998517961705153
40
0.999395997517799
40
0.999615506470961
40
0.999642945090106
40
0.999661809140768
40
0.999670383709251
40
0.999697822328396
40
0.999725260947542
40
0.999752699566687
40
0.999780138185832
40
0.999807576804977
40
0.999835015424122
40
0.999889892662413
40
0.999944769900703
40
1
40
1
40
1
40
1
41
1
10
13.7469891260094
20
0.886347480173384
30
-1E-16
41
1
10
13.7470207792475
20
0.886295603623097
30
-1E-16
41
1
10
13.7470755980007
20
0.886208737683887
30
-1E-16
41
1
10
13.7471186919285
20
0.886091594088469
30
-1E-16
41
1
10
13.7472280286723
20
0.885941065732197
30
-1E-16
41
1
10
13.7473570345634
20
0.885757393116506
30
-1E-16
41
1
10
13.7475087332213
20
0.885490642689149
30
-1E-16
41
1
10
13.7482566781272
20
0.884958961930749
30
-1E-16
41
1
10
13.7494224709897
20
0.883939967550418
30
-1E-16
41
1
10
13.7511894762987
20
0.882470570275473
30
-1E-16
41
1
10
13.75305969019
20
0.880937976923889
30
-1E-16
41
1
10
13.7764115084741
20
0.861537180690334
30
-1E-16
41
1
10
13.8217055710872
20
0.823892233530046
30
-1E-16
41
1
10
14.0477319117736
20
0.635841179927326
30
0
41
1
10
14.4325532040772
20
0.314165352283283
30
0
41
1
10
14.9753223850312
20
-0.1433976541947
30
0
41
1
10
15.5176008864515
20
-0.604403744315562
30
0
41
1
10
15.9014218333326
20
-0.933412390505595
30
0
41
1
10
16.1099021825674
20
-1.11308262894374
30
0
41
1
10
16.1409687805165
20
-1.13983573095356
30
0
41
1
10
16.1507720080303
20
-1.14831854503609
30
0
41
1
10
16.1557989192735
20
-1.15260808442844
30
0
41
1
10
16.1579622296588
20
-1.15453473634224
30
0
41
1
10
16.1589753038121
20
-1.15535535091655
30
0
41
1
10
16.1591322339257
20
-1.15551783415791
30
0
41
1
10
16.1591562390592
20
-1.15554853142973
30
0
41
1
10
16.1592008888348
20
-1.15558759752227
30
0
41
1
10
16.1591743793538
20
-1.15560135409365
30
0
41
1
10
16.1591639851272
20
-1.15563357991883
30
0
41
1
10
16.1591580942618
20
-1.1556614129897
30
0
41
1
10
16.1591459116752
20
-1.15569295050687
30
0
41
1
10
16.159144502904
20
-1.15572505718694
30
0
41
1
10
16.1591305900614
20
-1.1557653718948
30
0
41
1
10
16.1591030301959
20
-1.15580961416254
30
0
41
1
10
16.1590985026207
20
-1.15588110547924
30
0
41
1
10
16.1590903987145
20
-1.15591956877469
30
0
41
1
10
16.1590848597383
20
-1.1559381552602
30
0
0
SPLINE
5
CE
100
AcDbEntity
8
1
62
256
6
ByLayer
370
18
48
1
60
0
100
AcDbSpline
70
4
71
3
72
30
73
26
40
0
40
0
40
0
40
0
40
3.81652881779E-05
40
7.65775675671E-05
40
0.0001149898469562
40
0.0001341959866508
40
0.0001534021263454
40
0.00017260826604
40
0.0001918144057345
40
0.0002302266851237
40
0.0002686389645129
40
0.000307051243902
40
0.0003454635232912
40
0.0004991126408479
40
0.0008064108759612
40
0.0014210073461878
40
0.002650200286641
40
0.0051085861675475
40
0.0100253579293606
40
0.0493595320238646
40
0.128027880212873
40
0.285364576590889
40
0.442701272968905
40
0.757374665724937
40
1
40
1
40
1
40
1
41
1
10
16.1590848597383
20
-1.1559381552602
30
0
41
1
10
16.1590793915383
20
-1.15595650425038
30
0
41
1
10
16.1590655372363
20
-1.15599193882713
30
0
41
1
10
16.1590349125659
20
-1.15605040745982
30
0
41
1
10
16.1590339067446
20
-1.15610421887735
30
0
41
1
10
16.159025304398
20
-1.15614644866278
30
0
41
1
10
16.1590092650017
20
-1.15617360111872
30
0
41
1
10
16.1590065024293
20
-1.15620695554503
30
0
41
1
10
16.1589912167817
20
-1.15624106967752
30
0
41
1
10
16.1589740258525
20
-1.15629613687247
30
0
41
1
10
16.1589656657098
20
-1.15635759559507
30
0
41
1
10
16.1587699949256
20
-1.15635295824225
30
0
41
1
10
16.1584376127619
20
-1.15636584888932
30
0
41
1
10
16.1577174544015
20
-1.15639377127036
30
0
41
1
10
16.1561663593017
20
-1.15645387377575
30
0
41
1
10
16.1530642302171
20
-1.15657392673171
30
0
41
1
10
16.1468602162883
20
-1.15681342431776
30
0
41
1
10
16.1344531657607
20
-1.15728998525105
30
0
41
1
10
16.0671112215167
20
-1.15985058153603
30
0
41
1
10
15.8900633326812
20
-1.16617074223558
30
0
41
1
10
15.4944843069131
20
-1.17780061877531
30
0
41
1
10
14.9322910414331
20
-1.18701954709309
30
0
41
1
10
14.039131174007
20
-1.18542841426279
30
0
41
1
10
13.0359463876412
20
-1.15484765340065
30
1E-16
41
1
10
12.2639860192396
20
-1.10344264380066
30
1E-16
41
1
10
11.9298793833436
20
-1.0757870125552
30
1E-16
0
SPLINE
5
CF
100
AcDbEntity
8
1
62
256
6
ByLayer
370
18
48
1
60
0
100
AcDbSpline
70
4
71
3
72
16
73
12
40
0
40
0
40
0
40
0
40
0.124999999999983
40
0.124999999999983
40
0.249999999999965
40
0.249999999999965
40
0.499999999999977
40
0.499999999999977
40
0.749999999999989
40
0.749999999999989
40
1
40
1
40
1
40
1
41
1
10
29.5452648954216
20
0.494724276808114
30
0
41
1
10
29.5193369098737
20
0.488885091998185
30
0
41
1
10
29.4946352894818
20
0.480284078227385
30
0
41
1
10
29.4478222633384
20
0.457607025689271
30
0
41
1
10
29.4265803936593
20
0.443921299871789
30
0
41
1
10
29.3705386814533
20
0.398367211952745
30
0
41
1
10
29.3445654962402
20
0.36300647429502
30
0
41
1
10
29.3188464662806
20
0.297529552478778
30
0
41
1
10
29.3188714325041
20
0.266820284116989
30
0
41
1
10
29.34203421801
20
0.213239661804351
30
0
41
1
10
29.3650536390806
20
0.189826484338681
30
0
41
1
10
29.3960001517787
20
0.168473482710766
30
0
0
SPLINE
5
D0
100
AcDbEntity
8
1
62
256
6
ByLayer
370
18
48
1
60
0
100
AcDbSpline
70
4
71
3
72
8
73
4
40
0
40
0
40
0
40
0
40
1
40
1
40
1
40
1
41
1
10
19.3878112992506
20
-1.4154049959115
30
0
41
1
10
19.3724074494955
20
-1.41143276049164
30
0
41
1
10
19.3574804974929
20
-1.41088783191984
30
0
41
1
10
19.343645631125
20
-1.41402004693961
30
0
0
SPLINE
5
D1
100
AcDbEntity
8
1
62
256
6
ByLayer
370
18
48
1
60
0
100
AcDbSpline
70
4
71
3
72
8
73
4
40
0
40
0
40
0
40
0
40
1
40
1
40
1
40
1
41
1
10
29.3960001517787
20
0.168473482710738
30
0
41
1
10
29.4707762592416
20
0.116878191184355
30
0
41
1
10
29.5434528298054
20
0.0691956769683486
30
0
41
1
10
29.6105904677478
20
0.0292569084466265
30
0
0
SPLINE
5
D2
100
AcDbEntity
8
1
62
256
6
ByLayer
370
18
48
1
60
0
100
AcDbSpline
70
4
71
3
72
8
73
4
40
0
40
0
40
0
40
0
40
1
40
1
40
1
40
1
41
1
10
29.3977950264942
20
-1.57702600111111
30
0
41
1
10
29.3974990855386
20
-1.57564999965419
30
0
41
1
10
29.3971962384086
20
-1.57417665491511
30
0
41
1
10
29.3968856830569
20
-1.57260676100856
30
0
0
SPLINE
5
D3
100
AcDbEntity
8
1
62
256
6
ByLayer
370
18
48
1
60
0
100
AcDbSpline
70
4
71
3
72
8
73
4
40
0
40
0
40
0
40
0
40
1
40
1
40
1
40
1
41
1
10
29.9975619822236
20
0.118909730796929
30
0
41
1
10
29.9883983794641
20
0.0879214386107208
30
0
41
1
10
29.979177931087
20
0.0569514922831047
30
0
41
1
10
29.9699009039446
20
0.0259998056924644
30
0
0
SPLINE
5
D4
100
AcDbEntity
8
1
62
256
6
ByLayer
370
18
48
1
60
0
100
AcDbSpline
70
4
71
3
72
12
73
8
40
0
40
0
40
0
40
0
40
0.250000000000004
40
0.250000000000004
40
0.500000000000008
40
0.500000000000008
40
1
40
1
40
1
40
1
41
1
10
13.5112059741181
20
1.42533811514605
30
-1E-16
41
1
10
13.4337539955004
20
1.46967176179152
30
-1E-16
41
1
10
13.3545402734119
20
1.51105767506726
30
-1E-16
41
1
10
13.1920211412657
20
1.5879320212257
30
-1E-16
41
1
10
13.1084200144015
20
1.62351076481835
30
-1E-16
41
1
10
12.8549412787023
20
1.72014449408195
30
-1E-16
41
1
10
12.6813857487765
20
1.77168004699291
30
-1E-16
41
1
10
12.5028527911603
20
1.81296587682749
30
-1E-16
0
SPLINE
5
D5
100
AcDbEntity
8
1
62
256
6
ByLayer
370
18
48
1
60
0
100
AcDbSpline
70
4
71
1
72
4
73
2
40
0
40
0
40
1
40
1
41
1
10
20.8074685586833
20
1.62790955171423
30
0
41
1
10
21.2101180786683
20
1.64875054256515
30
0
0
SPLINE
5
D6
100
AcDbEntity
8
1
62
256
6
ByLayer
370
18
48
1
60
0
100
AcDbSpline
70
4
71
3
72
12
73
8
40
0
40
0
40
0
40
0
40
0.357862652083443
40
0.357862652083443
40
0.713026772139782
40
0.713026772139782
40
1
40
1
40
1
40
1
41
1
10
19.3870192147125
20
1.48438900604933
30
0
41
1
10
19.3885424304128
20
1.48310738343147
30
0
41
1
10
19.3903085421924
20
1.4821447779114
30
0
41
1
10
19.3939661145389
20
1.48092460527761
30
0
41
1
10
19.3959012150622
20
1.48064240958013
30
0
41
1
10
19.3993761448996
20
1.48066477964821
30
0
41
1
10
19.4009442209726
20
1.48086668952644
30
0
41
1
10
19.4024751527155
20
1.48123614819843
30
0
0
SPLINE
5
D7
100
AcDbEntity
8
1
62
256
6
ByLayer
370
18
48
1
60
0
100
AcDbSpline
70
4
71
3
72
8
73
4
40
0
40
0
40
0
40
0
40
1
40
1
40
1
40
1
41
1
10
19.392688979243
20
-1.40252925135914
30
0
41
1
10
19.3756400271715
20
-1.39855128619521
30
0
41
1
10
19.3588900307514
20
-1.39837285615599
30
0
41
1
10
19.343645631125
20
-1.40221824002509
30
0
0
SPLINE
5
D8
100
AcDbEntity
8
1
62
256
6
ByLayer
370
18
48
1
60
0
100
AcDbSpline
70
4
71
3
72
14
73
10
40
0
40
0
40
0
40
0
40
0.238744361368197
40
0.238744361368197
40
0.429058271026148
40
0.429058271026148
40
0.619372180684098
40
0.619372180684098
40
1
40
1
40
1
40
1
41
1
10
21.0349697986369
20
-1.58892910697799
30
0
41
1
10
20.9047732481923
20
-1.5957794560648
30
0
41
1
10
20.7742876252244
20
-1.59772162968878
30
0
41
1
10
20.5387581356635
20
-1.59217977664559
30
0
41
1
10
20.4336865633452
20
-1.58647159641069
30
0
41
1
10
20.2242147134156
20
-1.56877651718824
30
0
41
1
10
20.1197145753441
20
-1.5568231340215
30
0
41
1
10
19.8063629421995
20
-1.51179851642479
30
0
41
1
10
19.5976105033339
20
-1.46950652525433
30
0
41
1
10
19.3878112992506
20
-1.4154049959115
30
0
0
SPLINE
5
D9
100
AcDbEntity
8
1
62
256
6
ByLayer
370
18
48
1
60
0
100
AcDbSpline
70
4
71
3
72
12
73
8
40
0
40
0
40
0
40
0
40
0.250000000000016
40
0.250000000000016
40
0.500000000000032
40
0.500000000000032
40
1
40
1
40
1
40
1
41
1
10
19.3932148297279
20
0.240097984054756
30
0
41
1
10
19.3776371183411
20
0.240201545556744
30
0
41
1
10
19.3625079927896
20
0.237081019944924
30
0
41
1
10
19.3365087219624
20
0.226423453760503
30
0
41
1
10
19.3257483034791
20
0.219070013764906
30
0
41
1
10
19.3003115243915
20
0.194013512334067
30
0
41
1
10
19.2924431721135
20
0.173821254515815
30
0
41
1
10
19.2924431721135
20
0.153573768655292
30
0
0
SPLINE
5
DA
100
AcDbEntity
8
1
62
256
6
ByLayer
370
18
48
1
60
0
100
AcDbSpline
70
4
71
3
72
20
73
16
40
0
40
0
40
0
40
0
40
0.125
40
0.125
40
0.25
40
0.25
40
0.375
40
0.375
40
0.5
40
0.5
40
0.625
40
0.625
40
0.75
40
0.75
40
1
40
1
40
1
40
1
41
1
10
19.3932148297279
20
0.228760140114872
30
0
41
1
10
19.3931974419503
20
0.147685579863264
30
0
41
1
10
19.3931786715366
20
0.0657314140808012
30
0
41
1
10
19.3931398298843
20
-0.0978165962634705
30
0
41
1
10
19.393119651439
20
-0.179849542330288
30
0
41
1
10
19.393079298444
20
-0.340020919453082
30
0
41
1
10
19.393059049822
20
-0.418487615330008
30
0
41
1
10
19.3930182384239
20
-0.572214720162407
30
0
41
1
10
19.3929975173987
20
-0.648028219762836
30
0
41
1
10
19.3929558308849
20
-0.793313114123663
30
0
41
1
10
19.3929349424526
20
-0.862559067247844
30
1E-16
41
1
10
19.3928918430153
20
-0.994324667568435
30
1E-16
41
1
10
19.3928694533642
20
-1.05722994530546
30
1E-16
41
1
10
19.3927998697108
20
-1.23009644567949
30
1E-16
41
1
10
19.3927500254949
20
-1.32620310471589
30
0
41
1
10
19.392688979243
20
-1.40252925135914
30
0
0
SPLINE
5
DB
100
AcDbEntity
8
1
62
256
6
ByLayer
370
18
48
1
60
0
100
AcDbSpline
70
4
71
3
72
30
73
26
40
0
40
0
40
0
40
0
40
0.123635387235146
40
0.123635387235146
40
0.247270774470293
40
0.247270774470293
40
0.370906161705439
40
0.370906161705439
40
0.432723855323009
40
0.432723855323009
40
0.494541548940579
40
0.494541548940579
40
0.618176936175726
40
0.618176936175726
40
0.679994629793299
40
0.679994629793299
40
0.741812323410872
40
0.741812323410872
40
0.803630017028446
40
0.803630017028446
40
0.865447710646019
40
0.865447710646019
40
0.989083097881165
40
0.989083097881165
40
1
40
1
40
1
40
1
41
1
10
29.2189899453224
20
-0.214053373372735
30
0
41
1
10
29.0166698614791
20
-0.102827169670746
30
0
41
1
10
28.815059372569
20
0.0092578383729176
30
0
41
1
10
28.4149584271743
20
0.231282864813522
30
0
41
1
10
28.2157198751424
20
0.340985117287715
30
0
41
1
10
27.8160509912341
20
0.553524895945827
30
0
41
1
10
27.6158819786131
20
0.656706387887368
30
0
41
1
10
27.3140383739988
20
0.804147961985791
30
0
41
1
10
27.2128578443363
20
0.852180459416758
30
-1E-16
41
1
10
27.0111087127155
20
0.944533643820051
30
-1E-16
41
1
10
26.9105967174675
20
0.98884976526179
30
-1E-16
41
1
10
26.6094341072626
20
1.11593452085421
30
-1E-16
41
1
10
26.4092042314743
20
1.19302302708877
30
-1E-16
41
1
10
26.1095048571666
20
1.29436460934204
30
0
41
1
10
26.0097001934861
20
1.32575299389129
30
0
41
1
10
25.8097296546563
20
1.38381357362891
30
0
41
1
10
25.7095721845092
20
1.41047177958785
30
0
41
1
10
25.5088507105929
20
1.45806940495896
30
0
41
1
10
25.4082877259617
20
1.47899065488937
30
0
41
1
10
25.206256640439
20
1.51589885248993
30
0
41
1
10
25.1048621444744
20
1.53189159728842
30
0
41
1
10
24.8012999003287
20
1.57162926541324
30
0
41
1
10
24.5991168566308
20
1.5874842938463
30
0
41
1
10
24.3788476987072
20
1.58991433478047
30
0
41
1
10
24.3609838127175
20
1.58999745222911
30
0
41
1
10
24.3431284740958
20
1.5899716277001
30
0
0
SPLINE
5
DC
100
AcDbEntity
8
1
62
256
6
ByLayer
370
18
48
1
60
0
100
AcDbSpline
70
4
71
3
72
8
73
4
40
0
40
0
40
0
40
0
40
1
40
1
40
1
40
1
41
1
10
29.7199605807395
20
-0.189122617665191
30
0
41
1
10
29.6870108788704
20
-0.119105750579678
30
0
41
1
10
29.6505891409742
20
-0.0463402562850206
30
0
41
1
10
29.6105904677478
20
0.0292569084466265
30
0
0
SPLINE
5
DD
100
AcDbEntity
8
1
62
256
6
ByLayer
370
18
48
1
60
0
100
AcDbSpline
70
4
71
3
72
8
73
4
40
0
40
0
40
0
40
0
40
1
40
1
40
1
40
1
41
1
10
19.4366019375862
20
0.217453129239374
30
0
41
1
10
19.4233098828992
20
0.224795528478239
30
0
41
1
10
19.4084384800129
20
0.228661625779694
30
0
41
1
10
19.3932148297279
20
0.228760140114872
30
0
0
SPLINE
5
DE
100
AcDbEntity
8
1
62
256
6
ByLayer
370
18
48
1
60
0
100
AcDbSpline
70
4
71
3
72
8
73
4
40
0
40
0
40
0
40
0
40
1
40
1
40
1
40
1
41
1
10
29.834592741007
20
0.587474379320753
30
0
41
1
10
29.7426280113993
20
0.545032813963701
30
0
41
1
10
29.6437843454314
20
0.516911626261674
30
0
41
1
10
29.5452648954216
20
0.494724276808086
30
0
0
SPLINE
5
DF
100
AcDbEntity
8
1
62
256
6
ByLayer
370
18
48
1
60
0
100
AcDbSpline
70
4
71
3
72
14
73
10
40
0
40
0
40
0
40
0
40
0.500000000000013
40
0.500000000000013
40
0.625000000000013
40
0.625000000000013
40
0.750000000000013
40
0.750000000000013
40
1
40
1
40
1
40
1
41
1
10
29.8345927410071
20
-0.587474379320838
30
0
41
1
10
29.7524779040641
20
-0.734389451109763
30
0
41
1
10
29.6805306891379
20
-0.892492058125811
30
0
41
1
10
29.5975705247671
20
-1.10360428618861
30
0
41
1
10
29.5814772111332
20
-1.14604157152121
30
0
41
1
10
29.5500072605034
20
-1.23124188337164
30
0
41
1
10
29.534979438159
20
-1.27417039734604
30
0
41
1
10
29.4895184956669
20
-1.40280633567227
30
0
41
1
10
29.4594306503084
20
-1.48849125755967
30
0
41
1
10
29.4292813821237
20
-1.57376219426945
30
0
0
SPLINE
5
E0
100
AcDbEntity
8
1
62
256
6
ByLayer
370
18
48
1
60
0
100
AcDbSpline
70
4
71
3
72
10
73
6
40
0
40
0
40
0
40
0
40
0.754592822053731
40
0.754592822053731
40
1
40
1
40
1
40
1
41
1
10
19.343645631125
20
-1.41402004693955
30
0
41
1
10
19.3417128675276
20
-1.48531767925911
30
0
41
1
10
19.3398870268597
20
-1.5565649320117
30
0
41
1
10
19.3376029789068
20
-1.65093112298118
30
0
41
1
10
19.337053251378
20
-1.67408513142445
30
0
41
1
10
19.3365140918662
20
-1.6972353395978
30
0
0
SPLINE
5
E1
100
AcDbEntity
8
1
62
256
6
ByLayer
370
18
48
1
60
0
100
AcDbSpline
70
4
71
3
72
20
73
16
40
0
40
0
40
0
40
0
40
0.323644730896837
40
0.323644730896837
40
0.485467096345255
40
0.485467096345255
40
0.647289461793674
40
0.647289461793674
40
0.728200644517871
40
0.728200644517871
40
0.809111827242068
40
0.809111827242068
40
0.970934192690441
40
0.970934192690441
40
1
40
1
40
1
40
1
41
1
10
29.1677502526859
20
0.0512785401651001
30
0
41
1
10
29.2031221380379
20
0.0763589672615126
30
0
41
1
10
29.2404068201639
20
0.0939618968771754
30
0
41
1
10
29.2979284208293
20
0.108408862774354
30
0
41
1
10
29.3174644061681
20
0.111197018768593
30
0
41
1
10
29.3561722799371
20
0.111821902448355
30
0
41
1
10
29.3753955277211
20
0.109774411686828
30
0
41
1
10
29.4036346825292
20
0.101389831964411
30
0
41
1
10
29.4129932013049
20
0.0977007867474526
30
0
41
1
10
29.4310035449689
20
0.0874586549218179
30
0
41
1
10
29.439480057024
20
0.0800104709237814
30
0
41
1
10
29.4655577707232
20
0.061824070064489
30
0
41
1
10
29.4830704207832
20
0.051985500794018
30
0
41
1
10
29.5039251794519
20
0.043200933938806
30
0
41
1
10
29.5071067945493
20
0.0419388095606621
30
0
41
1
10
29.5102956234871
20
0.0407531159214898
30
0
0
SPLINE
5
E2
100
AcDbEntity
8
1
62
256
6
ByLayer
370
18
48
1
60
0
100
AcDbSpline
70
4
71
3
72
10
73
6
40
0
40
0
40
0
40
0
40
0.5
40
0.5
40
1
40
1
40
1
40
1
41
1
10
19.40247515271
20
1.48123614819713
30
0
41
1
10
19.6385240503766
20
1.53820166123677
30
0
41
1
10
19.8739690551211
20
1.57992039060039
30
0
41
1
10
20.3414939641971
20
1.62953970510725
30
0
41
1
10
20.5740955112067
20
1.63757050012882
30
0
41
1
10
20.8074685586833
20
1.62790955171423
30
0
0
SPLINE
5
E3
100
AcDbEntity
8
1
62
256
6
ByLayer
370
18
48
1
60
0
100
AcDbSpline
70
4
71
3
72
14
73
10
40
0
40
0
40
0
40
0
40
0.25
40
0.25
40
0.5
40
0.5
40
0.75
40
0.75
40
1
40
1
40
1
40
1
41
1
10
19.2924431721135
20
0.194243059234992
30
0
41
1
10
19.2924431721135
20
0.21692629968598
30
0
41
1
10
19.3007559360762
20
0.237184777282351
30
0
41
1
10
19.3238415280718
20
0.264645017875552
30
0
41
1
10
19.3383393496619
20
0.27295279492526
30
0
41
1
10
19.3688655958931
20
0.281415079139151
30
0
41
1
10
19.3845849558652
20
0.281568174214556
30
0
41
1
10
19.416450558261
20
0.274548038539791
30
0
41
1
10
19.4318454876948
20
0.267587511453485
30
0
41
1
10
19.4464234834352
20
0.256283670075561
30
0
0
SPLINE
5
E4
100
AcDbEntity
8
1
62
256
6
ByLayer
370
18
48
1
60
0
100
AcDbSpline
70
4
71
3
72
8
73
4
40
0
40
0
40
0
40
0
40
1
40
1
40
1
40
1
41
1
10
20.8063899669063
20
1.62981475148652
30
0
41
1
10
20.8068488769038
20
1.63625602428848
30
0
41
1
10
20.8071182252511
20
1.64271305752783
30
0
41
1
10
20.8072026602802
20
1.64916972438067
30
0
0
SPLINE
5
E5
100
AcDbEntity
8
1
62
256
6
ByLayer
370
18
48
1
60
0
100
AcDbSpline
70
4
71
3
72
10
73
6
40
0
40
0
40
0
40
0
40
0.5
40
0.5
40
1
40
1
40
1
40
1
41
1
10
29.4292813821243
20
-1.57376219426879
30
0
41
1
10
29.4222138581862
20
-1.57832942043808
30
0
41
1
10
29.4160504551952
20
-1.58050556780117
30
0
41
1
10
29.4053702996703
20
-1.58004033702247
30
0
41
1
10
29.4008466265597
20
-1.5774379907767
30
0
41
1
10
29.3968856830568
20
-1.57260676100856
30
0
0
SPLINE
5
E6
100
AcDbEntity
8
1
62
256
6
ByLayer
370
18
48
1
60
0
100
AcDbSpline
70
4
71
3
72
8
73
4
40
0
40
0
40
0
40
0
40
1
40
1
40
1
40
1
41
1
10
19.446423483425
20
0.256283670083491
30
0
41
1
10
19.4448469115946
20
0.246749627965102
30
0
41
1
10
19.4431851989003
20
0.23714432033637
30
0
41
1
10
19.4414346354748
20
0.227449606729579
30
0
0
SPLINE
5
E7
100
AcDbEntity
8
1
62
256
6
ByLayer
370
18
48
1
60
0
100
AcDbSpline
70
4
71
3
72
18
73
14
40
0
40
0
40
0
40
0
40
0.161628487676332
40
0.161628487676332
40
0.323256975352663
40
0.323256975352663
40
0.484885463028994
40
0.484885463028994
40
0.646513950705326
40
0.646513950705326
40
0.969770926057989
40
0.969770926057989
40
1
40
1
40
1
40
1
41
1
10
29.9699009039446
20
0.025999805692436
30
0
41
1
10
29.9622979856962
20
0.0006335823122186
30
0
41
1
10
29.9536029531792
20
-0.0241886551035861
30
0
41
1
10
29.9339437241421
20
-0.0726694622313175
30
0
41
1
10
29.9228837968923
20
-0.0964250598673004
30
0
41
1
10
29.8996678683918
20
-0.139687091146953
30
0
41
1
10
29.8871575765596
20
-0.159876819532542
30
0
41
1
10
29.8616849251964
20
-0.194578572663431
30
0
41
1
10
29.8489666534875
20
-0.208873588500296
30
0
41
1
10
29.8107563073522
20
-0.24208314754182
30
0
41
1
10
29.7875685303447
20
-0.248795102084813
30
0
41
1
10
29.7661908867408
20
-0.241577569884555
30
0
41
1
10
29.7643966962145
20
-0.240850333571899
30
0
41
1
10
29.7626356000126
20
-0.240016738296362
30
0
0
SPLINE
5
E8
100
AcDbEntity
8
1
62
256
6
ByLayer
370
18
48
1
60
0
100
AcDbSpline
70
4
71
3
72
8
73
4
40
0
40
0
40
0
40
0
40
1
40
1
40
1
40
1
41
1
10
29.7418364558156
20
-0.223825259472932
30
0
41
1
10
29.7337248548475
20
-0.214736663186102
30
0
41
1
10
29.7264791330221
20
-0.202974294095185
30
0
41
1
10
29.7199605807395
20
-0.189122617665163
30
0
0
SPLINE
5
E9
100
AcDbEntity
8
1
62
256
6
ByLayer
370
18
48
1
60
0
100
AcDbSpline
70
4
71
3
72
12
73
8
40
0
40
0
40
0
40
0
40
0.388183636306365
40
0.388183636306365
40
0.7733463061721
40
0.7733463061721
40
1
40
1
40
1
40
1
41
1
10
19.5927013036523
20
-1.61755605183529
30
0
41
1
10
19.5942240630102
20
-1.61618550754207
30
0
41
1
10
19.595991508645
20
-1.61512835406933
30
0
41
1
10
19.5996432470712
20
-1.61373801635153
30
0
41
1
10
19.6015730647177
20
-1.61337663357082
30
0
41
1
10
19.6046079241878
20
-1.61328587022388
30
0
41
1
10
19.6057404698757
20
-1.6133570284149
30
0
41
1
10
19.6068559392737
20
-1.61352374390935
30
0
0
SPLINE
5
EA
100
AcDbEntity
8
1
62
256
6
ByLayer
370
18
48
1
60
0
100
AcDbSpline
70
4
71
3
72
10
73
6
40
0
40
0
40
0
40
0
40
0.578731080468163
40
0.578731080468163
40
1
40
1
40
1
40
1
41
1
10
19.6068559392737
20
-1.53520714519172
30
0
41
1
10
19.6039198749734
20
-1.53453581663916
30
0
41
1
10
19.6009250714651
20
-1.53445979771988
30
0
41
1
10
19.5962217754522
20
-1.53544721913727
30
0
41
1
10
19.5943301842447
20
-1.53622237534066
30
0
41
1
10
19.5927013036523
20
-1.53734166238601
30
0
0
SPLINE
5
EB
100
AcDbEntity
8
1
62
256
6
ByLayer
370
18
48
1
60
0
100
AcDbSpline
70
4
71
3
72
28
73
24
40
0
40
0
40
0
40
0
40
0.0917031531191097
40
0.0917031531191097
40
0.183406306238219
40
0.183406306238219
40
0.275109459357329
40
0.275109459357329
40
0.320961035916884
40
0.320961035916884
40
0.366812612476439
40
0.366812612476439
40
0.550218918714673
40
0.550218918714673
40
0.641922071833789
40
0.641922071833789
40
0.733625224952904
40
0.733625224952904
40
0.82532837807202
40
0.82532837807202
40
0.917031531191136
40
0.917031531191136
40
1
40
1
40
1
40
1
41
1
10
29.3831003863407
20
-1.5873416096932
30
0
41
1
10
29.1820318503666
20
-1.57260341792602
30
0
41
1
10
28.980366343146
20
-1.54579315660698
30
0
41
1
10
28.5800048666545
20
-1.47033795345169
30
0
41
1
10
28.381071347895
20
-1.42193911102194
30
0
41
1
10
27.9836021781843
20
-1.30528757040779
30
0
41
1
10
27.7850509996559
20
-1.23726868413803
30
1E-16
41
1
10
27.4858698776014
20
-1.12213666832622
30
1E-16
41
1
10
27.385919199128
20
-1.08156525191438
30
1E-16
41
1
10
27.1853465765221
20
-0.996296342601141
30
1E-16
41
1
10
27.0844739880011
20
-0.951472532057267
30
1E-16
41
1
10
26.5827041254901
20
-0.720127905177492
30
0
41
1
10
26.187057098836
20
-0.511446112166311
30
0
41
1
10
25.5903715930006
20
-0.18387799897593
30
0
41
1
10
25.3909228957657
20
-0.0722751432248856
30
0
41
1
10
24.9887901369614
20
0.1520247963293
30
0
41
1
10
24.787432832689
20
0.2639970792805
30
0
41
1
10
24.3851963119689
20
0.482182541274
30
0
41
1
10
24.1835221351885
20
0.588729408473995
30
0
41
1
10
23.7839152994508
20
0.790040637420361
30
0
41
1
10
23.5851669540927
20
0.885146252976597
30
-1E-16
41
1
10
23.2064479009913
20
1.05255698287954
30
-1E-16
41
1
10
23.0264960009824
20
1.12615282329452
30
-1E-16
41
1
10
22.845839903813
20
1.19293537951455
30
0
0
SPLINE
5
EC
100
AcDbEntity
8
1
62
256
6
ByLayer
370
18
48
1
60
0
100
AcDbSpline
70
4
71
3
72
8
73
4
40
0
40
0
40
0
40
0
40
1
40
1
40
1
40
1
41
1
10
18.712946188754
20
2.03464821098049
30
0
41
1
10
18.9379475509693
20
1.85473897252965
30
0
41
1
10
19.1622307878087
20
1.67352435454111
30
0
41
1
10
19.3870192181725
20
1.48438900312712
30
0
0
SPLINE
5
ED
100
AcDbEntity
8
1
62
256
6
ByLayer
370
18
48
1
60
0
100
AcDbSpline
70
4
71
3
72
8
73
4
40
0
40
0
40
0
40
0
40
1
40
1
40
1
40
1
41
1
10
20.8072026602703
20
1.64916972438098
30
0
41
1
10
20.9415073216336
20
1.64925172902704
30
0
41
1
10
21.0758119829968
20
1.64933373364312
30
0
41
1
10
21.2101166443601
20
1.64941573822927
30
0
0
SPLINE
5
EE
100
AcDbEntity
8
1
62
256
6
ByLayer
370
18
48
1
60
0
100
AcDbSpline
70
4
71
3
72
24
73
20
40
0
40
0
40
0
40
0
40
0.126147959513661
40
0.126147959513661
40
0.252295919027322
40
0.252295919027322
40
0.378443878540983
40
0.378443878540983
40
0.441517858297816
40
0.441517858297816
40
0.504591838054648
40
0.504591838054648
40
0.630739797568309
40
0.630739797568309
40
0.75688775708197
40
0.75688775708197
40
0.883035716595631
40
0.883035716595631
40
1
40
1
40
1
40
1
41
1
10
19.6068559392737
20
0.141548889103802
30
0
41
1
10
19.8072967848938
20
0.024907168308431
30
0
41
1
10
20.0073641137016
20
-0.091412047717057
30
0
41
1
10
20.4073650095855
20
-0.322380532838366
30
0
41
1
10
20.6078055029452
20
-0.437351597576338
30
0
41
1
10
21.0079458795915
20
-0.657468727501623
30
0
41
1
10
21.2076127726672
20
-0.76334847359692
30
0
41
1
10
21.5077990353906
20
-0.913768108644803
30
1E-16
41
1
10
21.6080546118497
20
-0.962252580060948
30
1E-16
41
1
10
21.8076054444383
20
-1.05483130600146
30
1E-16
41
1
10
21.9071217338914
20
-1.09903684845108
30
1E-16
41
1
10
22.2049263532457
20
-1.2254920264289
30
1E-16
41
1
10
22.4022614852332
20
-1.3017660242391
30
1E-16
41
1
10
22.7978803031757
20
-1.43439949588688
30
0
41
1
10
22.9955295204445
20
-1.49136215253785
30
0
41
1
10
23.3945791337628
20
-1.58271564422935
30
0
41
1
10
23.5958437646955
20
-1.61734583983923
30
0
41
1
10
23.9810659337998
20
-1.66095515347854
30
0
41
1
10
24.1657214232259
20
-1.6717470788056
30
0
41
1
10
24.3512262040496
20
-1.6718461206836
30
0
0
SPLINE
5
EF
100
AcDbEntity
8
1
62
256
6
ByLayer
370
18
48
1
60
0
100
AcDbSpline
70
4
71
3
72
32
73
28
40
0
40
0
40
0
40
0
40
0.0624999999999975
40
0.0624999999999975
40
0.124999999999995
40
0.124999999999995
40
0.249999999999994
40
0.249999999999994
40
0.312499999999993
40
0.312499999999993
40
0.374999999999993
40
0.374999999999993
40
0.437499999999994
40
0.437499999999994
40
0.499999999999995
40
0.499999999999995
40
0.624999999999998
40
0.624999999999998
40
0.687499999999998
40
0.687499999999998
40
0.749999999999998
40
0.749999999999998
40
0.812499999999999
40
0.812499999999999
40
0.874999999999999
40
0.874999999999999
40
1
40
1
40
1
40
1
41
1
10
29.272007545881
20
-1.6505846773023
30
0
41
1
10
29.1031581872004
20
-1.63367120260708
30
0
41
1
10
28.9347404397784
20
-1.60820568211474
30
0
41
1
10
28.5974680042239
20
-1.54103308805537
30
0
41
1
10
28.4281976158619
20
-1.49902384655249
30
0
41
1
10
27.9227322469486
20
-1.35086747554934
30
1E-16
41
1
10
27.589934194622
20
-1.22337863971359
30
1E-16
41
1
10
27.0893699308597
20
-0.998794447332841
30
1E-16
41
1
10
26.9223316748939
20
-0.918305649016361
30
1E-16
41
1
10
26.5863988067722
20
-0.747996527631244
30
0
41
1
10
26.4169437792447
20
-0.657887872338307
30
0
41
1
10
26.0794777629175
20
-0.472401434168063
30
0
41
1
10
25.9111067714036
20
-0.376848308687642
30
0
41
1
10
25.5736524689488
20
-0.182506747868132
30
0
41
1
10
25.404291709895
20
-0.0834733101591212
30
0
41
1
10
24.900415243801
20
0.210637632434754
30
0
41
1
10
24.5678339998754
20
0.404125056090322
30
0
41
1
10
24.0666493340036
20
0.678077785488057
30
0
41
1
10
23.8992232065399
20
0.766711015841707
30
0
41
1
10
23.562120639784
20
0.936048243016529
30
-1E-16
41
1
10
23.3927632605722
20
1.01650878219223
30
-1E-16
41
1
10
23.055417155183
20
1.16529128603409
30
-1E-16
41
1
10
22.8868382447855
20
1.23391962593968
30
-1E-16
41
1
10
22.5487129374372
20
1.35816264038255
30
0
41
1
10
22.3801127618623
20
1.41334997359832
30
0
41
1
10
21.8774706745207
20
1.55530755886741
30
0
41
1
10
21.5449983098546
20
1.61914788634741
30
0
41
1
10
21.2101166443601
20
1.64941573822927
30
0
0
SPLINE
5
F0
100
AcDbEntity
8
1
62
256
6
ByLayer
370
18
48
1
60
0
100
AcDbSpline
70
4
71
3
72
22
73
18
40
0
40
0
40
0
40
0
40
0.0508151448369653
40
0.0508151448369653
40
0.186412981288829
40
0.186412981288829
40
0.457608654192553
40
0.457608654192553
40
0.525407572418484
40
0.525407572418484
40
0.593206490644415
40
0.593206490644415
40
0.728804327096276
40
0.728804327096276
40
0.864402163548138
40
0.864402163548138
40
1
40
1
40
1
40
1
41
1
10
24.8811578357589
20
0.221434539231552
30
0
41
1
10
24.9581658317578
20
0.179159337699048
30
0
41
1
10
25.0352106457736
20
0.136623196558332
30
0
41
1
10
25.3181944164787
20
-0.0199953220210887
30
0
41
1
10
25.5223430563959
20
-0.133743910091852
30
0
41
1
10
26.1324977960791
20
-0.468286200717728
30
0
41
1
10
26.5365699140479
20
-0.682351792401647
30
0
41
1
10
27.0487433906449
20
-0.920241452048259
30
1E-16
41
1
10
27.1518075971233
20
-0.966423193914324
30
1E-16
41
1
10
27.3569153084941
20
-1.05440272279441
30
1E-16
41
1
10
27.4591081191524
20
-1.09628527918608
30
1E-16
41
1
10
27.7649519446169
20
-1.21517145197754
30
1E-16
41
1
10
27.9678624164883
20
-1.28544446725985
30
0
41
1
10
28.3739994761007
20
-1.4060317602634
30
0
41
1
10
28.5772492787907
20
-1.4560922756832
30
0
41
1
10
28.9863034527478
20
-1.53413055828582
30
0
41
1
10
29.1922570381174
20
-1.56164922797854
30
0
41
1
10
29.3977951319616
20
-1.57702600068018
30
0
0
SPLINE
5
F1
100
AcDbEntity
8
1
62
256
6
ByLayer
370
18
48
1
60
0
100
AcDbSpline
70
4
71
3
72
10
73
6
40
0
40
0
40
0
40
0
40
0.499999999999999
40
0.499999999999999
40
1
40
1
40
1
40
1
41
1
10
19.3365140918662
20
-1.6972353395978
30
0
41
1
10
19.3248522923982
20
-1.703735619198
30
0
41
1
10
19.3142501729554
20
-1.70797891334291
30
0
41
1
10
19.2977783914003
20
-1.70854974597444
30
0
41
1
10
19.2924431721135
20
-1.70437957981707
30
0
41
1
10
19.2924431721135
20
-1.69491547686727
30
1E-16
0
SPLINE
5
F2
100
AcDbEntity
8
1
62
256
6
ByLayer
370
18
48
1
60
0
100
AcDbSpline
70
4
71
3
72
14
73
10
40
0
40
0
40
0
40
0
40
0.252445506988636
40
0.252445506988636
40
0.504891013977273
40
0.504891013977273
40
0.75733652096591
40
0.75733652096591
40
1
40
1
40
1
40
1
41
1
10
29.3155438769099
20
1.64983890980875
30
0
41
1
10
29.1275000699706
20
1.64827252018316
30
0
41
1
10
28.9399399880338
20
1.6360418696791
30
0
41
1
10
28.563979833913
20
1.5906318879091
30
0
41
1
10
28.3754437465312
20
1.55736002138303
30
0
41
1
10
27.999782107082
20
1.47145386475333
30
0
41
1
10
27.8121574913984
20
1.41878002616872
30
0
41
1
10
27.4428054238586
20
1.297751382499
30
-1E-16
41
1
10
27.2621550936049
20
1.23040490551179
30
-1E-16
41
1
10
27.081630602265
20
1.1562107545804
30
-1E-16
0
SPLINE
5
F3
100
AcDbEntity
8
1
62
256
6
ByLayer
370
18
48
1
60
0
100
AcDbSpline
70
4
71
3
72
26
73
22
40
0
40
0
40
0
40
0
40
0.166169862276894
40
0.334629864343938
40
0.503089866410982
40
0.671549868478027
40
0.840009870545071
40
0.924239871578593
40
0.966354872095354
40
0.987412372353735
40
0.99267674741833
40
0.997941122482925
40
0.998270145924462
40
0.998599169365999
40
0.998928192807537
40
0.999092704528305
40
0.999257216249074
40
0.999421727969842
40
0.999586239690611
40
0.999915263132148
40
1
40
1
40
1
40
1
41
1
10
13.5112891791118
20
1.42530866050555
30
-1E-16
41
1
10
13.5408573829395
20
1.39671838366092
30
-1E-16
41
1
10
13.5960391869025
20
1.33946274190688
30
-1E-16
41
1
10
13.6630468001488
20
1.25360629952476
30
-1E-16
41
1
10
13.7121515454712
20
1.16635900436225
30
-1E-16
41
1
10
13.7422260313187
20
1.07652286728853
30
-1E-16
41
1
10
13.7518621978981
20
0.998069436521433
30
-1E-16
41
1
10
13.7511873299516
20
0.940592477138011
30
1E-16
41
1
10
13.7491017005045
20
0.911137050957791
30
1E-16
41
1
10
13.7477404660275
20
0.897286667493404
30
-1E-16
41
1
10
13.747038091905
20
0.890860008536606
30
-1E-16
41
1
10
13.7467449617924
20
0.888647376027137
30
-1E-16
41
1
10
13.7466567543843
20
0.887436874287687
30
-1E-16
41
1
10
13.7466307423036
20
0.887235434940891
30
-1E-16
41
1
10
13.7465527500153
20
0.887069235599995
30
-1E-16
41
1
10
13.7466656235211
20
0.88693100016269
30
-1E-16
41
1
10
13.7467176998656
20
0.88682357811237
30
-1E-16
41
1
10
13.7467547384345
20
0.886715327088041
30
-1E-16
41
1
10
13.7468690920256
20
0.886574266279126
30
-1E-16
41
1
10
13.7469251828022
20
0.8864533218605
30
-1E-16
41
1
10
13.7469781462949
20
0.886365474847878
30
-1E-16
41
1
10
13.7469891260072
20
0.886347480177022
30
-1E-16
0
SPLINE
5
F4
100
AcDbEntity
8
1
62
256
6
ByLayer
370
18
48
1
60
0
100
AcDbSpline
70
2053
71
3
72
36
73
32
40
0
40
0
40
0
40
0
40
0.125000000000003
40
0.125000000000003
40
0.187500000000005
40
0.187500000000005
40
0.250000000000007
40
0.250000000000007
40
0.312500000000009
40
0.312500000000009
40
0.343750000000009
40
0.343750000000009
40
0.37500000000001
40
0.37500000000001
40
0.437500000000012
40
0.437500000000012
40
0.500000000000014
40
0.500000000000014
40
0.625000000000017
40
0.625000000000017
40
0.687500000000014
40
0.687500000000014
40
0.750000000000011
40
0.750000000000011
40
0.812500000000009
40
0.812500000000009
40
0.875000000000006
40
0.875000000000006
40
0.937500000000003
40
0.937500000000003
40
1
40
1
40
1
40
1
41
1
10
29.6039709944293
20
-0.740402040795003
30
0
41
1
10
29.5767822814005
20
-0.78010978327967
30
0
41
1
10
29.5521588419524
20
-0.800345875344988
30
0
41
1
10
29.5219470993976
20
-0.797006818416662
30
0
41
1
10
29.5133083118795
20
-0.79034628640602
30
0
41
1
10
29.4985933702495
20
-0.765204484097097
30
0
41
1
10
29.4928433905598
20
-0.747272137674514
30
0
41
1
10
29.4849065696789
20
-0.70019192857751
30
0
41
1
10
29.4829085260437
20
-0.67204350892959
30
0
41
1
10
29.4837507090725
20
-0.624087571238107
30
0
41
1
10
29.4846724998831
20
-0.607641183782761
30
0
41
1
10
29.4879406113396
20
-0.573820171416088
30
0
41
1
10
29.4903372363636
20
-0.55625677299517
30
0
41
1
10
29.4995836600618
20
-0.505113506264593
30
0
41
1
10
29.5087573979186
20
-0.471816690708351
30
0
41
1
10
29.5313857652514
20
-0.414272121841833
30
0
41
1
10
29.5447633359553
20
-0.38999058641258
30
0
41
1
10
29.5869950880623
20
-0.333686418768337
30
0
41
1
10
29.6179305248425
20
-0.317422838391991
30
0
41
1
10
29.6571841391394
20
-0.322458029894307
30
0
41
1
10
29.66927592073
20
-0.329106823391413
30
0
41
1
10
29.6891385632542
20
-0.352879510293292
30
0
41
1
10
29.6969786696858
20
-0.370209192355105
30
0
41
1
10
29.7056311500438
20
-0.415376837304848
30
0
41
1
10
29.7063614393037
20
-0.443646490490551
30
0
41
1
10
29.6994267446906
20
-0.506378705765655
30
0
41
1
10
29.6917046853557
20
-0.541103351335209
30
0
41
1
10
29.6710429821041
20
-0.607778825992455
30
0
41
1
10
29.6582619681662
20
-0.639736364857072
30
0
41
1
10
29.6315622244892
20
-0.695996563326503
30
0
41
1
10
29.6175653509436
20
-0.720548169552671
30
0
41
1
10
29.6039709944293
20
-0.740402040795003
30
0
0
SPLINE
5
F5
100
AcDbEntity
8
1
62
256
6
ByLayer
370
18
48
1
60
0
100
AcDbSpline
70
4
71
3
72
14
73
10
40
0
40
0
40
0
40
0
40
0.263118942500525
40
0.263118942500525
40
0.541404560889291
40
0.541404560889291
40
0.822010631267526
40
0.822010631267526
40
1
40
1
40
1
40
1
41
1
10
29.2136162339611
20
-0.201062698390643
30
0
41
1
10
29.2143106218715
20
-0.201258365910547
30
0
41
1
10
29.2149979200409
20
-0.201849367458635
30
0
41
1
10
29.2162645910347
20
-0.203557213380407
30
0
41
1
10
29.2168603638935
20
-0.204732232324176
30
0
41
1
10
29.2178642722568
20
-0.207439195589842
30
0
41
1
10
29.2182859855425
20
-0.209014855562941
30
0
41
1
10
29.2187713631176
20
-0.211768906430535
30
0
41
1
10
29.2189124580277
20
-0.212902884560378
30
0
41
1
10
29.2189899453224
20
-0.214053373372764
30
0
0
SPLINE
5
F6
100
AcDbEntity
8
1
62
256
6
ByLayer
370
18
48
1
60
0
100
AcDbSpline
70
4
71
3
72
14
73
10
40
0
40
0
40
0
40
0
40
0.499999999999994
40
0.499999999999994
40
0.624999999999992
40
0.624999999999992
40
0.749999999999991
40
0.749999999999991
40
1
40
1
40
1
40
1
41
1
10
29.8345927410071
20
0.587474379320838
30
0
41
1
10
29.752477904064
20
0.734389451109735
30
0
41
1
10
29.6805306891379
20
0.892492058125811
30
0
41
1
10
29.5975705247671
20
1.10360428618856
30
0
41
1
10
29.5814772111331
20
1.14604157152112
30
0
41
1
10
29.5500072605033
20
1.23124188337158
30
0
41
1
10
29.534979438159
20
1.27417039734598
30
0
41
1
10
29.489518495667
20
1.40280633567218
30
0
41
1
10
29.4594306503084
20
1.48849125755962
30
0
41
1
10
29.4292813821237
20
1.57376219426939
30
0
0
SPLINE
5
F7
100
AcDbEntity
8
1
62
256
6
ByLayer
370
18
48
1
60
0
100
AcDbSpline
70
4
71
3
72
24
73
20
40
0
40
0
40
0
40
0
40
0.0505879595705712
40
0.0505879595705712
40
0.169264464624253
40
0.169264464624253
40
0.287940969677935
40
0.287940969677935
40
0.406617474731617
40
0.406617474731617
40
0.525293979785298
40
0.525293979785298
40
0.643970484838974
40
0.643970484838974
40
0.762646989892649
40
0.762646989892649
40
0.881323494946325
40
0.881323494946325
40
1
40
1
40
1
40
1
41
1
10
24.2400619573953
20
1.59819036471316
30
0
41
1
10
24.3242739057506
20
1.6005342765076
30
0
41
1
10
24.4088421223782
20
1.60059485852523
30
0
41
1
10
24.6914092355147
20
1.59255978234361
30
0
41
1
10
24.8893863628328
20
1.57440324613265
30
0
41
1
10
25.2857451622644
20
1.51783717999521
30
0
41
1
10
25.4834449601337
20
1.47986355590612
30
0
41
1
10
25.8761259066417
20
1.38233335453791
30
0
41
1
10
26.0714290072675
20
1.32346504958147
30
0
41
1
10
26.4627933400495
20
1.18798714273615
30
-1E-16
41
1
10
26.6588771546549
20
1.11124081964843
30
-1E-16
41
1
10
27.0521417821724
20
0.942991310448093
30
-1E-16
41
1
10
27.2504546387727
20
0.850706143356746
30
-1E-16
41
1
10
27.6442818742628
20
0.656727540710705
30
0
41
1
10
27.8402181360814
20
0.555066436915268
30
0
41
1
10
28.2314375467317
20
0.345699084461757
30
0
41
1
10
28.4264678411801
20
0.237656884492594
30
0
41
1
10
28.8181834445164
20
0.0190387810854133
30
0
41
1
10
29.0155204921896
20
-0.0913530518312768
30
0
41
1
10
29.213616233958
20
-0.201062698396754
30
0
0
SPLINE
5
F8
100
AcDbEntity
8
1
62
256
6
ByLayer
370
18
48
1
60
0
100
AcDbSpline
70
4
71
3
72
10
73
6
40
0
40
0
40
0
40
0
40
0.25470485578014
40
0.25470485578014
40
1
40
1
40
1
40
1
41
1
10
20.2612244085973
20
-0.237413985531191
30
0
41
1
10
20.1911175988914
20
-0.199040376579092
30
0
41
1
10
20.1210539392255
20
-0.160571183642389
30
0
41
1
10
19.8460537117601
20
-0.0093259586436432
30
0
41
1
10
19.6414935901857
20
0.104273011527823
30
0
41
1
10
19.4366019375862
20
0.217453129239345
30
0
0
SPLINE
5
F9
100
AcDbEntity
8
1
62
256
6
ByLayer
370
18
48
1
60
0
100
AcDbSpline
70
4
71
3
72
10
73
6
40
0
40
0
40
0
40
0
40
0.5
40
0.5
40
1
40
1
40
1
40
1
41
1
10
19.343645631125
20
-1.41402004693961
30
0
41
1
10
19.3259403184402
20
-1.41712536364213
30
0
41
1
10
19.3132726853304
20
-1.42141362577652
30
0
41
1
10
19.2965917689324
20
-1.43037255961929
30
0
41
1
10
19.2924431721135
20
-1.4351957057626
30
0
41
1
10
19.2924431721135
20
-1.4397896014213
30
0
0
SPLINE
5
FA
100
AcDbEntity
8
1
62
256
6
ByLayer
370
18
48
1
60
0
100
AcDbSpline
70
4
71
3
72
8
73
4
40
0
40
0
40
0
40
0
40
1
40
1
40
1
40
1
41
1
10
20.8051765516566
20
1.64808571410921
30
0
41
1
10
20.9399750009216
20
1.65386886140686
30
0
41
1
10
21.0748387646187
20
1.65415748679533
30
0
41
1
10
21.2101180786683
20
1.64875054256515
30
0
0
SPLINE
5
FB
100
AcDbEntity
8
1
62
256
6
ByLayer
370
18
48
1
60
0
100
AcDbSpline
70
4
71
3
72
8
73
4
40
0
40
0
40
0
40
0
40
1
40
1
40
1
40
1
41
1
10
19.5927013036523
20
0.384111259144817
30
0
41
1
10
19.3978955774452
20
0.410339750611541
30
0
41
1
10
19.2071714323527
20
0.405378255251861
30
0
41
1
10
19.0174431721147
20
0.378925243198495
30
0
0
SPLINE
5
FC
100
AcDbEntity
8
1
62
256
6
ByLayer
370
18
48
1
60
0
100
AcDbSpline
70
4
71
3
72
28
73
24
40
0
40
0
40
0
40
0
40
0.0384037883714303
40
0.0384037883714303
40
0.118536806007144
40
0.118536806007144
40
0.198669823642858
40
0.198669823642858
40
0.358935858914285
40
0.358935858914285
40
0.399002367732142
40
0.399002367732142
40
0.439068876549998
40
0.439068876549998
40
0.519201894185712
40
0.519201894185712
40
0.679467929457141
40
0.679467929457141
40
0.839733964728571
40
0.839733964728571
40
0.919866982364286
40
0.919866982364286
40
1
40
1
40
1
40
1
41
1
10
27.0655384159285
20
-1.1589668462245
30
1E-16
41
1
10
26.9704720123234
20
-1.19901633194453
30
1E-16
41
1
10
26.8755084898173
20
-1.23710096175179
30
0
41
1
10
26.5823448754781
20
-1.34816837219287
30
0
41
1
10
26.3840957377437
20
-1.4141116462917
30
0
41
1
10
25.9853025045662
20
-1.52524095426864
30
0
41
1
10
25.7837197533672
20
-1.5705182242346
30
0
41
1
10
25.1848277577088
20
-1.66966826775481
30
0
41
1
10
24.7905999824091
20
-1.68810665932489
30
0
41
1
10
24.2932881326379
20
-1.65075628635236
30
0
41
1
10
24.1935993151181
20
-1.64026648876973
30
0
41
1
10
23.9934888730748
20
-1.61322898729466
30
0
41
1
10
23.892795966926
20
-1.59661893066016
30
0
41
1
10
23.5923080613303
20
-1.53834288381796
30
0
41
1
10
23.3934973304792
20
-1.48822306007261
30
0
41
1
10
22.7983131277199
20
-1.3074709380976
30
1E-16
41
1
10
22.4032585531788
20
-1.14638015847055
30
1E-16
41
1
10
21.5992538308765
20
-0.760898549184844
30
0
41
1
10
21.2038448914186
20
-0.543272535916344
30
0
41
1
10
20.6086848691814
20
-0.202330511033892
30
0
41
1
10
20.4099045578631
20
-0.0862066813529339
30
0
41
1
10
20.0093675055501
20
0.147297595249313
30
0
41
1
10
19.8079772292731
20
0.264449151686591
30
0
41
1
10
19.6068559392737
20
0.378607424205256
30
0
0
SPLINE
5
FD
100
AcDbEntity
8
1
62
256
6
ByLayer
370
18
48
1
60
0
100
AcDbSpline
70
4
71
3
72
8
73
4
40
0
40
0
40
0
40
0
40
1
40
1
40
1
40
1
41
1
10
29.2720075458748
20
-1.6505846773023
30
0
41
1
10
29.2744095317966
20
-1.66402738813718
30
0
41
1
10
29.2763624772709
20
-1.67203759777971
30
0
41
1
10
29.2781417443088
20
-1.67427399003759
30
0
0
SPLINE
5
FE
100
AcDbEntity
8
1
62
256
6
ByLayer
370
18
48
1
60
0
100
AcDbSpline
70
4
71
3
72
22
73
18
40
0
40
0
40
0
40
0
40
0.226866532787858
40
0.226866532787858
40
0.283583165984825
40
0.283583165984825
40
0.340299799181791
40
0.340299799181791
40
0.45373306557573
40
0.45373306557573
40
0.680599598363603
40
0.680599598363603
40
0.794032864757539
40
0.794032864757539
40
0.907466131151475
40
0.907466131151475
40
1
40
1
40
1
40
1
41
1
10
29.1677502526858
20
0.0512785401652138
30
0
41
1
10
28.8350749593527
20
0.245830103531773
30
0
41
1
10
28.5045891098936
20
0.437975210143662
30
0
41
1
10
28.0878902923373
20
0.664314967836333
30
0
41
1
10
28.0043704820851
20
0.708890009128737
30
0
41
1
10
27.8368063307449
20
0.796372830367346
30
0
41
1
10
27.7525678648809
20
0.83937425057664
30
-1E-16
41
1
10
27.5009482408875
20
0.964395059661172
30
-1E-16
41
1
10
27.3342954235216
20
1.0426387484242
30
-1E-16
41
1
10
26.8356588359337
20
1.25981746184948
30
-1E-16
41
1
10
26.5050093595912
20
1.3812180334991
30
0
41
1
10
26.0041151300628
20
1.51957323437477
30
0
41
1
10
25.8355082899948
20
1.5585149617161
30
0
41
1
10
25.5006445641471
20
1.61943535879135
30
0
41
1
10
25.3342080345462
20
1.64155517622396
30
0
41
1
10
25.0326334548641
20
1.66648316211658
30
0
41
1
10
24.8973821890308
20
1.6720985070769
30
0
41
1
10
24.7620210133864
20
1.6721044137692
30
0
0
SPLINE
5
FF
100
AcDbEntity
8
1
62
256
6
ByLayer
370
18
48
1
60
0
100
AcDbSpline
70
4
71
3
72
10
73
6
40
0
40
0
40
0
40
0
40
0.5
40
0.5
40
1
40
1
40
1
40
1
41
1
10
19.343645631125
20
-1.40221824002509
30
0
41
1
10
19.3259400117222
20
-1.40668446400977
30
0
41
1
10
19.313264801916
20
-1.41288048533983
30
0
41
1
10
19.2965854975138
20
-1.4259284377589
30
0
41
1
10
19.2924431721135
20
-1.43300295543276
30
0
41
1
10
19.2924431721135
20
-1.4397896014213
30
0
0
SPLINE
5
100
100
AcDbEntity
8
1
62
256
6
ByLayer
370
18
48
1
60
0
100
AcDbSpline
70
4
71
3
72
18
73
14
40
0
40
0
40
0
40
0
40
0.250000000000001
40
0.250000000000001
40
0.500000000000002
40
0.500000000000002
40
0.625000000000001
40
0.625000000000001
40
0.750000000000001
40
0.750000000000001
40
0.875
40
0.875
40
1
40
1
40
1
40
1
41
1
10
29.2189899453224
20
-0.21405337337265
30
0
41
1
10
29.2304591694317
20
-0.384342116395288
30
0
41
1
10
29.2505584382285
20
-0.545748777392163
30
0
41
1
10
29.2918050422169
20
-0.852678160330839
30
1E-16
41
1
10
29.3119254586663
20
-0.990993923513827
30
1E-16
41
1
10
29.3362736164866
20
-1.1742051609933
30
1E-16
41
1
10
29.343400294381
20
-1.23046380290981
30
1E-16
41
1
10
29.3557413705036
20
-1.33108704461691
30
0
41
1
10
29.3610105815691
20
-1.37587562554444
30
0
41
1
10
29.3707960377257
20
-1.4540881854806
30
0
41
1
10
29.3752993763249
20
-1.48726001036647
30
0
41
1
10
29.3849773664631
20
-1.53980855435603
30
0
41
1
10
29.3901904274202
20
-1.55953877260052
30
0
41
1
10
29.3968856830569
20
-1.57260676100856
30
0
0
SPLINE
5
101
100
AcDbEntity
8
1
62
256
6
ByLayer
370
18
48
1
60
0
100
AcDbSpline
70
4
71
3
72
8
73
4
40
0
40
0
40
0
40
0
40
1
40
1
40
1
40
1
41
1
10
20.8063899669034
20
1.62981475148968
30
0
41
1
10
20.8067496161831
20
1.62917975222047
30
0
41
1
10
20.8071091468141
20
1.62854468565001
30
0
41
1
10
20.8074685586833
20
1.62790955171423
30
0
0
SPLINE
5
102
100
AcDbEntity
8
1
62
256
6
ByLayer
370
18
48
1
60
0
100
AcDbSpline
70
4
71
3
72
12
73
8
40
0
40
0
40
0
40
0
40
0.500000000000001
40
0.500000000000001
40
0.750000000000001
40
0.750000000000001
40
1
40
1
40
1
40
1
41
1
10
19.2924431721135
20
0.153573768655292
30
0
41
1
10
19.2924431721135
20
0.171289132271823
30
0
41
1
10
19.3003033514456
20
0.188877657411695
30
0
41
1
10
19.3257548646703
20
0.21060911619881
30
0
41
1
10
19.3365234226338
20
0.216967659577392
30
0
41
1
10
19.3625264403684
20
0.226165756723731
30
0
41
1
10
19.3776489081532
20
0.228849333550016
30
0
41
1
10
19.3932148297279
20
0.228760140114872
30
0
0
SPLINE
5
103
100
AcDbEntity
8
1
62
256
6
ByLayer
370
18
48
1
60
0
100
AcDbSpline
70
4
71
3
72
12
73
8
40
0
40
0
40
0
40
0
40
0.456740675018949
40
0.456740675018949
40
0.911070258902304
40
0.911070258902304
40
1
40
1
40
1
40
1
41
1
10
19.5927013036523
20
0.150310605216646
30
0
41
1
10
19.5944588647079
20
0.149126926264785
30
0
41
1
10
19.5965236452929
20
0.147799656966726
30
0
41
1
10
19.6008510350843
20
0.145109819058007
30
0
41
1
10
19.603169993282
20
0.143711424598223
30
0
41
1
10
19.6059390447845
20
0.142083786053007
30
0
41
1
10
19.6063975959142
20
0.141815610978824
30
0
41
1
10
19.6068559392737
20
0.141548889103802
30
0
0
SPLINE
5
104
100
AcDbEntity
8
1
62
256
6
ByLayer
370
18
48
1
60
0
100
AcDbSpline
70
4
71
3
72
8
73
4
40
0
40
0
40
0
40
0
40
1
40
1
40
1
40
1
41
1
10
29.834592741007
20
-0.587474379320753
30
0
41
1
10
29.8904666964297
20
-0.431842304356536
30
0
41
1
10
29.9447978971914
20
-0.275657000123203
30
0
41
1
10
29.9975619822281
20
-0.118909730783486
30
0
0
SPLINE
5
105
100
AcDbEntity
8
1
62
256
6
ByLayer
370
18
48
1
60
0
100
AcDbSpline
70
4
71
3
72
24
73
20
40
0
40
0
40
0
40
0
40
0.007033416529471
40
0.007033416529471
40
0.117363036915085
40
0.117363036915085
40
0.338022277686313
40
0.338022277686313
40
0.448351898071928
40
0.448351898071928
40
0.558681518457544
40
0.558681518457544
40
0.779340759228775
40
0.779340759228775
40
0.834505569421582
40
0.834505569421582
40
0.889670379614389
40
0.889670379614389
40
1
40
1
40
1
40
1
41
1
10
15.0022002325219
20
2.25000010839233
30
0
41
1
10
15.0116776784215
20
2.25000057133997
30
0
41
1
10
15.0211595019082
20
2.24996411162024
30
0
41
1
10
15.1794538913404
20
2.2487381000881
30
0
41
1
10
15.3278935054816
20
2.23843432156636
30
0
41
1
10
15.7701940816545
20
2.18130293654701
30
0
41
1
10
16.062722865645
20
2.1083493064387
30
0
41
1
10
16.50604650184
20
1.94956983647157
30
1E-16
41
1
10
16.6553814841253
20
1.88799145114874
30
1E-16
41
1
10
16.9520229366741
20
1.75095284940201
30
-1E-16
41
1
10
17.0993899743669
20
1.67557928032866
30
-1E-16
41
1
10
17.5406469631945
20
1.43105497240509
30
-1E-16
41
1
10
17.8336539247329
20
1.24353358565443
30
-1E-16
41
1
10
18.205160111884
20
0.984575128192944
30
-1E-16
41
1
10
18.2798084141745
20
0.931488054817919
30
-1E-16
41
1
10
18.4282229093877
20
0.824170239827879
30
-1E-16
41
1
10
18.5021804259404
20
0.769808794272308
30
0
41
1
10
18.7235628007978
20
0.604954492494556
30
0
41
1
10
18.870498482813
20
0.492694129314515
30
0
41
1
10
19.0174431721211
20
0.378925243193578
30
0
0
SPLINE
5
106
100
AcDbEntity
8
1
62
256
6
ByLayer
370
18
48
1
60
0
100
AcDbSpline
70
4
71
3
72
12
73
8
40
0
40
0
40
0
40
0
40
0.253453034537361
40
0.253453034537361
40
0.506906069074721
40
0.506906069074721
40
1
40
1
40
1
40
1
41
1
10
29.2781417443088
20
1.67427399003759
30
0
41
1
10
29.0913231327151
20
1.67110391870571
30
0
41
1
10
28.9047746516243
20
1.65725935808709
30
0
41
1
10
28.5304036728178
20
1.60850057225139
30
0
41
1
10
28.3425416524136
20
1.57349650158468
30
0
41
1
10
27.7913681393393
20
1.44187675195707
30
0
41
1
10
27.4264066665578
20
1.31717383560709
30
-1E-16
41
1
10
27.062299082322
20
1.16424606669165
30
-1E-16
0
SPLINE
5
107
100
AcDbEntity
8
1
62
256
6
ByLayer
370
18
48
1
60
0
100
AcDbSpline
70
4
71
3
72
8
73
4
40
0
40
0
40
0
40
0
40
1
40
1
40
1
40
1
41
1
10
20.4673866942547
20
-1.66821032184382
30
0
41
1
10
20.4091788876611
20
-1.66946597326964
30
0
41
1
10
20.3508733669381
20
-1.66969070372065
30
0
41
1
10
20.2924431721135
20
-1.66887273568815
30
0
0
SPLINE
5
108
100
AcDbEntity
8
1
62
256
6
ByLayer
370
18
48
1
60
0
100
AcDbSpline
70
4
71
3
72
12
73
8
40
0
40
0
40
0
40
0
40
0.543113683140682
40
0.543113683140682
40
0.814670524711029
40
0.814670524711029
40
1
40
1
40
1
40
1
41
1
10
18.712946188754
20
2.03464821098049
30
0
41
1
10
18.496963701049
20
1.96223635415132
30
1E-16
41
1
10
18.2819510888598
20
1.87284331468669
30
1E-16
41
1
10
17.9577724441492
20
1.71533852427527
30
-1E-16
41
1
10
17.8494364011613
20
1.65892748689873
30
-1E-16
41
1
10
17.6662411080031
20
1.55767403189748
30
-1E-16
41
1
10
17.5916538516358
20
1.51481811551602
30
-1E-16
41
1
10
17.5172651077972
20
1.47059629606247
30
-1E-16
0
SPLINE
5
109
100
AcDbEntity
8
1
62
256
6
ByLayer
370
18
48
1
60
0
100
AcDbSpline
70
4
71
3
72
8
73
4
40
0
40
0
40
0
40
0
40
1
40
1
40
1
40
1
41
1
10
29.4292813821237
20
1.57376219426942
30
0
41
1
10
29.3913191668109
20
1.59932395760995
30
0
41
1
10
29.3534103950345
20
1.62468477027954
30
0
41
1
10
29.3155438769099
20
1.64983890980866
30
0
0
SPLINE
5
10A
100
AcDbEntity
8
1
62
256
6
ByLayer
370
18
48
1
60
0
100
AcDbSpline
70
4
71
3
72
30
73
26
40
0
40
0
40
0
40
0
40
0.160755454745707
40
0.160755454745707
40
0.241133182118561
40
0.241133182118561
40
0.281322045804988
40
0.281322045804988
40
0.321510909491415
40
0.321510909491415
40
0.482266364237128
40
0.482266364237128
40
0.562644091609983
40
0.562644091609983
40
0.643021818982838
40
0.643021818982838
40
0.80377727372855
40
0.80377727372855
40
0.884155001101408
40
0.884155001101408
40
0.924343864787835
40
0.924343864787835
40
0.964532728474263
40
0.964532728474263
40
1
40
1
40
1
40
1
41
1
10
11.9303265346822
20
-1.0758240221987
30
1E-16
41
1
10
12.2126455512888
20
-1.26933272090918
30
1E-16
41
1
10
12.4897609058991
20
-1.44548158945341
30
1E-16
41
1
10
12.9060641201601
20
-1.67583609970441
30
1E-16
41
1
10
13.0449020789991
20
-1.74701569739096
30
1E-16
41
1
10
13.2541448353652
20
-1.84452016288248
30
-1E-16
41
1
10
13.3240562590497
20
-1.87547713720136
30
-1E-16
41
1
10
13.4643531736076
20
-1.93414831946359
30
-1E-16
41
1
10
13.534879370605
20
-1.96190784231965
30
-1E-16
41
1
10
13.8857208571297
20
-2.09101504211768
30
0
41
1
10
14.1627695140891
20
-2.16438008953276
30
0
41
1
10
14.5795254498529
20
-2.22813207564573
30
0
41
1
10
14.7186351973446
20
-2.2416447213501
30
0
41
1
10
14.9983682325139
20
-2.2526778788789
30
0
41
1
10
15.1395715482163
20
-2.25009681551344
30
0
41
1
10
15.5592950139006
20
-2.21824256193352
30
0
41
1
10
15.8359459962816
20
-2.16528698749272
30
0
41
1
10
16.2529976251103
20
-2.04127628432909
30
0
41
1
10
16.3923551989077
20
-1.99248866998681
30
-1E-16
41
1
10
16.6027674564702
20
-1.90833012718488
30
-1E-16
41
1
10
16.6732948760937
20
-1.87836963793555
30
-1E-16
41
1
10
16.8136798320189
20
-1.8154023225016
30
-1E-16
41
1
10
16.8836376966838
20
-1.78236354920296
30
1E-16
41
1
10
17.0150300659964
20
-1.71739274240781
30
1E-16
41
1
10
17.0765006349592
20
-1.68579058293591
30
1E-16
41
1
10
17.1378934114321
20
-1.65309135721782
30
1E-16
0
SPLINE
5
10B
100
AcDbEntity
8
1
62
256
6
ByLayer
370
18
48
1
60
0
100
AcDbSpline
70
4
71
3
72
30
73
26
40
0
40
0
40
0
40
0
40
0.0349704553390089
40
0.0349704553390089
40
0.122700413944554
40
0.122700413944554
40
0.210430372550098
40
0.210430372550098
40
0.298160331155643
40
0.298160331155643
40
0.385890289761188
40
0.385890289761188
40
0.473620248366732
40
0.473620248366732
40
0.561350206972277
40
0.561350206972277
40
0.649080165577821
40
0.649080165577821
40
0.736810124183366
40
0.736810124183366
40
0.824540082788911
40
0.824540082788911
40
0.912270041394455
40
0.912270041394455
40
1
40
1
40
1
40
1
41
1
10
23.4714702231422
20
1.59301690029503
30
0
41
1
10
23.5383701855462
20
1.60479989516068
30
0
41
1
10
23.6052785347595
20
1.61529968368242
30
0
41
1
10
23.8395149237465
20
1.6474847215726
30
0
41
1
10
24.0064445809223
20
1.66230625247277
30
0
41
1
10
24.3404794890026
20
1.67472310213913
30
0
41
1
10
24.5084257677876
20
1.6721772357694
30
0
41
1
10
24.8418961259909
20
1.65053126318546
30
0
41
1
10
25.0078929913446
20
1.63147032643346
30
0
41
1
10
25.3388962337471
20
1.577137785274
30
0
41
1
10
25.5037663124901
20
1.54168616290573
30
0
41
1
10
25.8351001309169
20
1.45590594948163
30
0
41
1
10
26.0011699541749
20
1.40533759528824
30
0
41
1
10
26.335577497524
20
1.28979600248462
30
-1E-16
41
1
10
26.5037843017244
20
1.2252590910131
30
-1E-16
41
1
10
26.8383532003328
20
1.08438732355771
30
-1E-16
41
1
10
27.0051982728324
20
1.0077083966124
30
-1E-16
41
1
10
27.3399463939454
20
0.844198407519599
30
-1E-16
41
1
10
27.5073379933012
20
0.757897859544357
30
0
41
1
10
27.8417395460052
20
0.579505885314802
30
0
41
1
10
28.0088917824524
20
0.487064557186443
30
0
41
1
10
28.343877536082
20
0.29686711198471
30
0
41
1
10
28.5111150249086
20
0.199147615328542
30
0
41
1
10
28.8450470023989
20
0.0041510255437629
30
0
41
1
10
29.0120721347548
20
-0.0934007655340565
30
0
41
1
10
29.1794505796018
20
-0.190499916904656
30
0
0
SPLINE
5
10C
100
AcDbEntity
8
1
62
256
6
ByLayer
370
18
48
1
60
0
100
AcDbSpline
70
4
71
3
72
20
73
16
40
0
40
0
40
0
40
0
40
0.0794234914453506
40
0.0794234914453506
40
0.210934421238872
40
0.210934421238872
40
0.342445351032392
40
0.342445351032392
40
0.473956280825913
40
0.473956280825913
40
0.605467210619434
40
0.605467210619434
40
0.736978140412955
40
0.736978140412955
40
1
40
1
40
1
40
1
41
1
10
24.8496293821113
20
0.0044734475221162
30
0
41
1
10
24.7424362670062
20
0.0662170597356067
30
0
41
1
10
24.6351704117732
20
0.127995466757142
30
0
41
1
10
24.3507542611769
20
0.290750985972835
30
0
41
1
10
24.1738405804419
20
0.390903917917626
30
0
41
1
10
23.8193093854179
20
0.585964754091805
30
0
41
1
10
23.6414534388196
20
0.680975473708259
30
0
41
1
10
23.2870703336766
20
0.86137770911165
30
-1E-16
41
1
10
23.1101294381215
20
0.94701210860265
30
-1E-16
41
1
10
22.7552394816752
20
1.10693444997622
30
-1E-16
41
1
10
22.5775989299718
20
1.18104798333425
30
-1E-16
41
1
10
22.2233530585677
20
1.31453894700505
30
-1E-16
41
1
10
22.0463353661786
20
1.37411079322152
30
0
41
1
10
21.5133240482693
20
1.52873407871982
30
0
41
1
10
21.1610193552587
20
1.59794835447795
30
0
41
1
10
20.8063899669038
20
1.62981475148894
30
0
0
SPLINE
5
10D
100
AcDbEntity
8
1
62
256
6
ByLayer
370
18
48
1
60
0
100
AcDbSpline
70
4
71
3
72
8
73
4
40
0
40
0
40
0
40
0
40
1
40
1
40
1
40
1
41
1
10
29.2720075458813
20
-1.65058467729807
30
0
41
1
10
29.3089056831336
20
-1.63016012092288
30
0
41
1
10
29.3459263029212
20
-1.60907148525268
30
0
41
1
10
29.3831003863508
20
-1.58734160968842
30
0
0
SPLINE
5
10E
100
AcDbEntity
8
1
62
256
6
ByLayer
370
18
48
1
60
0
100
AcDbSpline
70
4
71
3
72
8
73
4
40
0
40
0
40
0
40
0
40
1
40
1
40
1
40
1
41
1
10
29.1794505796018
20
-0.190499916904656
30
0
41
1
10
29.190880441456
20
-0.194345960894339
30
0
41
1
10
29.2022660866031
20
-0.197864406578986
30
0
41
1
10
29.2136162339644
20
-0.201062698400847
30
0
0
SPLINE
5
10F
100
AcDbEntity
8
1
62
256
6
ByLayer
370
18
48
1
60
0
100
AcDbSpline
70
4
71
3
72
8
73
4
40
0
40
0
40
0
40
0
40
1
40
1
40
1
40
1
41
1
10
29.2781417443088
20
1.67427399003762
30
0
41
1
10
29.290647942783
20
1.66614950280766
30
0
41
1
10
29.3031157181626
20
1.6580054804339
30
0
41
1
10
29.31554387691
20
1.64983890980875
30
0
0
SPLINE
5
110
100
AcDbEntity
8
1
62
256
6
ByLayer
370
18
48
1
60
0
100
AcDbSpline
70
4
71
3
72
14
73
10
40
0
40
0
40
0
40
0
40
0.404492353044449
40
0.404492353044449
40
0.553369264783337
40
0.553369264783337
40
0.702246176522224
40
0.702246176522224
40
1
40
1
40
1
40
1
41
1
10
21.6378817115956
20
-1.59253983417125
30
0
41
1
10
21.3662796690875
20
-1.64008495810336
30
0
41
1
10
21.094506992558
20
-1.66618400093657
30
0
41
1
10
20.71864398769
20
-1.67043572465013
30
0
41
1
10
20.617155511807
20
-1.66844523796263
30
0
41
1
10
20.4149833412264
20
-1.65825284994097
30
0
41
1
10
20.3140667069241
20
-1.65005771215331
30
0
41
1
10
20.0114258265869
20
-1.61630557020319
30
0
41
1
10
19.8097299864354
20
-1.58159411989422
30
0
41
1
10
19.6068559392737
20
-1.53520714519172
30
0
0
SPLINE
5
111
100
AcDbEntity
8
1
62
256
6
ByLayer
370
18
48
1
60
0
100
AcDbSpline
70
4
71
3
72
8
73
4
40
0
40
0
40
0
40
0
40
1
40
1
40
1
40
1
41
1
10
19.4414346354748
20
0.227449606729579
30
0
41
1
10
19.4266753268538
20
0.23565297170768
30
0
41
1
10
19.4101442103268
20
0.239985436579786
30
0
41
1
10
19.3932148297279
20
0.240097984054756
30
0
0
SPLINE
5
112
100
AcDbEntity
8
1
62
256
6
ByLayer
370
18
48
1
60
0
100
AcDbSpline
70
4
71
3
72
32
73
28
40
0
40
0
40
0
40
0
40
0.0625000000000006
40
0.0625000000000006
40
0.125000000000001
40
0.125000000000001
40
0.187500000000002
40
0.187500000000002
40
0.250000000000002
40
0.250000000000002
40
0.375000000000003
40
0.375000000000003
40
0.437500000000003
40
0.437500000000003
40
0.500000000000003
40
0.500000000000003
40
0.562500000000002
40
0.562500000000002
40
0.625000000000002
40
0.625000000000002
40
0.687500000000002
40
0.687500000000002
40
0.750000000000001
40
0.750000000000001
40
0.875000000000001
40
0.875000000000001
40
1
40
1
40
1
40
1
41
1
10
29.2781417443088
20
-1.67427399003759
30
0
41
1
10
29.1020398915321
20
-1.67128576830629
30
0
41
1
10
28.9261779441963
20
-1.65881258638564
30
0
41
1
10
28.5734149509779
20
-1.61513035918941
30
0
41
1
10
28.3962680424675
20
-1.58381338811947
30
0
41
1
10
28.0433948853427
20
-1.50379871431349
30
0
41
1
10
27.8671989127151
20
-1.45507024207436
30
0
41
1
10
27.5137587392211
20
-1.34133544663177
30
1E-16
41
1
10
27.336896123494
20
-1.2764141583921
30
1E-16
41
1
10
26.8077372925672
20
-1.06161051012015
30
1E-16
41
1
10
26.4539076934325
20
-0.890271434407737
30
1E-16
41
1
10
25.9246963101571
20
-0.609721359546739
30
0
41
1
10
25.7478123835543
20
-0.511949697313526
30
0
41
1
10
25.3942944571413
20
-0.311850328338551
30
0
41
1
10
25.2180516673926
20
-0.209762729856067
30
0
41
1
10
24.8650700690779
20
-0.0041229955307927
30
0
41
1
10
24.687910394657
20
0.0996757986456487
30
0
41
1
10
24.3347317358839
20
0.304261164326618
30
0
41
1
10
24.1584950353847
20
0.405177727024466
30
0
41
1
10
23.8052002279702
20
0.601688471408863
30
0
41
1
10
23.6280685210829
20
0.697297570116291
30
0
41
1
10
23.2750892656717
20
0.878788191559408
30
-1E-16
41
1
10
23.0987896595011
20
0.964932584566981
30
-1E-16
41
1
10
22.568168001784
20
1.20617682332897
30
-1E-16
41
1
10
22.2156029850914
20
1.34230127075728
30
-1E-16
41
1
10
21.5078854982056
20
1.54867173622452
30
0
41
1
10
21.1583722668672
20
1.61744083813474
30
0
41
1
10
20.8072026602728
20
1.64916972438166
30
0
0
SPLINE
5
113
100
AcDbEntity
8
1
62
256
6
ByLayer
370
18
48
1
60
0
100
AcDbSpline
70
4
71
3
72
8
73
4
40
0
40
0
40
0
40
0
40
1
40
1
40
1
40
1
41
1
10
19.0174431721147
20
-2.12506480148755
30
0
41
1
10
19.2095857394315
20
-1.9580169791424
30
0
41
1
10
19.4011071645204
20
-1.78999843587778
30
0
41
1
10
19.5927013036523
20
-1.61755605183529
30
0
0
SPLINE
5
114
100
AcDbEntity
8
1
62
256
6
ByLayer
370
18
48
1
60
0
100
AcDbSpline
70
4
71
3
72
40
73
36
40
0
40
0
40
0
40
0
40
0.124999999999997
40
0.124999999999997
40
0.187499999999996
40
0.187499999999996
40
0.249999999999994
40
0.249999999999994
40
0.312499999999993
40
0.312499999999993
40
0.374999999999991
40
0.374999999999991
40
0.43749999999999
40
0.43749999999999
40
0.46874999999999
40
0.46874999999999
40
0.499999999999991
40
0.499999999999991
40
0.531249999999991
40
0.531249999999991
40
0.562499999999991
40
0.562499999999991
40
0.624999999999992
40
0.624999999999992
40
0.687499999999993
40
0.687499999999993
40
0.718749999999993
40
0.718749999999993
40
0.749999999999994
40
0.749999999999994
40
0.812499999999994
40
0.812499999999994
40
0.874999999999995
40
0.874999999999995
40
1
40
1
40
1
40
1
41
1
10
12.5028527911603
20
1.81296587682746
30
-1E-16
41
1
10
12.3522093699279
20
1.76113103045202
30
-1E-16
41
1
10
12.2046094221824
20
1.70255691590526
30
-1E-16
41
1
10
11.9893927344587
20
1.60045973377493
30
-1E-16
41
1
10
11.9186930191748
20
1.56403254274622
30
-1E-16
41
1
10
11.7798290841383
20
1.48521886546999
30
-1E-16
41
1
10
11.7114473254405
20
1.44267437334156
30
-1E-16
41
1
10
11.5797388048595
20
1.35118747704587
30
-1E-16
41
1
10
11.5162536957171
20
1.30219625984904
30
-1E-16
41
1
10
11.3952848752744
20
1.19586065763292
30
-1E-16
41
1
10
11.3376533034669
20
1.13827603392514
30
-1E-16
41
1
10
11.2329154763757
20
1.01499337367679
30
-1E-16
41
1
10
11.1854621207381
20
0.949082112923435
30
-1E-16
41
1
10
11.12390962545
20
0.841742024042276
30
-1E-16
41
1
10
11.10490817218
20
0.804287852821261
30
0
41
1
10
11.0713255677415
20
0.727463432035108
30
0
41
1
10
11.0567265953885
20
0.688136013323884
30
0
41
1
10
11.0322353129948
20
0.607503116265292
30
0
41
1
10
11.0223419926186
20
0.566198080370611
30
0
41
1
10
11.0076789683906
20
0.481420932339489
30
0
41
1
10
11.0029724145936
20
0.4379727336526
30
0
41
1
10
10.9971741306841
20
0.308361503491284
30
0
41
1
10
11.0041117647931
20
0.221472254826381
30
0
41
1
10
11.0384485076646
20
0.047460669800131
30
0
41
1
10
11.0651015781417
20
-0.036349707169876
30
0
41
1
10
11.1163855485733
20
-0.15825564049041
30
0
41
1
10
11.1354577402736
20
-0.198361423205455
30
0
41
1
10
11.1762773658822
20
-0.275986717418732
30
0
41
1
10
11.198090740218
20
-0.3136912954173
30
0
41
1
10
11.2671530493887
20
-0.423942246718639
30
0
41
1
10
11.3179942789365
20
-0.493649148533052
30
0
41
1
10
11.4272303201475
20
-0.627084444938788
30
0
41
1
10
11.4856508546657
20
-0.690723069621839
30
0
41
1
10
11.6662449392963
20
-0.87044112743834
30
1E-16
41
1
10
11.7949837635473
20
-0.977228381868656
30
1E-16
41
1
10
11.9294205893188
20
-1.07517093330628
30
1E-16
0
SPLINE
5
115
100
AcDbEntity
8
1
62
256
6
ByLayer
370
18
48
1
60
0
100
AcDbSpline
70
4
71
3
72
20
73
16
40
0
40
0
40
0
40
0
40
0.476818110112416
40
0.476818110112416
40
0.647065482589819
40
0.647065482589819
40
0.740920318499923
40
0.740920318499923
40
0.820676410821341
40
0.820676410821341
40
0.900816446880213
40
0.900816446880213
40
0.976181237237641
40
0.976181237237641
40
1
40
1
40
1
40
1
41
1
10
29.3831003863517
20
-1.58734160969175
30
0
41
1
10
29.3856514303368
20
-1.58585041305034
30
0
41
1
10
29.3884239798668
20
-1.58416119123226
30
0
41
1
10
29.3922390758355
20
-1.58164226798968
30
0
41
1
10
29.3932777601968
20
-1.58093645905197
30
0
41
1
10
29.3947982388706
20
-1.5798455995577
30
0
41
1
10
29.3953300800359
20
-1.57945142986361
30
0
41
1
10
29.3962103544246
20
-1.57876393596882
30
0
41
1
10
29.3965816391568
20
-1.57845815799311
30
0
41
1
10
29.3971795091328
20
-1.57792380375605
30
0
41
1
10
29.3974121049594
20
-1.57768932653778
30
0
41
1
10
29.3977036769917
20
-1.57733324756373
30
0
41
1
10
29.3977771124195
20
-1.57720079043284
30
0
41
1
10
29.3978000200182
20
-1.57707582633802
30
0
41
1
10
29.3978000227459
20
-1.57704923159443
30
0
41
1
10
29.3977950246756
20
-1.57702599265568
30
0
0
SPLINE
5
116
100
AcDbEntity
8
1
62
256
6
ByLayer
370
18
48
1
60
0
100
AcDbSpline
70
4
71
3
72
8
73
4
40
0
40
0
40
0
40
0
40
1
40
1
40
1
40
1
41
1
10
19.5927013036523
20
-1.53734166238601
30
0
41
1
10
19.5061274970357
20
-1.59683094641932
30
0
41
1
10
19.4209059040946
20
-1.65019539718097
30
0
41
1
10
19.3365140918662
20
-1.6972353395978
30
0
0
SPLINE
5
117
100
AcDbEntity
8
1
62
256
6
ByLayer
370
18
48
1
60
0
100
AcDbSpline
70
4
71
3
72
14
73
10
40
0
40
0
40
0
40
0
40
0.465224719622875
40
0.465224719622875
40
0.697837079434319
40
0.697837079434319
40
0.930449439245763
40
0.930449439245763
40
1
40
1
40
1
40
1
41
1
10
19.392688979243
20
-1.40252925135914
30
0
41
1
10
19.6026659358809
20
-1.45691395752451
30
0
41
1
10
19.8116035771504
20
-1.49956656106832
30
0
41
1
10
20.1252434659447
20
-1.5452342958024
30
0
41
1
10
20.2298421633911
20
-1.55741951458649
30
0
41
1
10
20.43951094522
20
-1.57561502261925
30
0
41
1
10
20.5446761831789
20
-1.5815913479675
30
0
41
1
10
20.6805110681241
20
-1.58514959421899
30
0
41
1
10
20.7117447728907
20
-1.58568434468987
30
0
41
1
10
20.7429500945615
20
-1.58593636454776
30
0
0
SPLINE
5
118
100
AcDbEntity
8
1
62
256
6
ByLayer
370
18
48
1
60
0
100
AcDbSpline
70
4
71
3
72
20
73
16
40
0
40
0
40
0
40
0
40
0.209979515501921
40
0.209979515501921
40
0.314969273252884
40
0.314969273252884
40
0.419959031003847
40
0.419959031003847
40
0.629938546505774
40
0.629938546505774
40
0.8399180620077
40
0.8399180620077
40
0.944907819758664
40
0.944907819758664
40
1
40
1
40
1
40
1
41
1
10
19.4414346354748
20
0.227449606729579
30
0
41
1
10
19.646114672359
20
0.113786306439238
30
0
41
1
10
19.8504691501502
20
-0.0003706757123041
30
0
41
1
10
20.1575916488288
20
-0.170418832186044
30
0
41
1
10
20.2600046281731
20
-0.227011911774554
30
0
41
1
10
20.4650688570788
20
-0.339730730458967
30
0
41
1
10
20.5677894681436
20
-0.395752719526342
30
0
41
1
10
20.8743294625884
20
-0.559838726879747
30
0
41
1
10
21.077555733138
20
-0.664210090499353
30
0
41
1
10
21.4827085005673
20
-0.863828865994549
30
1E-16
41
1
10
21.6850686263428
20
-0.95757269998802
30
1E-16
41
1
10
21.990309858546
20
-1.08547739061726
30
1E-16
41
1
10
22.0922649263678
20
-1.12621318535332
30
1E-16
41
1
10
22.2480004730003
20
-1.18575143615155
30
1E-16
41
1
10
22.3017473065699
20
-1.2057656559218
30
1E-16
41
1
10
22.3555218675226
20
-1.22513953009153
30
1E-16
0
SPLINE
5
119
100
AcDbEntity
8
1
62
256
6
ByLayer
370
18
48
1
60
0
100
AcDbSpline
70
4
71
3
72
8
73
4
40
0
40
0
40
0
40
0
40
1
40
1
40
1
40
1
41
1
10
29.9975619822236
20
0.118909730796901
30
0
41
1
10
30.0008167222855
20
0.0395378188692916
30
0
41
1
10
30.0007977002913
20
-0.0400016998540309
30
0
41
1
10
29.997561982224
20
-0.118909730787038
30
0
0
SPLINE
5
11A
100
AcDbEntity
8
1
62
256
6
ByLayer
370
18
48
1
60
0
100
AcDbSpline
70
4
71
3
72
8
73
4
40
0
40
0
40
0
40
0
40
1
40
1
40
1
40
1
41
1
10
29.4292813821236
20
-1.57376219426945
30
0
41
1
10
29.3913191668109
20
-1.59932395760998
30
0
41
1
10
29.3534103950344
20
-1.62468477027957
30
0
41
1
10
29.3155438769099
20
-1.64983890980869
30
0
0
SPLINE
5
11B
100
AcDbEntity
8
1
62
256
6
ByLayer
370
18
48
1
60
0
100
AcDbSpline
70
4
71
3
72
8
73
4
40
0
40
0
40
0
40
0
40
1
40
1
40
1
40
1
41
1
10
19.6068559392723
20
-1.61352374390742
30
0
41
1
10
19.8356668837917
20
-1.64772130219501
30
0
41
1
10
20.064613162681
20
-1.66636405989749
30
0
41
1
10
20.2924431721135
20
-1.66901472363654
30
0
0
SPLINE
5
11C
100
AcDbEntity
8
1
62
256
6
ByLayer
370
18
48
1
60
0
100
AcDbSpline
70
4
71
3
72
8
73
4
40
0
40
0
40
0
40
0
40
1
40
1
40
1
40
1
41
1
10
29.834592741007
20
0.587474379320753
30
0
41
1
10
29.890466696428
20
0.43184230436097
30
0
41
1
10
29.9447978971883
20
0.275657000132128
30
0
41
1
10
29.9975619822236
20
0.118909730796929
30
0
0
SPLINE
5
11D
100
AcDbEntity
8
1
62
256
6
ByLayer
370
18
48
1
60
0
100
AcDbSpline
70
4
71
3
72
12
73
8
40
0
40
0
40
0
40
0
40
0.384765841286426
40
0.384765841286426
40
0.774319470012957
40
0.774319470012957
40
1
40
1
40
1
40
1
41
1
10
19.6068559392737
20
0.378607424205256
30
0
41
1
10
19.6050307914925
20
0.379643394677572
30
0
41
1
10
19.6031033681353
20
0.380626899015908
30
0
41
1
10
19.5992853944349
20
0.38230919475626
30
0
41
1
10
19.5973364486319
20
0.383027066819267
30
0
41
1
10
19.5945592803802
20
0.383787318453159
30
0
41
1
10
19.5935822039846
20
0.383992655409258
30
0
41
1
10
19.5927013036523
20
0.384111259144873
30
0
0
SPLINE
5
11E
100
AcDbEntity
8
1
62
256
6
ByLayer
370
18
48
1
60
0
100
AcDbSpline
70
4
71
3
72
8
73
4
40
0
40
0
40
0
40
0
40
1
40
1
40
1
40
1
41
1
10
19.446423483425
20
0.256283670083491
30
0
41
1
10
19.4948252247673
20
0.218752749086121
30
0
41
1
10
19.5435516580579
20
0.183411817148027
30
0
41
1
10
19.5927013036523
20
0.150310605216646
30
0
0
SPLINE
5
11F
100
AcDbEntity
8
1
62
256
6
ByLayer
370
18
48
1
60
0
100
AcDbSpline
70
4
71
3
72
8
73
4
40
0
40
0
40
0
40
0
40
1
40
1
40
1
40
1
41
1
10
29.2781417443088
20
-1.67427399003762
30
0
41
1
10
29.2906479427829
20
-1.66614950280766
30
0
41
1
10
29.3031157181626
20
-1.6580054804339
30
0
41
1
10
29.31554387691
20
-1.64983890980875
30
0
0
SPLINE
5
120
100
AcDbEntity
8
1
62
256
6
ByLayer
370
18
48
1
60
0
100
AcDbSpline
70
4
71
3
72
8
73
4
40
0
40
0
40
0
40
0
40
1
40
1
40
1
40
1
41
1
10
29.167750252686
20
0.0512785401652138
30
0
41
1
10
29.168873886152
20
-0.0289585867269011
30
0
41
1
10
29.1731191833259
20
-0.110223641116505
30
0
41
1
10
29.1794505796018
20
-0.190499916904685
30
0
0
SPLINE
5
121
100
AcDbEntity
8
SK1
62
256
6
ByLayer
370
18
48
1
60
0
100
AcDbSpline
70
4
71
3
72
8
73
4
40
0
40
0
40
0
40
0
40
1
40
1
40
1
40
1
41
1
10
-35.75
20
0.764553512195903
30
0
41
1
10
-35.783702685017
20
0.764316520314765
30
0
41
1
10
-35.8173590007352
20
0.764079249007978
30
0
41
1
10
-35.8509618943233
20
0.763841655774542
30
0
0
SPLINE
5
122
100
AcDbEntity
8
SK1
62
256
6
ByLayer
370
18
48
1
60
0
100
AcDbSpline
70
4
71
3
72
8
73
4
40
0
40
0
40
0
40
0
40
1
40
1
40
1
40
1
41
1
10
-35.8509618943233
20
-0.736125151200554
30
0
41
1
10
-35.8173590462649
20
-0.735887558289022
30
0
41
1
10
-35.78370272858
20
-0.735650286966631
30
0
41
1
10
-35.7499999999999
20
-0.735413294779164
30
0
0
SPLINE
5
123
100
AcDbEntity
8
SK1
62
256
6
ByLayer
370
18
48
1
60
0
100
AcDbSpline
70
4
71
3
72
8
73
4
40
0
40
0
40
0
40
0
40
1
40
1
40
1
40
1
41
1
10
-36.0000000000001
20
0.975198781929919
30
-1E-16
41
1
10
-35.9478736942372
20
0.913566446139612
30
-1E-16
41
1
10
-35.897619193708
20
0.844129225431345
30
-1E-16
41
1
10
-35.8509618943233
20
0.763841655774542
30
0
0
SPLINE
5
124
100
AcDbEntity
8
SK1
62
256
6
ByLayer
370
18
48
1
60
0
100
AcDbSpline
70
4
71
3
72
12
73
8
40
0
40
0
40
0
40
0
40
0.250000000000001
40
0.250000000000001
40
0.500000000000002
40
0.500000000000002
40
1
40
1
40
1
40
1
41
1
10
-35.65
20
0.665458739288994
30
0
41
1
10
-35.65
20
0.682327728011103
30
0
41
1
10
-35.6543368386633
20
0.697716309638508
30
0
41
1
10
-35.6669768347591
20
0.722717654583533
30
0
41
1
10
-35.6753787751661
20
0.732843755712508
30
0
41
1
10
-35.7033041972704
20
0.756682583453426
30
0
41
1
10
-35.7258779798164
20
0.764723134376965
30
0
41
1
10
-35.75
20
0.764553512195903
30
0
0
SPLINE
5
125
100
AcDbEntity
8
SK1
62
256
6
ByLayer
370
18
48
1
60
0
100
AcDbSpline
70
4
71
3
72
12
73
8
40
0
40
0
40
0
40
0
40
0.500000000000002
40
0.500000000000002
40
0.750000000000001
40
0.750000000000001
40
1
40
1
40
1
40
1
41
1
10
-35.75
20
0.735413294779306
30
0
41
1
10
-35.725991403848
20
0.735244470177861
30
0
41
1
10
-35.7033434775092
20
0.726851370132607
30
0
41
1
10
-35.6754686370361
20
0.702610792049001
30
0
41
1
10
-35.6670255857875
20
0.692312152848956
30
0
41
1
10
-35.6543349758772
20
0.666965758986663
30
0
41
1
10
-35.65
20
0.651447551559954
30
0
41
1
10
-35.65
20
0.634512493422733
30
0
0
SPLINE
5
126
100
AcDbEntity
8
SK1
62
256
6
ByLayer
370
18
48
1
60
0
100
AcDbSpline
70
4
71
3
72
8
73
4
40
0
40
0
40
0
40
0
40
1
40
1
40
1
40
1
41
1
10
-35.8509618943233
20
0.736125151200554
30
0
41
1
10
-35.8173590462649
20
0.735887558289022
30
0
41
1
10
-35.78370272858
20
0.735650286966631
30
0
41
1
10
-35.7499999999999
20
0.735413294779192
30
0
0
SPLINE
5
127
100
AcDbEntity
8
SK1
62
256
6
ByLayer
370
18
48
1
60
0
100
AcDbSpline
70
4
71
3
72
10
73
6
40
0
40
0
40
0
40
0
40
0.5
40
0.5
40
1
40
1
40
1
40
1
41
1
10
-35.8509618943233
20
-0.736125151200554
30
0
41
1
10
-35.8741905041244
20
-0.776617998466605
30
0
41
1
10
-35.898622398144
20
-0.814870139194909
30
0
41
1
10
-35.9485162575648
20
-0.886292194401136
30
1E-16
41
1
10
-35.9740565114067
20
-0.91961241014252
30
1E-16
41
1
10
-35.9999999999999
20
-0.950894623642853
30
1E-16
0
SPLINE
5
128
100
AcDbEntity
8
SK1
62
256
6
ByLayer
370
18
48
1
60
0
100
AcDbSpline
70
4
71
3
72
10
73
6
40
0
40
0
40
0
40
0
40
0.499999999999999
40
0.499999999999999
40
1
40
1
40
1
40
1
41
1
10
-35.8509618943233
20
0.736125151200554
30
0
41
1
10
-35.8741905041244
20
0.776617998466605
30
0
41
1
10
-35.898622398144
20
0.814870139194909
30
0
41
1
10
-35.9485162575648
20
0.886292194401136
30
-1E-16
41
1
10
-35.9740565114067
20
0.91961241014252
30
-1E-16
41
1
10
-35.9999999999999
20
0.950894623642853
30
-1E-16
0
SPLINE
5
129
100
AcDbEntity
8
SK1
62
256
6
ByLayer
370
18
48
1
60
0
100
AcDbSpline
70
4
71
3
72
12
73
8
40
0
40
0
40
0
40
0
40
0.500000000000002
40
0.500000000000002
40
0.750000000000001
40
0.750000000000001
40
1
40
1
40
1
40
1
41
1
10
-35.75
20
-0.735413294779278
30
0
41
1
10
-35.725991403848
20
-0.735244470177861
30
0
41
1
10
-35.7033434775092
20
-0.726851370132607
30
0
41
1
10
-35.6754686370361
20
-0.702610792049001
30
0
41
1
10
-35.6670255857875
20
-0.692312152848956
30
0
41
1
10
-35.6543349758772
20
-0.666965758986663
30
0
41
1
10
-35.65
20
-0.651447551559926
30
0
41
1
10
-35.65
20
-0.634512493422733
30
0
0
SPLINE
5
12A
100
AcDbEntity
8
1
62
256
6
ByLayer
370
18
48
1
60
0
100
AcDbSpline
70
4
71
3
72
10
73
6
40
0
40
0
40
0
40
0
40
0.0166589453062346
40
0.422747015435044
40
1
40
1
40
1
40
1
41
1
10
29.4174879365882
20
0.0952153669734912
30
0
41
1
10
29.4070435958952
20
0.0995496673898231
30
0
41
1
10
29.1420699724442
20
0.209687273181061
30
0
41
1
10
28.5208942365618
20
0.482349542864824
30
0
41
1
10
27.9157534120016
20
0.763023005399873
30
0
41
1
10
27.5631965277276
20
0.933644388972567
30
-1E-16
0
SPLINE
5
12B
100
AcDbEntity
8
1
62
256
6
ByLayer
370
18
48
1
60
0
100
AcDbSpline
70
4
71
1
72
4
73
2
40
0
40
0
40
1
40
1
41
1
10
20.5992681015241
20
1.63552417337644
30
0
41
1
10
20.2196210571134
20
1.61565153679714
30
0
0
SPLINE
5
12C
100
AcDbEntity
8
1
62
256
6
ByLayer
370
18
48
1
60
0
100
AcDbSpline
70
4
71
3
72
13
73
9
40
0
40
0
40
0
40
0
40
0.229231873160287
40
0.416530577544162
40
0.562165079285651
40
0.666137446453626
40
0.812137404712719
40
1
40
1
40
1
40
1
41
1
10
20.7171748627576
20
-1.5858664637768
30
0
41
1
10
20.9278307715155
20
-1.58618435455881
30
0
41
1
10
21.3106958749847
20
-1.5866284963177
30
0
41
1
10
21.8277611150966
20
-1.58719249849315
30
0
41
1
10
22.2295852136925
20
-1.5870241650523
30
0
41
1
10
22.5934309967975
20
-1.58760341226579
30
0
41
1
10
22.9960783184858
20
-1.58862378891533
30
0
41
1
10
23.3031240738064
20
-1.58804106216104
30
0
41
1
10
23.4758940756518
20
-1.58796825155784
30
0
0
SPLINE
5
12D
100
AcDbEntity
8
1
62
256
6
ByLayer
370
18
48
1
60
0
100
AcDbSpline
70
4
71
3
72
13
73
9
40
0
40
0
40
0
40
0
40
0.276705844288472
40
0.485355541479543
40
0.62603734863756
40
0.766952034220483
40
0.976060330579377
40
1
40
1
40
1
40
1
41
1
10
24.3469039811888
20
1.59001805999136
30
0
41
1
10
24.0828641147739
20
1.58885971817813
30
0
41
1
10
23.6197190032743
20
1.587328820333
30
0
41
1
10
23.0223018186074
20
1.58868899907694
30
0
41
1
10
22.5544778837379
20
1.58750641512486
30
0
41
1
10
22.0862171378116
20
1.58682745493061
30
0
41
1
10
21.7293390825611
20
1.58700909638719
30
0
41
1
10
21.5069473817099
20
1.58692465550709
30
0
41
1
10
21.4841024630921
20
1.5869140293459
30
0
0
SPLINE
5
12E
100
AcDbEntity
8
1
62
256
6
ByLayer
370
18
48
1
60
0
100
AcDbSpline
70
4
71
3
72
8
73
4
40
0
40
0
40
0
40
0
40
1
40
1
40
1
40
1
41
1
10
17.0730761550109
20
-1.68743447982248
30
1E-16
41
1
10
17.2190684597998
20
-1.60985141546348
30
1E-16
41
1
10
17.3654775972752
20
-1.53315159693028
30
1E-16
41
1
10
17.5123023726671
20
-1.4573265100604
30
1E-16
0
SPLINE
5
12F
100
AcDbEntity
8
1
62
256
6
ByLayer
370
18
48
1
60
0
100
AcDbSpline
70
4
71
3
72
26
73
22
40
0
40
0
40
0
40
0
40
2.5834532246E-06
40
9.2898714709E-06
40
9.2898714709E-06
40
1.40075958174E-05
40
3.65958133924E-05
40
5.53700630384E-05
40
8.69988246083E-05
40
0.0001434800066447
40
0.0002444345494046
40
0.0004250143754179
40
0.0007484472679105
40
0.0013290956773555
40
0.0023758200995488
40
0.0042811909887342
40
0.0080154723545696
40
0.111825359690083
40
0.311819527462576
40
0.607930384055652
40
1
40
1
40
1
40
1
41
1
10
20.8128064623935
20
-0.0689227278431304
30
0
41
1
10
20.812808837113
20
-0.0689235827917969
30
0
41
1
10
20.8128174498517
20
-0.0689266943986411
30
0
41
1
10
20.8128264288582
20
-0.0689299911308012
30
0
41
1
10
20.8128429441965
20
-0.068935266805596
30
0
41
1
10
20.8127992552575
20
-0.0689171979702223
30
0
41
1
10
20.8127431110074
20
-0.0688950324696691
30
0
41
1
10
20.8126498866908
20
-0.0688568170307349
30
0
41
1
10
20.8125135248761
20
-0.0688011763756151
30
0
41
1
10
20.8122722385551
20
-0.0687025641597359
30
0
41
1
10
20.8118409113276
20
-0.068526374275109
30
0
41
1
10
20.8110689179022
20
-0.0682109537370934
30
0
41
1
10
20.8096848399985
20
-0.067645433938452
30
0
41
1
10
20.8071956112728
20
-0.0666281747429025
30
0
41
1
10
20.8026881257247
20
-0.0647856363431174
30
0
41
1
10
20.7941582261864
20
-0.0612968195770236
30
0
41
1
10
20.6545300030285
20
-0.0041597749993798
30
0
41
1
10
20.2630827241983
20
0.158508694188186
30
0
41
1
10
19.5052923337
20
0.488124191053544
30
0
41
1
10
18.3963011247551
20
1.00494713512876
30
-1E-16
41
1
10
17.5505177329763
20
1.43370942082063
30
-1E-16
41
1
10
17.073076155011
20
1.68743447982243
30
-1E-16
0
LINE
5
88
100
AcDbEntity
8
1
62
256
6
ByLayer
370
18
48
1
60
0
100
AcDbLine
10
29.969901
20
0.026
30
0
11
29.545265
21
0.494724
31
0
39
0
210
0
220
0
230
1
0
LINE
5
89
100
AcDbEntity
8
1
62
256
6
ByLayer
370
18
48
1
60
0
100
AcDbLine
10
19.592701
20
0.150311
30
0
11
19.592701
21
0.384111
31
0
39
0
210
0
220
0
230
1
0
LINE
5
8A
100
AcDbEntity
8
1
62
256
6
ByLayer
370
18
48
1
60
0
100
AcDbLine
10
0
20
3
30
0
11
0
21
0
31
0
39
0
210
0
220
0
230
1
0
LINE
5
8B
100
AcDbEntity
8
1
62
256
6
ByLayer
370
18
48
1
60
0
100
AcDbLine
10
0
20
0
30
0
11
0
21
-3
31
0
39
0
210
0
220
0
230
1
0
LINE
5
8C
100
AcDbEntity
8
1
62
256
6
ByLayer
370
18
48
1
60
0
100
AcDbLine
10
0.677772
20
2.625
30
0
11
0.677772
21
0
31
0
39
0
210
0
220
0
230
1
0
LINE
5
8D
100
AcDbEntity
8
1
62
256
6
ByLayer
370
18
48
1
60
0
100
AcDbLine
10
0.677772
20
0
30
0
11
0.677772
21
-2.625
31
0
39
0
210
0
220
0
230
1
0
LINE
5
8E
100
AcDbEntity
8
1
62
256
6
ByLayer
370
18
48
1
60
0
100
AcDbLine
10
19.017443
20
-2.125065
30
0
11
19.017443
21
0.378925
31
0
39
0
210
0
220
0
230
1
0
LINE
5
8F
100
AcDbEntity
8
1
62
256
6
ByLayer
370
18
48
1
60
0
100
AcDbLine
10
19.606856
20
0.378607
30
0
11
19.606856
21
0.141549
31
0
39
0
210
0
220
0
230
1
0
LINE
5
90
100
AcDbEntity
8
1
62
256
6
ByLayer
370
18
48
1
60
0
100
AcDbLine
10
19.592701
20
-1.617556
30
0
11
19.592701
21
-1.537342
31
0
39
0
210
0
220
0
230
1
0
LINE
5
91
100
AcDbEntity
8
1
62
256
6
ByLayer
370
18
48
1
60
0
100
AcDbLine
10
1.355544
20
2.25
30
0
11
1.355544
21
0
31
0
39
0
210
0
220
0
230
1
0
LINE
5
92
100
AcDbEntity
8
1
62
256
6
ByLayer
370
18
48
1
60
0
100
AcDbLine
10
1.355544
20
0
30
0
11
1.355544
21
-2.25
31
0
39
0
210
0
220
0
230
1
0
LINE
5
93
100
AcDbEntity
8
1
62
256
6
ByLayer
370
18
48
1
60
0
100
AcDbLine
10
20.292443
20
-1.669015
30
0
11
20.292443
21
-1.668873
31
0
39
0
210
0
220
0
230
1
0
LINE
5
94
100
AcDbEntity
8
1
62
256
6
ByLayer
370
18
48
1
60
0
100
AcDbLine
10
19.606856
20
-1.535207
30
0
11
19.606856
21
-1.613524
31
0
39
0
210
0
220
0
230
1
0
LINE
5
95
100
AcDbEntity
8
1
62
256
6
ByLayer
370
18
48
1
60
0
100
AcDbLine
10
19.292443
20
-1.694915
30
0
11
19.292443
21
0.194243
31
0
39
0
210
0
220
0
230
1
0
LINE
5
96
100
AcDbEntity
8
SK1
62
256
6
ByLayer
370
18
48
1
60
0
100
AcDbLine
10
-35.65
20
-0.634512
30
0
11
-35.65
21
0.665459
31
0
39
0
210
0
220
0
230
1
0
LINE
5
98
100
AcDbEntity
8
SK1
62
256
6
ByLayer
370
18
48
1
60
0
100
AcDbLine
10
-35.065
20
-3
30
0
11
-35.065
21
3
31
0
39
0
210
0
220
0
230
1
0
LINE
5
99
100
AcDbEntity
8
SK1
62
256
6
ByLayer
370
18
48
1
60
0
100
AcDbLine
10
-35.75
20
0.735413
30
0
11
-35.75
21
0.764554
31
0
39
0
210
0
220
0
230
1
0
LINE
5
9A
100
AcDbEntity
8
SK1
62
256
6
ByLayer
370
18
48
1
60
0
100
AcDbLine
10
-36
20
-2.065
30
0
11
-36
21
-0.950895
31
0
39
0
210
0
220
0
230
1
0
LINE
5
9B
100
AcDbEntity
8
SK1
62
256
6
ByLayer
370
18
48
1
60
0
100
AcDbLine
10
-36
20
0.975199
30
0
11
-36
21
2.065
31
0
39
0
210
0
220
0
230
1
0
LINE
5
9C
100
AcDbEntity
8
SK1
62
256
6
ByLayer
370
18
48
1
60
0
100
AcDbLine
10
-36
20
0.950895
30
0
11
-36
21
0.975199
31
0
39
0
210
0
220
0
230
1
0
LINE
5
9D
100
AcDbEntity
8
SK1
62
256
6
ByLayer
370
18
48
1
60
0
100
AcDbLine
10
-35.850962
20
0.736125
30
0
11
-35.850962
21
0.763842
31
0
39
0
210
0
220
0
230
1
0
LINE
5
9E
100
AcDbEntity
8
SK1
62
256
6
ByLayer
370
18
48
1
60
0
100
AcDbLine
10
0
20
3
30
0
11
0
21
-3
31
0
39
0
210
0
220
0
230
1
0
LINE
5
9F
100
AcDbEntity
8
1
62
256
6
ByLayer
370
18
48
1
60
0
100
AcDbLine
10
20.357844
20
-1.669353
30
0
11
20.760772
21
-1.669605
31
0
39
0
210
0
220
0
230
1
0
LINE
5
A0
100
AcDbEntity
8
1
62
256
6
ByLayer
370
18
48
1
60
0
100
AcDbLine
10
24.350264
20
-1.671849
30
0
11
24.75953
21
-1.672104
31
0
39
0
210
0
220
0
230
1
0
LINE
5
A1
100
AcDbEntity
8
1
62
256
6
ByLayer
370
18
48
1
60
0
100
AcDbLine
10
24.75953
20
1.672104
30
0
11
24.350264
21
1.671849
31
0
39
0
210
0
220
0
230
1
0
LINE
5
A2
100
AcDbEntity
8
1
62
256
6
ByLayer
370
18
48
1
60
0
100
AcDbLine
10
15.002738
20
2.25
30
0
11
1.355544
21
2.25
31
0
39
0
210
0
220
0
230
1
0
LINE
5
A3
100
AcDbEntity
8
1
62
256
6
ByLayer
370
18
48
1
60
0
100
AcDbLine
10
1.355544
20
-2.25
30
0
11
15.002738
21
-2.25
31
0
39
0
210
0
220
0
230
1
0
LINE
5
A4
100
AcDbEntity
8
SK1
62
256
6
ByLayer
370
18
48
1
60
0
100
AcDbLine
10
-36
20
-2.065
30
0
11
-35.065
21
-3
31
0
39
0
210
0
220
0
230
1
0
LINE
5
A5
100
AcDbEntity
8
SK1
62
256
6
ByLayer
370
18
48
1
60
0
100
AcDbLine
10
-35.065
20
3
30
0
11
-36
21
2.065
31
0
39
0
210
0
220
0
230
1
0
LINE
5
A6
100
AcDbEntity
8
SK1
62
256
6
ByLayer
370
18
48
1
60
0
100
AcDbLine
10
-35.065
20
-3
30
0
11
0
21
-3
31
0
39
0
210
0
220
0
230
1
0
LINE
5
A7
100
AcDbEntity
8
SK1
62
256
6
ByLayer
370
18
48
1
60
0
100
AcDbLine
10
0
20
3
30
0
11
-35.065
21
3
31
0
39
0
210
0
220
0
230
1
0
LINE
5
A8
100
AcDbEntity
8
SK4
62
256
6
ByLayer
370
18
48
0.05
60
0
100
AcDbLine
10
35
20
0
30
0
11
-41
21
0
31
0
39
0
210
0
220
0
230
1
0
LINE
5
AA
100
AcDbEntity
8
4
62
256
6
ByLayer
370
18
48
0.05
60
0
100
AcDbLine
10
-36
20
0
30
0
11
35
21
0
31
0
39
0
210
0
220
0
230
1
0
LINE
5
AC
100
AcDbEntity
8
80
62
256
6
ByLayer
370
18
48
1
60
0
100
AcDbLine
10
0
20
0
30
0
11
-6
21
0
31
0
39
0
210
0
220
0
230
1
0
LINE
5
AD
100
AcDbEntity
8
81
62
256
6
ByLayer
370
18
48
1
60
0
100
AcDbLine
10
30
20
0
30
0
11
36
21
0
31
0
39
0
210
0
220
0
230
1
0
LINE
5
AE
100
AcDbEntity
8
SK2
62
256
6
ByLayer
370
13
48
1
60
0
100
AcDbLine
10
18.441772
20
-2.523528
30
0
11
8.467188
21
-12.498112
31
0
39
0
210
0
220
0
230
1
0
LINE
5
B0
100
AcDbEntity
8
SK2
62
256
6
ByLayer
370
13
48
1
60
0
100
AcDbLine
10
18.441772
20
2.523528
30
0
11
8.467188
21
12.498112
31
0
39
0
210
0
220
0
230
1
0
LINE
5
B1
100
AcDbEntity
8
1
62
256
6
ByLayer
370
13
48
1
60
0
100
AcDbLine
10
9.174294
20
-11.791006
30
0
11
7.65004
21
-10.479201
31
0
39
0
210
0
220
0
230
1
0
LINE
5
B2
100
AcDbEntity
8
1
62
256
6
ByLayer
370
13
48
1
60
0
100
AcDbLine
10
9.174294
20
-11.791006
30
0
11
7.956087
21
-10.190955
31
0
39
0
210
0
220
0
230
1
0
LINE
5
B3
100
AcDbEntity
8
1
62
256
6
ByLayer
370
13
48
1
60
0
100
AcDbLine
10
7.65004
20
-10.479201
30
0
11
7.956087
21
-10.190955
31
0
39
0
210
0
220
0
230
1
0
LINE
5
B4
100
AcDbEntity
8
1
62
256
6
ByLayer
370
13
48
1
60
0
100
AcDbLine
10
9.174294
20
11.791006
30
0
11
7.956088
21
10.190956
31
0
39
0
210
0
220
0
230
1
0
LINE
5
B5
100
AcDbEntity
8
1
62
256
6
ByLayer
370
13
48
1
60
0
100
AcDbLine
10
9.174294
20
11.791006
30
0
11
7.650039
21
10.4792
31
0
39
0
210
0
220
0
230
1
0
LINE
5
B6
100
AcDbEntity
8
1
62
256
6
ByLayer
370
13
48
1
60
0
100
AcDbLine
10
7.956088
20
10.190956
30
0
11
7.650039
21
10.4792
31
0
39
0
210
0
220
0
230
1
0
LINE
5
B7
100
AcDbEntity
8
SK2
62
256
6
ByLayer
370
13
48
1
60
0
100
AcDbLine
10
30.542996
20
1.491748
30
0
11
37.926889
21
21.777168
31
0
39
0
210
0
220
0
230
1
0
LINE
5
B8
100
AcDbEntity
8
SK2
62
256
6
ByLayer
370
13
48
1
60
0
100
AcDbLine
10
30.542996
20
-1.491748
30
0
11
37.926889
21
-21.777168
31
0
39
0
210
0
220
0
230
1
0
LINE
5
B9
100
AcDbEntity
8
1
62
256
6
ByLayer
370
13
48
1
60
0
100
AcDbLine
10
36.840897
20
18.793673
30
0
11
39.937466
21
17.977219
31
0
39
0
210
0
220
0
230
1
0
LINE
5
BA
100
AcDbEntity
8
1
62
256
6
ByLayer
370
13
48
1
60
0
100
AcDbLine
10
36.840897
20
18.793673
30
0
11
39.620642
21
17.203587
31
0
39
0
210
0
220
0
230
1
0
LINE
5
BB
100
AcDbEntity
8
1
62
256
6
ByLayer
370
13
48
1
60
0
100
AcDbLine
10
39.937466
20
17.977219
30
0
11
39.620642
21
17.203587
31
0
39
0
210
0
220
0
230
1
0
LINE
5
BC
100
AcDbEntity
8
1
62
256
6
ByLayer
370
13
48
1
60
0
100
AcDbLine
10
36.840897
20
-18.793673
30
0
11
39.620639
21
-17.203588
31
0
39
0
210
0
220
0
230
1
0
LINE
5
BD
100
AcDbEntity
8
1
62
256
6
ByLayer
370
13
48
1
60
0
100
AcDbLine
10
36.840897
20
-18.793673
30
0
11
39.937469
21
-17.977218
31
0
39
0
210
0
220
0
230
1
0
LINE
5
BE
100
AcDbEntity
8
1
62
256
6
ByLayer
370
13
48
1
60
0
100
AcDbLine
10
39.620639
20
-17.203588
30
0
11
39.937469
21
-17.977218
31
0
39
0
210
0
220
0
230
1
0
MTEXT
5
130
100
AcDbEntity
8
SK2
62
256
6
ByLayer
370
18
48
1
60
0
100
AcDbMText
10
0.368467
20
-2.467451
30
0
210
0
220
0
230
1
1
\W0.7346;90.0
40
3.50012
41
0
44
1.084337
50
0
71
7
72
5
7
iso_b_vert
0
MTEXT
5
133
100
AcDbEntity
8
SK2
62
256
6
ByLayer
370
18
48
1
60
0
100
AcDbMText
10
43.717388
20
-2.467451
30
0
210
0
220
0
230
1
1
\W0.7237;140.00
40
3.50012
41
0
44
1.084337
50
0
71
7
72
5
7
iso_b_vert
0
MTEXT
5
134
100
AcDbEntity
8
SK6
62
256
6
ByLayer
370
18
48
1
60
0
100
AcDbMText
10
-42.331725
20
-88.825754
30
0
210
0
220
0
230
1
1
\W0.7348;860.2-0335-011A1-GM X1BM
40
3.175
41
0
44
1.084337
50
0
71
7
72
5
7
iso_b_vert
0
DIMENSION
5
137
100
AcDbEntity
8
SK2
62
256
6
ByLayer
370
18
48
1
60
0
100
AcDbDimension
2
_U0
10
30
20
-26.50012
30
0
11
15
21
-26.50012
31
0
70
32
71
2
72
1
41
1
210
0
220
0
230
1
3
Standard
100
AcDbAlignedDimension
13
0
23
-3
33
0
14
30
24
0
34
0
50
0
100
AcDbRotatedDimension
1001
ACAD
1000
DSTYLE
1002
{
1070
   371
1070
    13
1070
   372
1070
    13
1070
     3
1000

1070
   170
1070
     0
1070
   144
1040
1.0
1070
   277
1070
     2
1070
   284
1070
     8
1070
   278
1070
    46
1070
   146
1040
0.999966
1070
   345
1005
16
1070
   347
1005
16
1070
   346
1005
16
1070
   344
1005
138
1070
   343
1005
138
1070
   172
1070
     1
1070
    76
1070
     0
1070
    75
1070
     0
1070
   282
1070
     0
1070
   281
1070
     0
1070
    71
1070
     0
1070
    74
1070
     0
1070
   279
1070
     0
1070
   173
1070
     1
1070
   340
1005
131
1070
   271
1070
     1
1070
   272
1070
     2
1070
    77
1070
     1
1070
    73
1070
     1
1070
   171
1070
     3
1070
   274
1070
     4
1070
   177
1070
   150
1070
   176
1070
     9
1070
   178
1070
    43
1070
    78
1070
     8
1070
    48
1040
-0.1
1070
    41
1040
3.175
1070
   147
1040
1.75006
1070
    42
1040
1.5875
1070
    44
1040
3.175
1070
   140
1040
3.50012
1002
}
1001
ACAD_DSTYLE_DIM_LINETYPE
1070
   380
1005
16
1001
ACAD_DSTYLE_DIM_EXT1_LINETYPE
1070
   381
1005
16
1001
ACAD_DSTYLE_DIM_EXT2_LINETYPE
1070
   382
1005
16
0
DIMENSION
5
15D
100
AcDbEntity
8
2
62
256
6
ByLayer
370
18
48
1
60
0
100
AcDbDimension
2
_U1
10
36.75006
20
1.675
30
0
11
36.75006
21
17.331569
31
0
70
32
71
1
72
1
41
1
210
0
220
0
230
1
3
Standard
100
AcDbAlignedDimension
13
29.3903
23
-1.675
33
0
14
29.3903
24
1.675
34
0
50
90
100
AcDbRotatedDimension
1001
ACAD
1000
DSTYLE
1002
{
1070
   371
1070
    13
1070
   372
1070
    13
1070
     3
1000

1070
   170
1070
     0
1070
   144
1040
1.0
1070
   277
1070
     2
1070
   284
1070
     8
1070
   278
1070
    46
1070
   146
1040
0.999966
1070
   345
1005
16
1070
   347
1005
16
1070
   346
1005
16
1070
   344
1005
138
1070
   343
1005
138
1070
   172
1070
     1
1070
    76
1070
     0
1070
    75
1070
     0
1070
   282
1070
     0
1070
   281
1070
     0
1070
    71
1070
     0
1070
    74
1070
     0
1070
   279
1070
     0
1070
   173
1070
     1
1070
   340
1005
131
1070
   271
1070
     1
1070
   272
1070
     2
1070
    77
1070
     1
1070
    73
1070
     0
1070
   171
1070
     3
1070
   274
1070
     4
1070
   177
1070
   150
1070
   176
1070
     9
1070
   178
1070
    43
1070
    78
1070
     8
1070
    48
1040
-0.1
1070
    41
1040
3.175
1070
   147
1040
1.75006
1070
    42
1040
1.5875
1070
    44
1040
3.175
1070
   140
1040
3.50012
1002
}
1001
ACAD_DSTYLE_DIM_LINETYPE
1070
   380
1005
16
1001
ACAD_DSTYLE_DIM_EXT1_LINETYPE
1070
   381
1005
16
1001
ACAD_DSTYLE_DIM_EXT2_LINETYPE
1070
   382
1005
16
0
DIMENSION
5
17C
100
AcDbEntity
8
SK2
62
256
6
ByLayer
370
18
48
1
60
0
100
AcDbDimension
2
_U2
10
-39.24994
20
-3
30
0
11
-39.24994
21
17.10734
31
0
70
32
71
1
72
1
41
1
210
0
220
0
230
1
3
Standard
100
AcDbAlignedDimension
13
-36
23
3
33
0
14
-36
24
-3
34
0
50
90
100
AcDbRotatedDimension
1001
ACAD
1000
DSTYLE
1002
{
1070
   371
1070
    13
1070
   372
1070
    13
1070
     3
1000

1070
   170
1070
     0
1070
   144
1040
1.0
1070
   277
1070
     2
1070
   284
1070
     8
1070
   278
1070
    46
1070
   146
1040
0.999966
1070
   345
1005
16
1070
   347
1005
16
1070
   346
1005
16
1070
   344
1005
138
1070
   343
1005
138
1070
   172
1070
     1
1070
    76
1070
     0
1070
    75
1070
     0
1070
   282
1070
     0
1070
   281
1070
     0
1070
    71
1070
     0
1070
    74
1070
     0
1070
   279
1070
     0
1070
   173
1070
     1
1070
   340
1005
131
1070
   271
1070
     1
1070
   272
1070
     2
1070
    77
1070
     1
1070
    73
1070
     0
1070
   171
1070
     3
1070
   274
1070
     4
1070
   177
1070
   150
1070
   176
1070
     9
1070
   178
1070
    43
1070
    78
1070
     8
1070
    48
1040
-0.1
1070
    41
1040
3.175
1070
   147
1040
1.75006
1070
    42
1040
1.5875
1070
    44
1040
3.175
1070
   140
1040
3.50012
1002
}
1001
ACAD_DSTYLE_DIM_LINETYPE
1070
   380
1005
16
1001
ACAD_DSTYLE_DIM_EXT1_LINETYPE
1070
   381
1005
16
1001
ACAD_DSTYLE_DIM_EXT2_LINETYPE
1070
   382
1005
16
0
DIMENSION
5
19A
100
AcDbEntity
8
2
62
256
6
ByLayer
370
18
48
1
60
0
100
AcDbDimension
2
_U3
10
45.35012
20
-2.25
30
0
11
45.35012
21
24.936792
31
0
70
32
71
1
72
1
41
1
210
0
220
0
230
1
3
Standard
100
AcDbAlignedDimension
13
18.7153
23
2.25
33
0
14
18.7153
24
-2.25
34
0
50
90
100
AcDbRotatedDimension
1001
ACAD
1000
DSTYLE
1002
{
1070
   371
1070
    13
1070
   372
1070
    13
1070
     3
1000

1070
   170
1070
     0
1070
   144
1040
1.0
1070
   277
1070
     2
1070
   284
1070
     8
1070
   278
1070
    46
1070
   146
1040
0.999966
1070
   345
1005
16
1070
   347
1005
16
1070
   346
1005
16
1070
   344
1005
138
1070
   343
1005
138
1070
   172
1070
     1
1070
    76
1070
     0
1070
    75
1070
     0
1070
   282
1070
     0
1070
   281
1070
     0
1070
    71
1070
     0
1070
    74
1070
     0
1070
   279
1070
     0
1070
   173
1070
     1
1070
   340
1005
131
1070
   271
1070
     1
1070
   272
1070
     2
1070
    77
1070
     1
1070
    73
1070
     0
1070
   171
1070
     3
1070
   274
1070
     4
1070
   177
1070
   150
1070
   176
1070
     9
1070
   178
1070
    43
1070
    78
1070
     8
1070
    48
1040
-0.1
1070
    41
1040
3.0
1070
   147
1040
1.75006
1070
    42
1040
0.5
1070
    44
1040
1.0
1070
   140
1040
3.50012
1002
}
1001
ACAD_DSTYLE_DIM_LINETYPE
1070
   380
1005
16
1001
ACAD_DSTYLE_DIM_EXT1_LINETYPE
1070
   381
1005
16
1001
ACAD_DSTYLE_DIM_EXT2_LINETYPE
1070
   382
1005
16
0
DIMENSION
5
1B8
100
AcDbEntity
8
SK2
62
256
6
ByLayer
370
18
48
1
60
0
100
AcDbDimension
2
_U4
10
0
20
-26.50012
30
0
11
-18
21
-26.50012
31
0
70
32
71
1
72
1
41
1
210
0
220
0
230
1
3
Standard
100
AcDbAlignedDimension
13
-36
23
-3
33
0
14
0
24
-3
34
0
50
0
100
AcDbRotatedDimension
1001
ACAD
1000
DSTYLE
1002
{
1070
   371
1070
    13
1070
   372
1070
    13
1070
     3
1000

1070
   170
1070
     0
1070
   144
1040
1.0
1070
   277
1070
     2
1070
   284
1070
     8
1070
   278
1070
    46
1070
   146
1040
0.999966
1070
   345
1005
16
1070
   347
1005
16
1070
   346
1005
16
1070
   344
1005
138
1070
   343
1005
138
1070
   172
1070
     1
1070
    76
1070
     0
1070
    75
1070
     0
1070
   282
1070
     0
1070
   281
1070
     0
1070
    71
1070
     0
1070
    74
1070
     0
1070
   279
1070
     0
1070
   173
1070
     1
1070
   340
1005
131
1070
   271
1070
     1
1070
   272
1070
     2
1070
    77
1070
     1
1070
    73
1070
     1
1070
   171
1070
     3
1070
   274
1070
     4
1070
   177
1070
   150
1070
   176
1070
     9
1070
   178
1070
    43
1070
    78
1070
     8
1070
    48
1040
-0.1
1070
    41
1040
3.175
1070
   147
1040
1.75006
1070
    42
1040
1.5875
1070
    44
1040
3.175
1070
   140
1040
3.50012
1002
}
1001
ACAD_DSTYLE_DIM_LINETYPE
1070
   380
1005
16
1001
ACAD_DSTYLE_DIM_EXT1_LINETYPE
1070
   381
1005
16
1001
ACAD_DSTYLE_DIM_EXT2_LINETYPE
1070
   382
1005
16
0
DIMENSION
5
1D4
100
AcDbEntity
8
SK2
62
256
6
ByLayer
370
18
48
1
60
0
100
AcDbDimension
2
_U5
10
30
20
-17.74982
30
0
11
20.5
21
-17.74982
31
0
70
32
71
1
72
1
41
1
210
0
220
0
230
1
3
Standard
100
AcDbAlignedDimension
13
11
23
2.175
33
0
14
30
24
0
34
0
50
0
100
AcDbRotatedDimension
1001
ACAD
1000
DSTYLE
1002
{
1070
   371
1070
    13
1070
   372
1070
    13
1070
     3
1000

1070
   170
1070
     0
1070
   144
1040
1.0
1070
   277
1070
     2
1070
   284
1070
     8
1070
   278
1070
    46
1070
   146
1040
0.999966
1070
   345
1005
16
1070
   347
1005
16
1070
   346
1005
16
1070
   344
1005
138
1070
   343
1005
138
1070
   172
1070
     1
1070
    76
1070
     0
1070
    75
1070
     0
1070
   282
1070
     0
1070
   281
1070
     0
1070
    71
1070
     0
1070
    74
1070
     0
1070
   279
1070
     0
1070
   173
1070
     1
1070
   340
1005
131
1070
   271
1070
     1
1070
   272
1070
     2
1070
    77
1070
     1
1070
    73
1070
     1
1070
   171
1070
     3
1070
   274
1070
     4
1070
   177
1070
   150
1070
   176
1070
     9
1070
   178
1070
    43
1070
    78
1070
     8
1070
    48
1040
-0.1
1070
    41
1040
3.175
1070
   147
1040
1.75006
1070
    42
1040
1.5875
1070
    44
1040
3.175
1070
   140
1040
3.50012
1002
}
1001
ACAD_DSTYLE_DIM_LINETYPE
1070
   380
1005
16
1001
ACAD_DSTYLE_DIM_EXT1_LINETYPE
1070
   381
1005
16
1001
ACAD_DSTYLE_DIM_EXT2_LINETYPE
1070
   382
1005
16
0
DIMENSION
5
1F0
100
AcDbEntity
8
SK2
62
256
6
ByLayer
370
18
48
1
60
0
100
AcDbDimension
2
_U6
10
30
20
-9.82
30
0
11
24.35
21
-9.82
31
0
70
32
71
1
72
1
41
1
210
0
220
0
230
1
3
Standard
100
AcDbAlignedDimension
13
18.7
23
-1.675
33
0
14
30
24
0
34
0
50
0
100
AcDbRotatedDimension
1001
ACAD
1000
DSTYLE
1002
{
1070
   371
1070
    13
1070
   372
1070
    13
1070
     3
1000

1070
   170
1070
     0
1070
   144
1040
1.0
1070
   277
1070
     2
1070
   284
1070
     8
1070
   278
1070
    46
1070
   146
1040
1.25
1070
   345
1005
16
1070
   347
1005
16
1070
   346
1005
16
1070
   344
1005
138
1070
   343
1005
138
1070
   172
1070
     1
1070
    76
1070
     0
1070
    75
1070
     0
1070
   282
1070
     0
1070
   281
1070
     0
1070
    71
1070
     0
1070
    74
1070
     0
1070
   279
1070
     0
1070
   173
1070
     1
1070
   340
1005
131
1070
   271
1070
     1
1070
   272
1070
     2
1070
    77
1070
     1
1070
    73
1070
     1
1070
   171
1070
     3
1070
   274
1070
     4
1070
   177
1070
   150
1070
   176
1070
     9
1070
   178
1070
    43
1070
    78
1070
     8
1070
    48
1040
-0.1
1070
    41
1040
3.175
1070
   147
1040
0.42
1070
    42
1040
1.5875
1070
    44
1040
0.5
1070
   140
1040
2.8
1002
}
1001
ACAD_DSTYLE_DIM_LINETYPE
1070
   380
1005
16
1001
ACAD_DSTYLE_DIM_EXT1_LINETYPE
1070
   381
1005
16
1001
ACAD_DSTYLE_DIM_EXT2_LINETYPE
1070
   382
1005
16
0
DIMENSION
5
20D
100
AcDbEntity
8
SK2
62
256
6
ByLayer
370
18
48
1
60
0
100
AcDbDimension
2
_U7
10
30
20
-36.50012
30
0
11
-3
21
-36.50012
31
0
70
32
71
1
72
1
41
1
210
0
220
0
230
1
3
Standard
100
AcDbAlignedDimension
13
-36
23
0
33
0
14
30
24
0
34
0
50
0
100
AcDbRotatedDimension
1001
ACAD
1000
DSTYLE
1002
{
1070
   371
1070
    13
1070
   372
1070
    13
1070
     3
1000

1070
   170
1070
     0
1070
   144
1040
1.0
1070
   277
1070
     2
1070
   284
1070
     8
1070
   278
1070
    46
1070
   146
1040
0.999966
1070
   345
1005
16
1070
   347
1005
16
1070
   346
1005
16
1070
   344
1005
138
1070
   343
1005
138
1070
   172
1070
     1
1070
    76
1070
     0
1070
    75
1070
     0
1070
   282
1070
     0
1070
   281
1070
     0
1070
    71
1070
     0
1070
    74
1070
     0
1070
   279
1070
     0
1070
   173
1070
     1
1070
   340
1005
131
1070
   271
1070
     1
1070
   272
1070
     2
1070
    77
1070
     1
1070
    73
1070
     1
1070
   171
1070
     3
1070
   274
1070
     4
1070
   177
1070
   150
1070
   176
1070
     9
1070
   178
1070
    43
1070
    78
1070
     8
1070
    48
1040
-0.1
1070
    41
1040
3.175
1070
   147
1040
1.75006
1070
    42
1040
1.5875
1070
    44
1040
3.175
1070
   140
1040
3.50012
1002
}
1001
ACAD_DSTYLE_DIM_LINETYPE
1070
   380
1005
16
1001
ACAD_DSTYLE_DIM_EXT1_LINETYPE
1070
   381
1005
16
1001
ACAD_DSTYLE_DIM_EXT2_LINETYPE
1070
   382
1005
16
0
DIMENSION
5
229
100
AcDbEntity
8
SK2
62
256
6
ByLayer
370
18
48
1
60
0
100
AcDbDimension
2
_U8
10
19.2903
20
19.116792
30
0
11
24.3403
21
19.116792
31
0
70
32
71
1
72
1
41
1
210
0
220
0
230
1
3
Standard
100
AcDbAlignedDimension
13
29.3903
23
1.675
33
0
14
19.2903
24
1.675
34
0
50
0
100
AcDbRotatedDimension
1001
ACAD
1000
DSTYLE
1002
{
1070
   371
1070
    13
1070
   372
1070
    13
1070
     3
1000

1070
   170
1070
     0
1070
   144
1040
1.0
1070
   277
1070
     2
1070
   284
1070
     8
1070
   278
1070
    46
1070
   146
1040
1.25
1070
   345
1005
16
1070
   347
1005
16
1070
   346
1005
16
1070
   344
1005
138
1070
   343
1005
138
1070
   172
1070
     1
1070
    76
1070
     0
1070
    75
1070
     0
1070
   282
1070
     0
1070
   281
1070
     0
1070
    71
1070
     0
1070
    74
1070
     0
1070
   279
1070
     0
1070
   173
1070
     1
1070
   340
1005
131
1070
   271
1070
     1
1070
   272
1070
     2
1070
    77
1070
     1
1070
    73
1070
     1
1070
   171
1070
     3
1070
   274
1070
     4
1070
   177
1070
   150
1070
   176
1070
     9
1070
   178
1070
    43
1070
    78
1070
     8
1070
    48
1040
-0.1
1070
    41
1040
3.0
1070
   147
1040
0.42
1070
    42
1040
0.5
1070
    44
1040
0.1
1070
   140
1040
2.8
1002
}
1001
ACAD_DSTYLE_DIM_LINETYPE
1070
   380
1005
16
1001
ACAD_DSTYLE_DIM_EXT1_LINETYPE
1070
   381
1005
16
1001
ACAD_DSTYLE_DIM_EXT2_LINETYPE
1070
   382
1005
16
0
ENDSEC
0
SECTION
2
OBJECTS
0
DICTIONARY
5
2b6
330
0
100
AcDbDictionary
280
0
281
1
3
ACAD_GROUP
350
2b7
3
ACAD_MLINESTYLE
350
2b8
0
DICTIONARY
5
2b7
330
0
100
AcDbDictionary
280
0
281
1
0
DICTIONARY
5
2b8
330
0
100
AcDbDictionary
280
0
281
1
3
Standard
350
18
0
MLINESTYLE
5
18
330
2b8
100
AcDbMlineStyle
2
Standard
70
0
3

62
256
51
90
52
90
71
2
49
-0.5
62
256
6
ByLayer
49
0.5
62
256
6
ByLayer
0
RASTERVARIABLES
5
2a4
330

100
AcDbRasterVariables
90
0
70
1
71
1
72
1
0
ENDSEC
0
EOF
