0
SECTION
2
HEADER
9
$ACADVER
1
AC1015
9
$DWGCODEPAGE
3
ANSI_1252
9
$HANDSEED
5
1d0
9
$ANGBASE
50
0
9
$ANGDIR
70
0
9
$ATTMODE
70
1
9
$AUNITS
70
0
9
$AUPREC
70
0
9
$CECOLOR
62
256
9
$CELTSCALE
40
1
9
$CELTYPE
6
ByLayer
9
$CELWEIGHT
370
18
9
$CLAYER
8
0
9
$CMLJUST
70
0
9
$CMLSCALE
40
1
9
$CMLSTYLE
2
Standard
9
$DIMSTYLE
2
Standard
9
$TEXTSIZE
40
0.2
9
$TEXTSTYLE
7
Standard
9
$LUNITS
70
2
9
$LUPREC
70
4
9
$EXTNAMES
290
1
9
$INSUNITS
70
4
9
$LTSCALE
40
1
9
$LWDISPLAY
290
1
9
$PDMODE
70
0
9
$PDSIZE
40
0
9
$PLINEGEN
70
0
0
ENDSEC
0
SECTION
2
CLASSES
0
CLASS
1
RASTERVARIABLES
2
AcDbRasterVariables
3
ISM
90
0
280
0
281
0
0
ENDSEC
0
SECTION
2
TABLES
0
TABLE
2
VPORT
5
1c6
100
AcDbSymbolTable
0
VPORT
5
1
100
AcDbSymbolTableRecord
100
AcDbViewportTableRecord
2
*Active
70
0
10
0
20
0
11
1
21
1
12
-1
22
1
13
0
23
0
14
0.5
24
0.5
15
10
25
10
16
0
26
0
36
1
17
0
27
0
37
0
0
ENDTAB
0
TABLE
2
LTYPE
5
1c7
100
AcDbSymbolTable
0
LTYPE
5
14
100
AcDbSymbolTableRecord
100
AcDbLinetypeTableRecord
70
0
2
ByBlock
3

72
65
73
0
40
0
0
LTYPE
5
15
100
AcDbSymbolTableRecord
100
AcDbLinetypeTableRecord
70
0
2
ByLayer
3

72
65
73
0
40
0
0
LTYPE
5
16
100
AcDbSymbolTableRecord
100
AcDbLinetypeTableRecord
70
0
2
Continuous
3
Solid line
72
65
73
0
40
0
0
LTYPE
5
6E
100
AcDbSymbolTableRecord
100
AcDbLinetypeTableRecord
70
0
2
CENTER
3
____ _ ____ _ ____ _ ____
72
65
73
4
40
47.5
49
22
74
0
49
-8.5
74
0
49
8.5
74
0
49
-8.5
74
0
0
LTYPE
5
6F
100
AcDbSymbolTableRecord
100
AcDbLinetypeTableRecord
70
0
2
DASHED
3
__ __ __ __ __ __ __ __ __
72
65
73
2
40
25.72
49
12.86
74
0
49
-12.86
74
0
0
ENDTAB
0
TABLE
2
LAYER
5
1c8
100
AcDbSymbolTable
0
LAYER
5
10
100
AcDbSymbolTableRecord
100
AcDbLayerTableRecord
2
0
70
0
62
7
6
Continuous
290
1
370
-3
390
0
0
LAYER
5
71
100
AcDbSymbolTableRecord
100
AcDbLayerTableRecord
2
2
70
0
62
7
6
Continuous
290
1
370
-3
390
0
0
LAYER
5
74
100
AcDbSymbolTableRecord
100
AcDbLayerTableRecord
2
1
70
0
62
4
6
Continuous
290
1
370
-3
390
0
0
LAYER
5
76
100
AcDbSymbolTableRecord
100
AcDbLayerTableRecord
2
81
70
0
62
-3
6
Continuous
290
1
370
-3
390
0
0
LAYER
5
78
100
AcDbSymbolTableRecord
100
AcDbLayerTableRecord
2
80
70
0
62
-6
6
Continuous
290
1
370
-3
390
0
0
LAYER
5
F5
100
AcDbSymbolTableRecord
100
AcDbLayerTableRecord
2
Defpoints
70
0
62
7
6
Continuous
290
0
370
-3
390
0
0
LAYER
5
1b3
100
AcDbSymbolTableRecord
100
AcDbLayerTableRecord
2
SK1
70
0
62
4
6
Continuous
290
1
370
-3
390
0
0
LAYER
5
1b4
100
AcDbSymbolTableRecord
100
AcDbLayerTableRecord
2
SK6
70
0
62
5
6
Continuous
290
1
370
-3
390
0
0
LAYER
5
1b5
100
AcDbSymbolTableRecord
100
AcDbLayerTableRecord
2
SK2
70
0
62
7
6
Continuous
290
1
370
-3
390
0
0
ENDTAB
0
TABLE
2
STYLE
5
1c9
100
AcDbSymbolTable
0
STYLE
5
11
100
AcDbSymbolTableRecord
100
AcDbTextStyleTableRecord
2
Standard
3
txt
70
0
71
0
40
0
41
1
42
0
50
0
0
STYLE
5
EE
100
AcDbSymbolTableRecord
100
AcDbTextStyleTableRecord
2
iso_b_vert
3
simplex.shx
70
0
71
0
40
0
41
1
42
0
50
0
0
STYLE
5
EF
100
AcDbSymbolTableRecord
100
AcDbTextStyleTableRecord
2
DWGDirectTextStyle
3
simplex
70
0
71
0
40
0
41
1
42
0
50
0
0
ENDTAB
0
TABLE
2
DIMSTYLE
5
1ca
100
AcDbSymbolTable
100
AcDbDimStyleTable
0
DIMSTYLE
105
27
100
AcDbSymbolTableRecord
100
AcDbDimStyleTableRecord
2
Standard
70
0
3
<>
41
0.18
42
0.0625
44
0.18
140
0.18
147
0.09
73
0
74
0
77
1
271
2
275
0
278
52
280
0
340
11
0
ENDTAB
0
TABLE
2
VIEW
5
1cb
100
AcDbSymbolTable
0
ENDTAB
0
TABLE
2
UCS
5
1cc
100
AcDbSymbolTable
0
ENDTAB
0
TABLE
2
APPID
5
1cd
100
AcDbSymbolTable
0
APPID
5
12
100
AcDbSymbolTableRecord
100
AcDbRegAppTableRecord
2
ACAD
70
0
0
APPID
5
F1
100
AcDbSymbolTableRecord
100
AcDbRegAppTableRecord
2
ACAD_DSTYLE_DIMBREAK
70
0
0
APPID
5
172
100
AcDbSymbolTableRecord
100
AcDbRegAppTableRecord
2
ACAD_DSTYLE_DIM_LINETYPE
70
0
0
APPID
5
173
100
AcDbSymbolTableRecord
100
AcDbRegAppTableRecord
2
ACAD_DSTYLE_DIM_EXT1_LINETYPE
70
0
0
APPID
5
174
100
AcDbSymbolTableRecord
100
AcDbRegAppTableRecord
2
ACAD_DSTYLE_DIM_EXT2_LINETYPE
70
0
0
APPID
5
1AF
100
AcDbSymbolTableRecord
100
AcDbRegAppTableRecord
2
ACAD_MLEADERVER
70
0
0
ENDTAB
0
TABLE
2
BLOCK_RECORD
5
1ce
100
AcDbSymbolTable
0
BLOCK_RECORD
5
1F
100
AcDbSymbolTableRecord
100
AcDbBlockTableRecord
2
*Model_Space
340
0
70
0
0
BLOCK_RECORD
5
1B
100
AcDbSymbolTableRecord
100
AcDbBlockTableRecord
2
*Paper_Space
340
0
70
0
0
BLOCK_RECORD
5
23
100
AcDbSymbolTableRecord
100
AcDbBlockTableRecord
2
*Paper_Space0
340
0
70
0
0
BLOCK_RECORD
5
F6
100
AcDbSymbolTableRecord
100
AcDbBlockTableRecord
2
*D1
340
0
70
0
0
BLOCK_RECORD
5
103
100
AcDbSymbolTableRecord
100
AcDbBlockTableRecord
2
_U0
340
0
70
0
0
BLOCK_RECORD
5
10F
100
AcDbSymbolTableRecord
100
AcDbBlockTableRecord
2
*D3
340
0
70
0
0
BLOCK_RECORD
5
11B
100
AcDbSymbolTableRecord
100
AcDbBlockTableRecord
2
_U1
340
0
70
0
0
BLOCK_RECORD
5
127
100
AcDbSymbolTableRecord
100
AcDbBlockTableRecord
2
*D5
340
0
70
0
0
BLOCK_RECORD
5
133
100
AcDbSymbolTableRecord
100
AcDbBlockTableRecord
2
_U2
340
0
70
0
0
BLOCK_RECORD
5
13F
100
AcDbSymbolTableRecord
100
AcDbBlockTableRecord
2
*D7
340
0
70
0
0
BLOCK_RECORD
5
14B
100
AcDbSymbolTableRecord
100
AcDbBlockTableRecord
2
_U3
340
0
70
0
0
ENDTAB
0
ENDSEC
0
SECTION
2
BLOCKS
0
BLOCK
5
20
100
AcDbEntity
8
0
100
AcDbBlockBegin
2
*Model_Space
70
0
10
0
20
0
30
0
3
*Model_Space
0
ENDBLK
5
21
100
AcDbEntity
8
0
100
AcDbBlockEnd
0
BLOCK
5
1C
100
AcDbEntity
8
0
100
AcDbBlockBegin
2
*Paper_Space
70
0
10
0
20
0
30
0
3
*Paper_Space
0
ENDBLK
5
1D
100
AcDbEntity
8
0
100
AcDbBlockEnd
0
BLOCK
5
24
100
AcDbEntity
8
0
100
AcDbBlockBegin
2
*Paper_Space0
70
0
10
0
20
0
30
0
3
*Paper_Space0
0
ENDBLK
5
25
100
AcDbEntity
8
0
100
AcDbBlockEnd
0
BLOCK
5
F7
100
AcDbEntity
8
0
100
AcDbBlockBegin
2
*D1
70
1
10
0
20
0
30
0
3
*D1
0
LINE
5
F9
100
AcDbEntity
8
0
62
256
6
ByLayer
370
-2
48
1
60
0
100
AcDbLine
10
44.45
20
-15.8877
30
0
11
44.45
21
-39.8002
31
0
39
0
210
0
220
0
230
1
0
LINE
5
FA
100
AcDbEntity
8
0
62
256
6
ByLayer
370
-2
48
1
60
0
100
AcDbLine
10
-84
20
-14.2875
30
0
11
-84
21
-39.8002
31
0
39
0
210
0
220
0
230
1
0
LINE
5
FB
100
AcDbEntity
8
0
62
256
6
ByLayer
370
-2
48
1
60
0
100
AcDbLine
10
40.95
20
-37.8002
30
0
11
-80.5
21
-37.8002
31
0
39
0
210
0
220
0
230
1
0
SOLID
5
FC
100
AcDbEntity
8
0
62
256
6
ByLayer
370
-1
48
1
60
0
100
AcDbTrace
10
40.95
20
-38.383533
30
0
11
40.95
21
-37.216867
31
0
12
44.45
22
-37.8002
32
0
13
44.45
23
-37.8002
33
0
39
0
210
0
220
0
230
1
0
SOLID
5
FD
100
AcDbEntity
8
0
62
256
6
ByLayer
370
-1
48
1
60
0
100
AcDbTrace
10
-80.5
20
-37.216867
30
0
11
-80.5
21
-38.383533
31
0
12
-84
22
-37.8002
32
0
13
-84
23
-37.8002
33
0
39
0
210
0
220
0
230
1
0
MTEXT
5
FE
100
AcDbEntity
8
0
62
256
6
ByLayer
370
18
48
1
60
0
100
AcDbMText
10
-19.775
20
-30.8002
30
0
210
0
220
0
230
1
1
\A1;128.45
40
3.5
41
0
44
1
50
0
71
5
72
5
7
iso_b_vert
0
POINT
5
FF
100
AcDbEntity
8
Defpoints
62
0
6
ByLayer
370
-1
48
1
60
0
100
AcDbPoint
10
44.45
20
-14.3002
30
0
39
0
210
0
220
0
230
1
50
360
0
POINT
5
100
100
AcDbEntity
8
Defpoints
62
0
6
ByLayer
370
-1
48
1
60
0
100
AcDbPoint
10
-84
20
-12.7
30
0
39
0
210
0
220
0
230
1
50
360
0
POINT
5
101
100
AcDbEntity
8
Defpoints
62
0
6
ByLayer
370
-1
48
1
60
0
100
AcDbPoint
10
-84
20
-37.8002
30
0
39
0
210
0
220
0
230
1
50
360
0
ENDBLK
5
F8
100
AcDbEntity
8
0
100
AcDbBlockEnd
0
BLOCK
5
10A
100
AcDbEntity
8
0
100
AcDbBlockBegin
2
_U0
70
0
10
0
20
0
30
0
3
_U0
0
MTEXT
5
104
100
AcDbEntity
8
SK2
62
256
6
ByLayer
370
18
48
1
60
0
100
AcDbMText
10
-26.058999
20
-36.767566
30
0
210
0
220
0
230
1
1
\W0.7237;128.45
40
3.5
41
0
44
1.084337
50
0
71
7
72
5
7
iso_b_vert
0
LINE
5
105
100
AcDbEntity
8
SK2
62
256
6
ByLayer
370
13
48
1
60
0
100
AcDbLine
10
44.45
20
-15.8877
30
0
11
44.45
21
-39.8002
31
0
39
0
210
0
220
0
230
1
0
LINE
5
106
100
AcDbEntity
8
SK2
62
256
6
ByLayer
370
13
48
1
60
0
100
AcDbLine
10
-84
20
-14.2875
30
0
11
-84
21
-39.8002
31
0
39
0
210
0
220
0
230
1
0
LINE
5
107
100
AcDbEntity
8
SK2
62
256
6
ByLayer
370
13
48
1
60
0
100
AcDbLine
10
44.45
20
-37.8002
30
0
11
-84
21
-37.8002
31
0
39
0
210
0
220
0
230
1
0
SOLID
5
108
100
AcDbEntity
8
SK2
62
256
6
ByLayer
370
18
48
1
60
0
100
AcDbTrace
10
44.45
20
-37.8002
30
0
11
40.950002
21
-38.260984
31
0
12
40.949998
22
-37.339416
32
0
13
40.949998
23
-37.339416
33
0
39
0
210
0
220
0
230
1
0
SOLID
5
109
100
AcDbEntity
8
SK2
62
256
6
ByLayer
370
18
48
1
60
0
100
AcDbTrace
10
-84
20
-37.8002
30
0
11
-80.500002
21
-37.339416
31
0
12
-80.499998
22
-38.260984
32
0
13
-80.499998
23
-38.260984
33
0
39
0
210
0
220
0
230
1
0
ENDBLK
5
10B
100
AcDbEntity
8
0
100
AcDbBlockEnd
0
BLOCK
5
110
100
AcDbEntity
8
0
100
AcDbBlockBegin
2
*D3
70
1
10
0
20
0
30
0
3
*D3
0
LINE
5
112
100
AcDbEntity
8
0
62
256
6
ByLayer
370
-2
48
1
60
0
100
AcDbLine
10
44.45
20
-15.8877
30
0
11
44.45
21
-29.8002
31
0
39
0
210
0
220
0
230
1
0
LINE
5
113
100
AcDbEntity
8
0
62
256
6
ByLayer
370
-2
48
1
60
0
100
AcDbLine
10
0
20
-14.2875
30
0
11
0
21
-29.8002
31
0
39
0
210
0
220
0
230
1
0
LINE
5
114
100
AcDbEntity
8
0
62
256
6
ByLayer
370
-2
48
1
60
0
100
AcDbLine
10
40.95
20
-27.8002
30
0
11
3.5
21
-27.8002
31
0
39
0
210
0
220
0
230
1
0
SOLID
5
115
100
AcDbEntity
8
0
62
256
6
ByLayer
370
-1
48
1
60
0
100
AcDbTrace
10
40.95
20
-28.383533
30
0
11
40.95
21
-27.216867
31
0
12
44.45
22
-27.8002
32
0
13
44.45
23
-27.8002
33
0
39
0
210
0
220
0
230
1
0
SOLID
5
116
100
AcDbEntity
8
0
62
256
6
ByLayer
370
-1
48
1
60
0
100
AcDbTrace
10
3.5
20
-27.216867
30
0
11
3.5
21
-28.383533
31
0
12
0
22
-27.8002
32
0
13
0
23
-27.8002
33
0
39
0
210
0
220
0
230
1
0
MTEXT
5
117
100
AcDbEntity
8
0
62
256
6
ByLayer
370
18
48
1
60
0
100
AcDbMText
10
22.225
20
-20.8002
30
0
210
0
220
0
230
1
1
\A1;44.45
40
3.5
41
0
44
1
50
0
71
5
72
5
7
iso_b_vert
0
POINT
5
118
100
AcDbEntity
8
Defpoints
62
0
6
ByLayer
370
-1
48
1
60
0
100
AcDbPoint
10
44.45
20
-14.3002
30
0
39
0
210
0
220
0
230
1
50
360
0
POINT
5
119
100
AcDbEntity
8
Defpoints
62
0
6
ByLayer
370
-1
48
1
60
0
100
AcDbPoint
10
0
20
-12.7
30
0
39
0
210
0
220
0
230
1
50
360
0
POINT
5
11A
100
AcDbEntity
8
Defpoints
62
0
6
ByLayer
370
-1
48
1
60
0
100
AcDbPoint
10
0
20
-27.8002
30
0
39
0
210
0
220
0
230
1
50
360
0
ENDBLK
5
111
100
AcDbEntity
8
0
100
AcDbBlockEnd
0
BLOCK
5
122
100
AcDbEntity
8
0
100
AcDbBlockBegin
2
_U1
70
0
10
0
20
0
30
0
3
_U1
0
MTEXT
5
11C
100
AcDbEntity
8
2
62
256
6
ByLayer
370
18
48
1
60
0
100
AcDbMText
10
16.442768
20
-26.767566
30
0
210
0
220
0
230
1
1
\W0.8222;44.45
40
3.5
41
0
44
1.084337
50
0
71
7
72
5
7
iso_b_vert
0
LINE
5
11D
100
AcDbEntity
8
2
62
256
6
ByLayer
370
13
48
1
60
0
100
AcDbLine
10
44.45
20
-15.8877
30
0
11
44.45
21
-29.8002
31
0
39
0
210
0
220
0
230
1
0
LINE
5
11E
100
AcDbEntity
8
2
62
256
6
ByLayer
370
13
48
1
60
0
100
AcDbLine
10
0
20
-14.2875
30
0
11
0
21
-29.8002
31
0
39
0
210
0
220
0
230
1
0
LINE
5
11F
100
AcDbEntity
8
2
62
256
6
ByLayer
370
13
48
1
60
0
100
AcDbLine
10
44.45
20
-27.8002
30
0
11
0
21
-27.8002
31
0
39
0
210
0
220
0
230
1
0
SOLID
5
120
100
AcDbEntity
8
2
62
256
6
ByLayer
370
18
48
1
60
0
100
AcDbTrace
10
44.45
20
-27.8002
30
0
11
40.950002
21
-28.260984
31
0
12
40.949998
22
-27.339416
32
0
13
40.949998
23
-27.339416
33
0
39
0
210
0
220
0
230
1
0
SOLID
5
121
100
AcDbEntity
8
2
62
256
6
ByLayer
370
18
48
1
60
0
100
AcDbTrace
10
0
20
-27.8002
30
0
11
3.499998
21
-27.339416
31
0
12
3.500002
22
-28.260984
32
0
13
3.500002
23
-28.260984
33
0
39
0
210
0
220
0
230
1
0
ENDBLK
5
123
100
AcDbEntity
8
0
100
AcDbBlockEnd
0
BLOCK
5
128
100
AcDbEntity
8
0
100
AcDbBlockBegin
2
*D5
70
1
10
0
20
0
30
0
3
*D5
0
LINE
5
12A
100
AcDbEntity
8
0
62
256
6
ByLayer
370
-2
48
1
60
0
100
AcDbLine
10
-85.5875
20
12.7
30
0
11
-93.85
21
12.7
31
0
39
0
210
0
220
0
230
1
0
LINE
5
12B
100
AcDbEntity
8
0
62
256
6
ByLayer
370
-2
48
1
60
0
100
AcDbLine
10
-85.5875
20
-12.7
30
0
11
-93.85
21
-12.7
31
0
39
0
210
0
220
0
230
1
0
LINE
5
12C
100
AcDbEntity
8
0
62
256
6
ByLayer
370
-2
48
1
60
0
100
AcDbLine
10
-91.85
20
9.2
30
0
11
-91.85
21
-9.2
31
0
39
0
210
0
220
0
230
1
0
SOLID
5
12D
100
AcDbEntity
8
0
62
256
6
ByLayer
370
-1
48
1
60
0
100
AcDbTrace
10
-91.266667
20
9.2
30
0
11
-92.433333
21
9.2
31
0
12
-91.85
22
12.7
32
0
13
-91.85
23
12.7
33
0
39
0
210
0
220
0
230
1
0
SOLID
5
12E
100
AcDbEntity
8
0
62
256
6
ByLayer
370
-1
48
1
60
0
100
AcDbTrace
10
-92.433333
20
-9.2
30
0
11
-91.266667
21
-9.2
31
0
12
-91.85
22
-12.7
32
0
13
-91.85
23
-12.7
33
0
39
0
210
0
220
0
230
1
0
MTEXT
5
12F
100
AcDbEntity
8
0
62
256
6
ByLayer
370
18
48
1
60
0
100
AcDbMText
10
-98.85
20
0
30
0
210
0
220
0
230
1
1
\A1;25.4
40
3.5
41
0
44
1
50
90
71
5
72
5
7
iso_b_vert
0
POINT
5
130
100
AcDbEntity
8
Defpoints
62
0
6
ByLayer
370
-1
48
1
60
0
100
AcDbPoint
10
-84
20
12.7
30
0
39
0
210
0
220
0
230
1
50
360
0
POINT
5
131
100
AcDbEntity
8
Defpoints
62
0
6
ByLayer
370
-1
48
1
60
0
100
AcDbPoint
10
-84
20
-12.7
30
0
39
0
210
0
220
0
230
1
50
360
0
POINT
5
132
100
AcDbEntity
8
Defpoints
62
0
6
ByLayer
370
-1
48
1
60
0
100
AcDbPoint
10
-91.85
20
-12.7
30
0
39
0
210
0
220
0
230
1
50
360
0
ENDBLK
5
129
100
AcDbEntity
8
0
100
AcDbBlockEnd
0
BLOCK
5
13A
100
AcDbEntity
8
0
100
AcDbBlockBegin
2
_U2
70
0
10
0
20
0
30
0
3
_U2
0
MTEXT
5
134
100
AcDbEntity
8
SK2
62
256
6
ByLayer
370
18
48
1
60
0
100
AcDbMText
10
-92.539634
20
-4.133966
30
0
210
0
220
0
230
1
1
\W0.7528;25.4
40
3.5
41
0
44
1.084337
50
90
71
7
72
5
7
iso_b_vert
0
LINE
5
135
100
AcDbEntity
8
SK2
62
256
6
ByLayer
370
13
48
1
60
0
100
AcDbLine
10
-85.5875
20
12.7
30
0
11
-93.85
21
12.7
31
0
39
0
210
0
220
0
230
1
0
LINE
5
136
100
AcDbEntity
8
SK2
62
256
6
ByLayer
370
13
48
1
60
0
100
AcDbLine
10
-85.5875
20
-12.7
30
0
11
-93.85
21
-12.7
31
0
39
0
210
0
220
0
230
1
0
LINE
5
137
100
AcDbEntity
8
SK2
62
256
6
ByLayer
370
13
48
1
60
0
100
AcDbLine
10
-91.85
20
12.7
30
0
11
-91.85
21
-12.7
31
0
39
0
210
0
220
0
230
1
0
SOLID
5
138
100
AcDbEntity
8
SK2
62
256
6
ByLayer
370
18
48
1
60
0
100
AcDbTrace
10
-91.85
20
12.7
30
0
11
-91.389216
21
9.200002
31
0
12
-92.310784
22
9.199998
32
0
13
-92.310784
23
9.199998
33
0
39
0
210
0
220
0
230
1
0
SOLID
5
139
100
AcDbEntity
8
SK2
62
256
6
ByLayer
370
18
48
1
60
0
100
AcDbTrace
10
-91.85
20
-12.7
30
0
11
-92.310784
21
-9.200002
31
0
12
-91.389216
22
-9.199998
32
0
13
-91.389216
23
-9.199998
33
0
39
0
210
0
220
0
230
1
0
ENDBLK
5
13B
100
AcDbEntity
8
0
100
AcDbBlockEnd
0
BLOCK
5
140
100
AcDbEntity
8
0
100
AcDbBlockBegin
2
*D7
70
1
10
0
20
0
30
0
3
*D7
0
LINE
5
142
100
AcDbEntity
8
0
62
256
6
ByLayer
370
-2
48
1
60
0
100
AcDbLine
10
1.5875
20
12.7
30
0
11
66.3
21
12.7
31
0
39
0
210
0
220
0
230
1
0
LINE
5
143
100
AcDbEntity
8
0
62
256
6
ByLayer
370
-2
48
1
60
0
100
AcDbLine
10
46.0375
20
-14.3002
30
0
11
66.3
21
-14.3002
31
0
39
0
210
0
220
0
230
1
0
LINE
5
144
100
AcDbEntity
8
0
62
256
6
ByLayer
370
-2
48
1
60
0
100
AcDbLine
10
64.3
20
9.2
30
0
11
64.3
21
-10.8002
31
0
39
0
210
0
220
0
230
1
0
SOLID
5
145
100
AcDbEntity
8
0
62
256
6
ByLayer
370
-1
48
1
60
0
100
AcDbTrace
10
64.883333
20
9.2
30
0
11
63.716667
21
9.2
31
0
12
64.3
22
12.7
32
0
13
64.3
23
12.7
33
0
39
0
210
0
220
0
230
1
0
SOLID
5
146
100
AcDbEntity
8
0
62
256
6
ByLayer
370
-1
48
1
60
0
100
AcDbTrace
10
63.716667
20
-10.8002
30
0
11
64.883333
21
-10.8002
31
0
12
64.3
22
-14.3002
32
0
13
64.3
23
-14.3002
33
0
39
0
210
0
220
0
230
1
0
MTEXT
5
147
100
AcDbEntity
8
0
62
256
6
ByLayer
370
18
48
1
60
0
100
AcDbMText
10
57.3
20
-0.8001
30
0
210
0
220
0
230
1
1
\A1;27
40
3.5
41
0
44
1
50
90
71
5
72
5
7
iso_b_vert
0
POINT
5
148
100
AcDbEntity
8
Defpoints
62
0
6
ByLayer
370
-1
48
1
60
0
100
AcDbPoint
10
0
20
12.7
30
0
39
0
210
0
220
0
230
1
50
360
0
POINT
5
149
100
AcDbEntity
8
Defpoints
62
0
6
ByLayer
370
-1
48
1
60
0
100
AcDbPoint
10
44.45
20
-14.3002
30
0
39
0
210
0
220
0
230
1
50
360
0
POINT
5
14A
100
AcDbEntity
8
Defpoints
62
0
6
ByLayer
370
-1
48
1
60
0
100
AcDbPoint
10
64.3
20
-14.3002
30
0
39
0
210
0
220
0
230
1
50
360
0
ENDBLK
5
141
100
AcDbEntity
8
0
100
AcDbBlockEnd
0
BLOCK
5
152
100
AcDbEntity
8
0
100
AcDbBlockBegin
2
_U3
70
0
10
0
20
0
30
0
3
_U3
0
MTEXT
5
14C
100
AcDbEntity
8
2
62
256
6
ByLayer
370
18
48
1
60
0
100
AcDbMText
10
63.610366
20
-2.733066
30
0
210
0
220
0
230
1
1
\W0.6740;27
40
3.5
41
0
44
1.084337
50
90
71
7
72
5
7
iso_b_vert
0
LINE
5
14D
100
AcDbEntity
8
2
62
256
6
ByLayer
370
13
48
1
60
0
100
AcDbLine
10
1.5875
20
12.7
30
0
11
66.3
21
12.7
31
0
39
0
210
0
220
0
230
1
0
LINE
5
14E
100
AcDbEntity
8
2
62
256
6
ByLayer
370
13
48
1
60
0
100
AcDbLine
10
46.0375
20
-14.3002
30
0
11
66.3
21
-14.3002
31
0
39
0
210
0
220
0
230
1
0
LINE
5
14F
100
AcDbEntity
8
2
62
256
6
ByLayer
370
13
48
1
60
0
100
AcDbLine
10
64.3
20
12.7
30
0
11
64.3
21
-14.3002
31
0
39
0
210
0
220
0
230
1
0
SOLID
5
150
100
AcDbEntity
8
2
62
256
6
ByLayer
370
18
48
1
60
0
100
AcDbTrace
10
64.3
20
12.7
30
0
11
64.760784
21
9.200002
31
0
12
63.839216
22
9.199998
32
0
13
63.839216
23
9.199998
33
0
39
0
210
0
220
0
230
1
0
SOLID
5
151
100
AcDbEntity
8
2
62
256
6
ByLayer
370
18
48
1
60
0
100
AcDbTrace
10
64.3
20
-14.3002
30
0
11
63.839216
21
-10.800202
31
0
12
64.760784
22
-10.800198
32
0
13
64.760784
23
-10.800198
33
0
39
0
210
0
220
0
230
1
0
ENDBLK
5
153
100
AcDbEntity
8
0
100
AcDbBlockEnd
0
ENDSEC
0
SECTION
2
ENTITIES
0
ARC
5
A9
100
AcDbEntity
8
1
62
256
6
ByLayer
370
18
48
1
60
0
100
AcDbCircle
39
0
10
35.65
20
-8.3002
30
0
40
3.58
210
0
220
0
230
1
100
AcDbArc
50
139.938022
51
220.061977
0
ARC
5
AA
100
AcDbEntity
8
1
62
256
6
ByLayer
370
18
48
1
60
0
100
AcDbCircle
39
0
10
19.732752
20
7.7998
30
0
40
11
210
0
220
0
230
1
100
AcDbArc
50
266.283577
51
270
0
ARC
5
AB
100
AcDbEntity
8
1
62
256
6
ByLayer
370
18
48
1
60
0
100
AcDbCircle
39
0
10
19.732752
20
7.7998
30
0
40
11
210
0
220
0
230
1
100
AcDbArc
50
195
51
228.250997
0
ARC
5
AC
100
AcDbEntity
8
1
62
256
6
ByLayer
370
13
48
1
60
0
100
AcDbCircle
39
0
10
6.490718
20
-6.373654
30
0
40
5.57782202426892
210
0
220
0
230
1
100
AcDbArc
50
99.223294
51
254.17165
0
ARC
5
AD
100
AcDbEntity
8
1
62
256
6
ByLayer
370
13
48
1
60
0
100
AcDbCircle
39
0
10
14.952213
20
23.47226
30
0
40
36.6
210
0
220
0
230
1
100
AcDbArc
50
254.17165
51
269.887828
0
ARC
5
AE
100
AcDbEntity
8
1
62
256
6
ByLayer
370
13
48
1
60
0
100
AcDbCircle
39
0
10
-22.078305
20
-6.98605
30
0
40
41.6
210
0
220
0
230
1
100
AcDbArc
50
357.612044
51
2.801818
0
ARC
5
AF
100
AcDbEntity
8
1
62
256
6
ByLayer
370
13
48
1
60
0
100
AcDbCircle
39
0
10
14.889564
20
-8.527678
30
0
40
4.6
210
0
220
0
230
1
100
AcDbArc
50
269.887828
51
357.612044
0
ARC
5
B0
100
AcDbEntity
8
1
62
256
6
ByLayer
370
13
48
1
60
0
100
AcDbCircle
39
0
10
14.877465
20
-5.177436
30
0
40
4.6
210
0
220
0
230
1
100
AcDbArc
50
2.801818
51
25.77655
0
ARC
5
B1
100
AcDbEntity
8
1
62
256
6
ByLayer
370
13
48
1
60
0
100
AcDbCircle
39
0
10
11.46303
20
-36.994752
30
0
40
36.6
210
0
220
0
230
1
100
AcDbArc
50
88.520217
51
99.223294
0
ARC
5
B2
100
AcDbEntity
8
1
62
256
6
ByLayer
370
18
48
1
60
0
100
AcDbCircle
39
0
10
38.45
20
-8.3002
30
0
40
1.2903
210
0
220
0
230
1
100
AcDbArc
50
240
51
300
0
ARC
5
B3
100
AcDbEntity
8
1
62
256
6
ByLayer
370
18
48
1
60
0
100
AcDbCircle
39
0
10
38.45
20
-8.3002
30
0
40
1.2903
210
0
220
0
230
1
100
AcDbArc
50
0
51
60
0
ARC
5
B4
100
AcDbEntity
8
1
62
256
6
ByLayer
370
18
48
1
60
0
100
AcDbCircle
39
0
10
38.45
20
-8.3002
30
0
40
1.2903
210
0
220
0
230
1
100
AcDbArc
50
60
51
120
0
ARC
5
B5
100
AcDbEntity
8
1
62
256
6
ByLayer
370
18
48
1
60
0
100
AcDbCircle
39
0
10
38.45
20
-8.3002
30
0
40
1.2903
210
0
220
0
230
1
100
AcDbArc
50
120
51
180
0
ARC
5
B6
100
AcDbEntity
8
1
62
256
6
ByLayer
370
18
48
1
60
0
100
AcDbCircle
39
0
10
38.45
20
-8.3002
30
0
40
1.2903
210
0
220
0
230
1
100
AcDbArc
50
180
51
240
0
ARC
5
B7
100
AcDbEntity
8
1
62
256
6
ByLayer
370
18
48
1
60
0
100
AcDbCircle
39
0
10
38.45
20
-8.3002
30
0
40
1.2903
210
0
220
0
230
1
100
AcDbArc
50
300
51
0
0
ARC
5
BA
100
AcDbEntity
8
1
62
256
6
ByLayer
370
18
48
1
60
0
100
AcDbCircle
39
0
10
38.45
20
-8.3002
30
0
40
1.6764
210
0
220
0
230
1
100
AcDbArc
50
210
51
270
0
ARC
5
BB
100
AcDbEntity
8
1
62
256
6
ByLayer
370
18
48
1
60
0
100
AcDbCircle
39
0
10
38.45
20
-8.3002
30
0
40
1.6764
210
0
220
0
230
1
100
AcDbArc
50
270
51
330
0
ARC
5
BC
100
AcDbEntity
8
1
62
256
6
ByLayer
370
18
48
1
60
0
100
AcDbCircle
39
0
10
38.45
20
-8.3002
30
0
40
1.6764
210
0
220
0
230
1
100
AcDbArc
50
90
51
150
0
ARC
5
BD
100
AcDbEntity
8
1
62
256
6
ByLayer
370
18
48
1
60
0
100
AcDbCircle
39
0
10
38.45
20
-8.3002
30
0
40
1.6764
210
0
220
0
230
1
100
AcDbArc
50
30
51
90
0
ARC
5
BE
100
AcDbEntity
8
1
62
256
6
ByLayer
370
18
48
1
60
0
100
AcDbCircle
39
0
10
38.45
20
-8.3002
30
0
40
1.6764
210
0
220
0
230
1
100
AcDbArc
50
150
51
210
0
ARC
5
BF
100
AcDbEntity
8
1
62
256
6
ByLayer
370
18
48
1
60
0
100
AcDbCircle
39
0
10
38.45
20
-8.3002
30
0
40
1.6764
210
0
220
0
230
1
100
AcDbArc
50
330
51
30
0
ARC
5
C4
100
AcDbEntity
8
SK1
62
256
6
ByLayer
370
18
48
1
60
0
100
AcDbCircle
39
0
10
-2.410016
20
-14.225
30
0
40
1.60000000004384
210
0
220
0
230
1
100
AcDbArc
50
72.387561
51
90
0
ARC
5
C5
100
AcDbEntity
8
SK1
62
256
6
ByLayer
370
18
48
1
60
0
100
AcDbCircle
39
0
10
-2.410016
20
-14.225
30
0
40
1.6
210
0
220
0
230
1
100
AcDbArc
50
31.030882
51
72.387561
0
CIRCLE
5
B8
100
AcDbEntity
8
1
62
256
6
ByLayer
370
18
48
1
60
0
100
AcDbCircle
10
38.45
20
-8.3002
30
0
40
2.625
39
0
210
0
220
0
230
1
0
CIRCLE
5
B9
100
AcDbEntity
8
1
62
256
6
ByLayer
370
18
48
1
60
0
100
AcDbCircle
10
38.45
20
-8.3002
30
0
40
1.8
39
0
210
0
220
0
230
1
0
CIRCLE
5
C0
100
AcDbEntity
8
1
62
256
6
ByLayer
370
13
48
1
60
0
100
AcDbCircle
10
38.45
20
-8.3002
30
0
40
2.92104776441581
39
0
210
0
220
0
230
1
0
CIRCLE
5
C1
100
AcDbEntity
8
1
62
256
6
ByLayer
370
13
48
1
60
0
100
AcDbCircle
10
38.45
20
-8.3002
30
0
40
3.0099607600977
39
0
210
0
220
0
230
1
0
CIRCLE
5
C2
100
AcDbEntity
8
1
62
256
6
ByLayer
370
18
48
1
60
0
100
AcDbCircle
10
38.45
20
-8.3002
30
0
40
3.07132534818234
39
0
210
0
220
0
230
1
0
CIRCLE
5
C3
100
AcDbEntity
8
1
62
256
6
ByLayer
370
18
48
1
60
0
100
AcDbCircle
10
38.45
20
-8.3002
30
0
40
5.99999999999999
39
0
210
0
220
0
230
1
0
POINT
5
70
100
AcDbEntity
8
2
62
256
6
ByLayer
370
18
48
1
60
0
100
AcDbPoint
10
38.15
20
33.7002
30
0
39
0
210
0
220
0
230
1
50
360
0
POINT
5
72
100
AcDbEntity
8
2
62
256
6
ByLayer
370
18
48
1
60
0
100
AcDbPoint
10
38.45
20
33.7002
30
0
39
0
210
0
220
0
230
1
50
360
0
POINT
5
73
100
AcDbEntity
8
1
62
256
6
ByLayer
370
18
48
1
60
0
100
AcDbPoint
10
0
20
0
30
0
39
0
210
0
220
0
230
1
50
360
0
POINT
5
75
100
AcDbEntity
8
81
62
256
6
ByLayer
370
18
48
1
60
0
100
AcDbPoint
10
44.45
20
-14.3002
30
0
39
0
210
0
220
0
230
1
50
360
0
POINT
5
77
100
AcDbEntity
8
80
62
256
6
ByLayer
370
18
48
1
60
0
100
AcDbPoint
10
0
20
0
30
0
39
0
210
0
220
0
230
1
50
360
0
POINT
5
79
100
AcDbEntity
8
2
62
256
6
ByLayer
370
18
48
1
60
0
100
AcDbPoint
10
-84
20
12.7
30
0
39
0
210
0
220
0
230
1
50
360
0
POINT
5
7A
100
AcDbEntity
8
2
62
256
6
ByLayer
370
18
48
1
60
0
100
AcDbPoint
10
0
20
-12.7
30
0
39
0
210
0
220
0
230
1
50
360
0
POINT
5
7B
100
AcDbEntity
8
2
62
256
6
ByLayer
370
18
48
1
60
0
100
AcDbPoint
10
0
20
12.7
30
0
39
0
210
0
220
0
230
1
50
360
0
POINT
5
7C
100
AcDbEntity
8
2
62
256
6
ByLayer
370
18
48
1
60
0
100
AcDbPoint
10
-84
20
-12.7
30
0
39
0
210
0
220
0
230
1
50
360
0
POINT
5
7D
100
AcDbEntity
8
2
62
256
6
ByLayer
370
18
48
1
60
0
100
AcDbPoint
10
44.45
20
-14.3002
30
0
39
0
210
0
220
0
230
1
50
360
0
POINT
5
7E
100
AcDbEntity
8
2
62
256
6
ByLayer
370
18
48
1
60
0
100
AcDbPoint
10
-84
20
-12.7
30
0
39
0
210
0
220
0
230
1
50
360
0
SPLINE
5
C6
100
AcDbEntity
8
1
62
256
6
ByLayer
370
18
48
1
60
0
100
AcDbSpline
70
4
71
3
72
42
73
38
40
0
40
0
40
0
40
0
40
0.0312577609064575
40
0.0312577609064575
40
0.0625155218129149
40
0.0625155218129149
40
0.125031043625827
40
0.125031043625827
40
0.250062087251649
40
0.250062087251649
40
0.281319848158106
40
0.281319848158106
40
0.312577609064563
40
0.312577609064563
40
0.375093130877476
40
0.375093130877476
40
0.500124174503301
40
0.500124174503301
40
0.562639696316216
40
0.562639696316216
40
0.625155218129131
40
0.625155218129131
40
0.687670739942046
40
0.687670739942046
40
0.750186261754961
40
0.750186261754961
40
0.812701783567875
40
0.812701783567875
40
0.87521730538079
40
0.87521730538079
40
0.90647506628725
40
0.90647506628725
40
0.922103946740478
40
0.922103946740478
40
0.937732827193707
40
0.937732827193707
40
1
40
1
40
1
40
1
41
1
10
19.0197500106744
20
-3.17706788529395
30
-3E-16
41
1
10
18.9875139942632
20
-3.17497399705127
30
-3E-16
41
1
10
18.9551771628035
20
-3.17273003291734
30
-4E-16
41
1
10
18.8909312507222
20
-3.16798810032182
30
-5E-16
41
1
10
18.8589527953339
20
-3.1654859604464
30
-6E-16
41
1
10
18.7634309173139
20
-3.15759477116276
30
-8E-16
41
1
10
18.7003002127902
20
-3.15182110022022
30
-9E-16
41
1
10
18.5124328772941
20
-3.13302512604835
30
-1.3E-15
41
1
10
18.3892134025774
20
-3.11852913872565
30
-1.6E-15
41
1
10
18.2374517651809
20
-3.09813631665332
30
1.7E-15
41
1
10
18.2072100779228
20
-3.09394298845885
30
1.6E-15
41
1
10
18.1473664787529
20
-3.08539486448791
30
1.5E-15
41
1
10
18.1177099769029
20
-3.08103289533048
30
1.4E-15
41
1
10
18.0295005304724
20
-3.06769615318748
30
1.3E-15
41
1
10
17.9717061024731
20
-3.05847067031141
30
1.2E-15
41
1
10
17.801132406081
20
-3.02988795629614
30
8E-16
41
1
10
17.6911381564026
20
-3.00962293262987
30
6E-16
41
1
10
17.5312657496424
20
-2.97778841591349
30
3E-16
41
1
10
17.4788202934969
20
-2.9669345571817
30
1E-16
41
1
10
17.3757133766693
20
-2.94483355119732
30
-1E-16
41
1
10
17.3254024286327
20
-2.93366175769728
30
-2E-16
41
1
10
17.2273080211658
20
-2.91118892669419
30
-4E-16
41
1
10
17.1795213230891
20
-2.89988669328005
30
-5E-16
41
1
10
17.0867123242872
20
-2.87731366950507
30
-7E-16
41
1
10
17.0416822807314
20
-2.86604027492334
30
-7E-16
41
1
10
16.9549721387202
20
-2.84378699386747
30
-9E-16
41
1
10
16.9132674781115
20
-2.83279942064124
30
-1E-15
41
1
10
16.8345388624783
20
-2.81161008836875
30
-1.2E-15
41
1
10
16.7980875155225
20
-2.8015609257445
30
-1.2E-15
41
1
10
16.7500200178672
20
-2.7880982091946
30
-1.3E-15
41
1
10
16.7351142849181
20
-2.78388393348007
30
-1.4E-15
41
1
10
16.7149287808064
20
-2.77813900929453
30
-1.4E-15
41
1
10
16.7085644169883
20
-2.77632071725503
30
-1.4E-15
41
1
10
16.6966763416384
20
-2.77291415326732
30
-1.5E-15
41
1
10
16.6911937169515
20
-2.77133765764827
30
-1.5E-15
41
1
10
16.6665746392054
20
-2.76424172681743
30
-1.5E-15
41
1
10
16.6553155751974
20
-2.7609475490151
30
-1.5E-15
41
1
10
16.655241368528
20
-2.76092583672548
30
-1.5E-15
0
SPLINE
5
C7
100
AcDbEntity
8
1
62
256
6
ByLayer
370
18
48
1
60
0
100
AcDbSpline
70
4
71
3
72
48
73
44
40
0
40
0
40
0
40
0
40
0.0156250000000008
40
0.0156250000000008
40
0.0234375000000011
40
0.0234375000000011
40
0.0312500000000014
40
0.0312500000000014
40
0.0625000000000002
40
0.0625000000000002
40
0.0781249999999993
40
0.0781249999999993
40
0.0937499999999984
40
0.0937499999999984
40
0.124999999999997
40
0.124999999999997
40
0.156249999999996
40
0.156249999999996
40
0.187499999999994
40
0.187499999999994
40
0.249999999999992
40
0.249999999999992
40
0.281249999999992
40
0.281249999999992
40
0.312499999999991
40
0.312499999999991
40
0.374999999999992
40
0.374999999999992
40
0.437499999999992
40
0.437499999999992
40
0.499999999999993
40
0.499999999999993
40
0.624999999999993
40
0.624999999999993
40
0.656249999999994
40
0.656249999999994
40
0.687499999999995
40
0.687499999999995
40
0.749999999999996
40
0.749999999999996
40
0.874999999999998
40
0.874999999999998
40
1
40
1
40
1
40
1
41
1
10
15.1200304363882
20
-2.18633050176999
30
-1.1E-15
41
1
10
15.1200213565097
20
-2.18632630941889
30
-1.1E-15
41
1
10
15.1189190405174
20
-2.18581734934813
30
-1.1E-15
41
1
10
15.1156441040602
20
-2.18430330302891
30
-1.1E-15
41
1
10
15.114279962891
20
-2.1836724341438
30
-1.1E-15
41
1
10
15.1110544055411
20
-2.18217962070077
30
-1.1E-15
41
1
10
15.1091916603066
20
-2.18131706089761
30
-1.1E-15
41
1
10
15.0986963918577
20
-2.17645264879937
30
-1.2E-15
41
1
10
15.0865362583369
20
-2.17080496846688
30
-1.2E-15
41
1
10
15.0637408716851
20
-2.16014016696195
30
-1.2E-15
41
1
10
15.0553474206395
20
-2.15620252054498
30
-1.2E-15
41
1
10
15.0375164520661
20
-2.14780589025023
30
-1.3E-15
41
1
10
15.0280514720295
20
-2.14333413305266
30
-1.3E-15
41
1
10
14.998266555487
20
-2.12920464798461
30
-1.4E-15
41
1
10
14.9765690726923
20
-2.11883812536649
30
-1.4E-15
41
1
10
14.9304464131394
20
-2.09658920903914
30
-1.5E-15
41
1
10
14.9060147556425
20
-2.08470389512144
30
-1.6E-15
41
1
10
14.8550281977284
20
-2.05964320013393
30
-1.7E-15
41
1
10
14.8284472527218
20
-2.04645409280857
30
-1.7E-15
41
1
10
14.7470250949621
20
-2.00561777353442
30
1.7E-15
41
1
10
14.6902441247588
20
-1.97657240660536
30
1.6E-15
41
1
10
14.6026907464479
20
-1.93074775051329
30
1.4E-15
41
1
10
14.5730628210953
20
-1.91507269138964
30
1.3E-15
41
1
10
14.5134991372343
20
-1.88320281015186
30
1.2E-15
41
1
10
14.4835227261168
20
-1.86698719342658
30
1.1E-15
41
1
10
14.3931289335977
20
-1.81753575377263
30
1E-15
41
1
10
14.3322533485309
20
-1.7834980802605
30
8E-16
41
1
10
14.2096845886116
20
-1.71338633366534
30
6E-16
41
1
10
14.1479878662432
20
-1.67731087926643
30
5E-16
41
1
10
14.0240064607666
20
-1.60314876551135
30
2E-16
41
1
10
13.9617201463571
20
-1.56506153144144
30
1E-16
41
1
10
13.7741832770788
20
-1.44775154677782
30
-3E-16
41
1
10
13.6482741433589
20
-1.36549611255612
30
-6E-16
41
1
10
13.4900542908756
20
-1.25725243957115
30
-9E-16
41
1
10
13.4583290855912
20
-1.23530452904703
30
-1E-15
41
1
10
13.3950064592153
20
-1.1909996449794
30
-1.1E-15
41
1
10
13.3634169761998
20
-1.16864896476989
30
-1.1E-15
41
1
10
13.2688665303618
20
-1.10099747394943
30
-1.3E-15
41
1
10
13.206123836843
20
-1.05509755563429
30
-1.5E-15
41
1
10
13.0187780204762
20
-0.914951052637122
30
1.7E-15
41
1
10
12.8950610319721
20
-0.818264562666911
30
1.4E-15
41
1
10
12.6499401262787
20
-0.617968747255759
30
9E-16
41
1
10
12.5285381341575
20
-0.514364110615276
30
7E-16
41
1
10
12.4081961227283
20
-0.406958519161776
30
5E-16
0
SPLINE
5
C8
100
AcDbEntity
8
1
62
256
6
ByLayer
370
18
48
1
60
0
100
AcDbSpline
70
4
71
3
72
13
73
9
40
0
40
0
40
0
40
0
40
0.25
40
0.25
40
0.5
40
0.75
40
0.75
40
1
40
1
40
1
40
1
41
1
10
14.8836911949326
20
-11.5276727243008
30
2E-15
41
1
10
14.0782843211334
20
-11.5260959243847
30
3E-16
41
1
10
13.2768761971448
20
-11.4967611872379
30
-1.3E-15
41
1
10
11.6818598804564
20
-11.3837866329701
30
2.5E-15
41
1
10
10.0946438432597
20
-11.2165040593117
30
-7E-16
41
1
10
8.52278007785685
20
-10.9414177001094
30
3.2E-15
41
1
10
6.95853906991107
20
-10.6120472093353
30
0
41
1
10
6.18022977709697
20
-10.4202220794052
30
-1.6E-15
41
1
10
5.4057415594479
20
-10.2006500389056
30
-3.2E-15
0
SPLINE
5
C9
100
AcDbEntity
8
1
62
256
6
ByLayer
370
18
48
1
60
0
100
AcDbSpline
70
4
71
3
72
28
73
24
40
0
40
0
40
0
40
0
40
0.124999999999989
40
0.124999999999989
40
0.187499999999985
40
0.218749999999984
40
0.218749999999984
40
0.249999999999982
40
0.249999999999982
40
0.374999999999983
40
0.374999999999983
40
0.499999999999984
40
0.499999999999984
40
0.562499999999985
40
0.593749999999987
40
0.593749999999987
40
0.624999999999988
40
0.624999999999988
40
0.749999999999992
40
0.749999999999992
40
0.874999999999996
40
0.874999999999996
40
1
40
1
40
1
40
1
41
1
10
16.6552364552739
20
-2.76092439906105
30
-1.5E-15
41
1
10
16.7453705815481
20
-2.82723400198944
30
-1.4E-15
41
1
10
16.8312713262039
20
-2.8981770291939
30
-1.2E-15
41
1
10
16.9538781539548
20
-3.01142514268409
30
-9E-16
41
1
10
17.0136167966272
20
-3.06976164078387
30
-8E-16
41
1
10
17.070995001902
20
-3.130681184103
30
-7E-16
41
1
10
17.1087188080695
20
-3.1718723525631
30
-6E-16
41
1
10
17.1273402651554
20
-3.19278469971548
30
-6E-16
41
1
10
17.2187590181613
20
-3.29838646046844
30
-4E-16
41
1
10
17.2865280870972
20
-3.38617673810703
30
-2E-16
41
1
10
17.4117073227791
20
-3.56814721925392
30
0
41
1
10
17.4691164072783
20
-3.66232808556114
30
1E-16
41
1
10
17.5474459756397
20
-3.80840249895792
30
3E-16
41
1
10
17.5846603532755
20
-3.88264319099923
30
4E-16
41
1
10
17.6189056391233
20
-3.95871619801548
30
4E-16
41
1
10
17.6410681973784
20
-4.00984357841452
30
5E-16
41
1
10
17.6518281019424
20
-4.03564420509406
30
5E-16
41
1
10
17.7037930940666
20
-4.16532943120041
30
6E-16
41
1
10
17.7391974622582
20
-4.27042298930601
30
7E-16
41
1
10
17.7981205806303
20
-4.48320539484749
30
8E-16
41
1
10
17.8216379446613
20
-4.59089453844669
30
8E-16
41
1
10
17.8567844751575
20
-4.80887045408764
30
9E-16
41
1
10
17.8684149952494
20
-4.91915692935982
30
9E-16
41
1
10
17.8738783826675
20
-5.03079140670076
30
1E-15
0
SPLINE
5
CA
100
AcDbEntity
8
1
62
256
6
ByLayer
370
18
48
1
60
0
100
AcDbSpline
70
4
71
3
72
13
73
9
40
0
40
0
40
0
40
0
40
0.500000000000002
40
0.625
40
0.625
40
0.749999999999999
40
0.749999999999999
40
1
40
1
40
1
40
1
41
1
10
15.1200258964479
20
-2.18632840559397
30
2.4E-15
41
1
10
15.366883926215
20
-2.30035541995864
30
2.9E-15
41
1
10
15.6814875846816
20
-2.43181222232411
30
-3.5E-15
41
1
10
16.0038129444451
20
-2.54910020577827
30
-2.9E-15
41
1
10
16.133367688755
20
-2.59486952120329
30
-2.6E-15
41
1
10
16.1984158483548
20
-2.61716568216525
30
-2.5E-15
41
1
10
16.393672533339
20
-2.68205891726731
30
-2.1E-15
41
1
10
16.5242527169952
20
-2.72275424728429
30
-1.8E-15
41
1
10
16.6552364552739
20
-2.76092439906105
30
-1.5E-15
0
SPLINE
5
CB
100
AcDbEntity
8
1
62
256
6
ByLayer
370
18
48
1
60
0
100
AcDbSpline
70
4
71
3
72
13
73
9
40
0
40
0
40
0
40
0
40
0.25
40
0.25
40
0.5
40
0.75
40
0.75
40
1
40
1
40
1
40
1
41
1
10
5.85314241128947
20
-2.44726100708613
30
-2.3E-15
41
1
10
6.62156548691408
20
-2.32248300188093
30
-7E-16
41
1
10
7.39092251042541
20
-2.22383573347173
30
9E-16
41
1
10
8.9315416400506
20
-2.07784715534197
30
-3.1E-15
41
1
10
10.4740658184884
20
-1.98316805164495
30
1E-16
41
1
10
12.0204507982305
20
-1.99061719269295
30
3.2E-15
41
1
10
13.56877986745
20
-2.04956650843113
30
-7E-16
41
1
10
14.3439164717591
20
-2.10478983906373
30
9E-16
41
1
10
15.1200258964479
20
-2.18632840559397
30
2.4E-15
0
SPLINE
5
CC
100
AcDbEntity
8
1
62
256
6
ByLayer
370
18
48
1
60
0
100
AcDbSpline
70
4
71
3
72
70
73
66
40
0
40
0
40
0
40
0
40
0.0312499999999983
40
0.0624999999999966
40
0.0937499999999949
40
0.124999999999993
40
0.124999999999993
40
0.132812499999993
40
0.132812499999993
40
0.140624999999993
40
0.156249999999992
40
0.156249999999992
40
0.187499999999991
40
0.21874999999999
40
0.249999999999989
40
0.249999999999989
40
0.281249999999987
40
0.281249999999987
40
0.312499999999986
40
0.343749999999985
40
0.343749999999985
40
0.359374999999984
40
0.367187499999983
40
0.367187499999983
40
0.374999999999983
40
0.374999999999983
40
0.406249999999982
40
0.437499999999982
40
0.468749999999981
40
0.468749999999981
40
0.484374999999981
40
0.492187499999982
40
0.492187499999982
40
0.499999999999983
40
0.499999999999983
40
0.531249999999984
40
0.562499999999986
40
0.593749999999987
40
0.593749999999987
40
0.609374999999988
40
0.617187499999989
40
0.617187499999989
40
0.62499999999999
40
0.62499999999999
40
0.656249999999992
40
0.687499999999995
40
0.718749999999997
40
0.718749999999997
40
0.734374999999998
40
0.742187499999998
40
0.742187499999998
40
0.749999999999998
40
0.749999999999998
40
0.781249999999999
40
0.812499999999999
40
0.84375
40
0.84375
40
0.859375
40
0.859375
40
0.875
40
0.875
40
0.90625
40
0.9375
40
0.96875
40
1
40
1
40
1
40
1
41
1
10
5.4057415594479
20
-10.2006500389056
30
-3.2E-15
41
1
10
5.29699116915313
20
-10.16981865302
30
-3.4E-15
41
1
10
5.08370443014198
20
-10.0993540305204
30
3.3E-15
41
1
10
4.77599834356334
20
-9.96809434724429
30
2.6E-15
41
1
10
4.48037209788987
20
-9.81153687859501
30
2E-15
41
1
10
4.29141578478468
20
-9.69011551804442
30
1.7E-15
41
1
10
4.17593779078098
20
-9.60872181220708
30
1.4E-15
41
1
10
4.15298592213219
20
-9.59217503213401
30
1.4E-15
41
1
10
4.10756344209128
20
-9.55868826218449
30
1.3E-15
41
1
10
4.04007076081572
20
-9.50781162620262
30
1.1E-15
41
1
10
3.97448322613604
20
-9.45501309438146
30
1E-15
41
1
10
3.84581421289954
20
-9.34688640544277
30
7E-16
41
1
10
3.68092945041033
20
-9.19598080237893
30
4E-16
41
1
10
3.45341244775068
20
-8.94960118344929
30
-1E-16
41
1
10
3.31508590683495
20
-8.77183768793131
30
-3E-16
41
1
10
3.18365787965846
20
-8.58708514953696
30
-6E-16
41
1
10
3.12230791022969
20
-8.49249416890029
30
-7E-16
41
1
10
3.00818996436453
20
-8.29918472077935
30
-1E-15
41
1
10
2.90261442368231
20
-8.10168981312899
30
-1.2E-15
41
1
10
2.81396891137231
20
-7.89589446928863
30
-1.4E-15
41
1
10
2.75391295557986
20
-7.73839458796527
30
-1.5E-15
41
1
10
2.72549417660378
20
-7.65885525062603
30
-1.5E-15
41
1
10
2.69952438191302
20
-7.57811426208053
30
-1.6E-15
41
1
10
2.68276080651506
20
-7.52401722193829
30
-1.6E-15
41
1
10
2.67464498506135
20
-7.49680277046178
30
-1.6E-15
41
1
10
2.63556751140391
20
-7.36044819693316
30
-1.7E-15
41
1
10
2.58280482181033
20
-7.1411597382839
30
-1.8E-15
41
1
10
2.53204175637541
20
-6.80896886019084
30
-1.9E-15
41
1
10
2.51694359397123
20
-6.58535710752864
30
-2E-15
41
1
10
2.51273309309869
20
-6.41683206178948
30
-2E-15
41
1
10
2.51240849350174
20
-6.33236520699219
30
-2E-15
41
1
10
2.51479301455589
20
-6.24758747897468
30
-2E-15
41
1
10
2.51699060161141
20
-6.19099923478828
30
-2E-15
41
1
10
2.51839565707229
20
-6.16263721040039
30
-2E-15
41
1
10
2.5269162987565
20
-6.02125374404213
30
-1.9E-15
41
1
10
2.55009633653901
20
-5.79728034576857
30
-1.9E-15
41
1
10
2.61258623496045
20
-5.46782134206361
30
-1.8E-15
41
1
10
2.67252911521354
20
-5.25246605760532
30
-1.7E-15
41
1
10
2.72441533079328
20
-5.09257115567476
30
-1.5E-15
41
1
10
2.75209300381269
20
-5.01302962396457
30
-1.5E-15
41
1
10
2.78240790947751
20
-4.93410478017469
30
-1.4E-15
41
1
10
2.80320941916116
20
-4.88162649205466
30
-1.4E-15
41
1
10
2.81391934652751
20
-4.85542537485645
30
-1.4E-15
41
1
10
2.86873830879216
20
-4.72529325661461
30
-1.3E-15
41
1
10
2.96465002445791
20
-4.52235547530742
30
-1.1E-15
41
1
10
3.13232645003123
20
-4.23323561204072
30
-7E-16
41
1
10
3.25981318667218
20
-4.0505542402901
30
-5E-16
41
1
10
3.36137931900191
20
-3.91735094544026
30
-2E-16
41
1
10
3.41365213378705
20
-3.85170248819972
30
-1E-16
41
1
10
3.46818998050671
20
-3.78750190844548
30
0
41
1
10
3.50505662902083
20
-3.74502614859901
30
0
41
1
10
3.52376483533183
20
-3.72392765116834
30
1E-16
41
1
10
3.61832303356627
20
-3.61954618749766
30
3E-16
41
1
10
3.77560605405836
20
-3.46015615018493
30
6E-16
41
1
10
4.02895673357838
20
-3.24319395424496
30
1.1E-15
41
1
10
4.20937102937026
20
-3.11313919089193
30
1.5E-15
41
1
10
4.34905343519088
20
-3.02112545714235
30
1.8E-15
41
1
10
4.39634381641889
20
-2.9913766614452
30
1.9E-15
41
1
10
4.49240481724431
20
-2.93374883848307
30
2.1E-15
41
1
10
4.54121402482374
20
-2.90584885991876
30
2.2E-15
41
1
10
4.6896635986048
20
-2.82513906813523
30
2.5E-15
41
1
10
4.89078344186996
20
-2.72666536120491
30
2.9E-15
41
1
10
5.20175702013054
20
-2.60553997530107
30
3.5E-15
41
1
10
5.52196126361528
20
-2.51076333187095
30
-2.9E-15
41
1
10
5.74167123940606
20
-2.46536190866848
30
-2.5E-15
41
1
10
5.85314241128944
20
-2.44726100708613
30
-2.3E-15
0
SPLINE
5
CD
100
AcDbEntity
8
1
62
256
6
ByLayer
370
18
48
1
60
0
100
AcDbSpline
70
4
71
3
72
42
73
38
40
0
40
0
40
0
40
0
40
0.0624999999999887
40
0.0624999999999887
40
0.0937499999999831
40
0.109374999999981
40
0.109374999999981
40
0.124999999999978
40
0.124999999999978
40
0.187499999999974
40
0.249999999999969
40
0.312499999999965
40
0.328124999999963
40
0.328124999999963
40
0.343749999999962
40
0.343749999999962
40
0.37499999999996
40
0.37499999999996
40
0.43749999999996
40
0.499999999999959
40
0.499999999999959
40
0.531249999999958
40
0.546874999999959
40
0.546874999999959
40
0.56249999999996
40
0.56249999999996
40
0.624999999999965
40
0.687499999999971
40
0.749999999999976
40
0.749999999999976
40
0.781249999999979
40
0.781249999999979
40
0.812499999999982
40
0.812499999999982
40
0.874999999999988
40
0.937499999999994
40
1
40
1
40
1
40
1
41
1
10
17.8869593188615
20
-8.65267538744232
30
1E-15
41
1
10
17.8829321479487
20
-8.74924594188775
30
1E-15
41
1
10
17.8742665785756
20
-8.84519877758717
30
1E-15
41
1
10
17.8543957788827
20
-8.98821277766544
30
9E-16
41
1
10
17.8427392376852
20
-9.05949056057059
30
9E-16
41
1
10
17.8284897401852
20
-9.13042301507139
30
9E-16
41
1
10
17.8184107160739
20
-9.17763415862606
30
8E-16
41
1
10
17.8130763891196
20
-9.20122121156018
30
8E-16
41
1
10
17.7850598431541
20
-9.31850913458666
30
8E-16
41
1
10
17.7315463543307
20
-9.50257783911093
30
7E-16
41
1
10
17.6260274207463
20
-9.76823931110872
30
4E-16
41
1
10
17.5280265489912
20
-9.95968368834826
30
2E-16
41
1
10
17.4668779952434
20
-10.0632682359507
30
1E-16
41
1
10
17.4418746587936
20
-10.1044770101643
30
1E-16
41
1
10
17.4290838734323
20
-10.1249959205989
30
0
41
1
10
17.3900679571008
20
-10.1859333821693
30
0
41
1
10
17.3631799251314
20
-10.2257723957317
30
-1E-16
41
1
10
17.2799356051429
20
-10.3429776550132
30
-3E-16
41
1
10
17.1620741942301
20
-10.4930969936617
30
-5E-16
41
1
10
17.0307327023627
20
-10.6311330865922
30
-8E-16
41
1
10
16.9271291361528
20
-10.7300887356875
30
-1E-15
41
1
10
16.8740508869362
20
-10.7784218168273
30
-1.1E-15
41
1
10
16.8190299548209
20
-10.8250122704445
30
-1.2E-15
41
1
10
16.7819130402889
20
-10.8556811622625
30
-1.3E-15
41
1
10
16.7631107527718
20
-10.8708399583015
30
-1.3E-15
41
1
10
16.6683510888704
20
-10.945367415469
30
-1.5E-15
41
1
10
16.5122185681308
20
-11.0563591009476
30
-1.8E-15
41
1
10
16.2649304683764
20
-11.1989117813436
30
-2.3E-15
41
1
10
16.091406434169
20
-11.2780884637561
30
-2.7E-15
41
1
10
15.9579482226759
20
-11.3313993922844
30
-3E-15
41
1
10
15.9128609103108
20
-11.3481723885972
30
-3.1E-15
41
1
10
15.8217587262985
20
-11.3795787864641
30
-3.2E-15
41
1
10
15.7760179668297
20
-11.3941203666186
30
-3.3E-15
41
1
10
15.6382391852308
20
-11.4343332144449
30
3.5E-15
41
1
10
15.4530526952076
20
-11.4788673009851
30
3.1E-15
41
1
10
15.1709297046808
20
-11.5189948781485
30
2.5E-15
41
1
10
14.9799383744236
20
-11.5278611539622
30
2.2E-15
41
1
10
14.8836911949326
20
-11.5276727243008
30
2E-15
0
SPLINE
5
CE
100
AcDbEntity
8
1
62
256
6
ByLayer
370
18
48
1
60
0
100
AcDbSpline
70
4
71
3
72
8
73
4
40
0
40
0
40
0
40
0
40
1
40
1
40
1
40
1
41
1
10
17.8738783826675
20
-5.03079140670076
30
1E-15
41
1
10
17.9329163757172
20
-6.23712641334774
30
1.1E-15
41
1
10
17.9373457692357
20
-7.44442086969704
30
1.1E-15
41
1
10
17.8869593188615
20
-8.65267538744229
30
1E-15
0
SPLINE
5
CF
100
AcDbEntity
8
1
62
256
6
ByLayer
370
18
48
1
60
0
100
AcDbSpline
70
4
71
3
72
32
73
28
40
0
40
0
40
0
40
0
40
0.0625000000000411
40
0.0625000000000411
40
0.125000000000082
40
0.125000000000082
40
0.156250000000079
40
0.156250000000079
40
0.187500000000076
40
0.187500000000076
40
0.25000000000007
40
0.25000000000007
40
0.312500000000064
40
0.312500000000064
40
0.375000000000058
40
0.375000000000058
40
0.437500000000052
40
0.437500000000052
40
0.500000000000047
40
0.500000000000047
40
0.625000000000035
40
0.625000000000035
40
0.750000000000023
40
0.750000000000023
40
0.875000000000012
40
0.875000000000012
40
1
40
1
40
1
40
1
41
1
10
37.3911526232019
20
-9.35788956585836
30
1.7E-15
41
1
10
37.3851965776225
20
-9.36552895130095
30
1.7E-15
41
1
10
37.3783998732568
20
-9.37221838600226
30
1.7E-15
41
1
10
37.3629096266952
20
-9.38345302134977
30
1.6E-15
41
1
10
37.3540912838502
20
-9.38799589414114
30
1.6E-15
41
1
10
37.3401830824227
20
-9.39264512790893
30
1.6E-15
41
1
10
37.3354080540193
20
-9.3938600303855
30
1.6E-15
41
1
10
37.3255900600916
20
-9.39563852989895
30
1.6E-15
41
1
10
37.3205138432813
20
-9.39620159538794
30
1.6E-15
41
1
10
37.3052385036214
20
-9.39692223655317
30
1.5E-15
41
1
10
37.2949470190725
20
-9.3961486087008
30
1.5E-15
41
1
10
37.2742049802242
20
-9.39255730609042
30
1.5E-15
41
1
10
37.2639890241856
20
-9.38977775233408
30
1.4E-15
41
1
10
37.243972922042
20
-9.38277908622428
30
1.4E-15
41
1
10
37.2341402442509
20
-9.37854881110184
30
1.4E-15
41
1
10
37.2147692094114
20
-9.36890242246372
30
1.3E-15
41
1
10
37.2052782345474
20
-9.36350402728354
30
1.3E-15
41
1
10
37.186830734928
20
-9.35189446189807
30
1.3E-15
41
1
10
37.1778377980812
20
-9.34566368142859
30
1.3E-15
41
1
10
37.1514520611168
20
-9.32589047347497
30
1.2E-15
41
1
10
37.1348227562434
20
-9.31141430555792
30
1.2E-15
41
1
10
37.103159336754
20
-9.28059201355947
30
1.1E-15
41
1
10
37.0881810893463
20
-9.26428713703112
30
1.1E-15
41
1
10
37.0597770815897
20
-9.23030638509923
30
1E-15
41
1
10
37.0463553838405
20
-9.21262714415192
30
1E-15
41
1
10
37.0210927025254
20
-9.17624796999016
30
9E-16
41
1
10
37.0092588236759
20
-9.15756308205025
30
9E-16
41
1
10
36.9981950130957
20
-9.13840000000002
30
9E-16
0
SPLINE
5
D0
100
AcDbEntity
8
1
62
256
6
ByLayer
370
18
48
1
60
0
100
AcDbSpline
70
4
71
3
72
32
73
28
40
0
40
0
40
0
40
0
40
0.062500000000034
40
0.062500000000034
40
0.125000000000068
40
0.125000000000068
40
0.156250000000073
40
0.156250000000073
40
0.187500000000078
40
0.187500000000078
40
0.250000000000072
40
0.250000000000072
40
0.312500000000066
40
0.312500000000066
40
0.37500000000006
40
0.37500000000006
40
0.437500000000054
40
0.437500000000054
40
0.500000000000048
40
0.500000000000048
40
0.625000000000036
40
0.625000000000036
40
0.750000000000024
40
0.750000000000024
40
0.875000000000012
40
0.875000000000012
40
1
40
1
40
1
40
1
41
1
10
38.0634376550478
20
-9.74603350996674
30
-5E-16
41
1
10
38.059799775975
20
-9.75501128946595
30
-5E-16
41
1
10
38.0574049077695
20
-9.7642421254593
30
-5E-16
41
1
10
38.0554205514371
20
-9.78327439016627
30
-5E-16
41
1
10
38.0558954796161
20
-9.79318273548503
30
-5E-16
41
1
10
38.0588232257788
20
-9.80755220812611
30
-5E-16
41
1
10
38.0601586035727
20
-9.81229495526546
30
-5E-16
41
1
10
38.0635273747773
20
-9.82168683717782
30
-5E-16
41
1
10
38.065577854165
20
-9.82636450263516
30
-5E-16
41
1
10
38.0725914304388
20
-9.83995365541463
30
-5E-16
41
1
10
38.0784071540865
20
-9.84847952855051
30
-4E-16
41
1
10
38.0918883328039
20
-9.86464700981421
30
-4E-16
41
1
10
38.0994034749874
20
-9.87210451038939
30
-4E-16
41
1
10
38.1154725487028
20
-9.88593963027554
30
-4E-16
41
1
10
38.1240524133194
20
-9.89233984146867
30
-4E-16
41
1
10
38.1420919483546
20
-9.90429245541824
30
-3E-16
41
1
10
38.1515125831523
20
-9.90981268316705
30
-3E-16
41
1
10
38.1707905115127
20
-9.91998390378106
30
-3E-16
41
1
10
38.1806829941081
20
-9.92465662531021
30
-2E-16
41
1
10
38.2109999629924
20
-9.93762073984215
30
-2E-16
41
1
10
38.2318513445947
20
-9.94478405635127
30
-1E-16
41
1
10
38.274375942213
20
-9.95679423600058
30
0
41
1
10
38.2959855031959
20
-9.96161334049563
30
0
41
1
10
38.339615701487
20
-9.96922155681619
30
1E-16
41
1
10
38.3616372221416
20
-9.97200546755525
30
1E-16
41
1
10
38.4057738517918
20
-9.97569400426093
30
2E-16
41
1
10
38.4278723788395
20
-9.97659999999999
30
3E-16
41
1
10
38.4499999999999
20
-9.97660000000002
30
3E-16
0
SPLINE
5
D1
100
AcDbEntity
8
1
62
256
6
ByLayer
370
18
48
1
60
0
100
AcDbSpline
70
4
71
3
72
42
73
38
40
0
40
0
40
0
40
0
40
0.062499999999935
40
0.062499999999935
40
0.0937499999999156
40
0.0937499999999156
40
0.124999999999896
40
0.124999999999896
40
0.18749999999988
40
0.18749999999988
40
0.218749999999873
40
0.218749999999873
40
0.249999999999867
40
0.249999999999867
40
0.374999999999856
40
0.374999999999856
40
0.437499999999865
40
0.437499999999865
40
0.499999999999874
40
0.499999999999874
40
0.562499999999883
40
0.562499999999883
40
0.624999999999891
40
0.624999999999891
40
0.6874999999999
40
0.6874999999999
40
0.749999999999909
40
0.749999999999909
40
0.812499999999918
40
0.812499999999918
40
0.874999999999926
40
0.874999999999926
40
0.906249999999943
40
0.906249999999943
40
0.93749999999996
40
0.93749999999996
40
1
40
1
40
1
40
1
41
1
10
37.4086925199831
20
-9.34826955824292
30
1.7E-15
41
1
10
37.4227871356055
20
-9.34053916442622
30
1.8E-15
41
1
10
37.4380356285276
20
-9.33538702842657
30
-1.8E-15
41
1
10
37.4620865338776
20
-9.33020675723645
30
-1.7E-15
41
1
10
37.4703382210821
20
-9.32891877639489
30
-1.7E-15
41
1
10
37.4868844741672
20
-9.32713749257778
30
-1.7E-15
41
1
10
37.4952135347208
20
-9.32663420474327
30
-1.6E-15
41
1
10
37.5203515822233
20
-9.32610417376122
30
-1.6E-15
41
1
10
37.5373100543939
20
-9.3270465230859
30
-1.6E-15
41
1
10
37.563021512351
20
-9.33000853403956
30
-1.5E-15
41
1
10
37.5716618770032
20
-9.33126239684037
30
-1.5E-15
41
1
10
37.5888362022317
20
-9.33422004560032
30
-1.4E-15
41
1
10
37.5973877572999
20
-9.33592458160192
30
-1.4E-15
41
1
10
37.6399922494484
20
-9.34546753279207
30
-1.3E-15
41
1
10
37.673600928129
20
-9.35628825932091
30
-1.3E-15
41
1
10
37.7235317083575
20
-9.37645551369653
30
-1.2E-15
41
1
10
37.7401096405103
20
-9.38386341868357
30
-1.1E-15
41
1
10
37.7726353551915
20
-9.39976920227616
30
-1.1E-15
41
1
10
37.7886439552412
20
-9.40828974058996
30
-1E-15
41
1
10
37.8201576682266
20
-9.42645712436229
30
-1E-15
41
1
10
37.8355540557613
20
-9.43604148687015
30
-9E-16
41
1
10
37.8656093651965
20
-9.45621083809402
30
-9E-16
41
1
10
37.8803064383359
20
-9.46682564270128
30
-9E-16
41
1
10
37.9087210647553
20
-9.48896743862562
30
-8E-16
41
1
10
37.9224319656051
20
-9.50048317408906
30
-8E-16
41
1
10
37.9487850549993
20
-9.52449075690757
30
-7E-16
41
1
10
37.9614355812807
20
-9.53699651464547
30
-7E-16
41
1
10
37.9852327882558
20
-9.56283979616029
30
-6E-16
41
1
10
37.9964482503782
20
-9.57624530971182
30
-6E-16
41
1
10
38.0170392741123
20
-9.60398975753446
30
-6E-16
41
1
10
38.0263941025826
20
-9.61828458059114
30
-6E-16
41
1
10
38.0385886240147
20
-9.64050277394955
30
-5E-16
41
1
10
38.042322768751
20
-9.64799980101608
30
-5E-16
41
1
10
38.0490309954632
20
-9.66321119303439
30
-5E-16
41
1
10
38.0520149168508
20
-9.67095658685506
30
-5E-16
41
1
10
38.0595137300049
20
-9.69431978356508
30
-5E-16
41
1
10
38.0626481413894
20
-9.71004653166744
30
-5E-16
41
1
10
38.0629988776368
20
-9.72603350996675
30
-5E-16
0
SPLINE
5
D2
100
AcDbEntity
8
1
62
256
6
ByLayer
370
18
48
1
60
0
100
AcDbSpline
70
4
71
3
72
8
73
4
40
0
40
0
40
0
40
0
40
1
40
1
40
1
40
1
41
1
10
37.4086925199831
20
-9.34826955824292
30
1.7E-15
41
1
10
37.4028451215817
20
-9.35147664764909
30
1.7E-15
41
1
10
37.3969984990249
20
-9.35468331153214
30
1.7E-15
41
1
10
37.3911526232019
20
-9.35788956585836
30
1.7E-15
0
SPLINE
5
D3
100
AcDbEntity
8
1
62
256
6
ByLayer
370
18
48
1
60
0
100
AcDbSpline
70
4
71
3
72
8
73
4
40
0
40
0
40
0
40
0
40
1
40
1
40
1
40
1
41
1
10
38.0629988776368
20
-9.72603350996675
30
-5E-16
41
1
10
38.0631451559396
20
-9.73270105023153
30
-5E-16
41
1
10
38.0632914148338
20
-9.73936770583359
30
-5E-16
41
1
10
38.0634376550478
20
-9.74603350996674
30
-5E-16
0
SPLINE
5
D4
100
AcDbEntity
8
1
62
256
6
ByLayer
370
18
48
1
60
0
100
AcDbSpline
70
4
71
3
72
31
73
27
40
0
40
0
40
0
40
0
40
0.250000000000018
40
0.250000000000018
40
0.37500000000002
40
0.37500000000002
40
0.500000000000021
40
0.500000000000021
40
0.562499999999999
40
0.562499999999999
40
0.624999999999978
40
0.624999999999978
40
0.687499999999956
40
0.687499999999956
40
0.749999999999934
40
0.749999999999934
40
0.781249999999944
40
0.781249999999944
40
0.812499999999955
40
0.843749999999965
40
0.843749999999965
40
0.874999999999976
40
0.874999999999976
40
0.937499999999988
40
0.937499999999988
40
1
40
1
40
1
40
1
41
1
10
39.9018049869041
20
-9.13840000000002
30
-3E-16
41
1
10
39.8796926690765
20
-9.17669965795059
30
-3E-16
41
1
10
39.8543808323495
20
-9.21337071889863
30
-4E-16
41
1
10
39.8118216817579
20
-9.26428283951014
30
-5E-16
41
1
10
39.7968398830589
20
-9.28059097926891
30
-5E-16
41
1
10
39.765226998583
20
-9.31136766342595
30
-6E-16
41
1
10
39.7485822204179
20
-9.32585888285459
30
-6E-16
41
1
10
39.7222591698513
20
-9.3455939456758
30
-6E-16
41
1
10
39.7132396343192
20
-9.35184746195807
30
-7E-16
41
1
10
39.6947815450482
20
-9.36346910157607
30
-7E-16
41
1
10
39.6852838058171
20
-9.36887211619398
30
-7E-16
41
1
10
39.6659753239255
20
-9.37849513224688
30
-8E-16
41
1
10
39.6561902141088
20
-9.3827096007121
30
-8E-16
41
1
10
39.6363133859392
20
-9.38968417060434
30
-8E-16
41
1
10
39.626222565441
20
-9.39244908932366
30
-8E-16
41
1
10
39.6107965608547
20
-9.39517000109984
30
-9E-16
41
1
10
39.6055703333219
20
-9.39583875818983
30
-9E-16
41
1
10
39.5952130966829
20
-9.39659315044315
30
-9E-16
41
1
10
39.584957751965
20
-9.39677229791928
30
-9E-16
41
1
10
39.574927771789
20
-9.39570850211149
30
-9E-16
41
1
10
39.5650244318526
20
-9.39396002110931
30
-1E-15
41
1
10
39.5601343140419
20
-9.39273514329165
30
-1E-15
41
1
10
39.5461224677781
20
-9.38809809575255
30
-1E-15
41
1
10
39.53749923721
20
-9.38370915250269
30
-1E-15
41
1
10
39.5217039916188
20
-9.37233283042386
30
-1.1E-15
41
1
10
39.5148256453766
20
-9.36555745512194
30
-1.1E-15
41
1
10
39.5088473767979
20
-9.35788956585836
30
-1.1E-15
0
SPLINE
5
D5
100
AcDbEntity
8
1
62
256
6
ByLayer
370
18
48
1
60
0
100
AcDbSpline
70
4
71
3
72
8
73
4
40
0
40
0
40
0
40
0
40
1
40
1
40
1
40
1
41
1
10
39.5088473767979
20
-9.35788956585833
30
-1.1E-15
41
1
10
39.5030015009749
20
-9.35468331153214
30
-1.1E-15
41
1
10
39.4971548784181
20
-9.35147664764909
30
-1.1E-15
41
1
10
39.4913074800167
20
-9.34826955824292
30
-1.1E-15
0
SPLINE
5
D6
100
AcDbEntity
8
1
62
256
6
ByLayer
370
18
48
1
60
0
100
AcDbSpline
70
4
71
3
72
40
73
36
40
0
40
0
40
0
40
0
40
0.0625000000000228
40
0.0625000000000228
40
0.0937500000000316
40
0.0937500000000316
40
0.12500000000004
40
0.12500000000004
40
0.187500000000047
40
0.187500000000047
40
0.250000000000054
40
0.250000000000054
40
0.312500000000061
40
0.312500000000061
40
0.375000000000068
40
0.375000000000068
40
0.500000000000081
40
0.500000000000081
40
0.625000000000093
40
0.625000000000093
40
0.687500000000099
40
0.687500000000099
40
0.750000000000105
40
0.750000000000105
40
0.812500000000112
40
0.812500000000112
40
0.843750000000103
40
0.843750000000103
40
0.875000000000095
40
0.875000000000095
40
0.937500000000061
40
0.937500000000061
40
0.96875000000003
40
0.96875000000003
40
1
40
1
40
1
40
1
41
1
10
38.837001122363
20
-9.72603350996675
30
1.1E-15
41
1
10
38.8373520788027
20
-9.71003649504212
30
1.1E-15
41
1
10
38.8404874907486
20
-9.69432670698026
30
1.1E-15
41
1
10
38.8479649531525
20
-9.67101396116567
30
1.1E-15
41
1
10
38.8509474043514
20
-9.66326465478463
30
1.1E-15
41
1
10
38.8576527773248
20
-9.64805080097486
30
1.1E-15
41
1
10
38.8613816014216
20
-9.64056169119095
30
1.2E-15
41
1
10
38.8735433653104
20
-9.61838924578714
30
1.2E-15
41
1
10
38.8829294668137
20
-9.6040356011485
30
1.2E-15
41
1
10
38.9035160806707
20
-9.57628965734014
30
1.2E-15
41
1
10
38.9147397396557
20
-9.56286971744063
30
1.3E-15
41
1
10
38.9385893727419
20
-9.53696932794199
30
1.3E-15
41
1
10
38.9512249991012
20
-9.52448163658494
30
1.3E-15
41
1
10
38.977556410301
20
-9.50049372467282
30
1.4E-15
41
1
10
38.9912990781178
20
-9.48895000357109
30
1.4E-15
41
1
10
39.0339934203988
20
-9.45568611561839
30
1.5E-15
41
1
10
39.0642509446344
20
-9.4354350177006
30
1.6E-15
41
1
10
39.1272939797273
20
-9.39911212278221
30
1.7E-15
41
1
10
39.1595512068996
20
-9.3833187358193
30
1.8E-15
41
1
10
39.2090903884405
20
-9.3632645056401
30
-1.7E-15
41
1
10
39.2257984859313
20
-9.35719334074966
30
-1.7E-15
41
1
10
39.2596573181455
20
-9.34641248554465
30
-1.6E-15
41
1
10
39.2768683089892
20
-9.34169497576215
30
-1.6E-15
41
1
10
39.3110727185403
20
-9.33402552576283
30
-1.5E-15
41
1
10
39.3281438183
20
-9.33104037322676
30
-1.4E-15
41
1
10
39.3537257312992
20
-9.32807239919165
30
-1.4E-15
41
1
10
39.362248952338
20
-9.32733631705506
30
-1.4E-15
41
1
10
39.3792916664887
20
-9.32643955606926
30
-1.3E-15
41
1
10
39.3878435465489
20
-9.32628011744723
30
-1.3E-15
41
1
10
39.4131791349348
20
-9.3268049265057
30
-1.3E-15
41
1
10
39.429680249728
20
-9.32845329894568
30
-1.2E-15
41
1
10
39.4536875371041
20
-9.3335945883245
30
-1.2E-15
41
1
10
39.4616051081217
20
-9.33577410081469
30
-1.2E-15
41
1
10
39.4769022118977
20
-9.34118808051142
30
-1.1E-15
41
1
10
39.4842732808596
20
-9.34441155096366
30
-1.1E-15
41
1
10
39.4913074800167
20
-9.34826955824292
30
-1.1E-15
0
SPLINE
5
D7
100
AcDbEntity
8
1
62
256
6
ByLayer
370
18
48
1
60
0
100
AcDbSpline
70
4
71
3
72
8
73
4
40
0
40
0
40
0
40
0
40
1
40
1
40
1
40
1
41
1
10
38.8365623449519
20
-9.74603350996674
30
1.1E-15
41
1
10
38.836708585166
20
-9.73936770583359
30
1.1E-15
41
1
10
38.8368548440602
20
-9.73270105023153
30
1.1E-15
41
1
10
38.837001122363
20
-9.72603350996675
30
1.1E-15
0
SPLINE
5
D8
100
AcDbEntity
8
1
62
256
6
ByLayer
370
18
48
1
60
0
100
AcDbSpline
70
4
71
3
72
31
73
27
40
0
40
0
40
0
40
0
40
0.249999999999938
40
0.249999999999938
40
0.374999999999907
40
0.374999999999907
40
0.499999999999875
40
0.499999999999875
40
0.562499999999879
40
0.562499999999879
40
0.624999999999883
40
0.624999999999883
40
0.687499999999886
40
0.687499999999886
40
0.74999999999989
40
0.74999999999989
40
0.781249999999904
40
0.781249999999904
40
0.812499999999918
40
0.843749999999931
40
0.843749999999931
40
0.874999999999945
40
0.874999999999945
40
0.937499999999972
40
0.937499999999972
40
1
40
1
40
1
40
1
41
1
10
38.4499999999999
20
-9.97660000000002
30
3E-16
41
1
10
38.4942246356552
20
-9.97659999999999
30
4E-16
41
1
10
38.5386386243834
20
-9.97301483685203
30
5E-16
41
1
10
38.6040093894893
20
-9.96161359158194
30
6E-16
41
1
10
38.6256235521584
20
-9.95679304319361
30
7E-16
41
1
10
38.6680833847206
20
-9.9448038242291
30
8E-16
41
1
10
38.6889555379602
20
-9.93763463321204
30
8E-16
41
1
10
38.7192081289919
20
-9.92470573412689
30
9E-16
41
1
10
38.7291336007214
20
-9.92002134536691
30
9E-16
41
1
10
38.7484272804997
20
-9.90984699096188
30
9E-16
41
1
10
38.7578552980314
20
-9.90432321481816
30
9E-16
41
1
10
38.77584331534
20
-9.89241308701801
30
1E-15
41
1
10
38.7843857070027
20
-9.88604616757058
30
1E-15
41
1
10
38.8003642757946
20
-9.8723196143751
30
1E-15
41
1
10
38.8078041758941
20
-9.86496316683835
30
1E-15
41
1
10
38.8178735569068
20
-9.85296431087582
30
1.1E-15
41
1
10
38.8210658313022
20
-9.8487726436114
30
1.1E-15
41
1
10
38.8268977724774
20
-9.84018020969569
30
1.1E-15
41
1
10
38.8321805911017
20
-9.83138839438348
30
1.1E-15
41
1
10
38.8362743069957
20
-9.82217027884772
30
1.1E-15
41
1
10
38.839711747998
20
-9.81271949437942
30
1.1E-15
41
1
10
38.8410960315967
20
-9.80787208921893
30
1.1E-15
41
1
10
38.8440861537612
20
-9.79341895063104
30
1.1E-15
41
1
10
38.8445968326951
20
-9.78375654227148
30
1.1E-15
41
1
10
38.8426422715688
20
-9.76438929729099
30
1.1E-15
41
1
10
38.8402137975583
20
-9.75504478705832
30
1.1E-15
41
1
10
38.8365623449519
20
-9.74603350996674
30
1.1E-15
0
SPLINE
5
D9
100
AcDbEntity
8
1
62
256
6
ByLayer
370
18
48
1
60
0
100
AcDbSpline
70
4
71
3
72
31
73
27
40
0
40
0
40
0
40
0
40
0.249999999999985
40
0.249999999999985
40
0.374999999999977
40
0.374999999999977
40
0.499999999999969
40
0.499999999999969
40
0.562499999999957
40
0.562499999999957
40
0.624999999999945
40
0.624999999999945
40
0.687499999999933
40
0.687499999999933
40
0.749999999999921
40
0.749999999999921
40
0.781249999999933
40
0.781249999999933
40
0.812499999999945
40
0.843749999999957
40
0.843749999999957
40
0.874999999999969
40
0.874999999999969
40
0.937499999999985
40
0.937499999999985
40
1
40
1
40
1
40
1
41
1
10
36.9981950130957
20
-7.46199999999999
30
9E-16
41
1
10
37.0203073309233
20
-7.42370034204941
30
9E-16
41
1
10
37.0456191676503
20
-7.38702928110141
30
1E-15
41
1
10
37.0881783182419
20
-7.33611716048986
30
1.1E-15
41
1
10
37.1031601169409
20
-7.3198090207311
30
1.1E-15
41
1
10
37.1347730014168
20
-7.28903233657405
30
1.2E-15
41
1
10
37.151417779582
20
-7.27454111714545
30
1.2E-15
41
1
10
37.1777408301485
20
-7.25480605432421
30
1.3E-15
41
1
10
37.1867603656806
20
-7.24855253804193
30
1.3E-15
41
1
10
37.2052184549516
20
-7.23693089842394
30
1.3E-15
41
1
10
37.2147161941827
20
-7.23152788380602
30
1.3E-15
41
1
10
37.2340246760743
20
-7.22190486775312
30
1.4E-15
41
1
10
37.243809785891
20
-7.21769039928793
30
1.4E-15
41
1
10
37.2636866140606
20
-7.2107158293957
30
1.4E-15
41
1
10
37.2737774345588
20
-7.20795091067635
30
1.5E-15
41
1
10
37.2892034391451
20
-7.20522999890017
30
1.5E-15
41
1
10
37.2944296666779
20
-7.20456124181018
30
1.5E-15
41
1
10
37.3047869033169
20
-7.20380684955686
30
1.5E-15
41
1
10
37.3150422833891
20
-7.20362751511689
30
1.5E-15
41
1
10
37.3250722282108
20
-7.20469149788855
30
1.6E-15
41
1
10
37.3349755681471
20
-7.20643997889073
30
1.6E-15
41
1
10
37.339865685958
20
-7.20766485670836
30
1.6E-15
41
1
10
37.3538775322217
20
-7.21230190424748
30
1.6E-15
41
1
10
37.3625007627898
20
-7.21669084749732
30
1.6E-15
41
1
10
37.3782960083811
20
-7.22806716957615
30
1.7E-15
41
1
10
37.3851743546232
20
-7.23484254487809
30
1.7E-15
41
1
10
37.3911526232019
20
-7.24251043414168
30
1.7E-15
0
SPLINE
5
DA
100
AcDbEntity
8
1
62
256
6
ByLayer
370
18
48
1
60
0
100
AcDbSpline
70
4
71
3
72
32
73
28
40
0
40
0
40
0
40
0
40
0.062500000000019
40
0.062500000000019
40
0.125000000000038
40
0.125000000000038
40
0.156250000000038
40
0.156250000000038
40
0.187500000000038
40
0.187500000000038
40
0.250000000000021
40
0.250000000000021
40
0.312500000000005
40
0.312500000000005
40
0.374999999999989
40
0.374999999999989
40
0.437499999999973
40
0.437499999999973
40
0.499999999999957
40
0.499999999999957
40
0.624999999999967
40
0.624999999999967
40
0.749999999999978
40
0.749999999999978
40
0.874999999999989
40
0.874999999999989
40
1
40
1
40
1
40
1
41
1
10
38.0634376550478
20
-6.85436649003327
30
-5E-16
41
1
10
38.059799775975
20
-6.84538871053408
30
-5E-16
41
1
10
38.0574049077695
20
-6.8361578745407
30
-5E-16
41
1
10
38.0554205514371
20
-6.81712560983377
30
-5E-16
41
1
10
38.0558954796161
20
-6.80721726451497
30
-5E-16
41
1
10
38.0588232257788
20
-6.7928477918739
30
-5E-16
41
1
10
38.0601586035727
20
-6.78810504473458
30
-5E-16
41
1
10
38.0635273747773
20
-6.77871316282219
30
-5E-16
41
1
10
38.065577854165
20
-6.77403549736488
30
-5E-16
41
1
10
38.0725914304388
20
-6.76044634458538
30
-5E-16
41
1
10
38.0784071540865
20
-6.75192047144949
30
-4E-16
41
1
10
38.0918883328039
20
-6.7357529901858
30
-4E-16
41
1
10
38.0994034749874
20
-6.72829548961062
30
-4E-16
41
1
10
38.1154725487028
20
-6.71446036972446
30
-4E-16
41
1
10
38.1240524133194
20
-6.70806015853134
30
-4E-16
41
1
10
38.1420919483546
20
-6.69610754458179
30
-3E-16
41
1
10
38.1515125831523
20
-6.69058731683299
30
-3E-16
41
1
10
38.1707905115128
20
-6.68041609621898
30
-3E-16
41
1
10
38.1806829941081
20
-6.6757433746898
30
-2E-16
41
1
10
38.2109999629924
20
-6.66277926015789
30
-2E-16
41
1
10
38.2318513445947
20
-6.65561594364877
30
-1E-16
41
1
10
38.274375942213
20
-6.64360576399943
30
0
41
1
10
38.295985503196
20
-6.6387866595044
30
0
41
1
10
38.339615701487
20
-6.63117844318384
30
1E-16
41
1
10
38.3616372221415
20
-6.62839453244479
30
1E-16
41
1
10
38.4057738517918
20
-6.62470599573908
30
2E-16
41
1
10
38.4278723788395
20
-6.62380000000002
30
3E-16
41
1
10
38.4499999999999
20
-6.62380000000002
30
3E-16
0
SPLINE
5
DB
100
AcDbEntity
8
1
62
256
6
ByLayer
370
18
48
1
60
0
100
AcDbSpline
70
4
71
3
72
40
73
36
40
0
40
0
40
0
40
0
40
0.0625000000000069
40
0.0625000000000069
40
0.0937500000000078
40
0.0937500000000078
40
0.125000000000009
40
0.125000000000009
40
0.187500000000011
40
0.187500000000011
40
0.250000000000013
40
0.250000000000013
40
0.312500000000015
40
0.312500000000015
40
0.375000000000017
40
0.375000000000017
40
0.500000000000021
40
0.500000000000021
40
0.562500000000015
40
0.562500000000015
40
0.62500000000001
40
0.62500000000001
40
0.687500000000004
40
0.687500000000004
40
0.749999999999999
40
0.749999999999999
40
0.812499999999994
40
0.812499999999994
40
0.874999999999988
40
0.874999999999988
40
0.906249999999988
40
0.906249999999988
40
0.937499999999988
40
0.937499999999988
40
1
40
1
40
1
40
1
41
1
10
37.4086925199831
20
-7.25213044175709
30
1.7E-15
41
1
10
37.4227055785753
20
-7.25981610445246
30
1.8E-15
41
1
10
37.4378595411862
20
-7.2649525066783
30
-1.8E-15
41
1
10
37.4617571962555
20
-7.27013328388003
30
-1.7E-15
41
1
10
37.4699491517672
20
-7.27142600259324
30
-1.7E-15
41
1
10
37.4864570884224
20
-7.27322918986903
30
-1.7E-15
41
1
10
37.4947969329981
20
-7.2737467876386
30
-1.6E-15
41
1
10
37.5200482879851
20
-7.2743092039228
30
-1.6E-15
41
1
10
37.5371517602356
20
-7.27336533473405
30
-1.6E-15
41
1
10
37.5714326131953
20
-7.2694288096165
30
-1.5E-15
41
1
10
37.5886469400716
20
-7.2664297953105
30
-1.4E-15
41
1
10
37.62296265239
20
-7.2587503668895
30
-1.4E-15
41
1
10
37.6400770396567
20
-7.25406478608514
30
-1.3E-15
41
1
10
37.6739804301772
20
-7.24328425992846
30
-1.3E-15
41
1
10
37.6908369740001
20
-7.23716795116542
30
-1.2E-15
41
1
10
37.7409168503108
20
-7.21688565376294
30
-1.1E-15
41
1
10
37.7733130149727
20
-7.20097146703876
30
-1.1E-15
41
1
10
37.8205228909727
20
-7.17372058847295
30
-1E-15
41
1
10
37.8358962763646
20
-7.16413945371082
30
-9E-16
41
1
10
37.8659104436823
20
-7.14397629020391
30
-9E-16
41
1
10
37.8805876637158
20
-7.13336535106961
30
-9E-16
41
1
10
37.9089611174717
20
-7.11123517929337
30
-8E-16
41
1
10
37.922652316109
20
-7.09972600416546
30
-8E-16
41
1
10
37.9489675892799
20
-7.07573288509676
30
-7E-16
41
1
10
37.9615990909649
20
-7.06323590125712
30
-7E-16
41
1
10
37.9853603158061
20
-7.03741160443553
30
-6E-16
41
1
10
37.9965590766095
20
-7.0240158019833
30
-6E-16
41
1
10
38.0171173097489
20
-6.99629456103989
30
-6E-16
41
1
10
38.0264575161198
20
-6.9820112087807
30
-6E-16
41
1
10
38.0386314795885
20
-6.95981342797839
30
-5E-16
41
1
10
38.0423592844837
20
-6.95232333054551
30
-5E-16
41
1
10
38.0490560041255
20
-6.9371261096218
30
-5E-16
41
1
10
38.0520347177672
20
-6.92938800081859
30
-5E-16
41
1
10
38.0595199762187
20
-6.90604813971734
30
-5E-16
41
1
10
38.062648498933
20
-6.89033717106514
30
-5E-16
41
1
10
38.0629988776368
20
-6.87436649003328
30
-5E-16
0
SPLINE
5
DC
100
AcDbEntity
8
1
62
256
6
ByLayer
370
18
48
1
60
0
100
AcDbSpline
70
4
71
3
72
8
73
4
40
0
40
0
40
0
40
0
40
1
40
1
40
1
40
1
41
1
10
38.0629988776368
20
-6.87436649003328
30
-5E-16
41
1
10
38.0631451559396
20
-6.86769894976851
30
-5E-16
41
1
10
38.0632914148338
20
-6.86103229416645
30
-5E-16
41
1
10
38.0634376550478
20
-6.85436649003327
30
-5E-16
0
SPLINE
5
DD
100
AcDbEntity
8
1
62
256
6
ByLayer
370
18
48
1
60
0
100
AcDbSpline
70
4
71
3
72
8
73
4
40
0
40
0
40
0
40
0
40
1
40
1
40
1
40
1
41
1
10
37.3911526232019
20
-7.24251043414168
30
1.7E-15
41
1
10
37.3969984990249
20
-7.24571668846787
30
1.7E-15
41
1
10
37.4028451215817
20
-7.24892335235094
30
1.7E-15
41
1
10
37.4086925199831
20
-7.25213044175709
30
1.7E-15
0
SPLINE
5
DE
100
AcDbEntity
8
1
62
256
6
ByLayer
370
18
48
1
60
0
100
AcDbSpline
70
4
71
3
72
32
73
28
40
0
40
0
40
0
40
0
40
0.0625000000000411
40
0.0625000000000411
40
0.125000000000082
40
0.125000000000082
40
0.156250000000079
40
0.156250000000079
40
0.187500000000076
40
0.187500000000076
40
0.25000000000007
40
0.25000000000007
40
0.312500000000064
40
0.312500000000064
40
0.375000000000058
40
0.375000000000058
40
0.437500000000052
40
0.437500000000052
40
0.500000000000047
40
0.500000000000047
40
0.625000000000035
40
0.625000000000035
40
0.750000000000023
40
0.750000000000023
40
0.875000000000012
40
0.875000000000012
40
1
40
1
40
1
40
1
41
1
10
39.5088473767979
20
-7.24251043414168
30
-1.1E-15
41
1
10
39.5148034223773
20
-7.23487104869909
30
-1.1E-15
41
1
10
39.521600126743
20
-7.22818161399775
30
-1.1E-15
41
1
10
39.5370903733046
20
-7.21694697865024
30
-1E-15
41
1
10
39.5459087161496
20
-7.21240410585889
30
-1E-15
41
1
10
39.5598169175771
20
-7.20775487209107
30
-1E-15
41
1
10
39.5645919459805
20
-7.20653996961454
30
-1E-15
41
1
10
39.5744099399082
20
-7.20476147010106
30
-9E-16
41
1
10
39.5794861567185
20
-7.20419840461207
30
-9E-16
41
1
10
39.5947614963784
20
-7.20347776344687
30
-9E-16
41
1
10
39.6050529809273
20
-7.20425139129924
30
-9E-16
41
1
10
39.6257950197756
20
-7.20784269390958
30
-8E-16
41
1
10
39.6360109758142
20
-7.21062224766595
30
-8E-16
41
1
10
39.6560270779578
20
-7.21762091377573
30
-8E-16
41
1
10
39.6658597557489
20
-7.22185118889817
30
-8E-16
41
1
10
39.6852307905884
20
-7.23149757753629
30
-7E-16
41
1
10
39.6947217654524
20
-7.2368959727165
30
-7E-16
41
1
10
39.7131692650718
20
-7.24850553810197
30
-7E-16
41
1
10
39.7221622019186
20
-7.25473631857145
30
-6E-16
41
1
10
39.748547938883
20
-7.27450952652507
30
-6E-16
41
1
10
39.7651772437564
20
-7.28898569444212
30
-6E-16
41
1
10
39.7968406632458
20
-7.31980798644057
30
-5E-16
41
1
10
39.8118189106535
20
-7.33611286296889
30
-5E-16
41
1
10
39.8402229184101
20
-7.37009361490078
30
-4E-16
41
1
10
39.8536446161593
20
-7.38777285584811
30
-4E-16
41
1
10
39.8789072974744
20
-7.42415203000985
30
-3E-16
41
1
10
39.8907411763239
20
-7.44283691794976
30
-3E-16
41
1
10
39.9018049869041
20
-7.46200000000002
30
-3E-16
0
SPLINE
5
DF
100
AcDbEntity
8
1
62
256
6
ByLayer
370
18
48
1
60
0
100
AcDbSpline
70
4
71
3
72
40
73
36
40
0
40
0
40
0
40
0
40
0.0625000000000005
40
0.0625000000000005
40
0.0937499999999981
40
0.0937499999999981
40
0.124999999999996
40
0.124999999999996
40
0.187500000000001
40
0.187500000000001
40
0.250000000000006
40
0.250000000000006
40
0.312500000000011
40
0.312500000000011
40
0.375000000000016
40
0.375000000000016
40
0.500000000000026
40
0.500000000000026
40
0.562500000000021
40
0.562500000000021
40
0.625000000000015
40
0.625000000000015
40
0.68750000000001
40
0.68750000000001
40
0.750000000000005
40
0.750000000000005
40
0.8125
40
0.8125
40
0.874999999999994
40
0.874999999999994
40
0.906249999999994
40
0.906249999999994
40
0.937499999999993
40
0.937499999999993
40
1
40
1
40
1
40
1
41
1
10
38.837001122363
20
-6.87436649003328
30
1.1E-15
41
1
10
38.83735167252
20
-6.89034498610644
30
1.1E-15
41
1
10
38.8404803990138
20
-6.90603690380851
30
1.1E-15
41
1
10
38.8479425418805
20
-6.92932326879026
30
1.1E-15
41
1
10
38.8509189923907
20
-6.93706406972666
30
1.1E-15
41
1
10
38.8576113547297
20
-6.95226195587199
30
1.1E-15
41
1
10
38.8613330242002
20
-6.95974327202296
30
1.2E-15
41
1
10
38.873471634904
20
-6.9818927950638
30
1.2E-15
41
1
10
38.8828407857246
20
-6.99623290193128
30
1.2E-15
41
1
10
38.9033903429588
20
-7.02395272889893
30
1.2E-15
41
1
10
38.9145947289723
20
-7.03736126612995
30
1.3E-15
41
1
10
38.9384031652307
20
-7.06323983053613
30
1.3E-15
41
1
10
38.951018190872
20
-7.07571853427703
30
1.3E-15
41
1
10
38.9773060956501
20
-7.09968946866388
30
1.4E-15
41
1
10
38.9910312463278
20
-7.11122950945301
30
1.4E-15
41
1
10
39.0336361692807
20
-7.14445880585521
30
1.5E-15
41
1
10
39.0636163415954
20
-7.16455761407556
30
1.6E-15
41
1
10
39.1108212327089
20
-7.19181712671818
30
1.7E-15
41
1
10
39.1268054315059
20
-7.20034030162864
30
1.7E-15
41
1
10
39.1592743269824
20
-7.21625175124572
30
1.8E-15
41
1
10
39.1758022798475
20
-7.22365712708458
30
-1.8E-15
41
1
10
39.2091542976738
20
-7.23716417294213
30
-1.7E-15
41
1
10
39.2259671350298
20
-7.24326651120634
30
-1.7E-15
41
1
10
39.2599034222448
20
-7.25405964674553
30
-1.6E-15
41
1
10
39.277041878563
20
-7.25875035617281
30
-1.6E-15
41
1
10
39.311286988066
20
-7.26641603209956
30
-1.5E-15
41
1
10
39.3284874736955
20
-7.26941654222011
30
-1.4E-15
41
1
10
39.3627738891466
20
-7.27335987390413
30
-1.4E-15
41
1
10
39.3798137382397
20
-7.27430705376824
30
-1.3E-15
41
1
10
39.4051245620565
20
-7.27375112499573
30
-1.3E-15
41
1
10
39.4134750791577
20
-7.27323445001883
30
-1.3E-15
41
1
10
39.4299846183655
20
-7.27143536888883
30
-1.2E-15
41
1
10
39.4381753739872
20
-7.27014595617152
30
-1.2E-15
41
1
10
39.4621309158474
20
-7.26495844959376
30
-1.2E-15
41
1
10
39.4773012751754
20
-7.25981234541459
30
-1.1E-15
41
1
10
39.4913074800167
20
-7.25213044175709
30
-1.1E-15
0
SPLINE
5
E0
100
AcDbEntity
8
1
62
256
6
ByLayer
370
18
48
1
60
0
100
AcDbSpline
70
4
71
3
72
8
73
4
40
0
40
0
40
0
40
0
40
1
40
1
40
1
40
1
41
1
10
39.4913074800167
20
-7.25213044175709
30
-1.1E-15
41
1
10
39.4971548784181
20
-7.24892335235094
30
-1.1E-15
41
1
10
39.5030015009749
20
-7.24571668846787
30
-1.1E-15
41
1
10
39.5088473767979
20
-7.24251043414168
30
-1.1E-15
0
SPLINE
5
E1
100
AcDbEntity
8
1
62
256
6
ByLayer
370
18
48
1
60
0
100
AcDbSpline
70
4
71
3
72
31
73
27
40
0
40
0
40
0
40
0
40
0.250000000000044
40
0.250000000000044
40
0.375000000000067
40
0.375000000000067
40
0.500000000000089
40
0.500000000000089
40
0.562500000000077
40
0.562500000000077
40
0.625000000000065
40
0.625000000000065
40
0.687500000000053
40
0.687500000000053
40
0.750000000000041
40
0.750000000000041
40
0.78125000000004
40
0.78125000000004
40
0.812500000000039
40
0.843750000000038
40
0.843750000000038
40
0.875000000000037
40
0.875000000000037
40
0.937500000000018
40
0.937500000000018
40
1
40
1
40
1
40
1
41
1
10
38.4499999999999
20
-6.62380000000002
30
3E-16
41
1
10
38.4942246356552
20
-6.62380000000002
30
4E-16
41
1
10
38.5386386243834
20
-6.62738516314798
30
5E-16
41
1
10
38.6040093894893
20
-6.63878640841807
30
6E-16
41
1
10
38.6256235521584
20
-6.64360695680639
30
7E-16
41
1
10
38.6680833847206
20
-6.65559617577091
30
8E-16
41
1
10
38.6889555379601
20
-6.66276536678799
30
8E-16
41
1
10
38.7192081289919
20
-6.67569426587312
30
9E-16
41
1
10
38.7291336007214
20
-6.6803786546331
30
9E-16
41
1
10
38.7484272804997
20
-6.69055300903815
30
9E-16
41
1
10
38.7578552980314
20
-6.69607678518184
30
9E-16
41
1
10
38.77584331534
20
-6.70798691298199
30
1E-15
41
1
10
38.7843857070027
20
-6.71435383242942
30
1E-15
41
1
10
38.8003642757946
20
-6.72808038562491
30
1E-15
41
1
10
38.8078041758941
20
-6.73543683316169
30
1E-15
41
1
10
38.8178735569068
20
-6.74743568912419
30
1.1E-15
41
1
10
38.8210658313022
20
-6.75162735638858
30
1.1E-15
41
1
10
38.8268977724774
20
-6.76021979030432
30
1.1E-15
41
1
10
38.8321805911017
20
-6.7690116056165
30
1.1E-15
41
1
10
38.8362743069957
20
-6.77822972115229
30
1.1E-15
41
1
10
38.839711747998
20
-6.78768050562059
30
1.1E-15
41
1
10
38.8410960315968
20
-6.79252791078105
30
1.1E-15
41
1
10
38.8440861537612
20
-6.80698104936894
30
1.1E-15
41
1
10
38.8445968326951
20
-6.8166434577285
30
1.1E-15
41
1
10
38.8426422715688
20
-6.83601070270899
30
1.1E-15
41
1
10
38.8402137975583
20
-6.84535521294168
30
1.1E-15
41
1
10
38.8365623449519
20
-6.85436649003327
30
1.1E-15
0
SPLINE
5
E2
100
AcDbEntity
8
1
62
256
6
ByLayer
370
18
48
1
60
0
100
AcDbSpline
70
4
71
3
72
8
73
4
40
0
40
0
40
0
40
0
40
1
40
1
40
1
40
1
41
1
10
38.8365623449519
20
-6.85436649003327
30
1.1E-15
41
1
10
38.836708585166
20
-6.86103229416645
30
1.1E-15
41
1
10
38.8368548440602
20
-6.86769894976851
30
1.1E-15
41
1
10
38.837001122363
20
-6.87436649003328
30
1.1E-15
0
SPLINE
5
E3
100
AcDbEntity
8
1
62
256
6
ByLayer
370
18
48
1
60
0
100
AcDbSpline
70
4
71
3
72
32
73
28
40
0
40
0
40
0
40
0
40
0.0625000000000042
40
0.0625000000000042
40
0.125000000000008
40
0.125000000000008
40
0.156250000000005
40
0.156250000000005
40
0.187500000000001
40
0.187500000000001
40
0.249999999999994
40
0.249999999999994
40
0.312499999999986
40
0.312499999999986
40
0.374999999999979
40
0.374999999999979
40
0.437499999999971
40
0.437499999999971
40
0.499999999999964
40
0.499999999999964
40
0.624999999999973
40
0.624999999999973
40
0.749999999999982
40
0.749999999999982
40
0.874999999999991
40
0.874999999999991
40
1
40
1
40
1
40
1
41
1
10
37.0045902782499
20
-7.91205605589161
30
9E-16
41
1
10
36.9949963535975
20
-7.91071766183501
30
9E-16
41
1
10
36.9858047810264
20
-7.90817626054297
30
9E-16
41
1
10
36.9683301781324
20
-7.90037863118351
30
8E-16
41
1
10
36.9599867634664
20
-7.8950131586561
30
8E-16
41
1
10
36.9490063082016
20
-7.88529291978284
30
8E-16
41
1
10
36.9455666575921
20
-7.88176507512006
30
8E-16
41
1
10
36.939117434869
20
-7.87415169272114
30
8E-16
41
1
10
36.9360916974464
20
-7.8700370927528
30
8E-16
41
1
10
36.9278299340603
20
-7.85716858113852
30
8E-16
41
1
10
36.9233541731591
20
-7.84786908015028
30
7E-16
41
1
10
36.9160933130282
20
-7.82811029627621
30
7E-16
41
1
10
36.9133924991731
20
-7.81787324194465
30
7E-16
41
1
10
36.909445470745
20
-7.79703945594872
30
7E-16
41
1
10
36.9081926575705
20
-7.78640896963319
30
7E-16
41
1
10
36.9068611577661
20
-7.76480996704547
30
7E-16
41
1
10
36.9067908176998
20
-7.75389134411648
30
7E-16
41
1
10
36.9076212464408
20
-7.73211055811703
30
7E-16
41
1
10
36.9085207921894
20
-7.72120705611835
30
7E-16
41
1
10
36.9124520241094
20
-7.68846973363281
30
7E-16
41
1
10
36.9166741008383
20
-7.66683024920667
30
7E-16
41
1
10
36.9275352789671
20
-7.62399777755886
30
8E-16
41
1
10
36.9341665925424
20
-7.60287379653548
30
8E-16
41
1
10
36.9493927830768
20
-7.56128482828305
30
8E-16
41
1
10
36.9579926059822
20
-7.54082167659669
30
8E-16
41
1
10
36.9768665543174
20
-7.50075396572922
30
9E-16
41
1
10
36.9871312025155
20
-7.48116308205024
30
9E-16
41
1
10
36.9981950130957
20
-7.46199999999999
30
9E-16
0
SPLINE
5
E4
100
AcDbEntity
8
1
62
256
6
ByLayer
370
18
48
1
60
0
100
AcDbSpline
70
4
71
3
72
40
73
36
40
0
40
0
40
0
40
0
40
0.0625000000000129
40
0.0625000000000129
40
0.0937500000000095
40
0.0937500000000095
40
0.125000000000006
40
0.125000000000006
40
0.187500000000004
40
0.187500000000004
40
0.250000000000003
40
0.250000000000003
40
0.312500000000001
40
0.312500000000001
40
0.374999999999999
40
0.374999999999999
40
0.50000000000001
40
0.50000000000001
40
0.56250000000001
40
0.56250000000001
40
0.62500000000001
40
0.62500000000001
40
0.68750000000001
40
0.68750000000001
40
0.750000000000009
40
0.750000000000009
40
0.812500000000009
40
0.812500000000009
40
0.875000000000009
40
0.875000000000009
40
0.906250000000011
40
0.906250000000011
40
0.937500000000013
40
0.937500000000013
40
1
40
1
40
1
40
1
41
1
10
37.02169139762
20
-8.67796395172383
30
9E-16
41
1
10
37.0353539060552
20
-8.669671118346
30
1E-15
41
1
10
37.0473791421723
20
-8.6591156028698
30
1E-15
41
1
10
37.063814654375
20
-8.64101001508979
30
1E-15
41
1
10
37.0690301593765
20
-8.6345619328666
30
1E-15
41
1
10
37.0788457336927
20
-8.62116723399703
30
1.1E-15
41
1
10
37.0834639087979
20
-8.61420351561563
30
1.1E-15
41
1
10
37.096576653081
20
-8.59261640885902
30
1.1E-15
41
1
10
37.104310974511
20
-8.57733243280279
30
1.1E-15
41
1
10
37.1180422702363
20
-8.54567608071758
30
1.1E-15
41
1
10
37.1240522110992
20
-8.52926852918057
30
1.2E-15
41
1
10
37.1345594871593
20
-8.49571053635339
30
1.2E-15
41
1
10
37.1390588487845
20
-8.47854625180813
30
1.2E-15
41
1
10
37.1466743345269
20
-8.44379479126459
30
1.2E-15
41
1
10
37.1498057276722
20
-8.42613844171242
30
1.2E-15
41
1
10
37.1572806810299
20
-8.37262684790772
30
1.2E-15
41
1
10
37.1596966733772
20
-8.33661385296324
30
1.2E-15
41
1
10
37.1597016582637
20
-8.28210346175479
30
1.2E-15
41
1
10
37.1590908448586
20
-8.26399915208222
30
1.2E-15
41
1
10
37.1566361166998
20
-8.22792453895821
30
1.2E-15
41
1
10
37.1547853838682
20
-8.20990822398505
30
1.2E-15
41
1
10
37.1498068197979
20
-8.17427100635126
30
1.2E-15
41
1
10
37.1466851810791
20
-8.15665949295914
30
1.2E-15
41
1
10
37.1390641670351
20
-8.12187323835124
30
1.2E-15
41
1
10
37.1345572124018
20
-8.10468554508432
30
1.2E-15
41
1
10
37.12407332774
20
-8.07119557233597
30
1.2E-15
41
1
10
37.118071602914
20
-8.0547992597632
30
1.1E-15
41
1
10
37.1043434206023
20
-8.02313468713578
30
1.1E-15
41
1
10
37.09664377788
20
-8.00790415501248
30
1.1E-15
41
1
10
37.0835069175319
20
-7.98626230298268
30
1.1E-15
41
1
10
37.0788842053258
20
-7.97928888052667
30
1.1E-15
41
1
10
37.0690713857599
20
-7.96589074073299
30
1E-15
41
1
10
37.0638593437799
20
-7.95944204464709
30
1E-15
41
1
10
37.0473890603712
20
-7.9412896901236
30
1E-15
41
1
10
37.0353472237575
20
-7.93072482565057
30
1E-15
41
1
10
37.02169139762
20
-7.92243604827618
30
9E-16
0
SPLINE
5
E5
100
AcDbEntity
8
1
62
256
6
ByLayer
370
18
48
1
60
0
100
AcDbSpline
70
4
71
3
72
8
73
4
40
0
40
0
40
0
40
0
40
1
40
1
40
1
40
1
41
1
10
37.02169139762
20
-7.92243604827618
30
9E-16
41
1
10
37.0159902775213
20
-7.91897559741759
30
9E-16
41
1
10
37.0102899138588
20
-7.91551560569857
30
9E-16
41
1
10
37.0045902782499
20
-7.91205605589161
30
9E-16
0
SPLINE
5
E6
100
AcDbEntity
8
1
62
256
6
ByLayer
370
18
48
1
60
0
100
AcDbSpline
70
4
71
3
72
31
73
27
40
0
40
0
40
0
40
0
40
0.250000000000014
40
0.250000000000014
40
0.375000000000012
40
0.375000000000012
40
0.50000000000001
40
0.50000000000001
40
0.562500000000008
40
0.562500000000008
40
0.625000000000005
40
0.625000000000005
40
0.687500000000003
40
0.687500000000003
40
0.750000000000001
40
0.750000000000001
40
0.781249999999996
40
0.781249999999996
40
0.812499999999992
40
0.843749999999988
40
0.843749999999988
40
0.874999999999983
40
0.874999999999983
40
0.937499999999992
40
0.937499999999992
40
1
40
1
40
1
40
1
41
1
10
36.9981950130957
20
-9.13840000000002
30
9E-16
41
1
10
36.976082695268
20
-9.10010034204942
30
9E-16
41
1
10
36.9569805432668
20
-9.05984411795342
30
8E-16
41
1
10
36.9341689287525
20
-8.99753075207181
30
8E-16
41
1
10
36.9275365647824
20
-8.97640206392472
30
8E-16
41
1
10
36.9166896166961
20
-8.93363616080319
30
7E-16
41
1
10
36.9124622416217
20
-8.91197575035747
30
7E-16
41
1
10
36.9085327011565
20
-8.8793117884511
30
7E-16
41
1
10
36.9076267649591
20
-8.86837388340882
30
7E-16
41
1
10
36.9067911744518
20
-8.84657788938583
30
7E-16
41
1
10
36.9068608961513
20
-8.83565109862423
30
7E-16
41
1
10
36.9081813607342
20
-8.81411795477115
30
7E-16
41
1
10
36.9094240788882
20
-8.8035365668585
30
7E-16
41
1
10
36.9133223382659
20
-8.78283544377078
30
7E-16
41
1
10
36.9159732586647
20
-8.77271407751471
30
7E-16
41
1
10
36.9213298822381
20
-8.757994309776
30
7E-16
41
1
10
36.9233638353757
20
-8.75313388542162
30
7E-16
41
1
10
36.9278891308394
20
-8.74378705925258
30
8E-16
41
1
10
36.932861656933
20
-8.73481609646424
30
8E-16
41
1
10
36.938797921215
20
-8.72666177673628
30
8E-16
41
1
10
36.9452638201491
20
-8.71895947327016
30
8E-16
41
1
10
36.9487696543611
20
-8.71533694592733
30
8E-16
41
1
10
36.9597913784604
20
-8.70552085487856
30
8E-16
41
1
10
36.9679039300946
20
-8.70024738976883
30
8E-16
41
1
10
36.9856537368121
20
-8.69225646686718
30
9E-16
41
1
10
36.9949605570648
20
-8.68968733193643
30
9E-16
41
1
10
37.0045902782499
20
-8.6883439441084
30
9E-16
0
SPLINE
5
E7
100
AcDbEntity
8
1
62
256
6
ByLayer
370
18
48
1
60
0
100
AcDbSpline
70
4
71
3
72
8
73
4
40
0
40
0
40
0
40
0
40
1
40
1
40
1
40
1
41
1
10
37.0045902782499
20
-8.6883439441084
30
9E-16
41
1
10
37.0102899138588
20
-8.68488439430143
30
9E-16
41
1
10
37.0159902775213
20
-8.68142440258245
30
9E-16
41
1
10
37.02169139762
20
-8.67796395172383
30
9E-16
0
SPLINE
5
E8
100
AcDbEntity
8
1
62
256
6
ByLayer
370
18
48
1
60
0
100
AcDbSpline
70
4
71
3
72
31
73
27
40
0
40
0
40
0
40
0
40
0.250000000000004
40
0.250000000000004
40
0.374999999999996
40
0.374999999999996
40
0.499999999999989
40
0.499999999999989
40
0.562499999999993
40
0.562499999999993
40
0.624999999999998
40
0.624999999999998
40
0.687500000000002
40
0.687500000000002
40
0.750000000000007
40
0.750000000000007
40
0.781250000000006
40
0.781250000000006
40
0.812500000000005
40
0.843750000000004
40
0.843750000000004
40
0.875000000000003
40
0.875000000000003
40
0.937500000000002
40
0.937500000000002
40
1
40
1
40
1
40
1
41
1
10
39.9018049869041
20
-7.46200000000002
30
-3E-16
41
1
10
39.9239173047318
20
-7.50029965795059
30
-2E-16
41
1
10
39.943019456733
20
-7.54055588204659
30
-2E-16
41
1
10
39.9658310712473
20
-7.6028692479282
30
-1E-16
41
1
10
39.9724634352174
20
-7.62399793607531
30
-1E-16
41
1
10
39.9833103833037
20
-7.66676383919685
30
-1E-16
41
1
10
39.9875377583781
20
-7.68842424964254
30
-1E-16
41
1
10
39.9914672988433
20
-7.72108821154893
30
-1E-16
41
1
10
39.9923732350407
20
-7.73202611659119
30
-1E-16
41
1
10
39.993208825548
20
-7.75382211061421
30
-1E-16
41
1
10
39.9931391038485
20
-7.76474890137581
30
-1E-16
41
1
10
39.9918186392656
20
-7.78628204522889
30
-1E-16
41
1
10
39.9905759211116
20
-7.79686343314151
30
-1E-16
41
1
10
39.9866776617339
20
-7.81756455622923
30
-1E-16
41
1
10
39.9840267413352
20
-7.82768592248533
30
-1E-16
41
1
10
39.9786701177617
20
-7.84240569022401
30
-1E-16
41
1
10
39.9766361646241
20
-7.84726611457842
30
-1E-16
41
1
10
39.9721108691604
20
-7.85661294074745
30
-1E-16
41
1
10
39.9671384873051
20
-7.86558402763541
30
-1E-16
41
1
10
39.9612020787848
20
-7.87373822326373
30
-2E-16
41
1
10
39.9547361798507
20
-7.88144052672985
30
-2E-16
41
1
10
39.9512303456387
20
-7.88506305407267
30
-2E-16
41
1
10
39.9402086215394
20
-7.89487914512148
30
-2E-16
41
1
10
39.9320960699052
20
-7.90015261023117
30
-2E-16
41
1
10
39.9143462631877
20
-7.90814353313283
30
-3E-16
41
1
10
39.905039442935
20
-7.91071266806361
30
-3E-16
41
1
10
39.8954097217499
20
-7.91205605589161
30
-3E-16
0
SPLINE
5
E9
100
AcDbEntity
8
1
62
256
6
ByLayer
370
18
48
1
60
0
100
AcDbSpline
70
4
71
3
72
40
73
36
40
0
40
0
40
0
40
0
40
0.0625000000000106
40
0.0625000000000106
40
0.0937500000000061
40
0.0937500000000061
40
0.125000000000002
40
0.125000000000002
40
0.187499999999998
40
0.187499999999998
40
0.249999999999993
40
0.249999999999993
40
0.312499999999989
40
0.312499999999989
40
0.374999999999985
40
0.374999999999985
40
0.49999999999998
40
0.49999999999998
40
0.562499999999984
40
0.562499999999984
40
0.624999999999987
40
0.624999999999987
40
0.687499999999991
40
0.687499999999991
40
0.749999999999994
40
0.749999999999994
40
0.812499999999998
40
0.812499999999998
40
0.875000000000001
40
0.875000000000001
40
0.906250000000005
40
0.906250000000005
40
0.937500000000009
40
0.937500000000009
40
1
40
1
40
1
40
1
41
1
10
39.8783086023798
20
-7.92243604827618
30
-3E-16
41
1
10
39.8646460939446
20
-7.93072888165401
30
-4E-16
41
1
10
39.8526208578275
20
-7.9412843971302
30
-4E-16
41
1
10
39.8361853456248
20
-7.95938998491025
30
-4E-16
41
1
10
39.8309698406233
20
-7.9658380671334
30
-4E-16
41
1
10
39.8211542663072
20
-7.97923276600298
30
-4E-16
41
1
10
39.8165360912019
20
-7.98619648438438
30
-5E-16
41
1
10
39.8034233469188
20
-8.00778359114099
30
-5E-16
41
1
10
39.7956890254888
20
-8.02306756719724
30
-5E-16
41
1
10
39.7819577297635
20
-8.05472391928245
30
-5E-16
41
1
10
39.7759477889006
20
-8.07113147081944
30
-5E-16
41
1
10
39.7654405128405
20
-8.10468946364662
30
-6E-16
41
1
10
39.7609411512153
20
-8.12185374819191
30
-6E-16
41
1
10
39.7533256654729
20
-8.15660520873544
30
-6E-16
41
1
10
39.7501942723276
20
-8.17426155828761
30
-6E-16
41
1
10
39.7427193189699
20
-8.22777315209228
30
-6E-16
41
1
10
39.7403033266226
20
-8.26378614703677
30
-6E-16
41
1
10
39.740298341736
20
-8.31829653824522
30
-6E-16
41
1
10
39.7409091551412
20
-8.33640084791782
30
-6E-16
41
1
10
39.7433638833
20
-8.37247546104183
30
-6E-16
41
1
10
39.7452146161316
20
-8.39049177601495
30
-6E-16
41
1
10
39.750193180202
20
-8.42612899364877
30
-6E-16
41
1
10
39.7533148189207
20
-8.44374050704087
30
-6E-16
41
1
10
39.7609358329647
20
-8.47852676164879
30
-6E-16
41
1
10
39.7654427875981
20
-8.49571445491571
30
-6E-16
41
1
10
39.7759266722598
20
-8.52920442766404
30
-5E-16
41
1
10
39.7819283970858
20
-8.54560074023681
30
-5E-16
41
1
10
39.7956565793975
20
-8.57726531286423
30
-5E-16
41
1
10
39.8033562221198
20
-8.59249584498755
30
-5E-16
41
1
10
39.8164930824679
20
-8.61413769701736
30
-5E-16
41
1
10
39.821115794674
20
-8.62111111947334
30
-4E-16
41
1
10
39.8309286142399
20
-8.63450925926705
30
-4E-16
41
1
10
39.8361406562199
20
-8.64095795535295
30
-4E-16
41
1
10
39.8526109396286
20
-8.65911030987644
30
-4E-16
41
1
10
39.8646527762423
20
-8.66967517434946
30
-4E-16
41
1
10
39.8783086023798
20
-8.67796395172383
30
-3E-16
0
SPLINE
5
EA
100
AcDbEntity
8
1
62
256
6
ByLayer
370
18
48
1
60
0
100
AcDbSpline
70
4
71
3
72
8
73
4
40
0
40
0
40
0
40
0
40
1
40
1
40
1
40
1
41
1
10
39.8783086023798
20
-8.67796395172383
30
-3E-16
41
1
10
39.8840097224785
20
-8.68142440258245
30
-3E-16
41
1
10
39.889710086141
20
-8.68488439430143
30
-3E-16
41
1
10
39.8954097217499
20
-8.6883439441084
30
-3E-16
0
SPLINE
5
EB
100
AcDbEntity
8
1
62
256
6
ByLayer
370
18
48
1
60
0
100
AcDbSpline
70
4
71
3
72
32
73
28
40
0
40
0
40
0
40
0
40
0.0625000000000316
40
0.0625000000000316
40
0.125000000000063
40
0.125000000000063
40
0.156250000000079
40
0.156250000000079
40
0.187500000000095
40
0.187500000000095
40
0.250000000000092
40
0.250000000000092
40
0.312500000000089
40
0.312500000000089
40
0.375000000000086
40
0.375000000000086
40
0.437500000000083
40
0.437500000000083
40
0.500000000000081
40
0.500000000000081
40
0.625000000000061
40
0.625000000000061
40
0.75000000000004
40
0.75000000000004
40
0.87500000000002
40
0.87500000000002
40
1
40
1
40
1
40
1
41
1
10
39.8954097217499
20
-8.6883439441084
30
-3E-16
41
1
10
39.9050036464023
20
-8.68968233816503
30
-3E-16
41
1
10
39.9141952189734
20
-8.69222373945706
30
-3E-16
41
1
10
39.9316698218674
20
-8.70002136881649
30
-2E-16
41
1
10
39.9400132365334
20
-8.70538684134394
30
-2E-16
41
1
10
39.9509936917982
20
-8.71510708021717
30
-2E-16
41
1
10
39.9544333424077
20
-8.71863492487998
30
-2E-16
41
1
10
39.9608825651309
20
-8.72624830727889
30
-2E-16
41
1
10
39.9639083025534
20
-8.73036290724724
30
-2E-16
41
1
10
39.9721700659395
20
-8.74323141886148
30
-1E-16
41
1
10
39.9766458268407
20
-8.75253091984973
30
-1E-16
41
1
10
39.9839066869716
20
-8.7722897037238
30
-1E-16
41
1
10
39.9866075008267
20
-8.78252675805535
30
-1E-16
41
1
10
39.9905545292548
20
-8.80336054405132
30
-1E-16
41
1
10
39.9918073424293
20
-8.81399103036685
30
-1E-16
41
1
10
39.9931388422337
20
-8.83559003295454
30
-1E-16
41
1
10
39.9932091823
20
-8.84650865588353
30
-1E-16
41
1
10
39.992378753559
20
-8.86828944188298
30
-1E-16
41
1
10
39.9914792078104
20
-8.87919294388166
30
-1E-16
41
1
10
39.9875479758904
20
-8.91193026636719
30
-1E-16
41
1
10
39.9833258991615
20
-8.93356975079334
30
-1E-16
41
1
10
39.9724647210327
20
-8.97640222244112
30
-1E-16
41
1
10
39.9658334074574
20
-8.99752620346453
30
-1E-16
41
1
10
39.950607216923
20
-9.03911517171696
30
-2E-16
41
1
10
39.9420073940176
20
-9.05957832340331
30
-2E-16
41
1
10
39.9231334456824
20
-9.09964603427076
30
-2E-16
41
1
10
39.9128687974843
20
-9.11923691794976
30
-3E-16
41
1
10
39.9018049869041
20
-9.13840000000002
30
-3E-16
0
SPLINE
5
EC
100
AcDbEntity
8
1
62
256
6
ByLayer
370
18
48
1
60
0
100
AcDbSpline
70
4
71
3
72
8
73
4
40
0
40
0
40
0
40
0
40
1
40
1
40
1
40
1
41
1
10
39.8954097217499
20
-7.91205605589161
30
-3E-16
41
1
10
39.889710086141
20
-7.91551560569857
30
-3E-16
41
1
10
39.8840097224784
20
-7.91897559741759
30
-3E-16
41
1
10
39.8783086023798
20
-7.92243604827618
30
-3E-16
0
LINE
5
7F
100
AcDbEntity
8
80
62
256
6
ByLayer
370
18
48
1
60
0
100
AcDbLine
10
0
20
0
30
0
11
-10
21
0
31
0
39
0
210
0
220
0
230
1
0
LINE
5
80
100
AcDbEntity
8
81
62
256
6
ByLayer
370
18
48
1
60
0
100
AcDbLine
10
44.45
20
-14.3002
30
0
11
54.45
21
-14.3002
31
0
39
0
210
0
220
0
230
1
0
LINE
5
81
100
AcDbEntity
8
1
62
256
6
ByLayer
370
18
48
1
60
0
100
AcDbLine
10
0
20
-13.4002
30
0
11
29.986057
21
-13.4002
31
0
39
0
210
0
220
0
230
1
0
LINE
5
82
100
AcDbEntity
8
1
62
256
6
ByLayer
370
18
48
1
60
0
100
AcDbLine
10
0
20
-13.4002
30
0
11
0
21
12.7
31
0
39
0
210
0
220
0
230
1
0
LINE
5
83
100
AcDbEntity
8
1
62
256
6
ByLayer
370
18
48
1
60
0
100
AcDbLine
10
0
20
12.7
30
0
11
7.031709
21
12.7
31
0
39
0
210
0
220
0
230
1
0
LINE
5
84
100
AcDbEntity
8
1
62
256
6
ByLayer
370
18
48
1
60
0
100
AcDbLine
10
34.549986
20
-13.4002
30
0
11
35.289264
21
-13.4002
31
0
39
0
210
0
220
0
230
1
0
LINE
5
85
100
AcDbEntity
8
1
62
256
6
ByLayer
370
18
48
1
60
0
100
AcDbLine
10
35.289264
20
-3.2002
30
0
11
34.549986
21
-3.2002
31
0
39
0
210
0
220
0
230
1
0
LINE
5
86
100
AcDbEntity
8
1
62
256
6
ByLayer
370
18
48
1
60
0
100
AcDbLine
10
34.520282
20
-3.2002
30
0
11
34.55
21
-3.2002
31
0
39
0
210
0
220
0
230
1
0
LINE
5
87
100
AcDbEntity
8
1
62
256
6
ByLayer
370
18
48
1
60
0
100
AcDbLine
10
34.55
20
-3.740595
30
0
11
34.55
21
-3.2002
31
0
39
0
210
0
220
0
230
1
0
LINE
5
88
100
AcDbEntity
8
1
62
256
6
ByLayer
370
18
48
1
60
0
100
AcDbLine
10
34.520282
20
-13.4002
30
0
11
34.55
21
-13.4002
31
0
39
0
210
0
220
0
230
1
0
LINE
5
89
100
AcDbEntity
8
1
62
256
6
ByLayer
370
18
48
1
60
0
100
AcDbLine
10
34.55
20
-12.859805
30
0
11
34.55
21
-13.4002
31
0
39
0
210
0
220
0
230
1
0
LINE
5
8A
100
AcDbEntity
8
1
62
256
6
ByLayer
370
18
48
1
60
0
100
AcDbLine
10
34.21063
20
-3.2002
30
0
11
34.520311
21
-3.2002
31
0
39
0
210
0
220
0
230
1
0
LINE
5
8B
100
AcDbEntity
8
1
62
256
6
ByLayer
370
18
48
1
60
0
100
AcDbLine
10
34.520311
20
-3.2002
30
0
11
34.520311
21
-3.766156
31
0
39
0
210
0
220
0
230
1
0
LINE
5
8C
100
AcDbEntity
8
1
62
256
6
ByLayer
370
18
48
1
60
0
100
AcDbLine
10
34.21063
20
-13.4002
30
0
11
34.520311
21
-13.4002
31
0
39
0
210
0
220
0
230
1
0
LINE
5
8D
100
AcDbEntity
8
1
62
256
6
ByLayer
370
18
48
1
60
0
100
AcDbLine
10
34.520311
20
-13.4002
30
0
11
34.520311
21
-12.834244
31
0
39
0
210
0
220
0
230
1
0
LINE
5
8E
100
AcDbEntity
8
1
62
256
6
ByLayer
370
18
48
1
60
0
100
AcDbLine
10
34.21063
20
-3.2002
30
0
11
31.05
21
-3.2002
31
0
39
0
210
0
220
0
230
1
0
LINE
5
8F
100
AcDbEntity
8
1
62
256
6
ByLayer
370
18
48
1
60
0
100
AcDbLine
10
31.05
20
-13.4002
30
0
11
34.21063
21
-13.4002
31
0
39
0
210
0
220
0
230
1
0
LINE
5
90
100
AcDbEntity
8
1
62
256
6
ByLayer
370
18
48
1
60
0
100
AcDbLine
10
34.21063
20
-13.4002
30
0
11
34.21063
21
-12.546111
31
0
39
0
210
0
220
0
230
1
0
LINE
5
91
100
AcDbEntity
8
1
62
256
6
ByLayer
370
18
48
1
60
0
100
AcDbLine
10
34.21063
20
-3.2002
30
0
11
34.21063
21
-4.054289
31
0
39
0
210
0
220
0
230
1
0
LINE
5
92
100
AcDbEntity
8
1
62
256
6
ByLayer
370
18
48
1
60
0
100
AcDbLine
10
31.05
20
-3.2002
30
0
11
29.986057
21
-3.2002
31
0
39
0
210
0
220
0
230
1
0
LINE
5
93
100
AcDbEntity
8
1
62
256
6
ByLayer
370
18
48
1
60
0
100
AcDbLine
10
29.986057
20
-13.4002
30
0
11
31.05
21
-13.4002
31
0
39
0
210
0
220
0
230
1
0
LINE
5
94
100
AcDbEntity
8
1
62
256
6
ByLayer
370
13
48
1
60
0
100
AcDbLine
10
31.05
20
-3.2002
30
0
11
31.05
21
-13.4002
31
0
39
0
210
0
220
0
230
1
0
LINE
5
95
100
AcDbEntity
8
1
62
256
6
ByLayer
370
18
48
1
60
0
100
AcDbLine
10
29.986057
20
-3.2002
30
0
11
19.732752
21
-3.2002
31
0
39
0
210
0
220
0
230
1
0
LINE
5
96
100
AcDbEntity
8
1
62
256
6
ByLayer
370
18
48
1
60
0
100
AcDbLine
10
9.107568
20
4.952791
30
0
11
7.031709
21
12.7
31
0
39
0
210
0
220
0
230
1
0
LINE
5
97
100
AcDbEntity
8
1
62
256
6
ByLayer
370
18
48
1
60
0
100
AcDbLine
10
29.986057
20
-13.4002
30
0
11
29.986057
21
-3.2002
31
0
39
0
210
0
220
0
230
1
0
LINE
5
98
100
AcDbEntity
8
1
62
256
6
ByLayer
370
13
48
1
60
0
100
AcDbLine
10
5.405742
20
-10.20065
30
0
11
4.969331
21
-11.739983
31
0
39
0
210
0
220
0
230
1
0
LINE
5
99
100
AcDbEntity
8
1
62
256
6
ByLayer
370
13
48
1
60
0
100
AcDbLine
10
17.886959
20
-8.652675
30
0
11
19.48557
21
-8.71934
31
0
39
0
210
0
220
0
230
1
0
LINE
5
9A
100
AcDbEntity
8
1
62
256
6
ByLayer
370
13
48
1
60
0
100
AcDbLine
10
14.883691
20
-11.527673
30
0
11
14.880559
21
-13.12767
31
0
39
0
210
0
220
0
230
1
0
LINE
5
9B
100
AcDbEntity
8
1
62
256
6
ByLayer
370
13
48
1
60
0
100
AcDbLine
10
17.873878
20
-5.030791
30
0
11
19.471966
21
-4.952581
31
0
39
0
210
0
220
0
230
1
0
LINE
5
9C
100
AcDbEntity
8
1
62
256
6
ByLayer
370
13
48
1
60
0
100
AcDbLine
10
5.853142
20
-2.447261
30
0
11
5.59669
21
-0.867947
31
0
39
0
210
0
220
0
230
1
0
LINE
5
9D
100
AcDbEntity
8
SK1
62
256
6
ByLayer
370
18
48
1
60
0
100
AcDbLine
10
-2.410016
20
12.7
30
0
11
-81
21
12.7
31
0
39
0
210
0
220
0
230
1
0
LINE
5
9F
100
AcDbEntity
8
SK1
62
256
6
ByLayer
370
18
48
1
60
0
100
AcDbLine
10
-2.410016
20
-12.625
30
0
11
-81
21
-12.625
31
0
39
0
210
0
220
0
230
1
0
LINE
5
A0
100
AcDbEntity
8
SK1
62
256
6
ByLayer
370
18
48
1
60
0
100
AcDbLine
10
-84
20
9.7
30
0
11
-81
21
12.7
31
0
39
0
210
0
220
0
230
1
0
LINE
5
A1
100
AcDbEntity
8
SK1
62
256
6
ByLayer
370
18
48
1
60
0
100
AcDbLine
10
-84
20
9.7
30
0
11
-84
21
-9.625
31
0
39
0
210
0
220
0
230
1
0
LINE
5
A2
100
AcDbEntity
8
SK1
62
256
6
ByLayer
370
18
48
1
60
0
100
AcDbLine
10
-84
20
-9.625
30
0
11
-81
21
-12.625
31
0
39
0
210
0
220
0
230
1
0
LINE
5
A3
100
AcDbEntity
8
SK1
62
256
6
ByLayer
370
18
48
1
60
0
100
AcDbLine
10
-1.925893
20
12.7
30
0
11
-2.410016
21
12.7
31
0
39
0
210
0
220
0
230
1
0
LINE
5
A4
100
AcDbEntity
8
SK1
62
256
6
ByLayer
370
13
48
1
60
0
100
AcDbLine
10
-2.410016
20
-12.625
30
0
11
-2.410016
21
12.7
31
0
39
0
210
0
220
0
230
1
0
LINE
5
A5
100
AcDbEntity
8
SK1
62
256
6
ByLayer
370
18
48
1
60
0
100
AcDbLine
10
-1.925893
20
12.7
30
0
11
0
21
12.7
31
0
39
0
210
0
220
0
230
1
0
LINE
5
A6
100
AcDbEntity
8
SK1
62
256
6
ByLayer
370
18
48
1
60
0
100
AcDbLine
10
-1.038992
20
-13.4002
30
0
11
0
21
-13.4002
31
0
39
0
210
0
220
0
230
1
0
LINE
5
A7
100
AcDbEntity
8
SK1
62
256
6
ByLayer
370
18
48
1
60
0
100
AcDbLine
10
0
20
-13.4002
30
0
11
0
21
12.7
31
0
39
0
210
0
220
0
230
1
0
LINE
5
A8
100
AcDbEntity
8
SK1
62
256
6
ByLayer
370
18
48
1
60
0
100
AcDbLine
10
-1.925893
20
-12.7
30
0
11
-1.925893
21
12.7
31
0
39
0
210
0
220
0
230
1
0
MTEXT
5
ED
100
AcDbEntity
8
SK6
62
256
6
ByLayer
370
18
48
1
60
0
100
AcDbMText
10
-39.533663
20
29.932634
30
0
210
0
220
0
230
1
1
\W0.7407;QS-SRDCL-16-28-12XC
40
3.5
41
0
44
1.084337
50
0
71
7
72
5
7
iso_b_vert
0
DIMENSION
5
F2
100
AcDbEntity
8
SK2
62
256
6
ByLayer
370
18
48
1
60
0
100
AcDbDimension
2
_U0
10
-84
20
-37.8002
30
0
11
-19.775
21
-37.8002
31
0
70
32
71
1
72
1
41
1
210
0
220
0
230
1
3
Standard
100
AcDbAlignedDimension
13
44.45
23
-14.3002
33
0
14
-84
24
-12.7
34
0
50
0
100
AcDbRotatedDimension
1001
ACAD
1000
DSTYLE
1002
{
1070
   371
1070
    13
1070
   372
1070
    13
1070
   170
1070
     0
1070
   144
1040
1.0
1070
   277
1070
     2
1070
   284
1070
     8
1070
   278
1070
    46
1070
   146
1040
1.0
1070
   345
1005
16
1070
   347
1005
16
1070
   346
1005
16
1070
   344
1005
0
1070
   343
1005
0
1070
   172
1070
     1
1070
    76
1070
     0
1070
    75
1070
     0
1070
   282
1070
     0
1070
   281
1070
     0
1070
    71
1070
     0
1070
    74
1070
     0
1070
   279
1070
     0
1070
   173
1070
     1
1070
   340
1005
EE
1070
   271
1070
     2
1070
   272
1070
     2
1070
    77
1070
     1
1070
    73
1070
     1
1070
   171
1070
     3
1070
   274
1070
     4
1070
   177
1070
     2
1070
   176
1070
     2
1070
   178
1070
     2
1070
    78
1070
     8
1070
    48
1040
-0.1
1070
    41
1040
3.5
1070
   147
1040
1.75
1070
    42
1040
1.5875
1070
    44
1040
2.0
1070
   140
1040
3.5
1002
}
1001
ACAD_DSTYLE_DIM_LINETYPE
1070
   380
1005
16
1001
ACAD_DSTYLE_DIM_EXT1_LINETYPE
1070
   381
1005
16
1001
ACAD_DSTYLE_DIM_EXT2_LINETYPE
1070
   382
1005
16
0
DIMENSION
5
10C
100
AcDbEntity
8
2
62
256
6
ByLayer
370
18
48
1
60
0
100
AcDbDimension
2
_U1
10
0
20
-27.8002
30
0
11
22.225
21
-27.8002
31
0
70
32
71
1
72
1
41
1
210
0
220
0
230
1
3
Standard
100
AcDbAlignedDimension
13
44.45
23
-14.3002
33
0
14
0
24
-12.7
34
0
50
0
100
AcDbRotatedDimension
1001
ACAD
1000
DSTYLE
1002
{
1070
   371
1070
    13
1070
   372
1070
    13
1070
   170
1070
     0
1070
   144
1040
1.0
1070
   277
1070
     2
1070
   284
1070
     8
1070
   278
1070
    46
1070
   146
1040
1.0
1070
   345
1005
16
1070
   347
1005
16
1070
   346
1005
16
1070
   344
1005
0
1070
   343
1005
0
1070
   172
1070
     1
1070
    76
1070
     0
1070
    75
1070
     0
1070
   282
1070
     0
1070
   281
1070
     0
1070
    71
1070
     0
1070
    74
1070
     0
1070
   279
1070
     0
1070
   173
1070
     1
1070
   340
1005
EE
1070
   271
1070
     2
1070
   272
1070
     2
1070
    77
1070
     1
1070
    73
1070
     1
1070
   171
1070
     3
1070
   274
1070
     4
1070
   177
1070
     2
1070
   176
1070
     2
1070
   178
1070
     2
1070
    78
1070
     8
1070
    48
1040
-0.1
1070
    41
1040
3.5
1070
   147
1040
1.75
1070
    42
1040
1.5875
1070
    44
1040
2.0
1070
   140
1040
3.5
1002
}
1001
ACAD_DSTYLE_DIM_LINETYPE
1070
   380
1005
16
1001
ACAD_DSTYLE_DIM_EXT1_LINETYPE
1070
   381
1005
16
1001
ACAD_DSTYLE_DIM_EXT2_LINETYPE
1070
   382
1005
16
0
DIMENSION
5
124
100
AcDbEntity
8
SK2
62
256
6
ByLayer
370
18
48
1
60
0
100
AcDbDimension
2
_U2
10
-91.85
20
-12.7
30
0
11
-91.85
21
0
31
0
70
32
71
1
72
1
41
1
210
0
220
0
230
1
3
Standard
100
AcDbAlignedDimension
13
-84
23
12.7
33
0
14
-84
24
-12.7
34
0
50
90
100
AcDbRotatedDimension
1001
ACAD
1000
DSTYLE
1002
{
1070
   371
1070
    13
1070
   372
1070
    13
1070
   170
1070
     0
1070
   144
1040
1.0
1070
   277
1070
     2
1070
   284
1070
     8
1070
   278
1070
    46
1070
   146
1040
1.0
1070
   345
1005
16
1070
   347
1005
16
1070
   346
1005
16
1070
   344
1005
0
1070
   343
1005
0
1070
   172
1070
     1
1070
    76
1070
     0
1070
    75
1070
     0
1070
   282
1070
     0
1070
   281
1070
     0
1070
    71
1070
     0
1070
    74
1070
     0
1070
   279
1070
     0
1070
   173
1070
     1
1070
   340
1005
EE
1070
   271
1070
     2
1070
   272
1070
     2
1070
    77
1070
     1
1070
    73
1070
     0
1070
   171
1070
     3
1070
   274
1070
     4
1070
   177
1070
     2
1070
   176
1070
     2
1070
   178
1070
     2
1070
    78
1070
     8
1070
    48
1040
-0.1
1070
    41
1040
3.5
1070
   147
1040
1.75
1070
    42
1040
1.5875
1070
    44
1040
2.0
1070
   140
1040
3.5
1002
}
1001
ACAD_DSTYLE_DIM_LINETYPE
1070
   380
1005
16
1001
ACAD_DSTYLE_DIM_EXT1_LINETYPE
1070
   381
1005
16
1001
ACAD_DSTYLE_DIM_EXT2_LINETYPE
1070
   382
1005
16
0
DIMENSION
5
13C
100
AcDbEntity
8
2
62
256
6
ByLayer
370
18
48
1
60
0
100
AcDbDimension
2
_U3
10
64.3
20
-14.3002
30
0
11
64.3
21
-0.8001
31
0
70
32
71
1
72
1
41
1
210
0
220
0
230
1
3
Standard
100
AcDbAlignedDimension
13
0
23
12.7
33
0
14
44.45
24
-14.3002
34
0
50
90
100
AcDbRotatedDimension
1001
ACAD
1000
DSTYLE
1002
{
1070
   371
1070
    13
1070
   372
1070
    13
1070
   170
1070
     0
1070
   144
1040
1.0
1070
   277
1070
     2
1070
   284
1070
     8
1070
   278
1070
    46
1070
   146
1040
1.0
1070
   345
1005
16
1070
   347
1005
16
1070
   346
1005
16
1070
   344
1005
0
1070
   343
1005
0
1070
   172
1070
     1
1070
    76
1070
     0
1070
    75
1070
     0
1070
   282
1070
     0
1070
   281
1070
     0
1070
    71
1070
     0
1070
    74
1070
     0
1070
   279
1070
     0
1070
   173
1070
     1
1070
   340
1005
EE
1070
   271
1070
     2
1070
   272
1070
     2
1070
    77
1070
     1
1070
    73
1070
     0
1070
   171
1070
     3
1070
   274
1070
     4
1070
   177
1070
     2
1070
   176
1070
     2
1070
   178
1070
     2
1070
    78
1070
     8
1070
    48
1040
-0.1
1070
    41
1040
3.5
1070
   147
1040
1.75
1070
    42
1040
1.5875
1070
    44
1040
2.0
1070
   140
1040
3.5
1002
}
1001
ACAD_DSTYLE_DIM_LINETYPE
1070
   380
1005
16
1001
ACAD_DSTYLE_DIM_EXT1_LINETYPE
1070
   381
1005
16
1001
ACAD_DSTYLE_DIM_EXT2_LINETYPE
1070
   382
1005
16
0
ENDSEC
0
SECTION
2
OBJECTS
0
DICTIONARY
5
1c3
330
0
100
AcDbDictionary
280
0
281
1
3
ACAD_GROUP
350
1c4
3
ACAD_MLINESTYLE
350
1c5
0
DICTIONARY
5
1c4
330
0
100
AcDbDictionary
280
0
281
1
0
DICTIONARY
5
1c5
330
0
100
AcDbDictionary
280
0
281
1
3
Standard
350
18
0
MLINESTYLE
5
18
330
1c5
100
AcDbMlineStyle
2
Standard
70
0
3

62
256
51
90
52
90
71
2
49
-0.5
62
256
6
ByLayer
49
0.5
62
256
6
ByLayer
0
RASTERVARIABLES
5
1b2
330

100
AcDbRasterVariables
90
0
70
1
71
1
72
1
0
ENDSEC
0
EOF
