0
SECTION
2
HEADER
9
$ACADVER
1
AC1015
9
$DWGCODEPAGE
3
ANSI_1252
9
$HANDSEED
5
1f7
9
$ANGBASE
50
0
9
$ANGDIR
70
0
9
$ATTMODE
70
1
9
$AUNITS
70
0
9
$AUPREC
70
0
9
$CECOLOR
62
256
9
$CELTSCALE
40
1
9
$CELTYPE
6
ByLayer
9
$CELWEIGHT
370
18
9
$CLAYER
8
0
9
$CMLJUST
70
0
9
$CMLSCALE
40
1
9
$CMLSTYLE
2
Standard
9
$DIMSTYLE
2
Standard
9
$TEXTSIZE
40
0.2
9
$TEXTSTYLE
7
Standard
9
$LUNITS
70
2
9
$LUPREC
70
4
9
$EXTNAMES
290
1
9
$INSUNITS
70
4
9
$LTSCALE
40
1
9
$LWDISPLAY
290
1
9
$PDMODE
70
0
9
$PDSIZE
40
0
9
$PLINEGEN
70
0
0
ENDSEC
0
SECTION
2
CLASSES
0
CLASS
1
RASTERVARIABLES
2
AcDbRasterVariables
3
ISM
90
0
280
0
281
0
0
ENDSEC
0
SECTION
2
TABLES
0
TABLE
2
VPORT
5
1ed
100
AcDbSymbolTable
0
VPORT
5
1
100
AcDbSymbolTableRecord
100
AcDbViewportTableRecord
2
*Active
70
0
10
0
20
0
11
1
21
1
12
-1
22
1
13
0
23
0
14
0.5
24
0.5
15
10
25
10
16
0
26
0
36
1
17
0
27
0
37
0
0
ENDTAB
0
TABLE
2
LTYPE
5
1ee
100
AcDbSymbolTable
0
LTYPE
5
14
100
AcDbSymbolTableRecord
100
AcDbLinetypeTableRecord
70
0
2
ByBlock
3

72
65
73
0
40
0
0
LTYPE
5
15
100
AcDbSymbolTableRecord
100
AcDbLinetypeTableRecord
70
0
2
ByLayer
3

72
65
73
0
40
0
0
LTYPE
5
16
100
AcDbSymbolTableRecord
100
AcDbLinetypeTableRecord
70
0
2
Continuous
3
Solid line
72
65
73
0
40
0
0
LTYPE
5
6E
100
AcDbSymbolTableRecord
100
AcDbLinetypeTableRecord
70
0
2
CENTER
3
____ _ ____ _ ____ _ ____
72
65
73
4
40
47.5
49
22
74
0
49
-8.5
74
0
49
8.5
74
0
49
-8.5
74
0
0
LTYPE
5
6F
100
AcDbSymbolTableRecord
100
AcDbLinetypeTableRecord
70
0
2
DASHED
3
__ __ __ __ __ __ __ __ __
72
65
73
2
40
25.72
49
12.86
74
0
49
-12.86
74
0
0
ENDTAB
0
TABLE
2
LAYER
5
1ef
100
AcDbSymbolTable
0
LAYER
5
10
100
AcDbSymbolTableRecord
100
AcDbLayerTableRecord
2
0
70
0
62
7
6
Continuous
290
1
370
-3
390
0
0
LAYER
5
71
100
AcDbSymbolTableRecord
100
AcDbLayerTableRecord
2
80
70
0
62
-6
6
Continuous
290
1
370
-3
390
0
0
LAYER
5
73
100
AcDbSymbolTableRecord
100
AcDbLayerTableRecord
2
81
70
0
62
-3
6
Continuous
290
1
370
-3
390
0
0
LAYER
5
99
100
AcDbSymbolTableRecord
100
AcDbLayerTableRecord
2
1
70
0
62
4
6
Continuous
290
1
370
-3
390
0
0
LAYER
5
D1
100
AcDbSymbolTableRecord
100
AcDbLayerTableRecord
2
4
70
0
62
-2
6
CENTER
290
1
370
-3
390
0
0
LAYER
5
122
100
AcDbSymbolTableRecord
100
AcDbLayerTableRecord
2
Defpoints
70
0
62
7
6
Continuous
290
0
370
-3
390
0
0
LAYER
5
12F
100
AcDbSymbolTableRecord
100
AcDbLayerTableRecord
2
2
70
0
62
7
6
Continuous
290
1
370
-3
390
0
0
LAYER
5
1d8
100
AcDbSymbolTableRecord
100
AcDbLayerTableRecord
2
SK3
70
0
62
1
6
DASHED
290
1
370
-3
390
0
0
LAYER
5
1d9
100
AcDbSymbolTableRecord
100
AcDbLayerTableRecord
2
SK1
70
0
62
4
6
Continuous
290
1
370
-3
390
0
0
LAYER
5
1da
100
AcDbSymbolTableRecord
100
AcDbLayerTableRecord
2
SK4
70
0
62
2
6
CENTER
290
1
370
-3
390
0
0
LAYER
5
1db
100
AcDbSymbolTableRecord
100
AcDbLayerTableRecord
2
SK6
70
0
62
5
6
Continuous
290
1
370
-3
390
0
0
LAYER
5
1dc
100
AcDbSymbolTableRecord
100
AcDbLayerTableRecord
2
SK2
70
0
62
7
6
Continuous
290
1
370
-3
390
0
0
ENDTAB
0
TABLE
2
STYLE
5
1f0
100
AcDbSymbolTable
0
STYLE
5
11
100
AcDbSymbolTableRecord
100
AcDbTextStyleTableRecord
2
Standard
3
txt
70
0
71
0
40
0
41
1
42
0
50
0
0
STYLE
5
114
100
AcDbSymbolTableRecord
100
AcDbTextStyleTableRecord
2
iso_b_vert
3
simplex.shx
70
0
71
0
40
0
41
1
42
0
50
0
0
STYLE
5
115
100
AcDbSymbolTableRecord
100
AcDbTextStyleTableRecord
2
DWGDirectTextStyle
3
simplex
70
0
71
0
40
0
41
1
42
0
50
0
0
ENDTAB
0
TABLE
2
DIMSTYLE
5
1f1
100
AcDbSymbolTable
100
AcDbDimStyleTable
0
DIMSTYLE
105
27
100
AcDbSymbolTableRecord
100
AcDbDimStyleTableRecord
2
Standard
70
0
3
<>
41
0.18
42
0.0625
44
0.18
140
0.18
147
0.09
73
0
74
0
77
1
271
2
275
0
278
52
280
0
340
11
0
ENDTAB
0
TABLE
2
VIEW
5
1f2
100
AcDbSymbolTable
0
ENDTAB
0
TABLE
2
UCS
5
1f3
100
AcDbSymbolTable
0
ENDTAB
0
TABLE
2
APPID
5
1f4
100
AcDbSymbolTable
0
APPID
5
12
100
AcDbSymbolTableRecord
100
AcDbRegAppTableRecord
2
ACAD
70
0
0
APPID
5
117
100
AcDbSymbolTableRecord
100
AcDbRegAppTableRecord
2
ACAD_DSTYLE_DIMBREAK
70
0
0
APPID
5
197
100
AcDbSymbolTableRecord
100
AcDbRegAppTableRecord
2
ACAD_DSTYLE_DIM_LINETYPE
70
0
0
APPID
5
198
100
AcDbSymbolTableRecord
100
AcDbRegAppTableRecord
2
ACAD_DSTYLE_DIM_EXT1_LINETYPE
70
0
0
APPID
5
199
100
AcDbSymbolTableRecord
100
AcDbRegAppTableRecord
2
ACAD_DSTYLE_DIM_EXT2_LINETYPE
70
0
0
APPID
5
1D4
100
AcDbSymbolTableRecord
100
AcDbRegAppTableRecord
2
ACAD_MLEADERVER
70
0
0
ENDTAB
0
TABLE
2
BLOCK_RECORD
5
1f5
100
AcDbSymbolTable
0
BLOCK_RECORD
5
1F
100
AcDbSymbolTableRecord
100
AcDbBlockTableRecord
2
*Model_Space
340
0
70
0
0
BLOCK_RECORD
5
1B
100
AcDbSymbolTableRecord
100
AcDbBlockTableRecord
2
*Paper_Space
340
0
70
0
0
BLOCK_RECORD
5
23
100
AcDbSymbolTableRecord
100
AcDbBlockTableRecord
2
*Paper_Space0
340
0
70
0
0
BLOCK_RECORD
5
119
100
AcDbSymbolTableRecord
100
AcDbBlockTableRecord
2
_Closed
340
0
70
0
0
BLOCK_RECORD
5
123
100
AcDbSymbolTableRecord
100
AcDbBlockTableRecord
2
*D2
340
0
70
0
0
BLOCK_RECORD
5
130
100
AcDbSymbolTableRecord
100
AcDbBlockTableRecord
2
_U0
340
0
70
0
0
BLOCK_RECORD
5
140
100
AcDbSymbolTableRecord
100
AcDbBlockTableRecord
2
*D4
340
0
70
0
0
BLOCK_RECORD
5
14F
100
AcDbSymbolTableRecord
100
AcDbBlockTableRecord
2
_U1
340
0
70
0
0
BLOCK_RECORD
5
15F
100
AcDbSymbolTableRecord
100
AcDbBlockTableRecord
2
*D6
340
0
70
0
0
BLOCK_RECORD
5
16B
100
AcDbSymbolTableRecord
100
AcDbBlockTableRecord
2
_U2
340
0
70
0
0
ENDTAB
0
ENDSEC
0
SECTION
2
BLOCKS
0
BLOCK
5
20
100
AcDbEntity
8
0
100
AcDbBlockBegin
2
*Model_Space
70
0
10
0
20
0
30
0
3
*Model_Space
0
ENDBLK
5
21
100
AcDbEntity
8
0
100
AcDbBlockEnd
0
BLOCK
5
1C
100
AcDbEntity
8
0
100
AcDbBlockBegin
2
*Paper_Space
70
0
10
0
20
0
30
0
3
*Paper_Space
0
ENDBLK
5
1D
100
AcDbEntity
8
0
100
AcDbBlockEnd
0
BLOCK
5
24
100
AcDbEntity
8
0
100
AcDbBlockBegin
2
*Paper_Space0
70
0
10
0
20
0
30
0
3
*Paper_Space0
0
ENDBLK
5
25
100
AcDbEntity
8
0
100
AcDbBlockEnd
0
BLOCK
5
11A
100
AcDbEntity
8
0
100
AcDbBlockBegin
2
_Closed
70
0
10
0
20
0
30
0
3
_Closed
0
LINE
5
11C
100
AcDbEntity
8
0
62
256
6
ByLayer
370
-2
48
1
60
0
100
AcDbLine
10
-1
20
0.166667
30
0
11
0
21
0
31
0
39
0
210
0
220
0
230
1
0
LINE
5
11D
100
AcDbEntity
8
0
62
256
6
ByLayer
370
-2
48
1
60
0
100
AcDbLine
10
0
20
0
30
0
11
-1
21
-0.166667
31
0
39
0
210
0
220
0
230
1
0
LINE
5
11E
100
AcDbEntity
8
0
62
256
6
ByLayer
370
-2
48
1
60
0
100
AcDbLine
10
-1
20
0.166667
30
0
11
-1
21
-0.166667
31
0
39
0
210
0
220
0
230
1
0
LINE
5
11F
100
AcDbEntity
8
0
62
256
6
ByLayer
370
-2
48
1
60
0
100
AcDbLine
10
0
20
0
30
0
11
-1
21
0
31
0
39
0
210
0
220
0
230
1
0
ENDBLK
5
11B
100
AcDbEntity
8
0
100
AcDbBlockEnd
0
BLOCK
5
124
100
AcDbEntity
8
0
100
AcDbBlockBegin
2
*D2
70
1
10
0
20
0
30
0
3
*D2
0
LINE
5
126
100
AcDbEntity
8
0
62
256
6
ByLayer
370
-2
48
1
60
0
100
AcDbLine
10
0
20
21.2875
30
0
11
0
21
30.565394
31
0
39
0
210
0
220
0
230
1
0
LINE
5
127
100
AcDbEntity
8
0
62
256
6
ByLayer
370
-2
48
1
60
0
100
AcDbLine
10
19
20
21.0875
30
0
11
19
21
30.565394
31
0
39
0
210
0
220
0
230
1
0
LINE
5
128
100
AcDbEntity
8
0
62
256
6
ByLayer
370
-2
48
1
60
0
100
AcDbLine
10
3.175
20
28.565394
30
0
11
15.825
21
28.565394
31
0
39
0
210
0
220
0
230
1
0
SOLID
5
129
100
AcDbEntity
8
0
62
256
6
ByLayer
370
-1
48
1
60
0
100
AcDbTrace
10
3.175
20
29.094561
30
0
11
3.175
21
28.036227
31
0
12
0
22
28.565394
32
0
13
0
23
28.565394
33
0
39
0
210
0
220
0
230
1
0
SOLID
5
12A
100
AcDbEntity
8
0
62
256
6
ByLayer
370
-1
48
1
60
0
100
AcDbTrace
10
15.825
20
28.036227
30
0
11
15.825
21
29.094561
31
0
12
19
22
28.565394
32
0
13
19
23
28.565394
33
0
39
0
210
0
220
0
230
1
0
MTEXT
5
12B
100
AcDbEntity
8
0
62
256
6
ByLayer
370
18
48
1
60
0
100
AcDbMText
10
9.5
20
34.565394
30
0
210
0
220
0
230
1
1
\A1;19
40
3
41
0
44
1
50
0
71
5
72
5
7
iso_b_vert
0
POINT
5
12C
100
AcDbEntity
8
Defpoints
62
0
6
ByLayer
370
-1
48
1
60
0
100
AcDbPoint
10
0
20
19.7
30
0
39
0
210
0
220
0
230
1
50
360
0
POINT
5
12D
100
AcDbEntity
8
Defpoints
62
0
6
ByLayer
370
-1
48
1
60
0
100
AcDbPoint
10
19
20
19.5
30
0
39
0
210
0
220
0
230
1
50
360
0
POINT
5
12E
100
AcDbEntity
8
Defpoints
62
0
6
ByLayer
370
-1
48
1
60
0
100
AcDbPoint
10
19
20
28.565394
30
0
39
0
210
0
220
0
230
1
50
360
0
ENDBLK
5
125
100
AcDbEntity
8
0
100
AcDbBlockEnd
0
BLOCK
5
13B
100
AcDbEntity
8
0
100
AcDbBlockBegin
2
_U0
70
0
10
0
20
0
30
0
3
_U0
0
MTEXT
5
131
100
AcDbEntity
8
2
62
256
6
ByLayer
370
18
48
1
60
0
100
AcDbMText
10
8.242115
20
29.450508
30
0
210
0
220
0
230
1
1
\W0.5469;19
40
3
41
0
44
1.084337
50
0
71
7
72
5
7
iso_b_vert
0
LINE
5
132
100
AcDbEntity
8
2
62
256
6
ByLayer
370
13
48
1
60
0
100
AcDbLine
10
0
20
21.2875
30
0
11
0
21
30.565394
31
0
39
0
210
0
220
0
230
1
0
LINE
5
133
100
AcDbEntity
8
2
62
256
6
ByLayer
370
13
48
1
60
0
100
AcDbLine
10
19
20
21.0875
30
0
11
19
21
30.565394
31
0
39
0
210
0
220
0
230
1
0
LINE
5
134
100
AcDbEntity
8
2
62
256
6
ByLayer
370
13
48
1
60
0
100
AcDbLine
10
0
20
28.565394
30
0
11
19
21
28.565394
31
0
39
0
210
0
220
0
230
1
0
LINE
5
135
100
AcDbEntity
8
2
62
256
6
ByLayer
370
13
48
1
60
0
100
AcDbLine
10
0
20
28.565394
30
0
11
3.174998
21
28.983391
31
0
39
0
210
0
220
0
230
1
0
LINE
5
136
100
AcDbEntity
8
2
62
256
6
ByLayer
370
13
48
1
60
0
100
AcDbLine
10
0
20
28.565394
30
0
11
3.175002
21
28.147397
31
0
39
0
210
0
220
0
230
1
0
LINE
5
137
100
AcDbEntity
8
2
62
256
6
ByLayer
370
13
48
1
60
0
100
AcDbLine
10
3.174998
20
28.983391
30
0
11
3.175002
21
28.147397
31
0
39
0
210
0
220
0
230
1
0
LINE
5
138
100
AcDbEntity
8
2
62
256
6
ByLayer
370
13
48
1
60
0
100
AcDbLine
10
19
20
28.565394
30
0
11
15.825002
21
28.147397
31
0
39
0
210
0
220
0
230
1
0
LINE
5
139
100
AcDbEntity
8
2
62
256
6
ByLayer
370
13
48
1
60
0
100
AcDbLine
10
19
20
28.565394
30
0
11
15.824998
21
28.983391
31
0
39
0
210
0
220
0
230
1
0
LINE
5
13A
100
AcDbEntity
8
2
62
256
6
ByLayer
370
13
48
1
60
0
100
AcDbLine
10
15.825002
20
28.147397
30
0
11
15.824998
21
28.983391
31
0
39
0
210
0
220
0
230
1
0
ENDBLK
5
13C
100
AcDbEntity
8
0
100
AcDbBlockEnd
0
BLOCK
5
141
100
AcDbEntity
8
0
100
AcDbBlockBegin
2
*D4
70
1
10
0
20
0
30
0
3
*D4
0
LINE
5
143
100
AcDbEntity
8
0
62
256
6
ByLayer
370
-2
48
1
60
0
100
AcDbLine
10
18.5
20
-21.5875
30
0
11
18.5
21
-27.50687
31
0
39
0
210
0
220
0
230
1
0
LINE
5
144
100
AcDbEntity
8
0
62
256
6
ByLayer
370
-2
48
1
60
0
100
AcDbLine
10
19
20
-21.0875
30
0
11
19
21
-27.50687
31
0
39
0
210
0
220
0
230
1
0
LINE
5
145
100
AcDbEntity
8
0
62
256
6
ByLayer
370
-2
48
1
60
0
100
AcDbLine
10
19
20
-25.50687
30
0
11
40.635714
21
-25.50687
31
0
39
0
210
0
220
0
230
1
0
LINE
5
146
100
AcDbEntity
8
0
62
256
6
ByLayer
370
-2
48
1
60
0
100
AcDbLine
10
15.325
20
-25.50687
30
0
11
12.15
21
-25.50687
31
0
39
0
210
0
220
0
230
1
0
LINE
5
147
100
AcDbEntity
8
0
62
256
6
ByLayer
370
-2
48
1
60
0
100
AcDbLine
10
22.175
20
-25.50687
30
0
11
25.35
21
-25.50687
31
0
39
0
210
0
220
0
230
1
0
SOLID
5
148
100
AcDbEntity
8
0
62
256
6
ByLayer
370
-1
48
1
60
0
100
AcDbTrace
10
15.325
20
-26.036037
30
0
11
15.325
21
-24.977704
31
0
12
18.5
22
-25.50687
32
0
13
18.5
23
-25.50687
33
0
39
0
210
0
220
0
230
1
0
SOLID
5
149
100
AcDbEntity
8
0
62
256
6
ByLayer
370
-1
48
1
60
0
100
AcDbTrace
10
22.175
20
-24.977704
30
0
11
22.175
21
-26.036037
31
0
12
19
22
-25.50687
32
0
13
19
23
-25.50687
33
0
39
0
210
0
220
0
230
1
0
MTEXT
5
14A
100
AcDbEntity
8
0
62
256
6
ByLayer
370
18
48
1
60
0
100
AcDbMText
10
32.992857
20
-19.50687
30
0
210
0
220
0
230
1
1
\A1;0.5
40
3
41
0
44
1
50
0
71
5
72
5
7
iso_b_vert
0
POINT
5
14B
100
AcDbEntity
8
Defpoints
62
0
6
ByLayer
370
-1
48
1
60
0
100
AcDbPoint
10
18.5
20
-20
30
0
39
0
210
0
220
0
230
1
50
360
0
POINT
5
14C
100
AcDbEntity
8
Defpoints
62
0
6
ByLayer
370
-1
48
1
60
0
100
AcDbPoint
10
19
20
-19.5
30
0
39
0
210
0
220
0
230
1
50
360
0
POINT
5
14D
100
AcDbEntity
8
Defpoints
62
0
6
ByLayer
370
-1
48
1
60
0
100
AcDbPoint
10
19
20
-25.50687
30
0
39
0
210
0
220
0
230
1
50
360
0
ENDBLK
5
142
100
AcDbEntity
8
0
100
AcDbBlockEnd
0
BLOCK
5
15A
100
AcDbEntity
8
0
100
AcDbBlockBegin
2
_U1
70
0
10
0
20
0
30
0
3
_U1
0
MTEXT
5
150
100
AcDbEntity
8
SK2
62
256
6
ByLayer
370
18
48
1
60
0
100
AcDbMText
10
20.786423
20
-24.621756
30
0
210
0
220
0
230
1
1
\W0.7121;0.5
40
3
41
0
44
1.084337
50
0
71
7
72
5
7
iso_b_vert
0
LINE
5
151
100
AcDbEntity
8
SK2
62
256
6
ByLayer
370
13
48
1
60
0
100
AcDbLine
10
18.5
20
-21.5875
30
0
11
18.5
21
-27.50687
31
0
39
0
210
0
220
0
230
1
0
LINE
5
152
100
AcDbEntity
8
SK2
62
256
6
ByLayer
370
13
48
1
60
0
100
AcDbLine
10
19
20
-21.0875
30
0
11
19
21
-27.50687
31
0
39
0
210
0
220
0
230
1
0
LINE
5
153
100
AcDbEntity
8
SK2
62
256
6
ByLayer
370
13
48
1
60
0
100
AcDbLine
10
25.426508
20
-25.50687
30
0
11
11
21
-25.50687
31
0
39
0
210
0
220
0
230
1
0
LINE
5
154
100
AcDbEntity
8
SK2
62
256
6
ByLayer
370
13
48
1
60
0
100
AcDbLine
10
18.5
20
-25.50687
30
0
11
15.325002
21
-25.924867
31
0
39
0
210
0
220
0
230
1
0
LINE
5
155
100
AcDbEntity
8
SK2
62
256
6
ByLayer
370
13
48
1
60
0
100
AcDbLine
10
18.5
20
-25.50687
30
0
11
15.324998
21
-25.088874
31
0
39
0
210
0
220
0
230
1
0
LINE
5
156
100
AcDbEntity
8
SK2
62
256
6
ByLayer
370
13
48
1
60
0
100
AcDbLine
10
15.325002
20
-25.924867
30
0
11
15.324998
21
-25.088874
31
0
39
0
210
0
220
0
230
1
0
LINE
5
157
100
AcDbEntity
8
SK2
62
256
6
ByLayer
370
13
48
1
60
0
100
AcDbLine
10
19
20
-25.50687
30
0
11
22.174998
21
-25.088874
31
0
39
0
210
0
220
0
230
1
0
LINE
5
158
100
AcDbEntity
8
SK2
62
256
6
ByLayer
370
13
48
1
60
0
100
AcDbLine
10
19
20
-25.50687
30
0
11
22.175002
21
-25.924867
31
0
39
0
210
0
220
0
230
1
0
LINE
5
159
100
AcDbEntity
8
SK2
62
256
6
ByLayer
370
13
48
1
60
0
100
AcDbLine
10
22.174998
20
-25.088874
30
0
11
22.175002
21
-25.924867
31
0
39
0
210
0
220
0
230
1
0
ENDBLK
5
15B
100
AcDbEntity
8
0
100
AcDbBlockEnd
0
BLOCK
5
160
100
AcDbEntity
8
0
100
AcDbBlockBegin
2
*D6
70
1
10
0
20
0
30
0
3
*D6
0
LINE
5
162
100
AcDbEntity
8
0
62
256
6
ByLayer
370
-2
48
1
60
0
100
AcDbLine
10
20.0875
20
20
30
0
11
38.114793
21
20
31
0
39
0
210
0
220
0
230
1
0
LINE
5
163
100
AcDbEntity
8
0
62
256
6
ByLayer
370
-2
48
1
60
0
100
AcDbLine
10
20.0875
20
-20
30
0
11
38.114793
21
-20
31
0
39
0
210
0
220
0
230
1
0
LINE
5
164
100
AcDbEntity
8
0
62
256
6
ByLayer
370
-2
48
1
60
0
100
AcDbLine
10
36.114793
20
16.825
30
0
11
36.114793
21
-16.825
31
0
39
0
210
0
220
0
230
1
0
SOLID
5
165
100
AcDbEntity
8
0
62
256
6
ByLayer
370
-1
48
1
60
0
100
AcDbTrace
10
36.643959
20
16.825
30
0
11
35.585626
21
16.825
31
0
12
36.114793
22
20
32
0
13
36.114793
23
20
33
0
39
0
210
0
220
0
230
1
0
SOLID
5
166
100
AcDbEntity
8
0
62
256
6
ByLayer
370
-1
48
1
60
0
100
AcDbTrace
10
35.585626
20
-16.825
30
0
11
36.643959
21
-16.825
31
0
12
36.114793
22
-20
32
0
13
36.114793
23
-20
33
0
39
0
210
0
220
0
230
1
0
MTEXT
5
167
100
AcDbEntity
8
0
62
256
6
ByLayer
370
18
48
1
60
0
100
AcDbMText
10
30.114793
20
0
30
0
210
0
220
0
230
1
1
\A1;40
40
3
41
0
44
1
50
90
71
5
72
5
7
iso_b_vert
0
POINT
5
168
100
AcDbEntity
8
Defpoints
62
0
6
ByLayer
370
-1
48
1
60
0
100
AcDbPoint
10
18.5
20
20
30
0
39
0
210
0
220
0
230
1
50
360
0
POINT
5
169
100
AcDbEntity
8
Defpoints
62
0
6
ByLayer
370
-1
48
1
60
0
100
AcDbPoint
10
18.5
20
-20
30
0
39
0
210
0
220
0
230
1
50
360
0
POINT
5
16A
100
AcDbEntity
8
Defpoints
62
0
6
ByLayer
370
-1
48
1
60
0
100
AcDbPoint
10
36.114793
20
-20
30
0
39
0
210
0
220
0
230
1
50
360
0
ENDBLK
5
161
100
AcDbEntity
8
0
100
AcDbBlockEnd
0
BLOCK
5
177
100
AcDbEntity
8
0
100
AcDbBlockBegin
2
_U2
70
0
10
0
20
0
30
0
3
_U2
0
MTEXT
5
16C
100
AcDbEntity
8
SK2
62
256
6
ByLayer
370
18
48
1
60
0
100
AcDbMText
10
34.773678
20
1.935229
30
0
210
0
220
0
230
1
1
\W0.7361;40
40
3
41
0
44
1.084337
50
90
71
7
72
5
7
iso_b_vert
0
MTEXT
5
16D
100
AcDbEntity
8
SK2
62
256
6
ByLayer
370
18
48
1
60
0
100
AcDbMText
10
34.773678
20
-5.564771
30
0
210
0
220
0
230
1
1
%%c
40
3
41
0
44
1.084337
50
90
71
7
72
5
7
iso_b_vert
0
LINE
5
16E
100
AcDbEntity
8
SK2
62
256
6
ByLayer
370
13
48
1
60
0
100
AcDbLine
10
20.0875
20
20
30
0
11
38.114793
21
20
31
0
39
0
210
0
220
0
230
1
0
LINE
5
16F
100
AcDbEntity
8
SK2
62
256
6
ByLayer
370
13
48
1
60
0
100
AcDbLine
10
20.0875
20
-20
30
0
11
38.114793
21
-20
31
0
39
0
210
0
220
0
230
1
0
LINE
5
170
100
AcDbEntity
8
SK2
62
256
6
ByLayer
370
13
48
1
60
0
100
AcDbLine
10
36.114793
20
20
30
0
11
36.114793
21
-20
31
0
39
0
210
0
220
0
230
1
0
LINE
5
171
100
AcDbEntity
8
SK2
62
256
6
ByLayer
370
13
48
1
60
0
100
AcDbLine
10
36.114793
20
20
30
0
11
36.532789
21
16.825002
31
0
39
0
210
0
220
0
230
1
0
LINE
5
172
100
AcDbEntity
8
SK2
62
256
6
ByLayer
370
13
48
1
60
0
100
AcDbLine
10
36.114793
20
20
30
0
11
35.696796
21
16.824998
31
0
39
0
210
0
220
0
230
1
0
LINE
5
173
100
AcDbEntity
8
SK2
62
256
6
ByLayer
370
13
48
1
60
0
100
AcDbLine
10
36.532789
20
16.825002
30
0
11
35.696796
21
16.824998
31
0
39
0
210
0
220
0
230
1
0
LINE
5
174
100
AcDbEntity
8
SK2
62
256
6
ByLayer
370
13
48
1
60
0
100
AcDbLine
10
36.114793
20
-20
30
0
11
35.696796
21
-16.825002
31
0
39
0
210
0
220
0
230
1
0
LINE
5
175
100
AcDbEntity
8
SK2
62
256
6
ByLayer
370
13
48
1
60
0
100
AcDbLine
10
36.114793
20
-20
30
0
11
36.532789
21
-16.824998
31
0
39
0
210
0
220
0
230
1
0
LINE
5
176
100
AcDbEntity
8
SK2
62
256
6
ByLayer
370
13
48
1
60
0
100
AcDbLine
10
35.696796
20
-16.825002
30
0
11
36.532789
21
-16.824998
31
0
39
0
210
0
220
0
230
1
0
ENDBLK
5
178
100
AcDbEntity
8
0
100
AcDbBlockEnd
0
ENDSEC
0
SECTION
2
ENTITIES
0
ARC
5
D4
100
AcDbEntity
8
SK3
62
256
6
ByLayer
370
18
48
0.05
60
0
100
AcDbCircle
39
0
10
-17.450801
20
-9.05
30
0
40
0.949999999999989
210
0
220
0
230
1
100
AcDbArc
50
270
51
315
0
ARC
5
D5
100
AcDbEntity
8
SK3
62
256
6
ByLayer
370
18
48
0.05
60
0
100
AcDbCircle
39
0
10
-17.450801
20
9.05
30
0
40
0.950000000000016
210
0
220
0
230
1
100
AcDbArc
50
45
51
90
0
ARC
5
D6
100
AcDbEntity
8
SK1
62
256
6
ByLayer
370
18
48
1
60
0
100
AcDbCircle
39
0
10
-0.6
20
15
30
0
40
1.00000000000001
210
0
220
0
230
1
100
AcDbArc
50
225
51
306.86908
0
ARC
5
D7
100
AcDbEntity
8
SK1
62
256
6
ByLayer
370
18
48
1
60
0
100
AcDbCircle
39
0
10
-0.6
20
-15
30
0
40
0.999999999999997
210
0
220
0
230
1
100
AcDbArc
50
53.129143
51
66.421822
0
ARC
5
D8
100
AcDbEntity
8
SK3
62
256
6
ByLayer
370
18
48
0.05
60
0
100
AcDbCircle
39
0
10
-18.5397
20
-9.05
30
0
40
0.950000000000005
210
0
220
0
230
1
100
AcDbArc
50
191.748795
51
270
0
ARC
5
D9
100
AcDbEntity
8
SK3
62
256
6
ByLayer
370
18
48
0.05
60
0
100
AcDbCircle
39
0
10
-18.5397
20
9.05
30
0
40
0.949999999999989
210
0
220
0
230
1
100
AcDbArc
50
90
51
168.251205
0
ELLIPSE
5
DA
100
AcDbEntity
8
1
62
256
6
ByLayer
370
18
48
1
60
0
100
AcDbEllipse
10
16.948927
20
1E-06
30
0
11
9.36747888392714
21
19.741701798358
31
0
210
0
220
0
230
1
40
0.341994
41
2.04527438076529
42
2.98886766336688
0
ELLIPSE
5
DB
100
AcDbEntity
8
1
62
256
6
ByLayer
370
18
48
1
60
0
100
AcDbEllipse
10
-0.948933
20
1E-06
30
0
11
-9.36734010832735
21
19.7416944817977
31
0
210
0
220
0
230
1
40
0.342004
41
-2.98886595516553
42
-2.0452726725645
0
ELLIPSE
5
DC
100
AcDbEntity
8
1
62
256
6
ByLayer
370
18
48
1
60
0
100
AcDbEllipse
10
16.948927
20
1E-06
30
0
11
-9.36734010830321
21
19.7416944817677
31
0
210
0
220
0
230
1
40
0.342004
41
0.152726698424448
42
1.09631998102647
0
ELLIPSE
5
DD
100
AcDbEntity
8
1
62
256
6
ByLayer
370
18
48
1
60
0
100
AcDbEllipse
10
-0.948933
20
1E-06
30
0
11
9.36747888391034
21
19.7417017983367
31
0
210
0
220
0
230
1
40
0.341994
41
-1.09631827282535
42
-0.152724990223059
0
POINT
5
70
100
AcDbEntity
8
80
62
256
6
ByLayer
370
18
48
1
60
0
100
AcDbPoint
10
0
20
0
30
0
39
0
210
0
220
0
230
1
50
360
0
POINT
5
72
100
AcDbEntity
8
81
62
256
6
ByLayer
370
18
48
1
60
0
100
AcDbPoint
10
10.5
20
0
30
0
39
0
210
0
220
0
230
1
50
360
0
SPLINE
5
DE
100
AcDbEntity
8
SK1
62
256
6
ByLayer
370
18
48
0.05
60
0
100
AcDbSpline
70
4
71
3
72
12
73
8
40
0
40
0
40
0
40
0
40
0.437230685511764
40
0.437230685511764
40
0.874461371023527
40
0.874461371023527
40
1
40
1
40
1
40
1
41
1
10
-1.69981617749619
20
-9.4750394184704
30
0
41
1
10
-1.69949079645639
20
-9.43915343028979
30
0
41
1
10
-1.69873086468991
20
-9.402878499396
30
0
41
1
10
-1.69596445645109
20
-9.32933262744041
30
0
41
1
10
-1.69398620807939
20
-9.29207808112869
30
0
41
1
10
-1.6900236444709
20
-9.24312987248501
30
0
41
1
10
-1.68904777559371
20
-9.23214414915859
30
0
41
1
10
-1.6879463864712
20
-9.2210759816185
30
0
0
SPLINE
5
DF
100
AcDbEntity
8
SK1
62
256
6
ByLayer
370
18
48
0.05
60
0
100
AcDbSpline
70
4
71
3
72
8
73
4
40
0
40
0
40
0
40
0
40
1
40
1
40
1
40
1
41
1
10
-1.69988459075461
20
-4.75254253265149
30
0
41
1
10
-1.69988207416481
20
-4.8299128498318
30
0
41
1
10
-1.69987949990639
20
-4.9071604986392
30
0
41
1
10
-1.6998768778688
20
-4.98421453226419
30
0
0
SPLINE
5
E0
100
AcDbEntity
8
SK1
62
256
6
ByLayer
370
18
48
1
60
0
100
AcDbSpline
70
4
71
3
72
13
73
9
40
0
40
0
40
0
40
0
40
0.239456844444074
40
0.368360660267553
40
0.499999999996758
40
0.631639339726337
40
0.760543155550993
40
1
40
1
40
1
40
1
41
1
10
-0.40000047824671
20
-12.9251231455897
30
0
41
1
10
-0.373928269359794
20
-12.9253764100135
30
0
41
1
10
-0.336364844946786
20
-12.9324943744606
30
0
41
1
10
-0.289522092242294
20
-12.9567224508072
30
0
41
1
10
-0.257577810235404
20
-12.9827004775758
30
0
41
1
10
-0.231599783465583
20
-13.0146447595811
30
0
41
1
10
-0.207371707117801
20
-13.0614875122833
30
0
41
1
10
-0.200253742670299
20
-13.0990509366936
30
0
41
1
10
-0.200000478246608
20
-13.1251231455783
30
0
0
SPLINE
5
E1
100
AcDbEntity
8
SK1
62
256
6
ByLayer
370
18
48
1
60
0
100
AcDbSpline
70
4
71
3
72
20
73
16
40
0
40
0
40
0
40
0
40
0.0129313983255654
40
0.111612636227711
40
0.210293874129857
40
0.308975112032003
40
0.407656349934149
40
0.506337587836295
40
0.60501882573844
40
0.703700063640586
40
0.802381301542732
40
0.901062539444878
40
0.999743777347024
40
0.999743777347024
40
1
40
1
40
1
40
1
41
1
10
-0.40000047824671
20
-10.8022346345244
30
0
41
1
10
-0.40000047824671
20
-10.8169582847688
30
0
41
1
10
-0.40000047824671
20
-10.9439016274769
30
0
41
1
10
-0.40000047824671
20
-11.1805440704629
30
0
41
1
10
-0.40000047824671
20
-11.5014470397082
30
0
41
1
10
-0.40000047824671
20
-11.8039004275318
30
0
41
1
10
-0.40000047824671
20
-12.0816446894877
30
0
41
1
10
-0.40000047824671
20
-12.32862637012
30
0
41
1
10
-0.40000047824671
20
-12.539245157613
30
0
41
1
10
-0.40000047824671
20
-12.7085751093963
30
0
41
1
10
-0.40000047824671
20
-12.8325652440045
30
0
41
1
10
-0.40000047824671
20
-12.9082022892383
30
0
41
1
10
-0.40000047824671
20
-12.9251543086447
30
0
41
1
10
-0.40000047824671
20
-12.925134785925
30
0
41
1
10
-0.40000047824671
20
-12.925124784925
30
0
41
1
10
-0.40000047824671
20
-12.925114783925
30
0
0
SPLINE
5
E2
100
AcDbEntity
8
SK1
62
256
6
ByLayer
370
18
48
1
60
0
100
AcDbSpline
70
4
71
2
72
6
73
3
40
0
40
0
40
0
40
1
40
1
40
1
41
1
10
-1.5000004782467
20
-12.9251231455897
30
0
41
1
10
-0.950000478246608
20
-12.9251231455897
30
0
41
1
10
-0.40000047824671
20
-12.9251231455897
30
0
0
SPLINE
5
E3
100
AcDbEntity
8
SK1
62
256
6
ByLayer
370
18
48
1
60
0
100
AcDbSpline
70
4
71
3
72
24
73
20
40
0
40
0
40
0
40
0
40
0.0276964563325441
40
0.0971416079161307
40
0.166586759499717
40
0.236031911083304
40
0.305477062666891
40
0.374922214250477
40
0.444367365834064
40
0.513812517417651
40
0.583257669001237
40
0.652702820584824
40
0.722147972168411
40
0.791593123751997
40
0.861038275335584
40
0.930483426919171
40
0.999928578502757
40
0.999928578502757
40
1
40
1
40
1
40
1
41
1
10
-1.50000047824659
20
-9.37467245322719
30
0
41
1
10
-1.50000047824659
20
-9.417249740828
30
0
41
1
10
-1.50000047824659
20
-9.56755932759521
30
0
41
1
10
-1.50000047824659
20
-9.83088541715929
30
0
41
1
10
-1.50000047824659
20
-10.1675746524685
30
0
41
1
10
-1.50000047824659
20
-10.5079571278498
30
0
41
1
10
-1.50000047824659
20
-10.8474078441605
30
0
41
1
10
-1.50000047824659
20
-11.1805440704629
30
0
41
1
10
-1.50000047824659
20
-11.5014470397082
30
0
41
1
10
-1.50000047824659
20
-11.8039004275318
30
0
41
1
10
-1.50000047824659
20
-12.0816446894877
30
0
41
1
10
-1.50000047824659
20
-12.32862637012
30
0
41
1
10
-1.5000004782467
20
-12.539245157613
30
0
41
1
10
-1.50000047824659
20
-12.7085751093963
30
0
41
1
10
-1.50000047824659
20
-12.8325652440045
30
0
41
1
10
-1.5000004782467
20
-12.9082022892383
30
0
41
1
10
-1.5000004782467
20
-12.9251543086447
30
0
41
1
10
-1.5000004782467
20
-12.9251348343613
30
0
41
1
10
-1.5000004782467
20
-12.9251248333613
30
0
41
1
10
-1.5000004782467
20
-12.9251148323613
30
0
0
SPLINE
5
E4
100
AcDbEntity
8
SK1
62
256
6
ByLayer
370
18
48
1
60
0
100
AcDbSpline
70
4
71
3
72
13
73
9
40
0
40
0
40
0
40
0
40
0.240326845088771
40
0.369335393353217
40
0.500891875428648
40
0.632318404511053
40
0.760952688076097
40
1
40
1
40
1
40
1
41
1
10
-1.69997253328839
20
-13.1217799132672
30
0
41
1
10
-1.69929400983949
20
-13.0959126117421
30
0
41
1
10
-1.69165836395439
20
-13.058757937593
30
0
41
1
10
-1.6670430478234
20
-13.0126550320635
30
0
41
1
10
-1.64101303750789
20
-12.9813503440168
30
0
41
1
10
-1.60923927911858
20
-12.9559575330575
30
0
41
1
10
-1.56284583800749
20
-12.9323097144732
30
0
41
1
10
-1.52572722394891
20
-12.9253641718381
30
0
41
1
10
-1.5000004782467
20
-12.9251231455897
30
0
0
SPLINE
5
E5
100
AcDbEntity
8
SK1
62
256
6
ByLayer
370
18
48
1
60
0
100
AcDbSpline
70
4
71
3
72
108
73
104
40
0
40
0
40
0
40
0
40
0.0626169194343396
40
0.0782711492929245
40
0.0802279280252477
40
0.0804725253667881
40
0.0804725253667881
40
0.0805948240375582
40
0.0805948240375582
40
0.0807171227083284
40
0.0812063173914092
40
0.0821847067575708
40
0.0860982642222172
40
0.09392537915151
40
0.125233838868681
40
0.187850758303024
40
0.20350498816161
40
0.211332103090903
40
0.211821297773984
40
0.212065895115524
40
0.212096469783217
40
0.212096469783217
40
0.212127044450909
40
0.212127044450909
40
0.212188193786294
40
0.212310492457064
40
0.213288881823223
40
0.215245660555541
40
0.219159218020177
40
0.250467677737265
40
0.313084597171441
40
0.328738827029985
40
0.336565941959257
40
0.340479499423893
40
0.342436278156211
40
0.34341466752237
40
0.34365926486391
40
0.34365926486391
40
0.34378156353468
40
0.34378156353468
40
0.34390386220545
40
0.344393056888529
40
0.375701516605598
40
0.438318436039736
40
0.469626895756804
40
0.473540453221438
40
0.474518842587596
40
0.475008037270675
40
0.475252634612215
40
0.4753137839476
40
0.4753137839476
40
0.475374933282985
40
0.475374933282985
40
0.475497231953755
40
0.477454010686071
40
0.485281125615336
40
0.500935355473867
40
0.563552274907991
40
0.594860734625053
40
0.602687849554319
40
0.606601407018951
40
0.606601407018951
40
0.607090601702031
40
0.607090601702031
40
0.60757979638511
40
0.608558185751268
40
0.610514964483584
40
0.626169194342116
40
0.688786113776245
40
0.720094573493309
40
0.735748803351841
40
0.737705582084157
40
0.738194776767236
40
0.738439374108776
40
0.738561672779546
40
0.738561672779546
40
0.738683971450316
40
0.738683971450316
40
0.739662360816474
40
0.743575918281109
40
0.751403033210378
40
0.81401995264453
40
0.845328412361606
40
0.860982642220144
40
0.868809757149413
40
0.869788146515572
40
0.870032743857111
40
0.870155042527881
40
0.870216191863266
40
0.870231479197112
40
0.870231479197112
40
0.870246766530958
40
0.870246766530958
40
0.870277341198651
40
0.870766535881727
40
0.872723314614033
40
0.876636872078644
40
0.939253791512423
40
0.970562251229313
40
0.986216481087757
40
0.99404359601698
40
0.997957153481591
40
1
40
1
40
1
40
1
41
1
10
-24.0000004782467
20
-11.5855784011521
30
0
41
1
10
-24.0000004782467
20
-11.5077681844512
30
0
41
1
10
-24.0000004782467
20
-11.3508933514957
30
0
41
1
10
-24.0000004782467
20
-11.1137186931772
30
0
41
1
10
-24.0000004782467
20
-11.0571081506146
30
0
41
1
10
-24.0000004782467
20
-11.0500698260641
30
0
41
1
10
-24.0000004782467
20
-11.0488956804429
30
0
41
1
10
-24.0000004782467
20
-11.0484554155333
30
0
41
1
10
-24.0000004782467
20
-11.0475971004009
30
0
41
1
10
-24.0000004782467
20
-11.045450394663
30
0
41
1
10
-24.0000004782467
20
-11.0398570269581
30
0
41
1
10
-24.0000004782467
20
-11.02082869763
30
0
41
1
10
-24.0000004782467
20
-10.9750889481563
30
0
41
1
10
-24.0000004782467
20
-10.8140739080819
30
0
41
1
10
-24.0000004782467
20
-10.3846162108628
30
0
41
1
10
-24.0000004782467
20
-9.79579585243599
30
0
41
1
10
-24.0000004782467
20
-9.25043688087331
30
0
41
1
10
-24.0000004782467
20
-9.09169545275569
30
0
41
1
10
-24.0000004782467
20
-9.034128238438
30
0
41
1
10
-24.0000004782467
20
-9.02898142428839
30
0
41
1
10
-24.0000004782467
20
-9.02712764181399
30
0
41
1
10
-24.0000004782467
20
-9.02671566720531
30
0
41
1
10
-24.0000004782467
20
-9.0265344481013
30
0
41
1
10
-24.0000004782467
20
-9.0257929044478
30
0
41
1
10
-24.0000004782467
20
-9.02430966453699
30
0
41
1
10
-24.0000004782467
20
-9.01491291229951
30
0
41
1
10
-24.0000004782467
20
-8.99013883583939
30
0
41
1
10
-24.0000004782467
20
-8.9343714388084
30
0
41
1
10
-24.0000004782467
20
-8.6286650838133
30
0
41
1
10
-24.0000004782467
20
-7.77729483130179
30
0
41
1
10
-24.0000004782467
20
-6.68374567919449
30
0
41
1
10
-24.0000004782467
20
-5.7328523476437
30
0
41
1
10
-24.0000004782467
20
-5.42154447418301
30
0
41
1
10
-24.0000004782467
20
-5.26370281136991
30
0
41
1
10
-24.0000004782467
20
-5.1842350484427
30
0
41
1
10
-24.0000004782467
20
-5.1472123351235
30
0
41
1
10
-24.0000004782467
20
-5.13295248284589
30
0
41
1
10
-24.0000004782467
20
-5.12867330633341
30
0
41
1
10
-24.0000004782467
20
-5.1272402783394
30
0
41
1
10
-24.0000004782467
20
-5.12451156989621
30
0
41
1
10
-24.0000004782467
20
-5.11768905860919
30
0
41
1
10
-24.0000004782467
20
-4.7613607827324
30
0
41
1
10
-24.0000004782467
20
-3.67767987957791
30
0
41
1
10
-24.0000004782467
20
-2.12383850124559
30
0
41
1
10
-24.0000004782467
20
-0.8189467394715
30
0
41
1
10
-24.0000004782467
20
-0.323517033202904
30
0
41
1
10
-24.0000004782467
20
-0.249611533887986
30
0
41
1
10
-24.0000004782467
20
-0.226071277730796
30
0
41
1
10
-24.0000004782467
20
-0.215136099690909
30
0
41
1
10
-24.0000004782467
20
-0.210929336759591
30
0
41
1
10
-24.0000004782467
20
-0.209246557569088
30
0
41
1
10
-24.0000004782467
20
-0.20833704915691
30
0
41
1
10
-24.0000004782467
20
-0.206147397368312
30
0
41
1
10
-24.0000004782467
20
-0.181331475125887
30
0
41
1
10
-24.0000004782467
20
-0.0631015446510901
30
0
41
1
10
-24.0000004782467
20
0.240372660914005
30
0
41
1
10
-24.0000004782467
20
1.26647166990281
30
0
41
1
10
-24.0000004782467
20
2.56798483770311
30
0
41
1
10
-24.0000004782467
20
3.77159535086409
30
0
41
1
10
-24.0000004782466
20
4.27994480335471
30
0
41
1
10
-24.0000004782467
20
4.41851435021559
30
0
41
1
10
-24.0000004782467
20
4.4704690286749
30
0
41
1
10
-24.0000004782466
20
4.4763074785717
30
0
41
1
10
-24.0000004782467
20
4.48750418122381
30
0
41
1
10
-24.0000004782466
20
4.50429407611219
30
0
41
1
10
-24.0000004782466
20
4.54343438388881
30
0
41
1
10
-24.0000004782466
20
4.75551824955619
30
0
41
1
10
-24.0000004782466
20
5.6606744755679
30
0
41
1
10
-24.0000004782467
20
6.83535149076869
30
0
41
1
10
-24.0000004782466
20
7.93606779279591
30
0
41
1
10
-24.0000004782466
20
8.41094991129609
30
0
41
1
10
-24.0000004782466
20
8.5843656592142
30
0
41
1
10
-24.0000004782466
20
8.61009638413901
30
0
41
1
10
-24.0000004782466
20
8.61827891877499
30
0
41
1
10
-24.0000004782466
20
8.62178475200389
30
0
41
1
10
-24.0000004782466
20
8.62412175919451
30
0
41
1
10
-24.0000004782466
20
8.62535291947219
30
0
41
1
10
-24.0000004782466
20
8.63658094471899
30
0
41
1
10
-24.0000004782466
20
8.68641428290911
30
0
41
1
10
-24.0000004782466
20
8.81508401108309
30
0
41
1
10
-24.0000004782466
20
9.55472212315169
30
0
41
1
10
-24.0000004782466
20
10.4635297179831
30
0
41
1
10
-24.0000004782466
20
11.2938760748041
30
0
41
1
10
-24.0000004782466
20
11.6719568745807
30
0
41
1
10
-24.0000004782466
20
11.8324633971072
30
0
41
1
10
-24.0000004782466
20
11.8907020230457
30
0
41
1
10
-24.0000004782466
20
11.8993353986332
30
0
41
1
10
-24.0000004782466
20
11.9020801178355
30
0
41
1
10
-24.0000004782466
20
11.9033539261935
30
0
41
1
10
-24.0000004782466
20
11.9038437682612
30
0
41
1
10
-24.0000004782466
20
11.9040396983503
30
0
41
1
10
-24.0000004782466
20
11.9041821637742
30
0
41
1
10
-24.0000004782466
20
11.9045543661126
30
0
41
1
10
-24.0000004782466
20
11.9087721613215
30
0
41
1
10
-24.0000004782466
20
11.928828380223
30
0
41
1
10
-24.0000004782466
20
11.9798433547647
30
0
41
1
10
-24.0000004782466
20
12.5166375920346
30
0
41
1
10
-24.0000004782466
20
13.0795221820871
30
0
41
1
10
-24.0000004782466
20
13.3874493387958
30
0
41
1
10
-24.0000004782466
20
13.4607870211125
30
0
41
1
10
-24.0000004782466
20
13.4772993882615
30
0
41
1
10
-24.0000004782466
20
13.4805164533337
30
0
41
1
10
-24.0000004782466
20
13.4808197671701
30
0
41
1
10
-24.0000004782466
20
13.4807930280867
30
0
0
SPLINE
5
E6
100
AcDbEntity
8
SK1
62
256
6
ByLayer
370
18
48
1
60
0
100
AcDbSpline
70
4
71
3
72
14
73
10
40
0
40
0
40
0
40
0
40
0.25
40
0.25
40
0.5
40
0.5
40
0.75
40
0.75
40
1
40
1
40
1
40
1
41
1
10
-24.0000004782467
20
-11.5850313816875
30
0
41
1
10
-23.8845993627277
20
-11.6466875432089
30
0
41
1
10
-23.7659665611974
20
-11.710398395945
30
0
41
1
10
-23.5235869507066
20
-11.8413112210075
30
0
41
1
10
-23.3998160170359
20
-11.9085259185601
30
0
41
1
10
-23.1480552905942
20
-12.0460504445839
30
0
41
1
10
-23.0204461444311
20
-12.1161520325615
30
0
41
1
10
-22.7623210274752
20
-12.2587962140959
30
0
41
1
10
-22.631999834182
20
-12.331230976144
30
0
41
1
10
-22.5005864772336
20
-12.4047107614306
30
0
0
SPLINE
5
E7
100
AcDbEntity
8
SK1
62
256
6
ByLayer
370
18
48
1
60
0
100
AcDbSpline
70
4
71
3
72
14
73
10
40
0
40
0
40
0
40
0
40
0.25
40
0.25
40
0.5
40
0.5
40
0.75
40
0.75
40
1
40
1
40
1
40
1
41
1
10
-22.5005856116403
20
-12.4061435821959
30
0
41
1
10
-22.6319666228441
20
-12.3326689060274
30
0
41
1
10
-22.76226344971
20
-12.2602323186923
30
0
41
1
10
-23.0203241445954
20
-12.1175854881185
30
0
41
1
10
-23.1478420355323
20
-12.0475113478349
30
0
41
1
10
-23.3993205900457
20
-11.9100837588206
30
0
41
1
10
-23.523398700075
20
-11.8426677777968
30
0
41
1
10
-23.7660093159122
20
-11.711549234157
30
0
41
1
10
-23.8846689868952
20
-11.6477769468115
30
0
41
1
10
-24.0000004782467
20
-11.5861013650424
30
0
0
SPLINE
5
E8
100
AcDbEntity
8
SK1
62
256
6
ByLayer
370
18
48
1
60
0
100
AcDbSpline
70
4
71
2
72
6
73
3
40
0
40
0
40
0
40
1
40
1
40
1
41
1
10
-22.500473494238
20
14.3975020077098
30
0
41
1
10
-23.2502369509629
20
13.939144706297
30
0
41
1
10
-24.0000004782466
20
13.480787696213
30
0
0
SPLINE
5
E9
100
AcDbEntity
8
SK1
62
256
6
ByLayer
370
18
48
1
60
0
100
AcDbSpline
70
4
71
3
72
10
73
6
40
0
40
0
40
0
40
0
40
0.5
40
0.5
40
1
40
1
40
1
40
1
41
1
10
-1.30710725943319
20
13.8350249071727
30
0
41
1
10
-1.34125830989331
20
13.9140290349351
30
0
41
1
10
-1.37465238293001
20
13.9890807393346
30
0
41
1
10
-1.43922205431059
20
14.1306015047074
30
0
41
1
10
-1.470394131348
20
14.1970682790604
30
0
41
1
10
-1.50000047824651
20
14.2587661967671
30
0
0
SPLINE
5
EA
100
AcDbEntity
8
SK1
62
256
6
ByLayer
370
18
48
1
60
0
100
AcDbSpline
70
4
71
3
72
28
73
24
40
0
40
0
40
0
40
0
40
0.0417312559959305
40
0.0909180403889886
40
0.140104824782047
40
0.189291609175105
40
0.238478393568163
40
0.287665177961221
40
0.336851962354279
40
0.386038746747337
40
0.435225531140395
40
0.484412315533453
40
0.533599099926511
40
0.582785884319569
40
0.631972668712627
40
0.681159453105685
40
0.730346237498743
40
0.779533021891801
40
0.828719806284859
40
0.877906590677917
40
0.927093375070975
40
0.976280159464033
40
1
40
1
40
1
40
1
41
1
10
-0.400000478246597
20
13.1537661319113
30
0
41
1
10
-0.400000478246597
20
13.0501444485065
30
0
41
1
10
-0.400000478246597
20
12.8095791603905
30
0
41
1
10
-0.400000478246597
20
12.3870060603987
30
0
41
1
10
-0.400000478246597
20
11.8810508451797
30
0
41
1
10
-0.400000478246597
20
11.3136347745397
30
0
41
1
10
-0.400000478246597
20
10.6855295649021
30
0
41
1
10
-0.400000478246597
20
9.9989000863325
30
0
41
1
10
-0.400000478246597
20
9.2573120500054
30
0
41
1
10
-0.400000478246597
20
8.46568652503791
30
0
41
1
10
-0.400000478246597
20
7.63020376086541
30
0
41
1
10
-0.400000478246597
20
6.75816113916619
30
0
41
1
10
-0.400000478246597
20
5.8577852936412
30
0
41
1
10
-0.400000478246597
20
4.93801306235309
30
0
41
1
10
-0.400000478246597
20
4.00823807548721
30
0
41
1
10
-0.400000478246597
20
3.0780460916082
30
0
41
1
10
-0.400000478246597
20
2.1569323240274
30
0
41
1
10
-0.400000478246597
20
1.25402965005651
30
0
41
1
10
-0.400000478246597
20
0.377837596080809
30
0
41
1
10
-0.400000478246597
20
-0.464016760148496
30
0
41
1
10
-0.400000478246597
20
-1.26499893622201
30
0
41
1
10
-0.400000478246597
20
-1.88956278102819
30
0
41
1
10
-0.400000478246597
20
-2.24420014606969
30
0
41
1
10
-0.400000478246597
20
-2.35759665172
30
0
0
SPLINE
5
EB
100
AcDbEntity
8
SK1
62
256
6
ByLayer
370
18
48
1
60
0
100
AcDbSpline
70
4
71
3
72
10
73
6
40
0
40
0
40
0
40
0
40
0.5
40
0.5
40
1
40
1
40
1
40
1
41
1
10
-1.5000004782467
20
-4.89016817062401
30
0
41
1
10
-1.47031655393118
20
-4.70742800196041
30
0
41
1
10
-1.43911116791139
20
-4.52426867209351
30
0
41
1
10
-1.37455415295778
20
-4.15709919210951
30
0
41
1
10
-1.34119449504641
20
-3.9730891981487
30
0
41
1
10
-1.30710725943319
20
-3.78864467718211
30
0
0
SPLINE
5
EC
100
AcDbEntity
8
SK1
62
256
6
ByLayer
370
18
48
1
60
0
100
AcDbSpline
70
4
71
3
72
50
73
46
40
0
40
0
40
0
40
0
40
0.125000000000008
40
0.125000000000008
40
0.250000000000017
40
0.250000000000017
40
0.312500000000021
40
0.312500000000021
40
0.375000000000025
40
0.375000000000025
40
0.43750000000003
40
0.43750000000003
40
0.468750000000033
40
0.468750000000033
40
0.484375000000035
40
0.484375000000035
40
0.500000000000036
40
0.500000000000036
40
0.507812500000036
40
0.507812500000036
40
0.515625000000036
40
0.515625000000036
40
0.523437500000035
40
0.523437500000035
40
0.531250000000035
40
0.531250000000035
40
0.539062500000034
40
0.539062500000034
40
0.546875000000034
40
0.546875000000034
40
0.562500000000032
40
0.562500000000032
40
0.57812500000003
40
0.57812500000003
40
0.593750000000028
40
0.593750000000028
40
0.625000000000026
40
0.625000000000026
40
0.687500000000023
40
0.687500000000023
40
0.750000000000019
40
0.750000000000019
40
0.87500000000001
40
0.87500000000001
40
1
40
1
40
1
40
1
41
1
10
-1.50000047824659
20
-9.3746723976414
30
0
41
1
10
-1.50736350123569
20
-9.34469165069291
30
0
41
1
10
-1.51501252766579
20
-9.31480805903399
30
0
41
1
10
-1.53112781661508
20
-9.2554689769116
30
0
41
1
10
-1.53958117827568
20
-9.22600130038441
30
0
41
1
10
-1.55329388668119
20
-9.18251919162901
30
0
41
1
10
-1.5580395566781
20
-9.16814756972121
30
0
41
1
10
-1.56805011942629
20
-9.13980973832909
30
0
41
1
10
-1.57331243736121
20
-9.12582497173659
30
0
41
1
10
-1.58469171592029
20
-9.0986659505491
30
0
41
1
10
-1.5907662889982
20
-9.08545341762499
30
0
41
1
10
-1.601301411582
20
-9.0670918059817
30
0
41
1
10
-1.60504559525199
20
-9.06122432743419
30
0
41
1
10
-1.6113493274951
20
-9.05326405929691
30
0
41
1
10
-1.61356239933619
20
-9.05075872575611
30
0
41
1
10
-1.61835892797089
20
-9.0462428405275
30
0
41
1
10
-1.62094113468188
20
-9.0442222483488
30
0
41
1
10
-1.62523812594989
20
-9.04198836545109
30
0
41
1
10
-1.62674473399349
20
-9.04137576491601
30
0
41
1
10
-1.62999400216108
20
-9.04057122109609
30
0
41
1
10
-1.63176579711271
20
-9.04037676543891
30
0
41
1
10
-1.63555360593941
20
-9.04074569307991
30
0
41
1
10
-1.63761018670991
20
-9.04133138107051
30
0
41
1
10
-1.6417492374247
20
-9.04354702050409
30
0
41
1
10
-1.64388394913269
20
-9.0452273874852
30
0
41
1
10
-1.64778850846301
20
-9.04930428786739
30
0
41
1
10
-1.6495857334728
20
-9.0516942108805
30
0
41
1
10
-1.6527849711637
20
-9.05664964386119
30
0
41
1
10
-1.6542268574081
20
-9.0592675573414
30
0
41
1
10
-1.6581175413576
20
-9.0670959890775
30
0
41
1
10
-1.6602355532078
20
-9.07243810520251
30
0
41
1
10
-1.66396100655189
20
-9.08299648899691
30
0
41
1
10
-1.66555398622279
20
-9.08820205120449
30
0
41
1
10
-1.6684438909142
20
-9.0985309746128
30
0
41
1
10
-1.66973550124911
20
-9.10365291367879
30
0
41
1
10
-1.6733084013274
20
-9.11893336871611
30
0
41
1
10
-1.67529370417779
20
-9.12900810883241
30
0
41
1
10
-1.68059531751499
20
-9.15903839392291
30
0
41
1
10
-1.68323885477219
20
-9.17864859941389
30
0
41
1
10
-1.6876950536101
20
-9.21727601653311
30
0
41
1
10
-1.68948320354059
20
-9.2363238034421
30
0
41
1
10
-1.69403376212159
20
-9.29293800647741
30
0
41
1
10
-1.69599416071179
20
-9.32998157743009
30
0
41
1
10
-1.6987369835052
20
-9.40318329520491
30
0
41
1
10
-1.6994923889097
20
-9.43932884991801
30
0
41
1
10
-1.69981617745918
20
-9.47503923987691
30
0
0
SPLINE
5
ED
100
AcDbEntity
8
SK1
62
256
6
ByLayer
370
18
48
1
60
0
100
AcDbSpline
70
4
71
3
72
9
73
5
40
0
40
0
40
0
40
0
40
0.5
40
1
40
1
40
1
40
1
41
1
10
-1.30710725943319
20
-10.052446635186
30
0
41
1
10
-1.3411888997615
20
-9.94688007904929
30
0
41
1
10
-1.40789844793929
20
-9.72882754066899
30
0
41
1
10
-1.4703092378391
20
-9.49556914977239
30
0
41
1
10
-1.50000047824659
20
-9.3746723976414
30
0
0
SPLINE
5
EE
100
AcDbEntity
8
SK1
62
256
6
ByLayer
370
18
48
1
60
0
100
AcDbSpline
70
4
71
3
72
52
73
48
40
0
40
0
40
0
40
0
40
0.124999999999999
40
0.124999999999999
40
0.249999999999997
40
0.249999999999997
40
0.312499999999996
40
0.312499999999996
40
0.374999999999995
40
0.374999999999995
40
0.406249999999994
40
0.406249999999994
40
0.437499999999993
40
0.437499999999993
40
0.468749999999992
40
0.468749999999992
40
0.484374999999991
40
0.484374999999991
40
0.492187499999991
40
0.492187499999991
40
0.499999999999991
40
0.499999999999991
40
0.50781249999999
40
0.50781249999999
40
0.51562499999999
40
0.51562499999999
40
0.523437499999989
40
0.523437499999989
40
0.531249999999989
40
0.531249999999989
40
0.539062499999989
40
0.539062499999989
40
0.546874999999988
40
0.546874999999988
40
0.562499999999988
40
0.562499999999988
40
0.593749999999988
40
0.593749999999988
40
0.624999999999988
40
0.624999999999988
40
0.68749999999999
40
0.68749999999999
40
0.749999999999991
40
0.749999999999991
40
0.874999999999996
40
0.874999999999996
40
1
40
1
40
1
40
1
41
1
10
-1.50000047824651
20
14.2587661967671
30
0
41
1
10
-1.50758647607719
20
14.2745749782923
30
0
41
1
10
-1.5154721540022
20
14.2904384000371
30
0
41
1
10
-1.53210949941268
20
14.3225276770167
30
0
41
1
10
-1.54084562863849
20
14.3387389455853
30
0
41
1
10
-1.55507169731911
20
14.3637735811737
30
0
41
1
10
-1.56000351455771
20
14.3722407316327
30
0
41
1
10
-1.57044841418289
20
14.389609276281
30
0
41
1
10
-1.57595591669289
20
14.3985081709707
30
0
41
1
10
-1.58496322976291
20
14.4124552436748
30
0
41
1
10
-1.58809234578129
20
14.4172065987638
30
0
41
1
10
-1.594735443221
20
14.42703457178
30
0
41
1
10
-1.5982480363665
20
14.4321120791173
30
0
41
1
10
-1.60591181277368
20
14.4428101444126
30
0
41
1
10
-1.61004279814409
20
14.4484171842604
30
0
41
1
10
-1.6172669383831
20
14.4576969038814
30
0
41
1
10
-1.61985409590198
20
14.4609435695145
30
0
41
1
10
-1.6241699445431
20
14.4661538452386
30
0
41
1
10
-1.62568421024551
20
14.4679508621174
30
0
41
1
10
-1.62895471356799
20
14.4717385235971
30
0
41
1
10
-1.63072596567159
20
14.4737458056691
30
0
41
1
10
-1.63451015862489
20
14.4778962593866
30
0
41
1
10
-1.63657862085648
20
14.4800981429787
30
0
41
1
10
-1.64084490069951
20
14.4844441732746
30
0
41
1
10
-1.64305220640259
20
14.4865934978398
30
0
41
1
10
-1.64717524957859
20
14.4904093418085
30
0
41
1
10
-1.6490428374625
20
14.4920386887855
30
0
41
1
10
-1.652429868501
20
14.4948541232689
30
0
41
1
10
-1.65390209076779
20
14.4960033244415
30
0
41
1
10
-1.6565973165194
20
14.498010117053
30
0
41
1
10
-1.6578214523642
20
14.4988661713138
30
0
41
1
10
-1.6600555971591
20
14.5003505403411
30
0
41
1
10
-1.66107208277589
20
14.5009835384392
30
0
41
1
10
-1.66391839944339
20
14.50266107474
30
0
41
1
10
-1.66554913572298
20
14.5034885070397
30
0
41
1
10
-1.66999190648559
20
14.5054753970873
30
0
41
1
10
-1.67235375593199
20
14.5061408182799
30
0
41
1
10
-1.67646463987791
20
14.5068398994768
30
0
41
1
10
-1.67821062391619
20
14.5068592488006
30
0
41
1
10
-1.68289639771169
20
14.5063100047843
30
0
41
1
10
-1.68529256010049
20
14.5051428246125
30
0
41
1
10
-1.68934505005998
20
14.5019346271441
30
0
41
1
10
-1.6909823114033
20
14.4998726618217
30
0
41
1
10
-1.69512945762219
20
14.4927360769933
30
0
41
1
10
-1.69688242557021
20
14.4867407752576
30
0
41
1
10
-1.69923544581309
20
14.473138802508
30
0
41
1
10
-1.69981294834881
20
14.4655097332422
30
0
41
1
10
-1.69996193540931
20
14.4572212303692
30
0
0
SPLINE
5
EF
100
AcDbEntity
8
SK1
62
256
6
ByLayer
370
18
48
1
60
0
100
AcDbSpline
70
4
71
3
72
46
73
42
40
0
40
0
40
0
40
0
40
0.125000000000008
40
0.125000000000008
40
0.250000000000017
40
0.250000000000017
40
0.31250000000002
40
0.31250000000002
40
0.375000000000023
40
0.375000000000023
40
0.406250000000026
40
0.406250000000026
40
0.437500000000029
40
0.437500000000029
40
0.45312500000003
40
0.45312500000003
40
0.468750000000031
40
0.468750000000031
40
0.47656250000003
40
0.47656250000003
40
0.484375000000029
40
0.484375000000029
40
0.492187500000028
40
0.492187500000028
40
0.500000000000027
40
0.500000000000027
40
0.515625000000026
40
0.515625000000026
40
0.531250000000025
40
0.531250000000025
40
0.562500000000022
40
0.562500000000022
40
0.625000000000019
40
0.625000000000019
40
0.687500000000017
40
0.687500000000017
40
0.750000000000014
40
0.750000000000014
40
0.875000000000007
40
0.875000000000007
40
1
40
1
40
1
40
1
41
1
10
-1.69987687780861
20
-4.98421449598021
30
0
41
1
10
-1.69960986646458
20
-5.02836156951969
30
0
41
1
10
-1.69890900039209
20
-5.07224083711219
30
0
41
1
10
-1.69627175739271
20
-5.15931126567631
30
0
41
1
10
-1.69436184855638
20
-5.20251345182439
30
0
41
1
10
-1.6898836496191
20
-5.26651506244491
30
0
41
1
10
-1.68811904745701
20
-5.28771407934681
30
0
41
1
10
-1.68370859116331
20
-5.3297018786258
30
0
41
1
10
-1.68109705134199
20
-5.3504384349184
30
0
41
1
10
-1.67588914789721
20
-5.38068158043319
30
0
41
1
10
-1.6739346397359
20
-5.39062857847691
30
0
41
1
10
-1.669236010758
20
-5.409981063429
30
0
41
1
10
-1.66655321581681
20
-5.41934470802909
30
0
41
1
10
-1.66119824277661
20
-5.43216676769131
30
0
41
1
10
-1.65916968791919
20
-5.43627961185939
30
0
41
1
10
-1.65421700830439
20
-5.44337410355311
30
0
41
1
10
-1.6512923109635
20
-5.4464397429854
30
0
41
1
10
-1.64563609883879
20
-5.4481900462022
30
0
41
1
10
-1.64357239715639
20
-5.4482200157928
30
0
41
1
10
-1.63936634927708
20
-5.44694183404599
30
0
41
1
10
-1.63724171402339
20
-5.445638594467
30
0
41
1
10
-1.6333044043333
20
-5.44227532652309
30
0
41
1
10
-1.63144282243709
20
-5.44020002434999
30
0
41
1
10
-1.62801051817888
20
-5.43576125997481
30
0
41
1
10
-1.62642237959758
20
-5.43338433795299
30
0
41
1
10
-1.62189614747209
20
-5.42596084925569
30
0
41
1
10
-1.6192316310001
20
-5.42069390521451
30
0
41
1
10
-1.61432810311169
20
-5.41007067604531
30
0
41
1
10
-1.61207518116799
20
-5.40466077842399
30
0
41
1
10
-1.60566890719781
20
-5.38825711167641
30
0
41
1
10
-1.60185382033029
20
-5.37706310322409
30
0
41
1
10
-1.59119817150889
20
-5.343501120891
30
0
41
1
10
-1.5850900635005
20
-5.32101567123959
30
0
41
1
10
-1.57365887738538
20
-5.27594910279089
30
0
41
1
10
-1.56838007646701
20
-5.25336335073891
30
0
41
1
10
-1.55832358773119
20
-5.20812567224351
30
0
41
1
10
-1.55355331128891
20
-5.1854729714002
30
0
41
1
10
-1.53976433898978
20
-5.11743943346789
30
0
41
1
10
-1.53126437129919
20
-5.0720200241345
30
0
41
1
10
-1.51507323337
20
-4.9811450929557
30
0
41
1
10
-1.5073924004956
20
-4.9356743208248
30
0
41
1
10
-1.50000047824659
20
-4.89016817062139
30
0
0
SPLINE
5
F0
100
AcDbEntity
8
SK1
62
256
6
ByLayer
370
18
48
1
60
0
100
AcDbSpline
70
4
71
3
72
37
73
33
40
0
40
0
40
0
40
0
40
0.0051820560090804
40
0.0397867517445198
40
0.0743914474799592
40
0.108996143215399
40
0.143600838950838
40
0.178205534686277
40
0.212810230421717
40
0.247414926157156
40
0.282019621892596
40
0.316624317628035
40
0.351229013363474
40
0.385833709098914
40
0.420438404834353
40
0.455043100569793
40
0.489647796305232
40
0.524252492040671
40
0.558857187776111
40
0.59346188351155
40
0.62806657924699
40
0.662671274982429
40
0.697275970717868
40
0.731880666453308
40
0.766485362188747
40
0.801090057924187
40
0.835694753659626
40
0.870299449395065
40
0.904904145130505
40
0.939508840865944
40
0.974113536601384
40
1
40
1
40
1
40
1
41
1
10
-1.50000047824651
20
14.2587661967671
30
0
41
1
10
-1.50000047824651
20
14.2507040524975
30
0
41
1
10
-1.50000047824651
20
14.1877345360057
30
0
41
1
10
-1.50000047824651
20
14.0543241193627
30
0
41
1
10
-1.50000047824651
20
13.8250446003157
30
0
41
1
10
-1.50000047824651
20
13.5477614202892
30
0
41
1
10
-1.50000047824651
20
13.2180252807071
30
0
41
1
10
-1.50000047824651
20
12.8320659359299
30
0
41
1
10
-1.50000047824651
20
12.3870060603988
30
0
41
1
10
-1.50000047824651
20
11.8810508451797
30
0
41
1
10
-1.50000047824659
20
11.3136347745397
30
0
41
1
10
-1.50000047824659
20
10.6855295649021
30
0
41
1
10
-1.50000047824659
20
9.9989000863325
30
0
41
1
10
-1.50000047824659
20
9.2573120500054
30
0
41
1
10
-1.50000047824659
20
8.465686525038
30
0
41
1
10
-1.50000047824659
20
7.63020376086541
30
0
41
1
10
-1.50000047824659
20
6.75816113916619
30
0
41
1
10
-1.50000047824659
20
5.8577852936412
30
0
41
1
10
-1.50000047824659
20
4.93801306235309
30
0
41
1
10
-1.50000047824659
20
4.00823807548721
30
0
41
1
10
-1.50000047824659
20
3.0780460916082
30
0
41
1
10
-1.50000047824659
20
2.1569323240274
30
0
41
1
10
-1.50000047824659
20
1.25402965005651
30
0
41
1
10
-1.50000047824659
20
0.377837596080809
30
0
41
1
10
-1.50000047824659
20
-0.464016760148496
30
0
41
1
10
-1.50000047824659
20
-1.26499893622201
30
0
41
1
10
-1.50000047824659
20
-2.01983789136511
30
0
41
1
10
-1.50000047824659
20
-2.72466356476949
30
0
41
1
10
-1.50000047824659
20
-3.37708559446509
30
0
41
1
10
-1.50000047824659
20
-3.97622635979789
30
0
41
1
10
-1.50000047824659
20
-4.4768044597833
30
0
41
1
10
-1.50000047824659
20
-4.76943329255101
30
0
41
1
10
-1.50000047824659
20
-4.89016817062139
30
0
0
SPLINE
5
F1
100
AcDbEntity
8
SK1
62
256
6
ByLayer
370
18
48
1
60
0
100
AcDbSpline
70
4
71
3
72
88
73
84
40
0
40
0
40
0
40
0
40
0.0312381679796427
40
0.0312381679796427
40
0.0624763359592854
40
0.0937145039389281
40
0.0937145039389281
40
0.109333587928749
40
0.109333587928749
40
0.124952671918571
40
0.124952671918571
40
0.156190839898214
40
0.187429007877856
40
0.187429007877856
40
0.195238549872767
40
0.195238549872767
40
0.203048091867677
40
0.218667175857498
40
0.218667175857498
40
0.249905343837141
40
0.281143511816783
40
0.281143511816783
40
0.288953053811694
40
0.288953053811694
40
0.296762595806605
40
0.296762595806605
40
0.312381679796427
40
0.312381679796427
40
0.34361984777607
40
0.374858015755713
40
0.374858015755713
40
0.390477099745534
40
0.398286641740445
40
0.398286641740445
40
0.406096183735356
40
0.406096183735356
40
0.437334351715
40
0.437334351715
40
0.468572519694644
40
0.499810687674289
40
0.499810687674289
40
0.515429771664111
40
0.515429771664111
40
0.531048855653934
40
0.531048855653934
40
0.562287023633578
40
0.593525191613223
40
0.593525191613223
40
0.624763359592868
40
0.624763359592868
40
0.632572901587779
40
0.632572901587779
40
0.64038244358269
40
0.656001527572512
40
0.656001527572512
40
0.687239695552155
40
0.718477863531799
40
0.718477863531799
40
0.73409694752162
40
0.741906489516531
40
0.741906489516531
40
0.749716031511442
40
0.749716031511442
40
0.780954199491086
40
0.812192367470729
40
0.812192367470729
40
0.843430535450373
40
0.843430535450373
40
0.859049619440195
40
0.859049619440195
40
0.874668703430017
40
0.874668703430017
40
0.905906871409661
40
0.937145039389304
40
0.937145039389304
40
0.952764123379126
40
0.960573665374037
40
0.960573665374037
40
0.968383207368948
40
0.968383207368948
40
0.999621375348592
40
0.999621375348592
40
1
40
1
40
1
40
1
41
1
10
-14.199999027886
20
-12.8060535678125
30
0
41
1
10
-14.2000155499868
20
-12.8060597478894
30
0
41
1
10
-14.1951689809781
20
-12.805603022455
30
0
41
1
10
-14.176213124161
20
-12.8038522416053
30
0
41
1
10
-14.1479585700791
20
-12.8012528045681
30
0
41
1
10
-14.1012464120424
20
-12.7970661735291
30
0
41
1
10
-14.0591259130794
20
-12.7933771244757
30
0
41
1
10
-14.0439806544067
20
-12.7920629293032
30
0
41
1
10
-14.0116644116218
20
-12.7892933314805
30
0
41
1
10
-13.9944738319279
20
-12.7878362070911
30
0
41
1
10
-13.9398688653776
20
-12.7832725534082
30
0
41
1
10
-13.8589899160365
20
-12.7766766035135
30
0
41
1
10
-13.7622711947969
20
-12.7693293045576
30
0
41
1
10
-13.6968160696539
20
-12.7645904998609
30
0
41
1
10
-13.6834556508683
20
-12.7636341226636
30
0
41
1
10
-13.6563317846628
20
-12.7617162555718
30
0
41
1
10
-13.6150580285676
20
-12.7588328729003
30
0
41
1
10
-13.5720489304794
20
-12.7559409120212
30
0
41
1
10
-13.4837715768685
20
-12.7501742285144
30
0
41
1
10
-13.3600570484761
20
-12.7425328461037
30
0
41
1
10
-13.2246152236844
20
-12.7352860950254
30
0
41
1
10
-13.136283967647
20
-12.7309761711247
30
0
41
1
10
-13.1184332947077
20
-12.7301251702146
30
0
41
1
10
-13.0823610454223
20
-12.7284476357358
30
0
41
1
10
-13.0641160525857
20
-12.7276200816269
30
0
41
1
10
-13.0090144394106
20
-12.7251864129386
30
0
41
1
10
-12.9718205041385
20
-12.7236303287709
30
0
41
1
10
-12.8588953706779
20
-12.7191827865026
30
0
41
1
10
-12.7047529485627
20
-12.713841615285
30
0
41
1
10
-12.5436669593369
20
-12.7099004200939
30
0
41
1
10
-12.4202525854008
20
-12.7075525896967
30
0
41
1
10
-12.357894407879
20
-12.7065307007925
30
0
41
1
10
-12.2945499422542
20
-12.7057528281812
30
0
41
1
10
-12.2520994467644
20
-12.7052902851239
30
0
41
1
10
-12.2307468584838
20
-12.7050869605384
30
0
41
1
10
-12.1239484293429
20
-12.7042186285067
30
0
41
1
10
-12.0380326133416
20
-12.7039938571694
30
0
41
1
10
-11.8652818669418
20
-12.7045160943191
30
0
41
1
10
-11.6916117360321
20
-12.7060101980189
30
0
41
1
10
-11.5161206044426
20
-12.709508395085
30
0
41
1
10
-11.3838072117417
20
-12.7129061204504
30
0
41
1
10
-11.3395535979221
20
-12.7141687551992
30
0
41
1
10
-11.2509479567676
20
-12.7169515271434
30
0
41
1
10
-11.2068652609263
20
-12.7184630026973
30
0
41
1
10
-11.0752646295398
20
-12.7233464501077
30
0
41
1
10
-10.9015206810583
20
-12.7307879921194
30
0
41
1
10
-10.7311579619367
20
-12.7399713749392
30
0
41
1
10
-10.5624978622794
20
-12.7499647994755
30
0
41
1
10
-10.4790189375383
20
-12.7553666205464
30
0
41
1
10
-10.3757713150648
20
-12.7625850201511
30
0
41
1
10
-10.3551507942312
20
-12.764053907422
30
0
41
1
10
-10.3141611997694
20
-12.7670270110982
30
0
41
1
10
-10.2530894059011
20
-12.7715368650298
30
0
41
1
10
-10.1932432380221
20
-12.7761881399596
30
0
41
1
10
-10.0751653230531
20
-12.7856551059328
30
0
41
1
10
-9.92202601606868
20
-12.7987161096032
30
0
41
1
10
-9.77745427438958
20
-12.8123976924219
30
0
41
1
10
-9.67232095857119
20
-12.8227914314262
30
0
41
1
10
-9.6205795083718
20
-12.8280213656664
30
0
41
1
10
-9.5701063022012
20
-12.8332811277228
30
0
41
1
10
-9.53674361406459
20
-12.8367919813685
30
0
41
1
10
-9.52018228028788
20
-12.8385520749433
30
0
41
1
10
-9.43849127239258
20
-12.8473159578629
30
0
41
1
10
-9.31467408311639
20
-12.8611242155658
30
0
41
1
10
-9.20439712452259
20
-12.8742152048252
30
0
41
1
10
-9.100974842472
20
-12.8867973339474
30
0
41
1
10
-9.05269007000919
20
-12.8928342893592
30
0
41
1
10
-8.98562821822671
20
-12.9013863327697
30
0
41
1
10
-8.9641702496366
20
-12.9041529879943
30
0
41
1
10
-8.92310770618329
20
-12.9094958092491
30
0
41
1
10
-8.90368137194901
20
-12.912048742545
30
0
41
1
10
-8.84875389802619
20
-12.9193234549322
30
0
41
1
10
-8.78436194234189
20
-12.9280082701941
30
0
41
1
10
-8.73750943058658
20
-12.9344835624939
30
0
41
1
10
-8.70909438215139
20
-12.9384358843302
30
0
41
1
10
-8.6965708141874
20
-12.9401858855508
30
0
41
1
10
-8.68663261662689
20
-12.9415807899966
30
0
41
1
10
-8.68059018060589
20
-12.9424299366074
30
0
41
1
10
-8.67785735349599
20
-12.9428145557098
30
0
41
1
10
-8.66573943854809
20
-12.9445217068335
30
0
41
1
10
-8.66092602692839
20
-12.9452045294582
30
0
41
1
10
-8.66084689357436
20
-12.9452156491749
30
0
41
1
10
-8.66082708106788
20
-12.9452184536438
30
0
41
1
10
-8.66084687263211
20
-12.9452156163387
30
0
0
SPLINE
5
F2
100
AcDbEntity
8
SK1
62
256
6
ByLayer
370
18
48
1
60
0
100
AcDbSpline
70
4
71
3
72
69
73
65
40
0
40
0
40
0
40
0
40
0.0162374045452502
40
0.0325872013466477
40
0.0489369981480453
40
0.0652867949494429
40
0.0816365917508403
40
0.0979863885522379
40
0.114336185353636
40
0.130685982155033
40
0.147035778956431
40
0.163385575757828
40
0.179735372559226
40
0.196085169360623
40
0.212434966162021
40
0.228784762963418
40
0.245134559764816
40
0.261484356566213
40
0.277834153367611
40
0.294183950169009
40
0.310533746970406
40
0.326883543771804
40
0.343233340573201
40
0.359583137374599
40
0.375932934175996
40
0.392282730977394
40
0.408632527778792
40
0.424982324580189
40
0.441332121381587
40
0.457681918182984
40
0.474031714984382
40
0.490381511785779
40
0.506731308587177
40
0.523081105388574
40
0.539430902189972
40
0.55578069899137
40
0.572130495792767
40
0.588480292594164
40
0.604830089395562
40
0.62117988619696
40
0.637529682998357
40
0.653879479799755
40
0.670229276601152
40
0.68657907340255
40
0.702928870203947
40
0.719278667005345
40
0.735628463806742
40
0.75197826060814
40
0.768328057409538
40
0.784677854210935
40
0.801027651012333
40
0.81737744781373
40
0.833727244615128
40
0.850077041416525
40
0.866426838217923
40
0.88277663501932
40
0.899126431820718
40
0.915476228622116
40
0.931826025423513
40
0.948175822224911
40
0.964525619026308
40
0.980875415827706
40
0.997225212629103
40
1
40
1
40
1
40
1
41
1
10
-22.5004736461523
20
14.3975184607137
30
0
41
1
10
-22.5004736461523
20
14.3974826366898
30
0
41
1
10
-22.5004736461523
20
14.3922262995803
30
0
41
1
10
-22.5004736461523
20
14.3681934792056
30
0
41
1
10
-22.5004736461523
20
14.3263185272468
30
0
41
1
10
-22.5004736461523
20
14.2641513922299
30
0
41
1
10
-22.5004736461523
20
14.1783446143708
30
0
41
1
10
-22.5004736461523
20
14.0648630236345
30
0
41
1
10
-22.5004736461523
20
13.9191869829331
30
0
41
1
10
-22.5004736461523
20
13.7364734850532
30
0
41
1
10
-22.5004736461523
20
13.511879522781
30
0
41
1
10
-22.5004736461523
20
13.2407107342495
30
0
41
1
10
-22.5004736461523
20
12.918709949397
30
0
41
1
10
-22.5004736461523
20
12.5422717983333
30
0
41
1
10
-22.5004736461523
20
12.1086492465923
30
0
41
1
10
-22.5004736461523
20
11.6161353810315
30
0
41
1
10
-22.5004736461523
20
11.0642042035625
30
0
41
1
10
-22.5004736461523
20
10.4536142268036
30
0
41
1
10
-22.5004736461523
20
9.7864620556249
30
0
41
1
10
-22.5004736461523
20
9.06618977633789
30
0
41
1
10
-22.5004736461523
20
8.29754119690119
30
0
41
1
10
-22.5004736461523
20
7.48646955438321
30
0
41
1
10
-22.5004736461523
20
6.6400010590759
30
0
41
1
10
-22.5004736461523
20
5.7660545919945
30
0
41
1
10
-22.5004736461523
20
4.87323133258039
30
0
41
1
10
-22.5004736461523
20
3.9705715660144
30
0
41
1
10
-22.5004736461523
20
3.06730051718159
30
0
41
1
10
-22.5004736461523
20
2.17255708392409
30
0
41
1
10
-22.5004736461523
20
1.2951328198175
30
0
41
1
10
-22.5004736461523
20
0.443211874291109
30
0
41
1
10
-22.5004736461523
20
-0.375858681742813
30
0
41
1
10
-22.5004736461523
20
-1.15577988338009
30
0
41
1
10
-22.5004736461523
20
-1.89146552454491
30
0
41
1
10
-22.5004736461523
20
-2.57917349193431
30
0
41
1
10
-22.5004736461523
20
-3.21658132281399
30
0
41
1
10
-22.5004736461523
20
-3.8028189787114
30
0
41
1
10
-22.5004736461523
20
-4.33844447903471
30
0
41
1
10
-22.5004736461523
20
-4.82537389051629
30
0
41
1
10
-22.5004736461523
20
-5.26676108648951
30
0
41
1
10
-22.5004736461523
20
-5.66683600348921
30
0
41
1
10
-22.5004736461523
20
-6.03070683874901
30
0
41
1
10
-22.5004736461523
20
-6.36412670211061
30
0
41
1
10
-22.5004736461523
20
-6.67328470349531
30
0
41
1
10
-22.5004736461523
20
-6.96442615793899
30
0
41
1
10
-22.5004736461523
20
-7.24379638047759
30
0
41
1
10
-22.5004736461523
20
-7.51719350136949
30
0
41
1
10
-22.5004736461524
20
-7.78984310742081
30
0
41
1
10
-22.5004736461523
20
-8.06615920202739
30
0
41
1
10
-22.5004736461523
20
-8.34957878430939
30
0
41
1
10
-22.5004736461523
20
-8.642426796454
30
0
41
1
10
-22.5004736461523
20
-8.94583317482969
30
0
41
1
10
-22.5004736461523
20
-9.25969237410081
30
0
41
1
10
-22.5004736461523
20
-9.5826770774257
30
0
41
1
10
-22.5004736461523
20
-9.91229704903711
30
0
41
1
10
-22.5004736461523
20
-10.2450060102052
30
0
41
1
10
-22.5004736461523
20
-10.5763494195995
30
0
41
1
10
-22.5004736461524
20
-10.9011468563695
30
0
41
1
10
-22.5004736461524
20
-11.2137048267075
30
0
41
1
10
-22.5004736461524
20
-11.5080455793986
30
0
41
1
10
-22.5004736461524
20
-11.7781512397767
30
0
41
1
10
-22.5004736461524
20
-12.0182030504699
30
0
41
1
10
-22.5004736461524
20
-12.222818519794
30
0
41
1
10
-22.5004736461524
20
-12.3417515451646
30
0
41
1
10
-22.5004736461524
20
-12.3958214182455
30
0
41
1
10
-22.5004736461524
20
-12.4034525379612
30
0
0
SPLINE
5
F3
100
AcDbEntity
8
SK1
62
256
6
ByLayer
370
18
48
1
60
0
100
AcDbSpline
70
4
71
3
72
8
73
4
40
0
40
0
40
0
40
0
40
1
40
1
40
1
40
1
41
1
10
-22.5004736461524
20
-12.4035028821965
30
0
41
1
10
-21.6003205977211
20
-12.4242767457887
30
0
41
1
10
-20.7001628019881
20
-12.4450880250124
30
0
41
1
10
-19.8000004782467
20
-12.4659365668399
30
0
0
SPLINE
5
F4
100
AcDbEntity
8
SK1
62
256
6
ByLayer
370
18
48
1
60
0
100
AcDbSpline
70
4
71
3
72
31
73
27
40
0
40
0
40
0
40
0
40
0.125006013540539
40
0.125006013540539
40
0.250012027081077
40
0.250012027081077
40
0.375018040621616
40
0.375018040621616
40
0.437521047391884
40
0.437521047391884
40
0.500024054162153
40
0.500024054162153
40
0.62503006770269
40
0.62503006770269
40
0.687533074472958
40
0.687533074472958
40
0.750036081243227
40
0.750036081243227
40
0.781287584628361
40
0.796913336320928
40
0.796913336320928
40
0.812539088013496
40
0.812539088013496
40
0.875042094783768
40
0.875042094783768
40
1
40
1
40
1
40
1
41
1
10
-19.8000004782467
20
-12.4659366362877
30
0
41
1
10
-19.7053431051298
20
-12.4830708818637
30
0
41
1
10
-19.6114380260406
20
-12.4994442058419
30
0
41
1
10
-19.425643854578
20
-12.5306586469281
30
0
41
1
10
-19.3337501173732
20
-12.5455000452029
30
0
41
1
10
-19.1527512208209
20
-12.5736209691751
30
0
41
1
10
-19.063637363918
20
-12.586900484558
30
0
41
1
10
-18.9329810825755
20
-12.6056044258588
30
0
41
1
10
-18.8899270655407
20
-12.6116374860835
30
0
41
1
10
-18.8052708091017
20
-12.6232591861179
30
0
41
1
10
-18.7636436906484
20
-12.6288514022508
30
0
41
1
10
-18.641335180458
20
-12.6449498112964
30
0
41
1
10
-18.5631579961643
20
-12.6547825039339
30
0
41
1
10
-18.4537729906089
20
-12.6680284923765
30
0
41
1
10
-18.4186396050807
20
-12.672192324733
30
0
41
1
10
-18.3517545597738
20
-12.6799731995982
30
0
41
1
10
-18.3200000326424
20
-12.6835904930952
30
0
41
1
10
-18.275635951055
20
-12.6885607702857
30
0
41
1
10
-18.2542742389101
20
-12.6909317253205
30
0
41
1
10
-18.2343172010199
20
-12.6931197810114
30
0
41
1
10
-18.2213469925994
20
-12.6945362879534
30
0
41
1
10
-18.2150274188899
20
-12.6952236178188
30
0
41
1
10
-18.1844831212888
20
-12.6985334977374
30
0
41
1
10
-18.1632809734828
20
-12.7007911463432
30
0
41
1
10
-18.1111164680689
20
-12.7062972051963
30
0
41
1
10
-18.0916785915235
20
-12.7082846666041
30
0
41
1
10
-18.0917198744164
20
-12.7082803282234
30
0
0
SPLINE
5
F5
100
AcDbEntity
8
SK1
62
256
6
ByLayer
370
18
48
1
60
0
100
AcDbSpline
70
4
71
3
72
8
73
4
40
0
40
0
40
0
40
0
40
1
40
1
40
1
40
1
41
1
10
-19.8000004782467
20
-12.4659367057355
30
0
41
1
10
-20.7001628019877
20
-12.4450881643645
30
0
41
1
10
-21.6003205977209
20
-12.4242768855694
30
0
41
1
10
-22.5004736461524
20
-12.4035030223616
30
0
0
SPLINE
5
F6
100
AcDbEntity
8
SK1
62
256
6
ByLayer
370
18
48
1
60
0
100
AcDbSpline
70
4
71
1
72
4
73
2
40
0
40
0
40
1
40
1
41
1
10
-18.0918960511177
20
-12.7082759074428
30
0
41
1
10
-14.1999986481169
20
-12.8060539090776
30
0
0
SPLINE
5
F7
100
AcDbEntity
8
SK1
62
256
6
ByLayer
370
18
48
1
60
0
100
AcDbSpline
70
4
71
1
72
4
73
2
40
0
40
0
40
1
40
1
41
1
10
-8.66786249494459
20
-12.9450404140692
30
0
41
1
10
-2.5000004782467
20
-13.0999985642729
30
0
0
SPLINE
5
F8
100
AcDbEntity
8
SK1
62
256
6
ByLayer
370
18
48
1
60
0
100
AcDbSpline
70
4
71
2
72
6
73
3
40
0
40
0
40
0
40
1
40
1
40
1
41
1
10
-2.50000047824659
20
14.9000003351218
30
0
41
1
10
-12.5002370621994
20
14.6487595842301
30
0
41
1
10
-22.5004736461523
20
14.3975188333383
30
0
0
SPLINE
5
F9
100
AcDbEntity
8
SK1
62
256
6
ByLayer
370
18
48
1
60
0
100
AcDbSpline
70
4
71
3
72
71
73
67
40
0
40
0
40
0
40
0
40
0.0156265097032591
40
0.0312530194065182
40
0.0468795291097773
40
0.0625060388130364
40
0.0781325485162955
40
0.0937590582195546
40
0.109385567922814
40
0.125012077626073
40
0.140638587329332
40
0.156265097032591
40
0.17189160673585
40
0.187518116439109
40
0.203144626142368
40
0.218771135845627
40
0.234397645548886
40
0.250024155252146
40
0.265650664955405
40
0.281277174658664
40
0.296903684361923
40
0.312530194065182
40
0.328156703768441
40
0.3437832134717
40
0.359409723174959
40
0.375036232878218
40
0.390662742581477
40
0.406289252284736
40
0.421915761987996
40
0.437542271691255
40
0.453168781394514
40
0.468795291097773
40
0.484421800801032
40
0.500048310504291
40
0.51567482020755
40
0.531301329910809
40
0.546927839614068
40
0.562554349317327
40
0.578180859020586
40
0.593807368723846
40
0.609433878427105
40
0.625060388130364
40
0.640686897833623
40
0.656313407536882
40
0.671939917240141
40
0.6875664269434
40
0.703192936646659
40
0.718819446349918
40
0.734445956053177
40
0.750072465756436
40
0.765698975459696
40
0.781325485162955
40
0.796951994866214
40
0.812578504569473
40
0.828205014272732
40
0.843831523975991
40
0.85945803367925
40
0.875084543382509
40
0.890711053085768
40
0.906337562789027
40
0.921964072492286
40
0.937590582195546
40
0.953217091898805
40
0.968843601602064
40
0.984470111305323
40
1
40
1
40
1
40
1
41
1
10
-2.5000004782467
20
-13.0999939342377
30
0
41
1
10
-2.5000004782467
20
-13.1000097259601
30
0
41
1
10
-2.5000004782467
20
-13.0829386968049
30
0
41
1
10
-2.5000004782467
20
-13.0067816282551
30
0
41
1
10
-2.5000004782467
20
-12.8819179543222
30
0
41
1
10
-2.5000004782467
20
-12.7113508175436
30
0
41
1
10
-2.5000004782467
20
-12.4991179859372
30
0
41
1
10
-2.5000004782467
20
-12.2501295996534
30
0
41
1
10
-2.5000004782467
20
-11.9699685281356
30
0
41
1
10
-2.5000004782467
20
-11.6646701476799
30
0
41
1
10
-2.5000004782467
20
-11.3404763645552
30
0
41
1
10
-2.5000004782467
20
-11.0035874678753
30
0
41
1
10
-2.5000004782467
20
-10.6599089070989
30
0
41
1
10
-2.5000004782467
20
-10.3148139582038
30
0
41
1
10
-2.5000004782467
20
-9.9729229948264
30
0
41
1
10
-2.5000004782467
20
-9.63791431547941
30
0
41
1
10
-2.5000004782467
20
-9.3123708616678
30
0
41
1
10
-2.5000004782467
20
-8.99766936317971
30
0
41
1
10
-2.5000004782467
20
-8.6939192945604
30
0
41
1
10
-2.5000004782467
20
-8.3999486545147
30
0
41
1
10
-2.5000004782467
20
-8.11334594861711
30
0
41
1
10
-2.5000004782467
20
-7.83054622619241
30
0
41
1
10
-2.5000004782467
20
-7.5469711606726
30
0
41
1
10
-2.5000004782467
20
-7.25720062869979
30
0
41
1
10
-2.5000004782467
20
-6.955220648991
30
0
41
1
10
-2.5000004782467
20
-6.63455340782679
30
0
41
1
10
-2.5000004782467
20
-6.2887210914881
30
0
41
1
10
-2.5000004782467
20
-5.91130418375721
30
0
41
1
10
-2.5000004782467
20
-5.4963353997739
30
0
41
1
10
-2.5000004782467
20
-5.03851637589631
30
0
41
1
10
-2.5000004782467
20
-4.533459704802
30
0
41
1
10
-2.5000004782467
20
-3.97789410172339
30
0
41
1
10
-2.5000004782467
20
-3.3698321691802
30
0
41
1
10
-2.5000004782467
20
-2.7086951139878
30
0
41
1
10
-2.5000004782467
20
-1.9953853641457
30
0
41
1
10
-2.5000004782467
20
-1.23231184232259
30
0
41
1
10
-2.5000004782467
20
-0.423355972073807
30
0
41
1
10
-2.5000004782467
20
0.426206692795887
30
0
41
1
10
-2.5000004782467
20
1.3098426914386
30
0
41
1
10
-2.50000047824659
20
2.2199314384269
30
0
41
1
10
-2.50000047824659
20
3.14798410731271
30
0
41
1
10
-2.50000047824659
20
4.08488185524541
30
0
41
1
10
-2.50000047824659
20
5.0211455642816
30
0
41
1
10
-2.50000047824659
20
5.9472065756778
30
0
41
1
10
-2.50000047824659
20
6.85368805527389
30
0
41
1
10
-2.50000047824659
20
7.73166862154369
30
0
41
1
10
-2.50000047824659
20
8.5729345917851
30
0
41
1
10
-2.50000047824659
20
9.3701981860921
30
0
41
1
10
-2.50000047824659
20
10.1172845421027
30
0
41
1
10
-2.50000047824659
20
10.8092732508225
30
0
41
1
10
-2.50000047824659
20
11.4425940850005
30
0
41
1
10
-2.50000047824659
20
12.0150723880002
30
0
41
1
10
-2.50000047824659
20
12.5259214095268
30
0
41
1
10
-2.50000047824659
20
12.9756867293652
30
0
41
1
10
-2.50000047824659
20
13.3661388050996
30
0
41
1
10
-2.50000047824659
20
13.7001269369573
30
0
41
1
10
-2.50000047824659
20
13.9813907144393
30
0
41
1
10
-2.50000047824659
20
14.2143457922357
30
0
41
1
10
-2.50000047824659
20
14.4038612924854
30
0
41
1
10
-2.50000047824659
20
14.5549605163974
30
0
41
1
10
-2.50000047824659
20
14.6726667651807
30
0
41
1
10
-2.50000047824659
20
14.7616679315941
30
0
41
1
10
-2.50000047824659
20
14.8261494057519
30
0
41
1
10
-2.50000047824659
20
14.8695832656499
30
0
41
1
10
-2.50000047824659
20
14.8945165280401
30
0
41
1
10
-2.50000047824659
20
14.8999665704044
30
0
41
1
10
-2.50000047824659
20
14.9000000223032
30
0
0
SPLINE
5
FA
100
AcDbEntity
8
SK1
62
256
6
ByLayer
370
18
48
1
60
0
100
AcDbSpline
70
4
71
3
72
29
73
25
40
0
40
0
40
0
40
0
40
0.125
40
0.125
40
0.187500000000001
40
0.187500000000001
40
0.218750000000001
40
0.218750000000001
40
0.250000000000001
40
0.375
40
0.375
40
0.5
40
0.5
40
0.624999999999999
40
0.624999999999999
40
0.656249999999999
40
0.656249999999999
40
0.687499999999999
40
0.687499999999999
40
0.749999999999999
40
0.749999999999999
40
0.875
40
0.875
40
1
40
1
40
1
40
1
41
1
10
-1.69987687780861
20
-4.98421449598021
30
0
41
1
10
-1.73274975614248
20
-5.1978979220506
30
0
41
1
10
-1.7635722432137
20
-5.41089348907019
30
0
41
1
10
-1.8054127114051
20
-5.7293200352099
30
0
41
1
10
-1.81861787593769
20
-5.83528417121451
30
0
41
1
10
-1.83712276352799
20
-5.99395602703601
30
0
41
1
10
-1.84307893711821
20
-6.04685764913179
30
0
41
1
10
-1.8544631643424
20
-6.15208816612619
30
0
41
1
10
-1.88163139616938
20
-6.41393275655861
30
0
41
1
10
-1.9019972849764
20
-6.6695000853243
30
0
41
1
10
-1.92408562909239
20
-7.0696541292227
30
0
41
1
10
-1.9298697279277
20
-7.26534973490811
30
0
41
1
10
-1.9299683555798
20
-7.64752703853671
30
0
41
1
10
-1.9242969794746
20
-7.8340145114673
30
0
41
1
10
-1.91031943695469
20
-8.06139578781139
30
0
41
1
10
-1.90718281735531
20
-8.10655359615191
30
0
41
1
10
-1.9002984270663
20
-8.19581019366299
30
0
41
1
10
-1.8965447939556
20
-8.23997081886699
30
0
41
1
10
-1.88439564876211
20
-8.37109526819549
30
0
41
1
10
-1.8751205585543
20
-8.4567089853453
30
0
41
1
10
-1.84420033231498
20
-8.7085426487443
30
0
41
1
10
-1.8194606301056
20
-8.86976039434171
30
0
41
1
10
-1.7638376221671
20
-9.18069577251839
30
0
41
1
10
-1.73294920977719
20
-9.33040789018551
30
0
41
1
10
-1.69981617745918
20
-9.47503923987691
30
0
0
SPLINE
5
FB
100
AcDbEntity
8
SK1
62
256
6
ByLayer
370
18
48
1
60
0
100
AcDbSpline
70
4
71
3
72
90
73
86
40
0
40
0
40
0
40
0
40
0.0156250000000001
40
0.0156250000000001
40
0.0312500000000001
40
0.0312500000000001
40
0.0625000000000002
40
0.0625000000000002
40
0.0781250000000002
40
0.0781250000000002
40
0.0937500000000002
40
0.0937500000000002
40
0.125
40
0.125
40
0.140625
40
0.140625
40
0.156250000000001
40
0.156250000000001
40
0.187500000000001
40
0.187500000000001
40
0.203125000000001
40
0.203125000000001
40
0.218750000000001
40
0.218750000000001
40
0.250000000000001
40
0.250000000000001
40
0.281250000000001
40
0.281250000000001
40
0.312500000000001
40
0.312500000000001
40
0.343750000000001
40
0.343750000000001
40
0.375000000000001
40
0.375000000000001
40
0.406250000000002
40
0.406250000000002
40
0.437500000000002
40
0.437500000000002
40
0.468750000000002
40
0.468750000000002
40
0.484375000000002
40
0.484375000000002
40
0.500000000000002
40
0.500000000000002
40
0.531250000000002
40
0.531250000000002
40
0.546875000000002
40
0.546875000000002
40
0.562500000000002
40
0.562500000000002
40
0.593750000000002
40
0.593750000000002
40
0.609375000000002
40
0.609375000000002
40
0.625000000000002
40
0.656250000000002
40
0.656250000000002
40
0.671875000000002
40
0.671875000000002
40
0.687500000000002
40
0.687500000000002
40
0.718750000000002
40
0.718750000000002
40
0.750000000000002
40
0.750000000000002
40
0.781250000000002
40
0.781250000000002
40
0.812500000000001
40
0.812500000000001
40
0.843750000000001
40
0.859375000000001
40
0.859375000000001
40
0.875000000000001
40
0.875000000000001
40
0.906250000000001
40
0.906250000000001
40
0.921875
40
0.921875
40
0.9375
40
0.9375
40
0.96875
40
0.96875
40
0.984375
40
0.984375
40
1
40
1
40
1
40
1
41
1
10
-1.69987687780861
20
-4.98421449598021
30
0
41
1
10
-1.69988106274849
20
-4.8612292454761
30
0
41
1
10
-1.69988512670321
20
-4.73773827173329
30
0
41
1
10
-1.69989294688548
20
-4.4898027982785
30
0
41
1
10
-1.6998967102715
20
-4.36533564619049
30
0
41
1
10
-1.69990754600551
20
-3.99176355276131
30
0
41
1
10
-1.6999141446108
20
-3.7420879699722
30
0
41
1
10
-1.69992320277939
20
-3.36673095988101
30
0
41
1
10
-1.69992607997349
20
-3.2414709735618
30
0
41
1
10
-1.6999315736393
20
-2.9906813425045
30
0
41
1
10
-1.69993419049879
20
-2.86509977411319
30
0
41
1
10
-1.69994166084069
20
-2.48869027066311
30
0
41
1
10
-1.6999461350579
20
-2.2380087092825
30
0
41
1
10
-1.6999522211097
20
-1.86234419542529
30
0
41
1
10
-1.69995414188961
20
-1.73718244411921
30
0
41
1
10
-1.69995779112111
20
-1.48697454585559
30
0
41
1
10
-1.69995952013551
20
-1.3618805076523
30
0
41
1
10
-1.69996444183281
20
-0.987212072680904
30
0
41
1
10
-1.6999673555471
20
-0.738230172438392
30
0
41
1
10
-1.6999712938115
20
-0.365885717146597
30
0
41
1
10
-1.69997253227811
20
-0.241959456254392
30
0
41
1
10
-1.69997487196849
20
0.0055253532486006
30
0
41
1
10
-1.69997597456089
20
0.129117329269008
30
0
41
1
10
-1.69997910095961
20
0.499104012320913
30
0
41
1
10
-1.6999809389676
20
0.744583430963189
30
0
41
1
10
-1.69998421036911
20
1.23328725996541
30
0
41
1
10
-1.69998564907721
20
1.4765400636729
30
0
41
1
10
-1.69998819291769
20
1.9607313732819
30
0
41
1
10
-1.69998930295759
20
2.20134828482259
30
0
41
1
10
-1.6999912553467
20
2.67970681577901
30
0
41
1
10
-1.699992098047
20
2.91745177499189
30
0
41
1
10
-1.69999357961919
20
3.39012589679359
30
0
41
1
10
-1.69999421137959
20
3.62474655982089
30
0
41
1
10
-1.69999531141801
20
4.09054023021389
30
0
41
1
10
-1.69999577914621
20
4.32172395736379
30
0
41
1
10
-1.6999965821544
20
4.7807135918614
30
0
41
1
10
-1.69999691938969
20
5.00831204230511
30
0
41
1
10
-1.69999749161801
20
5.45945731676491
30
0
41
1
10
-1.69999772675189
20
5.68305648236901
30
0
41
1
10
-1.69999802249478
20
6.01550312340271
30
0
41
1
10
-1.69999811127261
20
6.1258211596774
30
0
41
1
10
-1.69999827117741
20
6.34528394920261
30
0
41
1
10
-1.6999983424183
20
6.4544528338933
30
0
41
1
10
-1.6999985333126
20
6.7802742530337
30
0
41
1
10
-1.69999863046809
20
6.99523903544881
30
0
41
1
10
-1.69999873848118
20
7.31430344236969
30
0
41
1
10
-1.6999987682197
20
7.42010657975021
30
0
41
1
10
-1.6999988160938
20
7.63040211630161
30
0
41
1
10
-1.69999883425919
20
7.73491522189369
30
0
41
1
10
-1.69999887205569
20
8.04654274729899
30
0
41
1
10
-1.69999887521371
20
8.2517520008445
30
0
41
1
10
-1.69999884704149
20
8.55571226871629
30
0
41
1
10
-1.6999988320957
20
8.65640886935529
30
0
41
1
10
-1.69999879075141
20
8.8563458885163
30
0
41
1
10
-1.6999987115374
20
9.15410580796589
30
0
41
1
10
-1.6999985764175
20
9.4453882013654
30
0
41
1
10
-1.69999839640408
20
9.73226591733101
30
0
41
1
10
-1.69999832881891
20
9.82718108242921
30
0
41
1
10
-1.69999817639021
20
10.0153966131575
30
0
41
1
10
-1.69999809142999
20
10.1086928231706
30
0
41
1
10
-1.69999780761719
20
10.3861158175164
30
0
41
1
10
-1.69999758040299
20
10.5677856801385
30
0
41
1
10
-1.69999702280191
20
10.9243784798261
30
0
41
1
10
-1.69999669334939
20
11.0993329078706
30
0
41
1
10
-1.6999959030056
20
11.4415041802049
30
0
41
1
10
-1.69999544110578
20
11.608807212336
30
0
41
1
10
-1.6999943484422
20
11.9355464688654
30
0
41
1
10
-1.699993714898
20
12.0950477719649
30
0
41
1
10
-1.6999922348169
20
12.4049958671983
30
0
41
1
10
-1.69999096114029
20
12.6308038736504
30
0
41
1
10
-1.69998938357929
20
12.8460519960132
30
0
41
1
10
-1.69998825490589
20
12.987122287038
30
0
41
1
10
-1.69998765241411
20
13.0563849644647
30
0
41
1
10
-1.69998572320259
20
13.2601077862131
30
0
41
1
10
-1.69998427175139
20
13.3905678034942
30
0
41
1
10
-1.6999817973423
20
13.5775825173068
30
0
41
1
10
-1.6999809231722
20
13.6384730760852
30
0
41
1
10
-1.69997906740738
20
13.7572212330722
30
0
41
1
10
-1.69997808575721
20
13.8150519801904
30
0
41
1
10
-1.6999749774734
20
13.9833849177679
30
0
41
1
10
-1.69997268224699
20
14.0888688683168
30
0
41
1
10
-1.69996889757638
20
14.2358618346101
30
0
41
1
10
-1.6999675795621
20
14.2829860113602
30
0
41
1
10
-1.6999648309492
20
14.3732291543539
30
0
41
1
10
-1.6999634052961
20
14.4163509520827
30
0
41
1
10
-1.69996193540931
20
14.457221230366
30
0
0
SPLINE
5
FC
100
AcDbEntity
8
SK1
62
256
6
ByLayer
370
18
48
1
60
0
100
AcDbSpline
70
4
71
3
72
18
73
14
40
0
40
0
40
0
40
0
40
0.249148867047736
40
0.249148867047736
40
0.311719794793758
40
0.311719794793758
40
0.37429072253978
40
0.37429072253978
40
0.499432578031824
40
0.499432578031824
40
0.749716289015912
40
0.749716289015912
40
1
40
1
40
1
40
1
41
1
10
-1.92857029628209
20
14.9143565458651
30
0
41
1
10
-1.92858882293021
20
14.9143921931397
30
0
41
1
10
-1.9229762178754
20
14.9040015816143
30
0
41
1
10
-1.90917334450211
20
14.8780336143329
30
0
41
1
10
-1.90606699475998
20
14.8721724300926
30
0
41
1
10
-1.8992367664178
20
14.8592412017101
30
0
41
1
10
-1.89550910291061
20
14.8521641273745
30
0
41
1
10
-1.8834485697891
20
14.8291697452048
30
0
41
1
10
-1.87424424638939
20
14.8114957456676
30
0
41
1
10
-1.84352385817638
20
14.7518948860963
30
0
41
1
10
-1.81894721786489
20
14.7034416741488
30
0
41
1
10
-1.7636498560517
20
14.59132777585
30
0
41
1
10
-1.73292975837708
20
14.5276656707106
30
0
41
1
10
-1.69996193551191
20
14.4572209627119
30
0
0
SPLINE
5
FD
100
AcDbEntity
8
SK1
62
256
6
ByLayer
370
18
48
1
60
0
100
AcDbSpline
70
4
71
3
72
50
73
46
40
0
40
0
40
0
40
0
40
0.0002248963998593
40
0.0002248963998593
40
0.0627108403748679
40
0.0627108403748679
40
0.125196784349876
40
0.125196784349876
40
0.156439756337381
40
0.156439756337381
40
0.187682728324885
40
0.187682728324885
40
0.250168672299894
40
0.250168672299894
40
0.281411644287399
40
0.281411644287399
40
0.312654616274903
40
0.312654616274903
40
0.375140560249912
40
0.375140560249912
40
0.437626504224921
40
0.437626504224921
40
0.500112448199929
40
0.500112448199929
40
0.562598392174938
40
0.562598392174938
40
0.625084336149947
40
0.625084336149947
40
0.687570280124956
40
0.687570280124956
40
0.718813252112461
40
0.718813252112461
40
0.750056224099965
40
0.750056224099965
40
0.812542168074974
40
0.812542168074974
40
0.843785140062478
40
0.843785140062478
40
0.875028112049983
40
0.875028112049983
40
0.937514056024991
40
0.937514056024991
40
0.968757028012496
40
0.968757028012496
40
1
40
1
40
1
40
1
41
1
10
-1.69993736128612
20
-13.1200897771109
30
0
41
1
10
-1.69993736157403
20
-13.1200997781109
30
0
41
1
10
-1.6999373620726
20
-13.1201122314143
30
0
41
1
10
-1.69993736076756
20
-13.1200846807177
30
0
41
1
10
-1.6999371399852
20
-13.1156442459557
30
0
41
1
10
-1.69993663200751
20
-13.0978667774816
30
0
41
1
10
-1.69993630833639
20
-13.0845322262422
30
0
41
1
10
-1.69993562166388
20
-13.0578356335902
30
0
41
1
10
-1.6999353610201
20
-13.0478213847348
30
0
41
1
10
-1.6999347738921
20
-13.0255471640139
30
0
41
1
10
-1.69993444756361
20
-13.0132855365258
30
0
41
1
10
-1.69993337866759
20
-12.9731434278793
30
0
41
1
10
-1.69993254344399
20
-12.9419071123749
30
0
41
1
10
-1.69993108593721
20
-12.8882473874155
30
0
41
1
10
-1.6999305663972
20
-12.8692237579092
30
0
41
1
10
-1.69992946025599
20
-12.8288855960327
30
0
41
1
10
-1.6999288728764
20
-12.807566051758
30
0
41
1
10
-1.69992700249671
20
-12.7401914361207
30
0
41
1
10
-1.6999256090692
20
-12.6907094231212
30
0
41
1
10
-1.6999225190244
20
-12.5824230947837
30
0
41
1
10
-1.69992081412209
20
-12.5236089558119
30
0
41
1
10
-1.6999170649805
20
-12.3964191024968
30
0
41
1
10
-1.69991502442218
20
-12.3281289333882
30
0
41
1
10
-1.6999105541145
20
-12.1818429660577
30
0
41
1
10
-1.69990813910269
20
-12.103849908807
30
0
41
1
10
-1.69990287720961
20
-11.9377521660669
30
0
41
1
10
-1.6999000418059
20
-11.8497669076607
30
0
41
1
10
-1.69989391976409
20
-11.6635918196944
30
0
41
1
10
-1.6998906288467
20
-11.5653815057676
30
0
41
1
10
-1.69988532435019
20
-11.4099342614134
30
0
41
1
10
-1.69988349151458
20
-11.3567568505046
30
0
41
1
10
-1.6998797040043
20
-11.2477698680719
30
0
41
1
10
-1.69987774908211
20
-11.1919411857396
30
0
41
1
10
-1.69987169019399
20
-11.0203213674139
30
0
41
1
10
-1.6998673885486
20
-10.9004032993763
30
0
41
1
10
-1.699860543678
20
-10.7115930507207
30
0
41
1
10
-1.69985819415808
20
-10.6471287292748
30
0
41
1
10
-1.6998533741772
20
-10.515312257683
30
0
41
1
10
-1.69985090380499
20
-10.4479535554109
30
0
41
1
10
-1.69984332783739
20
-10.2413325576079
30
0
41
1
10
-1.69983804582469
20
-10.0975400958757
30
0
41
1
10
-1.69982991619071
20
-9.8717517371594
30
0
41
1
10
-1.69982716666701
20
-9.79476269291979
30
0
41
1
10
-1.69982166159468
20
-9.63734619402851
30
0
41
1
10
-1.69981890598061
20
-9.5570412988105
30
0
41
1
10
-1.6998161774778
20
-9.47503932917451
30
0
0
SPLINE
5
FE
100
AcDbEntity
8
SK1
62
256
6
ByLayer
370
18
48
1
60
0
100
AcDbSpline
70
4
71
2
72
6
73
3
40
0
40
0
40
0
40
1
40
1
40
1
41
1
10
-2.5000004782467
20
-13.0999985642729
30
0
41
1
10
-2.0975077749506
20
-13.1101105811443
30
0
41
1
10
-1.69501507165449
20
-13.1202225980157
30
0
0
SPLINE
5
FF
100
AcDbEntity
8
SK1
62
256
6
ByLayer
370
18
48
1
60
0
100
AcDbSpline
70
4
71
2
72
6
73
3
40
0
40
0
40
0
40
1
40
1
40
1
41
1
10
-1.9264372696573
20
14.9144102393276
30
0
41
1
10
-2.21321887395189
20
14.9072052872247
30
0
41
1
10
-2.50000047824659
20
14.9000003351218
30
0
0
SPLINE
5
100
100
AcDbEntity
8
SK1
62
256
6
ByLayer
370
18
48
1
60
0
100
AcDbSpline
70
4
71
3
72
50
73
46
40
0
40
0
40
0
40
0
40
0.124999999999999
40
0.124999999999999
40
0.249999999999998
40
0.249999999999998
40
0.374999999999998
40
0.374999999999998
40
0.437499999999997
40
0.437499999999997
40
0.499999999999997
40
0.499999999999997
40
0.562499999999996
40
0.562499999999996
40
0.624999999999996
40
0.624999999999996
40
0.687499999999996
40
0.687499999999996
40
0.749999999999995
40
0.749999999999995
40
0.781249999999995
40
0.781249999999995
40
0.812499999999995
40
0.812499999999995
40
0.828124999999995
40
0.828124999999995
40
0.843749999999995
40
0.859374999999996
40
0.859374999999996
40
0.874999999999996
40
0.874999999999996
40
0.890624999999996
40
0.890624999999996
40
0.898437499999996
40
0.898437499999996
40
0.906249999999996
40
0.921874999999997
40
0.921874999999997
40
0.937499999999997
40
0.937499999999997
40
0.968749999999998
40
0.968749999999998
40
0.984374999999999
40
0.984374999999999
40
1
40
1
40
1
40
1
41
1
10
-1.30710725943339
20
13.8350249071732
30
0
41
1
10
-1.29207439282621
20
13.8002482751788
30
0
41
1
10
-1.27599610603821
20
13.7648281949197
30
0
41
1
10
-1.24130968832259
20
13.6928276549305
30
0
41
1
10
-1.22270641622251
20
13.6562464576259
30
0
41
1
10
-1.1823032439078
20
13.582074975326
30
0
41
1
10
-1.16051527883749
20
13.5444831019286
30
0
41
1
10
-1.1245899999324
20
13.4874949350867
30
0
41
1
10
-1.1120688445136
20
13.4683994142089
30
0
41
1
10
-1.0857794313184
20
13.4301514322243
30
0
41
1
10
-1.07200578560739
20
13.4109871545511
30
0
41
1
10
-1.04289427564831
20
13.3726490172983
30
0
41
1
10
-1.02755989464561
20
13.3534744574555
30
0
41
1
10
-0.994857833959998
20
13.3152195018604
30
0
41
1
10
-0.977495692142583
20
13.2961443089781
30
0
41
1
10
-0.940302589740298
20
13.2585840741323
30
0
41
1
10
-0.9204595531927
20
13.2400602074339
30
0
41
1
10
-0.87706882251311
20
13.2039414114777
30
0
41
1
10
-0.853578909908094
20
13.186327622989
30
0
41
1
10
-0.813593888029487
20
13.1612654675272
30
0
41
1
10
-0.799361263570489
20
13.1530970444606
30
0
41
1
10
-0.769218033852098
20
13.1378111369486
30
0
41
1
10
-0.753296917319602
20
13.1306680540609
30
0
41
1
10
-0.727575801833098
20
13.1210627346239
30
0
41
1
10
-0.718646892429689
20
13.1180360508673
30
0
41
1
10
-0.700354720425509
20
13.1125493559284
30
0
41
1
10
-0.681594778002108
20
13.107611101125
30
0
41
1
10
-0.661745459938601
20
13.1039575118315
30
0
41
1
10
-0.6412478585234
20
13.1010714940183
30
0
41
1
10
-0.630852780046496
20
13.1000422557591
30
0
41
1
10
-0.609997144516598
20
13.0988781181624
30
0
41
1
10
-0.599499618234404
20
13.0987378528922
30
0
41
1
10
-0.583644473530597
20
13.0992175421786
30
0
41
1
10
-0.578336164832507
20
13.0994940823535
30
0
41
1
10
-0.567872874576693
20
13.1002632326822
30
0
41
1
10
-0.552335526642793
20
13.1017421809182
30
0
41
1
10
-0.537243668588303
20
13.1041396968214
30
0
41
1
10
-0.517476961059089
20
13.1080675733069
30
0
41
1
10
-0.50780005877229
20
13.1103968379434
30
0
41
1
10
-0.479956498802608
20
13.1181342257343
30
0
41
1
10
-0.462677300079292
20
13.1243332205856
30
0
41
1
10
-0.438103870913096
20
13.1347041383204
30
0
41
1
10
-0.43013315728021
20
13.1383478698751
30
0
41
1
10
-0.414719264123988
20
13.1458757244566
30
0
41
1
10
-0.407256610782184
20
13.1497676457298
30
0
41
1
10
-0.400000478246597
20
13.1537661319113
30
0
0
SPLINE
5
101
100
AcDbEntity
8
SK1
62
256
6
ByLayer
370
18
48
1
60
0
100
AcDbSpline
70
4
71
3
72
38
73
34
40
0
40
0
40
0
40
0
40
0.0312499999999972
40
0.0312499999999972
40
0.0468749999999969
40
0.0468749999999969
40
0.0624999999999965
40
0.0624999999999965
40
0.0781249999999962
40
0.0781249999999962
40
0.0937499999999959
40
0.0937499999999959
40
0.109374999999996
40
0.109374999999996
40
0.124999999999995
40
0.124999999999995
40
0.156249999999995
40
0.156249999999995
40
0.187499999999995
40
0.187499999999995
40
0.249999999999994
40
0.249999999999994
40
0.312499999999993
40
0.312499999999993
40
0.374999999999993
40
0.374999999999993
40
0.499999999999994
40
0.499999999999994
40
0.624999999999996
40
0.624999999999996
40
0.749999999999997
40
0.749999999999997
40
1
40
1
40
1
40
1
41
1
10
-0.400000478246597
20
13.1537661319113
30
0
41
1
10
-0.393763766039598
20
13.1572028673148
30
0
41
1
10
-0.387020252563985
20
13.1605793263618
30
0
41
1
10
-0.375607797073883
20
13.1654203433271
30
0
41
1
10
-0.371658908833297
20
13.1669625015593
30
0
41
1
10
-0.363376287885984
20
13.1698568889707
30
0
41
1
10
-0.359002820792796
20
13.1712150303857
30
0
41
1
10
-0.350285333708797
20
13.1735281817958
30
0
41
1
10
-0.345820027077906
20
13.1745129679697
30
0
41
1
10
-0.337285022804394
20
13.1760002758594
30
0
41
1
10
-0.333144184220998
20
13.1765204104763
30
0
41
1
10
-0.325365487794983
20
13.1771519264786
30
0
41
1
10
-0.321763131456891
20
13.1772666899078
30
0
41
1
10
-0.314973095971084
20
13.1772012094621
30
0
41
1
10
-0.311779505054403
20
13.1770174143474
30
0
41
1
10
-0.302908670919692
20
13.1761484532822
30
0
41
1
10
-0.297812765438806
20
13.1751562292975
30
0
41
1
10
-0.288547954252209
20
13.1726831363154
30
0
41
1
10
-0.284428351013503
20
13.1712028194476
30
0
41
1
10
-0.273212534562703
20
13.1663486172311
30
0
41
1
10
-0.267128184716796
20
13.1625399474569
30
0
41
1
10
-0.256391350395006
20
13.1542653432479
30
0
41
1
10
-0.251770767537408
20
13.1497825118689
30
0
41
1
10
-0.243515555058707
20
13.1403454054465
30
0
41
1
10
-0.239914134708982
20
13.1354210582879
30
0
41
1
10
-0.230205181261198
20
13.1201697489949
30
0
41
1
10
-0.225172803923385
20
13.1093702619767
30
0
41
1
10
-0.216817869765805
20
13.0868576056315
30
0
41
1
10
-0.213518693814592
20
13.0751379458077
30
0
41
1
10
-0.208146722185006
20
13.0509407075853
30
0
41
1
10
-0.206080486797504
20
13.0384612827652
30
0
41
1
10
-0.201306232458194
20
13.0000289122858
30
0
41
1
10
-0.200000478246608
20
12.9730644641506
30
0
41
1
10
-0.200000478246608
20
12.9450712630012
30
0
0
SPLINE
5
102
100
AcDbEntity
8
SK1
62
256
6
ByLayer
370
18
48
1
60
0
100
AcDbSpline
70
4
71
3
72
40
73
36
40
0
40
0
40
0
40
0
40
0.249999999999996
40
0.249999999999996
40
0.374999999999994
40
0.374999999999994
40
0.499999999999992
40
0.499999999999992
40
0.624999999999989
40
0.624999999999989
40
0.687499999999988
40
0.687499999999988
40
0.749999999999988
40
0.749999999999988
40
0.781249999999989
40
0.781249999999989
40
0.81249999999999
40
0.81249999999999
40
0.843749999999992
40
0.843749999999992
40
0.874999999999993
40
0.874999999999993
40
0.890624999999994
40
0.890624999999994
40
0.906249999999995
40
0.906249999999995
40
0.921874999999996
40
0.921874999999996
40
0.937499999999997
40
0.937499999999997
40
0.953124999999998
40
0.953124999999998
40
0.968749999999999
40
0.968749999999999
40
1
40
1
40
1
40
1
41
1
10
-0.200000478246608
20
-1.65253299703829
30
0
41
1
10
-0.200000478246608
20
-1.72311876448549
30
0
41
1
10
-0.201305803243002
20
-1.79347735162179
30
0
41
1
10
-0.206103985992485
20
-1.898584103997
30
0
41
1
10
-0.208182624218495
20
-1.93354729643201
30
0
41
1
10
-0.213600448881891
20
-2.0033000713207
30
0
41
1
10
-0.216937342665688
20
-2.03812754317829
30
0
41
1
10
-0.2253922995518
20
-2.10736949717011
30
0
41
1
10
-0.230483194295004
20
-2.14175914130379
30
0
41
1
10
-0.240278794187503
20
-2.1928122676299
30
0
41
1
10
-0.243915879698108
20
-2.20976682984451
30
0
41
1
10
-0.252193904775993
20
-2.24328100045281
30
0
41
1
10
-0.256823148251584
20
-2.2598370981122
30
0
41
1
10
-0.264921288339309
20
-2.28421350689851
30
0
41
1
10
-0.26781547915661
20
-2.29226178345851
30
0
41
1
10
-0.274128001143595
20
-2.30815388814179
30
0
41
1
10
-0.27755721700251
20
-2.31602557642381
30
0
41
1
10
-0.285105427597586
20
-2.33134104606171
30
0
41
1
10
-0.289207325044288
20
-2.3387669908968
30
0
41
1
10
-0.298416059868998
20
-2.3529164415074
30
0
41
1
10
-0.303517167304307
20
-2.35966894581631
30
0
41
1
10
-0.312482976970898
20
-2.36881031808099
30
0
41
1
10
-0.315649179987787
20
-2.37163998853521
30
0
41
1
10
-0.322465036402605
20
-2.37670991282559
30
0
41
1
10
-0.32614398032311
20
-2.3789567303177
30
0
41
1
10
-0.333847333094297
20
-2.38246390872811
30
0
41
1
10
-0.337910160413088
20
-2.38375326367529
30
0
41
1
10
-0.346495027561105
20
-2.38511875084339
30
0
41
1
10
-0.350798113353392
20
-2.38515889610059
30
0
41
1
10
-0.359425383038683
20
-2.38401681485229
30
0
41
1
10
-0.363758998541584
20
-2.3828098708492
30
0
41
1
10
-0.371937904218584
20
-2.3795022771163
30
0
41
1
10
-0.375883187038994
20
-2.37738119252651
30
0
41
1
10
-0.387163527292699
20
-2.37008043292909
30
0
41
1
10
-0.393815765911086
20
-2.3641300778952
30
0
41
1
10
-0.400000478246597
20
-2.3575966517204
30
0
0
SPLINE
5
103
100
AcDbEntity
8
SK1
62
256
6
ByLayer
370
18
48
1
60
0
100
AcDbSpline
70
4
71
3
72
47
73
43
40
0
40
0
40
0
40
0
40
0.0312499999999995
40
0.0312499999999995
40
0.062499999999999
40
0.062499999999999
40
0.0781249999999989
40
0.0781249999999989
40
0.0937499999999988
40
0.0937499999999988
40
0.124999999999999
40
0.124999999999999
40
0.156249999999999
40
0.156249999999999
40
0.171874999999999
40
0.171874999999999
40
0.187499999999999
40
0.203124999999999
40
0.203124999999999
40
0.218749999999999
40
0.218749999999999
40
0.249999999999998
40
0.249999999999998
40
0.281249999999998
40
0.281249999999998
40
0.312499999999998
40
0.312499999999998
40
0.374999999999998
40
0.374999999999998
40
0.437499999999998
40
0.437499999999998
40
0.499999999999998
40
0.499999999999998
40
0.624999999999998
40
0.624999999999998
40
0.687499999999999
40
0.687499999999999
40
0.749999999999999
40
0.749999999999999
40
0.875
40
0.875
40
1
40
1
40
1
40
1
41
1
10
-0.400000478246597
20
-2.35759665172029
30
0
41
1
10
-0.41450050852859
20
-2.3422790634088
30
0
41
1
10
-0.429772498488092
20
-2.3278503321485
30
0
41
1
10
-0.462483283038296
20
-2.30148668326561
30
0
41
1
10
-0.480056074538197
20
-2.28949823077781
30
0
41
1
10
-0.507742475399482
20
-2.27487933681161
30
0
41
1
10
-0.517219820535985
20
-2.27054388302599
30
0
41
1
10
-0.536760209445191
20
-2.2631394990012
30
0
41
1
10
-0.546884388076109
20
-2.2600567477258
30
0
41
1
10
-0.577900042904389
20
-2.25318258358271
30
0
41
1
10
-0.598829407734684
20
-2.25187366460881
30
0
41
1
10
-0.641106758465696
20
-2.2562443788961
30
0
41
1
10
-0.661349566619293
20
-2.26178196163491
30
0
41
1
10
-0.690645342289486
20
-2.27408675001669
30
0
41
1
10
-0.700094837395199
20
-2.27880391695021
30
0
41
1
10
-0.718307367532105
20
-2.28915974501581
30
0
41
1
10
-0.735896819691988
20
-2.30046509477711
30
0
41
1
10
-0.752448804846892
20
-2.3133516923607
30
0
41
1
10
-0.768559827434501
20
-2.3269104981089
30
0
41
1
10
-0.776383749497199
20
-2.3340207608735
30
0
41
1
10
-0.798989428047889
20
-2.35591085671169
30
0
41
1
10
-0.813038198283294
20
-2.37134269418459
30
0
41
1
10
-0.839688381075206
20
-2.40339472782
30
0
41
1
10
-0.852283767302595
20
-2.42001986511261
30
0
41
1
10
-0.876366195217088
20
-2.4541806733416
30
0
41
1
10
-0.887879432516286
20
-2.47176628832361
30
0
41
1
10
-0.920856527409995
20
-2.52522988174329
30
0
41
1
10
-0.940767757913704
20
-2.56173190491359
30
0
41
1
10
-0.977920072891493
20
-2.63584230614259
30
0
41
1
10
-0.995139052291506
20
-2.67345985678509
30
0
41
1
10
-1.02762205099569
20
-2.74950447506151
30
0
41
1
10
-1.04287854453238
20
-2.78793466557141
30
0
41
1
10
-1.08636846066258
20
-2.90416850431359
30
0
41
1
10
-1.11235613105629
20
-2.9829013884914
30
0
41
1
10
-1.14830115822329
20
-3.10225506323391
30
0
41
1
10
-1.15975528064268
20
-3.14222301422589
30
0
41
1
10
-1.1817192352953
20
-3.22230050037589
30
0
41
1
10
-1.19223671443911
20
-3.26243718332151
30
0
41
1
10
-1.22258211619479
20
-3.38309678173121
30
0
41
1
10
-1.2412119740242
20
-3.463867164036
30
0
41
1
10
-1.2759490348023
20
-3.6259067930842
30
0
41
1
10
-1.29205123719228
20
-3.7071772082038
30
0
41
1
10
-1.30710725943339
20
-3.78864467718321
30
0
0
SPLINE
5
104
100
AcDbEntity
8
SK1
62
256
6
ByLayer
370
18
48
1
60
0
100
AcDbSpline
70
4
71
3
72
50
73
46
40
0
40
0
40
0
40
0
40
0.125000000000004
40
0.125000000000004
40
0.250000000000008
40
0.250000000000008
40
0.375000000000011
40
0.375000000000011
40
0.437500000000012
40
0.437500000000012
40
0.500000000000013
40
0.500000000000013
40
0.562500000000014
40
0.562500000000014
40
0.625000000000015
40
0.625000000000015
40
0.687500000000016
40
0.687500000000016
40
0.750000000000017
40
0.750000000000017
40
0.781250000000016
40
0.781250000000016
40
0.812500000000015
40
0.812500000000015
40
0.828125000000014
40
0.828125000000014
40
0.843750000000012
40
0.859375000000011
40
0.859375000000011
40
0.87500000000001
40
0.87500000000001
40
0.890625000000009
40
0.890625000000009
40
0.898437500000008
40
0.898437500000008
40
0.906250000000008
40
0.921875000000007
40
0.921875000000007
40
0.937500000000006
40
0.937500000000006
40
0.968750000000003
40
0.968750000000003
40
0.984375000000001
40
0.984375000000001
40
1
40
1
40
1
40
1
41
1
10
-1.30710725943339
20
-10.0524466351854
30
0
41
1
10
-1.29205010631921
20
-10.0990855816731
30
0
41
1
10
-1.2759482091208
20
-10.1448822372906
30
0
41
1
10
-1.24121879624289
20
-10.2348102964147
30
0
41
1
10
-1.22259612455051
20
-10.2789420702428
30
0
41
1
10
-1.18215901317561
20
-10.3655278849274
30
0
41
1
10
-1.16035648230058
20
-10.407983153122
30
0
41
1
10
-1.12441308748438
20
-10.4703589705082
30
0
41
1
10
-1.11188652628709
20
-10.4909319577069
30
0
41
1
10
-1.08558767226569
20
-10.531514924008
30
0
41
1
10
-1.0718100085262
20
-10.5515378445397
30
0
41
1
10
-1.04269219355208
20
-10.5910048537355
30
0
41
1
10
-1.02735552453169
20
-10.6104495223829
30
0
41
1
10
-0.994650986419799
20
-10.648691218517
30
0
41
1
10
-0.977288539259092
20
-10.6674815188747
30
0
41
1
10
-0.940097187609609
20
-10.7039802113134
30
0
41
1
10
-0.920256205691089
20
-10.7217268869469
30
0
41
1
10
-0.876872327476093
20
-10.7558951016842
30
0
41
1
10
-0.853387248222788
20
-10.7723329197373
30
0
41
1
10
-0.813411607176988
20
-10.7954592739473
30
0
41
1
10
-0.79918215472091
20
-10.802950440354
30
0
41
1
10
-0.769044338312909
20
-10.8168973893192
30
0
41
1
10
-0.753126279466585
20
-10.8233767099153
30
0
41
1
10
-0.727410283409199
20
-10.8320532330946
30
0
41
1
10
-0.71848310870709
20
-10.8347805190858
30
0
41
1
10
-0.700194567329788
20
-10.8397151688833
30
0
41
1
10
-0.681438925236193
20
-10.8441468292819
30
0
41
1
10
-0.661593972415204
20
-10.8474131248818
30
0
41
1
10
-0.641101564624194
20
-10.8499899419529
30
0
41
1
10
-0.630710060450582
20
-10.8509066208852
30
0
41
1
10
-0.609861898997707
20
-10.8519404196076
30
0
41
1
10
-0.599368525119786
20
-10.852062309735
30
0
41
1
10
-0.583520281020384
20
-10.8516286179353
30
0
41
1
10
-0.578214713016592
20
-10.8513798312371
30
0
41
1
10
-0.567757077739202
20
-10.8506890711871
30
0
41
1
10
-0.552228389053482
20
-10.8493620826663
30
0
41
1
10
-0.537145643138189
20
-10.8472121226023
30
0
41
1
10
-0.517391377634198
20
-10.843685941644
30
0
41
1
10
-0.507721677294597
20
-10.8415933972267
30
0
41
1
10
-0.479898406802789
20
-10.8346300639045
30
0
41
1
10
-0.462631899882893
20
-10.8290364180847
30
0
41
1
10
-0.438076448623093
20
-10.8196292255385
30
0
41
1
10
-0.430111601981707
20
-10.8163167965261
30
0
41
1
10
-0.414708865661282
20
-10.809455069095
30
0
41
1
10
-0.407251526024908
20
-10.8058987247885
30
0
41
1
10
-0.40000047824671
20
-10.8022346231678
30
0
0
SPLINE
5
105
100
AcDbEntity
8
SK1
62
256
6
ByLayer
370
18
48
1
60
0
100
AcDbSpline
70
4
71
3
72
38
73
34
40
0
40
0
40
0
40
0
40
0.031250000000006
40
0.031250000000006
40
0.046875000000007
40
0.046875000000007
40
0.062500000000008
40
0.062500000000008
40
0.078125000000009
40
0.078125000000009
40
0.0937500000000101
40
0.0937500000000101
40
0.109375000000011
40
0.109375000000011
40
0.125000000000012
40
0.125000000000012
40
0.156250000000011
40
0.156250000000011
40
0.187500000000011
40
0.187500000000011
40
0.25000000000001
40
0.25000000000001
40
0.312500000000008
40
0.312500000000008
40
0.375000000000007
40
0.375000000000007
40
0.500000000000005
40
0.500000000000005
40
0.625000000000002
40
0.625000000000002
40
0.75
40
0.75
40
1
40
1
40
1
40
1
41
1
10
-0.40000047824671
20
-10.8022346231678
30
0
41
1
10
-0.393760562275702
20
-10.7990814669728
30
0
41
1
10
-0.387012550882787
20
-10.7964331234015
30
0
41
1
10
-0.375591835611601
20
-10.7939419556389
30
0
41
1
10
-0.37163980361251
20
-10.7933830006932
30
0
41
1
10
-0.363349626556385
20
-10.792987575342
30
0
41
1
10
-0.358972444592695
20
-10.7931675608955
30
0
41
1
10
-0.350247739207106
20
-10.7944215624622
30
0
41
1
10
-0.3457787345518
20
-10.795518479716
30
0
41
1
10
-0.337239671432087
20
-10.798500552817
30
0
41
1
10
-0.3330961566094
20
-10.8003993883626
30
0
41
1
10
-0.325317251767785
20
-10.8047250816346
30
0
41
1
10
-0.321714714451304
20
-10.8071194550944
30
0
41
1
10
-0.314924286077087
20
-10.8122406371739
30
0
41
1
10
-0.311731358916603
20
-10.8149787623886
30
0
41
1
10
-0.302862950384792
20
-10.8233411424535
30
0
41
1
10
-0.297768055210185
20
-10.8291857502996
30
0
41
1
10
-0.288504978453488
20
-10.841168096212
30
0
41
1
10
-0.284387609046689
20
-10.8472670355258
30
0
41
1
10
-0.273175970550085
20
-10.8654880249926
30
0
41
1
10
-0.267093485785608
20
-10.8776721726294
30
0
41
1
10
-0.256360026722689
20
-10.9020296576104
30
0
41
1
10
-0.251740406200696
20
-10.9142174857686
30
0
41
1
10
-0.243489095417004
20
-10.9385036957354
30
0
41
1
10
-0.239889349352183
20
-10.9505244935444
30
0
41
1
10
-0.230185019264184
20
-10.986291714495
30
0
41
1
10
-0.225155200371006
20
-11.009745910847
30
0
41
1
10
-0.216804916526598
20
-11.0560576899991
30
0
41
1
10
-0.213507806066985
20
-11.0789119976581
30
0
41
1
10
-0.20813950540321
20
-11.1241093410945
30
0
41
1
10
-0.206074870548804
20
-11.1464514370624
30
0
41
1
10
-0.201304611108384
20
-11.2127914661815
30
0
41
1
10
-0.200000478246608
20
-11.2561431630266
30
0
41
1
10
-0.200000478246608
20
-11.2986052019923
30
0
0
SPLINE
5
106
100
AcDbEntity
8
SK3
62
256
6
ByLayer
370
18
48
0.05
60
0
100
AcDbSpline
70
4
71
3
72
22
73
18
40
0
40
0
40
0
40
0
40
0.0614523743361079
40
0.0614523743361079
40
0.124022216047034
40
0.124022216047034
40
0.249161899468887
40
0.249161899468887
40
0.499441266312591
40
0.499441266312591
40
0.562011108023517
40
0.562011108023517
40
0.624580949734442
40
0.624580949734442
40
0.749720633156294
40
0.749720633156294
40
1
40
1
40
1
40
1
41
1
10
-9.20000157933268
20
8.71250114575042
30
0
41
1
10
-9.19998650646039
20
8.71249004958139
30
0
41
1
10
-9.2003933699213
20
8.7127894658675
30
0
41
1
10
-9.20202895733129
20
8.713993606347
30
0
41
1
10
-9.20328322695889
20
8.71491714490841
30
0
41
1
10
-9.2082870427956
20
8.7186041545566
30
0
41
1
10
-9.21328164454809
20
8.7222865462233
30
0
41
1
10
-9.23307045613419
20
8.73691701153251
30
0
41
1
10
-9.25265068821011
20
8.7514278590416
30
0
41
1
10
-9.28486240789098
20
8.77555466908839
30
0
41
1
10
-9.2916930968766
20
8.78068108489859
30
0
41
1
10
-9.30613090529579
20
8.79154352076031
30
0
41
1
10
-9.31375324976239
20
8.79729107796061
30
0
41
1
10
-9.33763505969469
20
8.81534742110381
30
0
41
1
10
-9.35491890121219
20
8.82847676455941
30
0
41
1
10
-9.41064083300779
20
8.8710715183669
30
0
41
1
10
-9.45293538067099
20
8.9037316301476
30
0
41
1
10
-9.5000004782467
20
8.94064663446599
30
0
0
SPLINE
5
107
100
AcDbEntity
8
SK3
62
256
6
ByLayer
370
18
48
0.05
60
0
100
AcDbSpline
70
4
71
3
72
19
73
15
40
0
40
0
40
0
40
0
40
0.249495959552585
40
0.249495959552585
40
0.498991919105171
40
0.498991919105171
40
0.561365908993317
40
0.561365908993317
40
0.623739898881463
40
0.748487878657754
40
0.748487878657754
40
0.997983838210339
40
0.997983838210339
40
1
40
1
40
1
40
1
41
1
10
-9.5000004782467
20
-8.94064596422501
30
0
41
1
10
-9.452955631338
20
-8.90374684330001
30
0
41
1
10
-9.41082283000279
20
-8.87121230215999
30
0
41
1
10
-9.3369476900746
20
-8.81473629939791
30
0
41
1
10
-9.30519896222751
20
-8.79078954553759
30
0
41
1
10
-9.2726840188279
20
-8.76643152778101
30
0
41
1
10
-9.2665287123902
20
-8.7618308247462
30
0
41
1
10
-9.2550442819884
20
-8.75326220423551
30
0
41
1
10
-9.23904323162949
20
-8.74134826543349
30
0
41
1
10
-9.22669385392359
20
-8.73220215373431
30
0
41
1
10
-9.20685452113409
20
-8.71753366645501
30
0
41
1
10
-9.2000855905215
20
-8.7125623085019
30
0
41
1
10
-9.20000762073616
20
-8.71250492183458
30
0
41
1
10
-9.19999148715388
20
-8.71249304874578
30
0
41
1
10
-9.20000757429438
20
-8.7125048852545
30
0
0
SPLINE
5
108
100
AcDbEntity
8
SK3
62
256
6
ByLayer
370
18
48
0.05
60
0
100
AcDbSpline
70
4
71
3
72
63
73
59
40
0
40
0
40
0
40
0
40
0.0624779121797131
40
0.0624779121797131
40
0.124955824359426
40
0.124955824359426
40
0.140575302404355
40
0.140575302404355
40
0.156194780449283
40
0.18743373653914
40
0.18743373653914
40
0.249911648718853
40
0.249911648718853
40
0.265531126763781
40
0.265531126763781
40
0.28115060480871
40
0.312389560898567
40
0.312389560898567
40
0.37486747307828
40
0.37486747307828
40
0.390486951123209
40
0.390486951123209
40
0.406106429168138
40
0.406106429168138
40
0.437345385257995
40
0.437345385257995
40
0.499823297437711
40
0.499823297437711
40
0.51544277548264
40
0.51544277548264
40
0.531062253527568
40
0.562301209617426
40
0.562301209617426
40
0.624779121797143
40
0.624779121797143
40
0.640398599842072
40
0.640398599842072
40
0.656018077887001
40
0.687257033976859
40
0.687257033976859
40
0.749734946156576
40
0.749734946156576
40
0.765354424201505
40
0.765354424201505
40
0.780973902246434
40
0.812212858336293
40
0.812212858336293
40
0.874690770516009
40
0.874690770516009
40
0.890310248560939
40
0.890310248560939
40
0.905929726605868
40
0.905929726605868
40
0.937168682695727
40
0.937168682695727
40
0.999646594875443
40
0.999646594875443
40
1
40
1
40
1
40
1
41
1
10
-9.5000004782467
20
8.94064663446599
30
0
41
1
10
-9.5625956983329
20
8.92664424179989
30
0
41
1
10
-9.63328091799499
20
8.9114477662921
30
0
41
1
10
-9.7901432005761
20
8.87991392208249
30
0
41
1
10
-9.87632092734128
20
8.8635702676842
30
0
41
1
10
-9.99414696420149
20
8.8432018103627
30
0
41
1
10
-10.0182129570488
20
8.83913341037231
30
0
41
1
10
-10.0669213065757
20
8.83109852143389
30
0
41
1
10
-10.1410108070271
20
8.81917075499811
30
0
41
1
10
-10.2181407638299
20
8.80770100131389
30
0
41
1
10
-10.3764275087654
20
8.7855938983937
30
0
41
1
10
-10.4872920588409
20
8.7719619519284
30
0
41
1
10
-10.6328834398331
20
8.7570665795418
30
0
41
1
10
-10.6624252467024
20
8.75418882880311
30
0
41
1
10
-10.7217492384262
20
8.74871217782689
30
0
41
1
10
-10.8111610808666
20
8.74090645619501
30
0
41
1
10
-10.9018320234352
20
8.73437236273321
30
0
41
1
10
-11.0848349763538
20
8.72311276759601
30
0
41
1
10
-11.2090407932008
20
8.7180172607118
30
0
41
1
10
-11.3671565093733
20
8.71503355955389
30
0
41
1
10
-11.3989766589502
20
8.7146057730059
30
0
41
1
10
-11.4626692944757
20
8.71410015915501
30
0
41
1
10
-11.4944237641241
20
8.71402264010399
30
0
41
1
10
-11.5894166206656
20
8.71430702151619
30
0
41
1
10
-11.6523848872074
20
8.71518587018161
30
0
41
1
10
-11.8402321534592
20
8.7198191665295
30
0
41
1
10
-11.9640602914383
20
8.72557150143331
30
0
41
1
10
-12.1170673412649
20
8.73584577443381
30
0
41
1
10
-12.1476280780961
20
8.73805856549629
30
0
41
1
10
-12.2083459928076
20
8.74276840349279
30
0
41
1
10
-12.2985021670957
20
8.7502334426259
30
0
41
1
10
-12.3859607899611
20
8.7588161664419
30
0
41
1
10
-12.5573801970005
20
8.7772606988062
30
0
41
1
10
-12.6670194278237
20
8.79126305051699
30
0
41
1
10
-12.7982351250484
20
8.8102157192036
30
0
41
1
10
-12.8242329831907
20
8.814086153641
30
0
41
1
10
-12.8753992631663
20
8.82191843192081
30
0
41
1
10
-12.9507370014276
20
8.83377701829241
30
0
41
1
10
-13.0219326772227
20
8.8458702073311
30
0
41
1
10
-13.1589326795097
20
8.87012615213129
30
0
41
1
10
-13.2431156244497
20
8.8863909331626
30
0
41
1
10
-13.3392607921239
20
8.9060477441613
30
0
41
1
10
-13.3580398349007
20
8.90994682708819
30
0
41
1
10
-13.3946375447998
20
8.9176505779148
30
0
41
1
10
-13.4477541900708
20
8.9289932156685
30
0
41
1
10
-13.4956367731114
20
8.9396248742531
30
0
41
1
10
-13.5845601972772
20
8.95975542046341
30
0
41
1
10
-13.6347679883192
20
8.9716675577935
30
0
41
1
10
-13.6859119326413
20
8.984056582042
30
0
41
1
10
-13.6955561099593
20
8.9864091750039
30
0
41
1
10
-13.7136524396304
20
8.9908475872835
30
0
41
1
10
-13.7220952632574
20
8.99293116465191
30
0
41
1
10
-13.745388026274
20
8.9987055295079
30
0
41
1
10
-13.7582970468873
20
9.00194231177551
30
0
41
1
10
-13.7893421055247
20
9.009763937619
30
0
41
1
10
-13.7998474453181
20
9.01246128097341
30
0
41
1
10
-13.7999903517059
20
9.01249775081766
30
0
41
1
10
-13.8000000421335
20
9.01250022379466
30
0
41
1
10
-13.8000097332193
20
9.01250269419063
30
0
0
SPLINE
5
109
100
AcDbEntity
8
SK3
62
256
6
ByLayer
370
18
48
0.05
60
0
100
AcDbSpline
70
4
71
3
72
64
73
60
40
0
40
0
40
0
40
0
40
0.0150853966389472
40
0.0150853966389472
40
0.0307189617716625
40
0.0307189617716625
40
0.0619860920370931
40
0.0619860920370931
40
0.124520352567954
40
0.124520352567954
40
0.14015391770067
40
0.14015391770067
40
0.155787482833385
40
0.155787482833385
40
0.187054613098815
40
0.187054613098815
40
0.249588873629676
40
0.249588873629676
40
0.265222438762391
40
0.265222438762391
40
0.280856003895106
40
0.280856003895106
40
0.312123134160536
40
0.312123134160536
40
0.374657394691397
40
0.374657394691397
40
0.390290959824112
40
0.390290959824112
40
0.405924524956827
40
0.405924524956827
40
0.437191655222258
40
0.437191655222258
40
0.499725915753118
40
0.499725915753118
40
0.530993046018549
40
0.530993046018549
40
0.562260176283979
40
0.562260176283979
40
0.624794436814839
40
0.624794436814839
40
0.656061567080268
40
0.656061567080268
40
0.671695132212983
40
0.671695132212983
40
0.687328697345698
40
0.687328697345698
40
0.749862957876557
40
0.749862957876557
40
0.781130088141987
40
0.781130088141987
40
0.812397218407417
40
0.812397218407417
40
0.874931478938277
40
0.874931478938277
40
0.906198609203708
40
0.906198609203708
40
0.937465739469138
40
0.937465739469138
40
1
40
1
40
1
40
1
41
1
10
-13.8000014721553
20
-9.01249991887082
30
0
41
1
10
-13.7999917828789
20
-9.01249744138786
30
0
41
1
10
-13.7993785652297
20
-9.01234089345189
30
0
41
1
10
-13.7968719626601
20
-9.01170168749499
30
0
41
1
10
-13.7949270872178
20
-9.01120591639821
30
0
41
1
10
-13.7871513817869
20
-9.00922773241939
30
0
41
1
10
-13.7793810538509
20
-9.00725412986961
30
0
41
1
10
-13.7485264907459
20
-8.99947905168031
30
0
41
1
10
-13.7179488971426
20
-8.99182355338249
30
0
41
1
10
-13.6671482558779
20
-8.9795090377672
30
0
41
1
10
-13.656355169073
20
-8.97690884950359
30
0
41
1
10
-13.6334847824474
20
-8.97144259411959
30
0
41
1
10
-13.6213898288096
20
-8.96857248182641
30
0
41
1
10
-13.5835046501289
20
-8.95966167128589
30
0
41
1
10
-13.5560253721716
20
-8.953298557192
30
0
41
1
10
-13.4671000655716
20
-8.93315715811971
30
0
41
1
10
-13.3992113543581
20
-8.91832575605349
30
0
41
1
10
-13.3034928044987
20
-8.89872933264729
30
0
41
1
10
-13.2838026210251
20
-8.8947572550691
30
0
41
1
10
-13.2433119649429
20
-8.88672557734591
30
0
41
1
10
-13.2224848768244
20
-8.88266119081931
30
0
41
1
10
-13.1588826057491
20
-8.87047396376681
30
0
41
1
10
-13.1148253035411
20
-8.86232410423909
30
0
41
1
10
-12.9777896717412
20
-8.83803865318129
30
0
41
1
10
-12.8799814870723
20
-8.82206477681049
30
0
41
1
10
-12.7494797586112
20
-8.80316317493859
30
0
41
1
10
-12.7229646267858
20
-8.79943631346711
30
0
41
1
10
-12.6690890984632
20
-8.79211045955299
30
0
41
1
10
-12.6416625346052
20
-8.7885032767866
30
0
41
1
10
-12.5586830128241
20
-8.7779808622459
30
0
41
1
10
-12.5024331229639
20
-8.7713620426139
30
0
41
1
10
-12.3309470386458
20
-8.75286836340331
30
0
41
1
10
-12.2129922660346
20
-8.7423551596585
30
0
41
1
10
-12.0304983552215
20
-8.72999970851549
30
0
41
1
10
-11.9687145526313
20
-8.72644939997861
30
0
41
1
10
-11.8432925005208
20
-8.72061211517459
30
0
41
1
10
-11.7805483955028
20
-8.71836677035341
30
0
41
1
10
-11.5922196410297
20
-8.7136617556263
30
0
41
1
10
-11.466539138114
20
-8.71323404768381
30
0
41
1
10
-11.2778263368953
20
-8.71668263339939
30
0
41
1
10
-11.2148899154859
20
-8.7185136116334
30
0
41
1
10
-11.120435642485
20
-8.7222835403179
30
0
41
1
10
-11.0891045765932
20
-8.72370462017849
30
0
41
1
10
-11.0269427358942
20
-8.72685341252031
30
0
41
1
10
-10.9960796655087
20
-8.72858240239941
30
0
41
1
10
-10.8428354516315
20
-8.73796560929219
30
0
41
1
10
-10.7236468287773
20
-8.74783375237769
30
0
41
1
10
-10.549884739992
20
-8.76553194546099
30
0
41
1
10
-10.4928049245967
20
-8.771914206622
30
0
41
1
10
-10.3803631789319
20
-8.7855349090384
30
0
41
1
10
-10.3257677537761
20
-8.79267970166731
30
0
41
1
10
-10.1667058846476
20
-8.81486237939501
30
0
41
1
10
-10.066916173312
20
-8.83064978471
30
0
41
1
10
-9.9264725086631
20
-8.85488646184169
30
0
41
1
10
-9.88120607053798
20
-8.8630584304556
30
0
41
1
10
-9.7938469064319
20
-8.87942956539919
30
0
41
1
10
-9.75220579522639
20
-8.88754381267691
30
0
41
1
10
-9.6335371285106
20
-8.911387636802
30
0
41
1
10
-9.56259825233388
20
-8.92664300023529
30
0
41
1
10
-9.5000004782467
20
-8.94064596422501
30
0
0
SPLINE
5
10A
100
AcDbEntity
8
1
62
256
6
ByLayer
370
18
48
1
60
0
100
AcDbSpline
70
4
71
3
72
70
73
66
40
0
40
0
40
0
40
0
40
0.0624980749616753
40
0.0624980749616753
40
0.093747112442513
40
0.093747112442513
40
0.109371631182932
40
0.109371631182932
40
0.124996149923351
40
0.124996149923351
40
0.187494224885026
40
0.187494224885026
40
0.203118743625444
40
0.203118743625444
40
0.218743262365863
40
0.218743262365863
40
0.2499922998467
40
0.2499922998467
40
0.312490374808374
40
0.312490374808374
40
0.328114893548793
40
0.328114893548793
40
0.343739412289211
40
0.343739412289211
40
0.374988449770049
40
0.406237487250886
40
0.406237487250886
40
0.421862005991305
40
0.421862005991305
40
0.437486524731724
40
0.437486524731724
40
0.4999845996934
40
0.4999845996934
40
0.531233637174238
40
0.531233637174238
40
0.546858155914657
40
0.546858155914657
40
0.562482674655076
40
0.562482674655076
40
0.624980749616751
40
0.624980749616751
40
0.640605268357169
40
0.640605268357169
40
0.656229787097588
40
0.656229787097588
40
0.687478824578425
40
0.687478824578425
40
0.749976899540098
40
0.749976899540098
40
0.812474974501771
40
0.812474974501771
40
0.843724011982608
40
0.843724011982608
40
0.859348530723026
40
0.859348530723026
40
0.874973049463445
40
0.874973049463445
40
0.937471124425118
40
0.937471124425118
40
0.953095643165537
40
0.960907902535746
40
0.960907902535746
40
0.968720161905955
40
0.968720161905955
40
1
40
1
40
1
40
1
41
1
10
14.0000028489287
20
-20.0000000007439
30
0
41
1
10
13.9999928984855
20
-19.9999989964127
30
0
41
1
10
13.9870174840811
20
-19.9986896257886
30
0
41
1
10
13.9488793823874
20
-19.9949483433251
30
0
41
1
10
13.9330326391259
20
-19.9934050125337
30
0
41
1
10
13.9044552103784
20
-19.9906690273752
30
0
41
1
10
13.8941046562265
20
-19.9896847970472
30
0
41
1
10
13.8718628271596
20
-19.9875895560318
30
0
41
1
10
13.8600190456225
20
-19.9864830080052
30
0
41
1
10
13.7972594920435
20
-19.9806814383991
30
0
41
1
10
13.7358233527704
20
-19.9751806396042
30
0
41
1
10
13.6451149300762
20
-19.9676254093
30
0
41
1
10
13.6262712703785
20
-19.9660803969929
30
0
41
1
10
13.5871572663892
20
-19.962932558301
30
0
41
1
10
13.5668279452953
20
-19.9613252059573
30
0
41
1
10
13.5041451087017
20
-19.9564702481016
30
0
41
1
10
13.460168158581
20
-19.953194344243
30
0
41
1
10
13.3218680714986
20
-19.9433915108326
30
0
41
1
10
13.2212367505702
20
-19.9368878941351
30
0
41
1
10
13.0846186499716
20
-19.9292659433165
30
0
41
1
10
13.0566740983639
20
-19.9277633798924
30
0
41
1
10
13.000225838366
20
-19.9248499329486
30
0
41
1
10
12.9716866265827
20
-19.9234367538594
30
0
41
1
10
12.8851401312357
20
-19.9193407213777
30
0
41
1
10
12.7672721849281
20
-19.9142627244415
30
0
41
1
10
12.6445228724429
20
-19.9100848766467
30
0
41
1
10
12.550601317279
20
-19.9073395935289
30
0
41
1
10
12.5189836550554
20
-19.9064891936249
30
0
41
1
10
12.4551155694706
20
-19.9049264782169
30
0
41
1
10
12.4228083256149
20
-19.904213440136
30
0
41
1
10
12.2614334088352
20
-19.9010470569424
30
0
41
1
10
12.1316140224018
20
-19.8997556082849
30
0
41
1
10
11.9358323023817
20
-19.8997448514295
30
0
41
1
10
11.8703950411144
20
-19.9000622734044
30
0
41
1
10
11.7719658621523
20
-19.9010278537788
30
0
41
1
10
11.7391183561075
20
-19.9014318074564
30
0
41
1
10
11.6740680087943
20
-19.9023908200685
30
0
41
1
10
11.6417719788372
20
-19.9029466536387
30
0
41
1
10
11.4814184128377
20
-19.906091099519
30
0
41
1
10
11.3567086466571
20
-19.9097755252165
30
0
41
1
10
11.2053091560153
20
-19.9155869586571
30
0
41
1
10
11.1752556506271
20
-19.9168095173087
30
0
41
1
10
11.1156102889436
20
-19.9193685444392
30
0
41
1
10
11.0861313905839
20
-19.9207004306778
30
0
41
1
10
10.9992951396259
20
-19.924809963039
30
0
41
1
10
10.9432920066448
20
-19.9277116884119
30
0
41
1
10
10.7808096030101
20
-19.9367678819042
30
0
41
1
10
10.6798028465517
20
-19.9432751965934
30
0
41
1
10
10.4929967508951
20
-19.9565118106433
30
0
41
1
10
10.4102832153632
20
-19.9630151547264
30
0
41
1
10
10.3016306183317
20
-19.9720590056279
30
0
41
1
10
10.2679991347465
20
-19.97495580167
30
0
41
1
10
10.2215196740739
20
-19.979057510537
30
0
41
1
10
10.2066668046858
20
-19.9803861554909
30
0
41
1
10
10.1784141807662
20
-19.9829417714514
30
0
41
1
10
10.1650823131276
20
-19.9841625174739
30
0
41
1
10
10.102314851855
20
-19.9899648276915
30
0
41
1
10
10.0644436729252
20
-19.9936417994451
30
0
41
1
10
10.0324046743154
20
-19.9967841268558
30
0
41
1
10
10.0239506557955
20
-19.9976177800223
30
0
41
1
10
10.0172620548417
20
-19.998280685447
30
0
41
1
10
10.0131996701669
20
-19.998683860725
30
0
41
1
10
10.0113652123209
20
-19.9988662277418
30
0
41
1
10
10.0032355417284
20
-19.9996752750551
30
0
41
1
10
10.0000236456524
20
-19.9999972524897
30
0
41
1
10
10.0000006092565
20
-19.9999995561292
30
0
0
SPLINE
5
10B
100
AcDbEntity
8
1
62
256
6
ByLayer
370
18
48
1
60
0
100
AcDbSpline
70
4
71
3
72
27
73
23
40
0
40
0
40
0
40
0
40
0.0624999999999981
40
0.0624999999999981
40
0.124999999999996
40
0.124999999999996
40
0.249999999999984
40
0.249999999999984
40
0.31249999999998
40
0.31249999999998
40
0.374999999999976
40
0.437499999999971
40
0.437499999999971
40
0.499999999999967
40
0.499999999999967
40
0.624999999999975
40
0.624999999999975
40
0.749999999999984
40
0.749999999999984
40
0.874999999999992
40
0.874999999999992
40
1
40
1
40
1
40
1
41
1
10
9.07679444099651
20
-19.1222822555721
30
0
41
1
10
9.08615148640851
20
-19.1222822555721
30
0
41
1
10
9.09546447722281
20
-19.1220057820657
30
0
41
1
10
9.11362981535609
20
-19.1209504646995
30
0
41
1
10
9.1225972838306
20
-19.1201654003875
30
0
41
1
10
9.1486827351265
20
-19.1171460261417
30
0
41
1
10
9.16450258205302
20
-19.1143362417679
30
0
41
1
10
9.18658847751351
20
-19.1092730023609
30
0
41
1
10
9.19359734686719
20
-19.1074562966987
30
0
41
1
10
9.20687882357731
20
-19.1036544289604
30
0
41
1
10
9.2194847782097
20
-19.09966963841
30
0
41
1
10
9.2309648590394
20
-19.0953749409181
30
0
41
1
10
9.24196109193451
20
-19.0909446776101
30
0
41
1
10
9.24723164995791
20
-19.0886546469841
30
0
41
1
10
9.26228478108899
20
-19.0816580955352
30
0
41
1
10
9.271302758476
20
-19.0768390700656
30
0
41
1
10
9.28781744425422
20
-19.0669556952695
30
0
41
1
10
9.2953086364368
20
-19.0618906292602
30
0
41
1
10
9.30905286758201
20
-19.0515493713207
30
0
41
1
10
9.31530367846722
20
-19.0462728916073
30
0
41
1
10
9.3267466332548
20
-19.0355296659565
30
0
41
1
10
9.33193142722502
20
-19.0300650679141
30
0
41
1
10
9.33660206213182
20
-19.0245740750117
30
0
0
SPLINE
5
10C
100
AcDbEntity
8
1
62
256
6
ByLayer
370
18
48
1
60
0
100
AcDbSpline
70
4
71
3
72
26
73
22
40
0
40
0
40
0
40
0
40
0.250000000000013
40
0.250000000000013
40
0.375000000000015
40
0.375000000000015
40
0.500000000000018
40
0.500000000000018
40
0.562500000000017
40
0.562500000000017
40
0.625000000000016
40
0.625000000000016
40
0.750000000000013
40
0.750000000000013
40
0.81250000000001
40
0.81250000000001
40
0.875000000000007
40
0.875000000000007
40
0.937500000000003
40
0.937500000000003
40
1
40
1
40
1
40
1
41
1
10
6.66339698137492
20
-19.0245740750117
30
0
41
1
10
6.67262348462032
20
-19.0354211364596
30
0
41
1
10
6.68372026546751
20
-19.0460819198394
30
0
41
1
10
6.7044640128772
20
-19.0617351591158
30
0
41
1
10
6.71203337515391
20
-19.0668612129822
30
0
41
1
10
6.72860338788371
20
-19.0767891675684
30
0
41
1
10
6.7376201974607
20
-19.0816074188687
30
0
41
1
10
6.7525679905836
20
-19.0885653591914
30
0
41
1
10
6.75778933828641
20
-19.0908394952723
30
0
41
1
10
6.7687957144085
20
-19.0952836654146
30
0
41
1
10
6.77460370169331
20
-19.0974613438051
30
0
41
1
10
6.79282593785069
20
-19.103731838405
30
0
41
1
10
6.80602392744771
20
-19.1075786534124
30
0
41
1
10
6.82810949822169
20
-19.1126432362624
30
0
41
1
10
6.8358248051527
20
-19.1142013563658
30
0
41
1
10
6.8517931170303
20
-19.116955809651
30
0
41
1
10
6.8600816912014
20
-19.1181611486907
30
0
41
1
10
6.8773876322438
20
-19.120163228296
30
0
41
1
10
6.8864359744135
20
-19.1209558299838
30
0
41
1
10
6.90462323620901
20
-19.122009432935
30
0
41
1
10
6.91384500414512
20
-19.122282255572
30
0
41
1
10
6.9232046025102
20
-19.122282255572
30
0
0
SPLINE
5
10D
100
AcDbEntity
8
1
62
256
6
ByLayer
370
18
48
1
60
0
100
AcDbSpline
70
4
71
3
72
27
73
23
40
0
40
0
40
0
40
0
40
0.062499999999996
40
0.062499999999996
40
0.124999999999992
40
0.124999999999992
40
0.249999999999981
40
0.249999999999981
40
0.31249999999998
40
0.31249999999998
40
0.374999999999978
40
0.437499999999977
40
0.437499999999977
40
0.499999999999976
40
0.499999999999976
40
0.624999999999982
40
0.624999999999982
40
0.749999999999988
40
0.749999999999988
40
0.874999999999994
40
0.874999999999994
40
1
40
1
40
1
40
1
41
1
10
6.9232046025102
20
-5.8598894694488
30
0
41
1
10
6.91384755709819
20
-5.8598894694488
30
0
41
1
10
6.9045345662839
20
-5.86079187197001
30
0
41
1
10
6.88636922815061
20
-5.86423395004101
30
0
41
1
10
6.8774017596761
20
-5.86679384957219
30
0
41
1
10
6.85131630838021
20
-5.87662812322509
30
0
41
1
10
6.83549646145372
20
-5.88576794939419
30
0
41
1
10
6.81341056599319
20
-5.90217767658109
30
0
41
1
10
6.80640169663951
20
-5.90805707718829
30
0
41
1
10
6.79312021992939
20
-5.92033884256171
30
0
41
1
10
6.780514265297
20
-5.93319048702051
30
0
41
1
10
6.7690341844673
20
-5.94699036869659
30
0
41
1
10
6.75803795157231
20
-5.96119701817449
30
0
41
1
10
6.75276739354879
20
-5.96852644251069
30
0
41
1
10
6.73771426241771
20
-5.99087232420911
30
0
41
1
10
6.72869628503071
20
-6.00620209897471
30
0
41
1
10
6.71218159925252
20
-6.03750387653591
30
0
41
1
10
6.7046904070699
20
-6.05347826297819
30
0
41
1
10
6.69094617592481
20
-6.08594610389611
30
0
41
1
10
6.68469536503952
20
-6.10244052169961
30
0
41
1
10
6.67325241025191
20
-6.1358700853049
30
0
41
1
10
6.66806761628172
20
-6.1527980191664
30
0
41
1
10
6.66339698137492
20
-6.16972968436519
30
0
0
SPLINE
5
10E
100
AcDbEntity
8
1
62
256
6
ByLayer
370
18
48
1
60
0
100
AcDbSpline
70
4
71
3
72
26
73
22
40
0
40
0
40
0
40
0
40
0.25000000000002
40
0.25000000000002
40
0.375000000000025
40
0.375000000000025
40
0.500000000000031
40
0.500000000000031
40
0.562500000000027
40
0.562500000000027
40
0.625000000000023
40
0.625000000000023
40
0.750000000000022
40
0.750000000000022
40
0.812500000000016
40
0.812500000000016
40
0.875000000000011
40
0.875000000000011
40
0.937500000000005
40
0.937500000000005
40
1
40
1
40
1
40
1
41
1
10
9.33660206213182
20
-6.16972968436511
30
0
41
1
10
9.32737555888642
20
-6.13628239785589
30
0
41
1
10
9.31627877803919
20
-6.10310812282211
30
0
41
1
10
9.29553503062951
20
-6.05396823729549
30
0
41
1
10
9.2879656683528
20
-6.03780245156901
30
0
41
1
10
9.271395655623
20
-6.00636079750981
30
0
41
1
10
9.262378846046
20
-5.9910335076782
30
0
41
1
10
9.2474310529231
20
-5.9688119403329
30
0
41
1
10
9.24220970522029
20
-5.96153388658371
30
0
41
1
10
9.23120332909821
20
-5.94728346886691
30
0
41
1
10
9.2253953418134
20
-5.9402864472882
30
0
41
1
10
9.20717310565601
20
-5.92010233150401
30
0
41
1
10
9.19397511605899
20
-5.9076689463551
30
0
41
1
10
9.17188954528501
20
-5.89125492151649
30
0
41
1
10
9.16417423835401
20
-5.8861967078237
30
0
41
1
10
9.14820592647641
20
-5.8772447414492
30
0
41
1
10
9.1399173523053
20
-5.87332181776139
30
0
41
1
10
9.12261141126291
20
-5.86680091776111
30
0
41
1
10
9.1135630690932
20
-5.8642164550445
30
0
41
1
10
9.09537580729781
20
-5.86077995936969
30
0
41
1
10
9.08615403936162
20
-5.8598894694488
30
0
41
1
10
9.07679444099651
20
-5.8598894694488
30
0
0
SPLINE
5
10F
100
AcDbEntity
8
1
62
256
6
ByLayer
370
18
48
1
60
0
100
AcDbSpline
70
4
71
3
72
27
73
23
40
0
40
0
40
0
40
0
40
0.0625000000000046
40
0.0625000000000046
40
0.125000000000009
40
0.125000000000009
40
0.250000000000005
40
0.250000000000005
40
0.312500000000003
40
0.312500000000003
40
0.375000000000001
40
0.437499999999999
40
0.437499999999999
40
0.499999999999997
40
0.499999999999997
40
0.624999999999998
40
0.624999999999998
40
0.749999999999999
40
0.749999999999999
40
0.874999999999999
40
0.874999999999999
40
1
40
1
40
1
40
1
41
1
10
9.07679444099651
20
5.8598901396899
30
0
41
1
10
9.08615148640851
20
5.8598901396899
30
0
41
1
10
9.09546447722281
20
5.86079254221099
30
0
41
1
10
9.11362981535609
20
5.86423462028199
30
0
41
1
10
9.1225972838306
20
5.86679451981331
30
0
41
1
10
9.1486827351265
20
5.8766287934661
30
0
41
1
10
9.16450258205302
20
5.8857686196352
30
0
41
1
10
9.18658847751351
20
5.9021783468221
30
0
41
1
10
9.19359734686719
20
5.90805774742941
30
0
41
1
10
9.20687882357731
20
5.9203395128028
30
0
41
1
10
9.2194847782097
20
5.93319115726149
30
0
41
1
10
9.2309648590394
20
5.9469910389376
30
0
41
1
10
9.24196109193451
20
5.9611976884155
30
0
41
1
10
9.24723164995791
20
5.9685271127517
30
0
41
1
10
9.26228478108899
20
5.99087299445009
30
0
41
1
10
9.271302758476
20
6.00620276921569
30
0
41
1
10
9.28781744425422
20
6.03750454677689
30
0
41
1
10
9.2953086364368
20
6.05347893321931
30
0
41
1
10
9.30905286758201
20
6.08594677413711
30
0
41
1
10
9.31530367846722
20
6.10244119194061
30
0
41
1
10
9.3267466332548
20
6.13587075554591
30
0
41
1
10
9.33193142722502
20
6.15279868940729
30
0
41
1
10
9.33660206213182
20
6.1697303546062
30
0
0
SPLINE
5
110
100
AcDbEntity
8
1
62
256
6
ByLayer
370
18
48
1
60
0
100
AcDbSpline
70
4
71
3
72
26
73
22
40
0
40
0
40
0
40
0
40
0.250000000000002
40
0.250000000000002
40
0.375
40
0.375
40
0.499999999999997
40
0.499999999999997
40
0.562499999999997
40
0.562499999999997
40
0.624999999999997
40
0.624999999999997
40
0.749999999999996
40
0.749999999999996
40
0.812499999999997
40
0.812499999999997
40
0.874999999999998
40
0.874999999999998
40
0.937499999999999
40
0.937499999999999
40
1
40
1
40
1
40
1
41
1
10
6.66339698137492
20
6.1697303546062
30
0
41
1
10
6.67262348462032
20
6.1362830680969
30
0
41
1
10
6.68372026546751
20
6.1031087930632
30
0
41
1
10
6.7044640128772
20
6.0539689075365
30
0
41
1
10
6.71203337515391
20
6.0378031218101
30
0
41
1
10
6.72860338788371
20
6.00636146775079
30
0
41
1
10
6.7376201974607
20
5.99103417791929
30
0
41
1
10
6.7525679905836
20
5.96881261057391
30
0
41
1
10
6.75778933828641
20
5.96153455682469
30
0
41
1
10
6.7687957144085
20
5.94728413910789
30
0
41
1
10
6.77460370169331
20
5.94028711752929
30
0
41
1
10
6.79282593785069
20
5.9201030017451
30
0
41
1
10
6.80602392744771
20
5.90766961659619
30
0
41
1
10
6.82810949822169
20
5.89125559175761
30
0
41
1
10
6.8358248051527
20
5.88619737806471
30
0
41
1
10
6.8517931170303
20
5.87724541169021
30
0
41
1
10
6.8600816912014
20
5.8733224880024
30
0
41
1
10
6.8773876322438
20
5.8668015880022
30
0
41
1
10
6.8864359744135
20
5.86421712528551
30
0
41
1
10
6.90462323620901
20
5.8607806296107
30
0
41
1
10
6.91384500414512
20
5.8598901396899
30
0
41
1
10
6.9232046025102
20
5.8598901396899
30
0
0
SPLINE
5
111
100
AcDbEntity
8
1
62
256
6
ByLayer
370
18
48
1
60
0
100
AcDbSpline
70
4
71
3
72
27
73
23
40
0
40
0
40
0
40
0
40
0.0624999999999964
40
0.0624999999999964
40
0.124999999999993
40
0.124999999999993
40
0.249999999999983
40
0.249999999999983
40
0.312499999999981
40
0.312499999999981
40
0.374999999999979
40
0.437499999999977
40
0.437499999999977
40
0.499999999999975
40
0.499999999999975
40
0.624999999999981
40
0.624999999999981
40
0.749999999999987
40
0.749999999999987
40
0.874999999999994
40
0.874999999999994
40
1
40
1
40
1
40
1
41
1
10
6.9232046025102
20
19.1222829258131
30
0
41
1
10
6.91384755709819
20
19.1222829258131
30
0
41
1
10
6.9045345662839
20
19.1220064523067
30
0
41
1
10
6.88636922815061
20
19.1209511349405
30
0
41
1
10
6.8774017596761
20
19.1201660706286
30
0
41
1
10
6.85131630838021
20
19.1171466963827
30
0
41
1
10
6.83549646145372
20
19.1143369120089
30
0
41
1
10
6.81341056599319
20
19.109273672602
30
0
41
1
10
6.80640169663951
20
19.1074569669397
30
0
41
1
10
6.79312021992939
20
19.1036550992014
30
0
41
1
10
6.780514265297
20
19.099670308651
30
0
41
1
10
6.7690341844673
20
19.0953756111592
30
0
41
1
10
6.75803795157231
20
19.0909453478511
30
0
41
1
10
6.75276739354879
20
19.0886553172252
30
0
41
1
10
6.73771426241771
20
19.0816587657762
30
0
41
1
10
6.72869628503071
20
19.0768397403066
30
0
41
1
10
6.71218159925252
20
19.0669563655105
30
0
41
1
10
6.7046904070699
20
19.0618912995012
30
0
41
1
10
6.69094617592481
20
19.0515500415617
30
0
41
1
10
6.68469536503952
20
19.0462735618483
30
0
41
1
10
6.67325241025191
20
19.0355303361976
30
0
41
1
10
6.66806761628172
20
19.0300657381551
30
0
41
1
10
6.66339698137492
20
19.0245747452527
30
0
0
SPLINE
5
112
100
AcDbEntity
8
1
62
256
6
ByLayer
370
18
48
1
60
0
100
AcDbSpline
70
4
71
3
72
26
73
22
40
0
40
0
40
0
40
0
40
0.25
40
0.25
40
0.374999999999999
40
0.374999999999999
40
0.499999999999999
40
0.499999999999999
40
0.562499999999995
40
0.562499999999995
40
0.624999999999992
40
0.624999999999992
40
0.749999999999991
40
0.749999999999991
40
0.812499999999993
40
0.812499999999993
40
0.874999999999995
40
0.874999999999995
40
0.937499999999998
40
0.937499999999998
40
1
40
1
40
1
40
1
41
1
10
9.33660206213182
20
19.0245747452527
30
0
41
1
10
9.32737555888642
20
19.0354218067006
30
0
41
1
10
9.31627877803919
20
19.0460825900805
30
0
41
1
10
9.29553503062951
20
19.0617358293568
30
0
41
1
10
9.2879656683528
20
19.0668618832232
30
0
41
1
10
9.271395655623
20
19.0767898378094
30
0
41
1
10
9.262378846046
20
19.0816080891097
30
0
41
1
10
9.2474310529231
20
19.0885660294325
30
0
41
1
10
9.24220970522029
20
19.0908401655134
30
0
41
1
10
9.23120332909821
20
19.0952843356556
30
0
41
1
10
9.2253953418134
20
19.0974620140461
30
0
41
1
10
9.20717310565601
20
19.1037325086461
30
0
41
1
10
9.19397511605899
20
19.1075793236535
30
0
41
1
10
9.17188954528501
20
19.1126439065035
30
0
41
1
10
9.16417423835401
20
19.1142020266068
30
0
41
1
10
9.14820592647641
20
19.1169564798921
30
0
41
1
10
9.1399173523053
20
19.1181618189318
30
0
41
1
10
9.12261141126291
20
19.1201638985371
30
0
41
1
10
9.1135630690932
20
19.1209565002249
30
0
41
1
10
9.0953758072977
20
19.1220101031761
30
0
41
1
10
9.08615403936162
20
19.1222829258131
30
0
41
1
10
9.07679444099651
20
19.1222829258131
30
0
0
LINE
5
74
100
AcDbEntity
8
SK3
62
256
6
ByLayer
370
18
48
0.05
60
0
100
AcDbLine
10
-9.2
20
-12.406055
30
0
11
-9.2
21
-8.716214
31
0
39
0
210
0
220
0
230
1
0
LINE
5
76
100
AcDbEntity
8
SK3
62
256
6
ByLayer
370
18
48
0.05
60
0
100
AcDbLine
10
-13.8
20
-9.010559
30
0
11
-13.8
21
-12.406055
31
0
39
0
210
0
220
0
230
1
0
LINE
5
77
100
AcDbEntity
8
SK3
62
256
6
ByLayer
370
18
48
0.05
60
0
100
AcDbLine
10
-9.2
20
8.716215
30
0
11
-9.2
21
11
31
0
39
0
210
0
220
0
230
1
0
LINE
5
78
100
AcDbEntity
8
SK3
62
256
6
ByLayer
370
18
48
0.05
60
0
100
AcDbLine
10
-13.8
20
11
30
0
11
-13.8
21
9.010559
31
0
39
0
210
0
220
0
230
1
0
LINE
5
79
100
AcDbEntity
8
SK3
62
256
6
ByLayer
370
18
48
0.05
60
0
100
AcDbLine
10
-9.2
20
11
30
0
11
-11.5
21
11
31
0
39
0
210
0
220
0
230
1
0
LINE
5
7A
100
AcDbEntity
8
SK3
62
256
6
ByLayer
370
18
48
0.05
60
0
100
AcDbLine
10
-11.5
20
11
30
0
11
-13.8
21
11
31
0
39
0
210
0
220
0
230
1
0
LINE
5
7B
100
AcDbEntity
8
SK3
62
256
6
ByLayer
370
18
48
0.05
60
0
100
AcDbLine
10
-11.5
20
12.38198
30
0
11
-13.8
21
11
31
0
39
0
210
0
220
0
230
1
0
LINE
5
7C
100
AcDbEntity
8
SK3
62
256
6
ByLayer
370
18
48
0.05
60
0
100
AcDbLine
10
-9.2
20
11
30
0
11
-11.5
21
12.38198
31
0
39
0
210
0
220
0
230
1
0
LINE
5
7D
100
AcDbEntity
8
SK3
62
256
6
ByLayer
370
18
48
0.05
60
0
100
AcDbLine
10
-9.2
20
-12.406055
30
0
11
-11.5
21
-12.406055
31
0
39
0
210
0
220
0
230
1
0
LINE
5
7E
100
AcDbEntity
8
SK3
62
256
6
ByLayer
370
18
48
0.05
60
0
100
AcDbLine
10
-11.5
20
-12.406055
30
0
11
-13.8
21
-12.406055
31
0
39
0
210
0
220
0
230
1
0
LINE
5
7F
100
AcDbEntity
8
SK3
62
256
6
ByLayer
370
18
48
0.05
60
0
100
AcDbLine
10
-13.8
20
-12.406055
30
0
11
-14.199999
21
-12.806054
31
0
39
0
210
0
220
0
230
1
0
LINE
5
80
100
AcDbEntity
8
SK3
62
256
6
ByLayer
370
18
48
0.05
60
0
100
AcDbLine
10
-8.664833
20
-12.941223
30
0
11
-9.2
21
-12.406055
31
0
39
0
210
0
220
0
230
1
0
LINE
5
81
100
AcDbEntity
8
SK3
62
256
6
ByLayer
370
18
48
0.05
60
0
100
AcDbLine
10
-18.091816
20
-12.708184
30
0
11
-19.8
21
-11
31
0
39
0
210
0
220
0
230
1
0
LINE
5
82
100
AcDbEntity
8
SK3
62
256
6
ByLayer
370
18
48
0.05
60
0
100
AcDbLine
10
-19.8
20
-12.465937
30
0
11
-19.8
21
-11
31
0
39
0
210
0
220
0
230
1
0
LINE
5
83
100
AcDbEntity
8
SK3
62
256
6
ByLayer
370
18
48
0.05
60
0
100
AcDbLine
10
-19.8
20
-11
30
0
11
-24
21
-11
31
0
39
0
210
0
220
0
230
1
0
LINE
5
84
100
AcDbEntity
8
SK3
62
256
6
ByLayer
370
18
48
0.05
60
0
100
AcDbLine
10
14.255378
20
0
30
0
11
10.5
21
6.25
31
0
39
0
210
0
220
0
230
1
0
LINE
5
85
100
AcDbEntity
8
SK3
62
256
6
ByLayer
370
18
48
0.05
60
0
100
AcDbLine
10
10.5
20
-6.25
30
0
11
14.255378
21
0
31
0
39
0
210
0
220
0
230
1
0
LINE
5
86
100
AcDbEntity
8
SK3
62
256
6
ByLayer
370
18
48
0.05
60
0
100
AcDbLine
10
10.5
20
-6.25
30
0
11
10.5
21
6.25
31
0
39
0
210
0
220
0
230
1
0
LINE
5
87
100
AcDbEntity
8
SK3
62
256
6
ByLayer
370
18
48
0.05
60
0
100
AcDbLine
10
8.799038
20
-6.25
30
0
11
10.5
21
-6.25
31
0
39
0
210
0
220
0
230
1
0
LINE
5
88
100
AcDbEntity
8
SK3
62
256
6
ByLayer
370
18
48
0.05
60
0
100
AcDbLine
10
10.5
20
6.25
30
0
11
8.799038
21
6.25
31
0
39
0
210
0
220
0
230
1
0
LINE
5
89
100
AcDbEntity
8
SK3
62
256
6
ByLayer
370
18
48
0.05
60
0
100
AcDbLine
10
8.799038
20
-6.25
30
0
11
8.799038
21
6.25
31
0
39
0
210
0
220
0
230
1
0
LINE
5
8A
100
AcDbEntity
8
SK3
62
256
6
ByLayer
370
18
48
0.05
60
0
100
AcDbLine
10
8.799038
20
6.25
30
0
11
6
21
7
31
0
39
0
210
0
220
0
230
1
0
LINE
5
8B
100
AcDbEntity
8
SK3
62
256
6
ByLayer
370
18
48
0.05
60
0
100
AcDbLine
10
6
20
-7
30
0
11
8.799038
21
-6.25
31
0
39
0
210
0
220
0
230
1
0
LINE
5
8C
100
AcDbEntity
8
SK3
62
256
6
ByLayer
370
18
48
0.05
60
0
100
AcDbLine
10
6
20
-7
30
0
11
6
21
7
31
0
39
0
210
0
220
0
230
1
0
LINE
5
8D
100
AcDbEntity
8
SK3
62
256
6
ByLayer
370
18
48
0.05
60
0
100
AcDbLine
10
-16.779049
20
-9.721751
30
0
11
-16.779049
21
9.721752
31
0
39
0
210
0
220
0
230
1
0
LINE
5
8E
100
AcDbEntity
8
SK3
62
256
6
ByLayer
370
18
48
0.05
60
0
100
AcDbLine
10
-17.450801
20
-10
30
0
11
-17.450801
21
10
31
0
39
0
210
0
220
0
230
1
0
LINE
5
8F
100
AcDbEntity
8
SK3
62
256
6
ByLayer
370
18
48
0.05
60
0
100
AcDbLine
10
-22.969798
20
-9.575193
30
0
11
-22.969798
21
9.575194
31
0
39
0
210
0
220
0
230
1
0
LINE
5
90
100
AcDbEntity
8
SK3
62
256
6
ByLayer
370
18
48
0.05
60
0
100
AcDbLine
10
-22.969798
20
9.575194
30
0
11
-24
21
10.169981
31
0
39
0
210
0
220
0
230
1
0
LINE
5
91
100
AcDbEntity
8
SK3
62
256
6
ByLayer
370
18
48
0.05
60
0
100
AcDbLine
10
-24
20
-10.169981
30
0
11
-22.969798
21
-9.575193
31
0
39
0
210
0
220
0
230
1
0
LINE
5
92
100
AcDbEntity
8
SK1
62
256
6
ByLayer
370
18
48
1
60
0
100
AcDbLine
10
-1.307107
20
14.292894
30
0
11
-1.925361
21
14.911147
31
0
39
0
210
0
220
0
230
1
0
LINE
5
94
100
AcDbEntity
8
SK1
62
256
6
ByLayer
370
18
48
1
60
0
100
AcDbLine
10
-1.307107
20
14.292894
30
0
11
-1.307107
21
13.835025
31
0
39
0
210
0
220
0
230
1
0
LINE
5
95
100
AcDbEntity
8
SK1
62
256
6
ByLayer
370
18
48
1
60
0
100
AcDbLine
10
-0.2
20
-1.652533
30
0
11
-0.2
21
12.945071
31
0
39
0
210
0
220
0
230
1
0
LINE
5
96
100
AcDbEntity
8
SK1
62
256
6
ByLayer
370
18
48
1
60
0
100
AcDbLine
10
-1.307107
20
-10.052447
30
0
11
-1.307107
21
-3.788645
31
0
39
0
210
0
220
0
230
1
0
LINE
5
97
100
AcDbEntity
8
SK1
62
256
6
ByLayer
370
18
48
1
60
0
100
AcDbLine
10
-0.2
20
-14.083485
30
0
11
-0.2
21
-11.298605
31
0
39
0
210
0
220
0
230
1
0
LINE
5
98
100
AcDbEntity
8
1
62
256
6
ByLayer
370
18
48
1
60
0
100
AcDbLine
10
6.923205
20
5.85989
30
0
11
6.923205
21
19.122283
31
0
39
0
210
0
220
0
230
1
0
LINE
5
9A
100
AcDbEntity
8
1
62
256
6
ByLayer
370
18
48
1
60
0
100
AcDbLine
10
6.663397
20
6.16973
30
0
11
6.663397
21
19.024575
31
0
39
0
210
0
220
0
230
1
0
LINE
5
9B
100
AcDbEntity
8
1
62
256
6
ByLayer
370
18
48
1
60
0
100
AcDbLine
10
0.3
20
20
30
0
11
0
21
19.7
31
0
39
0
210
0
220
0
230
1
0
LINE
5
9C
100
AcDbEntity
8
1
62
256
6
ByLayer
370
18
48
1
60
0
100
AcDbLine
10
18.5
20
20
30
0
11
18.5
21
0
31
0
39
0
210
0
220
0
230
1
0
LINE
5
9D
100
AcDbEntity
8
1
62
256
6
ByLayer
370
18
48
1
60
0
100
AcDbLine
10
18.5
20
0
30
0
11
18.5
21
-20
31
0
39
0
210
0
220
0
230
1
0
LINE
5
9E
100
AcDbEntity
8
1
62
256
6
ByLayer
370
18
48
1
60
0
100
AcDbLine
10
19
20
19.5
30
0
11
19
21
0
31
0
39
0
210
0
220
0
230
1
0
LINE
5
9F
100
AcDbEntity
8
1
62
256
6
ByLayer
370
18
48
1
60
0
100
AcDbLine
10
19
20
0
30
0
11
19
21
-19.5
31
0
39
0
210
0
220
0
230
1
0
LINE
5
A0
100
AcDbEntity
8
1
62
256
6
ByLayer
370
18
48
1
60
0
100
AcDbLine
10
19
20
19.5
30
0
11
18.5
21
20
31
0
39
0
210
0
220
0
230
1
0
LINE
5
A1
100
AcDbEntity
8
1
62
256
6
ByLayer
370
18
48
1
60
0
100
AcDbLine
10
18.5
20
-20
30
0
11
19
21
-19.5
31
0
39
0
210
0
220
0
230
1
0
LINE
5
A2
100
AcDbEntity
8
SK3
62
256
6
ByLayer
370
18
48
0.05
60
0
100
AcDbLine
10
-8.879828
20
-7
30
0
11
6
21
-7
31
0
39
0
210
0
220
0
230
1
0
LINE
5
A3
100
AcDbEntity
8
SK3
62
256
6
ByLayer
370
18
48
0.05
60
0
100
AcDbLine
10
6
20
7
30
0
11
-8.879828
21
7
31
0
39
0
210
0
220
0
230
1
0
LINE
5
A4
100
AcDbEntity
8
SK3
62
256
6
ByLayer
370
18
48
0.05
60
0
100
AcDbLine
10
-8.879828
20
-7
30
0
11
-8.879828
21
7
31
0
39
0
210
0
220
0
230
1
0
LINE
5
A5
100
AcDbEntity
8
SK3
62
256
6
ByLayer
370
18
48
0.05
60
0
100
AcDbLine
10
-8.879828
20
7
30
0
11
-9
21
7.2
31
0
39
0
210
0
220
0
230
1
0
LINE
5
A6
100
AcDbEntity
8
SK3
62
256
6
ByLayer
370
18
48
0.05
60
0
100
AcDbLine
10
-9
20
-7.2
30
0
11
-8.879828
21
-7
31
0
39
0
210
0
220
0
230
1
0
LINE
5
A7
100
AcDbEntity
8
SK3
62
256
6
ByLayer
370
18
48
0.05
60
0
100
AcDbLine
10
-20.869798
20
-9.0125
30
0
11
-19.869798
21
-9.0125
31
0
39
0
210
0
220
0
230
1
0
LINE
5
A8
100
AcDbEntity
8
SK3
62
256
6
ByLayer
370
18
48
0.05
60
0
100
AcDbLine
10
-19.869798
20
9.0125
30
0
11
-20.869798
21
9.0125
31
0
39
0
210
0
220
0
230
1
0
LINE
5
A9
100
AcDbEntity
8
SK3
62
256
6
ByLayer
370
18
48
0.05
60
0
100
AcDbLine
10
-9
20
-8.5125
30
0
11
-9
21
8.5125
31
0
39
0
210
0
220
0
230
1
0
LINE
5
AA
100
AcDbEntity
8
SK3
62
256
6
ByLayer
370
18
48
0.05
60
0
100
AcDbLine
10
-9
20
8.5125
30
0
11
-9.204382
21
8.716882
31
0
39
0
210
0
220
0
230
1
0
LINE
5
AB
100
AcDbEntity
8
SK3
62
256
6
ByLayer
370
18
48
0.05
60
0
100
AcDbLine
10
-9.204382
20
-8.716882
30
0
11
-9
21
-8.5125
31
0
39
0
210
0
220
0
230
1
0
LINE
5
AC
100
AcDbEntity
8
SK3
62
256
6
ByLayer
370
18
48
0.05
60
0
100
AcDbLine
10
-9.5
20
8.940647
30
0
11
-9.5
21
-8.940646
31
0
39
0
210
0
220
0
230
1
0
LINE
5
AD
100
AcDbEntity
8
SK3
62
256
6
ByLayer
370
18
48
0.05
60
0
100
AcDbLine
10
-16.069798
20
-9.0125
30
0
11
-13.792373
21
-9.0125
31
0
39
0
210
0
220
0
230
1
0
LINE
5
AE
100
AcDbEntity
8
SK3
62
256
6
ByLayer
370
18
48
0.05
60
0
100
AcDbLine
10
-13.792373
20
9.0125
30
0
11
-16.069798
21
9.0125
31
0
39
0
210
0
220
0
230
1
0
LINE
5
AF
100
AcDbEntity
8
SK3
62
256
6
ByLayer
370
18
48
0.05
60
0
100
AcDbLine
10
-19.869798
20
-9.0125
30
0
11
-19.869798
21
9.0125
31
0
39
0
210
0
220
0
230
1
0
LINE
5
B0
100
AcDbEntity
8
SK3
62
256
6
ByLayer
370
18
48
0.05
60
0
100
AcDbLine
10
-19.869798
20
-9.0125
30
0
11
-19.469798
21
-9.24344
31
0
39
0
210
0
220
0
230
1
0
LINE
5
B1
100
AcDbEntity
8
SK3
62
256
6
ByLayer
370
18
48
0.05
60
0
100
AcDbLine
10
-19.469798
20
9.24344
30
0
11
-19.869798
21
9.0125
31
0
39
0
210
0
220
0
230
1
0
LINE
5
B2
100
AcDbEntity
8
SK3
62
256
6
ByLayer
370
18
48
0.05
60
0
100
AcDbLine
10
-20.869798
20
-9.0125
30
0
11
-20.869798
21
9.0125
31
0
39
0
210
0
220
0
230
1
0
LINE
5
B3
100
AcDbEntity
8
SK3
62
256
6
ByLayer
370
18
48
0.05
60
0
100
AcDbLine
10
-20.869798
20
9.0125
30
0
11
-22.969798
21
9.575194
31
0
39
0
210
0
220
0
230
1
0
LINE
5
B4
100
AcDbEntity
8
SK3
62
256
6
ByLayer
370
18
48
0.05
60
0
100
AcDbLine
10
-22.969798
20
-9.575193
30
0
11
-20.869798
21
-9.0125
31
0
39
0
210
0
220
0
230
1
0
LINE
5
B5
100
AcDbEntity
8
SK3
62
256
6
ByLayer
370
18
48
0.05
60
0
100
AcDbLine
10
-16.069798
20
-9.0125
30
0
11
-16.069798
21
9.0125
31
0
39
0
210
0
220
0
230
1
0
LINE
5
B6
100
AcDbEntity
8
SK3
62
256
6
ByLayer
370
18
48
0.05
60
0
100
AcDbLine
10
-16.069798
20
9.0125
30
0
11
-16.779049
21
9.721752
31
0
39
0
210
0
220
0
230
1
0
LINE
5
B7
100
AcDbEntity
8
SK3
62
256
6
ByLayer
370
18
48
0.05
60
0
100
AcDbLine
10
-16.779049
20
-9.721751
30
0
11
-16.069798
21
-9.0125
31
0
39
0
210
0
220
0
230
1
0
LINE
5
B8
100
AcDbEntity
8
SK3
62
256
6
ByLayer
370
18
48
0.05
60
0
100
AcDbLine
10
-18.5397
20
-10
30
0
11
-17.450801
21
-10
31
0
39
0
210
0
220
0
230
1
0
LINE
5
B9
100
AcDbEntity
8
SK3
62
256
6
ByLayer
370
18
48
0.05
60
0
100
AcDbLine
10
-17.450801
20
10
30
0
11
-18.5397
21
10
31
0
39
0
210
0
220
0
230
1
0
LINE
5
BA
100
AcDbEntity
8
SK3
62
256
6
ByLayer
370
18
48
0.05
60
0
100
AcDbLine
10
-18.5397
20
-10
30
0
11
-18.5397
21
10
31
0
39
0
210
0
220
0
230
1
0
LINE
5
BB
100
AcDbEntity
8
SK3
62
256
6
ByLayer
370
18
48
0.05
60
0
100
AcDbLine
10
-19.469798
20
-9.24344
30
0
11
-19.469798
21
9.24344
31
0
39
0
210
0
220
0
230
1
0
LINE
5
BC
100
AcDbEntity
8
1
62
256
6
ByLayer
370
18
48
1
60
0
100
AcDbLine
10
9.336602
20
-19.024574
30
0
11
9.336602
21
-6.16973
31
0
39
0
210
0
220
0
230
1
0
LINE
5
BD
100
AcDbEntity
8
1
62
256
6
ByLayer
370
18
48
1
60
0
100
AcDbLine
10
9.076794
20
-19.122282
30
0
11
9.076794
21
-5.859889
31
0
39
0
210
0
220
0
230
1
0
LINE
5
BE
100
AcDbEntity
8
1
62
256
6
ByLayer
370
18
48
1
60
0
100
AcDbLine
10
6.923205
20
-19.122282
30
0
11
6.923205
21
-5.859889
31
0
39
0
210
0
220
0
230
1
0
LINE
5
BF
100
AcDbEntity
8
1
62
256
6
ByLayer
370
18
48
1
60
0
100
AcDbLine
10
6.663397
20
-19.024574
30
0
11
6.663397
21
-6.16973
31
0
39
0
210
0
220
0
230
1
0
LINE
5
C0
100
AcDbEntity
8
1
62
256
6
ByLayer
370
18
48
1
60
0
100
AcDbLine
10
9.336602
20
6.16973
30
0
11
9.336602
21
19.024575
31
0
39
0
210
0
220
0
230
1
0
LINE
5
C1
100
AcDbEntity
8
1
62
256
6
ByLayer
370
18
48
1
60
0
100
AcDbLine
10
9.076794
20
5.85989
30
0
11
9.076794
21
19.122283
31
0
39
0
210
0
220
0
230
1
0
LINE
5
C2
100
AcDbEntity
8
1
62
256
6
ByLayer
370
18
48
1
60
0
100
AcDbLine
10
9.076794
20
-19.122282
30
0
11
6.923205
21
-19.122282
31
0
39
0
210
0
220
0
230
1
0
LINE
5
C3
100
AcDbEntity
8
1
62
256
6
ByLayer
370
18
48
1
60
0
100
AcDbLine
10
6.923205
20
-5.859889
30
0
11
9.076794
21
-5.859889
31
0
39
0
210
0
220
0
230
1
0
LINE
5
C4
100
AcDbEntity
8
1
62
256
6
ByLayer
370
18
48
1
60
0
100
AcDbLine
10
9.076794
20
5.85989
30
0
11
6.923205
21
5.85989
31
0
39
0
210
0
220
0
230
1
0
LINE
5
C5
100
AcDbEntity
8
1
62
256
6
ByLayer
370
18
48
1
60
0
100
AcDbLine
10
6.923205
20
19.122283
30
0
11
9.076794
21
19.122283
31
0
39
0
210
0
220
0
230
1
0
LINE
5
C6
100
AcDbEntity
8
1
62
256
6
ByLayer
370
18
48
1
60
0
100
AcDbLine
10
0.3
20
-20
30
0
11
10.00613
21
-20
31
0
39
0
210
0
220
0
230
1
0
LINE
5
C7
100
AcDbEntity
8
1
62
256
6
ByLayer
370
18
48
1
60
0
100
AcDbLine
10
14
20
-20
30
0
11
18.5
21
-20
31
0
39
0
210
0
220
0
230
1
0
LINE
5
C8
100
AcDbEntity
8
1
62
256
6
ByLayer
370
18
48
1
60
0
100
AcDbLine
10
18.5
20
20
30
0
11
0.3
21
20
31
0
39
0
210
0
220
0
230
1
0
LINE
5
C9
100
AcDbEntity
8
1
62
256
6
ByLayer
370
18
48
1
60
0
100
AcDbLine
10
0
20
19.7
30
0
11
0
21
0
31
0
39
0
210
0
220
0
230
1
0
LINE
5
CA
100
AcDbEntity
8
1
62
256
6
ByLayer
370
18
48
1
60
0
100
AcDbLine
10
0
20
0
30
0
11
0
21
-19.7
31
0
39
0
210
0
220
0
230
1
0
LINE
5
CB
100
AcDbEntity
8
1
62
256
6
ByLayer
370
18
48
1
60
0
100
AcDbLine
10
0.3
20
-20
30
0
11
0.3
21
0
31
0
39
0
210
0
220
0
230
1
0
LINE
5
CC
100
AcDbEntity
8
1
62
256
6
ByLayer
370
18
48
1
60
0
100
AcDbLine
10
0.3
20
0
30
0
11
0.3
21
20
31
0
39
0
210
0
220
0
230
1
0
LINE
5
CD
100
AcDbEntity
8
1
62
256
6
ByLayer
370
18
48
1
60
0
100
AcDbLine
10
0
20
-19.7
30
0
11
0.3
21
-20
31
0
39
0
210
0
220
0
230
1
0
LINE
5
CE
100
AcDbEntity
8
SK4
62
256
6
ByLayer
370
18
48
0.05
60
0
100
AcDbLine
10
24
20
0
30
0
11
-29
21
0
31
0
39
0
210
0
220
0
230
1
0
LINE
5
D0
100
AcDbEntity
8
4
62
256
6
ByLayer
370
18
48
0.05
60
0
100
AcDbLine
10
0
20
0
30
0
11
19.000031
21
0
31
0
39
0
210
0
220
0
230
1
0
LINE
5
D2
100
AcDbEntity
8
80
62
256
6
ByLayer
370
18
48
1
60
0
100
AcDbLine
10
0
20
0
30
0
11
-2
21
0
31
0
39
0
210
0
220
0
230
1
0
LINE
5
D3
100
AcDbEntity
8
81
62
256
6
ByLayer
370
18
48
1
60
0
100
AcDbLine
10
10.5
20
0
30
0
11
12.5
21
0
31
0
39
0
210
0
220
0
230
1
0
MTEXT
5
113
100
AcDbEntity
8
SK6
62
256
6
ByLayer
370
18
48
1
60
0
100
AcDbMText
10
-9.557306
20
-38.352314
30
0
210
0
220
0
230
1
1
\W0.8463;C4_CPA_01
40
3.5
41
0
44
1.084337
50
0
71
7
72
5
7
iso_b_vert
0
DIMENSION
5
118
100
AcDbEntity
8
2
62
256
6
ByLayer
370
18
48
1
60
0
100
AcDbDimension
2
_U0
10
19
20
28.565394
30
0
11
9.5
21
28.565394
31
0
70
32
71
1
72
1
41
1
210
0
220
0
230
1
3
Standard
100
AcDbAlignedDimension
13
0
23
19.7
33
0
14
19
24
19.5
34
0
50
0
100
AcDbRotatedDimension
1001
ACAD
1000
DSTYLE
1002
{
1070
   371
1070
    13
1070
   372
1070
    13
1070
   170
1070
     0
1070
   144
1040
1.0
1070
   277
1070
     2
1070
   284
1070
     8
1070
   278
1070
    46
1070
   146
1040
1.166667
1070
   345
1005
16
1070
   347
1005
16
1070
   346
1005
16
1070
   344
1005
119
1070
   343
1005
119
1070
   172
1070
     1
1070
    76
1070
     0
1070
    75
1070
     0
1070
   282
1070
     0
1070
   281
1070
     0
1070
    71
1070
     0
1070
    74
1070
     0
1070
   279
1070
     0
1070
   173
1070
     1
1070
   340
1005
114
1070
   271
1070
     2
1070
   272
1070
     2
1070
    77
1070
     1
1070
    73
1070
     1
1070
   171
1070
     3
1070
   274
1070
     4
1070
   177
1070
     7
1070
   176
1070
     7
1070
   178
1070
     7
1070
    78
1070
     8
1070
    48
1040
-0.1
1070
    41
1040
3.175
1070
   147
1040
1.5
1070
    42
1040
1.5875
1070
    44
1040
2.0
1070
   140
1040
3.0
1002
}
1001
ACAD_DSTYLE_DIM_LINETYPE
1070
   380
1005
16
1001
ACAD_DSTYLE_DIM_EXT1_LINETYPE
1070
   381
1005
16
1001
ACAD_DSTYLE_DIM_EXT2_LINETYPE
1070
   382
1005
16
0
DIMENSION
5
13D
100
AcDbEntity
8
SK2
62
256
6
ByLayer
370
18
48
1
60
0
100
AcDbDimension
2
_U1
10
19
20
-25.50687
30
0
11
32.992857
21
-25.50687
31
0
70
32
71
1
72
1
41
1
210
0
220
0
230
1
3
Standard
100
AcDbAlignedDimension
13
18.5
23
-20
33
0
14
19
24
-19.5
34
0
50
0
100
AcDbRotatedDimension
1001
ACAD
1000
DSTYLE
1002
{
1070
   371
1070
    13
1070
   372
1070
    13
1070
   170
1070
     0
1070
   144
1040
1.0
1070
   277
1070
     2
1070
   284
1070
     8
1070
   278
1070
    46
1070
   146
1040
1.166667
1070
   345
1005
16
1070
   347
1005
16
1070
   346
1005
16
1070
   344
1005
119
1070
   343
1005
119
1070
   172
1070
     1
1070
    76
1070
     0
1070
    75
1070
     0
1070
   282
1070
     0
1070
   281
1070
     0
1070
    71
1070
     0
1070
    74
1070
     0
1070
   279
1070
     0
1070
   173
1070
     1
1070
   340
1005
114
1070
   271
1070
     2
1070
   272
1070
     2
1070
    77
1070
     1
1070
    73
1070
     1
1070
   171
1070
     3
1070
   274
1070
     4
1070
   177
1070
     7
1070
   176
1070
     7
1070
   178
1070
     7
1070
    78
1070
     8
1070
    48
1040
-0.1
1070
    41
1040
3.175
1070
   147
1040
1.5
1070
    42
1040
1.5875
1070
    44
1040
2.0
1070
   140
1040
3.0
1002
}
1001
ACAD_DSTYLE_DIM_LINETYPE
1070
   380
1005
16
1001
ACAD_DSTYLE_DIM_EXT1_LINETYPE
1070
   381
1005
16
1001
ACAD_DSTYLE_DIM_EXT2_LINETYPE
1070
   382
1005
16
0
DIMENSION
5
15C
100
AcDbEntity
8
SK2
62
256
6
ByLayer
370
18
48
1
60
0
100
AcDbDimension
2
_U2
10
36.114793
20
-20
30
0
11
36.114793
21
0
31
0
70
32
71
1
72
1
41
1
210
0
220
0
230
1
3
Standard
100
AcDbAlignedDimension
13
18.5
23
20
33
0
14
18.5
24
-20
34
0
50
-90
100
AcDbRotatedDimension
1001
ACAD
1000
DSTYLE
1002
{
1070
   371
1070
    13
1070
   372
1070
    13
1070
     3
1000
%%c<>
1070
   170
1070
     0
1070
   144
1040
1.0
1070
   277
1070
     2
1070
   284
1070
     8
1070
   278
1070
    46
1070
   146
1040
1.166667
1070
   345
1005
16
1070
   347
1005
16
1070
   346
1005
16
1070
   344
1005
119
1070
   343
1005
119
1070
   172
1070
     1
1070
    76
1070
     0
1070
    75
1070
     0
1070
   282
1070
     0
1070
   281
1070
     0
1070
    71
1070
     0
1070
    74
1070
     0
1070
   279
1070
     0
1070
   173
1070
     1
1070
   340
1005
114
1070
   271
1070
     2
1070
   272
1070
     2
1070
    77
1070
     1
1070
    73
1070
     0
1070
   171
1070
     3
1070
   274
1070
     4
1070
   177
1070
     7
1070
   176
1070
     7
1070
   178
1070
     7
1070
    78
1070
     8
1070
    48
1040
-0.1
1070
    41
1040
3.175
1070
   147
1040
1.5
1070
    42
1040
1.5875
1070
    44
1040
2.0
1070
   140
1040
3.0
1002
}
1001
ACAD_DSTYLE_DIM_LINETYPE
1070
   380
1005
16
1001
ACAD_DSTYLE_DIM_EXT1_LINETYPE
1070
   381
1005
16
1001
ACAD_DSTYLE_DIM_EXT2_LINETYPE
1070
   382
1005
16
0
ENDSEC
0
SECTION
2
OBJECTS
0
DICTIONARY
5
1ea
330
0
100
AcDbDictionary
280
0
281
1
3
ACAD_GROUP
350
1eb
3
ACAD_MLINESTYLE
350
1ec
0
DICTIONARY
5
1eb
330
0
100
AcDbDictionary
280
0
281
1
0
DICTIONARY
5
1ec
330
0
100
AcDbDictionary
280
0
281
1
3
Standard
350
18
0
MLINESTYLE
5
18
330
1ec
100
AcDbMlineStyle
2
Standard
70
0
3

62
256
51
90
52
90
71
2
49
-0.5
62
256
6
ByLayer
49
0.5
62
256
6
ByLayer
0
RASTERVARIABLES
5
1d7
330

100
AcDbRasterVariables
90
0
70
1
71
1
72
1
0
ENDSEC
0
EOF
